  0
SECTION
  2
HEADER
  9
$ACADVER
  1
AC1015
  9
$DWGCODEPAGE
  3
ANSI_1252
  9
$EXTMAX
 10
297.0
 20
210.0
 30
0.0
  9
$EXTMIN
 10
0.0
 20
0.0
 30
0.0
  9
$LIMMIN
 10
0.0
 20
0.0
  9
$LIMMAX
 10
297.0
 20
210.0
  9
$VIEWCTR
 10
148.5
 20
105.0
  9
$VIEWSIZE
 40
210.0
  9
$CLAYER
  8
0
  9
$LTSCALE
 40
16.335
  9
$CELTYPE
  6
BYLAYER
  9
$DIMSCALE
 40
1.0
  9
$DIMASZ
 40
3.0
  9
$DIMEXO
 40
1.85625
  9
$DIMDLI
 40
11.286
  9
$DIMEXE
 40
5.346
  9
$DIMCEN
 40
2.673
  9
$DIMLFAC
 40
1.0
  9
$DIMBLK
  1
_FILLED
  9
$DIMTXT
 40
3.0
  9
$DIMTOL
 70
1
  9
$DIMLIM
 70
0
  9
$DIMTFAC
 40
1.0
  9
$DIMTP
 40
0.01
  9
$DIMTM
 40
0.01
  9
$PDMODE
 70
3
  9
$PDSIZE
 40
3.0
  9
$HANDSEED
  5
5A0
  9
$TILEMODE
 70
1
  9
$MEASUREMENT
 70
1
  9
$INSUNITS
 70
4
  0
ENDSEC
  0
SECTION
  2
CLASSES
  0
CLASS
  1
ACDBDICTIONARYWDFLT
  2
AcDbDictionaryWithDefault
  3
AutoCAD 2000
 90
0
280
0
281
0
  0
CLASS
  1
ACDBPLACEHOLDER
  2
AcDbPlaceHolder
  3
AutoCAD 2000
 90
0
280
0
281
0
  0
CLASS
  1
LAYOUT
  2
AcDbLayout
  3
AutoCAD 2000
 90
0
280
0
281
0
  0
ENDSEC
  0
SECTION
  2
TABLES
  0
TABLE
  2
VPORT
  5
8
100
AcDbSymbolTable
 70
2
  0
VPORT
  5
1F4
100
AcDbSymbolTableRecord
100
AcDbViewportTableRecord
  2
*ACTIVE
 70
0
 10
0.0
 20
0.0
 11
1.0
 21
1.0
 12
148.5
 22
105.0
 13
0.0
 23
0.0
 14
1.0
 24
1.0
 15
0.0
 25
0.0
 16
0.0
 26
0.0
 36
1.0
 17
0.0
 27
0.0
 37
0.0
 40
210.0
 41
1.4142857143
 42
50.0
 43
0.0
 44
0.0
 50
0.0
 51
0.0
 71
0
 72
100
 73
1
 74
1
 75
0
 76
0
 77
0
 78
0
  0
ENDTAB
  0
TABLE
  2
LTYPE
  5
5
100
AcDbSymbolTable
 70
6
  0
LTYPE
  5
14
100
AcDbSymbolTableRecord
100
AcDbLinetypeTableRecord
  2
BYBLOCK
 70
0
  3

 72
65
 73
0
 40
0.0
  0
LTYPE
  5
15
100
AcDbSymbolTableRecord
100
AcDbLinetypeTableRecord
  2
BYLAYER
 70
0
  3

 72
65
 73
0
 40
0.0
  0
LTYPE
  5
16
100
AcDbSymbolTableRecord
100
AcDbLinetypeTableRecord
  2
CONTINUOUS
 70
64
  3
Solid line
 72
65
 73
0
 40
0.0
  0
LTYPE
  5
1F5
100
AcDbSymbolTableRecord
100
AcDbLinetypeTableRecord
  2
CENTER
 70
64
  3
____ _ ____ _ ____ _ ____ _ ____ _ ____ _ ____
 72
65
 73
4
 40
0.6
 49
0.375
 74
0
 49
-0.075
 74
0
 49
0.075
 74
0
 49
-0.075
 74
0
  0
LTYPE
  5
1F6
100
AcDbSymbolTableRecord
100
AcDbLinetypeTableRecord
  2
HIDDEN
 70
64
  3
- - - - - - - - - - - - - - - - - - - -
 72
65
 73
2
 40
0.2
 49
0.1
 74
0
 49
-0.1
 74
0
  0
LTYPE
  5
1F7
100
AcDbSymbolTableRecord
100
AcDbLinetypeTableRecord
  2
PHANTOM
 70
64
  3
_____ _ _ _____ _ _ _____ _ _ _____
 72
65
 73
6
 40
0.8
 49
0.45
 74
0
 49
-0.05
 74
0
 49
0.1
 74
0
 49
-0.05
 74
0
 49
0.1
 74
0
 49
-0.05
 74
0
  0
LTYPE
  5
1F8
100
AcDbSymbolTableRecord
100
AcDbLinetypeTableRecord
  2
DOT
 70
64
  3
. . . . . . . . . . . . . . . . . . . .
 72
65
 73
2
 40
0.2
 49
0.1
 74
0
 49
-0.1
 74
0
  0
LTYPE
  5
1F9
100
AcDbSymbolTableRecord
100
AcDbLinetypeTableRecord
  2
DASHED
 70
64
  3
- - - - - - - - - - - - - - - - - - - -
 72
65
 73
2
 40
0.2
 49
0.1
 74
0
 49
-0.1
 74
0
  0
ENDTAB
  0
TABLE
  2
LAYER
  5
2
100
AcDbSymbolTable
 70
36
  0
LAYER
  5
10
100
AcDbSymbolTableRecord
100
AcDbLayerTableRecord
  2
0
 70
0
 62
7
  6
CONTINUOUS
370
-3
390
F
  0
LAYER
  5
1FA
100
AcDbSymbolTableRecord
100
AcDbLayerTableRecord
  2
DEFAULT_1
 70
0
 62
7
  6
CENTER
370
-3
390
F
  0
LAYER
  5
1FB
100
AcDbSymbolTableRecord
100
AcDbLayerTableRecord
  2
DEFAULT_2
 70
0
 62
7
  6
HIDDEN
370
-3
390
F
  0
LAYER
  5
1FC
100
AcDbSymbolTableRecord
100
AcDbLayerTableRecord
  2
DEFAULT_3
 70
0
 62
7
  6
PHANTOM
370
-3
390
F
  0
LAYER
  5
1FD
100
AcDbSymbolTableRecord
100
AcDbLayerTableRecord
  2
ASSI
 70
0
 62
7
  6
CONTINUOUS
370
-3
390
F
  0
LAYER
  5
1FE
100
AcDbSymbolTableRecord
100
AcDbLayerTableRecord
  2
COLOR5
 70
0
 62
7
  6
CONTINUOUS
370
-3
390
F
  0
LAYER
  5
1FF
100
AcDbSymbolTableRecord
100
AcDbLayerTableRecord
  2
COORDINATE
 70
0
 62
7
  6
CONTINUOUS
370
-3
390
F
  0
LAYER
  5
200
100
AcDbSymbolTableRecord
100
AcDbLayerTableRecord
  2
COORD_ORIGINE
 70
0
 62
7
  6
CONTINUOUS
370
-3
390
F
  0
LAYER
  5
201
100
AcDbSymbolTableRecord
100
AcDbLayerTableRecord
  2
COPY_PUBLISH
 70
0
 62
7
  6
CONTINUOUS
370
-3
390
F
  0
LAYER
  5
202
100
AcDbSymbolTableRecord
100
AcDbLayerTableRecord
  2
COSMETIC
 70
0
 62
7
  6
CONTINUOUS
370
-3
390
F
  0
LAYER
  5
203
100
AcDbSymbolTableRecord
100
AcDbLayerTableRecord
  2
CURVE
 70
0
 62
7
  6
CONTINUOUS
370
-3
390
F
  0
LAYER
  5
204
100
AcDbSymbolTableRecord
100
AcDbLayerTableRecord
  2
DRAFT
 70
0
 62
7
  6
CONTINUOUS
370
-3
390
F
  0
LAYER
  5
205
100
AcDbSymbolTableRecord
100
AcDbLayerTableRecord
  2
IMPORT_IGES
 70
0
 62
7
  6
CONTINUOUS
370
-3
390
F
  0
LAYER
  5
206
100
AcDbSymbolTableRecord
100
AcDbLayerTableRecord
  2
INTFCLR_1
 70
0
 62
7
  6
CONTINUOUS
370
-3
390
F
  0
LAYER
  5
207
100
AcDbSymbolTableRecord
100
AcDbLayerTableRecord
  2
INTFCLR_3
 70
0
 62
7
  6
CONTINUOUS
370
-3
390
F
  0
LAYER
  5
208
100
AcDbSymbolTableRecord
100
AcDbLayerTableRecord
  2
INTF_1
 70
0
 62
7
  6
CONTINUOUS
370
-3
390
F
  0
LAYER
  5
209
100
AcDbSymbolTableRecord
100
AcDbLayerTableRecord
  2
INTF_15
 70
0
 62
7
  6
CONTINUOUS
370
-3
390
F
  0
LAYER
  5
20A
100
AcDbSymbolTableRecord
100
AcDbLayerTableRecord
  2
INTF_16
 70
0
 62
7
  6
CONTINUOUS
370
-3
390
F
  0
LAYER
  5
20B
100
AcDbSymbolTableRecord
100
AcDbLayerTableRecord
  2
NOTE
 70
0
 62
7
  6
CONTINUOUS
370
-3
390
F
  0
LAYER
  5
20C
100
AcDbSymbolTableRecord
100
AcDbLayerTableRecord
  2
PIANI
 70
0
 62
7
  6
CONTINUOUS
370
-3
390
F
  0
LAYER
  5
20D
100
AcDbSymbolTableRecord
100
AcDbLayerTableRecord
  2
PIANI_DI_RIFERIMENTO
 70
0
 62
7
  6
CONTINUOUS
370
-3
390
F
  0
LAYER
  5
20E
100
AcDbSymbolTableRecord
100
AcDbLayerTableRecord
  2
PIANI_ORIGINE
 70
0
 62
7
  6
CONTINUOUS
370
-3
390
F
  0
LAYER
  5
20F
100
AcDbSymbolTableRecord
100
AcDbLayerTableRecord
  2
PIANI_RIFERIMENTO
 70
0
 62
7
  6
CONTINUOUS
370
-3
390
F
  0
LAYER
  5
210
100
AcDbSymbolTableRecord
100
AcDbLayerTableRecord
  2
PUNTI
 70
0
 62
7
  6
CONTINUOUS
370
-3
390
F
  0
LAYER
  5
211
100
AcDbSymbolTableRecord
100
AcDbLayerTableRecord
  2
RACCORDO
 70
0
 62
7
  6
CONTINUOUS
370
-3
390
F
  0
LAYER
  5
212
100
AcDbSymbolTableRecord
100
AcDbLayerTableRecord
  2
SMUSSO
 70
0
 62
7
  6
CONTINUOUS
370
-3
390
F
  0
LAYER
  5
213
100
AcDbSymbolTableRecord
100
AcDbLayerTableRecord
  2
SNAPLINE
 70
0
 62
7
  6
CONTINUOUS
370
-3
390
F
  0
LAYER
  5
214
100
AcDbSymbolTableRecord
100
AcDbLayerTableRecord
  2
SUPERFICI
 70
0
 62
7
  6
CONTINUOUS
370
-3
390
F
  0
LAYER
  5
215
100
AcDbSymbolTableRecord
100
AcDbLayerTableRecord
  2
SUPERFICI_SKEL
 70
0
 62
7
  6
CONTINUOUS
370
-3
390
F
  0
LAYER
  5
216
100
AcDbSymbolTableRecord
100
AcDbLayerTableRecord
  2
TRASH
 70
0
 62
7
  6
CONTINUOUS
370
-3
390
F
  0
LAYER
  5
217
100
AcDbSymbolTableRecord
100
AcDbLayerTableRecord
  2
XSEC_DATUMS
 70
0
 62
7
  6
CONTINUOUS
370
-3
390
F
  0
ENDTAB
  0
TABLE
  2
STYLE
  5
3
100
AcDbSymbolTable
 70
1
  0
STYLE
  5
11
100
AcDbSymbolTableRecord
100
AcDbTextStyleTableRecord
  2
STANDARD
 70
0
 40
0.0
 41
0.8
 50
0.0
 71
0
 42
0.2
  3
txt
  4

  0
STYLE
  5
218
100
AcDbSymbolTableRecord
100
AcDbTextStyleTableRecord
  2
TEXTSTYLE_1
 70
0
 40
0.0
 41
0.8
 50
0.0
 71
0
 42
0.2
  3
gdt
  4

  0
ENDTAB
  0
TABLE
  2
VIEW
  5
6
100
AcDbSymbolTable
 70
0
  0
ENDTAB
  0
TABLE
  2
UCS
  5
7
100
AcDbSymbolTable
 70
0
  0
ENDTAB
  0
TABLE
  2
APPID
  5
9
100
AcDbSymbolTable
 70
1
  0
APPID
  5
219
100
AcDbSymbolTableRecord
100
AcDbRegAppTableRecord
  2
ACAD
 70
0
  0
ENDTAB
  0
TABLE
  2
BLOCK_RECORD
  5
1
100
AcDbSymbolTable
 70
0
  0
BLOCK_RECORD
  5
21A
100
AcDbSymbolTableRecord
100
AcDbBlockTableRecord
  2
*Model_Space
  0
BLOCK_RECORD
  5
21B
100
AcDbSymbolTableRecord
100
AcDbBlockTableRecord
  2
*Paper_Space
  0
BLOCK_RECORD
  5
21C
100
AcDbSymbolTableRecord
100
AcDbBlockTableRecord
  2
_FILLED
  0
BLOCK_RECORD
  5
21D
100
AcDbSymbolTableRecord
100
AcDbBlockTableRecord
  2
*D0
  0
BLOCK_RECORD
  5
21E
100
AcDbSymbolTableRecord
100
AcDbBlockTableRecord
  2
*D1
  0
BLOCK_RECORD
  5
21F
100
AcDbSymbolTableRecord
100
AcDbBlockTableRecord
  2
*D2
  0
BLOCK_RECORD
  5
220
100
AcDbSymbolTableRecord
100
AcDbBlockTableRecord
  2
*D3
  0
ENDTAB
  0
TABLE
  2
DIMSTYLE
  5
A
100
AcDbSymbolTable
 70
1
100
AcDbDimStyleTable
 71
0
  0
DIMSTYLE
105
221
100
AcDbSymbolTableRecord
100
AcDbDimStyleTableRecord
  2
STANDARD
 70
0
  3

  4

 40
1.0
 41
3.0
 42
0.0625
 43
0.38
 44
0.18
 45
0.0
 46
0.0
 47
0.01
 48
0.01
140
3.0
141
0.09
142
0.0
143
25.4
144
1.0
145
0.0
146
1.0
147
0.09
 71
1.0
 72
0.0
 73
0
 74
0
 75
0
 76
0
 77
1
 78
8
170
0
171
2
172
0
173
0
174
0
175
0
176
0
177
0
178
0
270
2
271
2
272
2
273
2
274
2
275
0
280
0
281
0
282
0
283
1
284
8
285
0
286
0
287
3
288
0
340
11
341
21C
342
21C
343
21C
344
21C
  0
DIMSTYLE
105
222
100
AcDbSymbolTableRecord
100
AcDbDimStyleTableRecord
  2
DIMSTYLE_1
 70
0
  3

  4

 40
1.0
 41
3.0
 42
0.0625
 43
0.38
 44
0.18
 45
0.0
 46
0.0
 47
0.0
 48
0.0
140
3.0
141
0.09
142
0.0
143
25.4
144
1.0
145
0.0
146
1.0
147
0.09
 71
0.0
 72
0.0
 73
0
 74
0
 75
0
 76
0
 77
1
 78
8
170
0
171
2
172
0
173
0
174
0
175
0
176
0
177
0
178
0
270
2
271
1
272
1
273
2
274
2
275
0
280
0
281
0
282
0
283
1
284
8
285
0
286
0
287
3
288
0
340
11
341
21C
342
21C
343
21C
344
21C
  0
DIMSTYLE
105
223
100
AcDbSymbolTableRecord
100
AcDbDimStyleTableRecord
  2
DIMSTYLE_2
 70
0
  3

  4

 40
1.0
 41
3.0
 42
0.0625
 43
0.38
 44
0.18
 45
0.0
 46
0.0
 47
0.0
 48
0.0
140
3.0
141
0.09
142
0.0
143
25.4
144
1.0
145
0.0
146
1.0
147
0.09
 71
0.0
 72
0.0
 73
0
 74
0
 75
0
 76
0
 77
1
 78
8
170
0
171
2
172
0
173
0
174
0
175
0
176
0
177
0
178
0
270
2
271
2
272
2
273
2
274
2
275
0
280
0
281
0
282
0
283
1
284
8
285
0
286
0
287
3
288
0
340
11
341
21C
342
21C
343
21C
344
21C
  0
ENDTAB
  0
ENDSEC
  0
SECTION
  2
BLOCKS
  0
BLOCK
  5
20
100
AcDbEntity
  8
0
100
AcDbBlockBegin
  2
*Model_Space
 70
0
 10
0.0
 20
0.0
 30
0.0
  3
*Model_Space
  1

  0
ENDBLK
  5
21
100
AcDbEntity
  8
0
100
AcDbBlockEnd
  0
BLOCK
  5
1C
100
AcDbEntity
  8
0
100
AcDbBlockBegin
  2
*Paper_Space
 70
0
 10
0.0
 20
0.0
 30
0.0
  3
*Paper_Space
  1

  0
ENDBLK
  5
1D
100
AcDbEntity
  8
0
100
AcDbBlockEnd
  0
BLOCK
  5
224
100
AcDbEntity
  8
0
100
AcDbBlockBegin
  2
_FILLED
 70
64
 10
0.0
 20
0.0
  3
_FILLED
  1

  0
SOLID
  5
225
100
AcDbEntity
  8
0
  6
BYBLOCK
 62
0
100
AcDbTrace
 10
0.0
 20
0.0
 11
-1.0
 21
0.3166666667
 12
-1.0
 22
-0.3166666667
 13
-1.0
 23
-0.3166666667
  0
ENDBLK
  5
226
100
AcDbEntity
  8
0
  6
BYBLOCK
 62
0
100
AcDbBlockEnd
  0
BLOCK
  5
227
100
AcDbEntity
  8
0
100
AcDbBlockBegin
 62
7
  6
CONTINUOUS
  2
*D0
 70
65
 10
0.0
 20
0.0
  3
*D0
  1

  0
LINE
  5
228
100
AcDbEntity
  8
0
100
AcDbLine
 62
7
  6
CONTINUOUS
 10
-35.3444169108
 20
20.9226497308
 11
-35.3444169108
 21
36.8934565064
  0
LINE
  5
229
100
AcDbEntity
  8
0
100
AcDbLine
 62
7
  6
CONTINUOUS
 10
-19.0008590228
 20
12.3772972341
 11
-19.0008590228
 21
36.8934565064
  0
LINE
  5
22A
100
AcDbEntity
  8
0
100
AcDbLine
 62
7
  6
CONTINUOUS
 10
-35.3444169108
 20
35.3934565064
 11
-27.1726379668
 21
35.3934565064
  0
LINE
  5
22B
100
AcDbEntity
  8
0
100
AcDbLine
 62
7
  6
CONTINUOUS
 10
-19.0008590228
 20
35.3934565064
 11
-27.1726379668
 21
35.3934565064
  0
INSERT
  5
22C
100
AcDbEntity
  8
0
100
AcDbBlockReference
 62
7
  6
CONTINUOUS
  2
_FILLED
 10
-35.3444169108
 20
35.3934565064
 41
3.0
 42
3.0
 43
3.0
 50
180.0
  0
INSERT
  5
22D
100
AcDbEntity
  8
0
100
AcDbBlockReference
 62
7
  6
CONTINUOUS
  2
_FILLED
 10
-19.0008590228
 20
35.3934565064
 41
3.0
 42
3.0
 43
3.0
  0
ENDBLK
  5
22E
100
AcDbEntity
  8
0
  6
BYBLOCK
 62
0
100
AcDbBlockEnd
  0
BLOCK
  5
22F
100
AcDbEntity
  8
0
100
AcDbBlockBegin
 62
7
  6
CONTINUOUS
  2
*D1
 70
65
 10
0.0
 20
0.0
  3
*D1
  1

  0
LINE
  5
230
100
AcDbEntity
  8
0
100
AcDbLine
 62
7
  6
CONTINUOUS
 10
-19.0008590228
 20
12.3772972341
 11
-19.0008590228
 21
46.8934565064
  0
LINE
  5
231
100
AcDbEntity
  8
0
100
AcDbLine
 62
7
  6
CONTINUOUS
 10
-45.4132360085
 20
0.4999999984
 11
-45.4132360085
 21
46.8934565064
  0
LINE
  5
232
100
AcDbEntity
  8
0
100
AcDbLine
 62
7
  6
CONTINUOUS
 10
-19.0008590228
 20
45.3934565064
 11
-32.2070475157
 21
45.3934565064
  0
LINE
  5
233
100
AcDbEntity
  8
0
100
AcDbLine
 62
7
  6
CONTINUOUS
 10
-45.4132360085
 20
45.3934565064
 11
-32.2070475157
 21
45.3934565064
  0
INSERT
  5
234
100
AcDbEntity
  8
0
100
AcDbBlockReference
 62
7
  6
CONTINUOUS
  2
_FILLED
 10
-19.0008590228
 20
45.3934565064
 41
3.0
 42
3.0
 43
3.0
  0
INSERT
  5
235
100
AcDbEntity
  8
0
100
AcDbBlockReference
 62
7
  6
CONTINUOUS
  2
_FILLED
 10
-45.4132360085
 20
45.3934565064
 41
3.0
 42
3.0
 43
3.0
 50
180.0
  0
ENDBLK
  5
236
100
AcDbEntity
  8
0
  6
BYBLOCK
 62
0
100
AcDbBlockEnd
  0
BLOCK
  5
237
100
AcDbEntity
  8
0
100
AcDbBlockBegin
 62
7
  6
CONTINUOUS
  2
*D2
 70
65
 10
0.0
 20
0.0
  3
*D2
  1

  0
LINE
  5
238
100
AcDbEntity
  8
0
100
AcDbLine
 62
7
  6
CONTINUOUS
 10
-11.1
 20
21.5
 11
-11.1
 21
36.8934565064
  0
LINE
  5
239
100
AcDbEntity
  8
0
100
AcDbLine
 62
7
  6
CONTINUOUS
 10
11.1
 20
21.5
 11
11.1
 21
36.8934565064
  0
LINE
  5
23A
100
AcDbEntity
  8
0
100
AcDbLine
 62
7
  6
CONTINUOUS
 10
-11.1
 20
35.3934565064
 11
-0.0
 21
35.3934565064
  0
LINE
  5
23B
100
AcDbEntity
  8
0
100
AcDbLine
 62
7
  6
CONTINUOUS
 10
11.1
 20
35.3934565064
 11
-0.0
 21
35.3934565064
  0
INSERT
  5
23C
100
AcDbEntity
  8
0
100
AcDbBlockReference
 62
7
  6
CONTINUOUS
  2
_FILLED
 10
-11.1
 20
35.3934565064
 41
3.0
 42
3.0
 43
3.0
 50
180.0
  0
INSERT
  5
23D
100
AcDbEntity
  8
0
100
AcDbBlockReference
 62
7
  6
CONTINUOUS
  2
_FILLED
 10
11.1
 20
35.3934565064
 41
3.0
 42
3.0
 43
3.0
  0
ENDBLK
  5
23E
100
AcDbEntity
  8
0
  6
BYBLOCK
 62
0
100
AcDbBlockEnd
  0
BLOCK
  5
23F
100
AcDbEntity
  8
0
100
AcDbBlockBegin
 62
7
  6
CONTINUOUS
  2
*D3
 70
65
 10
0.0
 20
0.0
  3
*D3
  1

  0
LINE
  5
240
100
AcDbEntity
  8
0
100
AcDbLine
 62
7
  6
CONTINUOUS
 10
10.900030461
 20
24.5
 11
25.5859822641
 21
24.5
  0
LINE
  5
241
100
AcDbEntity
  8
0
100
AcDbLine
 62
7
  6
CONTINUOUS
 10
10.900030461
 20
-24.5
 11
25.5859822641
 21
-24.5
  0
LINE
  5
242
100
AcDbEntity
  8
0
100
AcDbLine
 62
7
  6
CONTINUOUS
 10
24.0859822641
 20
24.5
 11
24.0859822641
 21
0.0
  0
LINE
  5
243
100
AcDbEntity
  8
0
100
AcDbLine
 62
7
  6
CONTINUOUS
 10
24.0859822641
 20
-24.5
 11
24.0859822641
 21
0.0
  0
INSERT
  5
244
100
AcDbEntity
  8
0
100
AcDbBlockReference
 62
7
  6
CONTINUOUS
  2
_FILLED
 10
24.0859822641
 20
24.5
 41
3.0
 42
3.0
 43
3.0
 50
90.0
  0
INSERT
  5
245
100
AcDbEntity
  8
0
100
AcDbBlockReference
 62
7
  6
CONTINUOUS
  2
_FILLED
 10
24.0859822641
 20
-24.5
 41
3.0
 42
3.0
 43
3.0
 50
270.0
  0
ENDBLK
  5
246
100
AcDbEntity
  8
0
  6
BYBLOCK
 62
0
100
AcDbBlockEnd
  0
ENDSEC
  0
SECTION
  2
ENTITIES
  0
DIMENSION
  5
247
100
AcDbEntity
  8
0
100
AcDbDimension
 62
7
  6
CONTINUOUS
  2
*D0
 10
-19.0008590228
 20
35.3934565064
 11
-31.1369236811
 21
37.6434565064
 70
160
 71
2
 42
16.343557888
  3
DIMSTYLE_1
100
AcDbAlignedDimension
 13
-35.3444169108
 23
20.9226497308
 14
-19.0008590228
 24
12.3772972341
100
AcDbRotatedDimension
  0
DIMENSION
  5
248
100
AcDbEntity
  8
0
100
AcDbDimension
 62
7
  6
CONTINUOUS
  2
*D1
 10
-45.4132360085
 20
45.3934565064
 11
-36.5999046585
 21
47.6434565064
 70
160
 71
2
 42
26.4123769857
  3
DIMSTYLE_1
100
AcDbAlignedDimension
 13
-19.0008590228
 23
12.3772972341
 14
-45.4132360085
 24
0.4999999984
 50
180.0
100
AcDbRotatedDimension
  0
DIMENSION
  5
249
100
AcDbEntity
  8
0
100
AcDbDimension
 62
7
  6
CONTINUOUS
  2
*D2
 10
11.1
 20
35.3934565064
 11
-4.3928571429
 21
36.1434565064
 70
160
 71
2
 42
22.2
  3
DIMSTYLE_2
100
AcDbAlignedDimension
 13
-11.1
 23
21.5
 14
11.1
 24
21.5
100
AcDbRotatedDimension
  0
DIMENSION
  5
24A
100
AcDbEntity
  8
0
100
AcDbDimension
 62
7
  6
CONTINUOUS
  2
*D3
 10
24.0859822641
 20
-24.5
 11
23.3359822641
 21
-2.3571428571
 70
160
 71
2
 42
49.0
  3
DIMSTYLE_2
100
AcDbAlignedDimension
 13
10.900030461
 23
24.5
 14
10.900030461
 24
-24.5
 50
270.0
100
AcDbRotatedDimension
  0
LINE
  5
24B
100
AcDbEntity
  8
ASSI
100
AcDbLine
 62
7
  6
CONTINUOUS
 10
10.400030461
 20
-24.5
 11
7.399969539
 21
-24.5
  0
LINE
  5
24C
100
AcDbEntity
  8
ASSI
100
AcDbLine
 62
7
  6
CONTINUOUS
 10
-7.399969539
 20
-24.5
 11
-10.400030461
 21
-24.5
  0
LINE
  5
24D
100
AcDbEntity
  8
ASSI
100
AcDbLine
 62
253
  6
CONTINUOUS
 10
-10.3606804067
 20
-24.4606499457
 11
-7.4393195933
 21
-24.4606499457
  0
LINE
  5
24E
100
AcDbEntity
  8
ASSI
100
AcDbLine
 62
253
  6
CONTINUOUS
 10
7.4393195933
 20
-24.4606499457
 11
10.3606804067
 21
-24.4606499457
  0
LINE
  5
24F
100
AcDbEntity
  8
ASSI
100
AcDbLine
 62
253
  6
CONTINUOUS
 10
-10.5597924241
 20
-24.2106880219
 11
-7.2402075759
 21
-24.2106880219
  0
LINE
  5
250
100
AcDbEntity
  8
ASSI
100
AcDbLine
 62
253
  6
CONTINUOUS
 10
10.5597924241
 20
-24.2106880219
 11
7.2402075759
 21
-24.2106880219
  0
LINE
  5
251
100
AcDbEntity
  8
ASSI
100
AcDbLine
 62
7
  6
CONTINUOUS
 10
4.2000380762
 20
-24.0
 11
1.0499619238
 21
-24.0
  0
LINE
  5
252
100
AcDbEntity
  8
ASSI
100
AcDbLine
 62
7
  6
CONTINUOUS
 10
-1.0499619238
 20
-24.0
 11
-4.2000380762
 21
-24.0
  0
LINE
  5
253
100
AcDbEntity
  8
ASSI
100
AcDbLine
 62
253
  6
CONTINUOUS
 10
-4.1947406302
 20
-23.9947025539
 11
-1.0552593698
 21
-23.9947025539
  0
LINE
  5
254
100
AcDbEntity
  8
ASSI
100
AcDbLine
 62
253
  6
CONTINUOUS
 10
1.0552593698
 20
-23.9947025539
 11
4.1947406302
 21
-23.9947025539
  0
LINE
  5
255
100
AcDbEntity
  8
ASSI
100
AcDbLine
 62
253
  6
CONTINUOUS
 10
-8.7631293807
 20
-23.8443375673
 11
-7.2402075759
 21
-23.8443375673
  0
LINE
  5
256
100
AcDbEntity
  8
ASSI
100
AcDbLine
 62
253
  6
CONTINUOUS
 10
7.2402075759
 20
-23.8443375673
 11
8.7631293807
 21
-23.8443375673
  0
LINE
  5
257
100
AcDbEntity
  8
ASSI
100
AcDbLine
 62
253
  6
CONTINUOUS
 10
-10.5597924241
 20
-23.8443375673
 11
-9.0368706193
 21
-23.8443375673
  0
LINE
  5
258
100
AcDbEntity
  8
ASSI
100
AcDbLine
 62
253
  6
CONTINUOUS
 10
9.0368706193
 20
-23.8443375673
 11
10.5597924241
 21
-23.8443375673
  0
LINE
  5
259
100
AcDbEntity
  8
ASSI
100
AcDbLine
 62
253
  6
CONTINUOUS
 10
-4.1947406302
 20
-23.7947330149
 11
-1.0552593698
 21
-23.7947330149
  0
LINE
  5
25A
100
AcDbEntity
  8
ASSI
100
AcDbLine
 62
253
  6
CONTINUOUS
 10
1.0552593698
 20
-23.7947330149
 11
4.1947406302
 21
-23.7947330149
  0
LINE
  5
25B
100
AcDbEntity
  8
ASSI
100
AcDbLine
 62
253
  6
CONTINUOUS
 10
-1.0052669851
 20
-23.7447406302
 11
-0.8052974461
 21
-23.7447406302
  0
LINE
  5
25C
100
AcDbEntity
  8
ASSI
100
AcDbLine
 62
253
  6
CONTINUOUS
 10
1.0052669851
 20
-23.7447406302
 11
0.8052974461
 21
-23.7447406302
  0
LINE
  5
25D
100
AcDbEntity
  8
ASSI
100
AcDbLine
 62
253
  6
CONTINUOUS
 10
4.2447330149
 20
-23.7447406302
 11
4.4447025539
 21
-23.7447406302
  0
LINE
  5
25E
100
AcDbEntity
  8
ASSI
100
AcDbLine
 62
253
  6
CONTINUOUS
 10
-4.2447330149
 20
-23.7447406302
 11
-4.4447025539
 21
-23.7447406302
  0
LINE
  5
25F
100
AcDbEntity
  8
ASSI
100
AcDbLine
 62
253
  6
CONTINUOUS
 10
-7.4397407692
 20
-23.6278322392
 11
-8.5466230298
 21
-23.6278312163
  0
LINE
  5
260
100
AcDbEntity
  8
ASSI
100
AcDbLine
 62
253
  6
CONTINUOUS
 10
8.5466230298
 20
-23.6278312163
 11
7.4397407631
 21
-23.6278320349
  0
LINE
  5
261
100
AcDbEntity
  8
ASSI
100
AcDbLine
 62
253
  6
CONTINUOUS
 10
10.3602579838
 20
-23.6278734826
 11
9.2533769702
 21
-23.6278312163
  0
LINE
  5
262
100
AcDbEntity
  8
ASSI
100
AcDbLine
 62
253
  6
CONTINUOUS
 10
-9.2533769702
 20
-23.6278312163
 11
-10.360257984
 21
-23.6278734767
  0
LINE
  5
263
100
AcDbEntity
  8
ASSI
100
AcDbLine
 62
7
  6
CONTINUOUS
 10
10.3281430868
 20
-23.1226497308
 11
9.3
 21
-23.1226497308
  0
LINE
  5
264
100
AcDbEntity
  8
ASSI
100
AcDbLine
 62
7
  6
CONTINUOUS
 10
8.5
 20
-23.1226497308
 11
7.4718569132
 21
-23.1226497308
  0
LINE
  5
265
100
AcDbEntity
  8
ASSI
100
AcDbLine
 62
7
  6
CONTINUOUS
 10
-7.4718569132
 20
-23.1226497308
 11
-8.5
 21
-23.1226497308
  0
LINE
  5
266
100
AcDbEntity
  8
ASSI
100
AcDbLine
 62
7
  6
CONTINUOUS
 10
-9.3
 20
-23.1226497308
 11
-10.3281430868
 21
-23.1226497308
  0
LINE
  5
267
100
AcDbEntity
  8
ASSI
100
AcDbLine
 62
253
  6
CONTINUOUS
 10
-7.4393195933
 20
24.4606499457
 11
-7.399969539
 21
24.5
  0
LINE
  5
268
100
AcDbEntity
  8
ASSI
100
AcDbLine
 62
253
  6
CONTINUOUS
 10
-7.2393500543
 20
24.2606804067
 11
-7.2
 21
24.300030461
  0
LINE
  5
269
100
AcDbEntity
  8
ASSI
100
AcDbLine
 62
7
  6
CONTINUOUS
 10
7.2
 20
-22.4
 11
4.45
 21
-22.4
  0
LINE
  5
26A
100
AcDbEntity
  8
ASSI
100
AcDbLine
 62
7
  6
CONTINUOUS
 10
0.8
 20
-22.4
 11
-0.8
 21
-22.4
  0
LINE
  5
26B
100
AcDbEntity
  8
ASSI
100
AcDbLine
 62
7
  6
CONTINUOUS
 10
-4.45
 20
-22.4
 11
-7.2
 21
-22.4
  0
LINE
  5
26C
100
AcDbEntity
  8
ASSI
100
AcDbLine
 62
7
  6
CONTINUOUS
 10
-4.2447330149
 20
-22.3737961104
 11
-1.0052669851
 21
-22.3737961104
  0
LINE
  5
26D
100
AcDbEntity
  8
ASSI
100
AcDbLine
 62
7
  6
CONTINUOUS
 10
1.0052669851
 20
-22.3737961104
 11
4.2447330149
 21
-22.3737961104
  0
LINE
  5
26E
100
AcDbEntity
  8
ASSI
100
AcDbLine
 62
7
  6
CONTINUOUS
 10
10.3281430868
 20
-22.3213883311
 11
9.3
 21
-22.3213883311
  0
LINE
  5
26F
100
AcDbEntity
  8
ASSI
100
AcDbLine
 62
7
  6
CONTINUOUS
 10
8.5
 20
-22.3213883311
 11
7.4718569132
 21
-22.3213883311
  0
LINE
  5
270
100
AcDbEntity
  8
ASSI
100
AcDbLine
 62
7
  6
CONTINUOUS
 10
-7.4718569132
 20
-22.3213883311
 11
-8.5
 21
-22.3213883311
  0
LINE
  5
271
100
AcDbEntity
  8
ASSI
100
AcDbLine
 62
7
  6
CONTINUOUS
 10
-9.3
 20
-22.3213883311
 11
-10.3281430868
 21
-22.3213883311
  0
LINE
  5
272
100
AcDbEntity
  8
ASSI
100
AcDbLine
 62
7
  6
CONTINUOUS
 10
-9.0368706193
 20
-22.2689805518
 11
-8.7631293807
 21
-22.2689805518
  0
LINE
  5
273
100
AcDbEntity
  8
ASSI
100
AcDbLine
 62
7
  6
CONTINUOUS
 10
8.7631293807
 20
-22.2689805518
 11
9.0368706193
 21
-22.2689805518
  0
LINE
  5
274
100
AcDbEntity
  8
ASSI
100
AcDbLine
 62
253
  6
CONTINUOUS
 10
-7.399969539
 20
-24.5
 11
-7.4393195933
 21
-24.4606499457
  0
LINE
  5
275
100
AcDbEntity
  8
ASSI
100
AcDbLine
 62
253
  6
CONTINUOUS
 10
-7.2
 20
-24.300030461
 11
-7.2393500543
 21
-24.2606804067
  0
LINE
  5
276
100
AcDbEntity
  8
ASSI
100
AcDbLine
 62
253
  6
CONTINUOUS
 10
-1.0552593698
 20
23.9947025539
 11
-1.0499619238
 21
24.0
  0
LINE
  5
277
100
AcDbEntity
  8
ASSI
100
AcDbLine
 62
253
  6
CONTINUOUS
 10
-0.8052974461
 20
23.7447406302
 11
-0.8
 21
23.7500380762
  0
LINE
  5
278
100
AcDbEntity
  8
ASSI
100
AcDbLine
 62
253
  6
CONTINUOUS
 10
-1.0499619238
 20
-24.0
 11
-1.0552593698
 21
-23.9947025539
  0
LINE
  5
279
100
AcDbEntity
  8
ASSI
100
AcDbLine
 62
253
  6
CONTINUOUS
 10
-0.8
 20
-23.7500380762
 11
-0.8052974461
 21
-23.7447406302
  0
LINE
  5
27A
100
AcDbEntity
  8
ASSI
100
AcDbLine
 62
7
  6
CONTINUOUS
 10
-8.5
 20
22.3213883311
 11
-8.5131674569
 21
22.2818538361
  0
LINE
  5
27B
100
AcDbEntity
  8
ASSI
100
AcDbLine
 62
7
  6
CONTINUOUS
 10
-8.5
 20
-22.3213883311
 11
-8.5131674569
 21
-22.2818538361
  0
LINE
  5
27C
100
AcDbEntity
  8
ASSI
100
AcDbLine
 62
7
  6
CONTINUOUS
 10
-7.2
 20
22.4
 11
-7.2218949894
 21
22.3342616154
  0
LINE
  5
27D
100
AcDbEntity
  8
ASSI
100
AcDbLine
 62
253
  6
CONTINUOUS
 10
4.1947406302
 20
23.9947025539
 11
4.2000380762
 21
24.0
  0
LINE
  5
27E
100
AcDbEntity
  8
ASSI
100
AcDbLine
 62
253
  6
CONTINUOUS
 10
4.4447025539
 20
23.7447406302
 11
4.45
 21
23.7500380762
  0
LINE
  5
27F
100
AcDbEntity
  8
ASSI
100
AcDbLine
 62
253
  6
CONTINUOUS
 10
4.2000380762
 20
-24.0
 11
4.1947406302
 21
-23.9947025539
  0
LINE
  5
280
100
AcDbEntity
  8
ASSI
100
AcDbLine
 62
253
  6
CONTINUOUS
 10
4.45
 20
-23.7500380762
 11
4.4447025539
 21
-23.7447406302
  0
LINE
  5
281
100
AcDbEntity
  8
ASSI
100
AcDbLine
 62
7
  6
CONTINUOUS
 10
-7.2218949894
 20
-22.3342616154
 11
-7.2
 21
-22.4
  0
LINE
  5
282
100
AcDbEntity
  8
ASSI
100
AcDbLine
 62
7
  6
CONTINUOUS
 10
-11.1261859216
 20
-20.4226497308
 11
-11.1
 21
-21.0
  0
LINE
  5
283
100
AcDbEntity
  8
ASSI
100
AcDbLine
 62
253
  6
CONTINUOUS
 10
-10.5602288007
 20
-23.8010362971
 11
-10.5781050106
 21
-23.2097560788
  0
LINE
  5
284
100
AcDbEntity
  8
ASSI
100
AcDbLine
 62
253
  6
CONTINUOUS
 10
-10.360257984
 20
-23.6278734767
 11
-10.3756118279
 21
-23.1200239821
  0
LINE
  5
285
100
AcDbEntity
  8
ASSI
100
AcDbLine
 62
7
  6
CONTINUOUS
 10
-11.1261859216
 20
20.4226497308
 11
-11.1261859216
 21
-20.4226497308
  0
LINE
  5
286
100
AcDbEntity
  8
ASSI
100
AcDbLine
 62
7
  6
CONTINUOUS
 10
-11.1
 20
21.9000761524
 11
-11.1
 21
21.0
  0
LINE
  5
287
100
AcDbEntity
  8
ASSI
100
AcDbLine
 62
7
  6
CONTINUOUS
 10
-11.1
 20
-21.9000761524
 11
-11.1
 21
-21.0
  0
LINE
  5
288
100
AcDbEntity
  8
ASSI
100
AcDbLine
 62
7
  6
CONTINUOUS
 10
-10.6
 20
24.300030461
 11
-10.6
 21
22.3999997358
  0
LINE
  5
289
100
AcDbEntity
  8
ASSI
100
AcDbLine
 62
7
  6
CONTINUOUS
 10
-10.6000000646
 20
-22.3999999296
 11
-10.6
 21
-24.300030461
  0
LINE
  5
28A
100
AcDbEntity
  8
ASSI
100
AcDbLine
 62
253
  6
CONTINUOUS
 10
-10.5781050106
 20
-23.2097560788
 11
-10.5781050106
 21
-22.3341525772
  0
LINE
  5
28B
100
AcDbEntity
  8
ASSI
100
AcDbLine
 62
253
  6
CONTINUOUS
 10
-10.5781050106
 20
22.3341525772
 11
-10.5781050106
 21
23.2097560788
  0
LINE
  5
28C
100
AcDbEntity
  8
ASSI
100
AcDbLine
 62
253
  6
CONTINUOUS
 10
-10.5597924241
 20
24.2106880219
 11
-10.5597924241
 21
23.8443375673
  0
LINE
  5
28D
100
AcDbEntity
  8
ASSI
100
AcDbLine
 62
253
  6
CONTINUOUS
 10
-10.5597924241
 20
-24.2106880219
 11
-10.5597924241
 21
-23.8443375673
  0
LINE
  5
28E
100
AcDbEntity
  8
ASSI
100
AcDbLine
 62
253
  6
CONTINUOUS
 10
-10.4288985767
 20
-20.8772674161
 11
-10.4288985753
 21
20.8772674171
  0
LINE
  5
28F
100
AcDbEntity
  8
ASSI
100
AcDbLine
 62
253
  6
CONTINUOUS
 10
-10.3598228851
 20
24.2106880219
 11
-10.3598228851
 21
23.8443359174
  0
LINE
  5
290
100
AcDbEntity
  8
ASSI
100
AcDbLine
 62
253
  6
CONTINUOUS
 10
-10.3598228851
 20
-24.2106880219
 11
-10.3598228851
 21
-23.8443575944
  0
LINE
  5
291
100
AcDbEntity
  8
ASSI
100
AcDbLine
 62
253
  6
CONTINUOUS
 10
-10.3281430868
 20
-23.1226497308
 11
-10.3281430868
 21
-22.3213883311
  0
LINE
  5
292
100
AcDbEntity
  8
ASSI
100
AcDbLine
 62
253
  6
CONTINUOUS
 10
-10.3281430868
 20
22.3213883311
 11
-10.3281430868
 21
23.1226497308
  0
LINE
  5
293
100
AcDbEntity
  8
ASSI
100
AcDbLine
 62
253
  6
CONTINUOUS
 10
-10.5602288007
 20
23.8010362971
 11
-10.5781050106
 21
23.2097560788
  0
LINE
  5
294
100
AcDbEntity
  8
ASSI
100
AcDbLine
 62
253
  6
CONTINUOUS
 10
-10.3602592617
 20
23.6278312164
 11
-10.3756118279
 21
23.1200239821
  0
LINE
  5
295
100
AcDbEntity
  8
ASSI
100
AcDbLine
 62
7
  6
CONTINUOUS
 10
-11.1
 20
21.0
 11
-11.1261859216
 21
20.4226497308
  0
LWPOLYLINE
  5
296
100
AcDbEntity
  8
0
100
AcDbPolyline
 62
7
  6
CONTINUOUS
 90
3
 70
0
 43
0.3500000006
 10
1.035714268
 20
36.4291687775
 10
0.9642857051
 20
36.2148842926
 10
0.8214285793
 20
35.9291686249
  0
LINE
  5
297
100
AcDbEntity
  8
ASSI
100
AcDbLine
 62
7
  6
CONTINUOUS
 10
-9.2868325431
 20
-23.5581814706
 11
-9.3
 21
-23.1226497308
  0
LINE
  5
298
100
AcDbEntity
  8
ASSI
100
AcDbLine
 62
7
  6
CONTINUOUS
 10
-9.3
 20
-23.1226497308
 11
-9.3
 21
-22.3213883311
  0
LINE
  5
299
100
AcDbEntity
  8
ASSI
100
AcDbLine
 62
7
  6
CONTINUOUS
 10
-9.3
 20
22.3213883311
 11
-9.3
 21
23.1226497308
  0
LINE
  5
29A
100
AcDbEntity
  8
ASSI
100
AcDbLine
 62
253
  6
CONTINUOUS
 10
-9.2868325431
 20
23.5581814706
 11
-9.2868325431
 21
22.2818538361
  0
LINE
  5
29B
100
AcDbEntity
  8
ASSI
100
AcDbLine
 62
253
  6
CONTINUOUS
 10
-9.2868325431
 20
-22.2818538361
 11
-9.2868325431
 21
-23.5581814706
  0
LINE
  5
29C
100
AcDbEntity
  8
ASSI
100
AcDbLine
 62
253
  6
CONTINUOUS
 10
-9.0368706193
 20
23.8443375673
 11
-9.0368706193
 21
22.2689805518
  0
LINE
  5
29D
100
AcDbEntity
  8
ASSI
100
AcDbLine
 62
253
  6
CONTINUOUS
 10
-9.0368706193
 20
-22.2689805518
 11
-9.0368706193
 21
-23.8443375673
  0
LINE
  5
29E
100
AcDbEntity
  8
ASSI
100
AcDbLine
 62
253
  6
CONTINUOUS
 10
-8.7631293807
 20
23.8443375673
 11
-8.7631293807
 21
22.2689805518
  0
LINE
  5
29F
100
AcDbEntity
  8
ASSI
100
AcDbLine
 62
253
  6
CONTINUOUS
 10
-8.7631293807
 20
-22.2689805518
 11
-8.7631293807
 21
-23.8443375673
  0
LINE
  5
2A0
100
AcDbEntity
  8
ASSI
100
AcDbLine
 62
253
  6
CONTINUOUS
 10
-8.5131674569
 20
23.5581814706
 11
-8.5131674569
 21
22.2818538361
  0
LINE
  5
2A1
100
AcDbEntity
  8
ASSI
100
AcDbLine
 62
253
  6
CONTINUOUS
 10
-8.5131674569
 20
-22.2818538361
 11
-8.5131674569
 21
-23.5581814706
  0
LINE
  5
2A2
100
AcDbEntity
  8
ASSI
100
AcDbLine
 62
7
  6
CONTINUOUS
 10
-8.5
 20
-23.1226497308
 11
-8.5
 21
-22.3213883311
  0
LINE
  5
2A3
100
AcDbEntity
  8
ASSI
100
AcDbLine
 62
7
  6
CONTINUOUS
 10
-8.5
 20
22.3213883311
 11
-8.5
 21
23.1226497308
  0
LINE
  5
2A4
100
AcDbEntity
  8
ASSI
100
AcDbLine
 62
7
  6
CONTINUOUS
 10
-9.3
 20
23.1226497308
 11
-9.2868325431
 21
23.5581814706
  0
LINE
  5
2A5
100
AcDbEntity
  8
ASSI
100
AcDbLine
 62
253
  6
CONTINUOUS
 10
10.3606804067
 20
24.4606499457
 11
10.400030461
 21
24.5
  0
LINE
  5
2A6
100
AcDbEntity
  8
ASSI
100
AcDbLine
 62
253
  6
CONTINUOUS
 10
10.5606499457
 20
24.2606804067
 11
10.6
 21
24.300030461
  0
LINE
  5
2A7
100
AcDbEntity
  8
ASSI
100
AcDbLine
 62
253
  6
CONTINUOUS
 10
10.3606804067
 20
-24.4606499457
 11
10.400030461
 21
-24.5
  0
LINE
  5
2A8
100
AcDbEntity
  8
ASSI
100
AcDbLine
 62
253
  6
CONTINUOUS
 10
10.5606499457
 20
-24.2606804067
 11
10.6
 21
-24.300030461
  0
LINE
  5
2A9
100
AcDbEntity
  8
ASSI
100
AcDbLine
 62
7
  6
CONTINUOUS
 10
-8.5
 20
23.1226497308
 11
-8.5131674569
 21
23.5581814706
  0
LINE
  5
2AA
100
AcDbEntity
  8
ASSI
100
AcDbLine
 62
253
  6
CONTINUOUS
 10
-7.4243881721
 20
23.1200239821
 11
-7.4397407383
 21
23.6278312164
  0
LINE
  5
2AB
100
AcDbEntity
  8
ASSI
100
AcDbLine
 62
253
  6
CONTINUOUS
 10
-7.2218949894
 20
23.2097560788
 11
-7.2397711993
 21
23.8010362971
  0
LINE
  5
2AC
100
AcDbEntity
  8
ASSI
100
AcDbLine
 62
253
  6
CONTINUOUS
 10
-7.4718569132
 20
-23.1226497308
 11
-7.4718569132
 21
-22.3213883311
  0
LINE
  5
2AD
100
AcDbEntity
  8
ASSI
100
AcDbLine
 62
253
  6
CONTINUOUS
 10
-7.4718569132
 20
22.3213883311
 11
-7.4718569132
 21
23.1226497308
  0
LINE
  5
2AE
100
AcDbEntity
  8
ASSI
100
AcDbLine
 62
253
  6
CONTINUOUS
 10
-7.4401771149
 20
-24.2106880219
 11
-7.4401771149
 21
-23.8443375673
  0
LINE
  5
2AF
100
AcDbEntity
  8
ASSI
100
AcDbLine
 62
253
  6
CONTINUOUS
 10
-7.4401771149
 20
23.8443354982
 11
-7.4401771149
 21
24.2106880219
  0
LINE
  5
2B0
100
AcDbEntity
  8
ASSI
100
AcDbLine
 62
253
  6
CONTINUOUS
 10
-7.2402075759
 20
-24.2106880219
 11
-7.2402075759
 21
-23.8443375673
  0
LINE
  5
2B1
100
AcDbEntity
  8
ASSI
100
AcDbLine
 62
253
  6
CONTINUOUS
 10
-7.2402075759
 20
23.8443375673
 11
-7.2402075759
 21
24.2106880219
  0
LINE
  5
2B2
100
AcDbEntity
  8
ASSI
100
AcDbLine
 62
253
  6
CONTINUOUS
 10
-7.2218949894
 20
23.2097560788
 11
-7.2218949894
 21
22.3342616154
  0
LINE
  5
2B3
100
AcDbEntity
  8
ASSI
100
AcDbLine
 62
253
  6
CONTINUOUS
 10
-7.2218949894
 20
-22.3342616154
 11
-7.2218949894
 21
-23.2097560788
  0
LINE
  5
2B4
100
AcDbEntity
  8
ASSI
100
AcDbLine
 62
7
  6
CONTINUOUS
 10
-7.2
 20
-22.4
 11
-7.2
 21
-24.300030461
  0
LINE
  5
2B5
100
AcDbEntity
  8
ASSI
100
AcDbLine
 62
7
  6
CONTINUOUS
 10
-7.2
 20
22.4
 11
-7.2
 21
24.300030461
  0
LINE
  5
2B6
100
AcDbEntity
  8
ASSI
100
AcDbLine
 62
7
  6
CONTINUOUS
 10
-8.5131674569
 20
-23.5581814706
 11
-8.5
 21
-23.1226497308
  0
LINE
  5
2B7
100
AcDbEntity
  8
ASSI
100
AcDbLine
 62
253
  6
CONTINUOUS
 10
-7.4397407692
 20
-23.6278322392
 11
-7.4243881721
 21
-23.1200239821
  0
LINE
  5
2B8
100
AcDbEntity
  8
ASSI
100
AcDbLine
 62
253
  6
CONTINUOUS
 10
-7.2397711993
 20
-23.8010362971
 11
-7.2218949894
 21
-23.2097560788
  0
LINE
  5
2B9
100
AcDbEntity
  8
ASSI
100
AcDbLine
 62
7
  6
CONTINUOUS
 10
-0.8
 20
22.4
 11
-0.8052974461
 21
22.3840947378
  0
LINE
  5
2BA
100
AcDbEntity
  8
ASSI
100
AcDbLine
 62
7
  6
CONTINUOUS
 10
-0.8052974461
 20
-22.3840947378
 11
-0.8
 21
-22.4
  0
LINE
  5
2BB
100
AcDbEntity
  8
RACCORDO
100
AcDbLine
 62
253
  6
CONTINUOUS
 10
-5.6729711646
 20
-4.5011333078
 11
-5.6798111442
 21
-0.0000000018
  0
LINE
  5
2BC
100
AcDbEntity
  8
ASSI
100
AcDbLine
 62
7
  6
CONTINUOUS
 10
-4.45
 20
-22.4
 11
-4.45
 21
-23.7500380762
  0
LINE
  5
2BD
100
AcDbEntity
  8
ASSI
100
AcDbLine
 62
7
  6
CONTINUOUS
 10
-4.45
 20
22.4
 11
-4.45
 21
23.7500380762
  0
LINE
  5
2BE
100
AcDbEntity
  8
ASSI
100
AcDbLine
 62
253
  6
CONTINUOUS
 10
-4.4447025539
 20
23.7447406302
 11
-4.4447025539
 21
22.3840947378
  0
LINE
  5
2BF
100
AcDbEntity
  8
ASSI
100
AcDbLine
 62
253
  6
CONTINUOUS
 10
-4.4447025539
 20
-22.3840947378
 11
-4.4447025539
 21
-23.7447406302
  0
LINE
  5
2C0
100
AcDbEntity
  8
ASSI
100
AcDbLine
 62
253
  6
CONTINUOUS
 10
-4.2447330149
 20
23.7447406302
 11
-4.2447330149
 21
22.3737961104
  0
LINE
  5
2C1
100
AcDbEntity
  8
ASSI
100
AcDbLine
 62
253
  6
CONTINUOUS
 10
-4.2447330149
 20
-22.3737961104
 11
-4.2447330149
 21
-23.7447406302
  0
LINE
  5
2C2
100
AcDbEntity
  8
ASSI
100
AcDbLine
 62
253
  6
CONTINUOUS
 10
-4.1947406302
 20
-23.7947330149
 11
-4.1947406302
 21
-23.9947025539
  0
LINE
  5
2C3
100
AcDbEntity
  8
ASSI
100
AcDbLine
 62
253
  6
CONTINUOUS
 10
-4.1947406302
 20
23.7947330149
 11
-4.1947406302
 21
23.9947025539
  0
LINE
  5
2C4
100
AcDbEntity
  8
RACCORDO
100
AcDbLine
 62
253
  6
CONTINUOUS
 10
-5.6798111442
 20
-0.0000000018
 11
-5.6729711646
 21
4.5011332892
  0
LINE
  5
2C5
100
AcDbEntity
  8
RACCORDO
100
AcDbLine
 62
253
  6
CONTINUOUS
 10
5.3389869933
 20
-4.5
 11
2.2120048908
 21
-4.5
  0
LINE
  5
2C6
100
AcDbEntity
  8
RACCORDO
100
AcDbLine
 62
253
  6
CONTINUOUS
 10
-2.2120048909
 20
-4.5
 11
-5.3389869933
 21
-4.5
  0
LINE
  5
2C7
100
AcDbEntity
  8
ASSI
100
AcDbLine
 62
7
  6
CONTINUOUS
 10
4.45
 20
22.4
 11
4.4447025539
 21
22.3840947378
  0
LINE
  5
2C8
100
AcDbEntity
  8
ASSI
100
AcDbLine
 62
7
  6
CONTINUOUS
 10
4.45
 20
-22.4
 11
4.4447025539
 21
-22.3840947378
  0
LINE
  5
2C9
100
AcDbEntity
  8
ASSI
100
AcDbLine
 62
253
  6
CONTINUOUS
 10
-1.0552593698
 20
-23.7947330149
 11
-1.0552593698
 21
-23.9947025539
  0
LINE
  5
2CA
100
AcDbEntity
  8
ASSI
100
AcDbLine
 62
253
  6
CONTINUOUS
 10
-1.0552593698
 20
23.7947330149
 11
-1.0552593698
 21
23.9947025539
  0
LINE
  5
2CB
100
AcDbEntity
  8
ASSI
100
AcDbLine
 62
253
  6
CONTINUOUS
 10
-1.0052669851
 20
-23.7447406302
 11
-1.0052669851
 21
-22.3737961104
  0
LINE
  5
2CC
100
AcDbEntity
  8
ASSI
100
AcDbLine
 62
253
  6
CONTINUOUS
 10
-1.0052669851
 20
22.3737961104
 11
-1.0052669851
 21
23.7447406302
  0
LINE
  5
2CD
100
AcDbEntity
  8
ASSI
100
AcDbLine
 62
253
  6
CONTINUOUS
 10
-0.8052974461
 20
-23.7447406302
 11
-0.8052974461
 21
-22.3840947378
  0
LINE
  5
2CE
100
AcDbEntity
  8
ASSI
100
AcDbLine
 62
253
  6
CONTINUOUS
 10
-0.8052974461
 20
22.3840947378
 11
-0.8052974461
 21
23.7447406302
  0
LINE
  5
2CF
100
AcDbEntity
  8
ASSI
100
AcDbLine
 62
7
  6
CONTINUOUS
 10
-0.8
 20
23.7500380762
 11
-0.8
 21
22.4
  0
LINE
  5
2D0
100
AcDbEntity
  8
ASSI
100
AcDbLine
 62
7
  6
CONTINUOUS
 10
-0.8
 20
-22.4
 11
-0.8
 21
-23.7500380762
  0
LINE
  5
2D1
100
AcDbEntity
  8
ASSI
100
AcDbLine
 62
7
  6
CONTINUOUS
 10
-9.3
 20
-22.3213883311
 11
-9.2868325431
 21
-22.2818538361
  0
LINE
  5
2D2
100
AcDbEntity
  8
0
100
AcDbLine
 62
7
  6
CONTINUOUS
 10
0.4054807709
 20
4.2289171764
 11
-0.0
 21
3.25
  0
LINE
  5
2D3
100
AcDbEntity
  8
0
100
AcDbLine
 62
7
  6
CONTINUOUS
 10
-2.2980970389
 20
-2.2980970389
 11
-2.7038791151
 21
-3.2777416308
  0
LINE
  5
2D4
100
AcDbEntity
  8
ASSI
100
AcDbLine
 62
253
  6
CONTINUOUS
 10
10.5657454716
 20
22.3304155561
 11
10.4128373368
 21
22.0243894438
  0
LINE
  5
2D5
100
AcDbEntity
  8
ASSI
100
AcDbLine
 62
253
  6
CONTINUOUS
 10
-11.1
 20
-21.8999997649
 11
-10.9126659988
 21
-21.5250746755
  0
LINE
  5
2D6
100
AcDbEntity
  8
ASSI
100
AcDbLine
 62
253
  6
CONTINUOUS
 10
11.1
 20
21.8999997649
 11
10.9126659988
 21
21.5250746755
  0
LINE
  5
2D7
100
AcDbEntity
  8
0
100
AcDbLine
 62
7
  6
CONTINUOUS
 10
3.2777414586
 20
2.7038790438
 11
2.2980970389
 21
2.2980970389
  0
LINE
  5
2D8
100
AcDbEntity
  8
0
100
AcDbLine
 62
7
  6
CONTINUOUS
 10
-3.25
 20
0.0
 11
-4.2288994324
 21
-0.4054734211
  0
LWPOLYLINE
  5
2D9
100
AcDbEntity
  8
0
100
AcDbPolyline
 62
7
  6
CONTINUOUS
 90
2
 70
0
 43
0.3500000006
 10
23.335983284
 20
-1.3571429443
 10
21.8359828262
 20
-1.3571429443
  0
LINE
  5
2DA
100
AcDbEntity
  8
RACCORDO
100
AcDbLine
 62
253
  6
CONTINUOUS
 10
-5.6798111442
 20
-0.0000000018
 11
-4.2676732211
 21
-0.0000000037
  0
LINE
  5
2DB
100
AcDbEntity
  8
RACCORDO
100
AcDbLine
 62
253
  6
CONTINUOUS
 10
5.6798111442
 20
-0.0000000018
 11
4.2676732159
 21
-0.0000000037
  0
LINE
  5
2DC
100
AcDbEntity
  8
0
100
AcDbLine
 62
7
  6
CONTINUOUS
 10
-4.2288991254
 20
0.4054732939
 11
-3.25
 21
0.0
  0
LINE
  5
2DD
100
AcDbEntity
  8
0
100
AcDbLine
 62
7
  6
CONTINUOUS
 10
2.2980970389
 20
-2.2980970389
 11
3.2777416015
 21
-2.703879103
  0
LINE
  5
2DE
100
AcDbEntity
  8
ASSI
100
AcDbLine
 62
253
  6
CONTINUOUS
 10
10.5657454716
 20
-22.3304155561
 11
10.4128373357
 21
-22.0243894416
  0
LINE
  5
2DF
100
AcDbEntity
  8
ASSI
100
AcDbLine
 62
253
  6
CONTINUOUS
 10
-10.9126659982
 20
21.5250746743
 11
-11.1
 21
21.8999997649
  0
LINE
  5
2E0
100
AcDbEntity
  8
ASSI
100
AcDbLine
 62
253
  6
CONTINUOUS
 10
10.9126659982
 20
-21.5250746743
 11
11.1
 21
-21.8999997649
  0
LINE
  5
2E1
100
AcDbEntity
  8
0
100
AcDbLine
 62
7
  6
CONTINUOUS
 10
-2.7038790549
 20
3.2777414853
 11
-2.2980970389
 21
2.2980970389
  0
LINE
  5
2E2
100
AcDbEntity
  8
0
100
AcDbLine
 62
7
  6
CONTINUOUS
 10
-0.0
 20
-3.25
 11
0.4054807913
 21
-4.2289172255
  0
LINE
  5
2E3
100
AcDbEntity
  8
ASSI
100
AcDbLine
 62
7
  6
CONTINUOUS
 10
-9.3
 20
22.3213883311
 11
-9.2868325431
 21
22.2818538361
  0
LINE
  5
2E4
100
AcDbEntity
  8
ASSI
100
AcDbLine
 62
7
  6
CONTINUOUS
 10
0.8
 20
23.7500380762
 11
0.8
 21
22.4
  0
LINE
  5
2E5
100
AcDbEntity
  8
ASSI
100
AcDbLine
 62
7
  6
CONTINUOUS
 10
0.8
 20
-22.4
 11
0.8
 21
-23.7500380762
  0
LINE
  5
2E6
100
AcDbEntity
  8
ASSI
100
AcDbLine
 62
253
  6
CONTINUOUS
 10
0.8052974461
 20
23.7447406302
 11
0.8052974461
 21
22.3840947378
  0
LINE
  5
2E7
100
AcDbEntity
  8
ASSI
100
AcDbLine
 62
253
  6
CONTINUOUS
 10
0.8052974461
 20
-22.3840947378
 11
0.8052974461
 21
-23.7447406302
  0
LINE
  5
2E8
100
AcDbEntity
  8
ASSI
100
AcDbLine
 62
253
  6
CONTINUOUS
 10
1.0052669851
 20
23.7447406302
 11
1.0052669851
 21
22.3737961104
  0
LINE
  5
2E9
100
AcDbEntity
  8
ASSI
100
AcDbLine
 62
253
  6
CONTINUOUS
 10
1.0052669851
 20
-22.3737961104
 11
1.0052669851
 21
-23.7447406302
  0
LINE
  5
2EA
100
AcDbEntity
  8
ASSI
100
AcDbLine
 62
253
  6
CONTINUOUS
 10
1.0552593698
 20
-23.7947330149
 11
1.0552593698
 21
-23.9947025539
  0
LINE
  5
2EB
100
AcDbEntity
  8
ASSI
100
AcDbLine
 62
253
  6
CONTINUOUS
 10
1.0552593698
 20
23.7947330149
 11
1.0552593698
 21
23.9947025539
  0
LINE
  5
2EC
100
AcDbEntity
  8
ASSI
100
AcDbLine
 62
7
  6
CONTINUOUS
 10
9.3
 20
22.3213883311
 11
9.2868325431
 21
22.2818538361
  0
LINE
  5
2ED
100
AcDbEntity
  8
0
100
AcDbLine
 62
7
  6
CONTINUOUS
 10
-0.4054807709
 20
-4.2289171764
 11
-0.0
 21
-3.25
  0
LINE
  5
2EE
100
AcDbEntity
  8
0
100
AcDbLine
 62
7
  6
CONTINUOUS
 10
2.2980970389
 20
2.2980970389
 11
2.7038791151
 21
3.2777416308
  0
LINE
  5
2EF
100
AcDbEntity
  8
ASSI
100
AcDbLine
 62
253
  6
CONTINUOUS
 10
-10.4128373368
 20
-22.0243894438
 11
-10.5657454716
 21
-22.3304155561
  0
LINE
  5
2F0
100
AcDbEntity
  8
0
100
AcDbLine
 62
7
  6
CONTINUOUS
 10
-3.2777414586
 20
-2.7038790438
 11
-2.2980970389
 21
-2.2980970389
  0
LINE
  5
2F1
100
AcDbEntity
  8
0
100
AcDbLine
 62
7
  6
CONTINUOUS
 10
3.25
 20
0.0
 11
4.2288994324
 21
0.4054734211
  0
LINE
  5
2F2
100
AcDbEntity
  8
0
100
AcDbLine
 62
7
  6
CONTINUOUS
 10
4.2288991254
 20
-0.4054732939
 11
3.25
 21
0.0
  0
LINE
  5
2F3
100
AcDbEntity
  8
0
100
AcDbLine
 62
7
  6
CONTINUOUS
 10
-2.2980970389
 20
2.2980970389
 11
-3.2777416015
 21
2.703879103
  0
LINE
  5
2F4
100
AcDbEntity
  8
ASSI
100
AcDbLine
 62
253
  6
CONTINUOUS
 10
-10.4128373357
 20
22.0243894416
 11
-10.5657454716
 21
22.3304155561
  0
LINE
  5
2F5
100
AcDbEntity
  8
0
100
AcDbLine
 62
7
  6
CONTINUOUS
 10
2.7038790549
 20
-3.2777414853
 11
2.2980970389
 21
-2.2980970389
  0
LINE
  5
2F6
100
AcDbEntity
  8
0
100
AcDbLine
 62
7
  6
CONTINUOUS
 10
-0.0
 20
3.25
 11
-0.4054807913
 21
4.2289172255
  0
LINE
  5
2F7
100
AcDbEntity
  8
ASSI
100
AcDbLine
 62
7
  6
CONTINUOUS
 10
9.3
 20
-22.3213883311
 11
9.2868325431
 21
-22.2818538361
  0
LINE
  5
2F8
100
AcDbEntity
  8
ASSI
100
AcDbLine
 62
253
  6
CONTINUOUS
 10
4.1947406302
 20
-23.7947330149
 11
4.1947406302
 21
-23.9947025539
  0
LINE
  5
2F9
100
AcDbEntity
  8
ASSI
100
AcDbLine
 62
253
  6
CONTINUOUS
 10
4.1947406302
 20
23.7947330149
 11
4.1947406302
 21
23.9947025539
  0
LINE
  5
2FA
100
AcDbEntity
  8
ASSI
100
AcDbLine
 62
253
  6
CONTINUOUS
 10
4.2447330149
 20
-23.7447406302
 11
4.2447330149
 21
-22.3737961104
  0
LINE
  5
2FB
100
AcDbEntity
  8
ASSI
100
AcDbLine
 62
253
  6
CONTINUOUS
 10
4.2447330149
 20
22.3737961104
 11
4.2447330149
 21
23.7447406302
  0
LINE
  5
2FC
100
AcDbEntity
  8
ASSI
100
AcDbLine
 62
253
  6
CONTINUOUS
 10
4.4447025539
 20
-23.7447406302
 11
4.4447025539
 21
-22.3840947378
  0
LINE
  5
2FD
100
AcDbEntity
  8
ASSI
100
AcDbLine
 62
253
  6
CONTINUOUS
 10
4.4447025539
 20
22.3840947378
 11
4.4447025539
 21
23.7447406302
  0
LINE
  5
2FE
100
AcDbEntity
  8
ASSI
100
AcDbLine
 62
7
  6
CONTINUOUS
 10
4.45
 20
-22.4
 11
4.45
 21
-23.7500380762
  0
LINE
  5
2FF
100
AcDbEntity
  8
ASSI
100
AcDbLine
 62
7
  6
CONTINUOUS
 10
4.45
 20
22.4
 11
4.45
 21
23.7500380762
  0
LINE
  5
300
100
AcDbEntity
  8
ASSI
100
AcDbLine
 62
7
  6
CONTINUOUS
 10
-4.45
 20
-22.4
 11
-4.4447025539
 21
-22.3840947378
  0
LINE
  5
301
100
AcDbEntity
  8
RACCORDO
100
AcDbLine
 62
253
  6
CONTINUOUS
 10
5.3389869934
 20
4.5
 11
2.2120049607
 21
4.5
  0
LINE
  5
302
100
AcDbEntity
  8
RACCORDO
100
AcDbLine
 62
253
  6
CONTINUOUS
 10
-2.2120049607
 20
4.5
 11
-5.3389869934
 21
4.5
  0
LINE
  5
303
100
AcDbEntity
  8
ASSI
100
AcDbLine
 62
7
  6
CONTINUOUS
 10
-4.45
 20
22.4
 11
-4.4447025539
 21
22.3840947378
  0
LINE
  5
304
100
AcDbEntity
  8
ASSI
100
AcDbLine
 62
253
  6
CONTINUOUS
 10
7.2218949894
 20
-23.2097560788
 11
7.2397711993
 21
-23.8010362971
  0
LINE
  5
305
100
AcDbEntity
  8
RACCORDO
100
AcDbLine
 62
253
  6
CONTINUOUS
 10
5.6729711646
 20
4.5011332892
 11
5.6798111442
 21
-0.0000000018
  0
LINE
  5
306
100
AcDbEntity
  8
RACCORDO
100
AcDbLine
 62
253
  6
CONTINUOUS
 10
5.6798111442
 20
-0.0000000018
 11
5.6729711646
 21
-4.5011333078
  0
LINE
  5
307
100
AcDbEntity
  8
ASSI
100
AcDbLine
 62
253
  6
CONTINUOUS
 10
7.2397711993
 20
23.8010362971
 11
7.2218949894
 21
23.2097560788
  0
LINE
  5
308
100
AcDbEntity
  8
ASSI
100
AcDbLine
 62
253
  6
CONTINUOUS
 10
7.4243881721
 20
-23.1200239821
 11
7.4397407631
 21
-23.6278320349
  0
LINE
  5
309
100
AcDbEntity
  8
ASSI
100
AcDbLine
 62
7
  6
CONTINUOUS
 10
8.5131674569
 20
-23.5581814706
 11
8.5
 21
-23.1226497308
  0
LINE
  5
30A
100
AcDbEntity
  8
ASSI
100
AcDbLine
 62
7
  6
CONTINUOUS
 10
7.2
 20
24.300030461
 11
7.2
 21
22.4
  0
LINE
  5
30B
100
AcDbEntity
  8
ASSI
100
AcDbLine
 62
7
  6
CONTINUOUS
 10
7.2
 20
-22.4
 11
7.2
 21
-24.300030461
  0
LINE
  5
30C
100
AcDbEntity
  8
ASSI
100
AcDbLine
 62
253
  6
CONTINUOUS
 10
7.2218949894
 20
-23.2097560788
 11
7.2218949894
 21
-22.3342616154
  0
LINE
  5
30D
100
AcDbEntity
  8
ASSI
100
AcDbLine
 62
253
  6
CONTINUOUS
 10
7.2218949894
 20
22.3342616154
 11
7.2218949894
 21
23.2097560788
  0
LINE
  5
30E
100
AcDbEntity
  8
ASSI
100
AcDbLine
 62
253
  6
CONTINUOUS
 10
7.2402075759
 20
24.2106880219
 11
7.2402075759
 21
23.8443375673
  0
LINE
  5
30F
100
AcDbEntity
  8
ASSI
100
AcDbLine
 62
253
  6
CONTINUOUS
 10
7.2402075759
 20
-23.8443375673
 11
7.2402075759
 21
-24.2106880219
  0
LINE
  5
310
100
AcDbEntity
  8
ASSI
100
AcDbLine
 62
253
  6
CONTINUOUS
 10
7.4401771149
 20
24.2106880219
 11
7.4401771149
 21
23.8443359174
  0
LINE
  5
311
100
AcDbEntity
  8
ASSI
100
AcDbLine
 62
253
  6
CONTINUOUS
 10
7.4401771149
 20
-23.8443375673
 11
7.4401771149
 21
-24.2106909083
  0
LINE
  5
312
100
AcDbEntity
  8
ASSI
100
AcDbLine
 62
253
  6
CONTINUOUS
 10
7.4718569132
 20
23.1226497308
 11
7.4718569132
 21
22.3213883311
  0
LINE
  5
313
100
AcDbEntity
  8
ASSI
100
AcDbLine
 62
253
  6
CONTINUOUS
 10
7.4718569132
 20
-22.3213883311
 11
7.4718569132
 21
-23.1226497308
  0
LINE
  5
314
100
AcDbEntity
  8
ASSI
100
AcDbLine
 62
7
  6
CONTINUOUS
 10
8.5
 20
-23.1226497308
 11
8.5
 21
-22.3213883311
  0
LINE
  5
315
100
AcDbEntity
  8
ASSI
100
AcDbLine
 62
7
  6
CONTINUOUS
 10
8.5
 20
22.3213883311
 11
8.5
 21
23.1226497308
  0
LINE
  5
316
100
AcDbEntity
  8
ASSI
100
AcDbLine
 62
253
  6
CONTINUOUS
 10
8.5131674569
 20
23.5581814706
 11
8.5131674569
 21
22.2818538361
  0
LINE
  5
317
100
AcDbEntity
  8
ASSI
100
AcDbLine
 62
253
  6
CONTINUOUS
 10
8.5131674569
 20
-22.2818538361
 11
8.5131674569
 21
-23.5581814706
  0
LINE
  5
318
100
AcDbEntity
  8
ASSI
100
AcDbLine
 62
253
  6
CONTINUOUS
 10
7.4397407383
 20
23.6278312164
 11
7.4243881721
 21
23.1200239821
  0
LINE
  5
319
100
AcDbEntity
  8
ASSI
100
AcDbLine
 62
7
  6
CONTINUOUS
 10
8.5
 20
23.1226497308
 11
8.5131674569
 21
23.5581814706
  0
LINE
  5
31A
100
AcDbEntity
  8
ASSI
100
AcDbLine
 62
7
  6
CONTINUOUS
 10
0.8052974461
 20
-22.3840947378
 11
0.8
 21
-22.4
  0
LINE
  5
31B
100
AcDbEntity
  8
ASSI
100
AcDbLine
 62
7
  6
CONTINUOUS
 10
0.8
 20
22.4
 11
0.8052974461
 21
22.3840947378
  0
LINE
  5
31C
100
AcDbEntity
  8
ASSI
100
AcDbLine
 62
7
  6
CONTINUOUS
 10
9.3
 20
23.1226497308
 11
9.2868325431
 21
23.5581814706
  0
LINE
  5
31D
100
AcDbEntity
  8
ASSI
100
AcDbLine
 62
253
  6
CONTINUOUS
 10
8.7631293807
 20
23.8443375673
 11
8.7631293807
 21
22.2689805518
  0
LINE
  5
31E
100
AcDbEntity
  8
ASSI
100
AcDbLine
 62
253
  6
CONTINUOUS
 10
8.7631293807
 20
-22.2689805518
 11
8.7631293807
 21
-23.8443375673
  0
LINE
  5
31F
100
AcDbEntity
  8
ASSI
100
AcDbLine
 62
253
  6
CONTINUOUS
 10
9.0368706193
 20
23.8443375673
 11
9.0368706193
 21
22.2689805518
  0
LINE
  5
320
100
AcDbEntity
  8
ASSI
100
AcDbLine
 62
253
  6
CONTINUOUS
 10
9.0368706193
 20
-22.2689805518
 11
9.0368706193
 21
-23.8443375673
  0
LINE
  5
321
100
AcDbEntity
  8
ASSI
100
AcDbLine
 62
253
  6
CONTINUOUS
 10
9.2868325431
 20
23.5581814706
 11
9.2868325431
 21
22.2818538361
  0
LINE
  5
322
100
AcDbEntity
  8
ASSI
100
AcDbLine
 62
253
  6
CONTINUOUS
 10
9.2868325431
 20
-22.2818538361
 11
9.2868325431
 21
-23.5581814706
  0
LINE
  5
323
100
AcDbEntity
  8
ASSI
100
AcDbLine
 62
7
  6
CONTINUOUS
 10
9.3
 20
-23.1226497308
 11
9.3
 21
-22.3213883311
  0
LINE
  5
324
100
AcDbEntity
  8
ASSI
100
AcDbLine
 62
7
  6
CONTINUOUS
 10
9.3
 20
22.3213883311
 11
9.3
 21
23.1226497308
  0
LINE
  5
325
100
AcDbEntity
  8
ASSI
100
AcDbLine
 62
253
  6
CONTINUOUS
 10
10.3281430868
 20
23.1226497308
 11
10.3281430868
 21
22.3213883311
  0
LINE
  5
326
100
AcDbEntity
  8
ASSI
100
AcDbLine
 62
253
  6
CONTINUOUS
 10
10.3281430868
 20
-22.3213883311
 11
10.3281430868
 21
-23.1226497308
  0
LINE
  5
327
100
AcDbEntity
  8
ASSI
100
AcDbLine
 62
253
  6
CONTINUOUS
 10
10.3598228851
 20
-23.844357602
 11
10.3598228851
 21
-24.2106880219
  0
LINE
  5
328
100
AcDbEntity
  8
ASSI
100
AcDbLine
 62
253
  6
CONTINUOUS
 10
10.3598228851
 20
23.8443354982
 11
10.3598228851
 21
24.2106880219
  0
LINE
  5
329
100
AcDbEntity
  8
ASSI
100
AcDbLine
 62
253
  6
CONTINUOUS
 10
10.4288985768
 20
20.8772674193
 11
10.4288985753
 21
-20.8772674139
  0
LINE
  5
32A
100
AcDbEntity
  8
ASSI
100
AcDbLine
 62
253
  6
CONTINUOUS
 10
10.5597924241
 20
-23.8443375673
 11
10.5597924241
 21
-24.2106880219
  0
LINE
  5
32B
100
AcDbEntity
  8
ASSI
100
AcDbLine
 62
253
  6
CONTINUOUS
 10
10.5597924241
 20
23.8443375673
 11
10.5597924241
 21
24.2106880219
  0
LINE
  5
32C
100
AcDbEntity
  8
ASSI
100
AcDbLine
 62
253
  6
CONTINUOUS
 10
10.5781050106
 20
23.2097560788
 11
10.5781050106
 21
22.3341525772
  0
LINE
  5
32D
100
AcDbEntity
  8
ASSI
100
AcDbLine
 62
253
  6
CONTINUOUS
 10
10.5781050106
 20
-22.3341525772
 11
10.5781050106
 21
-23.2097560788
  0
LINE
  5
32E
100
AcDbEntity
  8
ASSI
100
AcDbLine
 62
7
  6
CONTINUOUS
 10
10.6
 20
-22.3999997358
 11
10.6
 21
-24.300030461
  0
LINE
  5
32F
100
AcDbEntity
  8
ASSI
100
AcDbLine
 62
7
  6
CONTINUOUS
 10
10.6000000646
 20
22.3999999296
 11
10.6
 21
24.300030461
  0
LINE
  5
330
100
AcDbEntity
  8
ASSI
100
AcDbLine
 62
7
  6
CONTINUOUS
 10
9.2868325431
 20
-23.5581814706
 11
9.3
 21
-23.1226497308
  0
LINE
  5
331
100
AcDbEntity
  8
ASSI
100
AcDbLine
 62
253
  6
CONTINUOUS
 10
-10.6
 20
-24.300030461
 11
-10.5606499457
 21
-24.2606804067
  0
LINE
  5
332
100
AcDbEntity
  8
ASSI
100
AcDbLine
 62
253
  6
CONTINUOUS
 10
-10.400030461
 20
-24.5
 11
-10.3606804067
 21
-24.4606499457
  0
LINE
  5
333
100
AcDbEntity
  8
ASSI
100
AcDbLine
 62
253
  6
CONTINUOUS
 10
-10.6
 20
24.300030461
 11
-10.5606499457
 21
24.2606804067
  0
LINE
  5
334
100
AcDbEntity
  8
ASSI
100
AcDbLine
 62
253
  6
CONTINUOUS
 10
-10.400030461
 20
24.5
 11
-10.3606803565
 21
24.4606498956
  0
LINE
  5
335
100
AcDbEntity
  8
ASSI
100
AcDbLine
 62
7
  6
CONTINUOUS
 10
11.1
 20
21.0
 11
11.1261859216
 21
20.4226497308
  0
LINE
  5
336
100
AcDbEntity
  8
ASSI
100
AcDbLine
 62
253
  6
CONTINUOUS
 10
10.3756118279
 20
23.1200239821
 11
10.3602592617
 21
23.6278312164
  0
LINE
  5
337
100
AcDbEntity
  8
ASSI
100
AcDbLine
 62
253
  6
CONTINUOUS
 10
10.5781050106
 20
23.2097560788
 11
10.5602288007
 21
23.8010362971
  0
LINE
  5
338
100
AcDbEntity
  8
ASSI
100
AcDbLine
 62
7
  6
CONTINUOUS
 10
11.1
 20
21.9000761524
 11
11.1
 21
21.0
  0
LINE
  5
339
100
AcDbEntity
  8
ASSI
100
AcDbLine
 62
7
  6
CONTINUOUS
 10
11.1
 20
-21.9000761524
 11
11.1
 21
-21.0
  0
LINE
  5
33A
100
AcDbEntity
  8
ASSI
100
AcDbLine
 62
7
  6
CONTINUOUS
 10
11.1261859216
 20
20.4226497308
 11
11.1261859216
 21
-20.4226497308
  0
LINE
  5
33B
100
AcDbEntity
  8
ASSI
100
AcDbLine
 62
253
  6
CONTINUOUS
 10
10.3756118279
 20
-23.1200239821
 11
10.3602579838
 21
-23.6278734826
  0
LINE
  5
33C
100
AcDbEntity
  8
ASSI
100
AcDbLine
 62
253
  6
CONTINUOUS
 10
10.5781050106
 20
-23.2097560788
 11
10.5602288007
 21
-23.8010362971
  0
LINE
  5
33D
100
AcDbEntity
  8
ASSI
100
AcDbLine
 62
7
  6
CONTINUOUS
 10
11.1261859216
 20
-20.4226497308
 11
11.1
 21
-21.0
  0
LINE
  5
33E
100
AcDbEntity
  8
ASSI
100
AcDbLine
 62
7
  6
CONTINUOUS
 10
7.2218949894
 20
-22.3342616154
 11
7.2
 21
-22.4
  0
LINE
  5
33F
100
AcDbEntity
  8
ASSI
100
AcDbLine
 62
253
  6
CONTINUOUS
 10
-4.4447025539
 20
-23.7447406302
 11
-4.45
 21
-23.7500380762
  0
LINE
  5
340
100
AcDbEntity
  8
ASSI
100
AcDbLine
 62
253
  6
CONTINUOUS
 10
-4.1947406302
 20
-23.9947025539
 11
-4.2000380762
 21
-24.0
  0
LINE
  5
341
100
AcDbEntity
  8
ASSI
100
AcDbLine
 62
253
  6
CONTINUOUS
 10
-4.45
 20
23.7500380762
 11
-4.4447025539
 21
23.7447406302
  0
LINE
  5
342
100
AcDbEntity
  8
ASSI
100
AcDbLine
 62
253
  6
CONTINUOUS
 10
-4.2000380762
 20
24.0
 11
-4.1947406302
 21
23.9947025539
  0
LINE
  5
343
100
AcDbEntity
  8
ASSI
100
AcDbLine
 62
7
  6
CONTINUOUS
 10
7.2
 20
22.4
 11
7.2218949894
 21
22.3342616154
  0
LINE
  5
344
100
AcDbEntity
  8
ASSI
100
AcDbLine
 62
7
  6
CONTINUOUS
 10
8.5
 20
-22.3213883311
 11
8.5131674569
 21
-22.2818538361
  0
LWPOLYLINE
  5
345
100
AcDbEntity
  8
0
100
AcDbPolyline
 62
7
  6
CONTINUOUS
 90
10
 70
0
 43
0.3500000006
 10
23.335983284
 20
0.4285709152
 10
22.4788385468
 20
1.2857133865
 10
21.6216960754
 20
1.5000001373
 10
20.7645536041
 20
1.5000001373
 10
20.3359823685
 20
1.0714289017
 10
20.3359823685
 20
0.4285709152
 10
20.7645536041
 20
-0.0000003204
 10
21.6216960754
 20
-0.0000003204
 10
22.0502673111
 20
0.4285709152
 10
22.0502673111
 20
1.3571423035
  0
LINE
  5
346
100
AcDbEntity
  8
ASSI
100
AcDbLine
 62
7
  6
CONTINUOUS
 10
8.5
 20
22.3213883311
 11
8.5131674569
 21
22.2818538361
  0
LINE
  5
347
100
AcDbEntity
  8
ASSI
100
AcDbLine
 62
253
  6
CONTINUOUS
 10
0.8052974461
 20
-23.7447406302
 11
0.8
 21
-23.7500380762
  0
LINE
  5
348
100
AcDbEntity
  8
ASSI
100
AcDbLine
 62
253
  6
CONTINUOUS
 10
1.0552593698
 20
-23.9947025539
 11
1.0499619238
 21
-24.0
  0
LINE
  5
349
100
AcDbEntity
  8
ASSI
100
AcDbLine
 62
253
  6
CONTINUOUS
 10
0.8
 20
23.7500380762
 11
0.8052974461
 21
23.7447406302
  0
LINE
  5
34A
100
AcDbEntity
  8
ASSI
100
AcDbLine
 62
253
  6
CONTINUOUS
 10
1.0499619238
 20
24.0
 11
1.0552593698
 21
23.9947025539
  0
LWPOLYLINE
  5
34B
100
AcDbEntity
  8
0
100
AcDbPolyline
 62
7
  6
CONTINUOUS
 90
10
 70
0
 43
0.3500000006
 10
0.9642857051
 20
36.6434577942
 10
1.035714268
 20
36.5005999603
 10
1.035714268
 20
36.4291687775
 10
0.8928571422
 20
36.2863154755
 10
0.8214285793
 20
36.2863154755
 10
0.7500000165
 20
36.3577421265
 10
0.7500000165
 20
36.4291687775
 10
0.8214285793
 20
36.5720266113
 10
0.8928571422
 20
36.6434577942
 10
0.9642857051
 20
36.6434577942
  0
LWPOLYLINE
  5
34C
100
AcDbEntity
  8
0
100
AcDbPolyline
 62
7
  6
CONTINUOUS
 90
3
 70
0
 43
0.3500000006
 10
22.6931252975
 20
-0.8571427917
 10
22.6931252975
 20
-2.3571432495
 10
20.3359823685
 20
-1.7142852631
  0
LINE
  5
34D
100
AcDbEntity
  8
ASSI
100
AcDbLine
 62
253
  6
CONTINUOUS
 10
7.2393500543
 20
-24.2606804067
 11
7.2
 21
-24.300030461
  0
LINE
  5
34E
100
AcDbEntity
  8
ASSI
100
AcDbLine
 62
253
  6
CONTINUOUS
 10
7.4393195933
 20
-24.4606499457
 11
7.399969539
 21
-24.5
  0
LINE
  5
34F
100
AcDbEntity
  8
ASSI
100
AcDbLine
 62
7
  6
CONTINUOUS
 10
-9.0368706193
 20
22.2689805518
 11
-8.7631293807
 21
22.2689805518
  0
LINE
  5
350
100
AcDbEntity
  8
ASSI
100
AcDbLine
 62
7
  6
CONTINUOUS
 10
8.7631293807
 20
22.2689805518
 11
9.0368706193
 21
22.2689805518
  0
LINE
  5
351
100
AcDbEntity
  8
ASSI
100
AcDbLine
 62
7
  6
CONTINUOUS
 10
10.3281430868
 20
22.3213883311
 11
9.3
 21
22.3213883311
  0
LINE
  5
352
100
AcDbEntity
  8
ASSI
100
AcDbLine
 62
7
  6
CONTINUOUS
 10
8.5
 20
22.3213883311
 11
7.4718569132
 21
22.3213883311
  0
LINE
  5
353
100
AcDbEntity
  8
ASSI
100
AcDbLine
 62
7
  6
CONTINUOUS
 10
-7.4718569132
 20
22.3213883311
 11
-8.5
 21
22.3213883311
  0
LINE
  5
354
100
AcDbEntity
  8
ASSI
100
AcDbLine
 62
7
  6
CONTINUOUS
 10
-9.3
 20
22.3213883311
 11
-10.3281430868
 21
22.3213883311
  0
LINE
  5
355
100
AcDbEntity
  8
ASSI
100
AcDbLine
 62
7
  6
CONTINUOUS
 10
-4.2447330149
 20
22.3737961104
 11
-1.0052669851
 21
22.3737961104
  0
LINE
  5
356
100
AcDbEntity
  8
ASSI
100
AcDbLine
 62
7
  6
CONTINUOUS
 10
1.0052669851
 20
22.3737961104
 11
4.2447330149
 21
22.3737961104
  0
LINE
  5
357
100
AcDbEntity
  8
ASSI
100
AcDbLine
 62
7
  6
CONTINUOUS
 10
7.2
 20
22.4
 11
4.45
 21
22.4
  0
LINE
  5
358
100
AcDbEntity
  8
ASSI
100
AcDbLine
 62
7
  6
CONTINUOUS
 10
0.8
 20
22.4
 11
-0.8
 21
22.4
  0
LINE
  5
359
100
AcDbEntity
  8
ASSI
100
AcDbLine
 62
7
  6
CONTINUOUS
 10
-4.45
 20
22.4
 11
-7.2
 21
22.4
  0
LINE
  5
35A
100
AcDbEntity
  8
ASSI
100
AcDbLine
 62
7
  6
CONTINUOUS
 10
10.3281430868
 20
23.1226497308
 11
9.3
 21
23.1226497308
  0
LINE
  5
35B
100
AcDbEntity
  8
ASSI
100
AcDbLine
 62
7
  6
CONTINUOUS
 10
8.5
 20
23.1226497308
 11
7.4718569132
 21
23.1226497308
  0
LINE
  5
35C
100
AcDbEntity
  8
ASSI
100
AcDbLine
 62
7
  6
CONTINUOUS
 10
-7.4718569132
 20
23.1226497308
 11
-8.5
 21
23.1226497308
  0
LINE
  5
35D
100
AcDbEntity
  8
ASSI
100
AcDbLine
 62
7
  6
CONTINUOUS
 10
-9.3
 20
23.1226497308
 11
-10.3281430868
 21
23.1226497308
  0
LINE
  5
35E
100
AcDbEntity
  8
ASSI
100
AcDbLine
 62
253
  6
CONTINUOUS
 10
7.2
 20
24.300030461
 11
7.2393500543
 21
24.2606804067
  0
LINE
  5
35F
100
AcDbEntity
  8
ASSI
100
AcDbLine
 62
253
  6
CONTINUOUS
 10
7.399969539
 20
24.5
 11
7.4393196435
 21
24.4606498956
  0
LINE
  5
360
100
AcDbEntity
  8
ASSI
100
AcDbLine
 62
253
  6
CONTINUOUS
 10
-10.3602592617
 20
23.6278312164
 11
-9.2533769702
 21
23.6278312164
  0
LINE
  5
361
100
AcDbEntity
  8
ASSI
100
AcDbLine
 62
253
  6
CONTINUOUS
 10
-8.5466230298
 20
23.6278312164
 11
-7.4397407383
 21
23.6278312164
  0
LINE
  5
362
100
AcDbEntity
  8
ASSI
100
AcDbLine
 62
253
  6
CONTINUOUS
 10
7.4397407383
 20
23.6278312164
 11
8.5466230298
 21
23.6278312164
  0
LINE
  5
363
100
AcDbEntity
  8
ASSI
100
AcDbLine
 62
253
  6
CONTINUOUS
 10
9.2533769702
 20
23.6278312164
 11
10.3602592617
 21
23.6278312164
  0
LINE
  5
364
100
AcDbEntity
  8
ASSI
100
AcDbLine
 62
253
  6
CONTINUOUS
 10
-1.0052669851
 20
23.7447406302
 11
-0.8052974461
 21
23.7447406302
  0
LINE
  5
365
100
AcDbEntity
  8
ASSI
100
AcDbLine
 62
253
  6
CONTINUOUS
 10
1.0052669851
 20
23.7447406302
 11
0.8052974461
 21
23.7447406302
  0
LINE
  5
366
100
AcDbEntity
  8
ASSI
100
AcDbLine
 62
253
  6
CONTINUOUS
 10
4.2447330149
 20
23.7447406302
 11
4.4447025539
 21
23.7447406302
  0
LINE
  5
367
100
AcDbEntity
  8
ASSI
100
AcDbLine
 62
253
  6
CONTINUOUS
 10
-4.2447330149
 20
23.7447406302
 11
-4.4447025539
 21
23.7447406302
  0
LINE
  5
368
100
AcDbEntity
  8
ASSI
100
AcDbLine
 62
253
  6
CONTINUOUS
 10
4.1947406302
 20
23.7947330149
 11
1.0552593698
 21
23.7947330149
  0
LINE
  5
369
100
AcDbEntity
  8
ASSI
100
AcDbLine
 62
253
  6
CONTINUOUS
 10
-1.0552593698
 20
23.7947330149
 11
-4.1947406302
 21
23.7947330149
  0
LINE
  5
36A
100
AcDbEntity
  8
ASSI
100
AcDbLine
 62
253
  6
CONTINUOUS
 10
-8.7631293807
 20
23.8443375673
 11
-7.2402075759
 21
23.8443375673
  0
LINE
  5
36B
100
AcDbEntity
  8
ASSI
100
AcDbLine
 62
253
  6
CONTINUOUS
 10
8.7631293807
 20
23.8443375673
 11
7.2402075759
 21
23.8443375673
  0
LINE
  5
36C
100
AcDbEntity
  8
ASSI
100
AcDbLine
 62
253
  6
CONTINUOUS
 10
-10.5597924241
 20
23.8443375673
 11
-9.0368706193
 21
23.8443375673
  0
LINE
  5
36D
100
AcDbEntity
  8
ASSI
100
AcDbLine
 62
253
  6
CONTINUOUS
 10
9.0368706193
 20
23.8443375673
 11
10.5597924241
 21
23.8443375673
  0
LINE
  5
36E
100
AcDbEntity
  8
ASSI
100
AcDbLine
 62
253
  6
CONTINUOUS
 10
4.1947406302
 20
23.9947025539
 11
1.0552593698
 21
23.9947025539
  0
LINE
  5
36F
100
AcDbEntity
  8
ASSI
100
AcDbLine
 62
253
  6
CONTINUOUS
 10
-1.0552593698
 20
23.9947025539
 11
-4.1947406302
 21
23.9947025539
  0
LINE
  5
370
100
AcDbEntity
  8
ASSI
100
AcDbLine
 62
7
  6
CONTINUOUS
 10
4.2000380762
 20
24.0
 11
1.0499619238
 21
24.0
  0
LINE
  5
371
100
AcDbEntity
  8
ASSI
100
AcDbLine
 62
7
  6
CONTINUOUS
 10
-1.0499619238
 20
24.0
 11
-4.2000380762
 21
24.0
  0
LINE
  5
372
100
AcDbEntity
  8
ASSI
100
AcDbLine
 62
253
  6
CONTINUOUS
 10
7.2402075759
 20
24.2106880219
 11
10.5597924241
 21
24.2106880219
  0
LINE
  5
373
100
AcDbEntity
  8
ASSI
100
AcDbLine
 62
253
  6
CONTINUOUS
 10
-7.2402075759
 20
24.2106880219
 11
-10.5597924241
 21
24.2106880219
  0
LINE
  5
374
100
AcDbEntity
  8
ASSI
100
AcDbLine
 62
253
  6
CONTINUOUS
 10
-10.3606803565
 20
24.4606498956
 11
-7.4393195933
 21
24.4606499457
  0
LINE
  5
375
100
AcDbEntity
  8
ASSI
100
AcDbLine
 62
253
  6
CONTINUOUS
 10
7.4393196435
 20
24.4606498956
 11
10.3606804067
 21
24.4606499457
  0
LINE
  5
376
100
AcDbEntity
  8
ASSI
100
AcDbLine
 62
7
  6
CONTINUOUS
 10
10.400030461
 20
24.5
 11
7.399969539
 21
24.5
  0
LINE
  5
377
100
AcDbEntity
  8
ASSI
100
AcDbLine
 62
7
  6
CONTINUOUS
 10
-7.399969539
 20
24.5
 11
-10.400030461
 21
24.5
  0
LWPOLYLINE
  5
378
100
AcDbEntity
  8
0
100
AcDbPolyline
 62
7
  6
CONTINUOUS
 90
7
 70
0
 43
0.3500000006
 10
3.5357143936
 20
36.1434576416
 10
2.0357142191
 20
36.1434576416
 10
3.5357143936
 20
38.286311554
 10
3.5357143936
 20
38.7148850555
 10
3.1071428747
 20
39.1434585571
 10
2.464285738
 20
39.1434585571
 10
2.0357142191
 20
38.5006005707
  0
LWPOLYLINE
  5
379
100
AcDbEntity
  8
0
100
AcDbPolyline
 62
7
  6
CONTINUOUS
 90
7
 70
0
 43
0.3500000006
 10
-0.5357142924
 20
36.1434576416
 10
-2.0357142191
 20
36.1434576416
 10
-0.5357142924
 20
38.286311554
 10
-0.5357142924
 20
38.7148850555
 10
-0.9642857051
 20
39.1434585571
 10
-1.6071428418
 20
39.1434585571
 10
-2.0357142191
 20
38.5006005707
  0
LWPOLYLINE
  5
37A
100
AcDbEntity
  8
0
100
AcDbPolyline
 62
7
  6
CONTINUOUS
 90
7
 70
0
 43
0.3500000006
 10
-2.8928572569
 20
36.1434576416
 10
-4.3928571482
 20
36.1434576416
 10
-2.8928572569
 20
38.286311554
 10
-2.8928572569
 20
38.7148850555
 10
-3.3214284925
 20
39.1434585571
 10
-3.9642856293
 20
39.1434585571
 10
-4.3928571482
 20
38.5006005707
  0
LWPOLYLINE
  5
37B
100
AcDbEntity
  8
0
100
AcDbPolyline
 62
7
  6
CONTINUOUS
 90
10
 70
0
 43
0.3500000006
 10
-33.1713325195
 20
50.6434575348
 10
-33.814190506
 20
50.0005995483
 10
-34.2427617416
 20
49.143457077
 10
-34.2427617416
 20
48.0720301208
 10
-33.814190506
 20
47.6434566193
 10
-33.1713325195
 20
47.6434566193
 10
-32.7427612839
 20
48.0720301208
 10
-32.7427612839
 20
48.9291725922
 10
-33.1713325195
 20
49.3577415619
 10
-34.0999039078
 20
49.3577415619
  0
LWPOLYLINE
  5
37C
100
AcDbEntity
  8
0
100
AcDbPolyline
 62
7
  6
CONTINUOUS
 90
5
 70
0
 43
0.3500000006
 10
-24.4940662079
 20
39.357743042
 10
-24.1369238892
 20
39.5720275269
 10
-24.1369238892
 20
40.2148855133
 10
-24.4940662079
 20
40.643454483
 10
-25.3512086792
 20
40.643454483
  0
LWPOLYLINE
  5
37D
100
AcDbEntity
  8
0
100
AcDbPolyline
 62
7
  6
CONTINUOUS
 90
3
 70
0
 43
0.3500000006
 10
-31.1369237595
 20
39.7863120117
 10
-30.2797812881
 20
40.643454483
 10
-30.2797812881
 20
37.6434580994
  0
LWPOLYLINE
  5
37E
100
AcDbEntity
  8
0
100
AcDbPolyline
 62
7
  6
CONTINUOUS
 90
10
 70
0
 43
0.3500000006
 10
-28.3512095947
 20
40.643454483
 10
-28.9940675812
 20
40.0006010284
 10
-29.4226388168
 20
39.1434585571
 10
-29.4226388168
 20
38.0720270691
 10
-28.9940675812
 20
37.6434580994
 10
-28.3512095947
 20
37.6434580994
 10
-27.9226383591
 20
38.0720270691
 10
-27.9226383591
 20
38.9291695404
 10
-28.3512095947
 20
39.357743042
 10
-29.279780983
 20
39.357743042
  0
LINE
  5
37F
100
AcDbEntity
  8
ASSI
100
AcDbLine
 62
7
  6
CONTINUOUS
 10
-36.3444169108
 20
-24.5
 11
-35.5900538092
 21
-24.4868325431
  0
LINE
  5
380
100
AcDbEntity
  8
ASSI
100
AcDbLine
 62
7
  6
CONTINUOUS
 10
-38.5987800124
 20
-24.4606499457
 11
-36.3444169108
 21
-24.5
  0
LINE
  5
381
100
AcDbEntity
  8
ASSI
100
AcDbLine
 62
253
  6
CONTINUOUS
 10
-38.5987800124
 20
-24.2606804067
 11
-36.3444169108
 21
-24.300030461
  0
LINE
  5
382
100
AcDbEntity
  8
ASSI
100
AcDbLine
 62
253
  6
CONTINUOUS
 10
-36.3444169108
 20
23.3515746082
 11
-35.5659264295
 21
23.8010362971
  0
LINE
  5
383
100
AcDbEntity
  8
ASSI
100
AcDbLine
 62
7
  6
CONTINUOUS
 10
-36.3444169108
 20
23.1226497308
 11
-35.4693437035
 21
23.6278734826
  0
LINE
  5
384
100
AcDbEntity
  8
ASSI
100
AcDbLine
 62
253
  6
CONTINUOUS
 10
-36.3444169108
 20
-24.300030461
 11
-35.5900538092
 21
-24.286863004
  0
LINE
  5
385
100
AcDbEntity
  8
ASSI
100
AcDbLine
 62
7
  6
CONTINUOUS
 10
-30.5900573223
 20
-23.8995572798
 11
-35.3444169108
 21
-23.9825449351
  0
LINE
  5
386
100
AcDbEntity
  8
ASSI
100
AcDbLine
 62
253
  6
CONTINUOUS
 10
-30.7233563306
 20
-23.6519220988
 11
-35.3444169108
 21
-23.7325830113
  0
LINE
  5
387
100
AcDbEntity
  8
ASSI
100
AcDbLine
 62
7
  6
CONTINUOUS
 10
-26.3269645044
 20
-22.2251447178
 11
-36.3444169062
 21
-22.3999999999
  0
LINE
  5
388
100
AcDbEntity
  8
ASSI
100
AcDbLine
 62
253
  6
CONTINUOUS
 10
-35.5409264295
 20
-24.2368706193
 11
-35.3444169108
 21
-24.2368706193
  0
LINE
  5
389
100
AcDbEntity
  8
ASSI
100
AcDbLine
 62
253
  6
CONTINUOUS
 10
-38.6479073921
 20
-24.2106880219
 11
-38.8444169108
 21
-24.2106880219
  0
LINE
  5
38A
100
AcDbEntity
  8
ASSI
100
AcDbLine
 62
253
  6
CONTINUOUS
 10
-35.5409264295
 20
-23.8443375673
 11
-35.3444169108
 21
-23.8443375622
  0
LINE
  5
38B
100
AcDbEntity
  8
ASSI
100
AcDbLine
 62
253
  6
CONTINUOUS
 10
-38.6479073921
 20
-23.8443375673
 11
-38.8444169108
 21
-23.8443375673
  0
LINE
  5
38C
100
AcDbEntity
  8
ASSI
100
AcDbLine
 62
7
  6
CONTINUOUS
 10
-36.5534675312
 20
-22.3890441212
 11
-36.344425706
 21
-22.3999995391
  0
LINE
  5
38D
100
AcDbEntity
  8
ASSI
100
AcDbLine
 62
7
  6
CONTINUOUS
 10
-37.6721671955
 20
-22.3304155561
 11
-43.8640322885
 21
-22.005913657
  0
LINE
  5
38E
100
AcDbEntity
  8
ASSI
100
AcDbLine
 62
253
  6
CONTINUOUS
 10
-35.5659264295
 20
-23.8010362971
 11
-36.3444169108
 21
-23.3515746082
  0
LINE
  5
38F
100
AcDbEntity
  8
ASSI
100
AcDbLine
 62
7
  6
CONTINUOUS
 10
-35.4694339014
 20
-23.6278214068
 11
-36.3444169108
 21
-23.1226497308
  0
LINE
  5
390
100
AcDbEntity
  8
ASSI
100
AcDbLine
 62
253
  6
CONTINUOUS
 10
-44.1639055544
 20
-20.8558253568
 11
-44.6492207103
 21
-20.8772669682
  0
LINE
  5
391
100
AcDbEntity
  8
ASSI
100
AcDbLine
 62
253
  6
CONTINUOUS
 10
-36.3444169108
 20
-21.9000761524
 11
-35.3444169108
 21
-21.8826210875
  0
LINE
  5
392
100
AcDbEntity
  8
RACCORDO
100
AcDbLine
 62
253
  6
CONTINUOUS
 10
-25.6417989502
 20
-20.206013577
 11
-25.3444169108
 21
-20.206013577
  0
LINE
  5
393
100
AcDbEntity
  8
ASSI
100
AcDbLine
 62
7
  6
CONTINUOUS
 10
-25.3714186437
 20
-21.4561094406
 11
-35.3444169108
 21
-21.4051134101
  0
LINE
  5
394
100
AcDbEntity
  8
ASSI
100
AcDbLine
 62
7
  6
CONTINUOUS
 10
-25.3444169108
 20
-20.9872686779
 11
-35.3444169108
 21
-20.9
  0
LINE
  5
395
100
AcDbEntity
  8
ASSI
100
AcDbLine
 62
253
  6
CONTINUOUS
 10
-43.4984138123
 20
-21.5250746743
 11
-36.3444169108
 21
-21.8999997649
  0
LINE
  5
396
100
AcDbEntity
  8
0
100
AcDbLine
 62
7
  6
CONTINUOUS
 10
-25.3592932592
 20
-20.087138854
 11
-25.3444169108
 21
-20.0872686779
  0
LINE
  5
397
100
AcDbEntity
  8
RACCORDO
100
AcDbLine
 62
253
  6
CONTINUOUS
 10
-25.8066969471
 20
-20.0091180479
 11
-35.3444169108
 21
-18.3087590957
  0
LINE
  5
398
100
AcDbEntity
  8
RACCORDO
100
AcDbLine
 62
7
  6
CONTINUOUS
 10
-25.7566619031
 20
-19.7137747542
 11
-35.3444169108
 21
-18.0044956895
  0
LWPOLYLINE
  5
399
100
AcDbEntity
  8
ASSI
100
AcDbPolyline
 62
7
  6
CONTINUOUS
 90
4
 70
0
 10
-44.999590971
 20
20.8701690373
 10
-45.162815008
 20
17.4681709873
 10
-45.3001589921
 20
13.9768035091
 10
-45.4151270011
 20
10.1698044431
  0
LWPOLYLINE
  5
39A
100
AcDbEntity
  8
0
100
AcDbPolyline
 62
7
  6
CONTINUOUS
 90
3
 70
0
 43
0.3500000006
 10
-31.1713341751
 20
47.929172287
 10
-31.2427608261
 20
47.7148832703
 10
-31.38561866
 20
47.4291721344
  0
LINE
  5
39B
100
AcDbEntity
  8
0
100
AcDbLine
 62
7
  6
CONTINUOUS
 10
-20.1444169108
 20
-14.1625113365
 11
-21.1444169108
 21
-14.25
  0
LINE
  5
39C
100
AcDbEntity
  8
DRAFT
100
AcDbLine
 62
7
  6
CONTINUOUS
 10
-34.6444169108
 20
-15.25
 11
-21.6356907076
 21
-15.0229318395
  0
LINE
  5
39D
100
AcDbEntity
  8
RACCORDO
100
AcDbLine
 62
7
  6
CONTINUOUS
 10
-34.6444169108
 20
-15.25
 11
-21.6356907076
 21
-15.0229318395
  0
LWPOLYLINE
  5
39E
100
AcDbEntity
  8
ASSI
100
AcDbPolyline
 62
7
  6
CONTINUOUS
 90
4
 70
0
 10
-45.4151270096
 20
-10.1698041105
 10
-45.300391888
 20
-13.970141072
 10
-45.1631060768
 20
-17.461511065
 10
-44.999590971
 20
-20.8701690372
  0
LINE
  5
39F
100
AcDbEntity
  8
RACCORDO
100
AcDbLine
 62
7
  6
CONTINUOUS
 10
-45.4023325352
 20
9.3229074704
 11
-45.3952422978
 21
8.8062591104
  0
LINE
  5
3A0
100
AcDbEntity
  8
RACCORDO
100
AcDbLine
 62
7
  6
CONTINUOUS
 10
-45.3952422978
 20
8.8062591104
 11
-45.388395196
 21
8.1846725346
  0
LWPOLYLINE
  5
3A1
100
AcDbEntity
  8
RACCORDO
100
AcDbPolyline
 62
7
  6
CONTINUOUS
 90
3
 70
0
 10
-45.4151390958
 20
10.1194287016
 10
-45.4150726512
 20
10.1125716667
 10
-45.4023325352
 20
9.3229074704
  0
LINE
  5
3A2
100
AcDbEntity
  8
RACCORDO
100
AcDbLine
 62
7
  6
CONTINUOUS
 10
-45.3989001371
 20
-3.5038322982
 11
-45.3873850976
 21
-4.7167529125
  0
LINE
  5
3A3
100
AcDbEntity
  8
RACCORDO
100
AcDbLine
 62
7
  6
CONTINUOUS
 10
-45.388395196
 20
8.1846725346
 11
-45.3845477175
 21
7.7198173336
  0
LINE
  5
3A4
100
AcDbEntity
  8
RACCORDO
100
AcDbLine
 62
7
  6
CONTINUOUS
 10
-45.3873850976
 20
-4.7167529125
 11
-45.3828175707
 21
-5.3181444125
  0
LINE
  5
3A5
100
AcDbEntity
  8
RACCORDO
100
AcDbLine
 62
7
  6
CONTINUOUS
 10
-45.4062339434
 20
-2.4535913572
 11
-45.3989001371
 21
-3.5038322982
  0
LINE
  5
3A6
100
AcDbEntity
  8
RACCORDO
100
AcDbLine
 62
7
  6
CONTINUOUS
 10
-45.3845477175
 20
7.7198173336
 11
-45.381630383
 21
7.2214634503
  0
LINE
  5
3A7
100
AcDbEntity
  8
RACCORDO
100
AcDbLine
 62
7
  6
CONTINUOUS
 10
-45.4108893441
 20
-1.4242363515
 11
-45.4062339434
 21
-2.4535913572
  0
LINE
  5
3A8
100
AcDbEntity
  8
RACCORDO
100
AcDbLine
 62
7
  6
CONTINUOUS
 10
-45.3828175707
 20
-5.3181444125
 11
-45.3802740408
 21
-5.9212768114
  0
LINE
  5
3A9
100
AcDbEntity
  8
RACCORDO
100
AcDbLine
 62
7
  6
CONTINUOUS
 10
-45.381630383
 20
7.2214634503
 11
-45.3799556022
 21
6.6950573761
  0
LINE
  5
3AA
100
AcDbEntity
  8
RACCORDO
100
AcDbLine
 62
7
  6
CONTINUOUS
 10
-45.413037293
 20
-0.41578857
 11
-45.4108893441
 21
-1.4242363515
  0
LINE
  5
3AB
100
AcDbEntity
  8
RACCORDO
100
AcDbLine
 62
7
  6
CONTINUOUS
 10
-45.3802740408
 20
-5.9212768114
 11
-45.3797263392
 21
-6.5144814398
  0
LINE
  5
3AC
100
AcDbEntity
  8
RACCORDO
100
AcDbLine
 62
7
  6
CONTINUOUS
 10
-45.4130305617
 20
0.4227619915
 11
-45.413037293
 21
-0.41578857
  0
LINE
  5
3AD
100
AcDbEntity
  8
RACCORDO
100
AcDbLine
 62
7
  6
CONTINUOUS
 10
-45.3799556022
 20
6.6950573761
 11
-45.3798342446
 21
6.1460018563
  0
LINE
  5
3AE
100
AcDbEntity
  8
RACCORDO
100
AcDbLine
 62
7
  6
CONTINUOUS
 10
-45.4108649406
 20
1.4315927444
 11
-45.4130305617
 21
0.4227619915
  0
LINE
  5
3AF
100
AcDbEntity
  8
RACCORDO
100
AcDbLine
 62
7
  6
CONTINUOUS
 10
-45.3797263392
 20
-6.5144814398
 11
-45.3810650992
 21
-7.0873565275
  0
LINE
  5
3B0
100
AcDbEntity
  8
RACCORDO
100
AcDbLine
 62
7
  6
CONTINUOUS
 10
-45.3798342446
 20
6.1460018563
 11
-45.3814636962
 21
5.5807462796
  0
LINE
  5
3B1
100
AcDbEntity
  8
RACCORDO
100
AcDbLine
 62
7
  6
CONTINUOUS
 10
-45.4061912252
 20
2.4610241714
 11
-45.4108649406
 21
1.4315927444
  0
LINE
  5
3B2
100
AcDbEntity
  8
RACCORDO
100
AcDbLine
 62
7
  6
CONTINUOUS
 10
-45.3810650992
 20
-7.0873565275
 11
-45.3839240892
 21
-7.629305853
  0
LINE
  5
3B3
100
AcDbEntity
  8
RACCORDO
100
AcDbLine
 62
7
  6
CONTINUOUS
 10
-45.4151422965
 20
-10.117068433
 11
-45.4151629031
 21
-10.1204019515
  0
LINE
  5
3B4
100
AcDbEntity
  8
RACCORDO
100
AcDbLine
 62
7
  6
CONTINUOUS
 10
-45.3814636962
 20
5.5807462796
 11
-45.3849388946
 21
5.0052024832
  0
LINE
  5
3B5
100
AcDbEntity
  8
RACCORDO
100
AcDbLine
 62
7
  6
CONTINUOUS
 10
-45.3988408311
 20
3.5110350068
 11
-45.4061912252
 21
2.4610241714
  0
LINE
  5
3B6
100
AcDbEntity
  8
RACCORDO
100
AcDbLine
 62
7
  6
CONTINUOUS
 10
-45.3839240892
 20
-7.629305853
 11
-45.3878980684
 21
-8.1311801689
  0
LINE
  5
3B7
100
AcDbEntity
  8
RACCORDO
100
AcDbLine
 62
7
  6
CONTINUOUS
 10
-45.3849388946
 20
5.0052024832
 11
-45.3988408311
 21
3.5110350068
  0
LINE
  5
3B8
100
AcDbEntity
  8
RACCORDO
100
AcDbLine
 62
7
  6
CONTINUOUS
 10
-45.3878980684
 20
-8.1311801689
 11
-45.3950517291
 21
-8.7910438661
  0
LINE
  5
3B9
100
AcDbEntity
  8
RACCORDO
100
AcDbLine
 62
7
  6
CONTINUOUS
 10
-45.3950517291
 20
-8.7910438661
 11
-45.4045486341
 21
-9.4692984491
  0
LWPOLYLINE
  5
3BA
100
AcDbEntity
  8
RACCORDO
100
AcDbPolyline
 62
7
  6
CONTINUOUS
 90
5
 70
0
 10
-45.4151629031
 20
-10.1204019515
 10
-45.4154023895
 20
-10.1345823895
 10
-45.4154396484
 20
-10.1490076126
 10
-45.4152641649
 20
-10.1636746456
 10
-45.4151270657
 20
-10.1698041067
  0
LINE
  5
3BB
100
AcDbEntity
  8
RACCORDO
100
AcDbLine
 62
7
  6
CONTINUOUS
 10
-45.4045486341
 20
-9.4692984491
 11
-45.4151422965
 21
-10.117068433
  0
LINE
  5
3BC
100
AcDbEntity
  8
DRAFT
100
AcDbLine
 62
7
  6
CONTINUOUS
 10
-35.3444169108
 20
-13.9758216238
 11
-34.6444169108
 21
-13.9697128163
  0
LINE
  5
3BD
100
AcDbEntity
  8
DRAFT
100
AcDbLine
 62
253
  6
CONTINUOUS
 10
-34.6444169108
 20
-13.65
 11
-35.3444169108
 21
-13.65
  0
LINE
  5
3BE
100
AcDbEntity
  8
RACCORDO
100
AcDbLine
 62
7
  6
CONTINUOUS
 10
-34.6444169108
 20
-11.5697128163
 11
-35.3444169108
 21
-11.5758216238
  0
LINE
  5
3BF
100
AcDbEntity
  8
DRAFT
100
AcDbLine
 62
7
  6
CONTINUOUS
 10
-35.3444169108
 20
-10.9241783762
 11
-34.6444169108
 21
-10.9302871837
  0
LINE
  5
3C0
100
AcDbEntity
  8
RACCORDO
100
AcDbLine
 62
7
  6
CONTINUOUS
 10
-35.3444169108
 20
-10.9241783762
 11
-34.6444169108
 21
-10.9302871837
  0
LINE
  5
3C1
100
AcDbEntity
  8
RACCORDO
100
AcDbLine
 62
253
  6
CONTINUOUS
 10
-34.6444169108
 20
-8.85
 11
-35.3444169108
 21
-8.85
  0
LINE
  5
3C2
100
AcDbEntity
  8
DRAFT
100
AcDbLine
 62
7
  6
CONTINUOUS
 10
-34.6444169108
 20
-8.0126666667
 11
-33.8767456207
 21
-8.0174230429
  0
LINE
  5
3C3
100
AcDbEntity
  8
DRAFT
100
AcDbLine
 62
7
  6
CONTINUOUS
 10
-35.3444169108
 20
-8.5241783762
 11
-34.6444169108
 21
-8.5302871837
  0
LINE
  5
3C4
100
AcDbEntity
  8
ASSI
100
AcDbLine
 62
7
  6
CONTINUOUS
 10
-38.8444169108
 20
-22.2689805518
 11
-38.8444169108
 21
-24.2106880219
  0
LINE
  5
3C5
100
AcDbEntity
  8
ASSI
100
AcDbLine
 62
7
  6
CONTINUOUS
 10
-38.8444169108
 20
22.2689805518
 11
-38.8444169108
 21
24.2106880219
  0
LINE
  5
3C6
100
AcDbEntity
  8
ASSI
100
AcDbLine
 62
253
  6
CONTINUOUS
 10
-38.6479073921
 20
-23.8443375673
 11
-38.6479073921
 21
-24.2106880219
  0
LINE
  5
3C7
100
AcDbEntity
  8
ASSI
100
AcDbLine
 62
253
  6
CONTINUOUS
 10
-38.6479073921
 20
23.8443375673
 11
-38.6479073921
 21
24.2106880219
  0
LINE
  5
3C8
100
AcDbEntity
  8
ASSI
100
AcDbLine
 62
253
  6
CONTINUOUS
 10
-38.5987800124
 20
23.5581814706
 11
-38.5987800124
 21
22.2818538361
  0
LINE
  5
3C9
100
AcDbEntity
  8
ASSI
100
AcDbLine
 62
253
  6
CONTINUOUS
 10
-38.5987800124
 20
-22.2818538361
 11
-38.5987800124
 21
-23.5581814706
  0
LINE
  5
3CA
100
AcDbEntity
  8
ASSI
100
AcDbLine
 62
7
  6
CONTINUOUS
 10
-37.8444169108
 20
23.1226497308
 11
-37.8444169108
 21
22.3213883311
  0
LINE
  5
3CB
100
AcDbEntity
  8
ASSI
100
AcDbLine
 62
7
  6
CONTINUOUS
 10
-37.8444169108
 20
-22.3213883311
 11
-37.8444169108
 21
-23.1226497308
  0
LINE
  5
3CC
100
AcDbEntity
  8
ASSI
100
AcDbLine
 62
253
  6
CONTINUOUS
 10
-37.5987800124
 20
23.2097560788
 11
-37.5987800124
 21
22.3341525772
  0
LINE
  5
3CD
100
AcDbEntity
  8
ASSI
100
AcDbLine
 62
253
  6
CONTINUOUS
 10
-37.5987800124
 20
-22.3341525772
 11
-37.5987800124
 21
-23.2097560788
  0
LWPOLYLINE
  5
3CE
100
AcDbEntity
  8
0
100
AcDbPolyline
 62
7
  6
CONTINUOUS
 90
3
 70
0
 43
0.3500000006
 10
-26.3512089844
 20
37.9291692352
 10
-26.4226379013
 20
37.7148847504
 10
-26.5654957352
 20
37.4291690826
  0
LINE
  5
3CF
100
AcDbEntity
  8
DRAFT
100
AcDbLine
 62
7
  6
CONTINUOUS
 10
-34.6444169108
 20
-6.7940607775
 11
-35.3444169108
 21
-6.8001695849
  0
LINE
  5
3D0
100
AcDbEntity
  8
DRAFT
100
AcDbLine
 62
7
  6
CONTINUOUS
 10
-21.6444169108
 20
-7.4769158441
 11
-21.6356907076
 21
-7.4770681605
  0
LINE
  5
3D1
100
AcDbEntity
  8
RACCORDO
100
AcDbLine
 62
7
  6
CONTINUOUS
 10
-21.6444169108
 20
-7.4769158441
 11
-21.6356907076
 21
-7.4770681605
  0
LINE
  5
3D2
100
AcDbEntity
  8
0
100
AcDbLine
 62
7
  6
CONTINUOUS
 10
-20.1444169108
 20
-8.3374886635
 11
-21.1444169108
 21
-8.25
  0
LINE
  5
3D3
100
AcDbEntity
  8
ASSI
100
AcDbLine
 62
7
  6
CONTINUOUS
 10
-36.3444169108
 20
21.9000761524
 11
-36.3444169108
 21
21.0
  0
LINE
  5
3D4
100
AcDbEntity
  8
ASSI
100
AcDbLine
 62
7
  6
CONTINUOUS
 10
-36.3444169108
 20
-21.9000761524
 11
-36.3444169108
 21
-21.0
  0
LINE
  5
3D5
100
AcDbEntity
  8
ASSI
100
AcDbLine
 62
7
  6
CONTINUOUS
 10
-36.3444169108
 20
-22.3999997358
 11
-36.3444169108
 21
-24.300030461
  0
LINE
  5
3D6
100
AcDbEntity
  8
ASSI
100
AcDbLine
 62
7
  6
CONTINUOUS
 10
-36.3444169108
 20
22.3999999296
 11
-36.3444169108
 21
24.300030461
  0
LINE
  5
3D7
100
AcDbEntity
  8
ASSI
100
AcDbLine
 62
253
  6
CONTINUOUS
 10
-35.5900538092
 20
23.5581814706
 11
-35.5900538092
 21
22.3868325431
  0
LINE
  5
3D8
100
AcDbEntity
  8
ASSI
100
AcDbLine
 62
253
  6
CONTINUOUS
 10
-35.5900538092
 20
-22.3868325431
 11
-35.5900538092
 21
-23.5581814706
  0
LINE
  5
3D9
100
AcDbEntity
  8
ASSI
100
AcDbLine
 62
253
  6
CONTINUOUS
 10
-35.5409264295
 20
-24.2368706193
 11
-35.5409264295
 21
-23.8443375673
  0
LINE
  5
3DA
100
AcDbEntity
  8
ASSI
100
AcDbLine
 62
253
  6
CONTINUOUS
 10
-35.5409264295
 20
23.8443375673
 11
-35.5409264295
 21
24.2368706193
  0
LINE
  5
3DB
100
AcDbEntity
  8
ASSI
100
AcDbLine
 62
7
  6
CONTINUOUS
 10
-35.3444169108
 20
-24.2368706193
 11
-35.3444169108
 21
24.2368706193
  0
LINE
  5
3DC
100
AcDbEntity
  8
DRAFT
100
AcDbLine
 62
7
  6
CONTINUOUS
 10
-34.6444169108
 20
15.25
 11
-34.6444169108
 21
-15.25
  0
LINE
  5
3DD
100
AcDbEntity
  8
DRAFT
100
AcDbLine
 62
7
  6
CONTINUOUS
 10
-33.8767456207
 20
8.0174230429
 11
-33.8767456207
 21
-8.0174230429
  0
LINE
  5
3DE
100
AcDbEntity
  8
0
100
AcDbLine
 62
7
  6
CONTINUOUS
 10
-34.6444169108
 20
-2.9429996219
 11
-35.3444169108
 21
-2.9429996219
  0
LINE
  5
3DF
100
AcDbEntity
  8
RACCORDO
100
AcDbLine
 62
253
  6
CONTINUOUS
 10
-45.4121522685
 20
-0.0000000018
 11
-45.4132360085
 21
-0.0000000016
  0
LINE
  5
3E0
100
AcDbEntity
  8
ASSI
100
AcDbLine
 62
7
  6
CONTINUOUS
 10
-30.8444169108
 20
23.5393800954
 11
-30.8444169108
 21
22.8606199046
  0
LINE
  5
3E1
100
AcDbEntity
  8
ASSI
100
AcDbLine
 62
7
  6
CONTINUOUS
 10
-30.8444169108
 20
-22.8606199046
 11
-30.8444169108
 21
-23.5393800954
  0
LINE
  5
3E2
100
AcDbEntity
  8
ASSI
100
AcDbLine
 62
253
  6
CONTINUOUS
 10
-30.7233563306
 20
-23.6519220988
 11
-30.7233563306
 21
-22.3018840226
  0
LINE
  5
3E3
100
AcDbEntity
  8
ASSI
100
AcDbLine
 62
253
  6
CONTINUOUS
 10
-30.7233563306
 20
22.3018840226
 11
-30.7233563306
 21
23.6519220988
  0
LINE
  5
3E4
100
AcDbEntity
  8
ASSI
100
AcDbLine
 62
7
  6
CONTINUOUS
 10
-30.3444169108
 20
-23.6495955845
 11
-30.3444169108
 21
-22.2952696108
  0
LINE
  5
3E5
100
AcDbEntity
  8
ASSI
100
AcDbLine
 62
7
  6
CONTINUOUS
 10
-30.3444169108
 20
22.2952696108
 11
-30.3444169108
 21
23.6495955845
  0
LWPOLYLINE
  5
3E6
100
AcDbEntity
  8
0
100
AcDbPolyline
 62
7
  6
CONTINUOUS
 90
2
 70
0
 43
0.3500000006
 10
-29.1713335648
 20
47.6434566193
 10
-29.1713335648
 20
49.143457077
  0
LINE
  5
3E7
100
AcDbEntity
  8
RACCORDO
100
AcDbLine
 62
7
  6
CONTINUOUS
 10
-28.5768797832
 20
6.2414707713
 11
-28.5768797832
 21
-6.2414707713
  0
LINE
  5
3E8
100
AcDbEntity
  8
0
100
AcDbLine
 62
7
  6
CONTINUOUS
 10
-34.6444169108
 20
2.9429996219
 11
-35.3444169108
 21
2.9429996219
  0
LINE
  5
3E9
100
AcDbEntity
  8
RACCORDO
100
AcDbLine
 62
253
  6
CONTINUOUS
 10
-25.6417989502
 20
20.9846734642
 11
-25.6417989502
 21
20.2059987693
  0
LINE
  5
3EA
100
AcDbEntity
  8
RACCORDO
100
AcDbLine
 62
253
  6
CONTINUOUS
 10
-25.6417989502
 20
-20.9846734642
 11
-25.6417989502
 21
-20.206013577
  0
LINE
  5
3EB
100
AcDbEntity
  8
RACCORDO
100
AcDbLine
 62
7
  6
CONTINUOUS
 10
-25.3444169108
 20
20.9872686779
 11
-25.3444169108
 21
20.2059987694
  0
LINE
  5
3EC
100
AcDbEntity
  8
ASSI
100
AcDbLine
 62
7
  6
CONTINUOUS
 10
-25.3444169108
 20
20.2059987694
 11
-25.3444169108
 21
20.0872686779
  0
LINE
  5
3ED
100
AcDbEntity
  8
ASSI
100
AcDbLine
 62
7
  6
CONTINUOUS
 10
-25.3444169108
 20
-21.2252970227
 11
-25.3444169108
 21
-20.9872686779
  0
LINE
  5
3EE
100
AcDbEntity
  8
ASSI
100
AcDbLine
 62
7
  6
CONTINUOUS
 10
-25.3444169108
 20
-20.0872686779
 11
-25.3444169108
 21
-20.206013577
  0
LINE
  5
3EF
100
AcDbEntity
  8
RACCORDO
100
AcDbLine
 62
7
  6
CONTINUOUS
 10
-25.3444169108
 20
-20.9872686779
 11
-25.3444169108
 21
-20.2060281563
  0
LINE
  5
3F0
100
AcDbEntity
  8
ASSI
100
AcDbLine
 62
7
  6
CONTINUOUS
 10
-25.3444169108
 20
20.9872686779
 11
-25.3444169108
 21
21.2252970227
  0
LINE
  5
3F1
100
AcDbEntity
  8
0
100
AcDbLine
 62
7
  6
CONTINUOUS
 10
-20.1444169108
 20
8.3374886635
 11
-21.1444169108
 21
8.25
  0
LINE
  5
3F2
100
AcDbEntity
  8
DRAFT
100
AcDbLine
 62
7
  6
CONTINUOUS
 10
-21.6444169108
 20
7.4769158441
 11
-21.6356907076
 21
7.4770681605
  0
LINE
  5
3F3
100
AcDbEntity
  8
RACCORDO
100
AcDbLine
 62
7
  6
CONTINUOUS
 10
-21.6444169108
 20
7.4769158441
 11
-21.6356907076
 21
7.4770681605
  0
LINE
  5
3F4
100
AcDbEntity
  8
DRAFT
100
AcDbLine
 62
7
  6
CONTINUOUS
 10
-34.6444169108
 20
8.0126666667
 11
-33.8767456207
 21
8.0174230429
  0
LINE
  5
3F5
100
AcDbEntity
  8
DRAFT
100
AcDbLine
 62
7
  6
CONTINUOUS
 10
-34.6444169108
 20
6.7940607775
 11
-35.3444169108
 21
6.8001695849
  0
LINE
  5
3F6
100
AcDbEntity
  8
RACCORDO
100
AcDbLine
 62
253
  6
CONTINUOUS
 10
-22.1356907076
 20
6.1517848755
 11
-22.1356907076
 21
-6.1517848755
  0
LINE
  5
3F7
100
AcDbEntity
  8
RACCORDO
100
AcDbLine
 62
7
  6
CONTINUOUS
 10
-21.6444169108
 20
7.7170090432
 11
-21.6444169108
 21
-7.7170090432
  0
LINE
  5
3F8
100
AcDbEntity
  8
RACCORDO
100
AcDbLine
 62
253
  6
CONTINUOUS
 10
-21.6356907076
 20
-7.4770681605
 11
-21.6356907076
 21
-15.0229318395
  0
LINE
  5
3F9
100
AcDbEntity
  8
DRAFT
100
AcDbLine
 62
7
  6
CONTINUOUS
 10
-35.3444169108
 20
8.5241783762
 11
-34.6444169108
 21
8.5302871837
  0
LINE
  5
3FA
100
AcDbEntity
  8
RACCORDO
100
AcDbLine
 62
253
  6
CONTINUOUS
 10
-35.3444169108
 20
8.85
 11
-34.6444169108
 21
8.85
  0
LINE
  5
3FB
100
AcDbEntity
  8
RACCORDO
100
AcDbLine
 62
7
  6
CONTINUOUS
 10
-21.1444169108
 20
14.5230079919
 11
-21.1444169108
 21
7.9769920081
  0
LINE
  5
3FC
100
AcDbEntity
  8
RACCORDO
100
AcDbLine
 62
7
  6
CONTINUOUS
 10
-21.1444169108
 20
-7.9769920081
 11
-21.1444169108
 21
-14.5230079919
  0
LINE
  5
3FD
100
AcDbEntity
  8
0
100
AcDbLine
 62
7
  6
CONTINUOUS
 10
-20.1444169108
 20
-14.1624759323
 11
-20.1444169108
 21
-14.1000389971
  0
LINE
  5
3FE
100
AcDbEntity
  8
0
100
AcDbLine
 62
7
  6
CONTINUOUS
 10
-20.1444169108
 20
-8.3999610029
 11
-20.1444169108
 21
-8.3375240677
  0
LINE
  5
3FF
100
AcDbEntity
  8
0
100
AcDbLine
 62
7
  6
CONTINUOUS
 10
-20.1444169108
 20
8.3375240677
 11
-20.1444169108
 21
8.3999610029
  0
LINE
  5
400
100
AcDbEntity
  8
0
100
AcDbLine
 62
7
  6
CONTINUOUS
 10
-20.1444169108
 20
14.1000389971
 11
-20.1444169108
 21
14.1624759323
  0
LINE
  5
401
100
AcDbEntity
  8
0
100
AcDbLine
 62
253
  6
CONTINUOUS
 10
-19.6740030068
 20
14.0579676166
 11
-19.6740030068
 21
8.4420323834
  0
LINE
  5
402
100
AcDbEntity
  8
0
100
AcDbLine
 62
253
  6
CONTINUOUS
 10
-19.6740030068
 20
-8.4420323834
 11
-19.6740030068
 21
-14.0579676166
  0
LINE
  5
403
100
AcDbEntity
  8
0
100
AcDbLine
 62
253
  6
CONTINUOUS
 10
-19.5075228978
 20
13.9344730331
 11
-19.5075228978
 21
8.5655269669
  0
LINE
  5
404
100
AcDbEntity
  8
0
100
AcDbLine
 62
253
  6
CONTINUOUS
 10
-19.5075228978
 20
-8.5655269669
 11
-19.5075228978
 21
-13.9344730331
  0
LINE
  5
405
100
AcDbEntity
  8
0
100
AcDbLine
 62
7
  6
CONTINUOUS
 10
-19.1508613152
 20
11.4781394927
 11
-19.1508613152
 21
11.0220547004
  0
LINE
  5
406
100
AcDbEntity
  8
0
100
AcDbLine
 62
7
  6
CONTINUOUS
 10
-19.1508613152
 20
-11.0218605073
 11
-19.1508613152
 21
-11.4779452996
  0
LINE
  5
407
100
AcDbEntity
  8
RACCORDO
100
AcDbLine
 62
7
  6
CONTINUOUS
 10
-34.6444169108
 20
10.9302871837
 11
-35.3444169108
 21
10.9241783762
  0
LINE
  5
408
100
AcDbEntity
  8
RACCORDO
100
AcDbLine
 62
7
  6
CONTINUOUS
 10
-35.3444169108
 20
11.5758216238
 11
-34.6444169108
 21
11.5697128163
  0
LINE
  5
409
100
AcDbEntity
  8
DRAFT
100
AcDbLine
 62
253
  6
CONTINUOUS
 10
-34.6444169108
 20
13.65
 11
-35.3444169108
 21
13.65
  0
LINE
  5
40A
100
AcDbEntity
  8
DRAFT
100
AcDbLine
 62
7
  6
CONTINUOUS
 10
-35.3444169108
 20
13.9758216238
 11
-34.6444169108
 21
13.9697128163
  0
LINE
  5
40B
100
AcDbEntity
  8
ASSI
100
AcDbLine
 62
7
  6
CONTINUOUS
 10
-35.3444169108
 20
-20.4226497308
 11
-36.3444169108
 21
-21.0
  0
LINE
  5
40C
100
AcDbEntity
  8
DRAFT
100
AcDbLine
 62
7
  6
CONTINUOUS
 10
-34.6444169108
 20
15.25
 11
-21.6356907076
 21
15.0229318395
  0
LINE
  5
40D
100
AcDbEntity
  8
RACCORDO
100
AcDbLine
 62
7
  6
CONTINUOUS
 10
-34.6444169108
 20
15.25
 11
-21.6356907076
 21
15.0229318395
  0
LINE
  5
40E
100
AcDbEntity
  8
0
100
AcDbLine
 62
7
  6
CONTINUOUS
 10
-20.1444169108
 20
14.1625113365
 11
-21.1444169108
 21
14.25
  0
LINE
  5
40F
100
AcDbEntity
  8
ASSI
100
AcDbLine
 62
7
  6
CONTINUOUS
 10
-36.3444169108
 20
21.0
 11
-35.3444169108
 21
20.4226497308
  0
LINE
  5
410
100
AcDbEntity
  8
ASSI
100
AcDbLine
 62
7
  6
CONTINUOUS
 10
-37.8398689807
 20
-23.1200239821
 11
-38.7194901181
 21
-23.6278734826
  0
LINE
  5
411
100
AcDbEntity
  8
ASSI
100
AcDbLine
 62
253
  6
CONTINUOUS
 10
-37.5987800124
 20
-23.2097560788
 11
-38.6229073921
 21
-23.8010362971
  0
LINE
  5
412
100
AcDbEntity
  8
RACCORDO
100
AcDbLine
 62
7
  6
CONTINUOUS
 10
-25.7566447666
 20
19.7137630019
 11
-35.3444169108
 21
18.0041364863
  0
LINE
  5
413
100
AcDbEntity
  8
RACCORDO
100
AcDbLine
 62
253
  6
CONTINUOUS
 10
-25.8066900925
 20
20.0091044624
 11
-35.3444169108
 21
18.3084016899
  0
LINE
  5
414
100
AcDbEntity
  8
ASSI
100
AcDbLine
 62
7
  6
CONTINUOUS
 10
-37.8398689807
 20
23.1200239821
 11
-38.7194169108
 21
23.6278312164
  0
LINE
  5
415
100
AcDbEntity
  8
ASSI
100
AcDbLine
 62
253
  6
CONTINUOUS
 10
-37.5987800124
 20
23.2097560788
 11
-38.6229073921
 21
23.8010362971
  0
LINE
  5
416
100
AcDbEntity
  8
0
100
AcDbLine
 62
7
  6
CONTINUOUS
 10
-25.3444169108
 20
20.0872686779
 11
-25.3592896967
 21
20.0871388851
  0
LINE
  5
417
100
AcDbEntity
  8
RACCORDO
100
AcDbLine
 62
253
  6
CONTINUOUS
 10
-25.3444169108
 20
20.2059987693
 11
-25.6417989502
 21
20.2059987693
  0
LINE
  5
418
100
AcDbEntity
  8
ASSI
100
AcDbLine
 62
253
  6
CONTINUOUS
 10
-44.1639055414
 20
20.855825359
 11
-44.6492333612
 21
20.8772675176
  0
LINE
  5
419
100
AcDbEntity
  8
ASSI
100
AcDbLine
 62
253
  6
CONTINUOUS
 10
-36.3444169108
 20
21.8999997649
 11
-43.4984137889
 21
21.5250746755
  0
LINE
  5
41A
100
AcDbEntity
  8
ASSI
100
AcDbLine
 62
7
  6
CONTINUOUS
 10
-36.3444220188
 20
22.3999997323
 11
-36.553464449
 21
22.3890442828
  0
LINE
  5
41B
100
AcDbEntity
  8
ASSI
100
AcDbLine
 62
7
  6
CONTINUOUS
 10
-37.6721671955
 20
22.3304155561
 11
-43.8640323038
 21
22.0059136562
  0
LINE
  5
41C
100
AcDbEntity
  8
ASSI
100
AcDbLine
 62
7
  6
CONTINUOUS
 10
-25.3444169108
 20
20.9872686779
 11
-35.3444169108
 21
20.9
  0
LINE
  5
41D
100
AcDbEntity
  8
ASSI
100
AcDbLine
 62
7
  6
CONTINUOUS
 10
-25.3714186437
 20
21.4561094406
 11
-35.3444169108
 21
21.4051134101
  0
LINE
  5
41E
100
AcDbEntity
  8
ASSI
100
AcDbLine
 62
253
  6
CONTINUOUS
 10
-35.3444169108
 20
21.8826210875
 11
-36.3444169108
 21
21.9000761524
  0
LINE
  5
41F
100
AcDbEntity
  8
ASSI
100
AcDbLine
 62
7
  6
CONTINUOUS
 10
-26.3269645044
 20
22.2251447178
 11
-36.3444132111
 21
22.3999999354
  0
LWPOLYLINE
  5
420
100
AcDbEntity
  8
0
100
AcDbPolyline
 62
7
  6
CONTINUOUS
 90
10
 70
0
 43
0.3500000006
 10
-26.4226379013
 20
38.143458252
 10
-26.3512089844
 20
38.0006004181
 10
-26.3512089844
 20
37.9291692352
 10
-26.4940668182
 20
37.7863114014
 10
-26.5654957352
 20
37.7863114014
 10
-26.6369246521
 20
37.8577425842
 10
-26.6369246521
 20
37.9291692352
 10
-26.5654957352
 20
38.0720270691
 10
-26.4940668182
 20
38.143458252
 10
-26.4226379013
 20
38.143458252
  0
LWPOLYLINE
  5
421
100
AcDbEntity
  8
0
100
AcDbPolyline
 62
7
  6
CONTINUOUS
 90
10
 70
0
 43
0.3500000006
 10
-31.2427608261
 20
48.1434567719
 10
-31.1713341751
 20
48.000598938
 10
-31.1713341751
 20
47.929172287
 10
-31.314189743
 20
47.7863144531
 10
-31.38561866
 20
47.7863144531
 10
-31.4570475769
 20
47.8577411041
 10
-31.4570475769
 20
47.929172287
 10
-31.38561866
 20
48.0720301208
 10
-31.314189743
 20
48.1434567719
 10
-31.2427608261
 20
48.1434567719
  0
LINE
  5
422
100
AcDbEntity
  8
ASSI
100
AcDbLine
 62
253
  6
CONTINUOUS
 10
-38.5987800124
 20
24.2606804067
 11
-36.3444169108
 21
24.300030461
  0
LINE
  5
423
100
AcDbEntity
  8
ASSI
100
AcDbLine
 62
7
  6
CONTINUOUS
 10
-38.5987800124
 20
24.4606499457
 11
-36.3444169108
 21
24.5
  0
LINE
  5
424
100
AcDbEntity
  8
ASSI
100
AcDbLine
 62
253
  6
CONTINUOUS
 10
-38.8444169108
 20
23.8443375673
 11
-38.6479073921
 21
23.8443375673
  0
LINE
  5
425
100
AcDbEntity
  8
ASSI
100
AcDbLine
 62
253
  6
CONTINUOUS
 10
-35.5409264295
 20
23.8443375673
 11
-35.3444169108
 21
23.8443375673
  0
LINE
  5
426
100
AcDbEntity
  8
ASSI
100
AcDbLine
 62
253
  6
CONTINUOUS
 10
-38.8444169108
 20
24.2106880219
 11
-38.6479073921
 21
24.2106880219
  0
LINE
  5
427
100
AcDbEntity
  8
ASSI
100
AcDbLine
 62
253
  6
CONTINUOUS
 10
-35.5409264295
 20
24.2368706193
 11
-35.3444169108
 21
24.2368706193
  0
LINE
  5
428
100
AcDbEntity
  8
ASSI
100
AcDbLine
 62
253
  6
CONTINUOUS
 10
-35.3444169108
 20
23.7325830113
 11
-30.7233563306
 21
23.6519220988
  0
LINE
  5
429
100
AcDbEntity
  8
ASSI
100
AcDbLine
 62
7
  6
CONTINUOUS
 10
-35.3444169108
 20
23.9825449351
 11
-30.5900573223
 21
23.8995572798
  0
LINE
  5
42A
100
AcDbEntity
  8
ASSI
100
AcDbLine
 62
253
  6
CONTINUOUS
 10
-35.5900538092
 20
24.2868630041
 11
-36.3444169108
 21
24.300030461
  0
LINE
  5
42B
100
AcDbEntity
  8
ASSI
100
AcDbLine
 62
7
  6
CONTINUOUS
 10
-35.5900538092
 20
24.4868325431
 11
-36.3444169108
 21
24.5
  0
LINE
  5
42C
100
AcDbEntity
  8
0
100
AcDbLine
 62
7
  6
CONTINUOUS
 10
-31.1369236811
 20
36.1434565064
 11
-23.2083522525
 21
36.1434565064
  0
LWPOLYLINE
  5
42D
100
AcDbEntity
  8
0
100
AcDbPolyline
 62
7
  6
CONTINUOUS
 90
6
 70
0
 43
0.3500000006
 10
-25.3512086792
 20
37.6434580994
 10
-24.279781723
 20
37.6434580994
 10
-24.0654949722
 20
37.8577425842
 10
-24.0654949722
 20
38.9291695404
 10
-24.4940662079
 20
39.357743042
 10
-24.9226374435
 20
39.357743042
  0
LINE
  5
42E
100
AcDbEntity
  8
0
100
AcDbLine
 62
7
  6
CONTINUOUS
 10
-23.2083522525
 20
42.1434565064
 11
-31.1369236811
 21
42.1434565064
  0
LINE
  5
42F
100
AcDbEntity
  8
0
100
AcDbLine
 62
7
  6
CONTINUOUS
 10
-36.5999046585
 20
46.1434565064
 11
-27.8141903728
 21
46.1434565064
  0
LWPOLYLINE
  5
430
100
AcDbEntity
  8
0
100
AcDbPolyline
 62
7
  6
CONTINUOUS
 90
7
 70
0
 43
0.3500000006
 10
-35.099904213
 20
47.6434566193
 10
-36.5999046707
 20
47.6434566193
 10
-35.099904213
 20
49.7863150635
 10
-35.099904213
 20
50.2148840332
 10
-35.5284754486
 20
50.6434575348
 10
-36.1713334351
 20
50.6434575348
 10
-36.5999046707
 20
50.0005995483
  0
LWPOLYLINE
  5
431
100
AcDbEntity
  8
0
100
AcDbPolyline
 62
7
  6
CONTINUOUS
 90
3
 70
0
 43
0.3500000006
 10
-28.6713334122
 20
48.2863146057
 10
-30.1713338699
 20
48.2863146057
 10
-29.5284758835
 20
50.6434575348
  0
LINE
  5
432
100
AcDbEntity
  8
0
100
AcDbLine
 62
7
  6
CONTINUOUS
 10
-27.8141903728
 20
52.1434565064
 11
-36.5999046585
 21
52.1434565064
  0
ARC
  5
433
100
AcDbEntity
  8
RACCORDO
100
AcDbCircle
 62
253
  6
CONTINUOUS
 10
-1472.818029922
 20
-0.5379103536
 40
1467.4843915999
100
AcDbArc
 50
359.8453058227
 51
0.0210019227
  0
ARC
  5
434
100
AcDbEntity
  8
RACCORDO
100
AcDbCircle
 62
253
  6
CONTINUOUS
 10
-5.8202751177
 20
-88.1234741874
 40
92.6247246109
100
AcDbArc
 50
89.7022835312
 51
89.908880727
  0
ARC
  5
435
100
AcDbEntity
  8
ASSI
100
AcDbCircle
 62
253
  6
CONTINUOUS
 10
-27.4210802258
 20
-23.8063480255
 40
34.86127804
100
AcDbArc
 50
359.9375627928
 51
0.2933988113
  0
ARC
  5
436
100
AcDbEntity
  8
RACCORDO
100
AcDbCircle
 62
253
  6
CONTINUOUS
 10
-0.0007376138
 20
-0.1590145706
 40
4.8724104804
100
AcDbArc
 50
270.0086737675
 51
297.0094292949
  0
ARC
  5
437
100
AcDbEntity
  8
ASSI
100
AcDbCircle
 62
253
  6
CONTINUOUS
 10
-10.4122730963
 20
-21.5239600845
 40
0.5004157458
100
AcDbArc
 50
180.1276222189
 51
269.9353983487
  0
ARC
  5
438
100
AcDbEntity
  8
ASSI
100
AcDbCircle
 62
7
  6
CONTINUOUS
 10
-4.0
 20
-23.2
 40
0.5
100
AcDbArc
 50
154.1580672368
 51
205.8419327632
  0
ARC
  5
439
100
AcDbEntity
  8
ASSI
100
AcDbCircle
 62
7
  6
CONTINUOUS
 10
-10.6001587126
 20
-21.9001678853
 40
0.4998378818
100
AcDbArc
 50
179.9894848479
 51
270.0181858337
  0
ARC
  5
43A
100
AcDbEntity
  8
ASSI
100
AcDbCircle
 62
253
  6
CONTINUOUS
 10
-4.1946686714
 20
-23.7446686714
 40
0.2500338929
100
AcDbArc
 50
180.0164895
 51
269.9835105
  0
ARC
  5
43B
100
AcDbEntity
  8
ASSI
100
AcDbCircle
 62
253
  6
CONTINUOUS
 10
-1.0553310762
 20
-23.7446689238
 40
0.2500336404
100
AcDbArc
 50
270.0164316724
 51
359.9835683276
  0
ARC
  5
43C
100
AcDbEntity
  8
ASSI
100
AcDbCircle
 62
7
  6
CONTINUOUS
 10
-1.0499674725
 20
-23.7500325275
 40
0.2499699324
100
AcDbArc
 50
270.0012718308
 51
359.9987281692
  0
ARC
  5
43D
100
AcDbEntity
  8
ASSI
100
AcDbCircle
 62
7
  6
CONTINUOUS
 10
-4.200039576
 20
-23.750039576
 40
0.2499612619
100
AcDbArc
 50
179.9996562106
 51
270.0003437894
  0
ARC
  5
43E
100
AcDbEntity
  8
ASSI
100
AcDbCircle
 62
253
  6
CONTINUOUS
 10
-7.4393927668
 20
-24.2606072331
 40
0.2000430909
100
AcDbArc
 50
270.0209581889
 51
359.9790418111
  0
ARC
  5
43F
100
AcDbEntity
  8
ASSI
100
AcDbCircle
 62
253
  6
CONTINUOUS
 10
-10.3606072331
 20
-24.2606072331
 40
0.2000430909
100
AcDbArc
 50
180.020958194
 51
269.979041806
  0
ARC
  5
440
100
AcDbEntity
  8
ASSI
100
AcDbCircle
 62
7
  6
CONTINUOUS
 10
-7.3999572982
 20
-24.3000427018
 40
0.1999569277
100
AcDbArc
 50
269.9964925066
 51
0.0035074934
  0
ARC
  5
441
100
AcDbEntity
  8
ASSI
100
AcDbCircle
 62
7
  6
CONTINUOUS
 10
-10.4000426585
 20
-24.3000426585
 40
0.1999569277
100
AcDbArc
 50
179.9965049109
 51
270.0034950891
  0
ARC
  5
442
100
AcDbEntity
  8
ASSI
100
AcDbCircle
 62
253
  6
CONTINUOUS
 10
-4.1947431237
 20
-23.7447431237
 40
0.0499898913
100
AcDbArc
 50
179.9971420352
 51
270.0028579648
  0
ARC
  5
443
100
AcDbEntity
  8
ASSI
100
AcDbCircle
 62
253
  6
CONTINUOUS
 10
-1.0552567843
 20
-23.7447432157
 40
0.0499897993
100
AcDbArc
 50
269.9970365488
 51
0.0029634512
  0
ARC
  5
444
100
AcDbEntity
  8
ASSI
100
AcDbCircle
 62
253
  6
CONTINUOUS
 10
-18493.5879924924
 20
0.0000001503
 40
18482.704519836
100
AcDbArc
 50
359.9353476093
 51
0.0646523897
  0
ARC
  5
445
100
AcDbEntity
  8
RACCORDO
100
AcDbCircle
 62
253
  6
CONTINUOUS
 10
-1472.7332667055
 20
0.5380092177
 40
1467.3996284254
100
AcDbArc
 50
359.9789930039
 51
0.1546992528
  0
ARC
  5
446
100
AcDbEntity
  8
RACCORDO
100
AcDbCircle
 62
253
  6
CONTINUOUS
 10
-5.8202654741
 20
88.1191735739
 40
92.620424003
100
AcDbArc
 50
270.091117547
 51
270.2977242877
  0
ARC
  5
447
100
AcDbEntity
  8
RACCORDO
100
AcDbCircle
 62
253
  6
CONTINUOUS
 10
-0.0007372381
 20
0.1590160364
 40
4.8724090356
100
AcDbArc
 50
62.9905660812
 51
89.9913306475
  0
ARC
  5
448
100
AcDbEntity
  8
ASSI
100
AcDbCircle
 62
253
  6
CONTINUOUS
 10
-10.412273096
 20
21.523960083
 40
0.5004157457
100
AcDbArc
 50
90.064601609
 51
179.8723777518
  0
ARC
  5
449
100
AcDbEntity
  8
ASSI
100
AcDbCircle
 62
7
  6
CONTINUOUS
 10
-4.0
 20
23.2
 40
0.5
100
AcDbArc
 50
154.1580672368
 51
205.8419327632
  0
ARC
  5
44A
100
AcDbEntity
  8
ASSI
100
AcDbCircle
 62
7
  6
CONTINUOUS
 10
-10.6001595973
 20
21.9001682196
 40
0.4998372685
100
AcDbArc
 50
89.9817053355
 51
180.0193096549
  0
ARC
  5
44B
100
AcDbEntity
  8
ASSI
100
AcDbCircle
 62
253
  6
CONTINUOUS
 10
-1.0553313286
 20
23.7446686714
 40
0.2500338929
100
AcDbArc
 50
0.0164895
 51
89.9835105
  0
ARC
  5
44C
100
AcDbEntity
  8
ASSI
100
AcDbCircle
 62
253
  6
CONTINUOUS
 10
-4.1946689238
 20
23.7446689238
 40
0.2500336404
100
AcDbArc
 50
90.0164316724
 51
179.9835683276
  0
ARC
  5
44D
100
AcDbEntity
  8
ASSI
100
AcDbCircle
 62
7
  6
CONTINUOUS
 10
-1.0499674725
 20
23.7500325275
 40
0.2499699324
100
AcDbArc
 50
0.0012718308
 51
89.9987281692
  0
ARC
  5
44E
100
AcDbEntity
  8
ASSI
100
AcDbCircle
 62
7
  6
CONTINUOUS
 10
-4.2000395761
 20
23.7500395761
 40
0.2499612619
100
AcDbArc
 50
89.9996561997
 51
180.0003438003
  0
ARC
  5
44F
100
AcDbEntity
  8
ASSI
100
AcDbCircle
 62
253
  6
CONTINUOUS
 10
-7.4393927177
 20
24.2606072823
 40
0.2000430909
100
AcDbArc
 50
0.020944126
 51
89.979055874
  0
ARC
  5
450
100
AcDbEntity
  8
ASSI
100
AcDbCircle
 62
253
  6
CONTINUOUS
 10
-10.3606072823
 20
24.2606072823
 40
0.2000430909
100
AcDbArc
 50
90.0209441226
 51
179.9790558774
  0
ARC
  5
451
100
AcDbEntity
  8
ASSI
100
AcDbCircle
 62
7
  6
CONTINUOUS
 10
-7.3999572982
 20
24.3000427018
 40
0.1999569277
100
AcDbArc
 50
359.9964925066
 51
90.0035074934
  0
ARC
  5
452
100
AcDbEntity
  8
ASSI
100
AcDbCircle
 62
7
  6
CONTINUOUS
 10
-10.4000426585
 20
24.3000426585
 40
0.1999569277
100
AcDbArc
 50
89.9965049109
 51
180.0034950891
  0
ARC
  5
453
100
AcDbEntity
  8
ASSI
100
AcDbCircle
 62
253
  6
CONTINUOUS
 10
-1.0552568763
 20
23.7447431237
 40
0.0499898913
100
AcDbArc
 50
359.9971420352
 51
90.0028579647
  0
ARC
  5
454
100
AcDbEntity
  8
ASSI
100
AcDbCircle
 62
253
  6
CONTINUOUS
 10
-4.1947432157
 20
23.7447432157
 40
0.0499897993
100
AcDbArc
 50
89.9970365487
 51
180.0029634513
  0
ARC
  5
455
100
AcDbEntity
  8
ASSI
100
AcDbCircle
 62
253
  6
CONTINUOUS
 10
0.0000007846
 20
-7678.3690567188
 40
7657.4988909683
100
AcDbArc
 50
89.921967731
 51
90.0780322807
  0
ARC
  5
456
100
AcDbEntity
  8
ASSI
100
AcDbCircle
 62
253
  6
CONTINUOUS
 10
0.000000302
 20
-2955.8523650126
 40
2933.8464543016
100
AcDbArc
 50
89.7966448222
 51
90.2033551896
  0
ARC
  5
457
100
AcDbEntity
  8
RACCORDO
100
AcDbCircle
 62
253
  6
CONTINUOUS
 10
1472.8180310422
 20
-0.5379103523
 40
1467.4843927201
100
AcDbArc
 50
179.9789980774
 51
180.1546941772
  0
ARC
  5
458
100
AcDbEntity
  8
RACCORDO
100
AcDbCircle
 62
253
  6
CONTINUOUS
 10
5.8202602773
 20
-88.1191605887
 40
92.6204109908
100
AcDbArc
 50
90.091114345
 51
90.2977211138
  0
ARC
  5
459
100
AcDbEntity
  8
ASSI
100
AcDbCircle
 62
253
  6
CONTINUOUS
 10
45.2337280799
 20
-23.806377655
 40
34.8739258882
100
AcDbArc
 50
179.7067270348
 51
180.0623987992
  0
ARC
  5
45A
100
AcDbEntity
  8
RACCORDO
100
AcDbCircle
 62
253
  6
CONTINUOUS
 10
0.0007367397
 20
-0.1590182087
 40
4.8724068422
100
AcDbArc
 50
242.9905604336
 51
269.991336504
  0
ARC
  5
45B
100
AcDbEntity
  8
RACCORDO
100
AcDbCircle
 62
253
  6
CONTINUOUS
 10
-0.0000171037
 20
-0.0216065556
 40
4.2770565614
100
AcDbArc
 50
62.9441477479
 51
117.0558468809
  0
ARC
  5
45C
100
AcDbEntity
  8
ASSI
100
AcDbCircle
 62
253
  6
CONTINUOUS
 10
10.4122730987
 20
-21.5239600803
 40
0.5004157457
100
AcDbArc
 50
270.064601301
 51
359.8723774375
  0
ARC
  5
45D
100
AcDbEntity
  8
ASSI
100
AcDbCircle
 62
7
  6
CONTINUOUS
 10
4.0
 20
-23.2
 40
0.5
100
AcDbArc
 50
334.1580672368
 51
25.8419327632
  0
ARC
  5
45E
100
AcDbEntity
  8
ASSI
100
AcDbCircle
 62
7
  6
CONTINUOUS
 10
10.6001595964
 20
-21.9001682204
 40
0.4998372686
100
AcDbArc
 50
269.9817054402
 51
0.019309751
  0
ARC
  5
45F
100
AcDbEntity
  8
ASSI
100
AcDbCircle
 62
253
  6
CONTINUOUS
 10
1.0553313286
 20
-23.7446686714
 40
0.2500338929
100
AcDbArc
 50
180.0164895001
 51
269.9835104999
  0
ARC
  5
460
100
AcDbEntity
  8
ASSI
100
AcDbCircle
 62
253
  6
CONTINUOUS
 10
4.1946689238
 20
-23.7446689238
 40
0.2500336404
100
AcDbArc
 50
270.0164316724
 51
359.9835683276
  0
ARC
  5
461
100
AcDbEntity
  8
ASSI
100
AcDbCircle
 62
7
  6
CONTINUOUS
 10
1.0499604239
 20
-23.7500395761
 40
0.2499612619
100
AcDbArc
 50
179.9996562036
 51
270.0003437964
  0
ARC
  5
462
100
AcDbEntity
  8
ASSI
100
AcDbCircle
 62
7
  6
CONTINUOUS
 10
4.2000395761
 20
-23.750039576
 40
0.2499612619
100
AcDbArc
 50
269.9996562075
 51
0.0003437925
  0
ARC
  5
463
100
AcDbEntity
  8
ASSI
100
AcDbCircle
 62
253
  6
CONTINUOUS
 10
10.3606072823
 20
-24.2606072823
 40
0.2000430909
100
AcDbArc
 50
270.0209441258
 51
359.9790558742
  0
ARC
  5
464
100
AcDbEntity
  8
ASSI
100
AcDbCircle
 62
253
  6
CONTINUOUS
 10
7.4393927669
 20
-24.2606072331
 40
0.2000430909
100
AcDbArc
 50
180.020958193
 51
269.979041807
  0
ARC
  5
465
100
AcDbEntity
  8
ASSI
100
AcDbCircle
 62
7
  6
CONTINUOUS
 10
10.4000427018
 20
-24.3000427018
 40
0.1999569277
100
AcDbArc
 50
269.9964925066
 51
0.0035074934
  0
ARC
  5
466
100
AcDbEntity
  8
ASSI
100
AcDbCircle
 62
7
  6
CONTINUOUS
 10
7.3999573415
 20
-24.3000426585
 40
0.1999569277
100
AcDbArc
 50
179.9965049109
 51
270.0034950891
  0
ARC
  5
467
100
AcDbEntity
  8
ASSI
100
AcDbCircle
 62
253
  6
CONTINUOUS
 10
1.0552568763
 20
-23.7447431237
 40
0.0499898913
100
AcDbArc
 50
179.9971420352
 51
270.0028579648
  0
ARC
  5
468
100
AcDbEntity
  8
ASSI
100
AcDbCircle
 62
253
  6
CONTINUOUS
 10
4.1947432157
 20
-23.7447432157
 40
0.0499897993
100
AcDbArc
 50
269.9970365488
 51
0.0029634513
  0
ARC
  5
469
100
AcDbEntity
  8
ASSI
100
AcDbCircle
 62
253
  6
CONTINUOUS
 10
18493.5874195322
 20
-0.0000001494
 40
18482.7039468762
100
AcDbArc
 50
179.9353476073
 51
180.0646523918
  0
ARC
  5
46A
100
AcDbEntity
  8
ASSI
100
AcDbCircle
 62
253
  6
CONTINUOUS
 10
-0.0000007891
 20
7678.364676768
 40
7657.4945110184
100
AcDbArc
 50
269.9219676864
 51
270.0780323254
  0
ARC
  5
46B
100
AcDbEntity
  8
ASSI
100
AcDbCircle
 62
253
  6
CONTINUOUS
 10
-0.0000003032
 20
2955.8523689831
 40
2933.846458272
100
AcDbArc
 50
269.7966448225
 51
270.2033551894
  0
ARC
  5
46C
100
AcDbEntity
  8
RACCORDO
100
AcDbCircle
 62
253
  6
CONTINUOUS
 10
1472.7332673912
 20
0.5380092169
 40
1467.399629111
100
AcDbArc
 50
179.8453007472
 51
180.021006996
  0
ARC
  5
46D
100
AcDbEntity
  8
RACCORDO
100
AcDbCircle
 62
253
  6
CONTINUOUS
 10
5.8202880259
 20
88.1255442849
 40
92.6267947485
100
AcDbArc
 50
269.7022821856
 51
269.9088747882
  0
ARC
  5
46E
100
AcDbEntity
  8
ASSI
100
AcDbCircle
 62
253
  6
CONTINUOUS
 10
45.2364366209
 20
23.8063786102
 40
34.8766343899
100
AcDbArc
 50
179.9376439283
 51
180.2933212156
  0
ARC
  5
46F
100
AcDbEntity
  8
ASSI
100
AcDbCircle
 62
253
  6
CONTINUOUS
 10
27.4364366191
 20
23.8063786102
 40
34.876634388
100
AcDbArc
 50
179.9376439283
 51
180.2933212156
  0
ARC
  5
470
100
AcDbEntity
  8
RACCORDO
100
AcDbCircle
 62
253
  6
CONTINUOUS
 10
0.0007379649
 20
0.159013011
 40
4.8724120611
100
AcDbArc
 50
90.0086778942
 51
117.0094253771
  0
ARC
  5
471
100
AcDbEntity
  8
RACCORDO
100
AcDbCircle
 62
253
  6
CONTINUOUS
 10
0.0000169902
 20
0.0216060818
 40
4.2770560878
100
AcDbArc
 50
242.9441471385
 51
297.0558459282
  0
CIRCLE
  5
472
100
AcDbEntity
  8
DRAFT
100
AcDbCircle
 62
7
  6
CONTINUOUS
 10
-0.0
 20
0.0
 40
4.25
  0
ARC
  5
473
100
AcDbEntity
  8
ASSI
100
AcDbCircle
 62
253
  6
CONTINUOUS
 10
10.412273099
 20
21.5239600818
 40
0.5004157457
100
AcDbArc
 50
0.1276225276
 51
89.9353986624
  0
ARC
  5
474
100
AcDbEntity
  8
ASSI
100
AcDbCircle
 62
7
  6
CONTINUOUS
 10
4.0
 20
23.2
 40
0.5
100
AcDbArc
 50
334.1580672368
 51
25.8419327632
  0
ARC
  5
475
100
AcDbEntity
  8
ASSI
100
AcDbCircle
 62
7
  6
CONTINUOUS
 10
10.6001587151
 20
21.9001678827
 40
0.4998378819
100
AcDbArc
 50
359.9894851434
 51
90.0181861196
  0
ARC
  5
476
100
AcDbEntity
  8
ASSI
100
AcDbCircle
 62
253
  6
CONTINUOUS
 10
4.1946686714
 20
23.7446686714
 40
0.2500338929
100
AcDbArc
 50
0.0164895
 51
89.9835105
  0
ARC
  5
477
100
AcDbEntity
  8
ASSI
100
AcDbCircle
 62
253
  6
CONTINUOUS
 10
1.0553310762
 20
23.7446689238
 40
0.2500336404
100
AcDbArc
 50
90.0164316724
 51
179.9835683276
  0
ARC
  5
478
100
AcDbEntity
  8
ASSI
100
AcDbCircle
 62
7
  6
CONTINUOUS
 10
1.0499674725
 20
23.7500325275
 40
0.2499699324
100
AcDbArc
 50
90.0012718308
 51
179.9987281692
  0
ARC
  5
479
100
AcDbEntity
  8
ASSI
100
AcDbCircle
 62
7
  6
CONTINUOUS
 10
4.2000325275
 20
23.7500325275
 40
0.2499699324
100
AcDbArc
 50
0.0012718308
 51
89.9987281692
  0
ARC
  5
47A
100
AcDbEntity
  8
ASSI
100
AcDbCircle
 62
253
  6
CONTINUOUS
 10
10.3606072823
 20
24.2606072823
 40
0.2000430909
100
AcDbArc
 50
0.020944126
 51
89.979055874
  0
ARC
  5
47B
100
AcDbEntity
  8
ASSI
100
AcDbCircle
 62
253
  6
CONTINUOUS
 10
7.4393927177
 20
24.2606072823
 40
0.2000430909
100
AcDbArc
 50
90.0209441226
 51
179.9790558774
  0
ARC
  5
47C
100
AcDbEntity
  8
ASSI
100
AcDbCircle
 62
7
  6
CONTINUOUS
 10
10.4000427018
 20
24.3000427018
 40
0.1999569277
100
AcDbArc
 50
359.9964925066
 51
90.0035074934
  0
ARC
  5
47D
100
AcDbEntity
  8
ASSI
100
AcDbCircle
 62
7
  6
CONTINUOUS
 10
7.3999573415
 20
24.3000426585
 40
0.1999569277
100
AcDbArc
 50
89.9965049109
 51
180.0034950891
  0
ARC
  5
47E
100
AcDbEntity
  8
ASSI
100
AcDbCircle
 62
253
  6
CONTINUOUS
 10
4.1947431237
 20
23.7447431237
 40
0.0499898913
100
AcDbArc
 50
359.9971420352
 51
90.0028579648
  0
ARC
  5
47F
100
AcDbEntity
  8
ASSI
100
AcDbCircle
 62
253
  6
CONTINUOUS
 10
1.0552567843
 20
23.7447432157
 40
0.0499897993
100
AcDbArc
 50
89.9970365487
 51
180.0029634513
  0
ARC
  5
480
100
AcDbEntity
  8
RACCORDO
100
AcDbCircle
 62
253
  6
CONTINUOUS
 10
-239.1088109143
 20
-6.405299919
 40
193.7297034376
100
AcDbArc
 50
358.97203425
 51
0.563168503
  0
ARC
  5
481
100
AcDbEntity
  8
RACCORDO
100
AcDbCircle
 62
7
  6
CONTINUOUS
 10
-10.0238255576
 20
-98.3725752702
 40
93.4506036875
100
AcDbArc
 50
103.8082914483
 51
104.7881795857
  0
ARC
  5
482
100
AcDbEntity
  8
ASSI
100
AcDbCircle
 62
7
  6
CONTINUOUS
 10
-43.449434882
 20
-20.8249565047
 40
1.2009897416
100
AcDbArc
 50
182.4965003102
 51
267.0381682264
  0
ARC
  5
483
100
AcDbEntity
  8
ASSI
100
AcDbCircle
 62
7
  6
CONTINUOUS
 10
-43.801225365
 20
-20.8075584132
 40
1.2
100
AcDbArc
 50
182.9907948825
 51
267.0
  0
ARC
  5
484
100
AcDbEntity
  8
ASSI
100
AcDbCircle
 62
7
  6
CONTINUOUS
 10
-38.5944169108
 20
-23.8443375673
 40
0.25
100
AcDbArc
 50
120.0193734378
 51
180.0045916073
  0
ARC
  5
485
100
AcDbEntity
  8
ASSI
100
AcDbCircle
 62
7
  6
CONTINUOUS
 10
-38.5944169108
 20
-24.2106880219
 40
0.25
100
AcDbArc
 50
180.0
 51
269.0
  0
ARC
  5
486
100
AcDbEntity
  8
ASSI
100
AcDbCircle
 62
7
  6
CONTINUOUS
 10
-35.5944169108
 20
-24.2368706193
 40
0.25
100
AcDbArc
 50
271.0
 51
360.0
  0
ARC
  5
487
100
AcDbEntity
  8
ASSI
100
AcDbCircle
 62
7
  6
CONTINUOUS
 10
-35.5944169108
 20
-23.8443375673
 40
0.25
100
AcDbArc
 50
0.0199030144
 51
60.0044963491
  0
ARC
  5
488
100
AcDbEntity
  8
ASSI
100
AcDbCircle
 62
253
  6
CONTINUOUS
 10
-38.5979068325
 20
-24.210687472
 40
0.0500005596
100
AcDbArc
 50
180.0006301831
 51
268.9993698169
  0
ARC
  5
489
100
AcDbEntity
  8
ASSI
100
AcDbCircle
 62
253
  6
CONTINUOUS
 10
-35.5909269894
 20
-24.2368700691
 40
0.0500005598
100
AcDbArc
 50
271.0006304175
 51
359.9993695825
  0
ARC
  5
48A
100
AcDbEntity
  8
ASSI
100
AcDbCircle
 62
253
  6
CONTINUOUS
 10
-35.5909246924
 20
-23.8443365644
 40
0.0499982629
100
AcDbArc
 50
359.9988507136
 51
60.0011492864
  0
ARC
  5
48B
100
AcDbEntity
  8
ASSI
100
AcDbCircle
 62
253
  6
CONTINUOUS
 10
-38.5979091325
 20
-23.8443365625
 40
0.0499982596
100
AcDbArc
 50
119.9988485262
 51
180.0011514738
  0
ARC
  5
48C
100
AcDbEntity
  8
ASSI
100
AcDbCircle
 62
7
  6
CONTINUOUS
 10
-26.3444169108
 20
-21.2252970227
 40
1.0
100
AcDbArc
 50
271.0
 51
360.0
  0
ARC
  5
48D
100
AcDbEntity
  8
RACCORDO
100
AcDbCircle
 62
7
  6
CONTINUOUS
 10
-25.8444169108
 20
-20.206013577
 40
0.5
100
AcDbArc
 50
359.9983293376
 51
79.8916607894
  0
ARC
  5
48E
100
AcDbEntity
  8
ASSI
100
AcDbCircle
 62
7
  6
CONTINUOUS
 10
-30.5944204394
 20
-23.6495953562
 40
0.25
100
AcDbArc
 50
271.0
 51
359.9999478349
  0
ARC
  5
48F
100
AcDbEntity
  8
RACCORDO
100
AcDbCircle
 62
253
  6
CONTINUOUS
 10
-25.8418313236
 20
-20.2060406894
 40
0.2000348189
100
AcDbArc
 50
0.0077658696
 51
79.8838949197
  0
ARC
  5
490
100
AcDbEntity
  8
0
100
AcDbCircle
 62
7
  6
CONTINUOUS
 10
-25.9444169108
 20
-11.25
 40
6.9742383097
100
AcDbArc
 50
5.6109025878
 51
22.6383218804
  0
ARC
  5
491
100
AcDbEntity
  8
0
100
AcDbCircle
 62
7
  6
CONTINUOUS
 10
-25.9444169108
 20
-11.25
 40
6.9742383097
100
AcDbArc
 50
337.3616781196
 51
354.3890903291
  0
ARC
  5
492
100
AcDbEntity
  8
0
100
AcDbCircle
 62
7
  6
CONTINUOUS
 10
-24.8334714584
 20
-11.6124984467
 40
5.8386202107
100
AcDbArc
 50
356.8641883969
 51
357.400571618
  0
ARC
  5
493
100
AcDbEntity
  8
0
100
AcDbCircle
 62
7
  6
CONTINUOUS
 10
-24.832446011
 20
-10.8874485516
 40
5.8375934366
100
AcDbArc
 50
2.5993623913
 51
3.1358342881
  0
ARC
  5
494
100
AcDbEntity
  8
0
100
AcDbCircle
 62
7
  6
CONTINUOUS
 10
-21.4131309184
 20
-10.4431782845
 40
2.4060610517
100
AcDbArc
 50
348.6257091856
 51
348.9356841004
  0
ARC
  5
495
100
AcDbEntity
  8
0
100
AcDbCircle
 62
7
  6
CONTINUOUS
 10
-21.4130765141
 20
-12.0568109876
 40
2.4060055963
100
AcDbArc
 50
11.0643150208
 51
11.3702404812
  0
ARC
  5
496
100
AcDbEntity
  8
RACCORDO
100
AcDbCircle
 62
7
  6
CONTINUOUS
 10
-21.6444169108
 20
-7.9769920081
 40
0.5
100
AcDbArc
 50
0.0
 51
89.0
  0
ARC
  5
497
100
AcDbEntity
  8
RACCORDO
100
AcDbCircle
 62
7
  6
CONTINUOUS
 10
-21.6444169108
 20
-14.5230079919
 40
0.5
100
AcDbArc
 50
271.0
 51
360.0
  0
ARC
  5
498
100
AcDbEntity
  8
RACCORDO
100
AcDbCircle
 62
253
  6
CONTINUOUS
 10
-22.1183308468
 20
-5.6641762226
 40
0.4739139487
100
AcDbArc
 50
353.8819333779
 51
359.9867402857
  0
ARC
  5
499
100
AcDbEntity
  8
RACCORDO
100
AcDbCircle
 62
253
  6
CONTINUOUS
 10
-22.4647518505
 20
-6.1724798514
 40
0.3297112644
100
AcDbArc
 50
3.4391576061
 51
3.5986478522
  0
ARC
  5
49A
100
AcDbEntity
  8
RACCORDO
100
AcDbCircle
 62
7
  6
CONTINUOUS
 10
-28.5684963315
 20
-6.2414699461
 40
0.0083834518
100
AcDbArc
 50
180.0056308084
 51
186.4848260568
  0
ARC
  5
49B
100
AcDbEntity
  8
RACCORDO
100
AcDbCircle
 62
253
  6
CONTINUOUS
 10
-238.3304622291
 20
6.4061097992
 40
192.9514004967
100
AcDbArc
 50
359.4343192792
 51
1.0084850407
  0
ARC
  5
49C
100
AcDbEntity
  8
ASSI
100
AcDbCircle
 62
7
  6
CONTINUOUS
 10
-43.4494348516
 20
20.8249565133
 40
1.2009897402
100
AcDbArc
 50
92.9618321285
 51
177.5034999057
  0
ARC
  5
49D
100
AcDbEntity
  8
ASSI
100
AcDbCircle
 62
7
  6
CONTINUOUS
 10
-43.8012253642
 20
20.8075584132
 40
1.2
100
AcDbArc
 50
93.0
 51
177.0092051173
  0
ARC
  5
49E
100
AcDbEntity
  8
RACCORDO
100
AcDbCircle
 62
7
  6
CONTINUOUS
 10
-44.4154503094
 20
10.1443779116
 40
1.0000000363
100
AcDbArc
 50
178.5430100425
 51
181.4296326817
  0
ARC
  5
49F
100
AcDbEntity
  8
ASSI
100
AcDbCircle
 62
7
  6
CONTINUOUS
 10
-38.5944169108
 20
23.8443375673
 40
0.25
100
AcDbArc
 50
180.0004742137
 51
240.0
  0
ARC
  5
4A0
100
AcDbEntity
  8
ASSI
100
AcDbCircle
 62
7
  6
CONTINUOUS
 10
-35.5944169108
 20
23.8443375673
 40
0.25
100
AcDbArc
 50
300.0193734374
 51
0.0045916073
  0
ARC
  5
4A1
100
AcDbEntity
  8
ASSI
100
AcDbCircle
 62
7
  6
CONTINUOUS
 10
-35.5944169108
 20
24.2368706193
 40
0.25
100
AcDbArc
 50
0.0
 51
89.0
  0
ARC
  5
4A2
100
AcDbEntity
  8
ASSI
100
AcDbCircle
 62
7
  6
CONTINUOUS
 10
-38.5944169108
 20
24.2106880219
 40
0.25
100
AcDbArc
 50
91.0
 51
180.0
  0
ARC
  5
4A3
100
AcDbEntity
  8
ASSI
100
AcDbCircle
 62
253
  6
CONTINUOUS
 10
-38.5979065296
 20
23.8443380653
 40
0.0500008625
100
AcDbArc
 50
180.000570614
 51
239.999429386
  0
ARC
  5
4A4
100
AcDbEntity
  8
ASSI
100
AcDbCircle
 62
253
  6
CONTINUOUS
 10
-38.5979068033
 20
24.2106874432
 40
0.0500005889
100
AcDbArc
 50
91.0006630877
 51
179.9993369122
  0
ARC
  5
4A5
100
AcDbEntity
  8
ASSI
100
AcDbCircle
 62
253
  6
CONTINUOUS
 10
-35.5909269892
 20
24.2368700693
 40
0.0500005596
100
AcDbArc
 50
0.0006301831
 51
88.9993698169
  0
ARC
  5
4A6
100
AcDbEntity
  8
ASSI
100
AcDbCircle
 62
253
  6
CONTINUOUS
 10
-35.5909246891
 20
23.8443365625
 40
0.0499982596
100
AcDbArc
 50
299.9988485262
 51
0.0011514738
  0
ARC
  5
4A7
100
AcDbEntity
  8
0
100
AcDbCircle
 62
7
  6
CONTINUOUS
 10
-36.5999046585
 20
49.1434565064
 40
3.0
100
AcDbArc
 50
90.0
 51
270.0
  0
ARC
  5
4A8
100
AcDbEntity
  8
0
100
AcDbCircle
 62
7
  6
CONTINUOUS
 10
-25.9444169108
 20
11.25
 40
6.9742383097
100
AcDbArc
 50
5.6109025878
 51
22.6383218804
  0
ARC
  5
4A9
100
AcDbEntity
  8
0
100
AcDbCircle
 62
7
  6
CONTINUOUS
 10
-25.9444169108
 20
11.25
 40
6.9742383097
100
AcDbArc
 50
337.3616781196
 51
354.3890903291
  0
ARC
  5
4AA
100
AcDbEntity
  8
0
100
AcDbCircle
 62
7
  6
CONTINUOUS
 10
-24.8334714583
 20
10.8875015533
 40
5.8386202107
100
AcDbArc
 50
356.8641883969
 51
357.400571618
  0
ARC
  5
4AB
100
AcDbEntity
  8
0
100
AcDbCircle
 62
7
  6
CONTINUOUS
 10
-24.832446011
 20
11.6125514484
 40
5.8375934366
100
AcDbArc
 50
2.5993623913
 51
3.1358342881
  0
ARC
  5
4AC
100
AcDbEntity
  8
0
100
AcDbCircle
 62
7
  6
CONTINUOUS
 10
-21.4131309184
 20
12.0568217155
 40
2.4060610516
100
AcDbArc
 50
348.6257091856
 51
348.9356841004
  0
ARC
  5
4AD
100
AcDbEntity
  8
0
100
AcDbCircle
 62
7
  6
CONTINUOUS
 10
-21.4130765141
 20
10.4431890124
 40
2.4060055963
100
AcDbArc
 50
11.0643150208
 51
11.3702404812
  0
ARC
  5
4AE
100
AcDbEntity
  8
ASSI
100
AcDbCircle
 62
7
  6
CONTINUOUS
 10
-26.3444169108
 20
21.2252970227
 40
1.0
100
AcDbArc
 50
0.0
 51
89.0
  0
ARC
  5
4AF
100
AcDbEntity
  8
RACCORDO
100
AcDbCircle
 62
7
  6
CONTINUOUS
 10
-21.6444169108
 20
14.5230079919
 40
0.5
100
AcDbArc
 50
0.0
 51
89.0
  0
ARC
  5
4B0
100
AcDbEntity
  8
RACCORDO
100
AcDbCircle
 62
7
  6
CONTINUOUS
 10
-21.6444169108
 20
7.9769920081
 40
0.5
100
AcDbArc
 50
271.0
 51
360.0
  0
ARC
  5
4B1
100
AcDbEntity
  8
RACCORDO
100
AcDbCircle
 62
7
  6
CONTINUOUS
 10
-25.8444169108
 20
20.2059987693
 40
0.5
100
AcDbArc
 50
280.1103338844
 51
0.0017575033
  0
ARC
  5
4B2
100
AcDbEntity
  8
RACCORDO
100
AcDbCircle
 62
253
  6
CONTINUOUS
 10
-22.1183307461
 20
5.6641762225
 40
0.473913848
100
AcDbArc
 50
0.0132597344
 51
6.1180673248
  0
ARC
  5
4B3
100
AcDbEntity
  8
RACCORDO
100
AcDbCircle
 62
253
  6
CONTINUOUS
 10
-22.4520661005
 20
6.1716998603
 40
0.3170015705
100
AcDbArc
 50
356.3981374113
 51
356.5640209778
  0
ARC
  5
4B4
100
AcDbEntity
  8
ASSI
100
AcDbCircle
 62
7
  6
CONTINUOUS
 10
-30.5944204394
 20
23.6495953562
 40
0.25
100
AcDbArc
 50
0.0000521651
 51
89.0
  0
ARC
  5
4B5
100
AcDbEntity
  8
RACCORDO
100
AcDbCircle
 62
253
  6
CONTINUOUS
 10
-25.8418309152
 20
20.2060255387
 40
0.2000344994
100
AcDbArc
 50
280.1180015329
 51
359.9923323507
  0
ARC
  5
4B6
100
AcDbEntity
  8
RACCORDO
100
AcDbCircle
 62
7
  6
CONTINUOUS
 10
-28.568496207
 20
6.2414699362
 40
0.0083835762
100
AcDbArc
 50
173.5152027884
 51
179.9943018417
  0
ARC
  5
4B7
100
AcDbEntity
  8
0
100
AcDbCircle
 62
7
  6
CONTINUOUS
 10
-23.2083522525
 20
39.1434565064
 40
3.0
100
AcDbArc
 50
270.0
 51
90.0
  0
ARC
  5
4B8
100
AcDbEntity
  8
0
100
AcDbCircle
 62
7
  6
CONTINUOUS
 10
-31.1369236811
 20
39.1434565064
 40
3.0
100
AcDbArc
 50
90.0
 51
270.0
  0
ARC
  5
4B9
100
AcDbEntity
  8
0
100
AcDbCircle
 62
7
  6
CONTINUOUS
 10
-27.8141903728
 20
49.1434565064
 40
3.0
100
AcDbArc
 50
270.0
 51
90.0
  0
ARC
  5
4BA
100
AcDbEntity
  8
RACCORDO
100
AcDbCircle
 62
7
  6
CONTINUOUS
 10
-9.9740490972
 20
98.5678812334
 40
93.652145622
100
AcDbArc
 50
255.2128748128
 51
256.1906541531
  0
ARC
  5
4BB
100
AcDbEntity
  8
ASSI
100
AcDbCircle
 62
253
  6
CONTINUOUS
 10
440.3873838649
 20
-0.0000000011
 40
485.4857159172
100
AcDbArc
 50
177.5353584045
 51
182.4646415946
  0
ARC
  5
4BC
100
AcDbEntity
  8
ASSI
100
AcDbCircle
 62
253
  6
CONTINUOUS
 10
439.6165572352
 20
-0.0000001493
 40
484.2298024926
100
AcDbArc
 50
177.5315015142
 51
182.4684984502
  0
ARC
  5
4BD
100
AcDbEntity
  8
RACCORDO
100
AcDbCircle
 62
253
  6
CONTINUOUS
 10
380.847722381
 20
0.0074991287
 40
426.259874715
100
AcDbArc
 50
179.3959763598
 51
180.0010079967
  0
ARC
  5
4BE
100
AcDbEntity
  8
RACCORDO
100
AcDbCircle
 62
253
  6
CONTINUOUS
 10
380.8474670674
 20
-0.0075004722
 40
426.2596194015
100
AcDbArc
 50
179.9989918226
 51
180.6040238239
  0
SPLINE
  5
4BF
100
AcDbEntity
  8
ASSI
100
AcDbSpline
 62
253
  6
CONTINUOUS
 70
0
 71
3
 72
14
 73
10
 74
8
 42
0.0000001
 43
0.0000001
 44
0.0000000001
 12
-0.0000000171
 22
-0.0500143994
 32
0.0
 13
0.0353375939
 23
-0.035393426
 33
0.0
 40
0.0
 40
0.0
 40
0.0
 40
0.0
 40
0.3784749852
 40
0.5499132458
 40
0.7006959891
 40
0.8251541655
 40
0.9186156704
 40
0.977592881
 40
1.0
 40
1.0
 40
1.0
 40
1.0
 10
10.5597924241
 20
-24.2106880219
 30
0.0
 10
10.5597924219
 20
-24.2169977549
 30
0.0
 10
10.5598169557
 20
-24.2261683378
 30
0.0
 10
10.5599321352
 20
-24.2378430555
 30
0.0
 10
10.5600094488
 20
-24.2453046342
 30
0.0
 10
10.560201171
 20
-24.2514070111
 30
0.0
 10
10.5601702682
 20
-24.2561262614
 30
0.0
 10
10.5606213671
 20
-24.2588411085
 30
0.0
 10
10.5603860078
 20
-24.2604160518
 30
0.0
 10
10.5606499457
 20
-24.2606804067
 30
0.0
 11
10.5597924241
 21
-24.2106880219
 31
0.0
 11
10.5598573892
 21
-24.2296171095
 31
0.0
 11
10.5599363247
 21
-24.2381911278
 31
0.0
 11
10.5600426603
 21
-24.2457316864
 31
0.0
 11
10.5601723949
 21
-24.2519550352
 31
0.0
 11
10.560320653
 21
-24.2566271045
 31
0.0
 11
10.5604818507
 21
-24.2595724064
 31
0.0
 11
10.5606499457
 21
-24.2606804067
 31
0.0
  0
SPLINE
  5
4C0
100
AcDbEntity
  8
ASSI
100
AcDbSpline
 62
253
  6
CONTINUOUS
 70
0
 71
3
 72
9
 73
5
 74
3
 42
0.0000001
 43
0.0000001
 44
0.0000000001
 12
-0.0013110427
 22
-0.0432843983
 32
0.0
 13
-0.0000001007
 23
-0.0433042489
 33
0.0
 40
0.0
 40
0.0
 40
0.0
 40
0.0
 40
0.1834520378
 40
1.0
 40
1.0
 40
1.0
 40
1.0
 10
10.5602288007
 20
-23.8010362971
 30
0.0
 10
10.5601486296
 20
-23.8036831675
 30
0.0
 10
10.5598533105
 20
-23.8181153116
 30
0.0
 10
10.5597924515
 20
-23.8325509019
 30
0.0
 10
10.5597924241
 20
-23.8443375673
 30
0.0
 11
10.5602288007
 21
-23.8010362971
 31
0.0
 11
10.5600481665
 21
-23.8089784959
 31
0.0
 11
10.5597924241
 21
-23.8443375673
 31
0.0
  0
SPLINE
  5
4C1
100
AcDbEntity
  8
ASSI
100
AcDbSpline
 62
253
  6
CONTINUOUS
 70
0
 71
3
 72
9
 73
5
 74
3
 42
0.0000001
 43
0.0000001
 44
0.0000000001
 12
-0.0013086734
 22
0.0432844709
 32
0.0
 13
0.0000000099
 23
0.0433042498
 33
0.0
 40
0.0
 40
0.0
 40
0.0
 40
0.0
 40
0.183482616
 40
1.0
 40
1.0
 40
1.0
 40
1.0
 10
10.5602288007
 20
23.8010362971
 30
0.0
 10
10.5601487611
 20
23.8036836131
 30
0.0
 10
10.5598528223
 20
23.8181157399
 30
0.0
 10
10.5597924214
 20
23.8325513431
 30
0.0
 10
10.5597924241
 20
23.8443375673
 30
0.0
 11
10.5602288007
 21
23.8010362971
 31
0.0
 11
10.5600480914
 21
23.8089798189
 31
0.0
 11
10.5597924241
 21
23.8443375673
 31
0.0
  0
SPLINE
  5
4C2
100
AcDbEntity
  8
ASSI
100
AcDbSpline
 62
253
  6
CONTINUOUS
 70
0
 71
3
 72
14
 73
10
 74
8
 42
0.0000001
 43
0.0000001
 44
0.0000000001
 12
-0.0000000046
 22
0.0500143989
 32
0.0
 13
0.0353848633
 23
0.0353461674
 33
0.0
 40
0.0
 40
0.0
 40
0.0
 40
0.0
 40
0.3784712214
 40
0.5499084536
 40
0.7006913151
 40
0.8251503658
 40
0.9186144536
 40
0.9775916124
 40
1.0
 40
1.0
 40
1.0
 40
1.0
 10
10.5597924241
 20
24.2106880219
 30
0.0
 10
10.5597924235
 20
24.2169976921
 30
0.0
 10
10.5598169457
 20
24.2261682045
 30
0.0
 10
10.5599321477
 20
24.2378428211
 30
0.0
 10
10.5600094021
 20
24.2453044543
 30
0.0
 10
10.5602012854
 20
24.2514067356
 30
0.0
 10
10.5601699902
 20
24.2561264203
 30
0.0
 10
10.5606218197
 20
24.2588406228
 30
0.0
 10
10.5603856398
 20
24.2604163898
 30
0.0
 10
10.5606499457
 20
24.2606804067
 30
0.0
 11
10.5597924241
 21
24.2106880219
 31
0.0
 11
10.5598573884
 21
24.2296169211
 31
0.0
 11
10.5599363226
 21
24.2381908879
 31
0.0
 11
10.5600426566
 21
24.2457314523
 31
0.0
 11
10.5601723906
 21
24.2519548449
 31
0.0
 11
10.5603206492
 21
24.2566270433
 31
0.0
 11
10.5604818492
 21
24.2595723425
 31
0.0
 11
10.5606499457
 21
24.2606804067
 31
0.0
  0
SPLINE
  5
4C3
100
AcDbEntity
  8
RACCORDO
100
AcDbSpline
 62
253
  6
CONTINUOUS
 70
0
 71
3
 72
15
 73
11
 74
9
 42
0.0000001
 43
0.0000001
 44
0.0000000001
 12
-0.3459544257
 22
-0.6870730418
 32
0.0
 13
0.6217347341
 23
-0.45298979
 33
0.0
 40
0.0
 40
0.0
 40
0.0
 40
0.0
 40
0.3761055864
 40
0.5448727399
 40
0.6929176052
 40
0.8153330001
 40
0.9080977897
 40
0.9688840644
 40
0.9875522302
 40
1.0
 40
1.0
 40
1.0
 40
1.0
 10
2.2120049591
 20
4.5
 30
0.0
 10
2.1686331617
 20
4.4138626636
 30
0.0
 10
2.1081753188
 20
4.2878423669
 30
0.0
 10
2.0372993364
 20
4.1248807208
 30
0.0
 10
1.9955387989
 20
4.0202924686
 30
0.0
 10
1.9644031542
 20
3.9323855283
 30
0.0
 10
1.9450681827
 20
3.8644567818
 30
0.0
 10
1.9372917776
 20
3.820461766
 30
0.0
 10
1.938961154
 20
3.7969318605
 30
0.0
 10
1.9428601303
 20
3.7892636361
 30
0.0
 10
1.9454398673
 20
3.7873840652
 30
0.0
 11
2.2120049591
 21
4.5
 31
0.0
 11
2.0874207212
 21
4.2388763713
 31
0.0
 11
2.0358278453
 21
4.119743185
 31
0.0
 11
1.9938603044
 21
4.0138736372
 31
0.0
 11
1.9629519015
 21
3.924921882
 31
0.0
 11
1.9442236101
 21
3.8560635202
 31
0.0
 11
1.9383345674
 21
3.8096756713
 31
0.0
 11
1.9402741215
 21
3.7954466662
 31
0.0
 11
1.9454398673
 21
3.7873840652
 31
0.0
  0
SPLINE
  5
4C4
100
AcDbEntity
  8
RACCORDO
100
AcDbSpline
 62
253
  6
CONTINUOUS
 70
0
 71
3
 72
15
 73
11
 74
9
 42
0.0000001
 43
0.0000001
 44
0.0000000001
 12
0.3459544731
 22
-0.6870731117
 32
0.0
 13
-0.6217347598
 23
-0.452989897
 33
0.0
 40
0.0
 40
0.0
 40
0.0
 40
0.0
 40
0.3761055737
 40
0.5448727265
 40
0.6929175938
 40
0.8153329923
 40
0.9080977858
 40
0.9688840636
 40
0.9875522302
 40
1.0
 40
1.0
 40
1.0
 40
1.0
 10
-2.2120049631
 20
4.5
 30
0.0
 10
-2.1686331613
 20
4.4138626577
 30
0.0
 10
-2.1081753116
 20
4.2878423511
 30
0.0
 10
-2.0372993202
 20
4.124880691
 30
0.0
 10
-1.9955387759
 20
4.020292427
 30
0.0
 10
-1.9644031253
 20
3.9323854755
 30
0.0
 10
-1.9450681491
 20
3.8644567195
 30
0.0
 10
-1.9372917412
 20
3.8204616972
 30
0.0
 10
-1.9389611161
 20
3.7969317882
 30
0.0
 10
-1.9428600921
 20
3.7892635623
 30
0.0
 10
-1.9454398291
 20
3.787383991
 30
0.0
 11
-2.2120049631
 21
4.5
 31
0.0
 11
-2.0874207123
 21
4.2388763533
 31
0.0
 11
-2.0358278291
 21
4.1197431554
 31
0.0
 11
-1.9938602813
 21
4.0138735953
 31
0.0
 11
-1.9629518723
 21
3.9249218285
 31
0.0
 11
-1.9442235761
 21
3.8560634568
 31
0.0
 11
-1.9383345303
 21
3.8096756008
 31
0.0
 11
-1.9402740836
 21
3.7954465934
 31
0.0
 11
-1.9454398291
 21
3.787383991
 31
0.0
  0
SPLINE
  5
4C5
100
AcDbEntity
  8
RACCORDO
100
AcDbSpline
 62
253
  6
CONTINUOUS
 70
0
 71
3
 72
15
 73
11
 74
9
 42
0.0000001
 43
0.0000001
 44
0.0000000001
 12
0.3459543963
 22
0.6870730154
 32
0.0
 13
-0.6217346937
 23
0.452989783
 33
0.0
 40
0.0
 40
0.0
 40
0.0
 40
0.0
 40
0.3761055912
 40
0.5448727454
 40
0.6929176108
 40
0.8153330053
 40
0.908097794
 40
0.9688840672
 40
0.9875522319
 40
1.0
 40
1.0
 40
1.0
 40
1.0
 10
-2.2120048893
 20
-4.5
 30
0.0
 10
-2.168633095
 20
-4.4138626658
 30
0.0
 10
-2.1081752562
 20
-4.287842373
 30
0.0
 10
-2.0372992776
 20
-4.1248807329
 30
0.0
 10
-1.9955387421
 20
-4.0202924857
 30
0.0
 10
-1.9644030984
 20
-3.9323855501
 30
0.0
 10
-1.9450681267
 20
-3.8644568079
 30
0.0
 10
-1.9372917206
 20
-3.8204617954
 30
0.0
 10
-1.938961095
 20
-3.7969318921
 30
0.0
 10
-1.9428600701
 20
-3.7892636684
 30
0.0
 10
-1.9454398065
 20
-3.7873840978
 30
0.0
 11
-2.2120048893
 21
-4.5
 31
0.0
 11
-2.0874206594
 21
-4.2388763787
 31
0.0
 11
-2.0358277864
 21
-4.1197431973
 31
0.0
 11
-1.9938602475
 21
-4.0138736545
 31
0.0
 11
-1.9629518455
 21
-3.9249219041
 31
0.0
 11
-1.9442235537
 21
-3.8560635466
 31
0.0
 11
-1.9383345094
 21
-3.8096757013
 31
0.0
 11
-1.9402740622
 21
-3.7954466976
 31
0.0
 11
-1.9454398065
 21
-3.7873840978
 31
0.0
  0
SPLINE
  5
4C6
100
AcDbEntity
  8
RACCORDO
100
AcDbSpline
 62
253
  6
CONTINUOUS
 70
0
 71
3
 72
15
 73
11
 74
9
 42
0.0000001
 43
0.0000001
 44
0.0000000001
 12
-0.3459544457
 22
0.687073089
 32
0.0
 13
0.6217347268
 23
0.452989887
 33
0.0
 40
0.0
 40
0.0
 40
0.0
 40
0.0
 40
0.3761055782
 40
0.5448727318
 40
0.6929175993
 40
0.8153329975
 40
0.9080977902
 40
0.9688840666
 40
0.987552232
 40
1.0
 40
1.0
 40
1.0
 40
1.0
 10
2.2120048933
 20
-4.5
 30
0.0
 10
2.1686330944
 20
-4.4138626595
 30
0.0
 10
2.1081752485
 20
-4.2878423562
 30
0.0
 10
2.0372992605
 20
-4.1248807013
 30
0.0
 10
1.9955387179
 20
-4.0202924416
 30
0.0
 10
1.9644030679
 20
-3.9323854942
 30
0.0
 10
1.9450680914
 20
-3.8644567422
 30
0.0
 10
1.9372916822
 20
-3.8204617229
 30
0.0
 10
1.9389610552
 20
-3.7969318161
 30
0.0
 10
1.9428600299
 20
-3.7892635908
 30
0.0
 10
1.9454397664
 20
-3.7873840198
 30
0.0
 11
2.2120048933
 21
-4.5
 31
0.0
 11
2.0874206498
 21
-4.2388763596
 31
0.0
 11
2.0358277693
 21
-4.1197431657
 31
0.0
 11
1.9938602231
 21
-4.0138736101
 31
0.0
 11
1.9629518147
 21
-3.9249218475
 31
0.0
 11
1.9442235179
 21
-3.8560634798
 31
0.0
 11
1.9383344704
 21
-3.809675627
 31
0.0
 11
1.9402740224
 21
-3.795446621
 31
0.0
 11
1.9454397664
 21
-3.7873840198
 31
0.0
  0
SPLINE
  5
4C7
100
AcDbEntity
  8
RACCORDO
100
AcDbSpline
 62
253
  6
CONTINUOUS
 70
0
 71
3
 72
27
 73
23
 74
21
 42
0.0000001
 43
0.0000001
 44
0.0000000001
 12
-0.0404924588
 22
-17.7714469581
 32
0.0
 13
-0.0406699702
 23
17.7714465527
 33
0.0
 40
0.0
 40
0.0
 40
0.0
 40
0.0
 40
0.0625245194
 40
0.1250307828
 40
0.1875253417
 40
0.250006186
 40
0.3124781013
 40
0.3749449505
 40
0.4062138954
 40
0.4374827095
 40
0.4687512186
 40
0.5000169574
 40
0.5312827069
 40
0.5625512693
 40
0.5938198032
 40
0.6250881302
 40
0.6875528913
 40
0.7500211454
 40
0.8124965716
 40
0.8749836072
 40
0.9374812282
 40
1.0
 40
1.0
 40
1.0
 40
1.0
 10
5.6729711646
 20
-4.5011333078
 30
0.0
 10
5.6721272408
 20
-4.8715170345
 30
0.0
 10
5.5965827307
 20
-5.6139192598
 30
0.0
 10
5.2705744445
 20
-6.683103434
 30
0.0
 10
4.7394129473
 20
-7.666659171
 30
0.0
 10
4.0296034595
 20
-8.5298130026
 30
0.0
 10
3.1639239165
 20
-9.2360360654
 30
0.0
 10
2.3427318285
 20
-9.6760196111
 30
0.0
 10
1.6449288274
 20
-9.9267621147
 30
0.0
 10
1.1054547935
 20
-10.0637296351
 30
0.0
 10
0.5555218064
 20
-10.1486865893
 30
0.0
 10
-0.0003102338
 20
-10.1803787564
 30
0.0
 10
-0.5561385119
 20
-10.1486200074
 30
0.0
 10
-1.1060613767
 20
-10.0636064421
 30
0.0
 10
-1.6455157239
 20
-9.9265819664
 30
0.0
 10
-2.3432765267
 20
-9.6757733818
 30
0.0
 10
-3.1643841532
 20
-9.2357173775
 30
0.0
 10
-4.0299643272
 20
-8.5294740393
 30
0.0
 10
-4.7396118673
 20
-7.666324589
 30
0.0
 10
-5.2707515517
 20
-6.6828992515
 30
0.0
 10
-5.5965622206
 20
-5.6137890608
 30
0.0
 10
-5.6721236191
 20
-4.8714829781
 30
0.0
 10
-5.6729711646
 20
-4.5011333078
 30
0.0
 11
5.6729711646
 21
-4.5011333078
 31
0.0
 11
5.561106723
 21
-5.6066421053
 31
0.0
 11
5.2363392636
 21
-6.6689361138
 31
0.0
 11
4.7095741598
 21
-7.6466880824
 31
0.0
 11
4.0035687795
 21
-8.5037151927
 31
0.0
 11
3.143967598
 21
-9.2063335121
 31
0.0
 11
2.1651865503
 21
-9.7301411654
 31
0.0
 11
1.642290247
 21
-9.9182297591
 31
0.0
 11
1.1037067367
 21
-10.0550620782
 31
0.0
 11
0.5545192927
 21
-10.1398111799
 31
0.0
 11
-0.0003094911
 21
-10.1698039185
 31
0.0
 11
-0.5551349504
 21
-10.1397462436
 31
0.0
 11
-1.1043142668
 21
-10.0549382922
 31
0.0
 11
-1.6428783725
 21
-9.9180498323
 31
0.0
 11
-2.1657445893
 21
-9.729910041
 31
0.0
 11
-3.1444387518
 21
-9.2060186967
 31
0.0
 11
-4.0039303759
 21
-8.5033691584
 31
0.0
 11
-4.7098062052
 21
-7.646360081
 31
0.0
 11
-5.236490216
 21
-6.6687162946
 31
0.0
 11
-5.5611198949
 21
-5.6065407725
 31
0.0
 11
-5.6729711646
 21
-4.5011333078
 31
0.0
  0
SPLINE
  5
4C8
100
AcDbEntity
  8
RACCORDO
100
AcDbSpline
 62
253
  6
CONTINUOUS
 70
0
 71
3
 72
27
 73
23
 74
21
 42
0.0000001
 43
0.0000001
 44
0.0000000001
 12
0.0406747836
 22
17.7714514672
 32
0.0
 13
0.0408041117
 23
-17.7714511708
 33
0.0
 40
0.0
 40
0.0
 40
0.0
 40
0.0
 40
0.0625242997
 40
0.1250280348
 40
0.1875202443
 40
0.249999655
 40
0.312470779
 40
0.3749373792
 40
0.4062064072
 40
0.4374755464
 40
0.4687443825
 40
0.5000104626
 40
0.5312765504
 40
0.5625454524
 40
0.5938143258
 40
0.6250829998
 40
0.6875484676
 40
0.7500174991
 40
0.8124937078
 40
0.8749815957
 40
0.9374800472
 40
1.0
 40
1.0
 40
1.0
 40
1.0
 10
-5.6729711646
 20
4.5011332892
 30
0.0
 10
-5.6721234439
 20
4.8715158084
 30
0.0
 10
-5.596573152
 20
5.6138985849
 30
0.0
 10
-5.2706157927
 20
6.6830680616
 30
0.0
 10
-4.7394572792
 20
7.6665829147
 30
0.0
 10
-4.0297001252
 20
8.5297437879
 30
0.0
 10
-3.1640285713
 20
9.2359555898
 30
0.0
 10
-2.3428574682
 20
9.6759631319
 30
0.0
 10
-1.6450589083
 20
9.9267225315
 30
0.0
 10
-1.1055837596
 20
10.063703863
 30
0.0
 10
-0.5556465763
 20
10.1486732861
 30
0.0
 10
0.0001907824
 20
10.1803793697
 30
0.0
 10
0.5560260242
 20
10.1486323247
 30
0.0
 10
1.1059566318
 20
10.0636281347
 30
0.0
 10
1.6454194832
 20
9.9266117611
 30
0.0
 10
2.3431925453
 20
9.6758120376
 30
0.0
 10
3.16431579
 20
9.2357613149
 30
0.0
 10
4.0299175116
 20
8.5295230045
 30
0.0
 10
4.7395864185
 20
7.6663706775
 30
0.0
 10
5.2707311715
 20
6.6829313842
 30
0.0
 10
5.5965613241
 20
5.6138088834
 30
0.0
 10
5.6721208076
 20
4.8714900519
 30
0.0
 10
5.6729711646
 20
4.5011332892
 30
0.0
 11
-5.6729711646
 21
4.5011332892
 31
0.0
 11
-5.5611040931
 21
5.6066382058
 31
0.0
 11
-5.2363728633
 21
6.6688966281
 31
0.0
 11
-4.7096307438
 21
7.6466139029
 31
0.0
 11
-4.0036622006
 21
8.5036387479
 31
0.0
 11
-3.1440788595
 21
9.2062571594
 31
0.0
 11
-2.1653147302
 21
9.7300876977
 31
0.0
 11
-1.6424215337
 21
9.9181897506
 31
0.0
 11
-1.1038354478
 21
10.0550360189
 31
0.0
 11
-0.554643973
 21
10.1397981079
 31
0.0
 11
0.0001903189
 21
10.1698041623
 31
0.0
 11
0.5550225867
 21
10.1397581732
 31
0.0
 11
1.104209641
 21
10.0549597744
 31
0.0
 11
1.6427821874
 21
9.918079404
 31
0.0
 11
2.1656574704
 21
9.7299461413
 31
0.0
 11
3.1443704505
 21
9.2060626878
 31
0.0
 11
4.0038834065
 21
8.503416928
 31
0.0
 11
4.7097777766
 21
7.6464047094
 31
0.0
 11
5.2364721616
 21
6.6687489558
 31
0.0
 11
5.5611148166
 21
5.6065616452
 31
0.0
 11
5.6729711646
 21
4.5011332892
 31
0.0
  0
SPLINE
  5
4C9
100
AcDbEntity
  8
ASSI
100
AcDbSpline
 62
253
  6
CONTINUOUS
 70
0
 71
3
 72
18
 73
14
 74
12
 42
0.0000001
 43
0.0000001
 44
0.0000000001
 12
-0.0007594238
 22
0.6698588972
 32
0.0
 13
-0.2988795282
 23
0.5994852346
 33
0.0
 40
0.0
 40
0.0
 40
0.0
 40
0.0
 40
0.1911308635
 40
0.3742063506
 40
0.5429018838
 40
0.6915546455
 40
0.8151476268
 40
0.8662337678
 40
0.9095956099
 40
0.9448847149
 40
0.971822076
 40
0.9902037888
 40
1.0
 40
1.0
 40
1.0
 40
1.0
 10
-10.8952394837
 20
20.8558253568
 30
0.0
 10
-10.8952878668
 20
20.89850226
 30
0.0
 10
-10.8955815972
 20
20.9820573697
 30
0.0
 10
-10.8966189487
 20
21.1032759924
 30
0.0
 10
-10.8982062655
 20
21.2150036244
 30
0.0
 10
-10.9002852413
 20
21.3134378075
 30
0.0
 10
-10.9024549799
 20
21.3856047369
 30
0.0
 10
-10.9044727281
 20
21.4342458908
 30
0.0
 10
-10.9059417554
 20
21.4631847568
 30
0.0
 10
-10.907497159
 20
21.4866920271
 30
0.0
 10
-10.9089705365
 20
21.5046780836
 30
0.0
 10
-10.9106369053
 20
21.5167865346
 30
0.0
 10
-10.9116900359
 20
21.5231171129
 30
0.0
 10
-10.9126659982
 20
21.5250746743
 30
0.0
 11
-10.8952394837
 21
20.8558253568
 31
0.0
 11
-10.8956978248
 21
20.9838553282
 31
0.0
 11
-10.8967665912
 21
21.1064854936
 31
0.0
 11
-10.8984082007
 21
21.2194758454
 31
0.0
 11
-10.9005653818
 21
21.3190289155
 31
0.0
 11
-10.9031639573
 21
21.4017780353
 31
0.0
 11
-10.9046013829
 21
21.4359683607
 31
0.0
 11
-10.9061146298
 21
21.46497525
 31
0.0
 11
-10.9076911809
 21
21.4885613546
 31
0.0
 11
-10.9093183507
 21
21.5065320811
 31
0.0
 11
-10.9109820996
 21
21.5187323226
 31
0.0
 11
-10.9126659982
 21
21.5250746743
 31
0.0
  0
SPLINE
  5
4CA
100
AcDbEntity
  8
ASSI
100
AcDbSpline
 62
253
  6
CONTINUOUS
 70
0
 71
3
 72
18
 73
14
 74
12
 42
0.0000001
 43
0.0000001
 44
0.0000000001
 12
0.2988795543
 22
0.5994852205
 32
0.0
 13
0.0007594237
 23
0.6698588963
 33
0.0
 40
0.0
 40
0.0
 40
0.0
 40
0.0
 40
0.0097962112
 40
0.0281779245
 40
0.0551152857
 40
0.0904043905
 40
0.1337662328
 40
0.1848523741
 40
0.3084453561
 40
0.457098118
 40
0.6257936519
 40
0.8088691389
 40
1.0
 40
1.0
 40
1.0
 40
1.0
 10
-10.9126659988
 20
-21.5250746755
 30
0.0
 10
-10.9116900364
 20
-21.5231171142
 30
0.0
 10
-10.910636906
 20
-21.5167865357
 30
0.0
 10
-10.9089705371
 20
-21.5046780847
 30
0.0
 10
-10.9074971596
 20
-21.486692028
 30
0.0
 10
-10.905941756
 20
-21.4631847577
 30
0.0
 10
-10.9044727288
 20
-21.4342458918
 30
0.0
 10
-10.9024549805
 20
-21.3856047376
 30
0.0
 10
-10.9002852419
 20
-21.3134378081
 30
0.0
 10
-10.8982062661
 20
-21.2150036247
 30
0.0
 10
-10.8966189493
 20
-21.1032759927
 30
0.0
 10
-10.8955815979
 20
-20.9820573705
 30
0.0
 10
-10.8952878671
 20
-20.8985022615
 30
0.0
 10
-10.895239484
 20
-20.855825359
 30
0.0
 11
-10.9126659988
 21
-21.5250746755
 31
0.0
 11
-10.9109821002
 21
-21.5187323239
 31
0.0
 11
-10.9093183514
 21
-21.506532082
 31
0.0
 11
-10.9076911815
 21
-21.4885613555
 31
0.0
 11
-10.9061146304
 21
-21.464975251
 31
0.0
 11
-10.9046013835
 21
-21.4359683617
 31
0.0
 11
-10.9031639579
 21
-21.4017780361
 31
0.0
 11
-10.9005653825
 21
-21.3190289159
 31
0.0
 11
-10.8984082013
 21
-21.2194758458
 31
0.0
 11
-10.8967665919
 21
-21.1064854937
 31
0.0
 11
-10.8956978254
 21
-20.9838553285
 31
0.0
 11
-10.895239484
 21
-20.855825359
 31
0.0
  0
SPLINE
  5
4CB
100
AcDbEntity
  8
ASSI
100
AcDbSpline
 62
253
  6
CONTINUOUS
 70
0
 71
3
 72
18
 73
14
 74
12
 42
0.0000001
 43
0.0000001
 44
0.0000000001
 12
0.0007594238
 22
-0.6698588972
 32
0.0
 13
0.2988795282
 23
-0.5994852346
 33
0.0
 40
0.0
 40
0.0
 40
0.0
 40
0.0
 40
0.1911308635
 40
0.3742063506
 40
0.5429018838
 40
0.6915546454
 40
0.8151476268
 40
0.8662337678
 40
0.9095956099
 40
0.9448847149
 40
0.971822076
 40
0.9902037888
 40
1.0
 40
1.0
 40
1.0
 40
1.0
 10
10.8952394837
 20
-20.8558253568
 30
0.0
 10
10.8952878668
 20
-20.89850226
 30
0.0
 10
10.8955815972
 20
-20.9820573697
 30
0.0
 10
10.8966189487
 20
-21.1032759924
 30
0.0
 10
10.8982062655
 20
-21.2150036244
 30
0.0
 10
10.9002852413
 20
-21.3134378076
 30
0.0
 10
10.9024549799
 20
-21.3856047369
 30
0.0
 10
10.9044727282
 20
-21.4342458908
 30
0.0
 10
10.9059417554
 20
-21.4631847568
 30
0.0
 10
10.907497159
 20
-21.4866920271
 30
0.0
 10
10.9089705365
 20
-21.5046780836
 30
0.0
 10
10.9106369053
 20
-21.5167865346
 30
0.0
 10
10.9116900359
 20
-21.5231171129
 30
0.0
 10
10.9126659982
 20
-21.5250746743
 30
0.0
 11
10.8952394837
 21
-20.8558253568
 31
0.0
 11
10.8956978248
 21
-20.9838553282
 31
0.0
 11
10.8967665912
 21
-21.1064854936
 31
0.0
 11
10.8984082007
 21
-21.2194758454
 31
0.0
 11
10.9005653818
 21
-21.3190289155
 31
0.0
 11
10.9031639573
 21
-21.4017780353
 31
0.0
 11
10.9046013829
 21
-21.4359683607
 31
0.0
 11
10.9061146298
 21
-21.46497525
 31
0.0
 11
10.9076911809
 21
-21.4885613546
 31
0.0
 11
10.9093183507
 21
-21.5065320811
 31
0.0
 11
10.9109820996
 21
-21.5187323226
 31
0.0
 11
10.9126659982
 21
-21.5250746743
 31
0.0
  0
SPLINE
  5
4CC
100
AcDbEntity
  8
ASSI
100
AcDbSpline
 62
253
  6
CONTINUOUS
 70
0
 71
3
 72
18
 73
14
 74
12
 42
0.0000001
 43
0.0000001
 44
0.0000000001
 12
-0.2988795543
 22
-0.5994852205
 32
0.0
 13
-0.0007594237
 23
-0.6698588963
 33
0.0
 40
0.0
 40
0.0
 40
0.0
 40
0.0
 40
0.0097962112
 40
0.0281779245
 40
0.0551152857
 40
0.0904043905
 40
0.1337662328
 40
0.1848523741
 40
0.3084453561
 40
0.457098118
 40
0.6257936519
 40
0.8088691389
 40
1.0
 40
1.0
 40
1.0
 40
1.0
 10
10.9126659988
 20
21.5250746755
 30
0.0
 10
10.9116900364
 20
21.5231171142
 30
0.0
 10
10.910636906
 20
21.5167865357
 30
0.0
 10
10.9089705371
 20
21.5046780847
 30
0.0
 10
10.9074971596
 20
21.4866920281
 30
0.0
 10
10.905941756
 20
21.4631847577
 30
0.0
 10
10.9044727288
 20
21.4342458918
 30
0.0
 10
10.9024549805
 20
21.3856047376
 30
0.0
 10
10.9002852419
 20
21.3134378081
 30
0.0
 10
10.8982062661
 20
21.2150036247
 30
0.0
 10
10.8966189493
 20
21.1032759927
 30
0.0
 10
10.8955815979
 20
20.9820573705
 30
0.0
 10
10.8952878671
 20
20.8985022615
 30
0.0
 10
10.895239484
 20
20.855825359
 30
0.0
 11
10.9126659988
 21
21.5250746755
 31
0.0
 11
10.9109821002
 21
21.5187323239
 31
0.0
 11
10.9093183514
 21
21.506532082
 31
0.0
 11
10.9076911815
 21
21.4885613555
 31
0.0
 11
10.9061146304
 21
21.464975251
 31
0.0
 11
10.9046013835
 21
21.4359683617
 31
0.0
 11
10.9031639579
 21
21.4017780361
 31
0.0
 11
10.9005653825
 21
21.319028916
 31
0.0
 11
10.8984082013
 21
21.2194758458
 31
0.0
 11
10.8967665919
 21
21.1064854937
 31
0.0
 11
10.8956978254
 21
20.9838553285
 31
0.0
 11
10.895239484
 21
20.855825359
 31
0.0
  0
SPLINE
  5
4CD
100
AcDbEntity
  8
ASSI
100
AcDbSpline
 62
253
  6
CONTINUOUS
 70
0
 71
3
 72
11
 73
7
 74
5
 42
0.0000001
 43
0.0000001
 44
0.0000000001
 12
0.290824418
 22
0.0021981279
 32
0.0
 13
0.0029298796
 23
0.2908179665
 33
0.0
 40
0.0
 40
0.0
 40
0.0
 40
0.0
 40
0.2659011537
 40
0.5231711216
 40
0.7669316808
 40
1.0
 40
1.0
 40
1.0
 40
1.0
 10
10.3602592617
 20
23.6278312164
 30
0.0
 10
10.3860361111
 20
23.6280260446
 30
0.0
 10
10.43712135
 20
23.6369744366
 30
0.0
 10
10.5030412857
 20
23.6746347866
 30
0.0
 10
10.5485995191
 20
23.7317691277
 30
0.0
 10
10.56000118
 20
23.7784428122
 30
0.0
 10
10.5602288007
 20
23.8010362971
 30
0.0
 11
10.3602592617
 21
23.6278312164
 31
0.0
 11
10.4363839665
 21
23.6414468189
 31
0.0
 11
10.5010461461
 21
23.6790927071
 31
0.0
 11
10.5445092521
 21
23.7351003272
 31
0.0
 11
10.5602288007
 21
23.8010362971
 31
0.0
  0
SPLINE
  5
4CE
100
AcDbEntity
  8
ASSI
100
AcDbSpline
 62
7
  6
CONTINUOUS
 70
0
 71
3
 72
12
 73
8
 74
6
 42
0.0000001
 43
0.0000001
 44
0.0000000001
 12
-0.0092279883
 22
-0.2408431399
 32
0.0
 13
-0.2395313719
 23
0.0267450115
 33
0.0
 40
0.0
 40
0.0
 40
0.0
 40
0.0
 40
0.1616128294
 40
0.2604077624
 40
0.3752282587
 40
0.6572300194
 40
1.0
 40
1.0
 40
1.0
 40
1.0
 10
10.5781050106
 20
23.2097560788
 30
0.0
 10
10.5776078902
 20
23.1967816317
 30
0.0
 10
10.5681158726
 20
23.1761495846
 30
0.0
 10
10.5460303979
 20
23.1555548802
 30
0.0
 10
10.5118238086
 20
23.1346172361
 30
0.0
 10
10.4538062759
 20
23.1179167719
 30
0.0
 10
10.4029798825
 20
23.1169681865
 30
0.0
 10
10.3756118279
 20
23.1200239821
 30
0.0
 11
10.5781050106
 21
23.2097560788
 31
0.0
 11
10.5635785992
 21
23.173614219
 31
0.0
 11
10.5465094436
 21
23.1570120079
 31
0.0
 11
10.5230491523
 21
23.1423332433
 31
0.0
 11
10.4582032806
 21
23.1219699089
 31
0.0
 11
10.3756118279
 21
23.1200239821
 31
0.0
  0
SPLINE
  5
4CF
100
AcDbEntity
  8
ASSI
100
AcDbSpline
 62
253
  6
CONTINUOUS
 70
0
 71
3
 72
11
 73
7
 74
5
 42
0.0000001
 43
0.0000001
 44
0.0000000001
 12
0.290824418
 22
0.0021981279
 32
0.0
 13
0.0029298796
 23
0.2908179665
 33
0.0
 40
0.0
 40
0.0
 40
0.0
 40
0.0
 40
0.2659011537
 40
0.5231711216
 40
0.7669316808
 40
1.0
 40
1.0
 40
1.0
 40
1.0
 10
-7.4397407383
 20
23.6278312164
 30
0.0
 10
-7.4139638889
 20
23.6280260446
 30
0.0
 10
-7.36287865
 20
23.6369744366
 30
0.0
 10
-7.2969587143
 20
23.6746347866
 30
0.0
 10
-7.2514004809
 20
23.7317691277
 30
0.0
 10
-7.23999882
 20
23.7784428122
 30
0.0
 10
-7.2397711993
 20
23.8010362971
 30
0.0
 11
-7.4397407383
 21
23.6278312164
 31
0.0
 11
-7.3636160335
 21
23.6414468189
 31
0.0
 11
-7.2989538539
 21
23.6790927071
 31
0.0
 11
-7.2554907479
 21
23.7351003272
 31
0.0
 11
-7.2397711993
 21
23.8010362971
 31
0.0
  0
SPLINE
  5
4D0
100
AcDbEntity
  8
ASSI
100
AcDbSpline
 62
7
  6
CONTINUOUS
 70
0
 71
3
 72
12
 73
8
 74
6
 42
0.0000001
 43
0.0000001
 44
0.0000000001
 12
-0.0092279883
 22
-0.240843142
 32
0.0
 13
-0.2395313741
 23
0.0267450118
 33
0.0
 40
0.0
 40
0.0
 40
0.0
 40
0.0
 40
0.1616125329
 40
0.2604072651
 40
0.3752276894
 40
0.6572297246
 40
1.0
 40
1.0
 40
1.0
 40
1.0
 10
-7.2218949894
 20
23.2097560788
 30
0.0
 10
-7.2223921089
 20
23.1967816554
 30
0.0
 10
-7.2318840845
 20
23.1761496414
 30
0.0
 10
-7.2539695122
 20
23.1555549509
 30
0.0
 10
-7.2881760839
 20
23.1346172782
 30
0.0
 10
-7.3461936529
 20
23.1179167767
 30
0.0
 10
-7.3970200937
 20
23.1169681838
 30
0.0
 10
-7.4243881721
 20
23.1200239821
 30
0.0
 11
-7.2218949894
 21
23.2097560788
 31
0.0
 11
-7.2364213503
 21
23.1736142754
 31
0.0
 11
-7.2534904582
 21
23.1570120843
 31
0.0
 11
-7.2769507227
 21
23.1423333093
 31
0.0
 11
-7.3417966479
 21
23.1219699222
 31
0.0
 11
-7.4243881721
 21
23.1200239821
 31
0.0
  0
SPLINE
  5
4D1
100
AcDbEntity
  8
RACCORDO
100
AcDbSpline
 62
253
  6
CONTINUOUS
 70
0
 71
3
 72
11
 73
7
 74
5
 42
0.0000001
 43
0.0000001
 44
0.0000000001
 12
4.1496408844
 22
-2.1194015658
 32
0.0
 13
0.0000102961
 23
-4.659547453
 33
0.0
 40
0.0
 40
0.0
 40
0.0
 40
0.0
 40
0.2491942807
 40
0.4980731757
 40
0.7482604412
 40
1.0
 40
1.0
 40
1.0
 40
1.0
 10
1.9454398915
 20
3.7873841124
 30
0.0
 10
2.2901288167
 20
3.6113365295
 30
0.0
 10
2.934348364
 20
3.1628416221
 30
0.0
 10
3.6821007382
 20
2.2548934745
 30
0.0
 10
4.1585144675
 20
1.174863687
 30
0.0
 10
4.267672493
 20
0.3909974697
 30
0.0
 10
4.2676733569
 20
-0.0000000037
 30
0.0
 11
1.9454398915
 21
3.7873841124
 31
0.0
 11
2.8980887582
 21
3.1235400072
 31
0.0
 11
3.6355186956
 21
2.2285453644
 31
0.0
 11
4.1055194464
 21
1.1617303123
 31
0.0
 11
4.2676733569
 21
-0.0000000037
 31
0.0
  0
SPLINE
  5
4D2
100
AcDbEntity
  8
ASSI
100
AcDbSpline
 62
7
  6
CONTINUOUS
 70
0
 71
3
 72
12
 73
8
 74
6
 42
0.0000001
 43
0.0000001
 44
0.0000000001
 12
-0.2395313741
 22
-0.0267450118
 32
0.0
 13
-0.0092279883
 23
0.240843142
 33
0.0
 40
0.0
 40
0.0
 40
0.0
 40
0.0
 40
0.3427702754
 40
0.6247723106
 40
0.7395927349
 40
0.8383874671
 40
1.0
 40
1.0
 40
1.0
 40
1.0
 10
7.4243881721
 20
23.1200239821
 30
0.0
 10
7.3970200937
 20
23.1169681838
 30
0.0
 10
7.3461936529
 20
23.1179167767
 30
0.0
 10
7.2881760839
 20
23.1346172782
 30
0.0
 10
7.2539695122
 20
23.1555549509
 30
0.0
 10
7.2318840845
 20
23.1761496414
 30
0.0
 10
7.2223921089
 20
23.1967816554
 30
0.0
 10
7.2218949894
 20
23.2097560788
 30
0.0
 11
7.4243881721
 21
23.1200239821
 31
0.0
 11
7.3417966479
 21
23.1219699222
 31
0.0
 11
7.2769507227
 21
23.1423333093
 31
0.0
 11
7.2534904582
 21
23.1570120843
 31
0.0
 11
7.2364213503
 21
23.1736142754
 31
0.0
 11
7.2218949894
 21
23.2097560788
 31
0.0
  0
SPLINE
  5
4D3
100
AcDbEntity
  8
ASSI
100
AcDbSpline
 62
253
  6
CONTINUOUS
 70
0
 71
3
 72
11
 73
7
 74
5
 42
0.0000001
 43
0.0000001
 44
0.0000000001
 12
-0.290824418
 22
0.002198128
 32
0.0
 13
-0.0029298796
 23
0.2908179665
 33
0.0
 40
0.0
 40
0.0
 40
0.0
 40
0.0
 40
0.2659011522
 40
0.5231711191
 40
0.7669316794
 40
1.0
 40
1.0
 40
1.0
 40
1.0
 10
7.4397407383
 20
23.6278312164
 30
0.0
 10
7.413963889
 20
23.6280260446
 30
0.0
 10
7.3628786504
 20
23.6369744365
 30
0.0
 10
7.2969587147
 20
23.6746347862
 30
0.0
 10
7.2514004811
 20
23.7317691273
 30
0.0
 10
7.23999882
 20
23.7784428121
 30
0.0
 10
7.2397711993
 20
23.8010362971
 30
0.0
 11
7.4397407383
 21
23.6278312164
 31
0.0
 11
7.3636160339
 21
23.6414468187
 31
0.0
 11
7.2989538545
 21
23.6790927066
 31
0.0
 11
7.2554907481
 21
23.7351003269
 31
0.0
 11
7.2397711993
 21
23.8010362971
 31
0.0
  0
SPLINE
  5
4D4
100
AcDbEntity
  8
ASSI
100
AcDbSpline
 62
253
  6
CONTINUOUS
 70
0
 71
3
 72
11
 73
7
 74
5
 42
0.0000001
 43
0.0000001
 44
0.0000000001
 12
-0.290824418
 22
0.002198128
 32
0.0
 13
-0.0029298796
 23
0.2908179665
 33
0.0
 40
0.0
 40
0.0
 40
0.0
 40
0.0
 40
0.2659011522
 40
0.5231711191
 40
0.7669316794
 40
1.0
 40
1.0
 40
1.0
 40
1.0
 10
-10.3602592617
 20
23.6278312164
 30
0.0
 10
-10.386036111
 20
23.6280260446
 30
0.0
 10
-10.4371213496
 20
23.6369744365
 30
0.0
 10
-10.5030412853
 20
23.6746347862
 30
0.0
 10
-10.5485995189
 20
23.7317691273
 30
0.0
 10
-10.56000118
 20
23.7784428121
 30
0.0
 10
-10.5602288007
 20
23.8010362971
 30
0.0
 11
-10.3602592617
 21
23.6278312164
 31
0.0
 11
-10.4363839661
 21
23.6414468187
 31
0.0
 11
-10.5010461455
 21
23.6790927066
 31
0.0
 11
-10.5445092519
 21
23.7351003269
 31
0.0
 11
-10.5602288007
 21
23.8010362971
 31
0.0
  0
SPLINE
  5
4D5
100
AcDbEntity
  8
ASSI
100
AcDbSpline
 62
7
  6
CONTINUOUS
 70
0
 71
3
 72
12
 73
8
 74
6
 42
0.0000001
 43
0.0000001
 44
0.0000000001
 12
-0.2395313719
 22
-0.0267450115
 32
0.0
 13
-0.0092279883
 23
0.2408431399
 33
0.0
 40
0.0
 40
0.0
 40
0.0
 40
0.0
 40
0.3427699806
 40
0.6247717413
 40
0.7395922376
 40
0.8383871706
 40
1.0
 40
1.0
 40
1.0
 40
1.0
 10
-10.3756118279
 20
23.1200239821
 30
0.0
 10
-10.4029798825
 20
23.1169681865
 30
0.0
 10
-10.4538062759
 20
23.1179167719
 30
0.0
 10
-10.5118238086
 20
23.1346172361
 30
0.0
 10
-10.5460303979
 20
23.1555548802
 30
0.0
 10
-10.5681158726
 20
23.1761495846
 30
0.0
 10
-10.5776078902
 20
23.1967816317
 30
0.0
 10
-10.5781050106
 20
23.2097560788
 30
0.0
 11
-10.3756118279
 21
23.1200239821
 31
0.0
 11
-10.4582032806
 21
23.1219699089
 31
0.0
 11
-10.5230491524
 21
23.1423332433
 31
0.0
 11
-10.5465094436
 21
23.1570120079
 31
0.0
 11
-10.5635785992
 21
23.173614219
 31
0.0
 11
-10.5781050106
 21
23.2097560788
 31
0.0
  0
SPLINE
  5
4D6
100
AcDbEntity
  8
RACCORDO
100
AcDbSpline
 62
253
  6
CONTINUOUS
 70
0
 71
3
 72
11
 73
7
 74
5
 42
0.0000001
 43
0.0000001
 44
0.0000000001
 12
-0.0000137457
 22
-4.6595476165
 32
0.0
 13
-4.1496412784
 23
-2.1194011539
 33
0.0
 40
0.0
 40
0.0
 40
0.0
 40
0.0
 40
0.2517427732
 40
0.5019277971
 40
0.7508071625
 40
1.0
 40
1.0
 40
1.0
 40
1.0
 10
4.2676733569
 20
-0.0000000037
 30
0.0
 10
4.2676722035
 20
-0.3910024834
 30
0.0
 10
4.1585134041
 20
-1.1748704933
 30
0.0
 10
3.6820957626
 20
-2.2549008199
 30
0.0
 10
2.9343453135
 20
-3.1628441056
 30
0.0
 10
2.2901267917
 20
-3.6113376147
 30
0.0
 10
1.9454398301
 20
-3.7873841437
 30
0.0
 11
4.2676733569
 21
-0.0000000037
 31
0.0
 11
4.1055155896
 21
-1.1617449457
 31
0.0
 11
3.6355163779
 21
-2.2285493072
 31
0.0
 11
2.8980837419
 21
-3.1235446195
 31
0.0
 11
1.9454398301
 21
-3.7873841437
 31
0.0
  0
SPLINE
  5
4D7
100
AcDbEntity
  8
ASSI
100
AcDbSpline
 62
253
  6
CONTINUOUS
 70
0
 71
3
 72
11
 73
7
 74
5
 42
0.0000001
 43
0.0000001
 44
0.0000000001
 12
-0.0029298744
 22
0.2908179843
 32
0.0
 13
-0.2908244364
 23
0.0021980406
 33
0.0
 40
0.0
 40
0.0
 40
0.0
 40
0.0
 40
0.2330683041
 40
0.4768288064
 40
0.7340987915
 40
1.0
 40
1.0
 40
1.0
 40
1.0
 10
10.5602288007
 20
-23.8010362971
 30
0.0
 10
10.5600011804
 20
-23.7784428123
 30
0.0
 10
10.5485995333
 20
-23.7317691306
 30
0.0
 10
10.5030413131
 20
-23.674634778
 30
0.0
 10
10.4371213698
 20
-23.636974425
 30
0.0
 10
10.386036118
 20
-23.6280260394
 30
0.0
 10
10.3602592616
 20
-23.6278312189
 30
0.0
 11
10.5602288007
 21
-23.8010362971
 31
0.0
 11
10.5445092636
 21
-23.7351003247
 31
0.0
 11
10.5010461765
 21
-23.6790927054
 31
0.0
 11
10.4363839892
 21
-23.6414468114
 31
0.0
 11
10.3602592616
 21
-23.6278312189
 31
0.0
  0
SPLINE
  5
4D8
100
AcDbEntity
  8
ASSI
100
AcDbSpline
 62
7
  6
CONTINUOUS
 70
0
 71
3
 72
12
 73
8
 74
6
 42
0.0000001
 43
0.0000001
 44
0.0000000001
 12
0.239530293
 22
0.0267448911
 32
0.0
 13
0.0092279467
 23
-0.240842055
 33
0.0
 40
0.0
 40
0.0
 40
0.0
 40
0.0
 40
0.3426117859
 40
0.624591816
 40
0.7395308789
 40
0.838274356
 40
1.0
 40
1.0
 40
1.0
 40
1.0
 10
10.3756118279
 20
-23.1200239821
 30
0.0
 10
10.4029671284
 20
-23.1169696105
 30
0.0
 10
10.4537786213
 20
-23.1179165861
 30
0.0
 10
10.5117911135
 20
-23.1346097426
 30
0.0
 10
10.5460071127
 20
-23.1555385338
 30
0.0
 10
10.5681115785
 20
-23.1761339157
 30
0.0
 10
10.5776075454
 20
-23.1967726333
 30
0.0
 10
10.5781050106
 20
-23.2097560788
 30
0.0
 11
10.3756118279
 21
-23.1200239821
 31
0.0
 11
10.4581648674
 21
-23.1219657681
 31
0.0
 11
10.5230087511
 21
-23.142316927
 31
0.0
 11
10.5464976004
 21
-23.1570036873
 31
0.0
 11
10.5635637077
 21
-23.1735910893
 31
0.0
 11
10.5781050106
 21
-23.2097560788
 31
0.0
  0
SPLINE
  5
4D9
100
AcDbEntity
  8
ASSI
100
AcDbSpline
 62
253
  6
CONTINUOUS
 70
0
 71
3
 72
11
 73
7
 74
5
 42
0.0000001
 43
0.0000001
 44
0.0000000001
 12
-0.290824418
 22
-0.0021981279
 32
0.0
 13
-0.0029298796
 23
-0.2908179665
 33
0.0
 40
0.0
 40
0.0
 40
0.0
 40
0.0
 40
0.2659011524
 40
0.5231711195
 40
0.7669316796
 40
1.0
 40
1.0
 40
1.0
 40
1.0
 10
7.4397407383
 20
-23.6278312163
 30
0.0
 10
7.413963889
 20
-23.6280260446
 30
0.0
 10
7.3628786503
 20
-23.6369744365
 30
0.0
 10
7.2969587147
 20
-23.6746347863
 30
0.0
 10
7.2514004811
 20
-23.7317691274
 30
0.0
 10
7.23999882
 20
-23.7784428121
 30
0.0
 10
7.2397711993
 20
-23.8010362971
 30
0.0
 11
7.4397407383
 21
-23.6278312163
 31
0.0
 11
7.3636160338
 21
-23.6414468187
 31
0.0
 11
7.2989538544
 21
-23.6790927066
 31
0.0
 11
7.2554907481
 21
-23.7351003269
 31
0.0
 11
7.2397711993
 21
-23.8010362971
 31
0.0
  0
SPLINE
  5
4DA
100
AcDbEntity
  8
ASSI
100
AcDbSpline
 62
7
  6
CONTINUOUS
 70
0
 71
3
 72
12
 73
8
 74
6
 42
0.0000001
 43
0.0000001
 44
0.0000000001
 12
0.0092279883
 22
0.240843142
 32
0.0
 13
0.2395313741
 23
-0.0267450118
 33
0.0
 40
0.0
 40
0.0
 40
0.0
 40
0.0
 40
0.1616125329
 40
0.2604072651
 40
0.3752276894
 40
0.6572297246
 40
1.0
 40
1.0
 40
1.0
 40
1.0
 10
7.2218949894
 20
-23.2097560788
 30
0.0
 10
7.2223921089
 20
-23.1967816554
 30
0.0
 10
7.2318840845
 20
-23.1761496414
 30
0.0
 10
7.2539695122
 20
-23.1555549509
 30
0.0
 10
7.2881760839
 20
-23.1346172782
 30
0.0
 10
7.3461936529
 20
-23.1179167767
 30
0.0
 10
7.3970200937
 20
-23.1169681838
 30
0.0
 10
7.4243881721
 20
-23.1200239821
 30
0.0
 11
7.2218949894
 21
-23.2097560788
 31
0.0
 11
7.2364213503
 21
-23.1736142754
 31
0.0
 11
7.2534904582
 21
-23.1570120842
 31
0.0
 11
7.2769507227
 21
-23.1423333093
 31
0.0
 11
7.3417966479
 21
-23.1219699222
 31
0.0
 11
7.4243881721
 21
-23.1200239821
 31
0.0
  0
SPLINE
  5
4DB
100
AcDbEntity
  8
ASSI
100
AcDbSpline
 62
7
  6
CONTINUOUS
 70
0
 71
3
 72
12
 73
8
 74
6
 42
0.0000001
 43
0.0000001
 44
0.0000000001
 12
0.2395313741
 22
0.0267450118
 32
0.0
 13
0.0092279883
 23
-0.240843142
 33
0.0
 40
0.0
 40
0.0
 40
0.0
 40
0.0
 40
0.3427702754
 40
0.6247723106
 40
0.7395927349
 40
0.8383874671
 40
1.0
 40
1.0
 40
1.0
 40
1.0
 10
-7.4243881721
 20
-23.1200239821
 30
0.0
 10
-7.3970200937
 20
-23.1169681838
 30
0.0
 10
-7.3461936529
 20
-23.1179167767
 30
0.0
 10
-7.2881760839
 20
-23.1346172782
 30
0.0
 10
-7.2539695122
 20
-23.1555549509
 30
0.0
 10
-7.2318840845
 20
-23.1761496414
 30
0.0
 10
-7.2223921089
 20
-23.1967816554
 30
0.0
 10
-7.2218949894
 20
-23.2097560788
 30
0.0
 11
-7.4243881721
 21
-23.1200239821
 31
0.0
 11
-7.3417966479
 21
-23.1219699222
 31
0.0
 11
-7.2769507227
 21
-23.1423333093
 31
0.0
 11
-7.2534904582
 21
-23.1570120842
 31
0.0
 11
-7.2364213503
 21
-23.1736142754
 31
0.0
 11
-7.2218949894
 21
-23.2097560788
 31
0.0
  0
SPLINE
  5
4DC
100
AcDbEntity
  8
ASSI
100
AcDbSpline
 62
253
  6
CONTINUOUS
 70
0
 71
3
 72
11
 73
7
 74
5
 42
0.0000001
 43
0.0000001
 44
0.0000000001
 12
0.290824418
 22
-0.002198128
 32
0.0
 13
0.0029298796
 23
-0.2908179665
 33
0.0
 40
0.0
 40
0.0
 40
0.0
 40
0.0
 40
0.2659011522
 40
0.5231711191
 40
0.7669316794
 40
1.0
 40
1.0
 40
1.0
 40
1.0
 10
-7.4397407383
 20
-23.6278312163
 30
0.0
 10
-7.413963889
 20
-23.6280260446
 30
0.0
 10
-7.3628786504
 20
-23.6369744364
 30
0.0
 10
-7.2969587147
 20
-23.6746347862
 30
0.0
 10
-7.2514004811
 20
-23.7317691273
 30
0.0
 10
-7.23999882
 20
-23.7784428121
 30
0.0
 10
-7.2397711993
 20
-23.8010362971
 30
0.0
 11
-7.4397407383
 21
-23.6278312163
 31
0.0
 11
-7.3636160339
 21
-23.6414468187
 31
0.0
 11
-7.2989538545
 21
-23.6790927066
 31
0.0
 11
-7.2554907481
 21
-23.7351003269
 31
0.0
 11
-7.2397711993
 21
-23.8010362971
 31
0.0
  0
SPLINE
  5
4DD
100
AcDbEntity
  8
RACCORDO
100
AcDbSpline
 62
253
  6
CONTINUOUS
 70
0
 71
3
 72
11
 73
7
 74
5
 42
0.0000001
 43
0.0000001
 44
0.0000000001
 12
0.0000137218
 22
4.6595475617
 32
0.0
 13
4.1496412486
 23
2.1194010918
 33
0.0
 40
0.0
 40
0.0
 40
0.0
 40
0.0
 40
0.2517429273
 40
0.5019281189
 40
0.7508073605
 40
1.0
 40
1.0
 40
1.0
 40
1.0
 10
-4.2676733569
 20
-0.0000000037
 30
0.0
 10
-4.2676722055
 20
0.3910027107
 30
0.0
 10
-4.158513281
 20
1.1748712192
 30
0.0
 10
-3.6820952373
 20
2.2549017204
 30
0.0
 10
-2.9343446939
 20
3.162844573
 30
0.0
 10
-2.2901265768
 20
3.6113377283
 30
0.0
 10
-1.9454398915
 20
3.7873841124
 30
0.0
 11
-4.2676733569
 21
-0.0000000037
 31
0.0
 11
-4.1055154059
 21
1.1617456237
 31
0.0
 11
-3.6355156143
 21
2.2285505688
 31
0.0
 11
-2.8980830996
 21
3.1235452153
 31
0.0
 11
-1.9454398915
 21
3.7873841124
 31
0.0
  0
SPLINE
  5
4DE
100
AcDbEntity
  8
RACCORDO
100
AcDbSpline
 62
253
  6
CONTINUOUS
 70
0
 71
3
 72
11
 73
7
 74
5
 42
0.0000001
 43
0.0000001
 44
0.0000000001
 12
-4.1496409149
 22
2.1194016348
 32
0.0
 13
-0.0000102538
 23
4.6595475115
 33
0.0
 40
0.0
 40
0.0
 40
0.0
 40
0.0
 40
0.2491944851
 40
0.4980734963
 40
0.748260579
 40
1.0
 40
1.0
 40
1.0
 40
1.0
 10
-1.9454398301
 20
-3.7873841437
 30
0.0
 10
-2.2901290404
 20
-3.6113364107
 30
0.0
 10
-2.9343489936
 20
-3.1628411519
 30
0.0
 10
-3.68210125
 20
-2.2548925853
 30
0.0
 10
-4.1585145949
 20
-1.1748629929
 30
0.0
 10
-4.2676724965
 20
-0.3909972679
 30
0.0
 10
-4.2676733569
 20
-0.0000000037
 30
0.0
 11
-1.9454398301
 21
-3.7873841437
 31
0.0
 11
-2.8980894249
 21
-3.1235393925
 31
0.0
 11
-3.6355194585
 21
-2.2285441085
 31
0.0
 11
-4.1055196174
 21
-1.1617297099
 31
0.0
 11
-4.2676733569
 21
-0.0000000037
 31
0.0
  0
SPLINE
  5
4DF
100
AcDbEntity
  8
ASSI
100
AcDbSpline
 62
253
  6
CONTINUOUS
 70
0
 71
3
 72
18
 73
14
 74
12
 42
0.0000001
 43
0.0000001
 44
0.0000000001
 12
0.2727050518
 22
-1.1145131131
 32
0.0
 13
0.0022672771
 23
-1.1473893776
 33
0.0
 40
0.0
 40
0.0
 40
0.0
 40
0.0
 40
0.0095615452
 40
0.0278628161
 40
0.054787677
 40
0.0901064155
 40
0.1335285593
 40
0.184694872
 40
0.3084560765
 40
0.457229314
 40
0.6259613415
 40
0.8089850935
 40
1.0
 40
1.0
 40
1.0
 40
1.0
 10
10.4128373364
 20
22.0243894429
 30
0.0
 10
10.4137064969
 20
22.020837287
 30
0.0
 10
10.4145250942
 20
22.0101493918
 30
0.0
 10
10.415998042
 20
21.9892902833
 30
0.0
 10
10.4172430498
 20
21.9584853892
 30
0.0
 10
10.4186036881
 20
21.9181043617
 30
0.0
 10
10.419887643
 20
21.8684322358
 30
0.0
 10
10.4216755559
 20
21.784941951
 30
0.0
 10
10.4236382377
 20
21.6611518486
 30
0.0
 10
10.4255862807
 20
21.4923947406
 30
0.0
 10
10.4271580557
 20
21.3009664745
 30
0.0
 10
10.4283055454
 20
21.0933793157
 30
0.0
 10
10.4287542205
 20
20.9503235765
 30
0.0
 10
10.4288985818
 20
20.8772674183
 30
0.0
 11
10.4128373364
 21
22.0243894429
 31
0.0
 11
10.4142601386
 21
22.0135112586
 31
0.0
 11
10.415681571
 21
21.9925606983
 31
0.0
 11
10.417083248
 21
21.9616991531
 31
0.0
 11
10.418451924
 21
21.921197848
 31
0.0
 11
10.4197773086
 21
21.8713932765
 31
0.0
 11
10.4210493233
 21
21.81269926
 31
0.0
 11
10.4233939297
 21
21.6707160487
 31
0.0
 11
10.4254093277
 21
21.5000267809
 31
0.0
 11
10.4270301262
 21
21.3064318515
 31
0.0
 11
10.4282067432
 21
21.0964352289
 31
0.0
 11
10.4288985818
 21
20.8772674183
 31
0.0
  0
SPLINE
  5
4E0
100
AcDbEntity
  8
ASSI
100
AcDbSpline
 62
253
  6
CONTINUOUS
 70
0
 71
3
 72
18
 73
14
 74
12
 42
0.0000001
 43
0.0000001
 44
0.0000000001
 12
0.0022672758
 22
1.1473893775
 32
0.0
 13
0.2727050083
 23
1.1145131235
 33
0.0
 40
0.0
 40
0.0
 40
0.0
 40
0.0
 40
0.1910149067
 40
0.3740386588
 40
0.5427706864
 40
0.6915439239
 40
0.8153051282
 40
0.8664714409
 40
0.9098935846
 40
0.9452123231
 40
0.9721371839
 40
0.9904384548
 40
1.0
 40
1.0
 40
1.0
 40
1.0
 10
-10.4288985818
 20
20.8772674172
 30
0.0
 10
-10.4287542206
 20
20.9503235755
 30
0.0
 10
-10.4283055437
 20
21.0933793149
 30
0.0
 10
-10.4271580541
 20
21.3009664737
 30
0.0
 10
-10.4255862797
 20
21.4923947398
 30
0.0
 10
-10.4236382366
 20
21.6611518478
 30
0.0
 10
-10.4216755549
 20
21.78494195
 30
0.0
 10
-10.4198876423
 20
21.8684322348
 30
0.0
 10
-10.4186036874
 20
21.9181043606
 30
0.0
 10
-10.4172430491
 20
21.9584853881
 30
0.0
 10
-10.4159980412
 20
21.989290282
 30
0.0
 10
-10.4145250935
 20
22.0101493906
 30
0.0
 10
-10.4137064962
 20
22.0208372857
 30
0.0
 10
-10.4128373357
 20
22.0243894416
 30
0.0
 11
-10.4288985818
 21
20.8772674172
 31
0.0
 11
-10.4282067419
 21
21.0964352281
 31
0.0
 11
-10.4270301247
 21
21.3064318508
 31
0.0
 11
-10.4254093266
 21
21.5000267802
 31
0.0
 11
-10.4233939286
 21
21.6707160479
 31
0.0
 11
-10.4210493224
 21
21.8126992591
 31
0.0
 11
-10.4197773078
 21
21.8713932755
 31
0.0
 11
-10.4184519233
 21
21.9211978469
 31
0.0
 11
-10.4170832472
 21
21.961699152
 31
0.0
 11
-10.4156815702
 21
21.9925606971
 31
0.0
 11
-10.4142601379
 21
22.0135112572
 31
0.0
 11
-10.4128373357
 21
22.0243894416
 31
0.0
  0
SPLINE
  5
4E1
100
AcDbEntity
  8
ASSI
100
AcDbSpline
 62
253
  6
CONTINUOUS
 70
0
 71
3
 72
18
 73
14
 74
12
 42
0.0000001
 43
0.0000001
 44
0.0000000001
 12
-0.0022672757
 22
-1.1473893806
 32
0.0
 13
-0.2727050096
 23
-1.1145131265
 33
0.0
 40
0.0
 40
0.0
 40
0.0
 40
0.0
 40
0.1910149066
 40
0.3740386587
 40
0.5427706862
 40
0.6915439237
 40
0.8153051281
 40
0.8664714408
 40
0.9098935846
 40
0.9452123231
 40
0.9721371839
 40
0.9904384548
 40
1.0
 40
1.0
 40
1.0
 40
1.0
 10
10.4288985817
 20
-20.8772674141
 30
0.0
 10
10.4287542206
 20
-20.9503235725
 30
0.0
 10
10.4283055437
 20
-21.0933793122
 30
0.0
 10
10.4271580542
 20
-21.3009664716
 30
0.0
 10
10.4255862797
 20
-21.4923947382
 30
0.0
 10
10.4236382366
 20
-21.6611518467
 30
0.0
 10
10.4216755549
 20
-21.7849419493
 30
0.0
 10
10.4198876423
 20
-21.8684322343
 30
0.0
 10
10.4186036874
 20
-21.9181043603
 30
0.0
 10
10.4172430491
 20
-21.9584853879
 30
0.0
 10
10.4159980412
 20
-21.9892902819
 30
0.0
 10
10.4145250935
 20
-22.0101493905
 30
0.0
 10
10.4137064962
 20
-22.0208372857
 30
0.0
 10
10.4128373357
 20
-22.0243894416
 30
0.0
 11
10.4288985817
 21
-20.8772674141
 31
0.0
 11
10.4282067419
 21
-21.0964352254
 31
0.0
 11
10.4270301247
 21
-21.3064318486
 31
0.0
 11
10.4254093266
 21
-21.5000267786
 31
0.0
 11
10.4233939287
 21
-21.6707160468
 31
0.0
 11
10.4210493225
 21
-21.8126992584
 31
0.0
 11
10.4197773078
 21
-21.871393275
 31
0.0
 11
10.4184519234
 21
-21.9211978466
 31
0.0
 11
10.4170832473
 21
-21.9616991518
 31
0.0
 11
10.4156815702
 21
-21.992560697
 31
0.0
 11
10.4142601379
 21
-22.0135112572
 31
0.0
 11
10.4128373357
 21
-22.0243894416
 31
0.0
  0
SPLINE
  5
4E2
100
AcDbEntity
  8
ASSI
100
AcDbSpline
 62
253
  6
CONTINUOUS
 70
0
 71
3
 72
18
 73
14
 74
12
 42
0.0000001
 43
0.0000001
 44
0.0000000001
 12
-0.2727050513
 22
1.1145131164
 32
0.0
 13
-0.0022672769
 23
1.1473893808
 33
0.0
 40
0.0
 40
0.0
 40
0.0
 40
0.0
 40
0.0095615452
 40
0.0278628161
 40
0.054787677
 40
0.0901064156
 40
0.1335285593
 40
0.1846948721
 40
0.3084560766
 40
0.4572293142
 40
0.6259613417
 40
0.8089850936
 40
1.0
 40
1.0
 40
1.0
 40
1.0
 10
-10.4128373364
 20
-22.0243894429
 30
0.0
 10
-10.4137064969
 20
-22.020837287
 30
0.0
 10
-10.4145250942
 20
-22.0101493918
 30
0.0
 10
-10.415998042
 20
-21.9892902832
 30
0.0
 10
-10.4172430498
 20
-21.958485389
 30
0.0
 10
-10.4186036881
 20
-21.9181043613
 30
0.0
 10
-10.419887643
 20
-21.8684322353
 30
0.0
 10
-10.4216755559
 20
-21.7849419502
 30
0.0
 10
-10.4236382376
 20
-21.6611518475
 30
0.0
 10
-10.4255862807
 20
-21.4923947389
 30
0.0
 10
-10.4271580556
 20
-21.3009664723
 30
0.0
 10
-10.4283055453
 20
-21.0933793131
 30
0.0
 10
-10.4287542205
 20
-20.9503235735
 30
0.0
 10
-10.4288985817
 20
-20.8772674151
 30
0.0
 11
-10.4128373364
 21
-22.0243894429
 31
0.0
 11
-10.4142601386
 21
-22.0135112586
 31
0.0
 11
-10.415681571
 21
-21.9925606982
 31
0.0
 11
-10.417083248
 21
-21.9616991529
 31
0.0
 11
-10.418451924
 21
-21.9211978477
 31
0.0
 11
-10.4197773086
 21
-21.871393276
 31
0.0
 11
-10.4210493233
 21
-21.8126992593
 31
0.0
 11
-10.4233939297
 21
-21.6707160476
 31
0.0
 11
-10.4254093277
 21
-21.5000267793
 31
0.0
 11
-10.4270301261
 21
-21.3064318494
 31
0.0
 11
-10.4282067431
 21
-21.0964352262
 31
0.0
 11
-10.4288985817
 21
-20.8772674151
 31
0.0
  0
SPLINE
  5
4E3
100
AcDbEntity
  8
ASSI
100
AcDbSpline
 62
253
  6
CONTINUOUS
 70
0
 71
3
 72
18
 73
14
 74
12
 42
0.0000001
 43
0.0000001
 44
0.0000000001
 12
-0.2428766572
 22
-0.3997365241
 32
0.0
 13
-0.4677337168
 23
-0.0018786729
 33
0.0
 40
0.0
 40
0.0
 40
0.0
 40
0.0
 40
0.0083067707
 40
0.0250304712
 40
0.0504440753
 40
0.0844758323
 40
0.1268511227
 40
0.1772112865
 40
0.3002621425
 40
0.449404043
 40
0.6196662501
 40
0.8054813009
 40
1.0
 40
1.0
 40
1.0
 40
1.0
 10
10.8952394836
 20
-20.8558253568
 30
0.0
 10
10.8945669767
 20
-20.8569321967
 30
0.0
 10
10.8904690459
 20
-20.8583302222
 30
0.0
 10
10.8831375767
 20
-20.860184565
 30
0.0
 10
10.8712292347
 20
-20.8619782344
 30
0.0
 10
10.8555265481
 20
-20.8638137759
 30
0.0
 10
10.8358145067
 20
-20.865582919
 30
0.0
 10
10.8022698415
 20
-20.8680252064
 30
0.0
 10
10.7520382296
 20
-20.8706728847
 30
0.0
 10
10.6831038551
 20
-20.873254958
 30
0.0
 10
10.6043572846
 20
-20.8752792226
 30
0.0
 10
10.5185231377
 20
-20.8766735107
 30
0.0
 10
10.4592253823
 20
-20.8771451559
 30
0.0
 10
10.4288977309
 20
-20.8772669682
 30
0.0
 11
10.8952394836
 21
-20.8558253568
 31
0.0
 11
10.8918977126
 21
-20.8578074787
 31
0.0
 11
10.8843275276
 21
-20.8597774287
 31
0.0
 11
10.8725996579
 21
-20.8617153025
 31
0.0
 11
10.8567938952
 21
-20.8636016526
 31
0.0
 11
10.8370570053
 21
-20.8654204077
 31
0.0
 11
10.8135657709
 21
-20.8671570094
 31
0.0
 11
10.7560976205
 21
-20.8703267267
 31
0.0
 11
10.6863897691
 21
-20.8730043271
 31
0.0
 11
10.6067792481
 21
-20.8750968736
 31
0.0
 11
10.5198784678
 21
-20.8765341586
 31
0.0
 11
10.4288977309
 21
-20.8772669682
 31
0.0
  0
SPLINE
  5
4E4
100
AcDbEntity
  8
ASSI
100
AcDbSpline
 62
253
  6
CONTINUOUS
 70
0
 71
3
 72
18
 73
14
 74
12
 42
0.0000001
 43
0.0000001
 44
0.0000000001
 12
-0.2427608349
 22
0.3998061115
 32
0.0
 13
-0.4677330651
 23
0.0018787182
 33
0.0
 40
0.0
 40
0.0
 40
0.0
 40
0.0
 40
0.0083054546
 40
0.0250277847
 40
0.0504401409
 40
0.0844708176
 40
0.1268452235
 40
0.1772047211
 40
0.3002549777
 40
0.4493973171
 40
0.6196609898
 40
0.8054783856
 40
1.0
 40
1.0
 40
1.0
 40
1.0
 10
10.895239484
 20
20.855825359
 30
0.0
 10
10.8945674043
 20
20.8569322162
 30
0.0
 10
10.8904696933
 20
20.8583303524
 30
0.0
 10
10.8831390626
 20
20.8601846432
 30
0.0
 10
10.8712312182
 20
20.8619783654
 30
0.0
 10
10.8555291071
 20
20.8638139283
 30
0.0
 10
10.8358174912
 20
20.865583113
 30
0.0
 10
10.8022732216
 20
20.8680254635
 30
0.0
 10
10.7520418073
 20
20.8706732153
 30
0.0
 10
10.6831073303
 20
20.873255366
 30
0.0
 10
10.6043602078
 20
20.8752796991
 30
0.0
 10
10.5185251326
 20
20.8766740377
 30
0.0
 10
10.4592266397
 20
20.8771457005
 30
0.0
 10
10.428898576
 20
20.8772675176
 30
0.0
 11
10.895239484
 21
20.855825359
 31
0.0
 11
10.8918984533
 21
20.8578075116
 31
0.0
 11
10.8843289507
 21
20.8597774954
 31
0.0
 11
10.8726016954
 21
20.8617154057
 31
0.0
 11
10.8567964686
 21
20.8636017948
 31
0.0
 11
10.8370600256
 21
20.8654205908
 31
0.0
 11
10.8135691397
 21
20.8671572349
 31
0.0
 11
10.7561013552
 21
20.8703270384
 31
0.0
 11
10.6863933988
 21
20.8730047219
 31
0.0
 11
10.6067823049
 21
20.8750973408
 31
0.0
 11
10.5198805495
 21
20.8765346794
 31
0.0
 11
10.428898576
 21
20.8772675176
 31
0.0
  0
SPLINE
  5
4E5
100
AcDbEntity
  8
ASSI
100
AcDbSpline
 62
253
  6
CONTINUOUS
 70
0
 71
3
 72
18
 73
14
 74
12
 42
0.0000001
 43
0.0000001
 44
0.0000000001
 12
0.2428766561
 22
0.3997365248
 32
0.0
 13
0.4677337169
 23
0.0018786729
 33
0.0
 40
0.0
 40
0.0
 40
0.0
 40
0.0
 40
0.0083067707
 40
0.0250304711
 40
0.0504440753
 40
0.0844758323
 40
0.1268511227
 40
0.1772112864
 40
0.3002621424
 40
0.449404043
 40
0.6196662501
 40
0.8054813008
 40
1.0
 40
1.0
 40
1.0
 40
1.0
 10
-10.8952394836
 20
20.8558253568
 30
0.0
 10
-10.8945669767
 20
20.8569321967
 30
0.0
 10
-10.8904690459
 20
20.8583302222
 30
0.0
 10
-10.8831375767
 20
20.860184565
 30
0.0
 10
-10.8712292347
 20
20.8619782344
 30
0.0
 10
-10.8555265482
 20
20.8638137759
 30
0.0
 10
-10.8358145067
 20
20.865582919
 30
0.0
 10
-10.8022698415
 20
20.8680252064
 30
0.0
 10
-10.7520382296
 20
20.8706728847
 30
0.0
 10
-10.6831038551
 20
20.873254958
 30
0.0
 10
-10.6043572847
 20
20.8752792226
 30
0.0
 10
-10.5185231377
 20
20.8766735107
 30
0.0
 10
-10.4592253823
 20
20.8771451559
 30
0.0
 10
-10.4288977309
 20
20.8772669682
 30
0.0
 11
-10.8952394836
 21
20.8558253568
 31
0.0
 11
-10.8918977126
 21
20.8578074787
 31
0.0
 11
-10.8843275276
 21
20.8597774286
 31
0.0
 11
-10.8725996579
 21
20.8617153025
 31
0.0
 11
-10.8567938952
 21
20.8636016526
 31
0.0
 11
-10.8370570053
 21
20.8654204077
 31
0.0
 11
-10.8135657709
 21
20.8671570094
 31
0.0
 11
-10.7560976206
 21
20.8703267267
 31
0.0
 11
-10.6863897691
 21
20.8730043271
 31
0.0
 11
-10.6067792481
 21
20.8750968736
 31
0.0
 11
-10.5198784678
 21
20.8765341586
 31
0.0
 11
-10.4288977309
 21
20.8772669682
 31
0.0
  0
SPLINE
  5
4E6
100
AcDbEntity
  8
ASSI
100
AcDbSpline
 62
253
  6
CONTINUOUS
 70
0
 71
3
 72
18
 73
14
 74
12
 42
0.0000001
 43
0.0000001
 44
0.0000000001
 12
0.242760945
 22
-0.3998060451
 32
0.0
 13
0.4677330655
 23
-0.0018787179
 33
0.0
 40
0.0
 40
0.0
 40
0.0
 40
0.0
 40
0.0083054559
 40
0.0250277872
 40
0.0504401445
 40
0.084470822
 40
0.1268452286
 40
0.1772047265
 40
0.3002549833
 40
0.4493973222
 40
0.6196609936
 40
0.8054783876
 40
1.0
 40
1.0
 40
1.0
 40
1.0
 10
-10.895239484
 20
-20.855825359
 30
0.0
 10
-10.8945674039
 20
-20.8569322161
 30
0.0
 10
-10.8904696927
 20
-20.8583303523
 30
0.0
 10
-10.8831390612
 20
-20.8601846432
 30
0.0
 10
-10.8712312165
 20
-20.8619783653
 30
0.0
 10
-10.8555291049
 20
-20.8638139283
 30
0.0
 10
-10.8358174887
 20
-20.8655831129
 30
0.0
 10
-10.8022732188
 20
-20.8680254634
 30
0.0
 10
-10.7520418045
 20
-20.8706732152
 30
0.0
 10
-10.6831073277
 20
-20.8732553658
 30
0.0
 10
-10.6043602057
 20
-20.8752796988
 30
0.0
 10
-10.5185251312
 20
-20.8766740374
 30
0.0
 10
-10.4592266388
 20
-20.8771457001
 30
0.0
 10
-10.4288985755
 20
-20.8772675172
 30
0.0
 11
-10.895239484
 21
-20.855825359
 31
0.0
 11
-10.8918984526
 21
-20.8578075116
 31
0.0
 11
-10.8843289494
 21
-20.8597774954
 31
0.0
 11
-10.8726016936
 21
-20.8617154057
 31
0.0
 11
-10.8567964664
 21
-20.8636017948
 31
0.0
 11
-10.8370600231
 21
-20.8654205908
 31
0.0
 11
-10.8135691369
 21
-20.8671572348
 31
0.0
 11
-10.7561013523
 21
-20.8703270383
 31
0.0
 11
-10.6863933961
 21
-20.8730047217
 31
0.0
 11
-10.6067823027
 21
-20.8750973406
 31
0.0
 11
-10.5198805481
 21
-20.8765346791
 31
0.0
 11
-10.4288985755
 21
-20.8772675172
 31
0.0
  0
SPLINE
  5
4E7
100
AcDbEntity
  8
ASSI
100
AcDbSpline
 62
7
  6
CONTINUOUS
 70
0
 71
3
 72
12
 73
8
 74
6
 42
0.0000001
 43
0.0000001
 44
0.0000000001
 12
0.0092279467
 22
0.240842055
 32
0.0
 13
0.239530293
 23
-0.0267448911
 33
0.0
 40
0.0
 40
0.0
 40
0.0
 40
0.0
 40
0.161725644
 40
0.2604691211
 40
0.375408184
 40
0.6573882141
 40
1.0
 40
1.0
 40
1.0
 40
1.0
 10
-10.5781050106
 20
-23.2097560788
 30
0.0
 10
-10.5776075454
 20
-23.1967726333
 30
0.0
 10
-10.5681115785
 20
-23.1761339157
 30
0.0
 10
-10.5460071127
 20
-23.1555385338
 30
0.0
 10
-10.5117911135
 20
-23.1346097426
 30
0.0
 10
-10.4537786213
 20
-23.1179165861
 30
0.0
 10
-10.4029671284
 20
-23.1169696105
 30
0.0
 10
-10.3756118279
 20
-23.1200239821
 30
0.0
 11
-10.5781050106
 21
-23.2097560788
 31
0.0
 11
-10.5635637077
 21
-23.1735910893
 31
0.0
 11
-10.5464976004
 21
-23.1570036873
 31
0.0
 11
-10.5230087511
 21
-23.142316927
 31
0.0
 11
-10.4581648674
 21
-23.1219657681
 31
0.0
 11
-10.3756118279
 21
-23.1200239821
 31
0.0
  0
SPLINE
  5
4E8
100
AcDbEntity
  8
ASSI
100
AcDbSpline
 62
253
  6
CONTINUOUS
 70
0
 71
3
 72
11
 73
7
 74
5
 42
0.0000001
 43
0.0000001
 44
0.0000000001
 12
0.0029298796
 22
0.290817965
 32
0.0
 13
0.2908244163
 23
0.0021981479
 33
0.0
 40
0.0
 40
0.0
 40
0.0
 40
0.0
 40
0.2330683208
 40
0.4768288792
 40
0.7340988449
 40
1.0
 40
1.0
 40
1.0
 40
1.0
 10
-10.5602288007
 20
-23.8010362971
 30
0.0
 10
-10.56000118
 20
-23.7784428122
 30
0.0
 10
-10.548599519
 20
-23.7317691278
 30
0.0
 10
-10.5030412852
 20
-23.6746347873
 30
0.0
 10
-10.4371213487
 20
-23.6369744403
 30
0.0
 10
-10.3860361111
 20
-23.6280260464
 30
0.0
 10
-10.3602592617
 20
-23.6278312163
 30
0.0
 11
-10.5602288007
 21
-23.8010362971
 31
0.0
 11
-10.5445092519
 21
-23.7351003272
 31
0.0
 11
-10.5010461455
 21
-23.6790927081
 31
0.0
 11
-10.436383966
 21
-23.6414468218
 31
0.0
 11
-10.3602592617
 21
-23.6278312163
 31
0.0
  0
SPLINE
  5
4E9
100
AcDbEntity
  8
ASSI
100
AcDbSpline
 62
253
  6
CONTINUOUS
 70
0
 71
3
 72
14
 73
10
 74
8
 42
0.0000001
 43
0.0000001
 44
0.0000000001
 12
-0.0000001187
 22
-0.249966339
 32
0.0
 13
0.0492103035
 23
-0.2450745124
 33
0.0
 40
0.0
 40
0.0
 40
0.0
 40
0.0
 40
0.3786102122
 40
0.550110195
 40
0.7009447699
 40
0.8254366722
 40
0.9189016359
 40
0.9778261742
 40
1.0
 40
1.0
 40
1.0
 40
1.0
 10
10.3598228851
 20
-24.2106880219
 30
0.0
 10
10.3598228701
 20
-24.2422346248
 30
0.0
 10
10.3598446772
 20
-24.2880719113
 30
0.0
 10
10.3599666072
 20
-24.3464737612
 30
0.0
 10
10.3600278441
 20
-24.3837095509
 30
0.0
 10
10.360264598
 20
-24.4144226807
 30
0.0
 10
10.3601246162
 20
-24.437529277
 30
0.0
 10
10.3607794385
 20
-24.4520049509
 30
0.0
 10
10.3603166798
 20
-24.4588385325
 30
0.0
 10
10.3606804067
 20
-24.4606499457
 30
0.0
 11
10.3598228851
 21
-24.2106880219
 31
0.0
 11
10.3598878852
 21
-24.3053278082
 31
0.0
 11
10.3599668347
 21
-24.3481969584
 31
0.0
 11
10.3600731778
 21
-24.3859003749
 31
0.0
 11
10.3602029186
 21
-24.4170188895
 31
0.0
 11
10.3603511722
 21
-24.4403815139
 31
0.0
 11
10.3605123963
 21
-24.4551097826
 31
0.0
 11
10.3606804067
 21
-24.4606499457
 31
0.0
  0
SPLINE
  5
4EA
100
AcDbEntity
  8
ASSI
100
AcDbSpline
 62
253
  6
CONTINUOUS
 70
0
 71
3
 72
14
 73
10
 74
8
 42
0.0000001
 43
0.0000001
 44
0.0000000001
 12
0.000000161
 22
-0.2499634559
 32
0.0
 13
-0.0491541604
 23
-0.2450828386
 33
0.0
 40
0.0
 40
0.0
 40
0.0
 40
0.0
 40
0.3786143138
 40
0.5501135625
 40
0.7009463438
 40
0.8254370374
 40
0.9189018018
 40
0.9778262026
 40
1.0
 40
1.0
 40
1.0
 40
1.0
 10
7.4401771142
 20
-24.2106909083
 30
0.0
 10
7.4401771345
 20
-24.2422374891
 30
0.0
 10
7.4401552953
 20
-24.2880745251
 30
0.0
 10
7.4400334224
 20
-24.3464758383
 30
0.0
 10
7.4399721039
 20
-24.3837108733
 30
0.0
 10
7.4397356579
 20
-24.4144234213
 30
0.0
 10
7.4398749976
 20
-24.4375295282
 30
0.0
 10
7.4392214149
 20
-24.4520051812
 30
0.0
 10
7.4396829048
 20
-24.4588384733
 30
0.0
 10
7.4393195933
 20
-24.4606499457
 30
0.0
 11
7.4401771142
 21
-24.2106909083
 31
0.0
 11
7.440112111
 21
-24.3053306283
 31
0.0
 11
7.4400331722
 21
-24.3481991005
 31
0.0
 11
7.4399268498
 21
-24.3859016338
 31
0.0
 11
7.439797139
 21
-24.4170194875
 31
0.0
 11
7.4396489015
 21
-24.4403817927
 31
0.0
 11
7.4394877441
 21
-24.4551098579
 31
0.0
 11
7.4393195933
 21
-24.4606499457
 31
0.0
  0
LINE
  5
4EB
100
AcDbEntity
  8
ASSI
100
AcDbLine
 62
7
  6
CONTINUOUS
 10
9.2533769702
 20
-23.6278312163
 11
9.0368706193
 21
-23.8443375673
  0
SPLINE
  5
4EC
100
AcDbEntity
  8
ASSI
100
AcDbSpline
 62
253
  6
CONTINUOUS
 70
0
 71
3
 72
14
 73
10
 74
8
 42
0.0000001
 43
0.0000001
 44
0.0000000001
 12
-0.0491604488
 22
0.24508452
 32
0.0
 13
0.000000147
 23
0.2499663411
 33
0.0
 40
0.0
 40
0.0
 40
0.0
 40
0.0
 40
0.0221560382
 40
0.0810435912
 40
0.1744700487
 40
0.2989316111
 40
0.4497491635
 40
0.6212572333
 40
1.0
 40
1.0
 40
1.0
 40
1.0
 10
-7.4393195933
 20
-24.4606499457
 30
0.0
 10
-7.4396826603
 20
-24.4588399117
 30
0.0
 10
-7.4392213667
 20
-24.4520111243
 30
0.0
 10
-7.439874892
 20
-24.4375430292
 30
0.0
 10
-7.4397354858
 20
-24.4144453451
 30
0.0
 10
-7.4399720145
 20
-24.3837393343
 30
0.0
 10
-7.4400333236
 20
-24.3465068283
 30
0.0
 10
-7.4401552882
 20
-24.2880946738
 30
0.0
 10
-7.4401771335
 20
-24.2422456698
 30
0.0
 10
-7.4401771149
 20
-24.2106880219
 30
0.0
 11
-7.4393195933
 21
-24.4606499457
 31
0.0
 11
-7.4394876047
 21
-24.4551142309
 31
0.0
 11
-7.4396487695
 21
-24.4403952071
 31
0.0
 11
-7.4397969934
 21
-24.4170422077
 31
0.0
 11
-7.4399267291
 21
-24.3859312768
 31
0.0
 11
-7.4400330776
 21
-24.3482321151
 31
0.0
 11
-7.440112058
 21
-24.3053609432
 31
0.0
 11
-7.4401771149
 21
-24.2106880219
 31
0.0
  0
SPLINE
  5
4ED
100
AcDbEntity
  8
ASSI
100
AcDbSpline
 62
253
  6
CONTINUOUS
 70
0
 71
3
 72
14
 73
10
 74
8
 42
0.0000001
 43
0.0000001
 44
0.0000000001
 12
0.0491708119
 22
0.2450824418
 32
0.0
 13
-0.0000001167
 23
0.2499663418
 33
0.0
 40
0.0
 40
0.0
 40
0.0
 40
0.0
 40
0.022160649
 40
0.0810578314
 40
0.1744935263
 40
0.2989595177
 40
0.4497755697
 40
0.6212777996
 40
1.0
 40
1.0
 40
1.0
 40
1.0
 10
-10.3606804067
 20
-24.4606499457
 30
0.0
 10
-10.3603171876
 20
-24.4588395504
 30
0.0
 10
-10.3607787119
 20
-24.4520095284
 30
0.0
 10
-10.3601249997
 20
-24.4375395164
 30
0.0
 10
-10.360264479
 20
-24.4144398729
 30
0.0
 10
-10.3600279381
 20
-24.3837328546
 30
0.0
 10
-10.3599666453
 20
-24.3465005892
 30
0.0
 10
-10.3598447
 20
-24.2880907604
 30
0.0
 10
-10.3598228703
 20
-24.2422439562
 30
0.0
 10
-10.3598228851
 20
-24.2106880219
 30
0.0
 11
-10.3606804067
 21
-24.4606499457
 31
0.0
 11
-10.3605123492
 21
-24.4551130792
 31
0.0
 11
-10.3603511779
 21
-24.4403916482
 31
0.0
 11
-10.3602029514
 21
-24.4170363398
 31
0.0
 11
-10.3600732243
 21
-24.3859243017
 31
0.0
 11
-10.3599668889
 21
-24.3482255148
 31
0.0
 11
-10.3598879236
 21
-24.3053558025
 31
0.0
 11
-10.3598228851
 21
-24.2106880219
 31
0.0
  0
SPLINE
  5
4EE
100
AcDbEntity
  8
ASSI
100
AcDbSpline
 62
253
  6
CONTINUOUS
 70
0
 71
3
 72
9
 73
5
 74
3
 42
0.0000001
 43
0.0000001
 44
0.0000000001
 12
-0.0000000894
 22
0.2165058795
 32
0.0
 13
0.0013063451
 23
0.2165019383
 33
0.0
 40
0.0
 40
0.0
 40
0.0
 40
0.0
 40
0.2987948397
 40
1.0
 40
1.0
 40
1.0
 40
1.0
 10
-7.4401771149
 20
-23.8443375673
 30
0.0
 10
-7.4401771239
 20
-23.8227739541
 30
0.0
 10
-7.4401340442
 20
-23.7506054227
 30
0.0
 10
-7.4400460828
 20
-23.6784363314
 30
0.0
 10
-7.4397407442
 20
-23.6278322392
 30
0.0
 11
-7.4401771149
 21
-23.8443375673
 31
0.0
 11
-7.4401473729
 21
-23.7796467346
 31
0.0
 11
-7.4397407442
 21
-23.6278322392
 31
0.0
  0
SPLINE
  5
4EF
100
AcDbEntity
  8
ASSI
100
AcDbSpline
 62
253
  6
CONTINUOUS
 70
0
 71
3
 72
9
 73
5
 74
3
 42
0.0000001
 43
0.0000001
 44
0.0000000001
 12
-0.0000001007
 22
0.0433040262
 32
0.0
 13
-0.0013110356
 23
0.0432841757
 33
0.0
 40
0.0
 40
0.0
 40
0.0
 40
0.0
 40
0.2986840764
 40
1.0
 40
1.0
 40
1.0
 40
1.0
 10
-10.5597924241
 20
-23.8443375673
 30
0.0
 10
-10.5597924341
 20
-23.8400261596
 30
0.0
 10
-10.5598358786
 20
-23.8255919674
 30
0.0
 10
-10.5599223173
 20
-23.8111549243
 30
0.0
 10
-10.5602288007
 20
-23.8010362971
 30
0.0
 11
-10.5597924241
 21
-23.8443375673
 31
0.0
 11
-10.5598222221
 21
-23.8314033786
 31
0.0
 11
-10.5602288007
 21
-23.8010362971
 31
0.0
  0
SPLINE
  5
4F0
100
AcDbEntity
  8
ASSI
100
AcDbSpline
 62
253
  6
CONTINUOUS
 70
0
 71
3
 72
14
 73
10
 74
8
 42
0.0000001
 43
0.0000001
 44
0.0000000001
 12
0.0353766991
 22
0.0353543411
 32
0.0
 13
-0.0000000128
 23
0.0500144006
 33
0.0
 40
0.0
 40
0.0
 40
0.0
 40
0.0
 40
0.0223938169
 40
0.081343507
 40
0.1747762356
 40
0.2992083366
 40
0.4499726905
 40
0.6214130518
 40
1.0
 40
1.0
 40
1.0
 40
1.0
 10
-10.5606499457
 20
-24.2606804067
 30
0.0
 10
-10.5603858726
 20
-24.2604165004
 30
0.0
 10
-10.5606216722
 20
-24.2588417086
 30
0.0
 10
-10.560170184
 20
-24.2561285164
 30
0.0
 10
-10.5602013375
 20
-24.251410359
 30
0.0
 10
-10.5600094952
 20
-24.2453093253
 30
0.0
 10
-10.5599322062
 20
-24.2378484074
 30
0.0
 10
-10.5598169586
 20
-24.2261721156
 30
0.0
 10
-10.5597924225
 20
-24.2169996217
 30
0.0
 10
-10.5597924241
 20
-24.2106880219
 30
0.0
 11
-10.5606499457
 21
-24.2606804067
 31
0.0
 11
-10.5604819067
 21
-24.2595730708
 31
0.0
 11
-10.5603207388
 21
-24.2566291457
 31
0.0
 11
-10.5601724864
 21
-24.2519585161
 31
0.0
 11
-10.5600427434
 21
-24.2457364717
 31
0.0
 11
-10.5599363903
 21
-24.2381968329
 31
0.0
 11
-10.5598574287
 21
-24.2296227096
 31
0.0
 11
-10.5597924241
 21
-24.2106880219
 31
0.0
  0
SPLINE
  5
4F1
100
AcDbEntity
  8
RACCORDO
100
AcDbSpline
 62
253
  6
CONTINUOUS
 70
0
 71
3
 72
23
 73
19
 74
17
 42
0.0000001
 43
0.0000001
 44
0.0000000001
 12
-0.0262236957
 22
16.7635381029
 32
0.0
 13
-0.0261636399
 23
-16.7635381967
 33
0.0
 40
0.0
 40
0.0
 40
0.0
 40
0.0
 40
0.062543978
 40
0.1250665169
 40
0.1875782194
 40
0.250075404
 40
0.3125641986
 40
0.3750460299
 40
0.4375260833
 40
0.5000104182
 40
0.5624948238
 40
0.624974224
 40
0.6874548805
 40
0.749941611
 40
0.8124355754
 40
0.8749429795
 40
0.9374604006
 40
1.0
 40
1.0
 40
1.0
 40
1.0
 10
-5.3389869934
 20
4.5
 30
0.0
 10
-5.3395337048
 20
4.8494861196
 30
0.0
 10
-5.2706468982
 20
5.5502193074
 30
0.0
 10
-4.9671616545
 20
6.5602572977
 30
0.0
 10
-4.46995347
 20
7.4903740617
 30
0.0
 10
-3.8039210252
 20
8.3078704541
 30
0.0
 10
-2.9884690977
 20
8.9762818066
 30
0.0
 10
-2.0592768323
 20
9.4744441777
 30
0.0
 10
-1.048879916
 20
9.7760627686
 30
0.0
 10
0.0001823449
 20
9.8762277453
 30
0.0
 10
1.049233577
 20
9.7759927114
 30
0.0
 10
2.0596033147
 20
9.4743139161
 30
0.0
 10
2.9887371383
 20
8.9760931727
 30
0.0
 10
3.8041382733
 20
8.3076741137
 30
0.0
 10
4.4700694271
 20
7.4901710225
 30
0.0
 10
4.9672815829
 20
6.5601339553
 30
0.0
 10
5.2706303898
 20
5.5501338975
 30
0.0
 10
5.3395324146
 20
4.8494616546
 30
0.0
 10
5.3389869934
 20
4.5
 30
0.0
 11
-5.3389869934
 21
4.5
 31
0.0
 11
-5.2372586646
 21
5.5435128017
 31
0.0
 11
-4.934835314
 21
6.5470337242
 31
0.0
 11
-4.4417538008
 21
7.4716979814
 31
0.0
 11
-3.7789654609
 21
8.2830764236
 31
0.0
 11
-2.96946702
 21
8.9479380268
 31
0.0
 11
-2.0457300859
 21
9.4416932421
 31
0.0
 11
-1.0424616005
 21
9.7424822834
 31
0.0
 11
0.0001807199
 21
9.8428269161
 31
0.0
 11
1.0428175461
 21
9.7424128338
 31
0.0
 11
2.0460558918
 21
9.4415614001
 31
0.0
 11
2.9697424341
 21
8.947753693
 31
0.0
 11
3.7791809069
 21
8.2828735976
 31
0.0
 11
4.4418922517
 21
7.4715019632
 31
0.0
 11
4.934934163
 21
6.54689825
 31
0.0
 11
5.237268027
 21
5.5434399653
 31
0.0
 11
5.3389869934
 21
4.5
 31
0.0
  0
SPLINE
  5
4F2
100
AcDbEntity
  8
ASSI
100
AcDbSpline
 62
253
  6
CONTINUOUS
 70
0
 71
3
 72
14
 73
10
 74
8
 42
0.0000001
 43
0.0000001
 44
0.0000000001
 12
0.0353890363
 22
-0.0353419927
 32
0.0
 13
-0.0000000042
 23
-0.0500144013
 33
0.0
 40
0.0
 40
0.0
 40
0.0
 40
0.0
 40
0.0223894862
 40
0.0813317476
 40
0.1747573579
 40
0.2991859872
 40
0.4499515839
 40
0.6213967272
 40
1.0
 40
1.0
 40
1.0
 40
1.0
 10
-10.5606499457
 20
24.2606804067
 30
0.0
 10
-10.5603858316
 20
24.2604166436
 30
0.0
 10
-10.5606217648
 20
24.2588418797
 30
0.0
 10
-10.5601701519
 20
24.2561291622
 30
0.0
 10
-10.5602013848
 20
24.2514112136
 30
0.0
 10
-10.560009501
 20
24.2453103762
 30
0.0
 10
-10.5599322209
 20
24.2378494005
 30
0.0
 10
-10.5598169581
 20
24.2261727427
 30
0.0
 10
-10.5597924236
 20
24.2169998939
 30
0.0
 10
-10.5597924241
 20
24.2106880219
 30
0.0
 11
-10.5606499457
 21
24.2606804067
 31
0.0
 11
-10.5604819223
 21
24.2595732875
 31
0.0
 11
-10.5603207614
 21
24.2566297341
 31
0.0
 11
-10.56017251
 21
24.2519594605
 31
0.0
 11
-10.5600427623
 21
24.2457375898
 31
0.0
 11
-10.5599364026
 21
24.2381978889
 31
0.0
 11
-10.5598574347
 21
24.2296235263
 31
0.0
 11
-10.5597924241
 21
24.2106880219
 31
0.0
  0
SPLINE
  5
4F3
100
AcDbEntity
  8
ASSI
100
AcDbSpline
 62
253
  6
CONTINUOUS
 70
0
 71
3
 72
9
 73
5
 74
3
 42
0.0000001
 43
0.0000001
 44
0.0000000001
 12
0.0000000101
 22
-0.0433040274
 32
0.0
 13
-0.0013086635
 23
-0.0432842487
 33
0.0
 40
0.0
 40
0.0
 40
0.0
 40
0.0
 40
0.2987936565
 40
1.0
 40
1.0
 40
1.0
 40
1.0
 10
-10.5597924241
 20
23.8443375673
 30
0.0
 10
-10.5597924231
 20
23.8400245777
 30
0.0
 10
-10.5598355707
 20
23.825590381
 30
0.0
 10
-10.5599229197
 20
23.8111533604
 30
0.0
 10
-10.5602288007
 20
23.8010362971
 30
0.0
 11
-10.5597924241
 21
23.8443375673
 31
0.0
 11
-10.5598221538
 21
23.8313986328
 31
0.0
 11
-10.5602288007
 21
23.8010362971
 31
0.0
  0
LINE
  5
4F4
100
AcDbEntity
  8
ASSI
100
AcDbLine
 62
7
  6
CONTINUOUS
 10
-8.5466230298
 20
-23.6278312163
 11
-8.7631293807
 21
-23.8443375673
  0
LINE
  5
4F5
100
AcDbEntity
  8
ASSI
100
AcDbLine
 62
7
  6
CONTINUOUS
 10
-8.7631293807
 20
23.8443375673
 11
-8.5466230298
 21
23.6278312164
  0
SPLINE
  5
4F6
100
AcDbEntity
  8
ASSI
100
AcDbSpline
 62
253
  6
CONTINUOUS
 70
0
 71
3
 72
14
 73
10
 74
8
 42
0.0000001
 43
0.0000001
 44
0.0000000001
 12
0.0490895383
 22
-0.2450986842
 32
0.0
 13
-0.0000000528
 23
-0.2499662933
 33
0.0
 40
0.0
 40
0.0
 40
0.0
 40
0.0
 40
0.0221590326
 40
0.0810497444
 40
0.174478782
 40
0.2989411458
 40
0.4497578551
 40
0.6212639873
 40
1.0
 40
1.0
 40
1.0
 40
1.0
 10
-10.3606803967
 20
24.4606498956
 30
0.0
 10
-10.3603178045
 20
24.4588395123
 30
0.0
 10
-10.3607777811
 20
24.4520104499
 30
0.0
 10
-10.3601254638
 20
24.4375414157
 30
0.0
 10
-10.360264199
 20
24.4144433067
 30
0.0
 10
-10.3600279746
 20
24.3837370419
 30
0.0
 10
-10.3599665865
 20
24.3465047253
 30
0.0
 10
-10.3598447054
 20
24.288093369
 30
0.0
 10
-10.3598228784
 20
24.242245101
 30
0.0
 10
-10.3598228851
 20
24.2106880219
 30
0.0
 11
-10.3606803967
 21
24.4606498956
 31
0.0
 11
-10.3605122879
 21
24.4551134359
 31
0.0
 11
-10.3603511279
 21
24.4403936252
 31
0.0
 11
-10.3602028969
 21
24.4170399854
 31
0.0
 11
-10.3600731807
 21
24.3859288601
 31
0.0
 11
-10.3599668567
 21
24.3482299163
 31
0.0
 11
-10.359887906
 21
24.3053592368
 31
0.0
 11
-10.3598228851
 21
24.2106880219
 31
0.0
  0
SPLINE
  5
4F7
100
AcDbEntity
  8
ASSI
100
AcDbSpline
 62
253
  6
CONTINUOUS
 70
0
 71
3
 72
14
 73
10
 74
8
 42
0.0000001
 43
0.0000001
 44
0.0000000001
 12
-0.0000000316
 22
0.2499663453
 32
0.0
 13
0.0490876294
 23
0.2450991195
 33
0.0
 40
0.0
 40
0.0
 40
0.0
 40
0.0
 40
0.3786066962
 40
0.5501057471
 40
0.7009402767
 40
0.825433203
 40
0.9188999329
 40
0.9778256633
 40
1.0
 40
1.0
 40
1.0
 40
1.0
 10
-7.4401771149
 20
24.2106880219
 30
0.0
 10
-7.4401771189
 20
24.2422343326
 30
0.0
 10
-7.4401553059
 20
24.2880712445
 30
0.0
 10
-7.4400335203
 20
24.3464727342
 30
0.0
 10
-7.4399721152
 20
24.3837084986
 30
0.0
 10
-7.4397359763
 20
24.4144219427
 30
0.0
 10
-7.439874624
 20
24.4375286671
 30
0.0
 10
-7.4392222916
 20
24.4520050132
 30
0.0
 10
-7.4396824219
 20
24.4588383089
 30
0.0
 10
-7.4393195933
 20
24.4606499457
 30
0.0
 11
-7.4401771149
 21
24.2106880219
 31
0.0
 11
-7.4401121523
 21
24.3053269318
 31
0.0
 11
-7.4400332441
 21
24.3481958501
 31
0.0
 11
-7.4399269413
 21
24.3858992563
 31
0.0
 11
-7.4397972463
 21
24.4170180279
 31
0.0
 11
-7.4396489957
 21
24.4403810944
 31
0.0
 11
-7.4394878595
 21
24.4551096624
 31
0.0
 11
-7.4393195933
 21
24.4606499457
 31
0.0
  0
SPLINE
  5
4F8
100
AcDbEntity
  8
ASSI
100
AcDbSpline
 62
253
  6
CONTINUOUS
 70
0
 71
3
 72
14
 73
10
 74
8
 42
0.0000001
 43
0.0000001
 44
0.0000000001
 12
-0.0000000316
 22
0.2499663453
 32
0.0
 13
0.0490876294
 23
0.2450991195
 33
0.0
 40
0.0
 40
0.0
 40
0.0
 40
0.0
 40
0.3786066962
 40
0.5501057471
 40
0.7009402767
 40
0.825433203
 40
0.9188999329
 40
0.9778256633
 40
1.0
 40
1.0
 40
1.0
 40
1.0
 10
10.3598228851
 20
24.2106880219
 30
0.0
 10
10.3598228811
 20
24.2422343326
 30
0.0
 10
10.3598446941
 20
24.2880712445
 30
0.0
 10
10.3599664797
 20
24.3464727342
 30
0.0
 10
10.3600278848
 20
24.3837084986
 30
0.0
 10
10.3602640237
 20
24.4144219427
 30
0.0
 10
10.360125376
 20
24.4375286671
 30
0.0
 10
10.3607777084
 20
24.4520050132
 30
0.0
 10
10.3603175781
 20
24.4588383089
 30
0.0
 10
10.3606804067
 20
24.4606499457
 30
0.0
 11
10.3598228851
 21
24.2106880219
 31
0.0
 11
10.3598878477
 21
24.3053269318
 31
0.0
 11
10.3599667559
 21
24.3481958501
 31
0.0
 11
10.3600730587
 21
24.3858992563
 31
0.0
 11
10.3602027537
 21
24.4170180279
 31
0.0
 11
10.3603510043
 21
24.4403810944
 31
0.0
 11
10.3605121405
 21
24.4551096624
 31
0.0
 11
10.3606804067
 21
24.4606499457
 31
0.0
  0
SPLINE
  5
4F9
100
AcDbEntity
  8
ASSI
100
AcDbSpline
 62
253
  6
CONTINUOUS
 70
0
 71
3
 72
14
 73
10
 74
8
 42
0.0000001
 43
0.0000001
 44
0.0000000001
 12
0.0490895383
 22
-0.2450986842
 32
0.0
 13
-0.0000000528
 23
-0.2499662933
 33
0.0
 40
0.0
 40
0.0
 40
0.0
 40
0.0
 40
0.0221590326
 40
0.0810497444
 40
0.174478782
 40
0.2989411458
 40
0.4497578551
 40
0.6212639873
 40
1.0
 40
1.0
 40
1.0
 40
1.0
 10
7.4393196033
 20
24.4606498956
 30
0.0
 10
7.4396821955
 20
24.4588395123
 30
0.0
 10
7.4392222189
 20
24.4520104499
 30
0.0
 10
7.4398745362
 20
24.4375414157
 30
0.0
 10
7.439735801
 20
24.4144433067
 30
0.0
 10
7.4399720254
 20
24.3837370419
 30
0.0
 10
7.4400334135
 20
24.3465047253
 30
0.0
 10
7.4401552946
 20
24.288093369
 30
0.0
 10
7.4401771216
 20
24.242245101
 30
0.0
 10
7.4401771149
 20
24.2106880219
 30
0.0
 11
7.4393196033
 21
24.4606498956
 31
0.0
 11
7.4394877121
 21
24.4551134359
 31
0.0
 11
7.4396488721
 21
24.4403936252
 31
0.0
 11
7.4397971031
 21
24.4170399854
 31
0.0
 11
7.4399268193
 21
24.3859288601
 31
0.0
 11
7.4400331433
 21
24.3482299163
 31
0.0
 11
7.440112094
 21
24.3053592368
 31
0.0
 11
7.4401771149
 21
24.2106880219
 31
0.0
  0
LINE
  5
4FA
100
AcDbEntity
  8
ASSI
100
AcDbLine
 62
7
  6
CONTINUOUS
 10
9.2533769702
 20
23.6278312164
 11
9.0368706193
 21
23.8443375673
  0
SPLINE
  5
4FB
100
AcDbEntity
  8
RACCORDO
100
AcDbSpline
 62
253
  6
CONTINUOUS
 70
0
 71
3
 72
13
 73
9
 74
7
 42
0.0000001
 43
0.0000001
 44
0.0000000001
 12
0.000032265
 22
5.467736427
 32
0.0
 13
4.8244895971
 23
2.5730219128
 33
0.0
 40
0.0
 40
0.0
 40
0.0
 40
0.0
 40
0.2509454271
 40
0.5008500537
 40
0.6256670744
 40
0.7503591054
 40
0.8750872623
 40
1.0
 40
1.0
 40
1.0
 40
1.0
 10
-4.8492877798
 20
0.0
 30
0.0
 10
-4.8492850809
 20
0.4573678176
 30
0.0
 10
-4.7302077917
 20
1.3744456135
 30
0.0
 10
-4.2888398826
 20
2.441147933
 30
0.0
 10
-3.7782392705
 20
3.1975577473
 30
0.0
 10
-3.3219233221
 20
3.7075335842
 30
0.0
 10
-2.7995612921
 20
4.1496439543
 30
0.0
 10
-2.4128850286
 20
4.3928655962
 30
0.0
 10
-2.2120049607
 20
4.5
 30
0.0
 11
-4.8492877798
 21
0.0
 31
0.0
 11
-4.6711566461
 21
1.360491523
 31
0.0
 11
-4.1477723025
 21
2.6226928957
 31
0.0
 11
-3.7658156766
 21
3.1882631884
 31
0.0
 11
-3.3109882721
 21
3.6961611208
 31
0.0
 11
-2.7902541635
 21
4.1365401001
 31
0.0
 11
-2.2120049607
 21
4.5
 31
0.0
  0
SPLINE
  5
4FC
100
AcDbEntity
  8
ASSI
100
AcDbSpline
 62
7
  6
CONTINUOUS
 70
0
 71
3
 72
10
 73
6
 74
4
 42
0.0000001
 43
0.0000001
 44
0.0000000001
 12
-0.0041283229
 22
-0.0124381884
 32
0.0
 13
-0.0129404911
 23
-0.0020725037
 33
0.0
 40
0.0
 40
0.0
 40
0.0
 40
0.0
 40
0.1072856673
 40
0.3046525266
 40
1.0
 40
1.0
 40
1.0
 40
1.0
 10
10.5781050106
 20
22.3341525772
 30
0.0
 10
10.577957374
 20
22.3337077641
 30
0.0
 10
10.5767124954
 20
22.3328984493
 30
0.0
 10
10.5726796591
 20
22.3315558063
 30
0.0
 10
10.5687448508
 20
22.3308959262
 30
0.0
 10
10.5657454716
 20
22.3304155561
 30
0.0
 11
10.5781050106
 21
22.3341525772
 31
0.0
 11
10.5770826044
 21
22.3331873917
 31
0.0
 11
10.5746715766
 21
22.3322507485
 31
0.0
 11
10.5657454716
 21
22.3304155561
 31
0.0
  0
SPLINE
  5
4FD
100
AcDbEntity
  8
ASSI
100
AcDbSpline
 62
253
  6
CONTINUOUS
 70
0
 71
3
 72
14
 73
10
 74
8
 42
0.0000001
 43
0.0000001
 44
0.0000000001
 12
-0.0353708696
 22
0.0353601741
 32
0.0
 13
0.0000000167
 23
0.0500144012
 33
0.0
 40
0.0
 40
0.0
 40
0.0
 40
0.0
 40
0.0223888774
 40
0.0813291623
 40
0.1747527001
 40
0.2991804371
 40
0.4499462781
 40
0.6213924665
 40
1.0
 40
1.0
 40
1.0
 40
1.0
 10
-7.2393500543
 20
-24.2606804067
 30
0.0
 10
-7.2396140257
 20
-24.2604165151
 30
0.0
 10
-7.2393784057
 20
-24.258842107
 30
0.0
 10
-7.2398297402
 20
-24.2561291905
 30
0.0
 10
-7.2397986534
 20
-24.2514114703
 30
0.0
 10
-7.2399904795
 20
-24.2453106189
 30
0.0
 10
-7.2400677821
 20
-24.2378496576
 30
0.0
 10
-7.2401830383
 20
-24.2261728985
 30
0.0
 10
-7.240207578
 20
-24.2169999649
 30
0.0
 10
-7.2402075759
 20
-24.2106880219
 30
0.0
 11
-7.2393500543
 21
-24.2606804067
 31
0.0
 11
-7.2395180735
 21
-24.2595733176
 31
0.0
 11
-7.2396792327
 21
-24.2566298631
 31
0.0
 11
-7.2398274841
 21
-24.2519596933
 31
0.0
 11
-7.2399572333
 21
-24.2457378673
 31
0.0
 11
-7.240063595
 21
-24.2381981542
 31
0.0
 11
-7.2401425644
 21
-24.2296237394
 31
0.0
 11
-7.2402075759
 21
-24.2106880219
 31
0.0
  0
SPLINE
  5
4FE
100
AcDbEntity
  8
ASSI
100
AcDbSpline
 62
7
  6
CONTINUOUS
 70
0
 71
3
 72
10
 73
6
 74
4
 42
0.0000001
 43
0.0000001
 44
0.0000000001
 12
-0.0129404911
 22
0.0020725037
 32
0.0
 13
-0.0041283229
 23
0.0124381884
 33
0.0
 40
0.0
 40
0.0
 40
0.0
 40
0.0
 40
0.6953474734
 40
0.8927143327
 40
1.0
 40
1.0
 40
1.0
 40
1.0
 10
-10.5657454716
 20
22.3304155561
 30
0.0
 10
-10.5687448508
 20
22.3308959262
 30
0.0
 10
-10.5726796591
 20
22.3315558063
 30
0.0
 10
-10.5767124954
 20
22.3328984493
 30
0.0
 10
-10.577957374
 20
22.3337077641
 30
0.0
 10
-10.5781050106
 20
22.3341525772
 30
0.0
 11
-10.5657454716
 21
22.3304155561
 31
0.0
 11
-10.5746715766
 21
22.3322507485
 31
0.0
 11
-10.5770826044
 21
22.3331873917
 31
0.0
 11
-10.5781050106
 21
22.3341525772
 31
0.0
  0
SPLINE
  5
4FF
100
AcDbEntity
  8
ASSI
100
AcDbSpline
 62
7
  6
CONTINUOUS
 70
0
 71
3
 72
10
 73
6
 74
4
 42
0.0000001
 43
0.0000001
 44
0.0000000001
 12
0.0129404911
 22
-0.0020725037
 32
0.0
 13
0.0041283229
 23
-0.0124381884
 33
0.0
 40
0.0
 40
0.0
 40
0.0
 40
0.0
 40
0.6953474734
 40
0.8927143327
 40
1.0
 40
1.0
 40
1.0
 40
1.0
 10
10.5657454716
 20
-22.3304155561
 30
0.0
 10
10.5687448508
 20
-22.3308959262
 30
0.0
 10
10.5726796591
 20
-22.3315558063
 30
0.0
 10
10.5767124954
 20
-22.3328984493
 30
0.0
 10
10.577957374
 20
-22.3337077641
 30
0.0
 10
10.5781050106
 20
-22.3341525772
 30
0.0
 11
10.5657454716
 21
-22.3304155561
 31
0.0
 11
10.5746715766
 21
-22.3322507485
 31
0.0
 11
10.5770826044
 21
-22.3331873917
 31
0.0
 11
10.5781050106
 21
-22.3341525772
 31
0.0
  0
SPLINE
  5
500
100
AcDbEntity
  8
ASSI
100
AcDbSpline
 62
7
  6
CONTINUOUS
 70
0
 71
3
 72
10
 73
6
 74
4
 42
0.0000001
 43
0.0000001
 44
0.0000000001
 12
0.0041283229
 22
0.0124381884
 32
0.0
 13
0.0129404911
 23
0.0020725037
 33
0.0
 40
0.0
 40
0.0
 40
0.0
 40
0.0
 40
0.1072856673
 40
0.3046525266
 40
1.0
 40
1.0
 40
1.0
 40
1.0
 10
-10.5781050106
 20
-22.3341525772
 30
0.0
 10
-10.577957374
 20
-22.3337077641
 30
0.0
 10
-10.5767124954
 20
-22.3328984493
 30
0.0
 10
-10.5726796591
 20
-22.3315558063
 30
0.0
 10
-10.5687448508
 20
-22.3308959262
 30
0.0
 10
-10.5657454716
 20
-22.3304155561
 30
0.0
 11
-10.5781050106
 21
-22.3341525772
 31
0.0
 11
-10.5770826044
 21
-22.3331873917
 31
0.0
 11
-10.5746715766
 21
-22.3322507485
 31
0.0
 11
-10.5657454716
 21
-22.3304155561
 31
0.0
  0
LINE
  5
501
100
AcDbEntity
  8
ASSI
100
AcDbLine
 62
7
  6
CONTINUOUS
 10
8.5466230298
 20
-23.6278312163
 11
8.7631293807
 21
-23.8443375673
  0
SPLINE
  5
502
100
AcDbEntity
  8
ASSI
100
AcDbSpline
 62
253
  6
CONTINUOUS
 70
0
 71
3
 72
9
 73
5
 74
3
 42
0.0000001
 43
0.0000001
 44
0.0000000001
 12
-0.0000000129
 22
0.0433040273
 32
0.0
 13
0.0013086547
 23
0.043284249
 33
0.0
 40
0.0
 40
0.0
 40
0.0
 40
0.0
 40
0.29878921
 40
1.0
 40
1.0
 40
1.0
 40
1.0
 10
-7.2402075759
 20
-23.8443375673
 30
0.0
 10
-7.2402075772
 20
-23.8400246419
 30
0.0
 10
-7.2401644286
 20
-23.8255904452
 30
0.0
 10
-7.2400770802
 20
-23.8111534246
 30
0.0
 10
-7.2397711993
 20
-23.8010362971
 30
0.0
 11
-7.2402075759
 21
-23.8443375673
 31
0.0
 11
-7.2401778466
 21
-23.8313988253
 31
0.0
 11
-7.2397711993
 21
-23.8010362971
 31
0.0
  0
LINE
  5
503
100
AcDbEntity
  8
ASSI
100
AcDbLine
 62
7
  6
CONTINUOUS
 10
-9.2533769702
 20
-23.6278312163
 11
-9.0368706193
 21
-23.8443375673
  0
SPLINE
  5
504
100
AcDbEntity
  8
ASSI
100
AcDbSpline
 62
253
  6
CONTINUOUS
 70
0
 71
3
 72
9
 73
5
 74
3
 42
0.0000001
 43
0.0000001
 44
0.0000000001
 12
-0.0000009928
 22
0.2164846565
 32
0.0
 13
-0.0013081016
 23
0.2164807044
 33
0.0
 40
0.0
 40
0.0
 40
0.0
 40
0.0
 40
0.2986608327
 40
1.0
 40
1.0
 40
1.0
 40
1.0
 10
-10.359822873
 20
-23.8443575944
 30
0.0
 10
-10.3598229719
 20
-23.8228057652
 30
0.0
 10
-10.3598655964
 20
-23.7506443085
 30
0.0
 10
-10.3599532289
 20
-23.6784822881
 30
0.0
 10
-10.3602590366
 20
-23.6278734891
 30
0.0
 11
-10.359822873
 21
-23.8443575944
 31
0.0
 11
-10.3598524471
 21
-23.7797021134
 31
0.0
 11
-10.3602590366
 21
-23.6278734891
 31
0.0
  0
SPLINE
  5
505
100
AcDbEntity
  8
ASSI
100
AcDbSpline
 62
253
  6
CONTINUOUS
 70
0
 71
3
 72
9
 73
5
 74
3
 42
0.0000001
 43
0.0000001
 44
0.0000000001
 12
0.0013086622
 22
-0.0432844713
 32
0.0
 13
-0.0000000121
 23
-0.0433042498
 33
0.0
 40
0.0
 40
0.0
 40
0.0
 40
0.0
 40
0.183485244
 40
1.0
 40
1.0
 40
1.0
 40
1.0
 10
7.2397711993
 20
-23.8010362971
 30
0.0
 10
7.2398512394
 20
-23.803683651
 30
0.0
 10
7.2401471813
 20
-23.8181157778
 30
0.0
 10
7.2402075792
 20
-23.832551381
 30
0.0
 10
7.2402075759
 20
-23.8443375673
 30
0.0
 11
7.2397711993
 21
-23.8010362971
 31
0.0
 11
7.2399519113
 21
-23.8089799327
 31
0.0
 11
7.2402075759
 21
-23.8443375673
 31
0.0
  0
SPLINE
  5
506
100
AcDbEntity
  8
ASSI
100
AcDbSpline
 62
253
  6
CONTINUOUS
 70
0
 71
3
 72
14
 73
10
 74
8
 42
0.0000001
 43
0.0000001
 44
0.0000000001
 12
0.0000000203
 22
-0.0500143983
 32
0.0
 13
-0.0353703802
 23
-0.0353606595
 33
0.0
 40
0.0
 40
0.0
 40
0.0
 40
0.0
 40
0.3784780211
 40
0.5499153469
 40
0.7006964619
 40
0.8251532518
 40
0.9186155577
 40
0.9775909287
 40
1.0
 40
1.0
 40
1.0
 40
1.0
 10
7.2402075759
 20
-24.2106880219
 30
0.0
 10
7.2402075785
 20
-24.2169978054
 30
0.0
 10
7.240183051
 20
-24.2261684298
 30
0.0
 10
7.2400678527
 20
-24.237843139
 30
0.0
 10
7.2399905813
 20
-24.2453046899
 30
0.0
 10
7.239798743
 20
-24.2514069226
 30
0.0
 10
7.2398299289
 20
-24.256126393
 30
0.0
 10
7.2393783081
 20
-24.2588407675
 30
0.0
 10
7.2396142601
 20
-24.2604162735
 30
0.0
 10
7.2393500543
 20
-24.2606804067
 30
0.0
 11
7.2402075759
 21
-24.2106880219
 31
0.0
 11
7.2401426094
 21
-24.2296172609
 31
0.0
 11
7.2400636735
 21
-24.2381912323
 31
0.0
 11
7.2399573386
 21
-24.2457317093
 31
0.0
 11
7.2398276049
 21
-24.2519549887
 31
0.0
 11
7.2396793471
 21
-24.256627098
 31
0.0
 11
7.2395181488
 21
-24.2595723076
 31
0.0
 11
7.2393500543
 21
-24.2606804067
 31
0.0
  0
SPLINE
  5
507
100
AcDbEntity
  8
ASSI
100
AcDbSpline
 62
253
  6
CONTINUOUS
 70
0
 71
3
 72
9
 73
5
 74
3
 42
0.0000001
 43
0.0000001
 44
0.0000000001
 12
-0.0013086734
 22
0.0432844709
 32
0.0
 13
0.0000000099
 23
0.0433042498
 33
0.0
 40
0.0
 40
0.0
 40
0.0
 40
0.0
 40
0.183482616
 40
1.0
 40
1.0
 40
1.0
 40
1.0
 10
-7.2397711993
 20
23.8010362971
 30
0.0
 10
-7.2398512389
 20
23.8036836131
 30
0.0
 10
-7.2401471777
 20
23.8181157399
 30
0.0
 10
-7.2402075786
 20
23.8325513431
 30
0.0
 10
-7.2402075759
 20
23.8443375673
 30
0.0
 11
-7.2397711993
 21
23.8010362971
 31
0.0
 11
-7.2399519086
 21
23.8089798189
 31
0.0
 11
-7.2402075759
 21
23.8443375673
 31
0.0
  0
SPLINE
  5
508
100
AcDbEntity
  8
ASSI
100
AcDbSpline
 62
253
  6
CONTINUOUS
 70
0
 71
3
 72
14
 73
10
 74
8
 42
0.0000001
 43
0.0000001
 44
0.0000000001
 12
0.0353890363
 22
-0.0353419927
 32
0.0
 13
-0.0000000042
 23
-0.0500144013
 33
0.0
 40
0.0
 40
0.0
 40
0.0
 40
0.0
 40
0.0223894862
 40
0.0813317476
 40
0.1747573579
 40
0.2991859872
 40
0.4499515839
 40
0.6213967272
 40
1.0
 40
1.0
 40
1.0
 40
1.0
 10
7.2393500543
 20
24.2606804067
 30
0.0
 10
7.2396141684
 20
24.2604166436
 30
0.0
 10
7.2393782352
 20
24.2588418797
 30
0.0
 10
7.2398298481
 20
24.2561291622
 30
0.0
 10
7.2397986152
 20
24.2514112136
 30
0.0
 10
7.239990499
 20
24.2453103762
 30
0.0
 10
7.2400677791
 20
24.2378494005
 30
0.0
 10
7.2401830419
 20
24.2261727427
 30
0.0
 10
7.2402075764
 20
24.2169998939
 30
0.0
 10
7.2402075759
 20
24.2106880219
 30
0.0
 11
7.2393500543
 21
24.2606804067
 31
0.0
 11
7.2395180777
 21
24.2595732875
 31
0.0
 11
7.2396792386
 21
24.2566297341
 31
0.0
 11
7.23982749
 21
24.2519594605
 31
0.0
 11
7.2399572377
 21
24.2457375898
 31
0.0
 11
7.2400635974
 21
24.2381978889
 31
0.0
 11
7.2401425653
 21
24.2296235263
 31
0.0
 11
7.2402075759
 21
24.2106880219
 31
0.0
  0
SPLINE
  5
509
100
AcDbEntity
  8
ASSI
100
AcDbSpline
 62
253
  6
CONTINUOUS
 70
0
 71
3
 72
9
 73
5
 74
3
 42
0.0000001
 43
0.0000001
 44
0.0000000001
 12
0.0000000101
 22
-0.0433040274
 32
0.0
 13
-0.0013086635
 23
-0.0432842487
 33
0.0
 40
0.0
 40
0.0
 40
0.0
 40
0.0
 40
0.2987936565
 40
1.0
 40
1.0
 40
1.0
 40
1.0
 10
7.2402075759
 20
23.8443375673
 30
0.0
 10
7.2402075769
 20
23.8400245777
 30
0.0
 10
7.2401644293
 20
23.825590381
 30
0.0
 10
7.2400770803
 20
23.8111533604
 30
0.0
 10
7.2397711993
 20
23.8010362971
 30
0.0
 11
7.2402075759
 21
23.8443375673
 31
0.0
 11
7.2401778462
 21
23.8313986328
 31
0.0
 11
7.2397711993
 21
23.8010362971
 31
0.0
  0
LINE
  5
50A
100
AcDbEntity
  8
ASSI
100
AcDbLine
 62
7
  6
CONTINUOUS
 10
-9.0368706193
 20
23.8443375673
 11
-9.2533769702
 21
23.6278312164
  0
SPLINE
  5
50B
100
AcDbEntity
  8
ASSI
100
AcDbSpline
 62
253
  6
CONTINUOUS
 70
0
 71
3
 72
9
 73
5
 74
3
 42
0.0000001
 43
0.0000001
 44
0.0000000001
 12
0.0000000798
 22
-0.2165052525
 32
0.0
 13
-0.0013107489
 23
-0.2165012847
 33
0.0
 40
0.0
 40
0.0
 40
0.0
 40
0.0
 40
0.2988002074
 40
1.0
 40
1.0
 40
1.0
 40
1.0
 10
-10.3598228854
 20
23.8443359174
 30
0.0
 10
-10.3598228775
 20
23.8227719793
 30
0.0
 10
-10.3598662022
 20
23.7506036583
 30
0.0
 10
-10.3599528961
 20
23.6784347683
 30
0.0
 10
-10.3602592617
 20
23.6278312164
 30
0.0
 11
-10.3598228854
 21
23.8443359174
 31
0.0
 11
-10.3598526404
 21
23.7796441099
 31
0.0
 11
-10.3602592617
 21
23.6278312164
 31
0.0
  0
LINE
  5
50C
100
AcDbEntity
  8
ASSI
100
AcDbLine
 62
7
  6
CONTINUOUS
 10
8.7631293807
 20
23.8443375673
 11
8.5466230298
 21
23.6278312164
  0
SPLINE
  5
50D
100
AcDbEntity
  8
ASSI
100
AcDbSpline
 62
253
  6
CONTINUOUS
 70
0
 71
3
 72
14
 73
10
 74
8
 42
0.0000001
 43
0.0000001
 44
0.0000000001
 12
-0.0000000046
 22
0.0500143989
 32
0.0
 13
0.0353848633
 23
0.0353461674
 33
0.0
 40
0.0
 40
0.0
 40
0.0
 40
0.0
 40
0.3784712214
 40
0.5499084536
 40
0.7006913151
 40
0.8251503658
 40
0.9186144536
 40
0.9775916124
 40
1.0
 40
1.0
 40
1.0
 40
1.0
 10
-7.2402075759
 20
24.2106880219
 30
0.0
 10
-7.2402075765
 20
24.2169976921
 30
0.0
 10
-7.2401830543
 20
24.2261682045
 30
0.0
 10
-7.2400678523
 20
24.2378428211
 30
0.0
 10
-7.2399905979
 20
24.2453044543
 30
0.0
 10
-7.2397987146
 20
24.2514067356
 30
0.0
 10
-7.2398300098
 20
24.2561264203
 30
0.0
 10
-7.2393781803
 20
24.2588406228
 30
0.0
 10
-7.2396143602
 20
24.2604163898
 30
0.0
 10
-7.2393500543
 20
24.2606804067
 30
0.0
 11
-7.2402075759
 21
24.2106880219
 31
0.0
 11
-7.2401426116
 21
24.2296169211
 31
0.0
 11
-7.2400636774
 21
24.2381908879
 31
0.0
 11
-7.2399573434
 21
24.2457314523
 31
0.0
 11
-7.2398276094
 21
24.2519548449
 31
0.0
 11
-7.2396793508
 21
24.2566270433
 31
0.0
 11
-7.2395181508
 21
24.2595723425
 31
0.0
 11
-7.2393500543
 21
24.2606804067
 31
0.0
  0
SPLINE
  5
50E
100
AcDbEntity
  8
ASSI
100
AcDbSpline
 62
253
  6
CONTINUOUS
 70
0
 71
3
 72
9
 73
5
 74
3
 42
0.0000001
 43
0.0000001
 44
0.0000000001
 12
0.0000000798
 22
-0.2165052525
 32
0.0
 13
-0.0013107489
 23
-0.2165012847
 33
0.0
 40
0.0
 40
0.0
 40
0.0
 40
0.0
 40
0.2988002074
 40
1.0
 40
1.0
 40
1.0
 40
1.0
 10
7.4401771146
 20
23.8443359174
 30
0.0
 10
7.4401771225
 20
23.8227719793
 30
0.0
 10
7.4401337978
 20
23.7506036583
 30
0.0
 10
7.4400471039
 20
23.6784347683
 30
0.0
 10
7.4397407383
 20
23.6278312164
 30
0.0
 11
7.4401771146
 21
23.8443359174
 31
0.0
 11
7.4401473596
 21
23.7796441099
 31
0.0
 11
7.4397407383
 21
23.6278312164
 31
0.0
  0
SPLINE
  5
50F
100
AcDbEntity
  8
RACCORDO
100
AcDbSpline
 62
253
  6
CONTINUOUS
 70
0
 71
3
 72
13
 73
9
 74
7
 42
0.0000001
 43
0.0000001
 44
0.0000000001
 12
4.8244888816
 22
-2.5730231737
 32
0.0
 13
0.0000242562
 23
-5.467736389
 33
0.0
 40
0.0
 40
0.0
 40
0.0
 40
0.0
 40
0.1249137162
 40
0.2496424918
 40
0.3743344372
 40
0.4991511095
 40
0.7490576339
 40
1.0
 40
1.0
 40
1.0
 40
1.0
 10
2.2120049607
 20
4.5
 30
0.0
 10
2.4128865723
 20
4.3928647045
 30
0.0
 10
2.7995651968
 20
4.1496412823
 30
0.0
 10
3.3219286892
 20
3.7075283625
 30
0.0
 10
3.7782442779
 20
3.197551746
 30
0.0
 10
4.2888447732
 20
2.4411386101
 30
0.0
 10
4.730208922
 20
1.3744377117
 30
0.0
 10
4.8492857508
 20
0.4573622356
 30
0.0
 10
4.8492877798
 20
0.0
 30
0.0
 11
2.2120049607
 21
4.5
 31
0.0
 11
2.7902584567
 21
4.1365368862
 31
0.0
 11
3.3109945468
 21
3.6961550184
 31
0.0
 11
3.7658208962
 21
3.1882567758
 31
0.0
 11
4.1477753841
 21
2.6226873435
 31
0.0
 11
4.6711607489
 21
1.3604751713
 31
0.0
 11
4.8492877798
 21
0.0
 31
0.0
  0
SPLINE
  5
510
100
AcDbEntity
  8
RACCORDO
100
AcDbSpline
 62
253
  6
CONTINUOUS
 70
0
 71
3
 72
13
 73
9
 74
7
 42
0.0000001
 43
0.0000001
 44
0.0000000001
 12
-4.8244889205
 22
2.5730232801
 32
0.0
 13
-0.0000241319
 23
5.4677364734
 33
0.0
 40
0.0
 40
0.0
 40
0.0
 40
0.0
 40
0.1249137904
 40
0.2496426926
 40
0.3743347321
 40
0.4991514119
 40
0.7490577583
 40
1.0
 40
1.0
 40
1.0
 40
1.0
 10
-2.2120048909
 20
-4.5
 30
0.0
 10
-2.4128866235
 20
-4.3928646364
 30
0.0
 10
-2.7995655777
 20
-4.1496410331
 30
0.0
 10
-3.3219294366
 20
-3.7075276872
 30
0.0
 10
-3.7782452065
 20
-3.1975506532
 30
0.0
 10
-4.2888453562
 20
-2.441137433
 30
0.0
 10
-4.7302090749
 20
-1.3744369554
 30
0.0
 10
-4.8492857612
 20
-0.4573620159
 30
0.0
 10
-4.8492877798
 20
0.0
 30
0.0
 11
-2.2120048909
 21
-4.5
 31
0.0
 11
-2.7902587407
 21
-4.1365366664
 31
0.0
 11
-3.3109953182
 21
-3.6961542869
 31
0.0
 11
-3.7658218997
 21
-3.1882555473
 31
0.0
 11
-4.1477762237
 21
-2.6226859421
 31
0.0
 11
-4.6711609389
 21
-1.3604745315
 31
0.0
 11
-4.8492877798
 21
0.0
 31
0.0
  0
SPLINE
  5
511
100
AcDbEntity
  8
RACCORDO
100
AcDbSpline
 62
253
  6
CONTINUOUS
 70
0
 71
3
 72
13
 73
9
 74
7
 42
0.0000001
 43
0.0000001
 44
0.0000000001
 12
-0.0000323048
 22
-5.4677365109
 32
0.0
 13
-4.8244896397
 23
-2.5730220113
 33
0.0
 40
0.0
 40
0.0
 40
0.0
 40
0.0
 40
0.2509452886
 40
0.5008497508
 40
0.6256667833
 40
0.7503589117
 40
0.8750871936
 40
1.0
 40
1.0
 40
1.0
 40
1.0
 10
4.8492877798
 20
0.0
 30
0.0
 10
4.8492850776
 20
-0.4573675722
 30
0.0
 10
4.7302079583
 20
-1.3744448303
 30
0.0
 10
4.2888404733
 20
-2.4411467378
 30
0.0
 10
3.778240193
 20
-3.1975566738
 30
0.0
 10
3.321924043
 20
-3.7075329251
 30
0.0
 10
2.7995616545
 20
-4.1496437187
 30
0.0
 10
2.412885071
 20
-4.3928655332
 30
0.0
 10
2.2120048908
 20
-4.5
 30
0.0
 11
4.8492877798
 21
0.0
 31
0.0
 11
4.6711568555
 21
-1.360490808
 31
0.0
 11
4.1477731429
 21
-2.6226914918
 31
0.0
 11
3.7658166693
 21
-3.188261978
 31
0.0
 11
3.3109890133
 21
-3.6961604138
 31
0.0
 11
2.7902544227
 21
-4.1365398979
 31
0.0
 11
2.2120048908
 21
-4.5
 31
0.0
  0
SPLINE
  5
512
100
AcDbEntity
  8
RACCORDO
100
AcDbSpline
 62
253
  6
CONTINUOUS
 70
0
 71
3
 72
23
 73
19
 74
17
 42
0.0000001
 43
0.0000001
 44
0.0000000001
 12
0.026332694
 22
-16.7635317875
 32
0.0
 13
0.0262429827
 23
16.7635319282
 33
0.0
 40
0.0
 40
0.0
 40
0.0
 40
0.0
 40
0.0625442283
 40
0.1250691661
 40
0.1875832431
 40
0.2500818567
 40
0.3125715299
 40
0.3750536389
 40
0.4375332896
 40
0.5000169495
 40
0.5625006668
 40
0.6249793805
 40
0.6874593265
 40
0.7499452741
 40
0.8124384466
 40
0.8749449992
 40
0.9374615777
 40
1.0
 40
1.0
 40
1.0
 40
1.0
 10
5.3389869933
 20
-4.5
 30
0.0
 10
5.3395359793
 20
-4.8494873862
 30
0.0
 10
5.2706584261
 20
-5.5502387737
 30
0.0
 10
4.9671182588
 20
-6.5602882854
 30
0.0
 10
4.4699133062
 20
-7.4904451852
 30
0.0
 10
3.8038333173
 20
-8.3079381216
 30
0.0
 10
2.9883699903
 20
-8.9763566885
 30
0.0
 10
2.059155419
 20
-9.4744883285
 30
0.0
 10
1.0487585726
 20
-9.7760865221
 30
0.0
 10
-0.0002961402
 20
-9.8762251288
 30
0.0
 10
-1.049333399
 20
-9.7759723723
 30
0.0
 10
-2.059685731
 20
-9.474278035
 30
0.0
 10
-2.9888015092
 20
-8.9760507876
 30
0.0
 10
-3.8041818574
 20
-8.3076268455
 30
0.0
 10
-4.4700929239
 20
-7.490126809
 30
0.0
 10
-4.9673000848
 20
-6.5601031394
 30
0.0
 10
-5.2706318837
 20
-5.5501151188
 30
0.0
 10
-5.3395340582
 20
-4.8494549465
 30
0.0
 10
-5.3389869933
 20
-4.5
 30
0.0
 11
5.3389869933
 21
-4.5
 31
0.0
 11
5.2372613361
 21
-5.5435168908
 31
0.0
 11
4.9348017103
 21
-6.5470684811
 31
0.0
 11
4.4417014152
 21
-7.4717673997
 31
0.0
 11
3.7788802433
 21
-8.2831494572
 31
0.0
 11
2.969361871
 21
-8.9480093932
 31
0.0
 11
2.0456075536
 21
-9.4417411473
 31
0.0
 11
1.0423391352
 21
-9.7425055659
 31
0.0
 11
-0.0002937843
 21
-9.8428257653
 31
0.0
 11
-1.0429168178
 21
-9.7423928523
 31
0.0
 11
-2.0461384047
 21
-9.441526934
 31
0.0
 11
-2.9698067676
 21
-8.9477113
 31
0.0
 11
-3.7792247377
 21
-8.2828275249
 31
0.0
 11
-4.4419184813
 21
-7.4714591509
 31
0.0
 11
-4.9349507578
 21
-6.5468669113
 31
0.0
 11
-5.2372727992
 21
-5.5434202188
 31
0.0
 11
-5.3389869933
 21
-4.5
 31
0.0
  0
SPLINE
  5
513
100
AcDbEntity
  8
0
100
AcDbSpline
 62
7
  6
CONTINUOUS
 70
0
 71
3
 72
9
 73
5
 74
3
 42
0.0000001
 43
0.0000001
 44
0.0000000001
 12
0.0742710469
 22
0.2772010089
 32
0.0
 13
0.026089352
 23
0.2857900164
 33
0.0
 40
0.0
 40
0.0
 40
0.0
 40
0.0
 40
0.257343128
 40
1.0
 40
1.0
 40
1.0
 40
1.0
 10
-19.0517928217
 20
11.5950726739
 30
0.0
 10
-19.0454217739
 20
11.6188512654
 30
0.0
 10
-19.0225542383
 20
11.7117428349
 30
0.0
 10
-19.0073175017
 20
11.8065492609
 30
0.0
 10
-19.0008590228
 20
11.8772972341
 30
0.0
 11
-19.0517928217
 21
11.5950726739
 31
0.0
 11
-19.034157521
 21
11.6667880919
 31
0.0
 11
-19.0008590228
 21
11.8772972341
 31
0.0
  0
SPLINE
  5
514
100
AcDbEntity
  8
0
100
AcDbSpline
 62
7
  6
CONTINUOUS
 70
0
 71
3
 72
9
 73
5
 74
3
 42
0.0000001
 43
0.0000001
 44
0.0000000001
 12
0.1044080931
 22
0.0964086521
 32
0.0
 13
0.0864772886
 23
0.1127712581
 33
0.0
 40
0.0
 40
0.0
 40
0.0
 40
0.0
 40
0.2672460555
 40
1.0
 40
1.0
 40
1.0
 40
1.0
 10
-19.1508613152
 20
11.4781394927
 30
0.0
 10
-19.1415604315
 20
11.48672777
 30
0.0
 10
-19.1073284061
 20
11.5194625323
 30
0.0
 10
-19.0754476585
 20
11.5547599308
 30
0.0
 10
-19.054325467
 20
11.5823044589
 30
0.0
 11
-19.1508613152
 21
11.4781394927
 31
0.0
 11
-19.1234316133
 21
11.5044072668
 31
0.0
 11
-19.054325467
 21
11.5823044589
 31
0.0
  0
SPLINE
  5
515
100
AcDbEntity
  8
0
100
AcDbSpline
 62
7
  6
CONTINUOUS
 70
0
 71
3
 72
9
 73
5
 74
3
 42
0.0000001
 43
0.0000001
 44
0.0000000001
 12
-0.0863441598
 22
0.1132503385
 32
0.0
 13
-0.104595985
 23
0.0966469503
 33
0.0
 40
0.0
 40
0.0
 40
0.0
 40
0.0
 40
0.2335988255
 40
1.0
 40
1.0
 40
1.0
 40
1.0
 10
-19.0542918911
 20
10.9175285871
 30
0.0
 10
-19.0610151893
 20
10.9263469691
 30
0.0
 10
-19.0907946423
 20
10.9633357872
 30
0.0
 10
-19.1241404866
 20
10.9973645884
 30
0.0
 10
-19.1508613152
 20
11.0220547004
 30
0.0
 11
-19.0542918911
 21
10.9175285871
 31
0.0
 11
-19.0751226921
 21
10.9434665346
 31
0.0
 11
-19.1508613152
 21
11.0220547004
 31
0.0
  0
SPLINE
  5
516
100
AcDbEntity
  8
0
100
AcDbSpline
 62
7
  6
CONTINUOUS
 70
0
 71
3
 72
9
 73
5
 74
3
 42
0.0000001
 43
0.0000001
 44
0.0000000001
 12
-0.0260904608
 22
0.2857920786
 32
0.0
 13
-0.0742716119
 23
0.277203088
 33
0.0
 40
0.0
 40
0.0
 40
0.0
 40
0.0
 40
0.2424650371
 40
1.0
 40
1.0
 40
1.0
 40
1.0
 10
-19.0008590576
 20
10.6227024837
 30
0.0
 10
-19.0029677325
 20
10.6458006793
 30
0.0
 10
-19.0137997564
 20
10.740861916
 30
0.0
 10
-19.0330383873
 20
10.834930365
 30
0.0
 10
-19.0517928349
 20
10.9049273753
 30
0.0
 11
-19.0008590576
 21
10.6227024837
 31
0.0
 11
-19.0087147251
 21
10.6918403666
 31
0.0
 11
-19.0517928349
 21
10.9049273753
 31
0.0
  0
SPLINE
  5
517
100
AcDbEntity
  8
0
100
AcDbSpline
 62
7
  6
CONTINUOUS
 70
0
 71
3
 72
11
 73
7
 74
5
 42
0.0000001
 43
0.0000001
 44
0.0000000001
 12
0.21632747
 22
0.0193534465
 32
0.0
 13
0.0835997554
 23
0.2004575044
 33
0.0
 40
0.0
 40
0.0
 40
0.0
 40
0.0
 40
0.2499901202
 40
0.4999713796
 40
0.7499671791
 40
1.0
 40
1.0
 40
1.0
 40
1.0
 10
-19.6740030068
 20
8.4420323834
 30
0.0
 10
-19.65597643
 20
8.4436451069
 30
0.0
 10
-19.620180878
 20
8.4519572678
 30
0.0
 10
-19.5720919547
 20
8.4785618976
 30
0.0
 10
-19.5329170405
 20
8.5170814463
 30
0.0
 10
-19.5144904587
 20
8.5488199818
 30
0.0
 10
-19.5075228978
 20
8.5655269669
 30
0.0
 11
-19.6740030068
 21
8.4420323834
 31
0.0
 11
-19.6211144522
 21
8.4543135036
 31
0.0
 11
-19.5735788374
 21
8.4805467164
 31
0.0
 11
-19.5348414841
 21
8.5185937469
 31
0.0
 11
-19.5075228978
 21
8.5655269669
 31
0.0
  0
SPLINE
  5
518
100
AcDbEntity
  8
0
100
AcDbSpline
 62
7
  6
CONTINUOUS
 70
0
 71
3
 72
11
 73
7
 74
5
 42
0.0000001
 43
0.0000001
 44
0.0000000001
 12
-0.0835997556
 22
0.200457505
 32
0.0
 13
-0.2163274706
 23
0.0193534466
 33
0.0
 40
0.0
 40
0.0
 40
0.0
 40
0.0
 40
0.2500358158
 40
0.5000331093
 40
0.7500129301
 40
1.0
 40
1.0
 40
1.0
 40
1.0
 10
-19.5075228978
 20
13.9344730331
 30
0.0
 10
-19.5144905422
 20
13.9511802183
 30
0.0
 10
-19.532917349
 20
13.9829190189
 30
0.0
 10
-19.5720925822
 20
14.0214385727
 30
0.0
 10
-19.6201814177
 20
14.0480428949
 30
0.0
 10
-19.6559766499
 20
14.0563549128
 30
0.0
 10
-19.6740030068
 20
14.0579676166
 30
0.0
 11
-19.5075228978
 21
13.9344730331
 31
0.0
 11
-19.5348418885
 21
13.9814067706
 31
0.0
 11
-19.5735796264
 21
14.0194538727
 31
0.0
 11
-19.6211150759
 21
14.0456867387
 31
0.0
 11
-19.6740030068
 21
14.0579676166
 31
0.0
  0
LINE
  5
519
100
AcDbEntity
  8
0
100
AcDbLine
 62
7
  6
CONTINUOUS
 10
-19.6740030068
 20
14.0579676166
 11
-20.1444169108
 21
14.1000389971
  0
LINE
  5
51A
100
AcDbEntity
  8
0
100
AcDbLine
 62
7
  6
CONTINUOUS
 10
-20.1444169108
 20
8.3999610029
 11
-19.6740030068
 21
8.4420323834
  0
SPLINE
  5
51B
100
AcDbEntity
  8
0
100
AcDbSpline
 62
7
  6
CONTINUOUS
 70
0
 71
3
 72
9
 73
5
 74
3
 42
0.0000001
 43
0.0000001
 44
0.0000000001
 12
0.0742710469
 22
0.2772010089
 32
0.0
 13
0.026089352
 23
0.2857900164
 33
0.0
 40
0.0
 40
0.0
 40
0.0
 40
0.0
 40
0.257343128
 40
1.0
 40
1.0
 40
1.0
 40
1.0
 10
-19.0517928217
 20
-10.9049273261
 30
0.0
 10
-19.0454217739
 20
-10.8811487346
 30
0.0
 10
-19.0225542383
 20
-10.7882571651
 30
0.0
 10
-19.0073175017
 20
-10.6934507391
 30
0.0
 10
-19.0008590228
 20
-10.6227027659
 30
0.0
 11
-19.0517928217
 21
-10.9049273261
 31
0.0
 11
-19.034157521
 21
-10.8332119081
 31
0.0
 11
-19.0008590228
 21
-10.6227027659
 31
0.0
  0
SPLINE
  5
51C
100
AcDbEntity
  8
0
100
AcDbSpline
 62
7
  6
CONTINUOUS
 70
0
 71
3
 72
9
 73
5
 74
3
 42
0.0000001
 43
0.0000001
 44
0.0000000001
 12
0.1044080931
 22
0.0964086521
 32
0.0
 13
0.0864772886
 23
0.1127712581
 33
0.0
 40
0.0
 40
0.0
 40
0.0
 40
0.0
 40
0.2672460555
 40
1.0
 40
1.0
 40
1.0
 40
1.0
 10
-19.1508613152
 20
-11.0218605073
 30
0.0
 10
-19.1415604315
 20
-11.01327223
 30
0.0
 10
-19.1073284061
 20
-10.9805374677
 30
0.0
 10
-19.0754476585
 20
-10.9452400692
 30
0.0
 10
-19.054325467
 20
-10.9176955411
 30
0.0
 11
-19.1508613152
 21
-11.0218605073
 31
0.0
 11
-19.1234316133
 21
-10.9955927332
 31
0.0
 11
-19.054325467
 21
-10.9176955411
 31
0.0
  0
SPLINE
  5
51D
100
AcDbEntity
  8
0
100
AcDbSpline
 62
7
  6
CONTINUOUS
 70
0
 71
3
 72
9
 73
5
 74
3
 42
0.0000001
 43
0.0000001
 44
0.0000000001
 12
-0.0863441598
 22
0.1132503385
 32
0.0
 13
-0.104595985
 23
0.0966469503
 33
0.0
 40
0.0
 40
0.0
 40
0.0
 40
0.0
 40
0.2335988255
 40
1.0
 40
1.0
 40
1.0
 40
1.0
 10
-19.0542918911
 20
-11.5824714129
 30
0.0
 10
-19.0610151893
 20
-11.5736530309
 30
0.0
 10
-19.0907946423
 20
-11.5366642128
 30
0.0
 10
-19.1241404866
 20
-11.5026354116
 30
0.0
 10
-19.1508613152
 20
-11.4779452996
 30
0.0
 11
-19.0542918911
 21
-11.5824714129
 31
0.0
 11
-19.0751226921
 21
-11.5565334654
 31
0.0
 11
-19.1508613152
 21
-11.4779452996
 31
0.0
  0
SPLINE
  5
51E
100
AcDbEntity
  8
0
100
AcDbSpline
 62
7
  6
CONTINUOUS
 70
0
 71
3
 72
9
 73
5
 74
3
 42
0.0000001
 43
0.0000001
 44
0.0000000001
 12
-0.0260904608
 22
0.2857920786
 32
0.0
 13
-0.0742716119
 23
0.277203088
 33
0.0
 40
0.0
 40
0.0
 40
0.0
 40
0.0
 40
0.2424650371
 40
1.0
 40
1.0
 40
1.0
 40
1.0
 10
-19.0008590576
 20
-11.8772975163
 30
0.0
 10
-19.0029677325
 20
-11.8541993207
 30
0.0
 10
-19.0137997564
 20
-11.759138084
 30
0.0
 10
-19.0330383873
 20
-11.665069635
 30
0.0
 10
-19.0517928349
 20
-11.5950726247
 30
0.0
 11
-19.0008590576
 21
-11.8772975163
 31
0.0
 11
-19.0087147251
 21
-11.8081596334
 31
0.0
 11
-19.0517928349
 21
-11.5950726247
 31
0.0
  0
SPLINE
  5
51F
100
AcDbEntity
  8
0
100
AcDbSpline
 62
7
  6
CONTINUOUS
 70
0
 71
3
 72
11
 73
7
 74
5
 42
0.0000001
 43
0.0000001
 44
0.0000000001
 12
0.21632747
 22
0.0193534465
 32
0.0
 13
0.0835997554
 23
0.2004575044
 33
0.0
 40
0.0
 40
0.0
 40
0.0
 40
0.0
 40
0.2499901202
 40
0.4999713796
 40
0.7499671791
 40
1.0
 40
1.0
 40
1.0
 40
1.0
 10
-19.6740030068
 20
-14.0579676166
 30
0.0
 10
-19.65597643
 20
-14.0563548931
 30
0.0
 10
-19.620180878
 20
-14.0480427322
 30
0.0
 10
-19.5720919547
 20
-14.0214381024
 30
0.0
 10
-19.5329170405
 20
-13.9829185537
 30
0.0
 10
-19.5144904587
 20
-13.9511800182
 30
0.0
 10
-19.5075228978
 20
-13.9344730331
 30
0.0
 11
-19.6740030068
 21
-14.0579676166
 31
0.0
 11
-19.6211144522
 21
-14.0456864964
 31
0.0
 11
-19.5735788374
 21
-14.0194532836
 31
0.0
 11
-19.5348414841
 21
-13.9814062531
 31
0.0
 11
-19.5075228978
 21
-13.9344730331
 31
0.0
  0
SPLINE
  5
520
100
AcDbEntity
  8
0
100
AcDbSpline
 62
7
  6
CONTINUOUS
 70
0
 71
3
 72
11
 73
7
 74
5
 42
0.0000001
 43
0.0000001
 44
0.0000000001
 12
-0.0835997556
 22
0.200457505
 32
0.0
 13
-0.2163274706
 23
0.0193534466
 33
0.0
 40
0.0
 40
0.0
 40
0.0
 40
0.0
 40
0.2500358158
 40
0.5000331093
 40
0.7500129301
 40
1.0
 40
1.0
 40
1.0
 40
1.0
 10
-19.5075228978
 20
-8.5655269669
 30
0.0
 10
-19.5144905422
 20
-8.5488197817
 30
0.0
 10
-19.532917349
 20
-8.5170809811
 30
0.0
 10
-19.5720925822
 20
-8.4785614273
 30
0.0
 10
-19.6201814177
 20
-8.4519571051
 30
0.0
 10
-19.6559766499
 20
-8.4436450872
 30
0.0
 10
-19.6740030068
 20
-8.4420323834
 30
0.0
 11
-19.5075228978
 21
-8.5655269669
 31
0.0
 11
-19.5348418885
 21
-8.5185932294
 31
0.0
 11
-19.5735796264
 21
-8.4805461273
 31
0.0
 11
-19.6211150759
 21
-8.4543132613
 31
0.0
 11
-19.6740030068
 21
-8.4420323834
 31
0.0
  0
LINE
  5
521
100
AcDbEntity
  8
0
100
AcDbLine
 62
7
  6
CONTINUOUS
 10
-19.6740030068
 20
-8.4420323834
 11
-20.1444169108
 21
-8.3999610029
  0
LINE
  5
522
100
AcDbEntity
  8
0
100
AcDbLine
 62
7
  6
CONTINUOUS
 10
-20.1444169108
 20
-14.1000389971
 11
-19.6740030068
 21
-14.0579676166
  0
LINE
  5
523
100
AcDbEntity
  8
RACCORDO
100
AcDbLine
 62
7
  6
CONTINUOUS
 10
-34.6444169095
 20
1.4069897665
 11
-35.3444169064
 21
1.4093678936
  0
LINE
  5
524
100
AcDbEntity
  8
RACCORDO
100
AcDbLine
 62
7
  6
CONTINUOUS
 10
-34.6444169095
 20
5.6948708152
 11
-35.3444169064
 21
5.7006121221
  0
LINE
  5
525
100
AcDbEntity
  8
RACCORDO
100
AcDbLine
 62
7
  6
CONTINUOUS
 10
-34.6444169095
 20
-1.4069897665
 11
-35.3444169064
 21
-1.4093678936
  0
LINE
  5
526
100
AcDbEntity
  8
RACCORDO
100
AcDbLine
 62
7
  6
CONTINUOUS
 10
-34.6444169095
 20
-5.6948708152
 11
-35.3444169064
 21
-5.7006121221
  0
LINE
  5
527
100
AcDbEntity
  8
RACCORDO
100
AcDbLine
 62
7
  6
CONTINUOUS
 10
-34.6444169095
 20
3.7050868053
 11
-35.3444169064
 21
3.7074649325
  0
LINE
  5
528
100
AcDbEntity
  8
RACCORDO
100
AcDbLine
 62
7
  6
CONTINUOUS
 10
-34.6444169095
 20
-6.6467737763
 11
-35.3444169064
 21
-6.6525150832
  0
LINE
  5
529
100
AcDbEntity
  8
RACCORDO
100
AcDbLine
 62
7
  6
CONTINUOUS
 10
-34.6444169095
 20
-3.7050868053
 11
-35.3444169064
 21
-3.7074649325
  0
LINE
  5
52A
100
AcDbEntity
  8
RACCORDO
100
AcDbLine
 62
7
  6
CONTINUOUS
 10
-34.6444169095
 20
6.6467737763
 11
-35.3444169064
 21
6.6525150832
  0
SPLINE
  5
52B
100
AcDbEntity
  8
RACCORDO
100
AcDbSpline
 62
7
  6
CONTINUOUS
 70
0
 71
3
 72
11
 73
7
 74
5
 42
0.0000001
 43
0.0000001
 44
0.0000000001
 12
0.0
 22
-1.0168141041
 32
0.0
 13
-0.7188323005
 23
-0.7191599586
 33
0.0
 40
0.0
 40
0.0
 40
0.0
 40
0.0
 40
0.249877518
 40
0.4997861696
 40
0.7498615231
 40
1.0
 40
1.0
 40
1.0
 40
1.0
 10
-21.6444169108
 20
-5.7783914088
 30
0.0
 10
-21.6444169108
 20
-5.8630844037
 30
0.0
 10
-21.67698904
 20
-6.0333041625
 30
0.0
 10
-21.7959259542
 20
-6.2604557263
 30
0.0
 10
-21.9562121479
 20
-6.459031013
 30
0.0
 10
-22.0757548584
 20
-6.5793206607
 30
0.0
 10
-22.1356907307
 20
-6.6392838529
 30
0.0
 11
-21.6444169108
 21
-5.7783914088
 31
0.0
 11
-21.6886605249
 21
-6.0285885971
 31
0.0
 11
-21.8027782278
 21
-6.2556334563
 31
0.0
 11
-21.9593621123
 21
-6.4559828512
 31
0.0
 11
-22.1356907307
 21
-6.6392838529
 31
0.0
  0
SPLINE
  5
52C
100
AcDbEntity
  8
RACCORDO
100
AcDbSpline
 62
253
  6
CONTINUOUS
 70
0
 71
3
 72
11
 73
7
 74
5
 42
0.0000001
 43
0.0000001
 44
0.0000000001
 12
0.0291717868
 22
-0.4857450283
 32
0.0
 13
-0.0067766875
 23
-0.4865730183
 33
0.0
 40
0.0
 40
0.0
 40
0.0
 40
0.0
 40
0.1329726356
 40
0.3622398561
 40
0.6623746864
 40
1.0
 40
1.0
 40
1.0
 40
1.0
 10
-22.1356343752
 20
-6.152700947
 30
0.0
 10
-22.1343413587
 20
-6.1742312125
 30
0.0
 10
-22.1336077256
 20
-6.23301537
 30
0.0
 10
-22.1330072076
 20
-6.3404373812
 30
0.0
 10
-22.1338014413
 20
-6.4810830619
 30
0.0
 10
-22.134928046
 20
-6.5845240407
 30
0.0
 10
-22.1356907065
 20
-6.63928383
 30
0.0
 11
-22.1356343752
 21
-6.152700947
 31
0.0
 11
-22.133857352
 21
-6.217383713
 31
0.0
 11
-22.1332524257
 21
-6.3289481353
 31
0.0
 11
-22.1338872223
 21
-6.4749984289
 31
0.0
 11
-22.1356907065
 21
-6.63928383
 31
0.0
  0
SPLINE
  5
52D
100
AcDbEntity
  8
RACCORDO
100
AcDbSpline
 62
253
  6
CONTINUOUS
 70
0
 71
3
 72
11
 73
7
 74
5
 42
0.0000001
 43
0.0000001
 44
0.0000000001
 12
0.7124312092
 22
0.0121264655
 32
0.0
 13
0.0758298874
 23
0.7084879019
 33
0.0
 40
0.0
 40
0.0
 40
0.0
 40
0.0
 40
0.2526938226
 40
0.5038081048
 40
0.7527076641
 40
1.0
 40
1.0
 40
1.0
 40
1.0
 10
-22.1356907076
 20
-6.1517848755
 30
0.0
 10
-22.075681719
 20
-6.1507634479
 30
0.0
 10
-21.9553162238
 20
-6.1273225542
 30
0.0
 10
-21.7996609488
 20
-6.0320425983
 30
0.0
 10
-21.688128287
 20
-5.8890439816
 30
0.0
 10
-21.6533668451
 20
-5.7730860446
 30
0.0
 10
-21.6471161284
 20
-5.7146848351
 30
0.0
 11
-22.1356907076
 21
-6.1517848755
 31
0.0
 11
-21.9590095351
 21
-6.1171025821
 31
0.0
 11
-21.8064604644
 21
-6.0235940007
 31
0.0
 11
-21.6977754931
 21
-5.8834497108
 31
0.0
 11
-21.6471161284
 21
-5.7146848351
 31
0.0
  0
SPLINE
  5
52E
100
AcDbEntity
  8
RACCORDO
100
AcDbSpline
 62
253
  6
CONTINUOUS
 70
0
 71
3
 72
11
 73
7
 74
5
 42
0.0000001
 43
0.0000001
 44
0.0000000001
 12
0.7124311956
 22
-0.0121265648
 32
0.0
 13
0.0758298946
 23
-0.7084878892
 33
0.0
 40
0.0
 40
0.0
 40
0.0
 40
0.0
 40
0.2526938318
 40
0.5038081231
 40
0.7527076805
 40
1.0
 40
1.0
 40
1.0
 40
1.0
 10
-22.1356907076
 20
6.1517848755
 30
0.0
 10
-22.075681718
 20
6.1507634395
 30
0.0
 10
-21.9553162241
 20
6.1273225327
 30
0.0
 10
-21.7996609523
 20
6.0320425728
 30
0.0
 10
-21.6881282897
 20
5.8890439644
 30
0.0
 10
-21.6533668453
 20
5.7730860345
 30
0.0
 10
-21.6471161285
 20
5.71468483
 30
0.0
 11
-22.1356907076
 21
6.1517848755
 31
0.0
 11
-21.9590095352
 21
6.117102563
 31
0.0
 11
-21.8064604646
 21
6.0235939748
 31
0.0
 11
-21.6977754933
 21
5.8834496904
 31
0.0
 11
-21.6471161285
 21
5.71468483
 31
0.0
  0
SPLINE
  5
52F
100
AcDbEntity
  8
RACCORDO
100
AcDbSpline
 62
7
  6
CONTINUOUS
 70
0
 71
3
 72
11
 73
7
 74
5
 42
0.0000001
 43
0.0000001
 44
0.0000000001
 12
0.7188322977
 22
-0.7191599614
 32
0.0
 13
0.0
 23
-1.0168141041
 33
0.0
 40
0.0
 40
0.0
 40
0.0
 40
0.0
 40
0.2501384769
 40
0.5002138304
 40
0.750122482
 40
1.0
 40
1.0
 40
1.0
 40
1.0
 10
-22.1356907307
 20
6.6392838529
 30
0.0
 10
-22.0757548586
 20
6.5793206604
 30
0.0
 10
-21.9562121477
 20
6.4590310131
 30
0.0
 10
-21.7959259543
 20
6.2604557263
 30
0.0
 10
-21.67698904
 20
6.0333041626
 30
0.0
 10
-21.6444169108
 20
5.8630844037
 30
0.0
 10
-21.6444169108
 20
5.7783914088
 30
0.0
 11
-22.1356907307
 21
6.6392838529
 31
0.0
 11
-21.9593621123
 21
6.4559828513
 31
0.0
 11
-21.8027782278
 21
6.2556334563
 31
0.0
 11
-21.6886605249
 21
6.0285885971
 31
0.0
 11
-21.6444169108
 21
5.7783914088
 31
0.0
  0
SPLINE
  5
530
100
AcDbEntity
  8
RACCORDO
100
AcDbSpline
 62
253
  6
CONTINUOUS
 70
0
 71
3
 72
11
 73
7
 74
5
 42
0.0000001
 43
0.0000001
 44
0.0000000001
 12
0.0067766876
 22
-0.4865730183
 32
0.0
 13
-0.0291716505
 23
-0.4857450365
 33
0.0
 40
0.0
 40
0.0
 40
0.0
 40
0.0
 40
0.3376253136
 40
0.6377601438
 40
0.8670273644
 40
1.0
 40
1.0
 40
1.0
 40
1.0
 10
-22.1356907065
 20
6.63928383
 30
0.0
 10
-22.134928046
 20
6.5845240407
 30
0.0
 10
-22.1338014405
 20
6.4810830619
 30
0.0
 10
-22.1330072097
 20
6.3404373814
 30
0.0
 10
-22.1336077207
 20
6.2330153697
 30
0.0
 10
-22.1343413648
 20
6.1742312128
 30
0.0
 10
-22.1356343752
 20
6.1527009469
 30
0.0
 11
-22.1356907065
 21
6.63928383
 31
0.0
 11
-22.1338872223
 21
6.4749984289
 31
0.0
 11
-22.1332524257
 21
6.3289481353
 31
0.0
 11
-22.1338573521
 21
6.217383713
 31
0.0
 11
-22.1356343752
 21
6.1527009469
 31
0.0
  0
SPLINE
  5
531
100
AcDbEntity
  8
RACCORDO
100
AcDbSpline
 62
253
  6
CONTINUOUS
 70
0
 71
3
 72
13
 73
9
 74
7
 42
0.0000001
 43
0.0000001
 44
0.0000000001
 12
-0.0
 22
-0.2401724708
 32
0.0
 13
0.0068984713
 23
-0.2401999894
 33
0.0
 40
0.0
 40
0.0
 40
0.0
 40
0.0
 40
0.2322649931
 40
0.4348089978
 40
0.6068712788
 40
0.7479752784
 40
0.9368966178
 40
1.0
 40
1.0
 40
1.0
 40
1.0
 10
-21.6422353466
 20
7.7170446995
 30
0.0
 10
-21.6422353466
 20
7.6984501471
 30
0.0
 10
-21.6411881245
 20
7.6636356047
 30
0.0
 10
-21.637835353
 20
7.6151688727
 30
0.0
 10
-21.63511359
 20
7.5739646137
 30
0.0
 10
-21.6345458708
 20
7.5337528349
 30
0.0
 10
-21.635981995
 20
7.5022954826
 30
0.0
 10
-21.6358358132
 20
7.4821206378
 30
0.0
 10
-21.6356907076
 20
7.4770681605
 30
0.0
 11
-21.6422353466
 21
7.7170446995
 31
0.0
 11
-21.6407299114
 21
7.6612813596
 31
0.0
 11
-21.6376939991
 21
7.6127306919
 31
0.0
 11
-21.6353422397
 21
7.5714730416
 31
0.0
 11
-21.6348885429
 21
7.5375867825
 31
0.0
 11
-21.6358421332
 21
7.4922230993
 31
0.0
 11
-21.6356907076
 21
7.4770681605
 31
0.0
  0
SPLINE
  5
532
100
AcDbEntity
  8
RACCORDO
100
AcDbSpline
 62
253
  6
CONTINUOUS
 70
0
 71
3
 72
20
 73
16
 74
14
 42
0.0000001
 43
0.0000001
 44
0.0000000001
 12
0.0000041178
 22
-7.3059032847
 32
0.0
 13
-0.0000016615
 23
-7.3059032741
 33
0.0
 40
0.0
 40
0.0
 40
0.0
 40
0.0
 40
0.1200109164
 40
0.2565890075
 40
0.4242956978
 40
0.6030393899
 40
0.6898396077
 40
0.7714062074
 40
0.8452776991
 40
0.878620219
 40
0.9092253163
 40
0.9368577925
 40
0.9613200104
 40
0.9824279654
 40
1.0
 40
1.0
 40
1.0
 40
1.0
 10
-21.6356907076
 20
15.0229318395
 30
0.0
 10
-21.6356905429
 20
14.7306691235
 30
0.0
 10
-21.6356907077
 20
14.1057976339
 30
0.0
 10
-21.6356910583
 20
13.0725098589
 30
0.0
 10
-21.6356888749
 20
11.8961900846
 30
0.0
 10
-21.6356962662
 20
10.8410944443
 30
0.0
 10
-21.6356807034
 20
9.995775803
 30
0.0
 10
-21.6357306018
 20
9.4058526899
 30
0.0
 10
-21.6355734348
 20
8.9461147682
 30
0.0
 10
-21.6358917831
 20
8.6104842706
 30
0.0
 10
-21.6358229175
 20
8.3874580214
 30
0.0
 10
-21.6349775728
 20
8.1860631346
 30
0.0
 10
-21.6350935464
 20
8.0077838724
 30
0.0
 10
-21.6381509266
 20
7.8540437811
 30
0.0
 10
-21.6400540767
 20
7.7598573892
 30
0.0
 10
-21.6400540864
 20
7.7170641942
 30
0.0
 11
-21.6356907076
 21
15.0229318395
 31
0.0
 11
-21.6356907074
 21
14.1461436928
 31
0.0
 11
-21.6356907048
 21
13.1483173695
 31
0.0
 11
-21.6356906767
 21
11.9230685117
 31
0.0
 11
-21.6356903877
 21
10.6171843867
 31
0.0
 11
-21.6356916929
 21
9.9830303908
 31
0.0
 11
-21.6356877356
 21
9.3871127034
 31
0.0
 11
-21.6356996372
 21
8.8474147305
 31
0.0
 11
-21.6358448759
 21
8.6038175481
 31
0.0
 11
-21.6356683721
 21
8.3802197373
 31
0.0
 11
-21.6351182098
 21
8.1783402887
 31
0.0
 11
-21.6357138862
 21
7.9996226834
 31
0.0
 11
-21.6383311443
 21
7.845432217
 31
0.0
 11
-21.6400540864
 21
7.7170641942
 31
0.0
  0
SPLINE
  5
533
100
AcDbEntity
  8
RACCORDO
100
AcDbSpline
 62
253
  6
CONTINUOUS
 70
0
 71
3
 72
8
 73
4
 74
2
 42
0.0000001
 43
0.0000001
 44
0.0000000001
 12
10.5127365824
 22
0.1285482341
 32
0.0
 13
10.5126887303
 23
0.1324037745
 33
0.0
 40
0.0
 40
0.0
 40
0.0
 40
0.0
 40
1.0
 40
1.0
 40
1.0
 40
1.0
 10
-32.1527672379
 20
7.5866138416
 30
0.0
 10
-28.6485217104
 20
7.629463253
 30
0.0
 10
-25.1442836632
 20
7.6729296027
 30
0.0
 10
-21.6400540864
 20
7.7170641942
 30
0.0
 11
-32.1527672379
 21
7.5866138416
 31
0.0
 11
-21.6400540864
 21
7.7170641942
 31
0.0
  0
SPLINE
  5
534
100
AcDbEntity
  8
RACCORDO
100
AcDbSpline
 62
7
  6
CONTINUOUS
 70
0
 71
3
 72
9
 73
5
 74
3
 42
0.0000001
 43
0.0000001
 44
0.0000000001
 12
2.5072773434
 22
-0.435212538
 32
0.0
 13
2.5076436828
 23
-0.4330967442
 33
0.0
 40
0.0
 40
0.0
 40
0.0
 40
0.0
 40
0.4940724282
 40
1.0
 40
1.0
 40
1.0
 40
1.0
 10
-32.1527672378
 20
7.5866138396
 30
0.0
 10
-31.7398417027
 20
7.5149383344
 30
0.0
 10
-30.9039406241
 20
7.3706866346
 30
0.0
 10
-30.0680652446
 20
7.22628755
 30
0.0
 10
-29.6451698849
 20
7.153249022
 30
0.0
 11
-32.1527672378
 21
7.5866138396
 31
0.0
 11
-30.9138566247
 21
7.3723607814
 31
0.0
 11
-29.6451698849
 21
7.153249022
 31
0.0
  0
SPLINE
  5
535
100
AcDbEntity
  8
RACCORDO
100
AcDbSpline
 62
253
  6
CONTINUOUS
 70
0
 71
3
 72
8
 73
4
 74
2
 42
0.0000001
 43
0.0000001
 44
0.0000000001
 12
8.0007662428
 22
0.0945314737
 32
0.0
 13
8.0007392266
 23
0.0967910082
 33
0.0
 40
0.0
 40
0.0
 40
0.0
 40
0.0
 40
1.0
 40
1.0
 40
1.0
 40
1.0
 10
-29.6451698849
 20
7.153249022
 30
0.0
 10
-26.9782478039
 20
7.1847595132
 30
0.0
 10
-24.3113299864
 20
7.2166332503
 30
0.0
 10
-21.6444169108
 20
7.2488969197
 30
0.0
 11
-29.6451698849
 21
7.153249022
 31
0.0
 11
-21.6444169108
 21
7.2488969197
 31
0.0
  0
SPLINE
  5
536
100
AcDbEntity
  8
RACCORDO
100
AcDbSpline
 62
7
  6
CONTINUOUS
 70
0
 71
3
 72
9
 73
5
 74
3
 42
0.0000001
 43
0.0000001
 44
0.0000000001
 12
-0.176347455
 22
0.0306103446
 32
0.0
 13
-0.1738121297
 23
0.0427172288
 33
0.0
 40
0.0
 40
0.0
 40
0.0
 40
0.0
 40
0.2544961856
 40
1.0
 40
1.0
 40
1.0
 40
1.0
 10
-32.1527672379
 20
7.5866138416
 30
0.0
 10
-32.1677271561
 20
7.5892105803
 30
0.0
 10
-32.226438149
 20
7.5998083841
 30
0.0
 10
-32.2848615573
 20
7.6121020286
 30
0.0
 10
-32.3280540925
 20
7.6227173142
 30
0.0
 11
-32.1527672379
 21
7.5866138416
 31
0.0
 11
-32.1975919772
 21
7.5947146183
 31
0.0
 11
-32.3280540925
 21
7.6227173142
 31
0.0
  0
SPLINE
  5
537
100
AcDbEntity
  8
RACCORDO
100
AcDbSpline
 62
253
  6
CONTINUOUS
 70
0
 71
3
 72
8
 73
4
 74
2
 42
0.0000001
 43
0.0000001
 44
0.0000000001
 12
-3.7500958285
 22
1.3841719502
 32
0.0
 13
-3.7520780914
 23
1.3787895804
 33
0.0
 40
0.0
 40
0.0
 40
0.0
 40
0.0
 40
1.0
 40
1.0
 40
1.0
 40
1.0
 10
-28.5768797832
 20
6.2414707713
 30
0.0
 10
-29.8269117261
 20
6.7028614213
 30
0.0
 10
-31.0773613953
 20
7.1631207874
 30
0.0
 10
-32.3280540925
 20
7.6227173142
 30
0.0
 11
-28.5768797832
 21
6.2414707713
 31
0.0
 11
-32.3280540925
 21
7.6227173142
 31
0.0
  0
SPLINE
  5
538
100
AcDbEntity
  8
RACCORDO
100
AcDbSpline
 62
7
  6
CONTINUOUS
 70
0
 71
3
 72
11
 73
7
 74
5
 42
0.0000001
 43
0.0000001
 44
0.0000000001
 12
0.0555751903
 22
0.4889113533
 32
0.0
 13
0.0900703676
 23
0.4837460512
 33
0.0
 40
0.0
 40
0.0
 40
0.0
 40
0.0
 40
0.1346746679
 40
0.3650249294
 40
0.6644488261
 40
1.0
 40
1.0
 40
1.0
 40
1.0
 10
-28.5768261439
 20
6.2424167738
 30
0.0
 10
-28.5743312872
 20
6.2643647652
 30
0.0
 10
-28.5648664053
 20
6.3235126594
 30
0.0
 10
-28.5469319292
 20
6.4309928429
 30
0.0
 10
-28.522061797
 20
6.5707371135
 30
0.0
 10
-28.5032954713
 20
6.6731792691
 30
0.0
 10
-28.4932210654
 20
6.7272864542
 30
0.0
 11
-28.5768261439
 21
6.2424167738
 31
0.0
 11
-28.567294444
 21
6.3079956913
 31
0.0
 11
-28.548621126
 21
6.4197930522
 31
0.0
 11
-28.5229852422
 21
6.5648800997
 31
0.0
 11
-28.4932210654
 21
6.7272864542
 31
0.0
  0
LINE
  5
539
100
AcDbEntity
  8
RACCORDO
100
AcDbLine
 62
253
  6
CONTINUOUS
 10
-28.4932212223
 20
6.7272865123
 11
-29.6451698849
 21
7.153249022
  0
SPLINE
  5
53A
100
AcDbEntity
  8
RACCORDO
100
AcDbSpline
 62
253
  6
CONTINUOUS
 70
0
 71
3
 72
8
 73
4
 74
2
 42
0.0000001
 43
0.0000001
 44
0.0000000001
 12
6.3575384316
 22
0.0874271675
 32
0.0
 13
6.3575223932
 23
0.0885857773
 33
0.0
 40
0.0
 40
0.0
 40
0.0
 40
0.0
 40
1.0
 40
1.0
 40
1.0
 40
1.0
 10
-28.4932212223
 20
-6.7272865123
 30
0.0
 10
-26.374041745
 20
-6.6981441231
 30
0.0
 10
-24.2548648617
 20
-6.6688124453
 30
0.0
 10
-22.1356907307
 20
-6.6392838529
 30
0.0
 11
-28.4932212223
 21
-6.7272865123
 31
0.0
 11
-22.1356907307
 21
-6.6392838529
 31
0.0
  0
SPLINE
  5
53B
100
AcDbEntity
  8
RACCORDO
100
AcDbSpline
 62
253
  6
CONTINUOUS
 70
0
 71
3
 72
8
 73
4
 74
2
 42
0.0000001
 43
0.0000001
 44
0.0000000001
 12
6.4411434583
 22
0.0900600007
 32
0.0
 13
6.4411272646
 23
0.091210834
 33
0.0
 40
0.0
 40
0.0
 40
0.0
 40
0.0
 40
1.0
 40
1.0
 40
1.0
 40
1.0
 10
-28.5768261443
 20
-6.2424167738
 30
0.0
 10
-26.4297783248
 20
-6.2123967736
 30
0.0
 10
-24.2827331291
 20
-6.1821884868
 30
0.0
 10
-22.1356907076
 20
-6.1517848755
 30
0.0
 11
-28.5768261443
 21
-6.2424167738
 31
0.0
 11
-22.1356907076
 21
-6.1517848755
 31
0.0
  0
LINE
  5
53C
100
AcDbEntity
  8
RACCORDO
100
AcDbLine
 62
253
  6
CONTINUOUS
 10
-29.6451698856
 20
-7.153249022
 11
-28.4932212223
 21
-6.7272865123
  0
SPLINE
  5
53D
100
AcDbEntity
  8
RACCORDO
100
AcDbSpline
 62
7
  6
CONTINUOUS
 70
0
 71
3
 72
9
 73
5
 74
3
 42
0.0000001
 43
0.0000001
 44
0.0000000001
 12
-0.1763474548
 22
-0.0306103446
 32
0.0
 13
-0.1738121295
 23
-0.0427172288
 33
0.0
 40
0.0
 40
0.0
 40
0.0
 40
0.0
 40
0.2544961856
 40
1.0
 40
1.0
 40
1.0
 40
1.0
 10
-32.1527672378
 20
-7.5866138416
 30
0.0
 10
-32.167727156
 20
-7.5892105803
 30
0.0
 10
-32.2264381489
 20
-7.5998083841
 30
0.0
 10
-32.2848615571
 20
-7.6121020285
 30
0.0
 10
-32.3280540923
 20
-7.6227173142
 30
0.0
 11
-32.1527672378
 21
-7.5866138416
 31
0.0
 11
-32.1975919771
 21
-7.5947146183
 31
0.0
 11
-32.3280540923
 21
-7.6227173142
 31
0.0
  0
SPLINE
  5
53E
100
AcDbEntity
  8
RACCORDO
100
AcDbSpline
 62
253
  6
CONTINUOUS
 70
0
 71
3
 72
8
 73
4
 74
2
 42
0.0000001
 43
0.0000001
 44
0.0000000001
 12
3.7520780911
 22
1.3787895806
 32
0.0
 13
3.7500958292
 23
1.384171948
 33
0.0
 40
0.0
 40
0.0
 40
0.0
 40
0.0
 40
1.0
 40
1.0
 40
1.0
 40
1.0
 10
-32.3280540923
 20
-7.6227173142
 30
0.0
 10
-31.0773613953
 20
-7.1631207873
 30
0.0
 10
-29.8269117263
 20
-6.7028614206
 30
0.0
 10
-28.5768797832
 20
-6.2414707713
 30
0.0
 11
-32.3280540923
 21
-7.6227173142
 31
0.0
 11
-28.5768797832
 21
-6.2414707713
 31
0.0
  0
SPLINE
  5
53F
100
AcDbEntity
  8
RACCORDO
100
AcDbSpline
 62
7
  6
CONTINUOUS
 70
0
 71
3
 72
11
 73
7
 74
5
 42
0.0000001
 43
0.0000001
 44
0.0000000001
 12
0.0555751901
 22
-0.4889113535
 32
0.0
 13
0.0900703672
 23
-0.4837460515
 33
0.0
 40
0.0
 40
0.0
 40
0.0
 40
0.0
 40
0.1346746679
 40
0.3650249294
 40
0.6644488261
 40
1.0
 40
1.0
 40
1.0
 40
1.0
 10
-28.5768261443
 20
-6.2424167738
 30
0.0
 10
-28.5743312875
 20
-6.2643647652
 30
0.0
 10
-28.5648664056
 20
-6.3235126594
 30
0.0
 10
-28.5469319296
 20
-6.430992843
 30
0.0
 10
-28.5220617968
 20
-6.5707371136
 30
0.0
 10
-28.5032954719
 20
-6.6731792693
 30
0.0
 10
-28.4932210661
 20
-6.7272864544
 30
0.0
 11
-28.5768261443
 21
-6.2424167738
 31
0.0
 11
-28.5672944444
 21
-6.3079956913
 31
0.0
 11
-28.5486211263
 21
-6.4197930523
 31
0.0
 11
-28.5229852423
 21
-6.5648800998
 31
0.0
 11
-28.4932210661
 21
-6.7272864544
 31
0.0
  0
SPLINE
  5
540
100
AcDbEntity
  8
RACCORDO
100
AcDbSpline
 62
253
  6
CONTINUOUS
 70
0
 71
3
 72
8
 73
4
 74
2
 42
0.0000001
 43
0.0000001
 44
0.0000000001
 12
-8.0007392274
 22
0.0967910082
 32
0.0
 13
-8.0007662435
 23
0.0945314737
 33
0.0
 40
0.0
 40
0.0
 40
0.0
 40
0.0
 40
1.0
 40
1.0
 40
1.0
 40
1.0
 10
-21.6444169108
 20
-7.2488969197
 30
0.0
 10
-24.3113299866
 20
-7.2166332503
 30
0.0
 10
-26.9782478044
 20
-7.1847595132
 30
0.0
 10
-29.6451698856
 20
-7.153249022
 30
0.0
 11
-21.6444169108
 21
-7.2488969197
 31
0.0
 11
-29.6451698856
 21
-7.153249022
 31
0.0
  0
SPLINE
  5
541
100
AcDbEntity
  8
RACCORDO
100
AcDbSpline
 62
253
  6
CONTINUOUS
 70
0
 71
3
 72
8
 73
4
 74
2
 42
0.0000001
 43
0.0000001
 44
0.0000000001
 12
-10.5083259132
 22
0.1323480462
 32
0.0
 13
-10.5083737357
 23
0.1284948858
 33
0.0
 40
0.0
 40
0.0
 40
0.0
 40
0.0
 40
1.0
 40
1.0
 40
1.0
 40
1.0
 10
-21.6444169108
 20
-7.7170090432
 30
0.0
 10
-25.1471922152
 20
-7.6728930278
 30
0.0
 10
-28.6499759926
 20
-7.6294454702
 30
0.0
 10
-32.1527672378
 20
-7.5866138416
 30
0.0
 11
-21.6444169108
 21
-7.7170090432
 31
0.0
 11
-32.1527672378
 21
-7.5866138416
 31
0.0
  0
SPLINE
  5
542
100
AcDbEntity
  8
RACCORDO
100
AcDbSpline
 62
7
  6
CONTINUOUS
 70
0
 71
3
 72
9
 73
5
 74
3
 42
0.0000001
 43
0.0000001
 44
0.0000000001
 12
2.5072773426
 22
0.4352125379
 32
0.0
 13
2.507643682
 23
0.4330967448
 33
0.0
 40
0.0
 40
0.0
 40
0.0
 40
0.0
 40
0.4940724282
 40
1.0
 40
1.0
 40
1.0
 40
1.0
 10
-32.1527672378
 20
-7.5866138396
 30
0.0
 10
-31.7398417028
 20
-7.5149383344
 30
0.0
 10
-30.9039406244
 20
-7.3706866347
 30
0.0
 10
-30.0680652452
 20
-7.2262875501
 30
0.0
 10
-29.6451698856
 20
-7.153249022
 30
0.0
 11
-32.1527672378
 21
-7.5866138396
 31
0.0
 11
-30.913856625
 21
-7.3723607815
 31
0.0
 11
-29.6451698856
 21
-7.153249022
 31
0.0
  0
SPLINE
  5
543
100
AcDbEntity
  8
RACCORDO
100
AcDbSpline
 62
253
  6
CONTINUOUS
 70
0
 71
3
 72
8
 73
4
 74
2
 42
0.0000001
 43
0.0000001
 44
0.0000000001
 12
-6.4411272643
 22
0.091210834
 32
0.0
 13
-6.441143458
 23
0.0900600007
 33
0.0
 40
0.0
 40
0.0
 40
0.0
 40
0.0
 40
1.0
 40
1.0
 40
1.0
 40
1.0
 10
-22.1356907076
 20
6.1517848755
 30
0.0
 10
-24.282733129
 20
6.1821884868
 30
0.0
 10
-26.4297783246
 20
6.2123967736
 30
0.0
 10
-28.5768261439
 20
6.2424167738
 30
0.0
 11
-22.1356907076
 21
6.1517848755
 31
0.0
 11
-28.5768261439
 21
6.2424167738
 31
0.0
  0
SPLINE
  5
544
100
AcDbEntity
  8
RACCORDO
100
AcDbSpline
 62
253
  6
CONTINUOUS
 70
0
 71
3
 72
8
 73
4
 74
2
 42
0.0000001
 43
0.0000001
 44
0.0000000001
 12
-6.3575223932
 22
0.0885857773
 32
0.0
 13
-6.3575384316
 23
0.0874271675
 33
0.0
 40
0.0
 40
0.0
 40
0.0
 40
0.0
 40
1.0
 40
1.0
 40
1.0
 40
1.0
 10
-22.1356907307
 20
6.6392838529
 30
0.0
 10
-24.2548648617
 20
6.6688124453
 30
0.0
 10
-26.374041745
 20
6.6981441231
 30
0.0
 10
-28.4932212223
 20
6.7272865123
 30
0.0
 11
-22.1356907307
 21
6.6392838529
 31
0.0
 11
-28.4932212223
 21
6.7272865123
 31
0.0
  0
LINE
  5
545
100
AcDbEntity
  8
ASSI
100
AcDbLine
 62
253
  6
CONTINUOUS
 10
-30.344416917
 20
-23.6495955842
 11
-30.7233563306
 21
-23.6519220988
  0
LINE
  5
546
100
AcDbEntity
  8
ASSI
100
AcDbLine
 62
7
  6
CONTINUOUS
 10
-37.6721671955
 20
-22.3304155561
 11
-37.5987800124
 21
-22.3341525772
  0
LINE
  5
547
100
AcDbEntity
  8
ASSI
100
AcDbLine
 62
7
  6
CONTINUOUS
 10
-37.5987800124
 20
22.3341525772
 11
-37.6721671955
 21
22.3304155561
  0
SPLINE
  5
548
100
AcDbEntity
  8
ASSI
100
AcDbSpline
 62
7
  6
CONTINUOUS
 70
0
 71
3
 72
21
 73
17
 74
15
 42
0.0000001
 43
0.0000001
 44
0.0000000001
 12
-0.4993233323
 22
-0.026574891
 32
0.0
 13
0.0
 23
-0.5000300141
 33
0.0
 40
0.0
 40
0.0
 40
0.0
 40
0.0
 40
0.0013706659
 40
0.0050557091
 40
0.0111101809
 40
0.0195275933
 40
0.0433925914
 40
0.0764939753
 40
0.1184819239
 40
0.1689260801
 40
0.2273866984
 40
0.2932927234
 40
0.4447336277
 40
0.6175244721
 40
0.805214679
 40
1.0
 40
1.0
 40
1.0
 40
1.0
 10
-36.3444196118
 20
22.3999998542
 30
0.0
 10
-36.3446477469
 20
22.3999877125
 30
0.0
 10
-36.3447586477
 20
22.3987963099
 30
0.0
 10
-36.3450576667
 20
22.3972905791
 30
0.0
 10
-36.3452219312
 20
22.394086348
 30
0.0
 10
-36.345535436
 20
22.3878134771
 30
0.0
 10
-36.345763217
 20
22.376835704
 30
0.0
 10
-36.3459680161
 20
22.3603825154
 30
0.0
 10
-36.3460690878
 20
22.339444165
 30
0.0
 10
-36.3460950672
 20
22.3142991413
 30
0.0
 10
-36.3460442687
 20
22.2851605164
 30
0.0
 10
-36.3458790617
 20
22.2391908303
 30
0.0
 10
-36.3454992041
 20
22.1741646027
 30
0.0
 10
-36.3449071143
 20
22.0888413619
 30
0.0
 10
-36.3445005476
 20
21.9962921078
 30
0.0
 10
-36.3444169108
 20
21.9325423214
 30
0.0
 10
-36.3444169108
 20
21.9000761524
 30
0.0
 11
-36.3444196118
 21
22.3999998542
 31
0.0
 11
-36.34470973
 21
22.3993789122
 31
0.0
 11
-36.3449689845
 21
22.3975546094
 31
0.0
 11
-36.3451983519
 21
22.3945358931
 31
0.0
 11
-36.3453988094
 21
22.3903317105
 31
0.0
 11
-36.3457169016
 21
22.3784027355
 31
0.0
 11
-36.3459311727
 21
22.361852437
 31
0.0
 11
-36.3460502066
 21
22.3408575399
 31
0.0
 11
-36.3460828743
 21
22.315633969
 31
0.0
 11
-36.3460379572
 21
22.2864019397
 31
0.0
 11
-36.3459228092
 21
22.2534471502
 31
0.0
 11
-36.3455070505
 21
22.177723294
 31
0.0
 11
-36.3449594977
 21
22.0913244207
 31
0.0
 11
-36.3445530408
 21
21.9974745641
 31
0.0
 11
-36.3444169108
 21
21.9000761524
 31
0.0
  0
SPLINE
  5
549
100
AcDbEntity
  8
RACCORDO
100
AcDbSpline
 62
253
  6
CONTINUOUS
 70
0
 71
3
 72
21
 73
17
 74
15
 42
0.0000001
 43
0.0000001
 44
0.0000000001
 12
0.2949386986
 22
0.0525914688
 32
0.0
 13
-0.0525875873
 23
0.2949393907
 33
0.0
 40
0.0
 40
0.0
 40
0.0
 40
0.0
 40
0.0012855289
 40
0.004940004
 40
0.0109773567
 40
0.0193803787
 40
0.0431989806
 40
0.0762207899
 40
0.1182066459
 40
0.1686771282
 40
0.2270925766
 40
0.2929131345
 40
0.4443369213
 40
0.6172645958
 40
0.8052636743
 40
1.0
 40
1.0
 40
1.0
 40
1.0
 10
-25.7566447666
 20
19.7137630019
 30
0.0
 10
-25.7565183825
 20
19.7137855379
 30
0.0
 10
-25.7566693347
 20
19.7145174825
 30
0.0
 10
-25.7566104844
 20
19.7153884096
 30
0.0
 10
-25.7568925134
 20
19.717308393
 30
0.0
 10
-25.7573351647
 20
19.7210228018
 30
0.0
 10
-25.758310932
 20
19.7275254092
 30
0.0
 10
-25.7597993614
 20
19.7372528091
 30
0.0
 10
-25.7617873506
 20
19.7496359997
 30
0.0
 10
-25.764220537
 20
19.7645009068
 30
0.0
 10
-25.7670872117
 20
19.7817119372
 30
0.0
 10
-25.771664605
 20
19.8088565718
 30
0.0
 10
-25.7782427074
 20
19.8472616492
 30
0.0
 10
-25.7869972864
 20
19.8976722116
 30
0.0
 10
-25.7965993007
 20
19.9523257366
 30
0.0
 10
-25.8032765213
 20
19.9899593246
 30
0.0
 10
-25.8066900925
 20
20.0091044624
 30
0.0
 11
-25.7566447666
 21
19.7137630019
 31
0.0
 11
-25.7565849308
 21
19.7141434581
 31
0.0
 11
-25.756652124
 21
19.7152362417
 31
0.0
 11
-25.756845504
 21
19.7170346103
 31
0.0
 11
-25.7571642284
 21
19.7195318215
 31
0.0
 11
-25.7581743415
 21
19.7265958025
 31
0.0
 11
-25.7596757253
 21
19.7363742456
 31
0.0
 11
-25.7616583447
 21
19.7487955937
 31
0.0
 11
-25.7640989783
 21
19.7637178162
 31
0.0
 11
-25.7669711078
 21
19.7809812639
 31
0.0
 11
-25.7702482146
 21
19.8004262881
 31
0.0
 11
-25.777896252
 21
19.8451421428
 31
0.0
 11
-25.7867557666
 21
19.8961865525
 31
0.0
 11
-25.796498187
 21
19.9516603681
 31
0.0
 11
-25.8066900925
 21
20.0091044624
 31
0.0
  0
LINE
  5
54A
100
AcDbEntity
  8
ASSI
100
AcDbLine
 62
253
  6
CONTINUOUS
 10
-44.6492333762
 20
20.8772674193
 11
-44.9995909312
 21
20.8701690322
  0
SPLINE
  5
54B
100
AcDbEntity
  8
ASSI
100
AcDbSpline
 62
7
  6
CONTINUOUS
 70
0
 71
3
 72
21
 73
17
 74
15
 42
0.0000001
 43
0.0000001
 44
0.0000000001
 12
-0.4993991576
 22
0.0265778679
 32
0.0
 13
0.0
 23
0.5001058905
 33
0.0
 40
0.0
 40
0.0
 40
0.0
 40
0.0
 40
0.0013704397
 40
0.0050554296
 40
0.0111099771
 40
0.0195275861
 40
0.0433933362
 40
0.0764959336
 40
0.1184854348
 40
0.1689313225
 40
0.227393711
 40
0.2933013958
 40
0.4447444245
 40
0.6175349462
 40
0.8052222556
 40
1.0
 40
1.0
 40
1.0
 40
1.0
 10
-36.3444233083
 20
-22.3999996605
 30
0.0
 10
-36.3446514405
 20
-22.3999875194
 30
0.0
 10
-36.3447618603
 20
-22.3987957602
 30
0.0
 10
-36.3450605832
 20
-22.3972899465
 30
0.0
 10
-36.3452240927
 20
-22.3940850454
 30
0.0
 10
-36.3455365716
 20
-22.3878110658
 30
0.0
 10
-36.3457631626
 20
-22.3768311993
 30
0.0
 10
-36.3459675328
 20
-22.3603749461
 30
0.0
 10
-36.3460686929
 20
-22.3394326613
 30
0.0
 10
-36.3460949933
 20
-22.3142829826
 30
0.0
 10
-36.3460443484
 20
-22.2851390742
 30
0.0
 10
-36.3458790441
 20
-22.2391614871
 30
0.0
 10
-36.3454988785
 20
-22.1741248165
 30
0.0
 10
-36.3449067367
 20
-22.0887888109
 30
0.0
 10
-36.3445004155
 20
-21.9962273113
 30
0.0
 10
-36.3444169108
 20
-21.9324695973
 30
0.0
 10
-36.3444169108
 20
-21.8999997649
 30
0.0
 11
-36.3444233083
 21
-22.3999996605
 31
0.0
 11
-36.3447131809
 21
-22.3993786137
 31
0.0
 11
-36.3449719386
 21
-22.397553985
 31
0.0
 11
-36.3452006481
 21
-22.3945347201
 31
0.0
 11
-36.345400376
 21
-22.390329765
 31
0.0
 11
-36.3457171534
 21
-22.3783985673
 31
0.0
 11
-36.3459308014
 21
-22.361845142
 31
0.0
 11
-36.346049833
 21
-22.3408462825
 31
0.0
 11
-36.3460827542
 21
-22.3156180183
 31
0.0
 11
-36.3460379963
 21
-22.2863806678
 31
0.0
 11
-36.345922812
 21
-22.2534200476
 31
0.0
 11
-36.3455067868
 21
-22.1776836395
 31
0.0
 11
-36.3449591629
 21
-22.091271817
 31
0.0
 11
-36.344552894
 21
-21.9974091673
 31
0.0
 11
-36.3444169108
 21
-21.8999997649
 31
0.0
  0
LINE
  5
54C
100
AcDbEntity
  8
RACCORDO
100
AcDbLine
 62
253
  6
CONTINUOUS
 10
-45.4102867934
 20
-9.8808930204
 11
-45.4128562519
 21
-10.0301083877
  0
LINE
  5
54D
100
AcDbEntity
  8
RACCORDO
100
AcDbLine
 62
253
  6
CONTINUOUS
 10
-45.4128562519
 20
-10.0301083877
 11
-45.4151268762
 21
-10.169796939
  0
SPLINE
  5
54E
100
AcDbEntity
  8
ASSI
100
AcDbSpline
 62
7
  6
CONTINUOUS
 70
0
 71
3
 72
9
 73
5
 74
3
 42
0.0000001
 43
0.0000001
 44
0.0000000001
 12
0.0377029166
 22
0.0217677891
 32
0.0
 13
0.0414815064
 23
-0.0132148095
 33
0.0
 40
0.0
 40
0.0
 40
0.0
 40
0.0
 40
0.369800498
 40
1.0
 40
1.0
 40
1.0
 40
1.0
 10
-37.8398689807
 20
-23.1200239821
 30
0.0
 10
-37.8352214616
 20
-23.1173407357
 30
0.0
 10
-37.8193883283
 20
-23.1185653882
 30
0.0
 10
-37.8059046778
 20
-23.1223786119
 30
0.0
 10
-37.7971908029
 20
-23.1251546007
 30
0.0
 11
-37.8398689807
 21
-23.1200239821
 31
0.0
 11
-37.8238325579
 21
-23.1186004833
 31
0.0
 11
-37.7971908029
 21
-23.1251546007
 31
0.0
  0
SPLINE
  5
54F
100
AcDbEntity
  8
ASSI
100
AcDbSpline
 62
7
  6
CONTINUOUS
 70
0
 71
3
 72
10
 73
6
 74
4
 42
0.0000001
 43
0.0000001
 44
0.0000000001
 12
0.2055954061
 22
-0.0654967566
 32
0.0
 13
0.1963599065
 23
-0.089454364
 33
0.0
 40
0.0
 40
0.0
 40
0.0
 40
0.0
 40
0.200667233
 40
0.4445488469
 40
1.0
 40
1.0
 40
1.0
 40
1.0
 10
-37.7971908029
 20
-23.1251546007
 30
0.0
 10
-37.7834387158
 20
-23.1295356184
 30
0.0
 10
-37.7535405125
 20
-23.1409689543
 30
0.0
 10
-37.6873882096
 20
-23.1691870618
 30
0.0
 10
-37.6351361246
 20
-23.1931935689
 30
0.0
 10
-37.5987800124
 20
-23.2097560788
 30
0.0
 11
-37.7971908029
 21
-23.1251546007
 31
0.0
 11
-37.7565467995
 21
-23.1400838981
 31
0.0
 11
-37.708057491
 21
-23.1605302185
 31
0.0
 11
-37.5987800124
 21
-23.2097560788
 31
0.0
  0
SPLINE
  5
550
100
AcDbEntity
  8
ASSI
100
AcDbSpline
 62
253
  6
CONTINUOUS
 70
0
 71
3
 72
18
 73
14
 74
12
 42
0.0000001
 43
0.0000001
 44
0.0000000001
 12
-0.0991491721
 22
0.1717840403
 32
0.0
 13
0.1717708825
 23
0.0991719656
 33
0.0
 40
0.0
 40
0.0
 40
0.0
 40
0.0
 40
0.1950654949
 40
0.383170511
 40
0.5560503577
 40
0.7073357298
 40
0.8314027365
 40
0.881794034
 40
0.9237131809
 40
0.9566878817
 40
0.9804856149
 40
0.9949442671
 40
1.0
 40
1.0
 40
1.0
 40
1.0
 10
-38.6229073921
 20
-23.8010362971
 30
0.0
 10
-38.6293542529
 20
-23.7898665842
 30
0.0
 10
-38.6419856606
 20
-23.7679068778
 30
0.0
 10
-38.6602206091
 20
-23.7359857315
 30
0.0
 10
-38.6769216334
 20
-23.7065184118
 30
0.0
 10
-38.6914192285
 20
-23.6806802121
 30
0.0
 10
-38.7018722952
 20
-23.6618302733
 30
0.0
 10
-38.708688786
 20
-23.6492846594
 30
0.0
 10
-38.7126599737
 20
-23.6419465812
 30
0.0
 10
-38.7155408023
 20
-23.6362675521
 30
0.0
 10
-38.7179991474
 20
-23.6318305764
 30
0.0
 10
-38.7186058371
 20
-23.6296479151
 30
0.0
 10
-38.7197063911
 20
-23.6279983479
 30
0.0
 10
-38.7194169152
 20
-23.6278312189
 30
0.0
 11
-38.6229073921
 21
-23.8010362971
 31
0.0
 11
-38.6421980557
 21
-23.767498396
 31
0.0
 11
-38.6607011066
 21
-23.7351003247
 31
0.0
 11
-38.6776018649
 21
-23.7052650148
 31
0.0
 11
-38.6922784581
 21
-23.6790927054
 31
0.0
 11
-38.7041847397
 21
-23.6575568966
 31
0.0
 11
-38.7089610303
 21
-23.6487771908
 31
0.0
 11
-38.712884667
 21
-23.6414468114
 31
0.0
 11
-38.7159106099
 21
-23.6356485695
 31
0.0
 11
-38.7180179144
 21
-23.6314249512
 31
0.0
 11
-38.7191916572
 21
-23.6288083649
 31
0.0
 11
-38.7194169152
 21
-23.6278312189
 31
0.0
  0
SPLINE
  5
551
100
AcDbEntity
  8
ASSI
100
AcDbSpline
 62
253
  6
CONTINUOUS
 70
0
 71
3
 72
18
 73
14
 74
12
 42
0.0000001
 43
0.0000001
 44
0.0000000001
 12
-0.0034904189
 22
-0.2000268907
 32
0.0
 13
0.2000268721
 23
-0.003491482
 33
0.0
 40
0.0
 40
0.0
 40
0.0
 40
0.0
 40
0.1945885329
 40
0.3824831386
 40
0.5553439222
 40
0.7067332262
 40
0.8309633503
 40
0.8814416816
 40
0.9234433374
 40
0.9564910536
 40
0.9803510952
 40
0.9948644169
 40
1.0
 40
1.0
 40
1.0
 40
1.0
 10
-38.5987800124
 20
-24.2606804067
 30
0.0
 10
-38.5990064109
 20
-24.2736547197
 30
0.0
 10
-38.5994076908
 20
-24.2991579774
 30
0.0
 10
-38.5998628185
 20
-24.3361880806
 30
0.0
 10
-38.6001484379
 20
-24.3703420833
 30
0.0
 10
-38.6002516392
 20
-24.4002422593
 30
0.0
 10
-38.6001979573
 20
-24.4220056783
 30
0.0
 10
-38.6000259032
 20
-24.4364291036
 30
0.0
 10
-38.5998969589
 20
-24.4448578411
 30
0.0
 10
-38.5996344224
 20
-24.4512957132
 30
0.0
 10
-38.5995625422
 20
-24.4564101056
 30
0.0
 10
-38.5990461459
 20
-24.45866438
 30
0.0
 10
-38.5991224306
 20
-24.4606439688
 30
0.0
 10
-38.5987800124
 20
-24.4606499457
 30
0.0
 11
-38.5987800124
 21
-24.2606804067
 31
0.0
 11
-38.5993919838
 21
-24.2996044608
 31
0.0
 11
-38.5998495141
 21
-24.3371913716
 31
0.0
 11
-38.6001302247
 21
-24.3717723012
 31
0.0
 11
-38.6002250655
 21
-24.4020586944
 31
0.0
 11
-38.6001302247
 21
-24.4269116619
 31
0.0
 11
-38.6000127458
 21
-24.4370095393
 31
0.0
 11
-38.5998495141
 21
-24.4454106933
 31
0.0
 11
-38.599641661
 21
-24.4520188634
 31
0.0
 11
-38.5993919837
 21
-24.4567857056
 31
0.0
 11
-38.5991036963
 21
-24.4596748548
 31
0.0
 11
-38.5987800124
 21
-24.4606499457
 31
0.0
  0
SPLINE
  5
552
100
AcDbEntity
  8
ASSI
100
AcDbSpline
 62
253
  6
CONTINUOUS
 70
0
 71
3
 72
18
 73
14
 74
12
 42
0.0000001
 43
0.0000001
 44
0.0000000001
 12
0.0991493107
 22
0.1717839668
 32
0.0
 13
-0.1717708875
 23
0.0991719681
 33
0.0
 40
0.0
 40
0.0
 40
0.0
 40
0.0
 40
0.1950655224
 40
0.3831706162
 40
0.556050503
 40
0.7073358594
 40
0.8314028148
 40
0.8817940807
 40
0.9237132098
 40
0.9566878994
 40
0.9804856167
 40
0.9949442576
 40
1.0
 40
1.0
 40
1.0
 40
1.0
 10
-35.5659264295
 20
-23.8010362971
 30
0.0
 10
-35.5594795588
 20
-23.7898665874
 30
0.0
 10
-35.5468481324
 20
-23.7679068829
 30
0.0
 10
-35.528613163
 20
-23.7359857363
 30
0.0
 10
-35.5119121268
 20
-23.7065184146
 30
0.0
 10
-35.4974145309
 20
-23.6806802162
 30
0.0
 10
-35.4869614729
 20
-23.6618302795
 30
0.0
 10
-35.4801449922
 20
-23.649284667
 30
0.0
 10
-35.4761738141
 20
-23.6419465886
 30
0.0
 10
-35.4732929895
 20
-23.6362675588
 30
0.0
 10
-35.4708346624
 20
-23.6318305804
 30
0.0
 10
-35.4702279641
 20
-23.6296479184
 30
0.0
 10
-35.4691274344
 20
-23.6279983457
 30
0.0
 10
-35.4694169108
 20
-23.6278312163
 30
0.0
 11
-35.5659264295
 21
-23.8010362971
 31
0.0
 11
-35.5466357398
 21
-23.7674984035
 31
0.0
 11
-35.5281326651
 21
-23.7351003269
 31
0.0
 11
-35.5112318943
 21
-23.7052650137
 31
0.0
 11
-35.4965553018
 21
-23.6790927066
 31
0.0
 11
-35.4846490316
 21
-23.6575569023
 31
0.0
 11
-35.4798727494
 21
-23.6487771987
 31
0.0
 11
-35.4759491208
 21
-23.6414468188
 31
0.0
 11
-35.472923186
 21
-23.6356485749
 31
0.0
 11
-35.4708158911
 21
-23.6314249553
 31
0.0
 11
-35.4696421585
 21
-23.6288083667
 31
0.0
 11
-35.4694169108
 21
-23.6278312163
 31
0.0
  0
SPLINE
  5
553
100
AcDbEntity
  8
ASSI
100
AcDbSpline
 62
253
  6
CONTINUOUS
 70
0
 71
3
 72
18
 73
14
 74
12
 42
0.0000001
 43
0.0000001
 44
0.0000000001
 12
0.0034904184
 22
-0.2000268907
 32
0.0
 13
-0.2000268721
 23
-0.003491482
 33
0.0
 40
0.0
 40
0.0
 40
0.0
 40
0.0
 40
0.1945885321
 40
0.3824831358
 40
0.5553439182
 40
0.7067332225
 40
0.8309633479
 40
0.8814416799
 40
0.9234433361
 40
0.9564910527
 40
0.9803510947
 40
0.9948644168
 40
1.0
 40
1.0
 40
1.0
 40
1.0
 10
-35.5900538092
 20
-24.286863004
 30
0.0
 10
-35.5898274107
 20
-24.2998373171
 30
0.0
 10
-35.589426131
 20
-24.3253405746
 30
0.0
 10
-35.5889710033
 20
-24.3623706775
 30
0.0
 10
-35.5886853839
 20
-24.39652468
 30
0.0
 10
-35.5885821826
 20
-24.426424856
 30
0.0
 10
-35.5886358644
 20
-24.4481882751
 30
0.0
 10
-35.5888079185
 20
-24.4626117007
 30
0.0
 10
-35.5889368629
 20
-24.4710404383
 30
0.0
 10
-35.5891993993
 20
-24.4774783104
 30
0.0
 10
-35.5892712795
 20
-24.4825927029
 30
0.0
 10
-35.5897876759
 20
-24.4848469773
 30
0.0
 10
-35.589711391
 20
-24.4868265661
 30
0.0
 10
-35.5900538092
 20
-24.4868325431
 30
0.0
 11
-35.5900538092
 21
-24.286863004
 31
0.0
 11
-35.589441838
 21
-24.3257870581
 31
0.0
 11
-35.5889843076
 21
-24.3633739684
 31
0.0
 11
-35.5887035971
 21
-24.3979548978
 31
0.0
 11
-35.5886087563
 21
-24.4282412911
 31
0.0
 11
-35.5887035971
 21
-24.4530942588
 31
0.0
 11
-35.588821076
 21
-24.4631921363
 31
0.0
 11
-35.5889843076
 21
-24.4715932904
 31
0.0
 11
-35.5891921607
 21
-24.4782014606
 31
0.0
 11
-35.5894418379
 21
-24.4829683029
 31
0.0
 11
-35.5897301254
 21
-24.4858574521
 31
0.0
 11
-35.5900538092
 21
-24.4868325431
 31
0.0
  0
LINE
  5
554
100
AcDbEntity
  8
ASSI
100
AcDbLine
 62
253
  6
CONTINUOUS
 10
-44.9995909312
 20
-20.8701690321
 11
-44.6492333766
 21
-20.8772674139
  0
SPLINE
  5
555
100
AcDbEntity
  8
ASSI
100
AcDbSpline
 62
253
  6
CONTINUOUS
 70
0
 71
3
 72
18
 73
14
 74
12
 42
0.0000001
 43
0.0000001
 44
0.0000000001
 12
0.0991491721
 22
-0.1717840403
 32
0.0
 13
-0.1717708825
 23
-0.0991719656
 33
0.0
 40
0.0
 40
0.0
 40
0.0
 40
0.0
 40
0.1950654949
 40
0.383170511
 40
0.5560503577
 40
0.7073357298
 40
0.8314027365
 40
0.881794034
 40
0.9237131809
 40
0.9566878817
 40
0.9804856149
 40
0.9949442671
 40
1.0
 40
1.0
 40
1.0
 40
1.0
 10
-35.5659264295
 20
23.8010362971
 30
0.0
 10
-35.5594795688
 20
23.7898665842
 30
0.0
 10
-35.546848161
 20
23.7679068778
 30
0.0
 10
-35.5286132125
 20
23.7359857316
 30
0.0
 10
-35.5119121883
 20
23.7065184118
 30
0.0
 10
-35.4974145932
 20
23.6806802121
 30
0.0
 10
-35.4869615264
 20
23.6618302733
 30
0.0
 10
-35.4801450356
 20
23.6492846594
 30
0.0
 10
-35.4761738479
 20
23.6419465812
 30
0.0
 10
-35.4732930194
 20
23.6362675521
 30
0.0
 10
-35.4708346742
 20
23.6318305764
 30
0.0
 10
-35.4702279846
 20
23.6296479151
 30
0.0
 10
-35.4691274305
 20
23.6279983479
 30
0.0
 10
-35.4694169064
 20
23.6278312189
 30
0.0
 11
-35.5659264295
 21
23.8010362971
 31
0.0
 11
-35.5466357659
 21
23.767498396
 31
0.0
 11
-35.5281327151
 21
23.7351003247
 31
0.0
 11
-35.5112319567
 21
23.7052650148
 31
0.0
 11
-35.4965553635
 21
23.6790927054
 31
0.0
 11
-35.4846490819
 21
23.6575568966
 31
0.0
 11
-35.4798727913
 21
23.6487771908
 31
0.0
 11
-35.4759491547
 21
23.6414468114
 31
0.0
 11
-35.4729232117
 21
23.6356485695
 31
0.0
 11
-35.4708159073
 21
23.6314249512
 31
0.0
 11
-35.4696421644
 21
23.6288083649
 31
0.0
 11
-35.4694169064
 21
23.6278312189
 31
0.0
  0
SPLINE
  5
556
100
AcDbEntity
  8
ASSI
100
AcDbSpline
 62
253
  6
CONTINUOUS
 70
0
 71
3
 72
18
 73
14
 74
12
 42
0.0000001
 43
0.0000001
 44
0.0000000001
 12
0.0034904189
 22
0.2000268907
 32
0.0
 13
-0.2000268721
 23
0.003491482
 33
0.0
 40
0.0
 40
0.0
 40
0.0
 40
0.0
 40
0.1945885329
 40
0.3824831386
 40
0.5553439222
 40
0.7067332262
 40
0.8309633503
 40
0.8814416816
 40
0.9234433374
 40
0.9564910536
 40
0.9803510952
 40
0.9948644169
 40
1.0
 40
1.0
 40
1.0
 40
1.0
 10
-35.5900538092
 20
24.2868630041
 30
0.0
 10
-35.5898274107
 20
24.2998373171
 30
0.0
 10
-35.5894261309
 20
24.3253405748
 30
0.0
 10
-35.5889710031
 20
24.362370678
 30
0.0
 10
-35.5886853838
 20
24.3965246807
 30
0.0
 10
-35.5885821824
 20
24.4264248567
 30
0.0
 10
-35.5886358643
 20
24.4481882757
 30
0.0
 10
-35.5888079184
 20
24.462611701
 30
0.0
 10
-35.5889368628
 20
24.4710404385
 30
0.0
 10
-35.5891993992
 20
24.4774783106
 30
0.0
 10
-35.5892712794
 20
24.482592703
 30
0.0
 10
-35.5897876758
 20
24.4848469774
 30
0.0
 10
-35.589711391
 20
24.4868265662
 30
0.0
 10
-35.5900538092
 20
24.4868325431
 30
0.0
 11
-35.5900538092
 21
24.2868630041
 31
0.0
 11
-35.5894418379
 21
24.3257870582
 31
0.0
 11
-35.5889843075
 21
24.363373969
 31
0.0
 11
-35.5887035969
 21
24.3979548986
 31
0.0
 11
-35.5886087561
 21
24.4282412918
 31
0.0
 11
-35.5887035969
 21
24.4530942593
 31
0.0
 11
-35.5888210759
 21
24.4631921367
 31
0.0
 11
-35.5889843075
 21
24.4715932907
 31
0.0
 11
-35.5891921606
 21
24.4782014608
 31
0.0
 11
-35.5894418379
 21
24.482968303
 31
0.0
 11
-35.5897301254
 21
24.4858574521
 31
0.0
 11
-35.5900538092
 21
24.4868325431
 31
0.0
  0
LINE
  5
557
100
AcDbEntity
  8
ASSI
100
AcDbLine
 62
7
  6
CONTINUOUS
 10
-36.3444169108
 20
24.5
 11
-36.3444169108
 21
24.300030461
  0
SPLINE
  5
558
100
AcDbEntity
  8
ASSI
100
AcDbSpline
 62
7
  6
CONTINUOUS
 70
0
 71
3
 72
13
 73
9
 74
7
 42
0.0000001
 43
0.0000001
 44
0.0000000001
 12
-0.236057061
 22
-0.1075389301
 32
0.0
 13
-0.2246456502
 23
0.1296992266
 33
0.0
 40
0.0
 40
0.0
 40
0.0
 40
0.0
 40
0.3374270261
 40
0.6417697501
 40
0.7699116342
 40
0.8750095298
 40
0.9520259061
 40
1.0
 40
1.0
 40
1.0
 40
1.0
 10
-37.5987800124
 20
23.2097560788
 30
0.0
 10
-37.6253306898
 20
23.197660565
 30
0.0
 10
-37.6757929591
 20
23.1746141344
 30
0.0
 10
-37.7367798388
 20
23.1477826212
 30
0.0
 10
-37.7799780191
 20
23.13078289
 30
0.0
 10
-37.8055824393
 20
23.1222276671
 30
0.0
 10
-37.8246787624
 20
23.1178427467
 30
0.0
 10
-37.8362765902
 20
23.1179499145
 30
0.0
 10
-37.8398689807
 20
23.1200239821
 30
0.0
 11
-37.5987800124
 21
23.2097560788
 31
0.0
 11
-37.6784977976
 21
23.173614219
 31
0.0
 11
-37.7509821167
 21
23.1423332433
 31
0.0
 11
-37.7819825447
 21
23.1303391531
 31
0.0
 11
-37.807928354
 21
23.1219699089
 31
0.0
 11
-37.8275539306
 21
23.1182343521
 31
0.0
 11
-37.8398689807
 21
23.1200239821
 31
0.0
  0
SPLINE
  5
559
100
AcDbEntity
  8
ASSI
100
AcDbSpline
 62
253
  6
CONTINUOUS
 70
0
 71
3
 72
18
 73
14
 74
12
 42
0.0000001
 43
0.0000001
 44
0.0000000001
 12
-0.1717708875
 22
0.0991719681
 32
0.0
 13
0.0991493106
 23
0.1717839668
 33
0.0
 40
0.0
 40
0.0
 40
0.0
 40
0.0
 40
0.0050557425
 40
0.0195143836
 40
0.0433121013
 40
0.0762867911
 40
0.1182059205
 40
0.1685971871
 40
0.2926641434
 40
0.4439495
 40
0.616829386
 40
0.8049344782
 40
1.0
 40
1.0
 40
1.0
 40
1.0
 10
-38.7194169108
 20
23.6278312164
 30
0.0
 10
-38.7197063873
 20
23.6279983457
 30
0.0
 10
-38.7186058574
 20
23.6296479184
 30
0.0
 10
-38.7179991592
 20
23.6318305804
 30
0.0
 10
-38.7155408319
 20
23.6362675589
 30
0.0
 10
-38.7126600074
 20
23.6419465887
 30
0.0
 10
-38.7086888292
 20
23.6492846672
 30
0.0
 10
-38.7018723484
 20
23.6618302798
 30
0.0
 10
-38.6914192904
 20
23.6806802166
 30
0.0
 10
-38.6769216945
 20
23.706518415
 30
0.0
 10
-38.6602206584
 20
23.7359857366
 30
0.0
 10
-38.6419856892
 20
23.7679068831
 30
0.0
 10
-38.6293542628
 20
23.7898665874
 30
0.0
 10
-38.6229073921
 20
23.8010362971
 30
0.0
 11
-38.7194169108
 21
23.6278312164
 31
0.0
 11
-38.7191916631
 21
23.6288083667
 31
0.0
 11
-38.7180179305
 21
23.6314249553
 31
0.0
 11
-38.7159106355
 21
23.635648575
 31
0.0
 11
-38.7128847007
 21
23.6414468189
 31
0.0
 11
-38.708961072
 21
23.6487771989
 31
0.0
 11
-38.7041847898
 21
23.6575569026
 31
0.0
 11
-38.6922785195
 21
23.6790927071
 31
0.0
 11
-38.677601927
 21
23.7052650142
 31
0.0
 11
-38.6607011563
 21
23.7351003272
 31
0.0
 11
-38.6421980818
 21
23.7674984036
 31
0.0
 11
-38.6229073921
 21
23.8010362971
 31
0.0
  0
SPLINE
  5
55A
100
AcDbEntity
  8
ASSI
100
AcDbSpline
 62
253
  6
CONTINUOUS
 70
0
 71
3
 72
20
 73
16
 74
14
 42
0.0000001
 43
0.0000001
 44
0.0000000001
 12
-0.0261520065
 22
-0.4993521831
 32
0.0
 13
0.4993512462
 23
-0.0261698899
 33
0.0
 40
0.0
 40
0.0
 40
0.0
 40
0.0
 40
0.1947181026
 40
0.3822854044
 40
0.5549071402
 40
0.7061951091
 40
0.7720385247
 40
0.830443712
 40
0.8808402511
 40
0.9227968418
 40
0.9558954823
 40
0.9798059931
 40
0.9944057637
 40
0.9982407178
 40
1.0
 40
1.0
 40
1.0
 40
1.0
 10
-43.4984138123
 20
-21.5250746743
 30
0.0
 10
-43.5001112353
 20
-21.5574856441
 30
0.0
 10
-43.50328187
 20
-21.6211259383
 30
0.0
 10
-43.5074042296
 20
-21.7135257025
 30
0.0
 10
-43.5107007757
 20
-21.7987150799
 30
0.0
 10
-43.5127500532
 20
-21.8636466436
 30
0.0
 10
-43.5138439533
 20
-21.9095610225
 30
0.0
 10
-43.514356192
 20
-21.9386637962
 30
0.0
 10
-43.5145924027
 20
-21.9637991363
 30
0.0
 10
-43.514566075
 20
-21.9846874946
 30
0.0
 10
-43.5142575645
 20
-22.0012399335
 30
0.0
 10
-43.5137547808
 20
-22.0130314938
 30
0.0
 10
-43.5130109603
 20
-22.020296067
 30
0.0
 10
-43.5123429645
 20
-22.0233588182
 30
0.0
 10
-43.5117861495
 20
-22.0243740949
 30
0.0
 10
-43.5114933162
 20
-22.0243894416
 30
0.0
 11
-43.4984138123
 21
-21.5250746743
 31
0.0
 11
-43.5032553895
 21
-21.6223203891
 31
0.0
 11
-43.5074191694
 21
-21.7160184216
 31
0.0
 11
-43.510729052
 21
-21.8022721121
 31
0.0
 11
-43.5130635612
 21
-21.8778855934
 31
0.0
 11
-43.5138372984
 21
-21.9108006135
 31
0.0
 11
-43.514336848
 21
-21.9400010679
 31
0.0
 11
-43.5145567659
 21
-21.9652002188
 31
0.0
 11
-43.5144960236
 21
-21.9861799588
 31
0.0
 11
-43.5141539024
 21
-22.0027269517
 31
0.0
 11
-43.513532869
 21
-22.0146669406
 31
0.0
 11
-43.5126424957
 21
-22.0219128599
 31
0.0
 11
-43.5120995983
 21
-22.0237520222
 31
0.0
 11
-43.5114933162
 21
-22.0243894416
 31
0.0
  0
SPLINE
  5
55B
100
AcDbEntity
  8
ASSI
100
AcDbSpline
 62
253
  6
CONTINUOUS
 70
0
 71
3
 72
18
 73
14
 74
12
 42
0.0000001
 43
0.0000001
 44
0.0000000001
 12
-0.2000268721
 22
-0.003491482
 32
0.0
 13
0.0034904189
 23
-0.2000268907
 33
0.0
 40
0.0
 40
0.0
 40
0.0
 40
0.0
 40
0.0051355831
 40
0.0196489048
 40
0.0435089464
 40
0.0765566626
 40
0.1185583184
 40
0.1690366497
 40
0.2932667738
 40
0.4446560778
 40
0.6175168614
 40
0.8054114671
 40
1.0
 40
1.0
 40
1.0
 40
1.0
 10
-38.5987800124
 20
24.4606499457
 30
0.0
 10
-38.5991224306
 20
24.4606439688
 30
0.0
 10
-38.5990461459
 20
24.45866438
 30
0.0
 10
-38.5995625422
 20
24.4564101056
 30
0.0
 10
-38.5996344224
 20
24.4512957132
 30
0.0
 10
-38.5998969589
 20
24.4448578411
 30
0.0
 10
-38.6000259033
 20
24.4364291036
 30
0.0
 10
-38.6001979574
 20
24.4220056783
 30
0.0
 10
-38.6002516392
 20
24.4002422593
 30
0.0
 10
-38.6001484379
 20
24.3703420833
 30
0.0
 10
-38.5998628185
 20
24.3361880806
 30
0.0
 10
-38.5994076908
 20
24.2991579774
 30
0.0
 10
-38.5990064109
 20
24.2736547197
 30
0.0
 10
-38.5987800124
 20
24.2606804067
 30
0.0
 11
-38.5987800124
 21
24.4606499457
 31
0.0
 11
-38.5991036963
 21
24.4596748548
 31
0.0
 11
-38.5993919838
 21
24.4567857056
 31
0.0
 11
-38.599641661
 21
24.4520188634
 31
0.0
 11
-38.5998495142
 21
24.4454106933
 31
0.0
 11
-38.6000127458
 21
24.4370095393
 31
0.0
 11
-38.6001302247
 21
24.4269116619
 31
0.0
 11
-38.6002250655
 21
24.4020586944
 31
0.0
 11
-38.6001302247
 21
24.3717723012
 31
0.0
 11
-38.5998495142
 21
24.3371913716
 31
0.0
 11
-38.5993919838
 21
24.2996044608
 31
0.0
 11
-38.5987800124
 21
24.2606804067
 31
0.0
  0
SPLINE
  5
55C
100
AcDbEntity
  8
ASSI
100
AcDbSpline
 62
253
  6
CONTINUOUS
 70
0
 71
3
 72
20
 73
16
 74
14
 42
0.0000001
 43
0.0000001
 44
0.0000000001
 12
-0.0261519982
 22
0.4993521834
 32
0.0
 13
0.4993512461
 23
0.0261698899
 33
0.0
 40
0.0
 40
0.0
 40
0.0
 40
0.0
 40
0.1947180835
 40
0.3822853444
 40
0.5549070707
 40
0.7061950516
 40
0.7720384768
 40
0.8304436687
 40
0.880840218
 40
0.922796821
 40
0.9558954685
 40
0.9798059849
 40
0.9944057611
 40
0.9982407171
 40
1.0
 40
1.0
 40
1.0
 40
1.0
 10
-43.4984137889
 20
21.5250746755
 30
0.0
 10
-43.5001112112
 20
21.5574856422
 30
0.0
 10
-43.5032818447
 20
21.6211259264
 30
0.0
 10
-43.5074042027
 20
21.7135256791
 30
0.0
 10
-43.5107007483
 20
21.7987150501
 30
0.0
 10
-43.5127500258
 20
21.8636466158
 30
0.0
 10
-43.5138439266
 20
21.909560999
 30
0.0
 10
-43.5143561656
 20
21.9386637768
 30
0.0
 10
-43.5145923769
 20
21.9637991214
 30
0.0
 10
-43.5145660499
 20
21.9846874846
 30
0.0
 10
-43.5142575396
 20
22.0012399277
 30
0.0
 10
-43.5137547558
 20
22.0130314909
 30
0.0
 10
-43.5130109353
 20
22.0202960665
 30
0.0
 10
-43.5123429394
 20
22.0233588189
 30
0.0
 10
-43.5117861244
 20
22.0243740962
 30
0.0
 10
-43.511493291
 20
22.024389443
 30
0.0
 11
-43.4984137889
 21
21.5250746755
 31
0.0
 11
-43.5032553643
 21
21.6223203808
 31
0.0
 11
-43.5074191424
 21
21.7160183929
 31
0.0
 11
-43.5107290245
 21
21.8022720787
 31
0.0
 11
-43.513063534
 21
21.877885566
 31
0.0
 11
-43.5138372717
 21
21.9108005909
 31
0.0
 11
-43.5143368217
 21
21.9400010475
 31
0.0
 11
-43.5145567402
 21
21.9652002035
 31
0.0
 11
-43.5144959984
 21
21.9861799497
 31
0.0
 11
-43.5141538775
 21
22.0027269461
 31
0.0
 11
-43.513532844
 21
22.0146669377
 31
0.0
 11
-43.5126424706
 21
22.0219128599
 31
0.0
 11
-43.5120995732
 21
22.0237520232
 31
0.0
 11
-43.511493291
 21
22.024389443
 31
0.0
  0
LINE
  5
55D
100
AcDbEntity
  8
ASSI
100
AcDbLine
 62
253
  6
CONTINUOUS
 10
-30.7233563306
 20
23.6519220988
 11
-30.3444169108
 21
23.6495955841
  0
SPLINE
  5
55E
100
AcDbEntity
  8
ASSI
100
AcDbSpline
 62
253
  6
CONTINUOUS
 70
0
 71
3
 72
11
 73
7
 74
5
 42
0.0000001
 43
0.0000001
 44
0.0000000001
 12
0.0445214711
 22
-1.0283394222
 32
0.0
 13
1.0278859145
 23
-0.053987734
 33
0.0
 40
0.0
 40
0.0
 40
0.0
 40
0.0
 40
0.2500282611
 40
0.5000348528
 40
0.7500211407
 40
1.0
 40
1.0
 40
1.0
 40
1.0
 10
-44.1639055544
 20
-20.8558253568
 30
0.0
 10
-44.1601950124
 20
-20.941529996
 30
0.0
 10
-44.1204015045
 20
-21.1132118894
 30
0.0
 10
-43.9718524563
 20
-21.3303262024
 30
0.0
 10
-43.7553359527
 20
-21.4796143255
 30
0.0
 10
-43.5840637284
 20
-21.5205760769
 30
0.0
 10
-43.4984138123
 20
-21.5250746743
 30
0.0
 11
-44.1639055544
 21
-20.8558253568
 31
0.0
 11
-44.1055876707
 21
-21.1064854936
 31
0.0
 11
-43.9605177091
 21
-21.3190289155
 31
0.0
 11
-43.7486004802
 21
-21.46497525
 31
0.0
 11
-43.4984138123
 21
-21.5250746743
 31
0.0
  0
SPLINE
  5
55F
100
AcDbEntity
  8
ASSI
100
AcDbSpline
 62
253
  6
CONTINUOUS
 70
0
 71
3
 72
18
 73
14
 74
12
 42
0.0000001
 43
0.0000001
 44
0.0000000001
 12
0.2500335802
 22
-0.0043643524
 32
0.0
 13
-0.0043628398
 23
-0.2500336066
 33
0.0
 40
0.0
 40
0.0
 40
0.0
 40
0.0
 40
0.0051355417
 40
0.0196488198
 40
0.0435088188
 40
0.0765565084
 40
0.1185581282
 40
0.1690363967
 40
0.2932664273
 40
0.4446557216
 40
0.6175166099
 40
0.8054113928
 40
1.0
 40
1.0
 40
1.0
 40
1.0
 10
-30.7233563306
 20
23.9018840226
 30
0.0
 10
-30.7229283113
 20
23.9018765515
 30
0.0
 10
-30.7230237039
 20
23.8994020642
 30
0.0
 10
-30.7223782003
 20
23.8965842396
 30
0.0
 10
-30.722288376
 20
23.8901912525
 30
0.0
 10
-30.721960211
 20
23.882143924
 30
0.0
 10
-30.721799041
 20
23.8716080118
 30
0.0
 10
-30.7215839797
 20
23.8535787472
 30
0.0
 10
-30.7215168786
 20
23.8263744881
 30
0.0
 10
-30.7216458694
 20
23.7889992696
 30
0.0
 10
-30.722002875
 20
23.7463067451
 30
0.0
 10
-30.7225717605
 20
23.7000190879
 30
0.0
 10
-30.7230733396
 20
23.6681399958
 30
0.0
 10
-30.7233563259
 20
23.6519220987
 30
0.0
 11
-30.7233563306
 21
23.9018840226
 31
0.0
 11
-30.7229517457
 21
23.9006651633
 31
0.0
 11
-30.7225914035
 21
23.8970537363
 31
0.0
 11
-30.7222793215
 21
23.8910951937
 31
0.0
 11
-30.7220195168
 21
23.8828349876
 31
0.0
 11
-30.7218154861
 21
23.8723335544
 31
0.0
 11
-30.721668643
 21
23.8597112237
 31
0.0
 11
-30.7215500941
 21
23.828645039
 31
0.0
 11
-30.7216686355
 21
23.7907870514
 31
0.0
 11
-30.7220195054
 21
23.7475608648
 31
0.0
 11
-30.7225913937
 21
23.7005771836
 31
0.0
 11
-30.7233563259
 21
23.6519220987
 31
0.0
  0
SPLINE
  5
560
100
AcDbEntity
  8
ASSI
100
AcDbSpline
 62
253
  6
CONTINUOUS
 70
0
 71
3
 72
11
 73
7
 74
5
 42
0.0000001
 43
0.0000001
 44
0.0000000001
 12
-1.0278859147
 22
-0.053987728
 32
0.0
 13
-0.0445214629
 23
-1.0283394224
 33
0.0
 40
0.0
 40
0.0
 40
0.0
 40
0.0
 40
0.2499788592
 40
0.4999651467
 40
0.7499717379
 40
1.0
 40
1.0
 40
1.0
 40
1.0
 10
-43.4984137889
 20
21.5250746755
 30
0.0
 10
-43.584063705
 20
21.5205760786
 30
0.0
 10
-43.7553359286
 20
21.4796143263
 30
0.0
 10
-43.9718524338
 20
21.3303262034
 30
0.0
 10
-44.1204014721
 20
21.1132118874
 30
0.0
 10
-44.1601950001
 20
20.9415299985
 30
0.0
 10
-44.1639055414
 20
20.855825359
 30
0.0
 11
-43.4984137889
 21
21.5250746755
 31
0.0
 11
-43.7486004566
 21
21.464975251
 31
0.0
 11
-43.9605176848
 21
21.319028916
 31
0.0
 11
-44.1055876447
 21
21.1064854937
 31
0.0
 11
-44.1639055414
 21
20.855825359
 31
0.0
  0
SPLINE
  5
561
100
AcDbEntity
  8
ASSI
100
AcDbSpline
 62
253
  6
CONTINUOUS
 70
0
 71
3
 72
18
 73
14
 74
12
 42
0.0000001
 43
0.0000001
 44
0.0000000001
 12
0.2500335903
 22
0.0043643526
 32
0.0
 13
-0.0043630495
 23
0.250033613
 33
0.0
 40
0.0
 40
0.0
 40
0.0
 40
0.0
 40
0.0051355831
 40
0.0196489049
 40
0.0435089466
 40
0.0765566628
 40
0.1185583186
 40
0.1690366499
 40
0.2932667741
 40
0.4446560781
 40
0.6175168616
 40
0.8054114672
 40
1.0
 40
1.0
 40
1.0
 40
1.0
 10
-30.7233563306
 20
-23.9018840226
 30
0.0
 10
-30.7229283079
 20
-23.9018765514
 30
0.0
 10
-30.7230236637
 20
-23.8994020655
 30
0.0
 10
-30.7223781682
 20
-23.8965842225
 30
0.0
 10
-30.7222883177
 20
-23.890191232
 30
0.0
 10
-30.7219601468
 20
-23.8821438919
 30
0.0
 10
-30.7217989659
 20
-23.87160797
 30
0.0
 10
-30.7215838976
 20
-23.8535786883
 30
0.0
 10
-30.7215167941
 20
-23.8263744146
 30
0.0
 10
-30.7216457935
 20
-23.7889991945
 30
0.0
 10
-30.7220028167
 20
-23.7463066912
 30
0.0
 10
-30.7225717283
 20
-23.7000190622
 30
0.0
 10
-30.7230733308
 20
-23.6681399901
 30
0.0
 10
-30.7233563306
 20
-23.6519220988
 30
0.0
 11
-30.7233563306
 21
-23.9018840226
 31
0.0
 11
-30.7229517258
 21
-23.9006651589
 31
0.0
 11
-30.7225913663
 21
-23.8970537225
 31
0.0
 11
-30.7222792695
 21
-23.8910951698
 31
0.0
 11
-30.7220194527
 21
-23.8828349571
 31
0.0
 11
-30.7218154128
 21
-23.8723335146
 31
0.0
 11
-30.7216685637
 21
-23.8597111678
 31
0.0
 11
-30.7215500112
 21
-23.8286449585
 31
0.0
 11
-30.7216685603
 21
-23.7907869669
 31
0.0
 11
-30.7220194476
 21
-23.7475608049
 31
0.0
 11
-30.7225913624
 21
-23.7005771665
 31
0.0
 11
-30.7233563306
 21
-23.6519220988
 31
0.0
  0
LINE
  5
562
100
AcDbEntity
  8
ASSI
100
AcDbLine
 62
7
  6
CONTINUOUS
 10
-36.3444169108
 20
-24.5
 11
-36.3444169108
 21
-24.300030461
  0
SPLINE
  5
563
100
AcDbEntity
  8
RACCORDO
100
AcDbSpline
 62
253
  6
CONTINUOUS
 70
0
 71
3
 72
21
 73
17
 74
15
 42
0.0000001
 43
0.0000001
 44
0.0000000001
 12
0.0525773358
 22
0.2949413108
 32
0.0
 13
-0.2949406189
 23
0.0525812169
 33
0.0
 40
0.0
 40
0.0
 40
0.0
 40
0.0
 40
0.1947363089
 40
0.3827353801
 40
0.5556630539
 40
0.7070868445
 40
0.7729074051
 40
0.8313228564
 40
0.8817933418
 40
0.9237792006
 40
0.9568010123
 40
0.9806196162
 40
0.9890226392
 40
0.9950599928
 40
0.9987144688
 40
1.0
 40
1.0
 40
1.0
 40
1.0
 10
-25.8066969471
 20
-20.0091180479
 30
0.0
 10
-25.8032840417
 20
-19.9899727871
 30
0.0
 10
-25.7966081296
 20
-19.9523389577
 30
0.0
 10
-25.7870080157
 20
-19.8976850842
 30
0.0
 10
-25.7782551897
 20
-19.8472742021
 30
0.0
 10
-25.7716784226
 20
-19.8088688834
 30
0.0
 10
-25.7671019729
 20
-19.7817240802
 30
0.0
 10
-25.7642358965
 20
-19.7645129439
 30
0.0
 10
-25.7618032272
 20
-19.7496479466
 30
0.0
 10
-25.7598156696
 20
-19.7372646822
 30
0.0
 10
-25.7583275797
 20
-19.7275372264
 30
0.0
 10
-25.7573520412
 20
-19.7210345824
 30
0.0
 10
-25.7569095204
 20
-19.7173201561
 30
0.0
 10
-25.7566275611
 20
-19.7154001623
 30
0.0
 10
-25.7566864407
 20
-19.7145292358
 30
0.0
 10
-25.756535518
 20
-19.7137972858
 30
0.0
 10
-25.7566619031
 20
-19.7137747542
 30
0.0
 11
-25.8066969471
 21
-20.0091180479
 31
0.0
 11
-25.7965070392
 21
-19.9516735863
 31
0.0
 11
-25.7867665478
 21
-19.8961994169
 31
0.0
 11
-25.7779088081
 21
-19.8451546833
 31
0.0
 11
-25.7702623253
 21
-19.8004385477
 31
0.0
 11
-25.7669858944
 21
-19.7809934027
 31
0.0
 11
-25.7641143652
 21
-19.7637298488
 31
0.0
 11
-25.7616742508
 21
-19.7488075359
 31
0.0
 11
-25.7596920642
 21
-19.736386114
 31
0.0
 11
-25.7581910222
 21
-19.7266076146
 31
0.0
 11
-25.7571811573
 21
-19.7195435953
 31
0.0
 11
-25.7568625213
 21
-19.7170463718
 31
0.0
 11
-25.7566692056
 21
-19.7152479955
 31
0.0
 11
-25.7566020522
 21
-19.7141552088
 31
0.0
 11
-25.7566619031
 21
-19.7137747542
 31
0.0
  0
LINE
  5
564
100
AcDbEntity
  8
RACCORDO
100
AcDbLine
 62
253
  6
CONTINUOUS
 10
-45.415127008
 20
10.1698041608
 11
-45.4127243589
 21
10.0224483232
  0
LINE
  5
565
100
AcDbEntity
  8
RACCORDO
100
AcDbLine
 62
253
  6
CONTINUOUS
 10
-45.4127243589
 20
10.0224483232
 11
-45.4089499752
 21
9.8021462133
  0
LINE
  5
566
100
AcDbEntity
  8
RACCORDO
100
AcDbLine
 62
253
  6
CONTINUOUS
 10
-45.3884663504
 20
-4.5011333146
 11
-45.3895257692
 21
-4.501048551
  0
LINE
  5
567
100
AcDbEntity
  8
RACCORDO
100
AcDbLine
 62
253
  6
CONTINUOUS
 10
-45.3884657161
 20
4.5011332892
 11
-45.389525206
 21
4.5010485393
  0
LINE
  5
568
100
AcDbEntity
  8
DRAFT
100
AcDbLine
 62
7
  6
CONTINUOUS
 10
-35.3444168023
 20
-8.9477823127
 11
-34.6444165695
 21
-8.9530450585
  0
LINE
  5
569
100
AcDbEntity
  8
DRAFT
100
AcDbLine
 62
7
  6
CONTINUOUS
 10
-35.3444167951
 20
-13.5522141938
 11
-34.6444165582
 21
-13.5469524698
  0
LINE
  5
56A
100
AcDbEntity
  8
DRAFT
100
AcDbLine
 62
7
  6
CONTINUOUS
 10
-35.3444168023
 20
8.9477823127
 11
-34.6444165695
 21
8.9530450585
  0
LINE
  5
56B
100
AcDbEntity
  8
DRAFT
100
AcDbLine
 62
7
  6
CONTINUOUS
 10
-35.3444167951
 20
13.5522141938
 11
-34.6444165582
 21
13.5469524698
  0
ELLIPSE
  5
56C
100
AcDbEntity
  8
ASSI
100
AcDbEllipse
 62
7
  6
CONTINUOUS
 10
1.0052669851
 20
-22.3842776662
 30
0.0
 11
0.2
 21
-0.0
 31
0.0
 40
0.0524077793
 41
1.5707963268
 42
3.1241393611
  0
ELLIPSE
  5
56D
100
AcDbEntity
  8
ASSI
100
AcDbEllipse
 62
7
  6
CONTINUOUS
 10
4.2447330149
 20
-22.3842776662
 30
0.0
 11
0.2
 21
-0.0
 31
0.0
 40
0.0524077793
 41
0.0174532925
 42
1.5707963268
  0
ELLIPSE
  5
56E
100
AcDbEntity
  8
ASSI
100
AcDbEllipse
 62
7
  6
CONTINUOUS
 10
-4.2447330149
 20
-22.3842776662
 30
0.0
 11
0.2
 21
-0.0
 31
0.0
 40
0.0524077793
 41
1.5707963268
 42
3.1241393611
  0
ELLIPSE
  5
56F
100
AcDbEntity
  8
ASSI
100
AcDbEllipse
 62
7
  6
CONTINUOUS
 10
-1.0052669851
 20
-22.3842776662
 30
0.0
 11
0.2
 21
0.0
 31
0.0
 40
0.0524077793
 41
0.0174532925
 42
1.5707963268
  0
ELLIPSE
  5
570
100
AcDbEntity
  8
ASSI
100
AcDbEllipse
 62
7
  6
CONTINUOUS
 10
10.600342662
 20
-21.9003426489
 30
0.0
 11
-0.9888246763
 21
3.0427267403
 31
0.0
 40
0.0489125227
 41
-4.5852411792
 42
-4.5633435227
  0
ELLIPSE
  5
571
100
AcDbEntity
  8
ASSI
100
AcDbEllipse
 62
7
  6
CONTINUOUS
 10
10.600342662
 20
21.9003426489
 30
0.0
 11
0.9888246763
 21
3.0427267403
 31
0.0
 40
0.0489125227
 41
1.4217508045
 42
1.4436485256
  0
ELLIPSE
  5
572
100
AcDbEntity
  8
ASSI
100
AcDbEllipse
 62
7
  6
CONTINUOUS
 10
-10.600342662
 20
21.9003426489
 30
0.0
 11
-0.9888246763
 21
3.0427267403
 31
0.0
 40
0.0489125227
 41
-1.4436485256
 42
-1.4217508691
  0
ELLIPSE
  5
573
100
AcDbEntity
  8
ASSI
100
AcDbEllipse
 62
7
  6
CONTINUOUS
 10
-10.600342662
 20
-21.9003426489
 30
0.0
 11
0.9888246763
 21
3.0427267403
 31
0.0
 40
0.0489125227
 41
-1.7198418491
 42
-1.697944128
  0
ELLIPSE
  5
574
100
AcDbEntity
  8
ASSI
100
AcDbEllipse
 62
7
  6
CONTINUOUS
 10
9.0368706193
 20
-22.2820824966
 30
0.0
 11
0.25
 21
-0.0
 31
0.0
 40
0.0524077793
 41
0.0174532925
 42
1.5707963268
  0
ELLIPSE
  5
575
100
AcDbEntity
  8
ASSI
100
AcDbEllipse
 62
7
  6
CONTINUOUS
 10
8.7631293807
 20
23.5556624327
 30
0.0
 11
0.25
 21
-0.0
 31
0.0
 40
0.5773502692
 41
2.617993878
 42
3.1241393611
  0
ELLIPSE
  5
576
100
AcDbEntity
  8
ASSI
100
AcDbEllipse
 62
7
  6
CONTINUOUS
 10
-9.0368706193
 20
23.5556624327
 30
0.0
 11
0.25
 21
0.0
 31
0.0
 40
0.5773502692
 41
2.617993878
 42
3.1241393611
  0
ELLIPSE
  5
577
100
AcDbEntity
  8
ASSI
100
AcDbEllipse
 62
7
  6
CONTINUOUS
 10
-8.7631293807
 20
-22.2820824966
 30
0.0
 11
0.25
 21
-0.0
 31
0.0
 40
0.0524077793
 41
0.0174532925
 42
1.5707963268
  0
ELLIPSE
  5
578
100
AcDbEntity
  8
ASSI
100
AcDbEllipse
 62
7
  6
CONTINUOUS
 10
-8.7631293807
 20
22.2820824966
 30
0.0
 11
0.25
 21
-0.0
 31
0.0
 40
0.0524077793
 41
-1.5707963268
 42
-0.0174532925
  0
ELLIPSE
  5
579
100
AcDbEntity
  8
ASSI
100
AcDbEllipse
 62
7
  6
CONTINUOUS
 10
-8.7631293807
 20
23.5556624327
 30
0.0
 11
0.25
 21
0.0
 31
0.0
 40
0.5773502692
 41
0.0174532925
 42
0.5235987756
  0
ELLIPSE
  5
57A
100
AcDbEntity
  8
ASSI
100
AcDbEllipse
 62
7
  6
CONTINUOUS
 10
9.0368706193
 20
23.5556624327
 30
0.0
 11
0.25
 21
-0.0
 31
0.0
 40
0.5773502692
 41
0.0174532925
 42
0.5235987756
  0
ELLIPSE
  5
57B
100
AcDbEntity
  8
ASSI
100
AcDbEllipse
 62
7
  6
CONTINUOUS
 10
9.0368706193
 20
22.2820824966
 30
0.0
 11
0.25
 21
-0.0
 31
0.0
 40
0.0524077793
 41
-1.5707963268
 42
-0.0174532925
  0
ELLIPSE
  5
57C
100
AcDbEntity
  8
ASSI
100
AcDbEllipse
 62
7
  6
CONTINUOUS
 10
10.3281430868
 20
22.3344902759
 30
0.0
 11
0.25
 21
0.0
 31
0.0
 40
0.0524077793
 41
-1.5707963268
 42
-0.3162462274
  0
ELLIPSE
  5
57D
100
AcDbEntity
  8
ASSI
100
AcDbEllipse
 62
7
  6
CONTINUOUS
 10
10.3281430868
 20
22.9783121635
 30
0.0
 11
0.25
 21
-0.0
 31
0.0
 40
0.5773502692
 41
1.3797615343
 42
1.5707963268
  0
ELLIPSE
  5
57E
100
AcDbEntity
  8
ASSI
100
AcDbEllipse
 62
7
  6
CONTINUOUS
 10
7.4718569132
 20
22.3344902759
 30
0.0
 11
0.25
 21
-0.0
 31
0.0
 40
0.0524077793
 41
-3.1241393611
 42
-1.5707963268
  0
ELLIPSE
  5
57F
100
AcDbEntity
  8
ASSI
100
AcDbEllipse
 62
7
  6
CONTINUOUS
 10
7.4718569132
 20
22.9783121635
 30
0.0
 11
0.25
 21
0.0
 31
0.0
 40
0.5773502692
 41
1.5707963268
 42
1.7618311193
  0
ELLIPSE
  5
580
100
AcDbEntity
  8
ASSI
100
AcDbEllipse
 62
7
  6
CONTINUOUS
 10
-7.4718569132
 20
22.3344902759
 30
0.0
 11
0.25
 21
0.0
 31
0.0
 40
0.0524077793
 41
-1.5707963268
 42
-0.0174532925
  0
ELLIPSE
  5
581
100
AcDbEntity
  8
ASSI
100
AcDbEllipse
 62
7
  6
CONTINUOUS
 10
-7.4718569132
 20
22.9783121635
 30
0.0
 11
0.25
 21
0.0
 31
0.0
 40
0.5773502692
 41
1.3797615343
 42
1.5707963268
  0
ELLIPSE
  5
582
100
AcDbEntity
  8
ASSI
100
AcDbEllipse
 62
7
  6
CONTINUOUS
 10
-10.3281430868
 20
22.3344902759
 30
0.0
 11
0.25
 21
0.0
 31
0.0
 40
0.0524077793
 41
-2.8253464262
 42
-1.5707963268
  0
ELLIPSE
  5
583
100
AcDbEntity
  8
ASSI
100
AcDbEllipse
 62
7
  6
CONTINUOUS
 10
-10.3281430868
 20
22.9783121635
 30
0.0
 11
0.25
 21
-0.0
 31
0.0
 40
0.5773502692
 41
1.5707963268
 42
1.7618311193
  0
ELLIPSE
  5
584
100
AcDbEntity
  8
ASSI
100
AcDbEllipse
 62
7
  6
CONTINUOUS
 10
7.4718569132
 20
-22.3344902759
 30
0.0
 11
0.25
 21
-0.0
 31
0.0
 40
0.0524077793
 41
1.5707963268
 42
3.1241393611
  0
ELLIPSE
  5
585
100
AcDbEntity
  8
ASSI
100
AcDbEllipse
 62
7
  6
CONTINUOUS
 10
7.4718569132
 20
-22.9783121635
 30
0.0
 11
0.25
 21
0.0
 31
0.0
 40
0.5773502692
 41
-1.7618311193
 42
-1.5707963268
  0
ELLIPSE
  5
586
100
AcDbEntity
  8
ASSI
100
AcDbEllipse
 62
7
  6
CONTINUOUS
 10
10.3281430868
 20
-22.3344902759
 30
0.0
 11
0.25
 21
-0.0
 31
0.0
 40
0.0524077793
 41
0.3162462274
 42
1.5707963268
  0
ELLIPSE
  5
587
100
AcDbEntity
  8
ASSI
100
AcDbEllipse
 62
7
  6
CONTINUOUS
 10
10.3281430868
 20
-22.9783121635
 30
0.0
 11
0.25
 21
-0.0
 31
0.0
 40
0.5773502692
 41
-1.5707963268
 42
-1.3797615343
  0
ELLIPSE
  5
588
100
AcDbEntity
  8
ASSI
100
AcDbEllipse
 62
7
  6
CONTINUOUS
 10
-7.4718569132
 20
-22.3344902759
 30
0.0
 11
0.25
 21
0.0
 31
0.0
 40
0.0524077793
 41
0.0174532925
 42
1.5707963268
  0
ELLIPSE
  5
589
100
AcDbEntity
  8
ASSI
100
AcDbEllipse
 62
7
  6
CONTINUOUS
 10
-7.4718569132
 20
-22.9783121635
 30
0.0
 11
0.25
 21
0.0
 31
0.0
 40
0.5773502692
 41
-1.5707963268
 42
-1.3797615343
  0
ELLIPSE
  5
58A
100
AcDbEntity
  8
ASSI
100
AcDbEllipse
 62
7
  6
CONTINUOUS
 10
-10.3281430868
 20
-22.3344902759
 30
0.0
 11
0.25
 21
-0.0
 31
0.0
 40
0.0524077793
 41
1.5707963268
 42
2.8253464262
  0
ELLIPSE
  5
58B
100
AcDbEntity
  8
ASSI
100
AcDbEllipse
 62
7
  6
CONTINUOUS
 10
-10.3281430868
 20
-22.9783121635
 30
0.0
 11
0.25
 21
-0.0
 31
0.0
 40
0.5773502692
 41
-1.7618311193
 42
-1.5707963268
  0
ELLIPSE
  5
58C
100
AcDbEntity
  8
ASSI
100
AcDbEllipse
 62
7
  6
CONTINUOUS
 10
8.7631293807
 20
-22.2820824966
 30
0.0
 11
0.25
 21
-0.0
 31
0.0
 40
0.0524077793
 41
1.5707963268
 42
3.1241393611
  0
ELLIPSE
  5
58D
100
AcDbEntity
  8
ASSI
100
AcDbEllipse
 62
7
  6
CONTINUOUS
 10
8.7631293807
 20
-23.5556624327
 30
0.0
 11
0.25
 21
0.0
 31
0.0
 40
0.5773502692
 41
-3.1241393611
 42
-2.617993878
  0
ELLIPSE
  5
58E
100
AcDbEntity
  8
ASSI
100
AcDbEllipse
 62
7
  6
CONTINUOUS
 10
-9.0368706193
 20
-23.5556624327
 30
0.0
 11
0.25
 21
0.0
 31
0.0
 40
0.5773502692
 41
-3.1241393611
 42
-2.617993878
  0
ELLIPSE
  5
58F
100
AcDbEntity
  8
ASSI
100
AcDbEllipse
 62
7
  6
CONTINUOUS
 10
-9.0368706193
 20
-22.2820824966
 30
0.0
 11
0.25
 21
-0.0
 31
0.0
 40
0.0524077793
 41
1.5707963268
 42
3.1241393611
  0
ELLIPSE
  5
590
100
AcDbEntity
  8
ASSI
100
AcDbEllipse
 62
7
  6
CONTINUOUS
 10
-8.7631293807
 20
-23.5556624327
 30
0.0
 11
0.25
 21
-0.0
 31
0.0
 40
0.5773502692
 41
-0.5235987756
 42
-0.0174532925
  0
ELLIPSE
  5
591
100
AcDbEntity
  8
ASSI
100
AcDbEllipse
 62
7
  6
CONTINUOUS
 10
9.0368706193
 20
-23.5556624327
 30
0.0
 11
0.25
 21
-0.0
 31
0.0
 40
0.5773502692
 41
-0.5235987756
 42
-0.0174532925
  0
ELLIPSE
  5
592
100
AcDbEntity
  8
ASSI
100
AcDbEllipse
 62
7
  6
CONTINUOUS
 10
-9.0368706193
 20
22.2820824966
 30
0.0
 11
0.25
 21
-0.0
 31
0.0
 40
0.0524077793
 41
-3.1241393611
 42
-1.5707963268
  0
ELLIPSE
  5
593
100
AcDbEntity
  8
ASSI
100
AcDbEllipse
 62
7
  6
CONTINUOUS
 10
8.7631293807
 20
22.2820824966
 30
0.0
 11
0.25
 21
-0.0
 31
0.0
 40
0.0524077793
 41
-3.1241393611
 42
-1.5707963268
  0
ELLIPSE
  5
594
100
AcDbEntity
  8
ASSI
100
AcDbEllipse
 62
7
  6
CONTINUOUS
 10
4.2447330149
 20
22.3842776662
 30
0.0
 11
0.2
 21
0.0
 31
0.0
 40
0.0524077793
 41
-1.5707963268
 42
-0.0174532925
  0
ELLIPSE
  5
595
100
AcDbEntity
  8
ASSI
100
AcDbEllipse
 62
7
  6
CONTINUOUS
 10
1.0052669851
 20
22.3842776662
 30
0.0
 11
0.2
 21
-0.0
 31
0.0
 40
0.0524077793
 41
-3.1241393611
 42
-1.5707963268
  0
ELLIPSE
  5
596
100
AcDbEntity
  8
ASSI
100
AcDbEllipse
 62
7
  6
CONTINUOUS
 10
-1.0052669851
 20
22.3842776662
 30
0.0
 11
0.2
 21
0.0
 31
0.0
 40
0.0524077793
 41
-1.5707963268
 42
-0.0174532925
  0
ELLIPSE
  5
597
100
AcDbEntity
  8
ASSI
100
AcDbEllipse
 62
7
  6
CONTINUOUS
 10
-4.2447330149
 20
22.3842776662
 30
0.0
 11
0.2
 21
0.0
 31
0.0
 40
0.0524077793
 41
-3.1241393611
 42
-1.5707963268
  0
ELLIPSE
  5
598
100
AcDbEntity
  8
ASSI
100
AcDbEllipse
 62
7
  6
CONTINUOUS
 10
-36.3247858193
 20
-21.9003426489
 30
0.0
 11
57.2877742299
 21
-3.0018677586
 31
0.0
 40
0.0087159045
 41
-1.5925799468
 42
-1.5706822902
  0
ELLIPSE
  5
599
100
AcDbEntity
  8
ASSI
100
AcDbEllipse
 62
7
  6
CONTINUOUS
 10
-36.3247858193
 20
21.9003426489
 30
0.0
 11
57.2877742299
 21
3.0018677586
 31
0.0
 40
0.0087159045
 41
7.8538675328
 42
7.8757652539
  0
ELLIPSE
  5
59A
100
AcDbEntity
  8
ASSI
100
AcDbEllipse
 62
7
  6
CONTINUOUS
 10
-13.1967138077
 20
23.2
 30
0.0
 11
26.3304431995
 21
-0.0
 31
0.0
 40
0.017367588
 41
-2.5701928713
 42
-2.3053277814
  0
ELLIPSE
  5
59B
100
AcDbEntity
  8
ASSI
100
AcDbEllipse
 62
7
  6
CONTINUOUS
 10
-13.1967138077
 20
23.2
 30
0.0
 11
26.3304431995
 21
-0.0
 31
0.0
 40
0.017367588
 41
2.3053277814
 42
2.5701928713
  0
ELLIPSE
  5
59C
100
AcDbEntity
  8
ASSI
100
AcDbEllipse
 62
7
  6
CONTINUOUS
 10
-13.1967138077
 20
-23.2
 30
0.0
 11
26.3304431995
 21
-0.0
 31
0.0
 40
0.017367588
 41
-2.5701928713
 42
-2.3053277814
  0
ELLIPSE
  5
59D
100
AcDbEntity
  8
ASSI
100
AcDbEllipse
 62
7
  6
CONTINUOUS
 10
-13.1967138077
 20
-23.2
 30
0.0
 11
26.3304431995
 21
-0.0
 31
0.0
 40
0.017367588
 41
2.3053277814
 42
2.5701928713
  0
ENDSEC
  0
SECTION
  2
OBJECTS
  0
DICTIONARY
  5
C
100
AcDbDictionary
280
0
281
1
  3
ACAD_GROUP
350
D
  3
ACAD_MLINESTYLE
350
17
  3
ACAD_LAYOUT
350
1A
  3
ACAD_PLOTSETTINGS
350
19
  3
ACAD_PLOTSTYLENAME
350
E
  0
DICTIONARY
  5
D
102
{ACAD_REACTORS
330
C
102
}
100
AcDbDictionary
280
0
281
1
  0
ACDBDICTIONARYWDFLT
  5
E
102
{ACAD_REACTORS
330
C
102
}
100
AcDbDictionary
281
1
  3
Normal
350
F
100
AcDbDictionaryWithDefault
340
F
  0
DICTIONARY
  5
17
102
{ACAD_REACTORS
330
C
102
}
100
AcDbDictionary
280
0
281
1
  3
Standard
350
18
  0
DICTIONARY
  5
19
102
{ACAD_REACTORS
330
C
102
}
100
AcDbDictionary
281
1
  0
DICTIONARY
  5
1A
102
{ACAD_REACTORS
330
C
102
}
100
AcDbDictionary
281
1
  3
Model
350
59E
  3
Layout1
350
59F
  0
ACDBPLACEHOLDER
  5
F
102
{ACAD_REACTORS
330
E
102
}
  0
MLINESTYLE
  5
18
102
{ACAD_REACTORS
330
17
102
}
100
AcDbMlineStyle
  2
STANDARD
 70
0
  3

 62
256
 51
90.0
 52
90.0
 71
2
 49
0.5
 62
256
  6
BYLAYER
 49
-0.5
 62
256
  6
BYLAYER
  0
LAYOUT
  5
59E
102
{ACAD_REACTORS
330
1A
102
}
100
AcDbPlotSettings
  1

  2
none_device
  4
ISO_A4_(297.00_x_210.00_MM)
  6

 40
0.0
 41
0.0
 42
0.0
 43
0.0
 44
297.0
 45
210.0
 46
0.0
 47
0.0
 48
0.0
 49
0.0
140
0.0
141
0.0
142
1.0
143
1.0
 70
1024
 72
1
 73
0
 74
0
  7

 75
0
147
1.0
148
0.0
149
0.0
100
AcDbLayout
  1
Model
 70
0
 71
0
 10
0.0
 20
0.0
 11
297.0
 21
210.0
 12
0.0
 22
0.0
 32
0.0
 14
0.0
 24
0.0
 34
0.0
 15
0.0
 25
0.0
 35
0.0
146
0.0
 13
0.0
 23
0.0
 33
0.0
 16
1.0
 26
0.0
 36
0.0
 17
0.0
 27
1.0
 37
0.0
 76
0
330
21A
345
0
346
0
  0
LAYOUT
  5
59F
102
{ACAD_REACTORS
330
1A
102
}
100
AcDbPlotSettings
  1

  2
none_device
  4
ISO_A4_(297.00_x_210.00_MM)
  6

 40
0.0
 41
0.0
 42
0.0
 43
0.0
 44
297.0
 45
210.0
 46
0.0
 47
0.0
 48
0.0
 49
0.0
140
0.0
141
0.0
142
1.0
143
1.0
 70
0
 72
1
 73
0
 74
0
  7

 75
0
147
1.0
148
0.0
149
0.0
100
AcDbLayout
  1
Layout1
 70
0
 71
1
 10
0.0
 20
0.0
 11
297.0
 21
210.0
 12
0.0
 22
0.0
 32
0.0
 14
0.0
 24
0.0
 34
0.0
 15
0.0
 25
0.0
 35
0.0
146
0.0
 13
0.0
 23
0.0
 33
0.0
 16
1.0
 26
0.0
 36
0.0
 17
0.0
 27
1.0
 37
0.0
 76
0
330
21B
345
0
346
0
  0
ENDSEC
  0
EOF
