  0
SECTION
  2
HEADER
  9
$ACADVER
  1
AC1021
  9
$DWGCODEPAGE
  3
ANSI_1252
  9
$EXTMAX
 10
297.0
 20
210.0
 30
0.0
  9
$EXTMIN
 10
0.0
 20
0.0
 30
0.0
  9
$LIMMIN
 10
0.0
 20
0.0
  9
$LIMMAX
 10
297.0
 20
210.0
  9
$VIEWCTR
 10
148.5
 20
105.0
  9
$VIEWSIZE
 40
210.0
  9
$CLAYER
  8
0
  9
$LTSCALE
 40
16.335
  9
$CELTYPE
  6
BYLAYER
  9
$DIMSCALE
 40
1.0
  9
$DIMASZ
 40
3.0
  9
$DIMEXO
 40
0.5
  9
$DIMDLI
 40
11.286
  9
$DIMEXE
 40
1.5
  9
$DIMCEN
 40
2.673
  9
$DIMLFAC
 40
1.0
  9
$DIMBLK
  1
_FILLED
  9
$DIMALT
 70
0
  9
$DIMALTF
 40
25.4
  9
$DIMTXT
 40
3.0
  9
$DIMTOL
 70
1
  9
$DIMLIM
 70
0
  9
$DIMTFAC
 40
1.0
  9
$DIMTP
 40
0.01
  9
$DIMTM
 40
0.01
  9
$DIMGAP
 40
0.625
  9
$DIMDSEP
 70
44
  9
$AUNITS
 70
0
  9
$PDMODE
 70
3
  9
$PDSIZE
 40
3.0
  9
$HANDSEED
  5
69B
  9
$TILEMODE
 70
1
  9
$MEASUREMENT
 70
1
  9
$INSUNITS
 70
4
  0
ENDSEC
  0
SECTION
  2
CLASSES
  0
CLASS
  1
ACDBDICTIONARYWDFLT
  2
AcDbDictionaryWithDefault
  3
AutoCAD 2000
 90
0
 91
1
280
0
281
0
  0
CLASS
  1
ACDBPLACEHOLDER
  2
AcDbPlaceHolder
  3
AutoCAD 2000
 90
0
 91
1
280
0
281
0
  0
CLASS
  1
LAYOUT
  2
AcDbLayout
  3
AutoCAD 2000
 90
0
 91
0
280
0
281
0
  0
ENDSEC
  0
SECTION
  2
TABLES
  0
TABLE
  2
VPORT
  5
8
100
AcDbSymbolTable
 70
2
  0
VPORT
  5
1F4
100
AcDbSymbolTableRecord
100
AcDbViewportTableRecord
  2
*ACTIVE
 70
0
 10
0.0
 20
0.0
 11
1.0
 21
1.0
 12
148.5
 22
105.0
 13
0.0
 23
0.0
 14
1.0
 24
1.0
 15
0.0
 25
0.0
 16
0.0
 26
0.0
 36
1.0
 17
0.0
 27
0.0
 37
0.0
 40
210.0
 41
1.4142857143
 42
50.0
 43
0.0
 44
0.0
 50
0.0
 51
0.0
 71
0
 72
100
 73
1
 74
1
 75
0
 76
0
 77
0
 78
0
  0
ENDTAB
  0
TABLE
  2
LTYPE
  5
5
100
AcDbSymbolTable
 70
6
  0
LTYPE
  5
14
100
AcDbSymbolTableRecord
100
AcDbLinetypeTableRecord
  2
BYBLOCK
 70
0
  3

 72
65
 73
0
 40
0.0
  0
LTYPE
  5
15
100
AcDbSymbolTableRecord
100
AcDbLinetypeTableRecord
  2
BYLAYER
 70
0
  3

 72
65
 73
0
 40
0.0
  0
LTYPE
  5
16
100
AcDbSymbolTableRecord
100
AcDbLinetypeTableRecord
  2
CONTINUOUS
 70
64
  3
Solid line
 72
65
 73
0
 40
0.0
  0
LTYPE
  5
1F5
100
AcDbSymbolTableRecord
100
AcDbLinetypeTableRecord
  2
CENTER
 70
64
  3
____ _ ____ _ ____ _ ____ _ ____ _ ____ _ ____
 72
65
 73
4
 40
0.6
 49
0.375
 74
0
 49
-0.075
 74
0
 49
0.075
 74
0
 49
-0.075
 74
0
  0
LTYPE
  5
1F6
100
AcDbSymbolTableRecord
100
AcDbLinetypeTableRecord
  2
HIDDEN
 70
64
  3
- - - - - - - - - - - - - - - - - - - -
 72
65
 73
2
 40
0.2
 49
0.1
 74
0
 49
-0.1
 74
0
  0
LTYPE
  5
1F7
100
AcDbSymbolTableRecord
100
AcDbLinetypeTableRecord
  2
PHANTOM
 70
64
  3
_____ _ _ _____ _ _ _____ _ _ _____
 72
65
 73
6
 40
0.8
 49
0.45
 74
0
 49
-0.05
 74
0
 49
0.1
 74
0
 49
-0.05
 74
0
 49
0.1
 74
0
 49
-0.05
 74
0
  0
LTYPE
  5
1F8
100
AcDbSymbolTableRecord
100
AcDbLinetypeTableRecord
  2
DOT
 70
64
  3
. . . . . . . . . . . . . . . . . . . .
 72
65
 73
2
 40
0.2
 49
0.1
 74
0
 49
-0.1
 74
0
  0
LTYPE
  5
1F9
100
AcDbSymbolTableRecord
100
AcDbLinetypeTableRecord
  2
DASHED
 70
64
  3
- - - - - - - - - - - - - - - - - - - -
 72
65
 73
2
 40
0.2
 49
0.1
 74
0
 49
-0.1
 74
0
  0
ENDTAB
  0
TABLE
  2
LAYER
  5
2
100
AcDbSymbolTable
 70
36
  0
LAYER
  5
10
100
AcDbSymbolTableRecord
100
AcDbLayerTableRecord
  2
0
 70
0
 62
7
  6
CONTINUOUS
370
-3
390
F
  0
LAYER
  5
1FA
100
AcDbSymbolTableRecord
100
AcDbLayerTableRecord
  2
DEFAULT_1
 70
0
 62
7
  6
CENTER
370
-3
390
F
  0
LAYER
  5
1FB
100
AcDbSymbolTableRecord
100
AcDbLayerTableRecord
  2
DEFAULT_2
 70
0
 62
7
  6
HIDDEN
370
-3
390
F
  0
LAYER
  5
1FC
100
AcDbSymbolTableRecord
100
AcDbLayerTableRecord
  2
DEFAULT_3
 70
0
 62
7
  6
PHANTOM
370
-3
390
F
  0
LAYER
  5
1FD
100
AcDbSymbolTableRecord
100
AcDbLayerTableRecord
  2
ASSI
 70
0
 62
7
  6
CONTINUOUS
370
-3
390
F
  0
LAYER
  5
1FE
100
AcDbSymbolTableRecord
100
AcDbLayerTableRecord
  2
COLOR5
 70
0
 62
7
  6
CONTINUOUS
370
-3
390
F
  0
LAYER
  5
1FF
100
AcDbSymbolTableRecord
100
AcDbLayerTableRecord
  2
COORDINATE
 70
0
 62
7
  6
CONTINUOUS
370
-3
390
F
  0
LAYER
  5
200
100
AcDbSymbolTableRecord
100
AcDbLayerTableRecord
  2
COORD_ORIGINE
 70
0
 62
7
  6
CONTINUOUS
370
-3
390
F
  0
LAYER
  5
201
100
AcDbSymbolTableRecord
100
AcDbLayerTableRecord
  2
COPY_PUBLISH
 70
0
 62
7
  6
CONTINUOUS
370
-3
390
F
  0
LAYER
  5
202
100
AcDbSymbolTableRecord
100
AcDbLayerTableRecord
  2
COSMETIC
 70
0
 62
7
  6
CONTINUOUS
370
-3
390
F
  0
LAYER
  5
203
100
AcDbSymbolTableRecord
100
AcDbLayerTableRecord
  2
COSMETICHE
 70
0
 62
7
  6
CONTINUOUS
370
-3
390
F
  0
LAYER
  5
204
100
AcDbSymbolTableRecord
100
AcDbLayerTableRecord
  2
CURVE
 70
0
 62
7
  6
CONTINUOUS
370
-3
390
F
  0
LAYER
  5
205
100
AcDbSymbolTableRecord
100
AcDbLayerTableRecord
  2
DRAFT
 70
0
 62
7
  6
CONTINUOUS
370
-3
390
F
  0
LAYER
  5
206
100
AcDbSymbolTableRecord
100
AcDbLayerTableRecord
  2
IMPORT_IGES
 70
0
 62
7
  6
CONTINUOUS
370
-3
390
F
  0
LAYER
  5
207
100
AcDbSymbolTableRecord
100
AcDbLayerTableRecord
  2
INTFCLR_17
 70
0
 62
7
  6
CONTINUOUS
370
-3
390
F
  0
LAYER
  5
208
100
AcDbSymbolTableRecord
100
AcDbLayerTableRecord
  2
INTFCLR_3
 70
0
 62
7
  6
CONTINUOUS
370
-3
390
F
  0
LAYER
  5
209
100
AcDbSymbolTableRecord
100
AcDbLayerTableRecord
  2
INTF_1
 70
0
 62
7
  6
CONTINUOUS
370
-3
390
F
  0
LAYER
  5
20A
100
AcDbSymbolTableRecord
100
AcDbLayerTableRecord
  2
INTF_2
 70
0
 62
7
  6
CONTINUOUS
370
-3
390
F
  0
LAYER
  5
20B
100
AcDbSymbolTableRecord
100
AcDbLayerTableRecord
  2
INTF_5
 70
0
 62
7
  6
CONTINUOUS
370
-3
390
F
  0
LAYER
  5
20C
100
AcDbSymbolTableRecord
100
AcDbLayerTableRecord
  2
INTF_8
 70
0
 62
7
  6
CONTINUOUS
370
-3
390
F
  0
LAYER
  5
20D
100
AcDbSymbolTableRecord
100
AcDbLayerTableRecord
  2
INTF_CYAN
 70
0
 62
7
  6
CONTINUOUS
370
-3
390
F
  0
LAYER
  5
20E
100
AcDbSymbolTableRecord
100
AcDbLayerTableRecord
  2
NOTE
 70
0
 62
7
  6
CONTINUOUS
370
-3
390
F
  0
LAYER
  5
20F
100
AcDbSymbolTableRecord
100
AcDbLayerTableRecord
  2
PIANI
 70
0
 62
7
  6
CONTINUOUS
370
-3
390
F
  0
LAYER
  5
210
100
AcDbSymbolTableRecord
100
AcDbLayerTableRecord
  2
PIANI_ORIGINE
 70
0
 62
7
  6
CONTINUOUS
370
-3
390
F
  0
LAYER
  5
211
100
AcDbSymbolTableRecord
100
AcDbLayerTableRecord
  2
PUNTI
 70
0
 62
7
  6
CONTINUOUS
370
-3
390
F
  0
LAYER
  5
212
100
AcDbSymbolTableRecord
100
AcDbLayerTableRecord
  2
RACCORDO
 70
0
 62
7
  6
CONTINUOUS
370
-3
390
F
  0
LAYER
  5
213
100
AcDbSymbolTableRecord
100
AcDbLayerTableRecord
  2
RGB__255__255__255__
 70
0
 62
7
  6
CONTINUOUS
370
-3
390
F
  0
LAYER
  5
214
100
AcDbSymbolTableRecord
100
AcDbLayerTableRecord
  2
SMUSSO
 70
0
 62
7
  6
CONTINUOUS
370
-3
390
F
  0
LAYER
  5
215
100
AcDbSymbolTableRecord
100
AcDbLayerTableRecord
  2
SNAPLINE
 70
0
 62
7
  6
CONTINUOUS
370
-3
390
F
  0
LAYER
  5
216
100
AcDbSymbolTableRecord
100
AcDbLayerTableRecord
  2
SUPERFICI
 70
0
 62
7
  6
CONTINUOUS
370
-3
390
F
  0
LAYER
  5
217
100
AcDbSymbolTableRecord
100
AcDbLayerTableRecord
  2
TRASH
 70
0
 62
7
  6
CONTINUOUS
370
-3
390
F
  0
LAYER
  5
218
100
AcDbSymbolTableRecord
100
AcDbLayerTableRecord
  2
XSEC_DATUMS
 70
0
 62
7
  6
CONTINUOUS
370
-3
390
F
  0
ENDTAB
  0
TABLE
  2
STYLE
  5
3
100
AcDbSymbolTable
 70
1
  0
STYLE
  5
11
100
AcDbSymbolTableRecord
100
AcDbTextStyleTableRecord
  2
STANDARD
 70
0
 40
0.0
 41
0.8
 50
0.0
 71
0
 42
0.2
  3
txt
  4

  0
STYLE
  5
219
100
AcDbSymbolTableRecord
100
AcDbTextStyleTableRecord
  2
TEXTSTYLE_1
 70
0
 40
0.0
 41
0.8
 50
0.0
 71
0
 42
0.2
  3
gdt
  4

  0
ENDTAB
  0
TABLE
  2
VIEW
  5
6
100
AcDbSymbolTable
 70
0
  0
ENDTAB
  0
TABLE
  2
UCS
  5
7
100
AcDbSymbolTable
 70
0
  0
ENDTAB
  0
TABLE
  2
APPID
  5
9
100
AcDbSymbolTable
 70
1
  0
APPID
  5
21A
100
AcDbSymbolTableRecord
100
AcDbRegAppTableRecord
  2
ACAD
 70
0
  0
ENDTAB
  0
TABLE
  2
BLOCK_RECORD
  5
1
100
AcDbSymbolTable
 70
0
  0
BLOCK_RECORD
  5
21B
100
AcDbSymbolTableRecord
100
AcDbBlockTableRecord
  2
*Model_Space
  0
BLOCK_RECORD
  5
21C
100
AcDbSymbolTableRecord
100
AcDbBlockTableRecord
  2
*Paper_Space
  0
BLOCK_RECORD
  5
21D
100
AcDbSymbolTableRecord
100
AcDbBlockTableRecord
  2
_FILLED
  0
BLOCK_RECORD
  5
21E
100
AcDbSymbolTableRecord
100
AcDbBlockTableRecord
  2
*D0
  0
BLOCK_RECORD
  5
21F
100
AcDbSymbolTableRecord
100
AcDbBlockTableRecord
  2
*D1
  0
BLOCK_RECORD
  5
220
100
AcDbSymbolTableRecord
100
AcDbBlockTableRecord
  2
*D2
  0
BLOCK_RECORD
  5
221
100
AcDbSymbolTableRecord
100
AcDbBlockTableRecord
  2
*D3
  0
ENDTAB
  0
TABLE
  2
DIMSTYLE
  5
A
100
AcDbSymbolTable
 70
1
100
AcDbDimStyleTable
 71
0
  0
DIMSTYLE
105
222
100
AcDbSymbolTableRecord
100
AcDbDimStyleTableRecord
  2
STANDARD
 70
0
  3

  4

 40
1.0
 41
3.0
 42
0.5
 43
0.38
 44
1.5
 45
0.0
 46
0.0
 47
0.01
 48
0.01
140
3.0
141
0.09
142
0.0
143
25.4
144
1.0
145
0.0
146
1.0
147
0.625
 71
1.0
 72
0.0
 73
0
 74
0
 75
0
 76
0
 77
1
 78
8
170
0
171
1
172
0
173
0
174
0
175
0
176
0
177
0
178
0
270
2
271
2
272
2
273
2
274
2
275
0
280
0
281
0
282
0
283
1
284
8
285
0
286
0
287
3
288
0
340
11
278
44
341
21D
342
21D
343
21D
344
21D
  0
DIMSTYLE
105
223
100
AcDbSymbolTableRecord
100
AcDbDimStyleTableRecord
  2
DIMSTYLE_1
 70
0
  3

  4

 40
1.0
 41
3.0
 42
0.5
 43
0.38
 44
1.5
 45
0.0
 46
0.0
 47
0.0
 48
0.0
140
3.0
141
0.09
142
0.0
143
25.4
144
1.0
145
0.0
146
1.0
147
0.75
 71
0.0
 72
0.0
 73
0
 74
0
 75
0
 76
0
 77
1
 78
8
170
0
171
1
172
0
173
0
174
0
175
0
176
0
177
0
178
0
270
2
271
2
272
2
273
2
274
2
275
0
280
0
281
0
282
0
283
1
284
8
285
0
286
0
287
3
288
0
340
11
278
44
341
21D
342
21D
343
21D
344
21D
  0
DIMSTYLE
105
224
100
AcDbSymbolTableRecord
100
AcDbDimStyleTableRecord
  2
DIMSTYLE_2
 70
0
  3

  4

 40
1.0
 41
3.0
 42
0.5
 43
0.38
 44
1.5
 45
0.0
 46
0.0
 47
0.0
 48
0.0
140
3.0
141
0.09
142
0.0
143
25.4
144
1.0
145
0.0
146
1.0
147
0.75
 71
0.0
 72
0.0
 73
0
 74
0
 75
0
 76
0
 77
1
 78
8
170
0
171
1
172
0
173
0
174
0
175
0
176
0
177
0
178
0
270
2
271
1
272
2
273
2
274
2
275
0
280
0
281
0
282
0
283
1
284
8
285
0
286
0
287
3
288
0
340
11
278
44
341
21D
342
21D
343
21D
344
21D
  0
ENDTAB
  0
ENDSEC
  0
SECTION
  2
BLOCKS
  0
BLOCK
  5
20
100
AcDbEntity
  8
0
100
AcDbBlockBegin
  2
*Model_Space
 70
0
 10
0.0
 20
0.0
 30
0.0
  3
*Model_Space
  1

  0
ENDBLK
  5
21
100
AcDbEntity
  8
0
100
AcDbBlockEnd
  0
BLOCK
  5
1C
100
AcDbEntity
  8
0
100
AcDbBlockBegin
  2
*Paper_Space
 70
0
 10
0.0
 20
0.0
 30
0.0
  3
*Paper_Space
  1

  0
ENDBLK
  5
1D
100
AcDbEntity
  8
0
100
AcDbBlockEnd
  0
BLOCK
  5
225
100
AcDbEntity
  8
0
100
AcDbBlockBegin
  2
_FILLED
 70
64
 10
0.0
 20
0.0
  3
_FILLED
  1

  0
SOLID
  5
226
100
AcDbEntity
  8
0
  6
BYBLOCK
 62
0
100
AcDbTrace
 10
0.0
 20
0.0
 11
-1.0
 21
0.3166666667
 12
-1.0
 22
-0.3166666667
 13
-1.0
 23
-0.3166666667
  0
ENDBLK
  5
227
100
AcDbEntity
  8
0
  6
BYBLOCK
 62
0
100
AcDbBlockEnd
  0
BLOCK
  5
228
100
AcDbEntity
  8
0
100
AcDbBlockBegin
 62
7
  6
CONTINUOUS
  2
*D0
 70
65
 10
0.0
 20
0.0
  3
*D0
  1

  0
MTEXT
  5
229
100
AcDbEntity
  8
0
100
AcDbMText
 62
7
  6
CONTINUOUS
  7
STANDARD
 71
2
 72
1
 10
51.75
 20
0.001369526
 30
0.0
 11
0.0
 21
1.0
 31
0.0
 44
0.9
  1
95
 40
3.0
 41
6.75
  0
LINE
  5
22A
100
AcDbEntity
  8
0
100
AcDbLine
 62
7
  6
CONTINUOUS
 10
46.0027409305
 20
47.501369526
 11
57.0
 21
47.501369526
  0
LINE
  5
22B
100
AcDbEntity
  8
0
100
AcDbLine
 62
7
  6
CONTINUOUS
 10
46.0027409305
 20
-47.498630474
 11
57.0
 21
-47.498630474
  0
LINE
  5
22C
100
AcDbEntity
  8
0
100
AcDbLine
 62
7
  6
CONTINUOUS
 10
55.5
 20
47.501369526
 11
55.5
 21
0.001369526
  0
LINE
  5
22D
100
AcDbEntity
  8
0
100
AcDbLine
 62
7
  6
CONTINUOUS
 10
55.5
 20
-47.498630474
 11
55.5
 21
0.001369526
  0
INSERT
  5
22E
100
AcDbEntity
  8
0
100
AcDbBlockReference
 62
7
  6
CONTINUOUS
  2
_FILLED
 10
55.5
 20
47.501369526
 41
3.0
 42
3.0
 43
3.0
 50
90.0
  0
INSERT
  5
22F
100
AcDbEntity
  8
0
100
AcDbBlockReference
 62
7
  6
CONTINUOUS
  2
_FILLED
 10
55.5
 20
-47.498630474
 41
3.0
 42
3.0
 43
3.0
 50
270.0
  0
ENDBLK
  5
230
100
AcDbEntity
  8
0
  6
BYBLOCK
 62
0
100
AcDbBlockEnd
  0
BLOCK
  5
231
100
AcDbEntity
  8
0
100
AcDbBlockBegin
 62
7
  6
CONTINUOUS
  2
*D1
 70
65
 10
0.0
 20
0.0
  3
*D1
  1

  0
MTEXT
  5
232
100
AcDbEntity
  8
0
100
AcDbMText
 62
7
  6
CONTINUOUS
  7
STANDARD
 71
2
 72
1
 10
0.0
 20
59.251369526
 30
0.0
 11
1.0
 21
0.0
 31
0.0
 44
0.9
  1
95
 40
3.0
 41
6.75
  0
LINE
  5
233
100
AcDbEntity
  8
0
100
AcDbLine
 62
7
  6
CONTINUOUS
 10
-47.5
 20
46.0041104565
 11
-47.5
 21
57.001369526
  0
LINE
  5
234
100
AcDbEntity
  8
0
100
AcDbLine
 62
7
  6
CONTINUOUS
 10
47.5
 20
46.0041104565
 11
47.5
 21
57.001369526
  0
LINE
  5
235
100
AcDbEntity
  8
0
100
AcDbLine
 62
7
  6
CONTINUOUS
 10
-47.5
 20
55.501369526
 11
0.0
 21
55.501369526
  0
LINE
  5
236
100
AcDbEntity
  8
0
100
AcDbLine
 62
7
  6
CONTINUOUS
 10
47.5
 20
55.501369526
 11
0.0
 21
55.501369526
  0
INSERT
  5
237
100
AcDbEntity
  8
0
100
AcDbBlockReference
 62
7
  6
CONTINUOUS
  2
_FILLED
 10
-47.5
 20
55.501369526
 41
3.0
 42
3.0
 43
3.0
 50
180.0
  0
INSERT
  5
238
100
AcDbEntity
  8
0
100
AcDbBlockReference
 62
7
  6
CONTINUOUS
  2
_FILLED
 10
47.5
 20
55.501369526
 41
3.0
 42
3.0
 43
3.0
  0
ENDBLK
  5
239
100
AcDbEntity
  8
0
  6
BYBLOCK
 62
0
100
AcDbBlockEnd
  0
BLOCK
  5
23A
100
AcDbEntity
  8
0
100
AcDbBlockBegin
 62
7
  6
CONTINUOUS
  2
*D2
 70
65
 10
0.0
 20
0.0
  3
*D2
  1

  0
MTEXT
  5
23B
100
AcDbEntity
  8
0
100
AcDbMText
 62
7
  6
CONTINUOUS
  7
STANDARD
 71
2
 72
1
 10
-77.5481481056
 20
59.251369526
 30
0.0
 11
1.0
 21
0.0
 31
0.0
 44
0.9
  1
20
 40
3.0
 41
7.0714285714
  0
LINE
  5
23C
100
AcDbEntity
  8
0
100
AcDbLine
 62
7
  6
CONTINUOUS
 10
-87.5481481056
 20
49.7793875185
 11
-87.5481481056
 21
57.001369526
  0
LINE
  5
23D
100
AcDbEntity
  8
0
100
AcDbLine
 62
7
  6
CONTINUOUS
 10
-67.5481481056
 20
9.6442523833
 11
-67.5481481056
 21
57.001369526
  0
LINE
  5
23E
100
AcDbEntity
  8
0
100
AcDbLine
 62
7
  6
CONTINUOUS
 10
-87.5481481056
 20
55.501369526
 11
-77.5481481056
 21
55.501369526
  0
LINE
  5
23F
100
AcDbEntity
  8
0
100
AcDbLine
 62
7
  6
CONTINUOUS
 10
-67.5481481056
 20
55.501369526
 11
-77.5481481056
 21
55.501369526
  0
INSERT
  5
240
100
AcDbEntity
  8
0
100
AcDbBlockReference
 62
7
  6
CONTINUOUS
  2
_FILLED
 10
-87.5481481056
 20
55.501369526
 41
3.0
 42
3.0
 43
3.0
 50
180.0
  0
INSERT
  5
241
100
AcDbEntity
  8
0
100
AcDbBlockReference
 62
7
  6
CONTINUOUS
  2
_FILLED
 10
-67.5481481056
 20
55.501369526
 41
3.0
 42
3.0
 43
3.0
  0
ENDBLK
  5
242
100
AcDbEntity
  8
0
  6
BYBLOCK
 62
0
100
AcDbBlockEnd
  0
BLOCK
  5
243
100
AcDbEntity
  8
0
100
AcDbBlockBegin
 62
7
  6
CONTINUOUS
  2
*D3
 70
65
 10
0.0
 20
0.0
  3
*D3
  1

  0
MTEXT
  5
244
100
AcDbEntity
  8
0
100
AcDbMText
 62
7
  6
CONTINUOUS
  7
STANDARD
 71
2
 72
1
 10
-101.0443831268
 20
59.251369526
 30
0.0
 11
1.0
 21
0.0
 31
0.0
 44
0.9
  1
27
 40
3.0
 41
7.0714285714
  0
LINE
  5
245
100
AcDbEntity
  8
0
100
AcDbLine
 62
7
  6
CONTINUOUS
 10
-87.5481481056
 20
48.7988552939
 11
-87.5481481056
 21
57.001369526
  0
LINE
  5
246
100
AcDbEntity
  8
0
100
AcDbLine
 62
7
  6
CONTINUOUS
 10
-114.5406181481
 20
-23.6987829597
 11
-114.5406181481
 21
57.001369526
  0
LINE
  5
247
100
AcDbEntity
  8
0
100
AcDbLine
 62
7
  6
CONTINUOUS
 10
-87.5481481056
 20
55.501369526
 11
-101.0443831268
 21
55.501369526
  0
LINE
  5
248
100
AcDbEntity
  8
0
100
AcDbLine
 62
7
  6
CONTINUOUS
 10
-114.5406181481
 20
55.501369526
 11
-101.0443831268
 21
55.501369526
  0
INSERT
  5
249
100
AcDbEntity
  8
0
100
AcDbBlockReference
 62
7
  6
CONTINUOUS
  2
_FILLED
 10
-87.5481481056
 20
55.501369526
 41
3.0
 42
3.0
 43
3.0
  0
INSERT
  5
24A
100
AcDbEntity
  8
0
100
AcDbBlockReference
 62
7
  6
CONTINUOUS
  2
_FILLED
 10
-114.5406181481
 20
55.501369526
 41
3.0
 42
3.0
 43
3.0
 50
180.0
  0
ENDBLK
  5
24B
100
AcDbEntity
  8
0
  6
BYBLOCK
 62
0
100
AcDbBlockEnd
  0
ENDSEC
  0
SECTION
  2
ENTITIES
  0
DIMENSION
  5
24C
100
AcDbEntity
  8
0
100
AcDbDimension
 62
7
  6
CONTINUOUS
  2
*D0
 10
55.5
 20
-47.498630474
 11
55.5
 21
-0.4272024421
 70
160
 71
2
 42
95.0
  3
DIMSTYLE_1
100
AcDbAlignedDimension
 13
45.5027409305
 23
47.501369526
 14
45.5027409305
 24
-47.498630474
 50
270.0
100
AcDbRotatedDimension
  0
DIMENSION
  5
24D
100
AcDbEntity
  8
0
100
AcDbDimension
 62
7
  6
CONTINUOUS
  2
*D1
 10
47.5
 20
55.501369526
 11
-0.4285714481
 21
55.501369526
 70
160
 71
2
 42
95.0
  3
DIMSTYLE_1
100
AcDbAlignedDimension
 13
-47.5
 23
45.5041104565
 14
47.5
 24
45.5041104565
100
AcDbRotatedDimension
  0
DIMENSION
  5
24E
100
AcDbEntity
  8
0
100
AcDbDimension
 62
7
  6
CONTINUOUS
  2
*D2
 10
-67.5481481056
 20
55.501369526
 11
-77.9767209778
 21
55.501369526
 70
160
 71
2
 42
20.0
  3
DIMSTYLE_2
100
AcDbAlignedDimension
 13
-87.5481481056
 23
49.2793875185
 14
-67.5481481056
 24
9.1442523833
100
AcDbRotatedDimension
  0
DIMENSION
  5
24F
100
AcDbEntity
  8
0
100
AcDbDimension
 62
7
  6
CONTINUOUS
  2
*D3
 10
-114.5406181481
 20
55.501369526
 11
-101.4729531097
 21
55.501369526
 70
160
 71
2
 42
26.9924700425
  3
DIMSTYLE_2
100
AcDbAlignedDimension
 13
-87.5481481056
 23
48.2988552939
 14
-114.5406181481
 24
-24.1987829597
 50
180.0
100
AcDbRotatedDimension
  0
LWPOLYLINE
  5
250
100
AcDbEntity
  8
RACCORDO
100
AcDbPolyline
 62
7
  6
CONTINUOUS
 90
6
 70
0
 10
-46.6805948137
 20
46.519995093
 10
-46.7753112537
 20
46.405971023
 10
-46.8638600893
 20
46.2813246016
 10
-46.9442135683
 20
46.1472908352
 10
-47.0151910646
 20
46.0042983712
 10
-47.0756259746
 20
45.8528890015
  0
LINE
  5
251
100
AcDbEntity
  8
RACCORDO
100
AcDbLine
 62
7
  6
CONTINUOUS
 10
-46.5812012773
 20
46.6232639437
 11
-46.6805948137
 21
46.519995093
  0
LWPOLYLINE
  5
252
100
AcDbEntity
  8
RACCORDO
100
AcDbPolyline
 62
7
  6
CONTINUOUS
 90
11
 70
0
 10
-46.6176581367
 20
-46.5824707527
 10
-46.5136741634
 20
-46.6809895537
 10
-46.3990498573
 20
-46.7747018887
 10
-46.2739211518
 20
-46.8621634626
 10
-46.1395085071
 20
-46.9414160808
 10
-45.9962439174
 20
-47.0112998646
 10
-45.8446725335
 20
-47.070671962
 10
-45.6866577384
 20
-47.1180938719
 10
-45.5235086549
 20
-47.1526734277
 10
-45.3558608014
 20
-47.1737778917
 10
-45.1848309675
 20
-47.180720511
  0
LINE
  5
253
100
AcDbEntity
  8
RACCORDO
100
AcDbLine
 62
7
  6
CONTINUOUS
 10
-46.7113143544
 20
-46.4802344806
 11
-46.6176581367
 21
-46.5824707527
  0
LWPOLYLINE
  5
254
100
AcDbEntity
  8
RACCORDO
100
AcDbPolyline
 62
7
  6
CONTINUOUS
 90
5
 70
0
 10
-47.0756259746
 20
45.8528890015
 10
-47.1240248952
 20
45.6949580541
 10
-47.1594748663
 20
45.5318339054
 10
-47.1813434843
 20
45.3641529142
 10
-47.1889337642
 20
45.1930442207
  0
LWPOLYLINE
  5
255
100
AcDbEntity
  8
RACCORDO
100
AcDbPolyline
 62
7
  6
CONTINUOUS
 90
7
 70
0
 10
-47.0728665996
 20
-45.8553915877
 10
-47.0332186341
 20
-45.9576896671
 10
-46.9861113041
 20
-46.0614996837
 10
-46.9310313539
 20
-46.166184043
 10
-46.8674982915
 20
-46.271021573
 10
-46.7945387801
 20
-46.3759096746
 10
-46.7113143544
 20
-46.4802344806
  0
LINE
  5
256
100
AcDbEntity
  8
RACCORDO
100
AcDbLine
 62
253
  6
CONTINUOUS
 10
-44.420476428
 20
-14.1248908505
 11
-44.4286907657
 21
-14.0004802427
  0
LINE
  5
257
100
AcDbEntity
  8
RACCORDO
100
AcDbLine
 62
7
  6
CONTINUOUS
 10
-44.1951808046
 20
-14.0952011251
 11
-44.2
 21
-14.0042019181
  0
LWPOLYLINE
  5
258
100
AcDbEntity
  8
RACCORDO
100
AcDbPolyline
 62
253
  6
CONTINUOUS
 90
19
 70
0
 10
-43.6485211662
 20
-13.9537987242
 10
-43.6452776924
 20
-14.0167240385
 10
-43.6351900519
 20
-14.0799512239
 10
-43.6181639357
 20
-14.1430581876
 10
-43.5941580506
 20
-14.2055858026
 10
-43.5631101833
 20
-14.2670838641
 10
-43.5249307357
 20
-14.3271097454
 10
-43.4794750253
 20
-14.3852508304
 10
-43.4269545913
 20
-14.4408945496
 10
-43.3679055785
 20
-14.4933183216
 10
-43.3026223446
 20
-14.5419099117
 10
-43.2312194868
 20
-14.5863756939
 10
-43.1540175859
 20
-14.6264628265
 10
-43.0714127681
 20
-14.6615979906
 10
-42.9835588113
 20
-14.6914089473
 10
-42.8903630699
 20
-14.7156953847
 10
-42.7920126362
 20
-14.7338656854
 10
-42.6890584955
 20
-14.7451814645
 10
-42.581993816
 20
-14.7490489636
  0
LINE
  5
259
100
AcDbEntity
  8
RACCORDO
100
AcDbLine
 62
253
  6
CONTINUOUS
 10
-44.196655106
 20
-14.1031302633
 11
-44.2019141121
 21
-14.000582663
  0
LWPOLYLINE
  5
25A
100
AcDbEntity
  8
RACCORDO
100
AcDbPolyline
 62
253
  6
CONTINUOUS
 90
19
 70
0
 10
-43.5522066597
 20
-13.9537987242
 10
-43.5495776167
 20
-14.0051358175
 10
-43.5407169216
 20
-14.0561189498
 10
-43.5256250149
 20
-14.1067481212
 10
-43.5043432793
 20
-14.1574407672
 10
-43.4768321483
 20
-14.2077794523
 10
-43.4429711421
 20
-14.2565118696
 10
-43.4024926894
 20
-14.3036872079
 10
-43.3556682975
 20
-14.3492562783
 10
-43.3031863966
 20
-14.391819208
 10
-43.2450442616
 20
-14.4312375309
 10
-43.1812499826
 20
-14.467649713
 10
-43.112508045
 20
-14.5000712794
 10
-43.0388415785
 20
-14.528536077
 10
-42.9602338331
 20
-14.5530102587
 10
-42.8773290773
 20
-14.5724078092
 10
-42.7903442281
 20
-14.5863667231
 10
-42.6990693497
 20
-14.5952490058
 10
-42.6035083679
 20
-14.5990546571
  0
LWPOLYLINE
  5
25B
100
AcDbEntity
  8
RACCORDO
100
AcDbPolyline
 62
7
  6
CONTINUOUS
 90
8
 70
0
 10
-47.1883265153
 20
-45.1896979198
 10
-47.1862630732
 20
-45.2777772235
 10
-47.1800412582
 20
-45.3685921949
 10
-47.1692744631
 20
-45.4619277927
 10
-47.15360696
 20
-45.5573812857
 10
-47.1326389465
 20
-45.6548127261
 10
-47.1058548191
 20
-45.7543268364
 10
-47.0728665996
 20
-45.8553915877
  0
LWPOLYLINE
  5
25C
100
AcDbEntity
  8
RACCORDO
100
AcDbPolyline
 62
253
  6
CONTINUOUS
 90
10
 70
0
 10
-45.309778824
 20
-46.1820847214
 10
-45.3069102058
 20
-46.3500428139
 10
-45.3005736778
 20
-46.5132289058
 10
-45.2909491871
 20
-46.667006402
 10
-45.2783101014
 20
-46.8070060327
 10
-45.2630154423
 20
-46.929249998
 10
-45.2454996843
 20
-47.0302649882
 10
-45.2262604101
 20
-47.1071808712
 10
-45.2058441729
 20
-47.1578122408
 10
-45.1848309675
 20
-47.180720511
  0
LWPOLYLINE
  5
25D
100
AcDbEntity
  8
RACCORDO
100
AcDbPolyline
 62
253
  6
CONTINUOUS
 90
25
 70
0
 10
-46.3000772217
 20
-45.1896946431
 10
-46.299433196
 20
-45.2340067984
 10
-46.2963501528
 20
-45.2794271739
 10
-46.290828119
 20
-45.325957372
 10
-46.28308666
 20
-45.3737015141
 10
-46.2729063438
 20
-45.4225589099
 10
-46.2596287741
 20
-45.472223513
 10
-46.2433193961
 20
-45.5227359002
 10
-46.2239131816
 20
-45.574058064
 10
-46.2005562018
 20
-45.6257649103
 10
-46.1732853106
 20
-45.678023484
 10
-46.1420646113
 20
-45.730668105
 10
-46.1059313954
 20
-45.7827723122
 10
-46.0646407659
 20
-45.8346789462
 10
-46.0184395637
 20
-45.886043608
 10
-45.9671030922
 20
-45.9349041974
 10
-45.9102921019
 20
-45.9813221734
 10
-45.8483488713
 20
-46.0252283581
 10
-45.7820710545
 20
-46.0644587738
 10
-45.7111804882
 20
-46.0988405659
 10
-45.635958857
 20
-46.1285353703
 10
-45.5580428928
 20
-46.1518774466
 10
-45.4779788137
 20
-46.1683082134
 10
-45.3952230684
 20
-46.1783779752
 10
-45.3097771947
 20
-46.1820847215
  0
LINE
  5
25E
100
AcDbEntity
  8
RACCORDO
100
AcDbLine
 62
7
  6
CONTINUOUS
 10
-47.5
 20
45.5041104565
 11
-47.5
 21
-45.5013714045
  0
LINE
  5
25F
100
AcDbEntity
  8
RACCORDO
100
AcDbLine
 62
253
  6
CONTINUOUS
 10
-47.1889337642
 20
45.1930442207
 11
-47.1883265153
 21
-45.1896979198
  0
LINE
  5
260
100
AcDbEntity
  8
RACCORDO
100
AcDbLine
 62
253
  6
CONTINUOUS
 10
-44.2019141121
 20
-14.000582663
 11
-44.201870104
 21
-5.9967222931
  0
LINE
  5
261
100
AcDbEntity
  8
RACCORDO
100
AcDbLine
 62
7
  6
CONTINUOUS
 10
-44.2
 20
-5.9985923971
 11
-44.2
 21
-13.9986685509
  0
LINE
  5
262
100
AcDbEntity
  8
RACCORDO
100
AcDbLine
 62
253
  6
CONTINUOUS
 10
-44.4286907657
 20
-14.0004802427
 11
-44.4279892894
 21
-5.9965720621
  0
LWPOLYLINE
  5
263
100
AcDbEntity
  8
RACCORDO
100
AcDbPolyline
 62
253
  6
CONTINUOUS
 90
3
 70
0
 10
-46.2943145954
 20
6.2689512246
 10
-46.2962894922
 20
-1.2939422872
 10
-46.3000772217
 20
-45.1896946431
  0
LINE
  5
264
100
AcDbEntity
  8
RACCORDO
100
AcDbLine
 62
253
  6
CONTINUOUS
 10
-46.2818011593
 20
45.1930636647
 11
-46.2831580559
 21
35.094027726
  0
LWPOLYLINE
  5
265
100
AcDbEntity
  8
RACCORDO
100
AcDbPolyline
 62
253
  6
CONTINUOUS
 90
3
 70
0
 10
-46.2831580559
 20
35.094027726
 10
-46.2861954625
 20
26.151816331
 10
-46.2910594598
 20
15.1225073085
  0
LINE
  5
266
100
AcDbEntity
  8
RACCORDO
100
AcDbLine
 62
253
  6
CONTINUOUS
 10
-46.2910594598
 20
15.1225073085
 11
-46.2943145954
 21
6.2689512246
  0
LWPOLYLINE
  5
267
100
AcDbEntity
  8
RACCORDO
100
AcDbPolyline
 62
253
  6
CONTINUOUS
 90
10
 70
0
 10
-45.2763903511
 20
46.1869283925
 10
-45.2743344328
 20
46.3548612641
 10
-45.26979496
 20
46.5180232423
 10
-45.2629008718
 20
46.6717798783
 10
-45.2538479877
 20
46.8117638723
 10
-45.2428934454
 20
46.9339991225
 10
-45.2303483978
 20
47.0350136618
 10
-45.216569174
 20
47.1119382759
 10
-45.2019471591
 20
47.1625879998
 10
-45.1868976767
 20
47.1855241801
  0
LWPOLYLINE
  5
268
100
AcDbEntity
  8
RACCORDO
100
AcDbPolyline
 62
253
  6
CONTINUOUS
 90
11
 70
0
 10
-44.4279892894
 20
-5.9965720621
 10
-44.4268156304
 20
-5.931976169
 10
-44.4213458177
 20
-5.8659682198
 10
-44.41158098
 20
-5.7985544083
 10
-44.3978987898
 20
-5.7295160666
 10
-44.3799242228
 20
-5.659085282
 10
-44.3565299312
 20
-5.5879415567
 10
-44.3277714689
 20
-5.5159003097
 10
-44.2935977571
 20
-5.4431539133
 10
-44.2527225676
 20
-5.3709386134
 10
-44.2049631149
 20
-5.2988411138
  0
LWPOLYLINE
  5
269
100
AcDbEntity
  8
RACCORDO
100
AcDbPolyline
 62
253
  6
CONTINUOUS
 90
27
 70
0
 10
-22.1825342146
 20
-45.6302868647
 10
-20.4316191023
 20
-45.5468436743
 10
-19.5913122401
 20
-45.5076328971
 10
-18.7680413231
 20
-45.4700359392
 10
-17.956974599
 20
-45.434643201
 10
-17.1556990913
 20
-45.4016365752
 10
-16.362821289
 20
-45.3708822938
 10
-15.5762703398
 20
-45.3424964548
 10
-14.7966108276
 20
-45.3166199436
 10
-14.0254625347
 20
-45.2931476128
 10
-13.2624059499
 20
-45.2718225621
 10
-12.5092437109
 20
-45.2527092064
 10
-11.7682267386
 20
-45.2357599534
 10
-11.0393516142
 20
-45.2205456665
 10
-10.3241242317
 20
-45.2070563116
 10
-9.6251278278
 20
-45.1953018177
 10
-8.9434667607
 20
-45.1848806113
 10
-8.28179189
 20
-45.1757823241
 10
-7.6401256811
 20
-45.1680068711
 10
-7.015216923
 20
-45.1611664886
 10
-6.4080515571
 20
-45.1552195965
 10
-5.8191957361
 20
-45.1501992056
 10
-5.2444113532
 20
-45.145830937
 10
-4.6840830139
 20
-45.1420812335
 10
-4.1385572337
 20
-45.1389765353
 10
-3.6033862477
 20
-45.1363341962
 10
-3.0788108262
 20
-45.1341285678
  0
LINE
  5
26A
100
AcDbEntity
  8
RACCORDO
100
AcDbLine
 62
253
  6
CONTINUOUS
 10
-21.516476753
 20
-46.6308285699
 11
-19.7633572719
 21
-46.5478439678
  0
LWPOLYLINE
  5
26B
100
AcDbEntity
  8
RACCORDO
100
AcDbPolyline
 62
253
  6
CONTINUOUS
 90
25
 70
0
 10
-19.7633572719
 20
-46.5478439678
 10
-18.1166683772
 20
-46.4715530462
 10
-17.3221774846
 20
-46.4364472397
 10
-16.5398997017
 20
-46.4037341494
 10
-15.7725298684
 20
-46.3732547589
 10
-15.0151692437
 20
-46.3451538097
 10
-14.2659962727
 20
-46.3195602582
 10
-13.5268325103
 20
-46.296345148
 10
-12.7982438798
 20
-46.2752663518
 10
-12.0796278887
 20
-46.2563839447
 10
-11.3715870295
 20
-46.2396378515
 10
-10.6764947028
 20
-46.224605719
 10
-9.9938385332
 20
-46.2112809521
 10
-9.324130896
 20
-46.1996701458
 10
-8.6712823175
 20
-46.1893707321
 10
-8.0369108749
 20
-46.1803792366
 10
-7.419398491
 20
-46.1726991337
 10
-6.8178014607
 20
-46.1659382788
 10
-6.2327258165
 20
-46.1600587481
 10
-5.6635655259
 20
-46.1550984653
 10
-5.1075587864
 20
-46.1507790564
 10
-4.5649637954
 20
-46.1470697522
 10
-4.0355223553
 20
-46.1440013219
 10
-3.5156980712
 20
-46.141387698
 10
-3.005656753
 20
-46.1392047858
  0
LWPOLYLINE
  5
26C
100
AcDbEntity
  8
RACCORDO
100
AcDbPolyline
 62
253
  6
CONTINUOUS
 90
4
 70
0
 10
-9.0616195319
 20
-46.5709755603
 10
-8.7790776201
 20
-46.5621318947
 10
-8.478431728
 20
-46.5548118829
 10
-8.1596818556
 20
-46.5490155249
  0
LWPOLYLINE
  5
26D
100
AcDbEntity
  8
RACCORDO
100
AcDbPolyline
 62
7
  6
CONTINUOUS
 90
16
 70
0
 10
45.184830967
 20
-47.1807205106
 10
45.27278489
 20
-47.1789723272
 10
45.3634990927
 20
-47.1731239052
 10
45.4567613512
 20
-47.1627899679
 10
45.5521650472
 20
-47.1476162965
 10
45.6495807476
 20
-47.1272040859
 10
45.7491375572
 20
-47.1010353539
 10
45.8503073622
 20
-47.0687188125
 10
45.9527752626
 20
-47.02979651
 10
46.0568408284
 20
-46.9834625774
 10
46.1618604043
 20
-46.9292027919
 10
46.2671227006
 20
-46.8665254355
 10
46.37256461
 20
-46.7944254655
 10
46.4775763909
 20
-46.7120487452
 10
46.5806147942
 20
-46.6192126549
 10
46.6800461106
 20
-46.5159786528
  0
LWPOLYLINE
  5
26E
100
AcDbEntity
  8
RACCORDO
100
AcDbPolyline
 62
253
  6
CONTINUOUS
 90
10
 70
0
 10
-8.1596818556
 20
-46.5490155249
 10
-6.3678414807
 20
-46.5251365555
 10
-4.5652678728
 20
-46.5072274828
 10
-2.7519610319
 20
-46.4952883068
 10
-0.920750734
 20
-46.4893192334
 10
0.921192797
 20
-46.4893200566
 10
2.7523588887
 20
-46.4952901592
 10
4.5655773169
 20
-46.5072293352
 10
6.3680183059
 20
-46.5251377904
 10
8.1596818556
 20
-46.5490155249
  0
LWPOLYLINE
  5
26F
100
AcDbEntity
  8
RACCORDO
100
AcDbPolyline
 62
253
  6
CONTINUOUS
 90
25
 70
0
 10
45.3097771952
 20
-46.1820847275
 10
45.3535081613
 20
-46.1817367054
 10
45.3983605878
 20
-46.178954412
 10
45.4443347267
 20
-46.1737380537
 10
45.4915250968
 20
-46.1663119435
 10
45.5398377064
 20
-46.1564527032
 10
45.588989966
 20
-46.143489499
 10
45.6390221305
 20
-46.1274929581
 10
45.6898943074
 20
-46.1083952888
 10
45.7412034932
 20
-46.0853192454
 10
45.7931140483
 20
-46.0583136381
 10
45.8454617626
 20
-46.0273360024
 10
45.8973504117
 20
-45.9913745008
 10
45.9491336272
 20
-45.9501936527
 10
46.0004574689
 20
-45.9040414898
 10
46.0493636066
 20
-45.8526341021
 10
46.0959315678
 20
-45.7956269017
 10
46.1400805916
 20
-45.733383306
 10
46.1796110069
 20
-45.6666816717
 10
46.2143548426
 20
-45.5952396032
 10
46.2444783748
 20
-45.5193600228
 10
46.2682827841
 20
-45.4406947045
 10
46.2852013186
 20
-45.3597973611
 10
46.2957995515
 20
-45.2761280959
 10
46.3000772228
 20
-45.1896946481
  0
LWPOLYLINE
  5
270
100
AcDbEntity
  8
RACCORDO
100
AcDbPolyline
 62
253
  6
CONTINUOUS
 90
17
 70
0
 10
-45.1848309675
 20
-47.180720511
 10
-43.0998230859
 20
-47.1651394206
 10
-41.0957279305
 20
-47.1464583657
 10
-39.1725455011
 20
-47.1246773463
 10
-37.3292967551
 20
-47.0996989511
 10
-35.5669607351
 20
-47.0716205915
 10
-33.8884745692
 20
-47.0407345012
 10
-32.2947927615
 20
-47.0068343449
 10
-30.7849608078
 20
-46.9701264579
 10
-29.3590523227
 20
-46.9315220808
 10
-28.0211875312
 20
-46.8908858543
 10
-26.7672462083
 20
-46.8483531377
 10
-25.5849412947
 20
-46.8052412498
 10
-24.4778639565
 20
-46.7615892226
 10
-23.4424230276
 20
-46.717358024
 10
-22.4555579505
 20
-46.6737478769
 10
-21.516476753
 20
-46.6308285699
  0
LWPOLYLINE
  5
271
100
AcDbEntity
  8
RACCORDO
100
AcDbPolyline
 62
253
  6
CONTINUOUS
 90
17
 70
0
 10
-45.3097771947
 20
-46.1820847215
 10
-43.2602097012
 20
-46.1664581798
 10
-41.2890151468
 20
-46.1477279911
 10
-39.398231415
 20
-46.1258917125
 10
-37.5931887163
 20
-46.1008438973
 10
-35.874524419
 20
-46.0726838434
 10
-34.2381163484
 20
-46.0417127248
 10
-32.6858843302
 20
-46.0077097549
 10
-31.2203591255
 20
-45.9708776922
 10
-29.8374094518
 20
-45.9321508517
 10
-28.537558545
 20
-45.8913834463
 10
-27.3188799715
 20
-45.8486989014
 10
-26.1715687326
 20
-45.8054314576
 10
-25.0925463596
 20
-45.7616198899
 10
-24.0758310824
 20
-45.7172133354
 10
-23.1082282665
 20
-45.6734087431
 10
-22.1825342146
 20
-45.6302868647
  0
LINE
  5
272
100
AcDbEntity
  8
RACCORDO
100
AcDbLine
 62
253
  6
CONTINUOUS
 10
-3.005656753
 20
-46.1392047858
 11
-2.0103917594
 21
-46.1360895985
  0
LINE
  5
273
100
AcDbEntity
  8
RACCORDO
100
AcDbLine
 62
253
  6
CONTINUOUS
 10
-3.0788108262
 20
-45.1341285678
 11
-2.0573770633
 21
-45.1309786863
  0
LINE
  5
274
100
AcDbEntity
  8
RACCORDO
100
AcDbLine
 62
253
  6
CONTINUOUS
 10
-2.0103917594
 20
-46.1360895985
 11
-1.037535748
 21
-46.134304505
  0
LINE
  5
275
100
AcDbEntity
  8
RACCORDO
100
AcDbLine
 62
253
  6
CONTINUOUS
 10
-2.0573770633
 20
-45.1309786863
 11
-1.0608983877
 21
-45.1291748883
  0
LINE
  5
276
100
AcDbEntity
  8
RACCORDO
100
AcDbLine
 62
253
  6
CONTINUOUS
 10
-1.037535748
 20
-46.134304505
 11
-0.0745103878
 21
-46.1336707248
  0
LINE
  5
277
100
AcDbEntity
  8
RACCORDO
100
AcDbLine
 62
253
  6
CONTINUOUS
 10
-1.0608983877
 20
-45.1291748883
 11
-0.0759958736
 21
-45.1285354455
  0
LINE
  5
278
100
AcDbEntity
  8
RACCORDO
100
AcDbLine
 62
7
  6
CONTINUOUS
 10
-11.2833720857
 20
-47.501369526
 11
11.2833720857
 21
-47.501369526
  0
LINE
  5
279
100
AcDbEntity
  8
DRAFT
100
AcDbLine
 62
7
  6
CONTINUOUS
 10
-45.5027409305
 20
-47.498630474
 11
-12.0
 21
-47.498630474
  0
LINE
  5
27A
100
AcDbEntity
  8
DRAFT
100
AcDbLine
 62
7
  6
CONTINUOUS
 10
12.0
 20
-47.498630474
 11
45.5027409305
 21
-47.498630474
  0
LINE
  5
27B
100
AcDbEntity
  8
RACCORDO
100
AcDbLine
 62
253
  6
CONTINUOUS
 10
46.3000772236
 20
-45.1896946481
 11
47.1883265146
 21
-45.1896979191
  0
LINE
  5
27C
100
AcDbEntity
  8
RACCORDO
100
AcDbLine
 62
253
  6
CONTINUOUS
 10
-46.3000772157
 20
-45.1896946431
 11
-47.1883237301
 21
-45.1896979198
  0
LINE
  5
27D
100
AcDbEntity
  8
RACCORDO
100
AcDbLine
 62
253
  6
CONTINUOUS
 10
-0.0745103878
 20
-46.1336707248
 11
0.886796741
 21
-46.134136053
  0
LINE
  5
27E
100
AcDbEntity
  8
RACCORDO
100
AcDbLine
 62
253
  6
CONTINUOUS
 10
-0.0759958736
 20
-45.1285354455
 11
0.9064461356
 21
-45.129004453
  0
LINE
  5
27F
100
AcDbEntity
  8
RACCORDO
100
AcDbLine
 62
253
  6
CONTINUOUS
 10
0.886796741
 20
-46.134136053
 11
1.8581166975
 21
-46.1357141477
  0
LINE
  5
280
100
AcDbEntity
  8
RACCORDO
100
AcDbLine
 62
253
  6
CONTINUOUS
 10
0.9064461356
 20
-45.129004453
 11
1.9011247225
 21
-45.130599975
  0
LWPOLYLINE
  5
281
100
AcDbEntity
  8
RACCORDO
100
AcDbPolyline
 62
253
  6
CONTINUOUS
 90
27
 70
0
 10
1.8581166975
 20
-46.1357141477
 10
2.8520507429
 20
-46.1386525991
 10
3.3590602656
 20
-46.1406575935
 10
3.8764300606
 20
-46.1431538936
 10
4.404379641
 20
-46.1461173221
 10
4.9426894937
 20
-46.1495720564
 10
5.494411864
 20
-46.1537187766
 10
6.0598206792
 20
-46.1585264558
 10
6.6386420121
 20
-46.1640261209
 10
7.2331063257
 20
-46.1705115324
 10
7.8441130013
 20
-46.1779528805
 10
8.4707626578
 20
-46.186379975
 10
9.1125876143
 20
-46.1961760062
 10
9.7708141509
 20
-46.2073418849
 10
10.4442159876
 20
-46.2198767004
 10
11.1286466036
 20
-46.2341609104
 10
11.8232833571
 20
-46.2501960519
 10
12.5289488899
 20
-46.2679805879
 10
13.2439646058
 20
-46.2878903643
 10
13.9676480655
 20
-46.3099933194
 10
14.7006817083
 20
-46.3342215148
 10
15.4434342563
 20
-46.3607469812
 10
16.1940748833
 20
-46.389701761
 10
16.9544344155
 20
-46.4209538119
 10
17.7303740541
 20
-46.4542790376
 10
18.5195495317
 20
-46.4898337865
 10
19.3243051158
 20
-46.5274617103
  0
LWPOLYLINE
  5
282
100
AcDbEntity
  8
RACCORDO
100
AcDbPolyline
 62
253
  6
CONTINUOUS
 90
28
 70
0
 10
1.9011247225
 20
-45.130599975
 10
2.9210481306
 20
-45.1335687764
 10
3.4419761197
 20
-45.1355968499
 10
3.9745538774
 20
-45.138119289
 10
4.5185988989
 20
-45.141115423
 10
5.0737804865
 20
-45.1446111604
 10
5.6441187301
 20
-45.1488033993
 10
6.2291825325
 20
-45.1536653087
 10
6.8285962983
 20
-45.1592312921
 10
7.4462279454
 20
-45.1657914794
 10
8.0817560519
 20
-45.1733210169
 10
8.7337239115
 20
-45.1818533605
 10
9.4039091493
 20
-45.1917671363
 10
10.0917814221
 20
-45.2030654307
 10
10.7950268514
 20
-45.2157535082
 10
11.5123703051
 20
-45.2302120516
 10
12.2410641152
 20
-45.2464377505
 10
12.9796330985
 20
-45.2644325822
 10
13.728481774
 20
-45.2845822652
 10
14.4859282468
 20
-45.3069400678
 10
15.2500649276
 20
-45.3314314196
 10
16.0211309941
 20
-45.3582438763
 10
16.7984205861
 20
-45.3874857785
 10
17.5821089481
 20
-45.4190112095
 10
18.3742183482
 20
-45.4526225534
 10
19.1767379877
 20
-45.4884528682
 10
19.9926704518
 20
-45.5263257338
 10
20.8264573629
 20
-45.5655772272
  0
LWPOLYLINE
  5
283
100
AcDbEntity
  8
RACCORDO
100
AcDbPolyline
 62
253
  6
CONTINUOUS
 90
4
 70
0
 10
8.1596818556
 20
-46.5490155249
 10
8.4788090277
 20
-46.5548223428
 10
8.7797341988
 20
-46.5621521244
 10
9.0624573686
 20
-46.5710048697
  0
LWPOLYLINE
  5
284
100
AcDbEntity
  8
RACCORDO
100
AcDbPolyline
 62
253
  6
CONTINUOUS
 90
10
 70
0
 10
9.0624573686
 20
-46.5710048697
 10
9.3299441163
 20
-46.5815126117
 10
9.5792288627
 20
-46.5935433173
 10
9.8014148714
 20
-46.6067008873
 10
9.9953184764
 20
-46.6210352381
 10
10.1621233436
 20
-46.6364964531
 10
10.2964837343
 20
-46.6525386835
 10
10.3966177356
 20
-46.6689799797
 10
10.4643072603
 20
-46.6860022912
 10
10.4995523085
 20
-46.7036056181
  0
LWPOLYLINE
  5
285
100
AcDbEntity
  8
RACCORDO
100
AcDbPolyline
 62
253
  6
CONTINUOUS
 90
18
 70
0
 10
19.3243051158
 20
-46.5274617103
 10
21.9049294824
 20
-46.6488168627
 10
22.8409625554
 20
-46.6910806036
 10
23.8247184141
 20
-46.7337908998
 10
24.8565729546
 20
-46.7769013226
 10
25.9572784363
 20
-46.8192926778
 10
27.1301395183
 20
-46.8609809264
 10
28.3718515416
 20
-46.9019501074
 10
29.6932527879
 20
-46.9410331445
 10
31.0979202405
 20
-46.9781046516
 10
32.5822769162
 20
-47.0132900147
 10
34.1464301464
 20
-47.0457983155
 10
35.7912475926
 20
-47.0754521169
 10
37.5158615935
 20
-47.1024288558
 10
39.3177764966
 20
-47.1264699254
 10
41.1961604178
 20
-47.1474891232
 10
43.1518452413
 20
-47.1655726516
 10
45.184830967
 20
-47.1807205106
  0
LWPOLYLINE
  5
286
100
AcDbEntity
  8
RACCORDO
100
AcDbPolyline
 62
253
  6
CONTINUOUS
 90
18
 70
0
 10
20.8264573629
 20
-45.5655772272
 10
22.5663093127
 20
-45.6483578603
 10
23.4873783128
 20
-45.6908122623
 10
24.450311848
 20
-45.7337057963
 10
25.4615350642
 20
-45.7769844671
 10
26.5337342613
 20
-45.8195280574
 10
27.6715444105
 20
-45.8613642474
 10
28.8777000895
 20
-45.9024791636
 10
30.1615012528
 20
-45.9416888003
 10
31.5243601144
 20
-45.9788786036
 10
32.9655781708
 20
-46.0141839368
 10
34.4893360548
 20
-46.0467919766
 10
36.0933937911
 20
-46.0765280304
 10
37.7758681942
 20
-46.1035829072
 10
39.5407285756
 20
-46.1276905356
 10
41.3874395982
 20
-46.1487630413
 10
43.3110720069
 20
-46.166893688
 10
45.3097771952
 20
-46.1820847275
  0
LINE
  5
287
100
AcDbEntity
  8
RACCORDO
100
AcDbLine
 62
253
  6
CONTINUOUS
 10
-8.1827620173
 20
-46.5378883834
 11
-8.1596818556
 21
-46.5490155248
  0
LWPOLYLINE
  5
288
100
AcDbEntity
  8
RACCORDO
100
AcDbPolyline
 62
253
  6
CONTINUOUS
 90
5
 70
0
 10
-10.77397863
 20
-46.6185881212
 10
-10.7462808825
 20
-46.6377310748
 10
-10.6682073773
 20
-46.6738088967
 10
-10.5851446866
 20
-46.695985227
 10
-10.4995523085
 20
-46.7036056181
  0
LWPOLYLINE
  5
289
100
AcDbEntity
  8
RACCORDO
100
AcDbPolyline
 62
253
  6
CONTINUOUS
 90
34
 70
0
 10
-43.4067487698
 20
-7.998630474
 10
-43.4008032537
 20
-8.1203483785
 10
-43.3839936497
 20
-8.2390362051
 10
-43.3563214552
 20
-8.354693954
 10
-43.317328728
 20
-8.4683881471
 10
-43.267479504
 20
-8.5790522625
 10
-43.2081591953
 20
-8.6834867339
 10
-43.1391030443
 20
-8.7814522145
 10
-43.0605864347
 20
-8.8731880512
 10
-42.9748042501
 20
-8.9562127186
 10
-42.8815698983
 20
-9.0302580695
 10
-42.7810821702
 20
-9.0955922511
 10
-42.6761110083
 20
-9.1505381796
 10
-42.5665850171
 20
-9.1948062438
 10
-42.4525856662
 20
-9.228686055
 10
-42.3371070053
 20
-9.2513693629
 10
-42.2201350837
 20
-9.262586946
 10
-42.1016887102
 20
-9.2626080259
 10
-41.984804437
 20
-9.2514320171
 10
-41.8694990052
 20
-9.2287917877
 10
-41.7557535054
 20
-9.1949544696
 10
-41.6465438969
 20
-9.1507208727
 10
-41.5419386796
 20
-9.0957995227
 10
-41.441860183
 20
-9.0304818938
 10
-41.3490587195
 20
-8.956443219
 10
-41.2637203705
 20
-8.8734287221
 10
-41.1856452808
 20
-8.7816931792
 10
-41.1170006009
 20
-8.6836761508
 10
-41.0580343614
 20
-8.5790764322
 10
-41.0084849409
 20
-8.4681952279
 10
-40.9697536604
 20
-8.3543757126
 10
-40.9423045176
 20
-8.2387322775
 10
-40.9256651092
 20
-8.1201505313
 10
-40.9198333345
 20
-7.998630474
  0
LWPOLYLINE
  5
28A
100
AcDbEntity
  8
RACCORDO
100
AcDbPolyline
 62
253
  6
CONTINUOUS
 90
34
 70
0
 10
-43.4067487698
 20
-11.998630474
 10
-43.4008809541
 20
-12.1199795282
 10
-43.3841518085
 20
-12.2383944825
 10
-43.356562823
 20
-12.353875337
 10
-43.3176642541
 20
-12.4675114516
 10
-43.2679119193
 20
-12.5782134663
 10
-43.2086666064
 20
-12.6827133011
 10
-43.1396580378
 20
-12.7807564055
 10
-43.0611671315
 20
-12.87259733
 10
-42.9753807514
 20
-12.9557316462
 10
-42.8821026556
 20
-13.0298917693
 10
-42.7815413393
 20
-13.0953452841
 10
-42.6764877483
 20
-13.1503905166
 10
-42.566881159
 20
-13.194730507
 10
-42.4527923887
 20
-13.2286622151
 10
-42.3372044953
 20
-13.2513748466
 10
-42.2200885358
 20
-13.2625994813
 10
-42.1014783757
 20
-13.2626050395
 10
-41.9844446157
 20
-13.2513874872
 10
-41.8690014323
 20
-13.2286646478
 10
-41.7551324499
 20
-13.194718698
 10
-41.6458552256
 20
-13.1503921342
 10
-41.5412638233
 20
-13.0954004864
 10
-41.4412548592
 20
-13.0300282246
 10
-41.3485433201
 20
-12.9559712546
 10
-41.2633184494
 20
-12.872993396
 10
-41.1853772008
 20
-12.7813308292
 10
-41.1168419559
 20
-12.6833880006
 10
-41.0579420536
 20
-12.5788561681
 10
-41.0084346264
 20
-12.4680440738
 10
-40.9697324246
 20
-12.35428239
 10
-40.9423032588
 20
-12.2386813409
 10
-40.9256709278
 20
-12.1201307022
 10
-40.9198333345
 20
-11.998630474
  0
LWPOLYLINE
  5
28B
100
AcDbEntity
  8
RACCORDO
100
AcDbPolyline
 62
253
  6
CONTINUOUS
 90
34
 70
0
 10
-40.9198333345
 20
-7.998630474
 10
-40.9256315116
 20
-7.8773534815
 10
-40.9422132985
 20
-7.7589795531
 10
-40.969580784
 20
-7.6435086889
 10
-41.0082049419
 20
-7.5298229256
 10
-41.0576231616
 20
-7.4190402265
 10
-41.1164383319
 20
-7.3145144811
 10
-41.1849091251
 20
-7.2165523953
 10
-41.262790397
 20
-7.1248472633
 10
-41.3479279757
 20
-7.0418328564
 10
-41.4404940588
 20
-6.9677672985
 10
-41.5403301623
 20
-6.9023924657
 10
-41.644781961
 20
-6.8473677578
 10
-41.7539644411
 20
-6.8029547911
 10
-41.8677720146
 20
-6.7688919493
 10
-41.9832132008
 20
-6.746053784
 10
-42.100338197
 20
-6.7347283813
 10
-42.2190991727
 20
-6.7346276551
 10
-42.3363503292
 20
-6.7457618987
 10
-42.4520342313
 20
-6.7684119098
 10
-42.5662033303
 20
-6.8022968907
 10
-42.6758698887
 20
-6.8465847424
 10
-42.7809525506
 20
-6.9015639063
 10
-42.8815225249
 20
-6.966945941
 10
-42.9748157424
 20
-7.0410334226
 10
-43.0606264842
 20
-7.1240752477
 10
-43.1391482233
 20
-7.2158225198
 10
-43.2082126883
 20
-7.3138311254
 10
-43.2675616515
 20
-7.4183919919
 10
-43.3174427209
 20
-7.529214192
 10
-43.3564456461
 20
-7.6429808298
 10
-43.3840981034
 20
-7.7585862735
 10
-43.4008663102
 20
-7.8771361549
 10
-43.4067487698
 20
-7.998630474
  0
LWPOLYLINE
  5
28C
100
AcDbEntity
  8
RACCORDO
100
AcDbPolyline
 62
253
  6
CONTINUOUS
 90
34
 70
0
 10
-40.9198333345
 20
-11.998630474
 10
-40.9255985137
 20
-11.8774648556
 10
-40.9421598484
 20
-11.7591563305
 10
-40.9695194276
 20
-11.6437048985
 10
-41.0081456171
 20
-11.5299764463
 10
-41.0575784224
 20
-11.4191050874
 10
-41.116428576
 20
-11.3144931622
 10
-41.1849496113
 20
-11.2164641851
 10
-41.2629015589
 20
-11.1246946417
 10
-41.3481535902
 20
-11.0416163292
 10
-41.4409201226
 20
-10.9674696104
 10
-41.5410005878
 20
-10.9020141225
 10
-41.645637455
 20
-10.8469605736
 10
-41.7549209309
 20
-10.8026082366
 10
-41.8687700613
 20
-10.7686578387
 10
-41.9841641208
 20
-10.7459222691
 10
-42.1011095375
 20
-10.7346796073
 10
-42.2196020061
 20
-10.7346517739
 10
-42.3365975167
 20
-10.74581742
 10
-42.452063227
 20
-10.7684383604
 10
-42.5660270595
 20
-10.8022527801
 10
-42.6755295443
 20
-10.8464538862
 10
-42.7805011352
 20
-10.9013297824
 10
-42.8810013364
 20
-10.9665923649
 10
-42.9742590974
 20
-11.0405705284
 10
-43.0600735346
 20
-11.1235222967
 10
-43.1386333438
 20
-11.215189646
 10
-43.2077488272
 20
-11.3131273986
 10
-43.2671572466
 20
-11.4175912936
 10
-43.3171107227
 20
-11.5283255918
 10
-43.3561910894
 20
-11.6421178985
 10
-43.3839233788
 20
-11.7578974153
 10
-43.4007764403
 20
-11.8767349405
 10
-43.4067487698
 20
-11.998630474
  0
LWPOLYLINE
  5
28D
100
AcDbEntity
  8
RACCORDO
100
AcDbPolyline
 62
253
  6
CONTINUOUS
 90
34
 70
0
 10
-43.1026915392
 20
-11.998630474
 10
-43.0984677462
 20
-12.0891190112
 10
-43.0858380376
 20
-12.178837734
 10
-43.0649121619
 20
-12.2669348751
 10
-43.0358943616
 20
-12.3525243114
 10
-42.9990677195
 20
-12.4348373669
 10
-42.9547548799
 20
-12.5132219667
 10
-42.9033633458
 20
-12.586907638
 10
-42.8454027616
 20
-12.6551778049
 10
-42.7814023185
 20
-12.7175048801
 10
-42.711994321
 20
-12.7732173687
 10
-42.6378649128
 20
-12.8217929146
 10
-42.5596396371
 20
-12.8629820504
 10
-42.4781401909
 20
-12.8962749663
 10
-42.3941512545
 20
-12.9213631772
 10
-42.3081953695
 20
-12.9383055873
 10
-42.2211736608
 20
-12.9467721944
 10
-42.1339683311
 20
-12.9466307042
 10
-42.046985186
 20
-12.9381663088
 10
-41.9611486773
 20
-12.9212185031
 10
-41.8774266011
 20
-12.8958476618
 10
-41.7961648768
 20
-12.8625623271
 10
-41.7182505936
 20
-12.821391009
 10
-41.6446677363
 20
-12.7726127049
 10
-41.5756958269
 20
-12.7169933571
 10
-41.5120492459
 20
-12.6547280185
 10
-41.4546406495
 20
-12.586294005
 10
-41.4036816491
 20
-12.5127415653
 10
-41.3595367477
 20
-12.4342691236
 10
-41.3230194472
 20
-12.3515123096
 10
-41.2943831868
 20
-12.2660511802
 10
-41.2736648713
 20
-12.1786539382
 10
-41.2611600958
 20
-12.0893699462
 10
-41.2571591943
 20
-11.998630474
  0
LWPOLYLINE
  5
28E
100
AcDbEntity
  8
RACCORDO
100
AcDbPolyline
 62
253
  6
CONTINUOUS
 90
34
 70
0
 10
-43.1026915392
 20
-7.998630474
 10
-43.0984659364
 20
-8.0891398898
 10
-43.0858282137
 20
-8.1788874888
 10
-43.0648861497
 20
-8.2670201932
 10
-43.0358392526
 20
-8.3526571673
 10
-42.9989710482
 20
-8.4350201578
 10
-42.9546153787
 20
-8.5134356888
 10
-42.9031888873
 20
-8.5871267415
 10
-42.8452005194
 20
-8.6553867729
 10
-42.781179404
 20
-8.7176945475
 10
-42.7117629124
 20
-8.7733782598
 10
-42.6376353289
 20
-8.8219205105
 10
-42.5594081042
 20
-8.8630818675
 10
-42.4778911009
 20
-8.8963549597
 10
-42.3938789773
 20
-8.9214232644
 10
-42.3079121534
 20
-8.9383408501
 10
-42.2208920893
 20
-8.9467806814
 10
-42.133700732
 20
-8.9466136308
 10
-42.0467599601
 20
-8.9381302124
 10
-41.961005275
 20
-8.9211817153
 10
-41.8773839116
 20
-8.8958337846
 10
-41.796211864
 20
-8.8625871881
 10
-41.7183757371
 20
-8.8214680976
 10
-41.6448562657
 20
-8.772754074
 10
-41.5759101659
 20
-8.7171902494
 10
-41.5122477393
 20
-8.6549513411
 10
-41.4548036053
 20
-8.5865186002
 10
-41.4038075139
 20
-8.5129566013
 10
-41.3596296286
 20
-8.434468574
 10
-41.3230826995
 20
-8.351685441
 10
-41.2944208207
 20
-8.2661907711
 10
-41.2736817509
 20
-8.1787537493
 10
-41.26116373
 20
-8.0894230028
 10
-41.2571591943
 20
-7.998630474
  0
LWPOLYLINE
  5
28F
100
AcDbEntity
  8
RACCORDO
100
AcDbPolyline
 62
253
  6
CONTINUOUS
 90
34
 70
0
 10
-41.2571591943
 20
-11.998630474
 10
-41.2611477085
 20
-11.9081057199
 10
-41.2736001353
 20
-11.8189824528
 10
-41.2942452162
 20
-11.7316887991
 10
-41.3228135069
 20
-11.6462594501
 10
-41.3592823574
 20
-11.5634827621
 10
-41.4033821684
 20
-11.4849859842
 10
-41.4542883474
 20
-11.4114167533
 10
-41.5116456306
 20
-11.3429602194
 10
-41.5752395519
 20
-11.2806682494
 10
-41.6441538787
 20
-11.2250197052
 10
-41.7176776719
 20
-11.1762061121
 10
-41.7955405761
 20
-11.134988732
 10
-41.8767640882
 20
-11.1016476554
 10
-41.96045985
 20
-11.0762151347
 10
-42.0462825462
 20
-11.0592014785
 10
-42.1332709348
 20
-11.0506690981
 10
-42.2204954406
 20
-11.0504617387
 10
-42.3075319181
 20
-11.0588646196
 10
-42.3934892428
 20
-11.0757411234
 10
-42.4774748824
 20
-11.100758971
 10
-42.5589740897
 20
-11.1339770762
 10
-42.6372004672
 20
-11.1750845063
 10
-42.7113361604
 20
-11.2235728572
 10
-42.7807697154
 20
-11.2792045389
 10
-42.8448114572
 20
-11.3414575365
 10
-42.9028293004
 20
-11.4096666108
 10
-42.9543052437
 20
-11.4833329973
 10
-42.9987301392
 20
-11.5617653677
 10
-43.0356727567
 20
-11.6441799464
 10
-43.064785938
 20
-11.7298930671
 10
-43.0857797435
 20
-11.8181212625
 10
-43.0984523164
 20
-11.9079856243
 10
-43.1026915392
 20
-11.998630474
  0
LWPOLYLINE
  5
290
100
AcDbEntity
  8
RACCORDO
100
AcDbPolyline
 62
253
  6
CONTINUOUS
 90
34
 70
0
 10
-41.2571591943
 20
-7.998630474
 10
-41.2611494099
 20
-7.9080603292
 10
-41.273612074
 20
-7.8189114487
 10
-41.2942687879
 20
-7.7316126684
 10
-41.3228394828
 20
-7.6462079751
 10
-41.3592956596
 20
-7.5634731055
 10
-41.4033792135
 20
-7.4850043424
 10
-41.4542835023
 20
-7.4114323411
 10
-41.5116484848
 20
-7.3429636857
 10
-41.5752378124
 20
-7.28067577
 10
-41.6441093487
 20
-7.2250583887
 10
-41.7175636767
 20
-7.1762789183
 10
-41.7953656349
 20
-7.135073815
 10
-41.8765538603
 20
-7.1017230208
 10
-41.9602340894
 20
-7.0762701078
 10
-42.0460705179
 20
-7.0592302085
 10
-42.1331179973
 20
-7.0506728285
 10
-42.2204343724
 20
-7.0504536593
 10
-42.3075585014
 20
-7.058862349
 10
-42.3935873874
 20
-7.075758735
 10
-42.4776352843
 20
-7.1008083024
 10
-42.559177438
 20
-7.134063707
 10
-42.6374235183
 20
-7.1752076977
 10
-42.7115600291
 20
-7.2237278836
 10
-42.7809796485
 20
-7.2793824563
 10
-42.8449920005
 20
-7.3416423344
 10
-42.9029713645
 20
-7.4098425018
 10
-42.9544125508
 20
-7.4834953468
 10
-42.9988104694
 20
-7.5619171282
 10
-43.035729506
 20
-7.6443186503
 10
-43.0648211958
 20
-7.7300103088
 10
-43.0857969721
 20
-7.8182066994
 10
-43.0984572762
 20
-7.9080316798
 10
-43.1026915392
 20
-7.998630474
  0
LWPOLYLINE
  5
291
100
AcDbEntity
  8
RACCORDO
100
AcDbPolyline
 62
253
  6
CONTINUOUS
 90
10
 70
0
 10
-42.6035093043
 20
-14.5990546571
 10
-42.6031526505
 20
-14.6249608097
 10
-42.6021578176
 20
-14.6500883819
 10
-42.6005547039
 20
-14.6736821943
 10
-42.5983914893
 20
-14.6950331628
 10
-42.5957331864
 20
-14.7134996093
 10
-42.5926596876
 20
-14.7285265468
 10
-42.5892633631
 20
-14.7396623583
 10
-42.5856462854
 20
-14.7465723704
 10
-42.5819171616
 20
-14.7490489107
  0
LWPOLYLINE
  5
292
100
AcDbEntity
  8
RACCORDO
100
AcDbPolyline
 62
253
  6
CONTINUOUS
 90
10
 70
0
 10
-43.2325276012
 20
-4.7950069172
 10
-43.2320530748
 20
-4.8295687061
 10
-43.2307145545
 20
-4.8631003536
 10
-43.2285523093
 20
-4.8945932549
 10
-43.2256313836
 20
-4.9231001296
 10
-43.222039645
 20
-4.9477635157
 10
-43.2178851413
 20
-4.9678415613
 10
-43.2132928449
 20
-4.9827303366
 10
-43.2084008936
 20
-4.9919820008
 10
-43.2033564402
 20
-4.9953182731
  0
LINE
  5
293
100
AcDbEntity
  8
RACCORDO
100
AcDbLine
 62
253
  6
CONTINUOUS
 10
-43.6485211662
 20
-6.043466946
 11
-43.6485211662
 21
-13.9537987242
  0
LINE
  5
294
100
AcDbEntity
  8
RACCORDO
100
AcDbLine
 62
253
  6
CONTINUOUS
 10
-43.5522066597
 20
-6.0434622238
 11
-43.5522066597
 21
-13.9537987242
  0
LINE
  5
295
100
AcDbEntity
  8
SMUSSO
100
AcDbLine
 62
7
  6
CONTINUOUS
 10
-41.0192005714
 20
-5.034410632
 11
-41.0192005714
 21
-5.2385517174
  0
LINE
  5
296
100
AcDbEntity
  8
SMUSSO
100
AcDbLine
 62
7
  6
CONTINUOUS
 10
-41.0192005714
 20
-14.7587092306
 11
-41.0192005714
 21
-14.9628503161
  0
LINE
  5
297
100
AcDbEntity
  8
DRAFT
100
AcDbLine
 62
7
  6
CONTINUOUS
 10
-39.9157078043
 20
-14.7825576286
 11
-39.9157068998
 21
-14.9628517885
  0
LINE
  5
298
100
AcDbEntity
  8
DRAFT
100
AcDbLine
 62
7
  6
CONTINUOUS
 10
-39.9157095584
 20
-5.2147045033
 11
-39.9157095584
 21
-5.034410632
  0
LINE
  5
299
100
AcDbEntity
  8
ASSI
100
AcDbLine
 62
7
  6
CONTINUOUS
 10
-39.75
 20
-5.0025353958
 11
-39.75
 21
-5.2174706036
  0
LINE
  5
29A
100
AcDbEntity
  8
DRAFT
100
AcDbLine
 62
7
  6
CONTINUOUS
 10
-39.75
 20
-5.0025353958
 11
-39.75
 21
-5.2174706036
  0
LINE
  5
29B
100
AcDbEntity
  8
ASSI
100
AcDbLine
 62
7
  6
CONTINUOUS
 10
-39.75
 20
-14.7797903445
 11
-39.75
 21
-14.9950777072
  0
LINE
  5
29C
100
AcDbEntity
  8
DRAFT
100
AcDbLine
 62
7
  6
CONTINUOUS
 10
-39.75
 20
-14.7797903445
 11
-39.75
 21
-14.9950777072
  0
LWPOLYLINE
  5
29D
100
AcDbEntity
  8
RACCORDO
100
AcDbPolyline
 62
253
  6
CONTINUOUS
 90
10
 70
0
 10
-42.6035083732
 20
-5.398206291
 10
-42.6031517441
 20
-5.3723007893
 10
-42.6021569692
 20
-5.3471738028
 10
-42.6005539437
 20
-5.3235804523
 10
-42.5983908417
 20
-5.3022297694
 10
-42.5957326691
 20
-5.2837633888
 10
-42.5926593097
 20
-5.2687362656
 10
-42.5892631244
 20
-5.2575999975
 10
-42.5856461761
 20
-5.2506892538
 10
-42.5819171616
 20
-5.2482117174
  0
LWPOLYLINE
  5
29E
100
AcDbEntity
  8
RACCORDO
100
AcDbPolyline
 62
253
  6
CONTINUOUS
 90
10
 70
0
 10
-43.2338914905
 20
-15.2018645916
 10
-43.2333846439
 20
-15.1673474151
 10
-43.2319798709
 20
-15.1338720119
 10
-43.2297193371
 20
-15.1024431843
 10
-43.2266708953
 20
-15.0740043041
 10
-43.2229260477
 20
-15.0494089966
 10
-43.2185972003
 20
-15.0293955178
 10
-43.2138142883
 20
-15.0145645949
 10
-43.2087208763
 20
-15.0053613948
 10
-43.2034698487
 20
-15.0020621622
  0
LWPOLYLINE
  5
29F
100
AcDbEntity
  8
RACCORDO
100
AcDbPolyline
 62
253
  6
CONTINUOUS
 90
21
 70
0
 10
-44.201870104
 20
-5.9967222931
 10
-44.2004419134
 20
-5.9432605053
 10
-44.1959727322
 20
-5.8881920752
 10
-44.1881850011
 20
-5.8317089517
 10
-44.1768322807
 20
-5.7741559809
 10
-44.1616365448
 20
-5.715669274
 10
-44.1422204138
 20
-5.6561961687
 10
-44.1182931804
 20
-5.5961235831
 10
-44.0895625819
 20
-5.5358246961
 10
-44.0555316358
 20
-5.4753542607
 10
-44.0158105068
 20
-5.41515049
 10
-43.9702053305
 20
-5.3559650646
 10
-43.9184922622
 20
-5.2984616525
 10
-43.8604117897
 20
-5.2432873365
 10
-43.7960050847
 20
-5.1913750198
 10
-43.72568443
 20
-5.1438192093
 10
-43.6496434418
 20
-5.1014194589
 10
-43.5681882987
 20
-5.0649983569
 10
-43.4821731298
 20
-5.0355088844
 10
-43.3923105366
 20
-5.0136679992
 10
-43.2991180087
 20
-5.0000688593
  0
LWPOLYLINE
  5
2A0
100
AcDbEntity
  8
RACCORDO
100
AcDbPolyline
 62
7
  6
CONTINUOUS
 90
9
 70
0
 10
-44.2
 20
-5.9985923971
 10
-44.1957430042
 20
-5.9065262943
 10
-44.1832079899
 20
-5.8163650019
 10
-44.1628003163
 20
-5.7288145922
 10
-44.134914733
 20
-5.6443771843
 10
-44.1000901668
 20
-5.5637751159
 10
-44.0591270816
 20
-5.4878955193
 10
-44.0127890312
 20
-5.4172297674
 10
-43.9616670459
 20
-5.3519311379
  0
LINE
  5
2A1
100
AcDbEntity
  8
RACCORDO
100
AcDbLine
 62
7
  6
CONTINUOUS
 10
-43.9
 20
-14.698630474
 11
-43.9580302502
 21
-14.641589909
  0
LINE
  5
2A2
100
AcDbEntity
  8
RACCORDO
100
AcDbLine
 62
7
  6
CONTINUOUS
 10
-43.8535766541
 20
-14.7476454188
 11
-43.9
 21
-14.698630474
  0
LWPOLYLINE
  5
2A3
100
AcDbEntity
  8
RACCORDO
100
AcDbPolyline
 62
253
  6
CONTINUOUS
 90
8
 70
0
 10
-43.9377403602
 20
-14.6785641515
 10
-43.9908083006
 20
-14.6158219152
 10
-44.0403732994
 20
-14.5461556666
 10
-44.0855033174
 20
-14.46935027
 10
-44.1249161747
 20
-14.3857738843
 10
-44.1572472107
 20
-14.2964076471
 10
-44.1814557865
 20
-14.2020287953
 10
-44.196655106
 20
-14.1031302633
  0
LWPOLYLINE
  5
2A4
100
AcDbEntity
  8
RACCORDO
100
AcDbPolyline
 62
7
  6
CONTINUOUS
 90
8
 70
0
 10
-43.9580302502
 20
-14.641589909
 10
-44.0111372586
 20
-14.5787123342
 10
-44.0587268842
 20
-14.5100346945
 10
-44.1000619392
 20
-14.4352547584
 10
-44.1345550858
 20
-14.3550064363
 10
-44.1620691126
 20
-14.2710323945
 10
-44.1824378511
 20
-14.1843726563
 10
-44.1951808046
 20
-14.0952011251
  0
LINE
  5
2A5
100
AcDbEntity
  8
DRAFT
100
AcDbLine
 62
7
  6
CONTINUOUS
 10
-38.25
 20
-4.9997731772
 11
-38.25
 21
-5.2174706036
  0
LINE
  5
2A6
100
AcDbEntity
  8
ASSI
100
AcDbLine
 62
7
  6
CONTINUOUS
 10
-38.25
 20
-4.9997731772
 11
-38.25
 21
-5.2174706036
  0
LINE
  5
2A7
100
AcDbEntity
  8
ASSI
100
AcDbLine
 62
7
  6
CONTINUOUS
 10
-38.25
 20
-14.7797903445
 11
-38.25
 21
-14.9980078515
  0
LINE
  5
2A8
100
AcDbEntity
  8
DRAFT
100
AcDbLine
 62
7
  6
CONTINUOUS
 10
-38.25
 20
-14.7797903445
 11
-38.25
 21
-14.9980078515
  0
LINE
  5
2A9
100
AcDbEntity
  8
DRAFT
100
AcDbLine
 62
7
  6
CONTINUOUS
 10
-38.096642938
 20
-14.7820289179
 11
-38.096642938
 21
-14.9690260939
  0
LINE
  5
2AA
100
AcDbEntity
  8
DRAFT
100
AcDbLine
 62
7
  6
CONTINUOUS
 10
-38.096642938
 20
-5.2152320301
 11
-38.096642938
 21
-5.0282348541
  0
LINE
  5
2AB
100
AcDbEntity
  8
RACCORDO
100
AcDbLine
 62
253
  6
CONTINUOUS
 10
-36.8395081982
 20
-5.0047077932
 11
-36.8395081982
 21
-5.2585833707
  0
LINE
  5
2AC
100
AcDbEntity
  8
RACCORDO
100
AcDbLine
 62
253
  6
CONTINUOUS
 10
-36.8395081982
 20
-14.7386775773
 11
-36.8395081982
 21
-14.9925531548
  0
LINE
  5
2AD
100
AcDbEntity
  8
RACCORDO
100
AcDbLine
 62
253
  6
CONTINUOUS
 10
-36.3256661651
 20
-5.0009245007
 11
-36.3256661651
 21
-5.2585833707
  0
LINE
  5
2AE
100
AcDbEntity
  8
RACCORDO
100
AcDbLine
 62
253
  6
CONTINUOUS
 10
-36.3256661651
 20
-14.7386775773
 11
-36.3256661651
 21
-14.9963364474
  0
LWPOLYLINE
  5
2AF
100
AcDbEntity
  8
RACCORDO
100
AcDbPolyline
 62
253
  6
CONTINUOUS
 90
11
 70
0
 10
-43.9078331878
 20
-14.9917580324
 10
-43.9779485727
 20
-14.9403639747
 10
-44.0459487414
 20
-14.8811216305
 10
-44.112341926
 20
-14.8137205567
 10
-44.1766162389
 20
-14.7385252458
 10
-44.2353842611
 20
-14.6551081941
 10
-44.2888786173
 20
-14.5627138718
 10
-44.3368627618
 20
-14.4621786713
 10
-44.3752450859
 20
-14.3554600752
 10
-44.4026616629
 20
-14.2432309371
 10
-44.420476428
 20
-14.1248908505
  0
LINE
  5
2B0
100
AcDbEntity
  8
RACCORDO
100
AcDbLine
 62
253
  6
CONTINUOUS
 10
-44.2
 20
-5.9985923971
 11
-44.201870104
 21
-5.9967222931
  0
LWPOLYLINE
  5
2B1
100
AcDbEntity
  8
RACCORDO
100
AcDbPolyline
 62
253
  6
CONTINUOUS
 90
11
 70
0
 10
-44.2049631149
 20
-5.2988411138
 10
-44.1505090798
 20
-5.2272718227
 10
-44.0886336857
 20
-5.1586855744
 10
-44.0188769591
 20
-5.0927987132
 10
-43.9417073735
 20
-5.029870483
 10
-43.8577897594
 20
-4.9731464745
 10
-43.7666616421
 20
-4.9227032409
 10
-43.6687923824
 20
-4.8784212336
 10
-43.5662407339
 20
-4.8432339978
 10
-43.4596923362
 20
-4.818103883
 10
-43.3484626659
 20
-4.8020313462
  0
LINE
  5
2B2
100
AcDbEntity
  8
DRAFT
100
AcDbLine
 62
7
  6
CONTINUOUS
 10
-39.9166499619
 20
-14.9628503161
 11
-39.8516206186
 21
-14.9948923455
  0
LWPOLYLINE
  5
2B3
100
AcDbEntity
  8
RACCORDO
100
AcDbPolyline
 62
7
  6
CONTINUOUS
 90
5
 70
0
 10
-43.6173718467
 20
-14.9052365484
 10
-43.6839087862
 20
-14.8720013423
 10
-43.7460851888
 20
-14.8342234678
 10
-43.8022025662
 20
-14.7929199757
 10
-43.8535766541
 20
-14.7476454188
  0
LWPOLYLINE
  5
2B4
100
AcDbEntity
  8
RACCORDO
100
AcDbPolyline
 62
253
  6
CONTINUOUS
 90
6
 70
0
 10
-43.6487778658
 20
-14.8964003145
 10
-43.7078504262
 20
-14.8643021485
 10
-43.7667117227
 20
-14.8268862992
 10
-43.8248379293
 20
-14.7838569782
 10
-43.8820736605
 20
-14.734551508
 10
-43.9377403602
 20
-14.6785641515
  0
LINE
  5
2B5
100
AcDbEntity
  8
RACCORDO
100
AcDbLine
 62
253
  6
CONTINUOUS
 10
-43.1981390797
 20
-5.0005294712
 11
-43.2033564394
 21
-4.9953121116
  0
LWPOLYLINE
  5
2B6
100
AcDbEntity
  8
RACCORDO
100
AcDbPolyline
 62
253
  6
CONTINUOUS
 90
10
 70
0
 10
-26.271299809
 20
-14.5505274694
 10
-26.2701003562
 20
-14.5764477414
 10
-26.2667340207
 20
-14.601587557
 10
-26.2613020807
 20
-14.6251905476
 10
-26.2539679609
 20
-14.646546582
 10
-26.2449523163
 20
-14.665013132
 10
-26.2345263931
 20
-14.680034604
 10
-26.2230038683
 20
-14.6911590547
 10
-26.2107314116
 20
-14.6980517883
 10
-26.1980782558
 20
-14.7005054266
  0
LWPOLYLINE
  5
2B7
100
AcDbEntity
  8
RACCORDO
100
AcDbPolyline
 62
253
  6
CONTINUOUS
 90
10
 70
0
 10
-26.300439711
 20
-4.7357131648
 10
-26.2996524634
 20
-4.7715896051
 10
-26.2956550233
 20
-4.8066532433
 10
-26.2885770724
 20
-4.8397749346
 10
-26.2786474884
 20
-4.8698885976
 10
-26.2661867555
 20
-4.8960255793
 10
-26.2515965692
 20
-4.9173457316
 10
-26.2353470647
 20
-4.9331642582
 10
-26.2179616566
 20
-4.942973688
 10
-26.2
 20
-4.94646014
  0
LINE
  5
2B8
100
AcDbEntity
  8
RACCORDO
100
AcDbLine
 62
7
  6
CONTINUOUS
 10
-43.9616670459
 20
-5.3519311379
 11
-43.90642293
 21
-5.292207544
  0
LWPOLYLINE
  5
2B9
100
AcDbEntity
  8
RACCORDO
100
AcDbPolyline
 62
253
  6
CONTINUOUS
 90
5
 70
0
 10
-43.6266397618
 20
-15.134692005
 10
-43.6964554057
 20
-15.1076028996
 10
-43.7670854709
 20
-15.0753917513
 10
-43.8374581873
 20
-15.0367546459
 10
-43.9078331878
 20
-14.9917580324
  0
LINE
  5
2BA
100
AcDbEntity
  8
RACCORDO
100
AcDbLine
 62
253
  6
CONTINUOUS
 10
-26.198078263
 20
-14.7005217578
 11
-26.1970237746
 21
-14.7015762379
  0
LWPOLYLINE
  5
2BB
100
AcDbEntity
  8
RACCORDO
100
AcDbPolyline
 62
253
  6
CONTINUOUS
 90
3
 70
0
 10
-8.2066364308
 20
-46.5106257268
 10
-8.2051998943
 20
-46.513177485
 10
-8.1827620173
 20
-46.5378883834
  0
LINE
  5
2BC
100
AcDbEntity
  8
DRAFT
100
AcDbLine
 62
7
  6
CONTINUOUS
 10
-25.1623661626
 20
-12.4621914659
 11
-25.1441480461
 21
-12.498630474
  0
LWPOLYLINE
  5
2BD
100
AcDbEntity
  8
RACCORDO
100
AcDbPolyline
 62
7
  6
CONTINUOUS
 90
8
 70
0
 10
-25.4013237148
 20
-6.0999237273
 10
-25.4040082434
 20
-6.0343027781
 10
-25.4120957013
 20
-5.9687809674
 10
-25.4256105907
 20
-5.9038137611
 10
-25.4445083807
 20
-5.8399511982
 10
-25.4687508723
 20
-5.77756649
 10
-25.4983775086
 20
-5.7168808061
 10
-25.5333423743
 20
-5.6583472045
  0
LWPOLYLINE
  5
2BE
100
AcDbEntity
  8
RACCORDO
100
AcDbPolyline
 62
253
  6
CONTINUOUS
 90
19
 70
0
 10
-25.626577064
 20
-6.0999237273
 10
-25.6286984159
 20
-6.0463508419
 10
-25.6351864751
 20
-5.9934874797
 10
-25.646042442
 20
-5.9413336406
 10
-25.6612941089
 20
-5.8895325791
 10
-25.6809185163
 20
-5.8384410407
 10
-25.704841879
 20
-5.7891292623
 10
-25.7331552097
 20
-5.7415624035
 10
-25.7657769917
 20
-5.6957753047
 10
-25.8023752686
 20
-5.6529427245
 10
-25.8431454169
 20
-5.6130323893
 10
-25.8879050273
 20
-5.5760765727
 10
-25.9357542708
 20
-5.5433468533
 10
-25.9869488824
 20
-5.5149532485
 10
-26.0412459035
 20
-5.490785741
 10
-26.0969926293
 20
-5.4717858576
 10
-26.1536386029
 20
-5.4582674405
 10
-26.2117397192
 20
-5.4499166476
 10
-26.2712992054
 20
-5.4467334787
  0
LINE
  5
2BF
100
AcDbEntity
  8
RACCORDO
100
AcDbLine
 62
253
  6
CONTINUOUS
 10
-25.1404152957
 20
-5.998630474
 11
-25.137436118
 21
-11.5220873423
  0
LINE
  5
2C0
100
AcDbEntity
  8
RACCORDO
100
AcDbLine
 62
253
  6
CONTINUOUS
 10
-25.137436118
 20
-11.5220873423
 11
-25.1363257905
 21
-13.998630474
  0
LINE
  5
2C1
100
AcDbEntity
  8
RACCORDO
100
AcDbLine
 62
253
  6
CONTINUOUS
 10
-26.2
 20
-15.0553449892
 11
-26.2
 21
-15.0313307144
  0
LINE
  5
2C2
100
AcDbEntity
  8
RACCORDO
100
AcDbLine
 62
253
  6
CONTINUOUS
 10
-25.626577064
 20
-13.8973372207
 11
-25.626577064
 21
-6.0999237273
  0
LINE
  5
2C3
100
AcDbEntity
  8
RACCORDO
100
AcDbLine
 62
7
  6
CONTINUOUS
 10
-25.4013237148
 20
-13.8973372207
 11
-25.4013237148
 21
-6.0999237273
  0
LINE
  5
2C4
100
AcDbEntity
  8
DRAFT
100
AcDbLine
 62
7
  6
CONTINUOUS
 10
-25.2371691907
 20
-5.9614612833
 11
-25.2371691907
 21
-6.248630474
  0
LINE
  5
2C5
100
AcDbEntity
  8
DRAFT
100
AcDbLine
 62
7
  6
CONTINUOUS
 10
-25.2371691907
 20
-7.248630474
 11
-25.2371691907
 21
-7.5357996647
  0
LINE
  5
2C6
100
AcDbEntity
  8
DRAFT
100
AcDbLine
 62
7
  6
CONTINUOUS
 10
-25.2371691907
 20
-12.4614612833
 11
-25.2371691907
 21
-12.748630474
  0
LINE
  5
2C7
100
AcDbEntity
  8
DRAFT
100
AcDbLine
 62
7
  6
CONTINUOUS
 10
-25.2371691907
 20
-13.748630474
 11
-25.2371691907
 21
-14.0357996647
  0
LINE
  5
2C8
100
AcDbEntity
  8
DRAFT
100
AcDbLine
 62
7
  6
CONTINUOUS
 10
-25.1623661626
 20
-7.5350694821
 11
-25.1623661626
 21
-8.998630474
  0
LINE
  5
2C9
100
AcDbEntity
  8
DRAFT
100
AcDbLine
 62
7
  6
CONTINUOUS
 10
-25.1623661626
 20
-10.998630474
 11
-25.1623661626
 21
-12.4621914659
  0
LINE
  5
2CA
100
AcDbEntity
  8
DRAFT
100
AcDbLine
 62
7
  6
CONTINUOUS
 10
-25.1583396938
 20
-8.998630474
 11
-25.1583396938
 21
-10.998630474
  0
LINE
  5
2CB
100
AcDbEntity
  8
DRAFT
100
AcDbLine
 62
7
  6
CONTINUOUS
 10
-25.1441480461
 20
-13.998630474
 11
-25.1441480461
 21
-12.498630474
  0
LINE
  5
2CC
100
AcDbEntity
  8
DRAFT
100
AcDbLine
 62
7
  6
CONTINUOUS
 10
-25.1441480461
 20
-7.498630474
 11
-25.1441480461
 21
-5.998630474
  0
LINE
  5
2CD
100
AcDbEntity
  8
RACCORDO
100
AcDbLine
 62
253
  6
CONTINUOUS
 10
-25.0475491674
 20
-5.9869471056
 11
-25.0504453658
 21
-13.9907351301
  0
LINE
  5
2CE
100
AcDbEntity
  8
RACCORDO
100
AcDbLine
 62
253
  6
CONTINUOUS
 10
-26.1999864723
 20
-4.946460079
 11
-26.2
 21
-4.9659302336
  0
LWPOLYLINE
  5
2CF
100
AcDbEntity
  8
RACCORDO
100
AcDbPolyline
 62
253
  6
CONTINUOUS
 90
12
 70
0
 10
-25.0504453658
 20
-13.9907351301
 10
-25.0514819938
 20
-14.0518187688
 10
-25.0561573616
 20
-14.1142502877
 10
-25.0644718073
 20
-14.1780338714
 10
-25.0762243819
 20
-14.2435331796
 10
-25.091618889
 20
-14.3103939031
 10
-25.111264394
 20
-14.3775393554
 10
-25.1351914013
 20
-14.4449114946
 10
-25.163378802
 20
-14.5125686643
 10
-25.1963611949
 20
-14.579601287
 10
-25.2341098441
 20
-14.6460196221
 10
-25.2766723251
 20
-14.7118066664
  0
LWPOLYLINE
  5
2D0
100
AcDbEntity
  8
RACCORDO
100
AcDbPolyline
 62
253
  6
CONTINUOUS
 90
12
 70
0
 10
-25.1363257905
 20
-13.998630474
 10
-25.137533996
 20
-14.0497232716
 10
-25.1413720581
 20
-14.1022969422
 10
-25.1480683079
 20
-14.1562015909
 10
-25.157863999
 20
-14.2113444662
 10
-25.1709740101
 20
-14.2674420559
 10
-25.1875403227
 20
-14.3240285754
 10
-25.2076842073
 20
-14.3807517488
 10
-25.2315856236
 20
-14.4374637098
 10
-25.2594316754
 20
-14.4939723726
 10
-25.2912980729
 20
-14.549867758
 10
-25.3273394644
 20
-14.6049079695
  0
LWPOLYLINE
  5
2D1
100
AcDbEntity
  8
RACCORDO
100
AcDbPolyline
 62
253
  6
CONTINUOUS
 90
10
 70
0
 10
-26.2712993573
 20
-5.4467334787
 10
-26.2701013216
 20
-5.4208114726
 10
-26.2667360171
 20
-5.3956694955
 10
-26.2613047105
 20
-5.3720641039
 10
-26.2539708375
 20
-5.3507056168
 10
-26.2449550842
 20
-5.3322367404
 10
-26.2345287471
 20
-5.3172132287
 10
-26.2230055691
 20
-5.3060871597
 10
-26.2107322984
 20
-5.2991933323
 10
-26.1980782547
 20
-5.2967391912
  0
LWPOLYLINE
  5
2D2
100
AcDbEntity
  8
RACCORDO
100
AcDbPolyline
 62
253
  6
CONTINUOUS
 90
10
 70
0
 10
-26.3091708243
 20
-15.2489123319
 10
-26.3068634578
 20
-15.2151362159
 10
-26.3014692261
 20
-15.1825226313
 10
-26.2931440773
 20
-15.1520146578
 10
-26.2821287101
 20
-15.1244944875
 10
-26.2687416188
 20
-15.1007579136
 10
-26.2533698831
 20
-15.0814913197
 10
-26.2364579686
 20
-15.0672518317
 10
-26.2184948749
 20
-15.0584512081
 10
-26.1999999995
 20
-15.0553439327
  0
LINE
  5
2D3
100
AcDbEntity
  8
RACCORDO
100
AcDbLine
 62
7
  6
CONTINUOUS
 10
-43.90642293
 20
-5.292207544
 11
-43.8577780693
 21
-5.2470922128
  0
LINE
  5
2D4
100
AcDbEntity
  8
RACCORDO
100
AcDbLine
 62
7
  6
CONTINUOUS
 10
-43.8577780693
 20
-5.2470922128
 11
-43.8048836919
 21
-5.2042431913
  0
LINE
  5
2D5
100
AcDbEntity
  8
RACCORDO
100
AcDbLine
 62
7
  6
CONTINUOUS
 10
12.0
 20
-47.498630474
 11
11.2039351439
 21
-46.7025656179
  0
LINE
  5
2D6
100
AcDbEntity
  8
RACCORDO
100
AcDbLine
 62
253
  6
CONTINUOUS
 10
10.4995523085
 20
-46.7036056181
 11
11.2833720857
 21
-47.501369526
  0
LINE
  5
2D7
100
AcDbEntity
  8
DRAFT
100
AcDbLine
 62
7
  6
CONTINUOUS
 10
-25.4025783534
 20
-5.3385697923
 11
-25.5276845891
 21
-5.2112170743
  0
LWPOLYLINE
  5
2D8
100
AcDbEntity
  8
RACCORDO
100
AcDbPolyline
 62
7
  6
CONTINUOUS
 90
4
 70
0
 10
-25.5333423743
 20
-5.6583472045
 10
-25.5735016719
 20
-5.6025178955
 10
-25.6187665609
 20
-5.5498112008
 10
-25.6689968627
 20
-5.5006902955
  0
LINE
  5
2D9
100
AcDbEntity
  8
DRAFT
100
AcDbLine
 62
7
  6
CONTINUOUS
 10
-25.3028800848
 20
-5.4785922905
 11
-25.4025783534
 21
-5.3385697923
  0
LWPOLYLINE
  5
2DA
100
AcDbEntity
  8
RACCORDO
100
AcDbPolyline
 62
253
  6
CONTINUOUS
 90
8
 70
0
 10
-25.3513894731
 20
-5.36719045
 10
-25.3038121459
 20
-5.4360914959
 10
-25.2597365105
 20
-5.5126008769
 10
-25.2205519364
 20
-5.596532841
 10
-25.187649196
 20
-5.6876110312
 10
-25.1624075628
 20
-5.7854136215
 10
-25.1461977959
 20
-5.8893696716
 10
-25.1404152957
 20
-5.998630474
  0
LWPOLYLINE
  5
2DB
100
AcDbEntity
  8
DRAFT
100
AcDbPolyline
 62
7
  6
CONTINUOUS
 90
4
 70
0
 10
-25.1630095511
 20
-5.9621851729
 10
-25.1844262679
 20
-5.7883177652
 10
-25.2310346663
 20
-5.6271201377
 10
-25.3028800848
 20
-5.4785922905
  0
LINE
  5
2DC
100
AcDbEntity
  8
DRAFT
100
AcDbLine
 62
7
  6
CONTINUOUS
 10
-25.1623661626
 20
-7.5350694821
 11
-25.1441480461
 21
-7.498630474
  0
LINE
  5
2DD
100
AcDbEntity
  8
RACCORDO
100
AcDbLine
 62
253
  6
CONTINUOUS
 10
-44.2019141121
 20
-14.000582663
 11
-44.2
 21
-13.9986685509
  0
LINE
  5
2DE
100
AcDbEntity
  8
RACCORDO
100
AcDbLine
 62
253
  6
CONTINUOUS
 10
-43.2034698487
 20
-15.0020622458
 11
-43.1981390797
 21
-14.9967314768
  0
LWPOLYLINE
  5
2DF
100
AcDbEntity
  8
RACCORDO
100
AcDbPolyline
 62
7
  6
CONTINUOUS
 90
10
 70
0
 10
-43.8048836919
 20
-5.2042431913
 10
-43.7477635917
 20
-5.1641297558
 10
-43.6851049587
 20
-5.1264720169
 10
-43.6183075881
 20
-5.0927480746
 10
-43.5520197975
 20
-5.0651478105
 10
-43.4884887732
 20
-5.043736982
 10
-43.4266274313
 20
-5.0272870269
 10
-43.3664125496
 20
-5.0151599139
 10
-43.3080202915
 20
-5.0069055365
 10
-43.2518574241
 20
-5.0021664753
  0
LINE
  5
2E0
100
AcDbEntity
  8
RACCORDO
100
AcDbLine
 62
253
  6
CONTINUOUS
 10
43.3568656147
 20
-15.1936113812
 11
43.2338915043
 21
-15.2018645949
  0
LINE
  5
2E1
100
AcDbEntity
  8
DRAFT
100
AcDbLine
 62
7
  6
CONTINUOUS
 10
-38.096642938
 20
-5.0282348541
 11
-38.1539474212
 21
-4.9995847946
  0
LWPOLYLINE
  5
2E2
100
AcDbEntity
  8
DRAFT
100
AcDbPolyline
 62
7
  6
CONTINUOUS
 90
5
 70
0
 10
-25.5276845891
 20
-5.2112170743
 10
-25.6706526929
 20
-5.1090274301
 10
-25.8290161738
 20
-5.0361652908
 10
-26.0054278021
 20
-4.9884662253
 10
-26.2
 20
-4.9659302336
  0
LWPOLYLINE
  5
2E3
100
AcDbEntity
  8
RACCORDO
100
AcDbPolyline
 62
7
  6
CONTINUOUS
 90
9
 70
0
 10
-25.6689968627
 20
-5.5006902955
 10
-25.723885352
 20
-5.4557340827
 10
-25.783013631
 20
-5.4155153667
 10
-25.8460705005
 20
-5.3804473311
 10
-25.9125493252
 20
-5.3510059887
 10
-25.9815993597
 20
-5.3276931287
 10
-26.0525372291
 20
-5.3107809726
 10
-26.12489776
 20
-5.3004158188
 10
-26.1980782613
 20
-5.2967391903
  0
LWPOLYLINE
  5
2E4
100
AcDbEntity
  8
RACCORDO
100
AcDbPolyline
 62
253
  6
CONTINUOUS
 90
4
 70
0
 10
-25.5060681503
 20
-5.2017808568
 10
-25.4533118922
 20
-5.250468801
 10
-25.4014352498
 20
-5.3055448478
 10
-25.3513894731
 20
-5.36719045
  0
LWPOLYLINE
  5
2E5
100
AcDbEntity
  8
RACCORDO
100
AcDbPolyline
 62
253
  6
CONTINUOUS
 90
11
 70
0
 10
-25.478493723
 20
-5.0392669967
 10
-25.4166134172
 20
-5.0973271991
 10
-25.3554044593
 20
-5.1630607633
 10
-25.2954643996
 20
-5.2362904233
 10
-25.239944066
 20
-5.3181587519
 10
-25.1883104863
 20
-5.4094117964
 10
-25.1410743898
 20
-5.5094038848
 10
-25.1029292252
 20
-5.6171975747
 10
-25.0754214402
 20
-5.7325150832
 10
-25.056965567
 20
-5.8557445412
 10
-25.0475491674
 20
-5.9869471056
  0
LWPOLYLINE
  5
2E6
100
AcDbEntity
  8
DRAFT
100
AcDbPolyline
 62
7
  6
CONTINUOUS
 90
4
 70
0
 10
-25.3028796641
 20
-14.5186679359
 10
-25.2310343241
 20
-14.3701401875
 10
-25.1844260659
 20
-14.2089428005
 10
-25.1630095511
 20
-14.0350757751
  0
LWPOLYLINE
  5
2E7
100
AcDbEntity
  8
RACCORDO
100
AcDbPolyline
 62
7
  6
CONTINUOUS
 90
8
 70
0
 10
-25.533144429
 20
-14.3386119634
 10
-25.4981662125
 20
-14.2799894917
 10
-25.4684854489
 20
-14.2190870917
 10
-25.4442091662
 20
-14.1564323256
 10
-25.4253637829
 20
-14.0924625713
 10
-25.4119573451
 20
-14.0276382795
 10
-25.4039667383
 20
-13.9624451981
 10
-25.4013237148
 20
-13.8973372207
  0
LINE
  5
2E8
100
AcDbEntity
  8
RACCORDO
100
AcDbLine
 62
253
  6
CONTINUOUS
 10
-26.1980782613
 20
-5.2967391903
 11
-26.1970237746
 21
-5.2956847102
  0
LINE
  5
2E9
100
AcDbEntity
  8
DRAFT
100
AcDbLine
 62
7
  6
CONTINUOUS
 10
-39.8523071312
 20
-5.0027118326
 11
-39.9157095584
 21
-5.034410632
  0
LWPOLYLINE
  5
2EA
100
AcDbEntity
  8
RACCORDO
100
AcDbPolyline
 62
253
  6
CONTINUOUS
 90
19
 70
0
 10
-26.2712992054
 20
-14.5505274693
 10
-26.2117371493
 20
-14.5473402986
 10
-26.1536443006
 20
-14.5389928259
 10
-26.0970174069
 20
-14.5254850512
 10
-26.0413117917
 20
-14.5065092323
 10
-25.9870666291
 20
-14.4823731114
 10
-25.9359009271
 20
-14.4539999153
 10
-25.8880430701
 20
-14.4212801819
 10
-25.8432520141
 20
-14.3843233734
 10
-25.8024378385
 20
-14.3443811018
 10
-25.7657780117
 20
-14.3014804118
 10
-25.7330821269
 20
-14.2555942589
 10
-25.7047071952
 20
-14.2078931216
 10
-25.6807359065
 20
-14.1583440249
 10
-25.6610760265
 20
-14.1069799438
 10
-25.6458227574
 20
-14.0550702825
 10
-25.63500618
 20
-14.0030381755
 10
-25.6285913475
 20
-13.9504604883
 10
-25.626577064
 20
-13.8973372207
  0
LINE
  5
2EB
100
AcDbEntity
  8
RACCORDO
100
AcDbLine
 62
253
  6
CONTINUOUS
 10
43.3050866663
 20
-14.9967065848
 11
43.2034698508
 21
-15.0020622479
  0
LWPOLYLINE
  5
2EC
100
AcDbEntity
  8
RACCORDO
100
AcDbPolyline
 62
7
  6
CONTINUOUS
 90
9
 70
0
 10
-26.198078263
 20
-14.7005217578
 10
-26.1248764123
 20
-14.6968430618
 10
-26.0524972008
 20
-14.6864723406
 10
-25.9815437133
 20
-14.6695518137
 10
-25.9124871617
 20
-14.6462307302
 10
-25.8460048469
 20
-14.6167808559
 10
-25.7829315694
 20
-14.5816949465
 10
-25.7237664388
 20
-14.5414379756
 10
-25.6688352637
 20
-14.4964259245
  0
LINE
  5
2ED
100
AcDbEntity
  8
RACCORDO
100
AcDbLine
 62
253
  6
CONTINUOUS
 10
-26.2033886792
 20
-15.2440770227
 11
-26.3090671068
 21
-15.2489184395
  0
LWPOLYLINE
  5
2EE
100
AcDbEntity
  8
RACCORDO
100
AcDbPolyline
 62
253
  6
CONTINUOUS
 90
10
 70
0
 10
-25.0504440086
 20
-13.9907352239
 10
-25.0671971529
 20
-13.9913713586
 10
-25.0824785374
 20
-13.9920891361
 10
-25.0961162949
 20
-13.9928804836
 10
-25.1079570439
 20
-13.9937365012
 10
-25.1178676134
 20
-13.9946475614
 10
-25.125736541
 20
-13.995603418
 10
-25.1314753261
 20
-13.9965933206
 10
-25.1350194255
 20
-13.9976061361
 10
-25.1363289795
 20
-13.9986304737
  0
LINE
  5
2EF
100
AcDbEntity
  8
RACCORDO
100
AcDbLine
 62
7
  6
CONTINUOUS
 10
43.2518574241
 20
-14.9950944727
 11
43.1981390797
 21
-14.9967314768
  0
LINE
  5
2F0
100
AcDbEntity
  8
DRAFT
100
AcDbLine
 62
7
  6
CONTINUOUS
 10
-38.2499723445
 20
-14.7809437681
 11
-36.4871823366
 21
-14.7386775773
  0
LWPOLYLINE
  5
2F1
100
AcDbEntity
  8
RACCORDO
100
AcDbPolyline
 62
253
  6
CONTINUOUS
 90
49
 70
0
 10
42.6130072482
 20
-14.5990546571
 10
42.659780848
 20
-14.5981605535
 10
42.7051023197
 20
-14.596039779
 10
42.7489710017
 20
-14.5926923336
 10
42.7913300255
 20
-14.5880361245
 10
42.8322350048
 20
-14.5821532445
 10
42.8718541056
 20
-14.5752899715
 10
42.9102328056
 20
-14.5674630674
 10
42.9473246677
 20
-14.5586557703
 10
42.9831600902
 20
-14.5490640721
 10
43.0177592492
 20
-14.5386881204
 10
43.0511011393
 20
-14.5275277676
 10
43.0831544152
 20
-14.5157785628
 10
43.1138953884
 20
-14.5034509538
 10
43.143347001
 20
-14.4905344928
 10
43.1715478816
 20
-14.4771933855
 10
43.1984812569
 20
-14.4634418986
 10
43.2241632791
 20
-14.4492657655
 10
43.2486820191
 20
-14.4347863918
 10
43.2720328961
 20
-14.4200158074
 10
43.29422
 20
-14.4049419823
 10
43.3153444666
 20
-14.3896502333
 10
43.3354140855
 20
-14.3741427407
 10
43.3544206886
 20
-14.358417324
 10
43.3724415232
 20
-14.342552759
 10
43.3894921282
 20
-14.3265338053
 10
43.4055566708
 20
-14.3103757032
 10
43.4206653716
 20
-14.2942029487
 10
43.434803506
 20
-14.2780265545
 10
43.4479855615
 20
-14.2618355079
 10
43.4602856007
 20
-14.2457212663
 10
43.4716807636
 20
-14.2297288379
 10
43.4821937341
 20
-14.2138132146
 10
43.4919669218
 20
-14.1979308291
 10
43.5010169512
 20
-14.1820853378
 10
43.5093270831
 20
-14.1662730844
 10
43.5169897072
 20
-14.1504395321
 10
43.5240205318
 20
-14.1345815555
 10
43.5304037708
 20
-14.11870228
 10
43.5361845861
 20
-14.1027565452
 10
43.5413735093
 20
-14.0867500589
 10
43.5459599551
 20
-14.0706771132
 10
43.5499574166
 20
-14.0544754239
 10
43.5533788859
 20
-14.0381478731
 10
43.5562113356
 20
-14.0216915786
 10
43.5584292336
 20
-14.0050356096
 10
43.5600240626
 20
-13.9881563223
 10
43.5610043208
 20
-13.9710773605
 10
43.5613700032
 20
-13.9537987242
  0
LINE
  5
2F2
100
AcDbEntity
  8
RACCORDO
100
AcDbLine
 62
7
  6
CONTINUOUS
 10
36.8395081982
 20
-14.9925531548
 11
38.096642938
 21
-14.9690260939
  0
LINE
  5
2F3
100
AcDbEntity
  8
DRAFT
100
AcDbLine
 62
7
  6
CONTINUOUS
 10
40.960226671
 20
-14.7587092306
 11
39.7500243282
 21
-14.7812328496
  0
LWPOLYLINE
  5
2F4
100
AcDbEntity
  8
RACCORDO
100
AcDbPolyline
 62
253
  6
CONTINUOUS
 90
49
 70
0
 10
42.5910347679
 20
-14.7490489455
 10
42.643489976
 20
-14.7481267752
 10
42.6944140098
 20
-14.7454149927
 10
42.7437494572
 20
-14.7410555117
 10
42.7913500177
 20
-14.7352065146
 10
42.8372766756
 20
-14.7279979481
 10
42.8817907801
 20
-14.7194918291
 10
42.9249266417
 20
-14.7097713268
 10
42.9665948572
 20
-14.6989489353
 10
43.0068706519
 20
-14.687081573
 10
43.0457693612
 20
-14.6742396965
 10
43.0832431144
 20
-14.6605182926
 10
43.1192750884
 20
-14.6459961222
 10
43.1538417542
 20
-14.6307571193
 10
43.1869575814
 20
-14.6148741644
 10
43.2186661984
 20
-14.5984026867
 10
43.2489558562
 20
-14.5814181072
 10
43.2778446722
 20
-14.5639824257
 10
43.3054204727
 20
-14.5461194607
 10
43.3316855685
 20
-14.5278892932
 10
43.3566515521
 20
-14.5093457821
 10
43.3804162299
 20
-14.4904903088
 10
43.4029963225
 20
-14.4713621129
 10
43.4243911481
 20
-14.4520139984
 10
43.4446685316
 20
-14.4324577015
 10
43.4638583313
 20
-14.4127088573
 10
43.4819491019
 20
-14.3928287699
 10
43.4989488765
 20
-14.3728954126
 10
43.5148611036
 20
-14.3529566355
 10
43.5297137009
 20
-14.3330377826
 10
43.5435560976
 20
-14.3131832483
 10
43.5563782718
 20
-14.293473075
 10
43.5682286468
 20
-14.2738910412
 10
43.5792375126
 20
-14.2543299458
 10
43.5894253022
 20
-14.2348078564
 10
43.5987939889
 20
-14.215350545
 10
43.6074310483
 20
-14.1958523801
 10
43.6153508824
 20
-14.1763206632
 10
43.622548625
 20
-14.1567804166
 10
43.6290700531
 20
-14.1371462782
 10
43.6349193992
 20
-14.117435891
 10
43.6400925705
 20
-14.0976583094
 10
43.6446107514
 20
-14.0777113604
 10
43.6484737822
 20
-14.057609828
 10
43.6516699826
 20
-14.0373629471
 10
43.6541895687
 20
-14.0168578998
 10
43.6560174257
 20
-13.9960650249
 10
43.6571412749
 20
-13.9750390837
 10
43.6575484226
 20
-13.9537940031
  0
LINE
  5
2F5
100
AcDbEntity
  8
RACCORDO
100
AcDbLine
 62
253
  6
CONTINUOUS
 10
-43.8371702723
 20
-14.7621039074
 11
-42.5820053295
 21
-14.7490490854
  0
LINE
  5
2F6
100
AcDbEntity
  8
RACCORDO
100
AcDbLine
 62
253
  6
CONTINUOUS
 10
-44.2004069634
 20
-13.9595384888
 11
-43.6485211662
 21
-13.9537987242
  0
LINE
  5
2F7
100
AcDbEntity
  8
DRAFT
100
AcDbLine
 62
7
  6
CONTINUOUS
 10
-25.2371691907
 20
-14.0357996647
 11
-25.1630095511
 21
-14.0350757751
  0
LINE
  5
2F8
100
AcDbEntity
  8
RACCORDO
100
AcDbLine
 62
7
  6
CONTINUOUS
 10
27.4338411535
 20
-15.048628167
 11
26.2000059273
 21
-15.0553449814
  0
LINE
  5
2F9
100
AcDbEntity
  8
RACCORDO
100
AcDbLine
 62
253
  6
CONTINUOUS
 10
-28.2558060077
 20
-14.7100007665
 11
-26.198078263
 21
-14.7005217578
  0
LINE
  5
2FA
100
AcDbEntity
  8
RACCORDO
100
AcDbLine
 62
253
  6
CONTINUOUS
 10
-28.3217710618
 20
-14.5600060214
 11
-26.2712992054
 21
-14.5505274693
  0
LINE
  5
2FB
100
AcDbEntity
  8
RACCORDO
100
AcDbLine
 62
7
  6
CONTINUOUS
 10
43.1981390797
 20
-14.9967314768
 11
42.9001624846
 21
-14.998638768
  0
LINE
  5
2FC
100
AcDbEntity
  8
RACCORDO
100
AcDbLine
 62
253
  6
CONTINUOUS
 10
-30.3797577961
 20
-14.7186395944
 11
-28.2558060077
 21
-14.7100007665
  0
LINE
  5
2FD
100
AcDbEntity
  8
RACCORDO
100
AcDbLine
 62
253
  6
CONTINUOUS
 10
-30.4395440886
 20
-14.5686440631
 11
-28.3217710618
 21
-14.5600060214
  0
LINE
  5
2FE
100
AcDbEntity
  8
RACCORDO
100
AcDbLine
 62
253
  6
CONTINUOUS
 10
-32.5634185685
 20
-14.7264107006
 11
-30.3797577961
 21
-14.7186395944
  0
LINE
  5
2FF
100
AcDbEntity
  8
RACCORDO
100
AcDbLine
 62
253
  6
CONTINUOUS
 10
-32.6159200535
 20
-14.5764142194
 11
-30.4395440886
 21
-14.5686440631
  0
LWPOLYLINE
  5
300
100
AcDbEntity
  8
RACCORDO
100
AcDbPolyline
 62
253
  6
CONTINUOUS
 90
4
 70
0
 10
32.5787386629
 20
-15.2237661042
 10
31.3025242119
 20
-15.2278387664
 10
30.0389273369
 20
-15.2325739397
 10
26.3090671333
 20
-15.2489184809
  0
LWPOLYLINE
  5
301
100
AcDbEntity
  8
RACCORDO
100
AcDbPolyline
 62
7
  6
CONTINUOUS
 90
7
 70
0
 10
35.2541373984
 20
-15.0179843878
 10
33.8451042073
 20
-15.022160118
 10
32.5038402946
 20
-15.0266056262
 10
31.2188150785
 20
-15.0313744838
 10
29.9499289905
 20
-15.0366177429
 10
28.6838155079
 20
-15.0423857542
 10
27.4338411535
 20
-15.048628167
  0
LINE
  5
302
100
AcDbEntity
  8
RACCORDO
100
AcDbLine
 62
253
  6
CONTINUOUS
 10
-34.7853734335
 20
-14.7332130336
 11
-32.5634185685
 21
-14.7264107006
  0
LINE
  5
303
100
AcDbEntity
  8
RACCORDO
100
AcDbLine
 62
253
  6
CONTINUOUS
 10
-34.8302818557
 20
-14.5832161161
 11
-32.6159200535
 21
-14.5764142194
  0
LINE
  5
304
100
AcDbEntity
  8
RACCORDO
100
AcDbLine
 62
253
  6
CONTINUOUS
 10
35.3146459125
 20
-15.2161471359
 11
32.5787386629
 21
-15.2237661042
  0
LINE
  5
305
100
AcDbEntity
  8
RACCORDO
100
AcDbLine
 62
253
  6
CONTINUOUS
 10
-37.0246995056
 20
-14.7390104924
 11
-34.7853734335
 21
-14.7332130336
  0
LINE
  5
306
100
AcDbEntity
  8
RACCORDO
100
AcDbLine
 62
253
  6
CONTINUOUS
 10
-37.0628379499
 20
-14.589013413
 11
-34.8302818557
 21
-14.5832161161
  0
LINE
  5
307
100
AcDbEntity
  8
RACCORDO
100
AcDbLine
 62
7
  6
CONTINUOUS
 10
38.2464276928
 20
-15.0106126365
 11
36.8395572935
 21
-15.0138550978
  0
LINE
  5
308
100
AcDbEntity
  8
RACCORDO
100
AcDbLine
 62
7
  6
CONTINUOUS
 10
36.8395572935
 20
-15.0138550978
 11
35.2541373984
 21
-15.0179843878
  0
LINE
  5
309
100
AcDbEntity
  8
DRAFT
100
AcDbLine
 62
7
  6
CONTINUOUS
 10
38.3414218201
 20
-14.9978171422
 11
38.1550072258
 21
-14.9982060153
  0
LINE
  5
30A
100
AcDbEntity
  8
RACCORDO
100
AcDbLine
 62
7
  6
CONTINUOUS
 10
39.8516422004
 20
-15.0074042896
 11
38.2464276928
 21
-15.0106126365
  0
LWPOLYLINE
  5
30B
100
AcDbEntity
  8
DRAFT
100
AcDbPolyline
 62
7
  6
CONTINUOUS
 90
5
 70
0
 10
39.2814030213
 20
-14.9959506304
 10
39.092359588
 20
-14.9963136012
 10
38.9038325136
 20
-14.9966816889
 10
38.7158326546
 20
-14.9970549668
 10
38.3414218201
 20
-14.9978171422
  0
LINE
  5
30C
100
AcDbEntity
  8
RACCORDO
100
AcDbLine
 62
253
  6
CONTINUOUS
 10
-39.2666112741
 20
-14.7437887653
 11
-37.0246995056
 21
-14.7390104924
  0
LINE
  5
30D
100
AcDbEntity
  8
RACCORDO
100
AcDbLine
 62
253
  6
CONTINUOUS
 10
-39.2973276472
 20
-14.5937919457
 11
-37.0628379499
 21
-14.589013413
  0
LINE
  5
30E
100
AcDbEntity
  8
RACCORDO
100
AcDbLine
 62
253
  6
CONTINUOUS
 10
39.8796671461
 20
-15.2067038135
 11
35.3146459125
 21
-15.2161471359
  0
LWPOLYLINE
  5
30F
100
AcDbEntity
  8
DRAFT
100
AcDbPolyline
 62
7
  6
CONTINUOUS
 90
3
 70
0
 10
39.8516206185
 20
-14.9948923456
 10
39.6610317272
 20
-14.9952399903
 10
39.2814030213
 20
-14.9959506304
  0
LINE
  5
310
100
AcDbEntity
  8
RACCORDO
100
AcDbLine
 62
7
  6
CONTINUOUS
 10
43.2034698508
 20
-15.0020622479
 11
39.8516422004
 21
-15.0074042896
  0
LINE
  5
311
100
AcDbEntity
  8
DRAFT
100
AcDbLine
 62
7
  6
CONTINUOUS
 10
41.050784578
 20
-14.9786411167
 11
41.845378606
 21
-14.9774311433
  0
LINE
  5
312
100
AcDbEntity
  8
DRAFT
100
AcDbLine
 62
7
  6
CONTINUOUS
 10
41.845378606
 20
-14.9774311433
 11
42.4673337066
 21
-14.9765451099
  0
LWPOLYLINE
  5
313
100
AcDbEntity
  8
RACCORDO
100
AcDbPolyline
 62
253
  6
CONTINUOUS
 90
3
 70
0
 10
-42.5820053295
 20
-14.7490490854
 10
-41.4821614588
 20
-14.7475498383
 10
-39.2666112741
 20
-14.7437887653
  0
LWPOLYLINE
  5
314
100
AcDbEntity
  8
RACCORDO
100
AcDbPolyline
 62
253
  6
CONTINUOUS
 90
3
 70
0
 10
-42.6035083679
 20
-14.5990546571
 10
-41.5078720152
 20
-14.597554368
 10
-39.2973276472
 20
-14.5937919457
  0
LINE
  5
315
100
AcDbEntity
  8
RACCORDO
100
AcDbLine
 62
253
  6
CONTINUOUS
 10
43.2338915043
 20
-15.2018645949
 11
39.8796671461
 21
-15.2067038135
  0
LWPOLYLINE
  5
316
100
AcDbEntity
  8
RACCORDO
100
AcDbPolyline
 62
253
  6
CONTINUOUS
 90
3
 70
0
 10
44.2857599774
 20
-14.0004991499
 10
44.2573090352
 20
-14.0005119992
 10
44.2019140893
 20
-14.0005826648
  0
LINE
  5
317
100
AcDbEntity
  8
DRAFT
100
AcDbLine
 62
7
  6
CONTINUOUS
 10
41.0192005714
 20
-14.9628503161
 11
39.9157095584
 21
-14.9628503161
  0
LINE
  5
318
100
AcDbEntity
  8
DRAFT
100
AcDbLine
 62
7
  6
CONTINUOUS
 10
-39.9166499619
 20
-14.9628503161
 11
-41.0192005714
 21
-14.9628503161
  0
LWPOLYLINE
  5
319
100
AcDbEntity
  8
RACCORDO
100
AcDbPolyline
 62
253
  6
CONTINUOUS
 90
3
 70
0
 10
44.4286907727
 20
-14.0004802453
 10
44.3910791231
 20
-14.0004796362
 10
44.2857599774
 20
-14.0004991499
  0
LINE
  5
31A
100
AcDbEntity
  8
RACCORDO
100
AcDbLine
 62
253
  6
CONTINUOUS
 10
25.1363257648
 20
-13.998630474
 11
25.1441480461
 21
-13.998630474
  0
LINE
  5
31B
100
AcDbEntity
  8
RACCORDO
100
AcDbLine
 62
253
  6
CONTINUOUS
 10
-25.1363257905
 20
-13.998630474
 11
-25.1441480461
 21
-13.998630474
  0
LINE
  5
31C
100
AcDbEntity
  8
RACCORDO
100
AcDbLine
 62
253
  6
CONTINUOUS
 10
-43.5522066597
 20
-13.9537987242
 11
-43.6485211121
 21
-13.9537986084
  0
LINE
  5
31D
100
AcDbEntity
  8
RACCORDO
100
AcDbLine
 62
253
  6
CONTINUOUS
 10
43.5613700032
 20
-13.9537987242
 11
43.6575483143
 21
-13.9537987242
  0
LINE
  5
31E
100
AcDbEntity
  8
RACCORDO
100
AcDbLine
 62
253
  6
CONTINUOUS
 10
-25.626577064
 20
-13.8973372207
 11
-25.4013237148
 21
-13.8973372207
  0
LINE
  5
31F
100
AcDbEntity
  8
RACCORDO
100
AcDbLine
 62
253
  6
CONTINUOUS
 10
25.6514510736
 20
-13.8973372207
 11
25.4258655863
 21
-13.8973372131
  0
LINE
  5
320
100
AcDbEntity
  8
RACCORDO
100
AcDbLine
 62
7
  6
CONTINUOUS
 10
25.1441480461
 20
-13.748630474
 11
25.4241487557
 21
-13.748630474
  0
LINE
  5
321
100
AcDbEntity
  8
RACCORDO
100
AcDbLine
 62
7
  6
CONTINUOUS
 10
-25.1441480461
 20
-13.748630474
 11
-25.4
 21
-13.748630474
  0
LINE
  5
322
100
AcDbEntity
  8
RACCORDO
100
AcDbLine
 62
253
  6
CONTINUOUS
 10
-41.4992083613
 20
-15.2041324605
 11
-43.2338914941
 21
-15.2018645916
  0
LINE
  5
323
100
AcDbEntity
  8
RACCORDO
100
AcDbLine
 62
253
  6
CONTINUOUS
 10
-39.8261091428
 20
-15.2067918197
 11
-41.4992083613
 21
-15.2041324605
  0
LINE
  5
324
100
AcDbEntity
  8
RACCORDO
100
AcDbLine
 62
7
  6
CONTINUOUS
 10
-41.4611155761
 20
-15.0046260975
 11
-43.2034698487
 21
-15.0020622458
  0
LINE
  5
325
100
AcDbEntity
  8
DRAFT
100
AcDbLine
 62
7
  6
CONTINUOUS
 10
-42.4673326551
 20
-14.9765450562
 11
-41.0507845503
 21
-14.9786411028
  0
LINE
  5
326
100
AcDbEntity
  8
RACCORDO
100
AcDbLine
 62
253
  6
CONTINUOUS
 10
40.3863792633
 20
-14.7457950713
 11
42.5910347638
 21
-14.7490489455
  0
LINE
  5
327
100
AcDbEntity
  8
RACCORDO
100
AcDbLine
 62
253
  6
CONTINUOUS
 10
40.41530815
 20
-14.5957988322
 11
42.6130072482
 21
-14.5990546571
  0
LINE
  5
328
100
AcDbEntity
  8
RACCORDO
100
AcDbLine
 62
7
  6
CONTINUOUS
 10
-39.783401586
 20
-15.0075309033
 11
-41.4611155761
 21
-15.0046260975
  0
LWPOLYLINE
  5
329
100
AcDbEntity
  8
RACCORDO
100
AcDbPolyline
 62
253
  6
CONTINUOUS
 90
3
 70
0
 10
-44.4286907657
 20
-14.0004802427
 10
-44.20578328
 20
-14.0005633197
 10
-44.2019141121
 20
-14.000582663
  0
LINE
  5
32A
100
AcDbEntity
  8
RACCORDO
100
AcDbLine
 62
7
  6
CONTINUOUS
 10
-38.1550364993
 20
-15.0108121792
 11
-39.783401586
 21
-15.0075309033
  0
LWPOLYLINE
  5
32B
100
AcDbEntity
  8
DRAFT
100
AcDbPolyline
 62
7
  6
CONTINUOUS
 90
5
 70
0
 10
-38.1550072198
 20
-14.9982060124
 10
-38.3414218322
 20
-14.9978171398
 10
-38.5283636563
 20
-14.9974334575
 10
-38.7158326919
 20
-14.9970549654
 10
-39.8516206186
 20
-14.9948923455
  0
LINE
  5
32C
100
AcDbEntity
  8
RACCORDO
100
AcDbLine
 62
253
  6
CONTINUOUS
 10
38.1585944466
 20
-14.7415244678
 11
40.3863792633
 21
-14.7457950713
  0
LINE
  5
32D
100
AcDbEntity
  8
RACCORDO
100
AcDbLine
 62
253
  6
CONTINUOUS
 10
38.1928773289
 20
-14.5915273625
 11
40.41530815
 21
-14.5957988322
  0
LINE
  5
32E
100
AcDbEntity
  8
RACCORDO
100
AcDbLine
 62
7
  6
CONTINUOUS
 10
-36.6236147483
 20
-15.0143691016
 11
-38.1550364993
 21
-15.0108121792
  0
LINE
  5
32F
100
AcDbEntity
  8
RACCORDO
100
AcDbLine
 62
253
  6
CONTINUOUS
 10
35.9154726384
 20
-14.7362378574
 11
38.1585944466
 21
-14.7415244678
  0
LINE
  5
330
100
AcDbEntity
  8
RACCORDO
100
AcDbLine
 62
253
  6
CONTINUOUS
 10
35.9574103435
 20
-14.5862407887
 11
38.1928773289
 21
-14.5915273625
  0
LINE
  5
331
100
AcDbEntity
  8
RACCORDO
100
AcDbLine
 62
7
  6
CONTINUOUS
 10
-35.1415419007
 20
-15.0183024941
 11
-36.6236147483
 21
-15.0143691016
  0
LINE
  5
332
100
AcDbEntity
  8
RACCORDO
100
AcDbLine
 62
253
  6
CONTINUOUS
 10
33.6835581886
 20
-14.7299290079
 11
35.9154726384
 21
-14.7362378574
  0
LINE
  5
333
100
AcDbEntity
  8
RACCORDO
100
AcDbLine
 62
253
  6
CONTINUOUS
 10
33.7329341979
 20
-14.579932143
 11
35.9574103435
 21
-14.5862407887
  0
LINE
  5
334
100
AcDbEntity
  8
RACCORDO
100
AcDbLine
 62
253
  6
CONTINUOUS
 10
31.483260993
 20
-14.7226430796
 11
33.6835581886
 21
-14.7299290079
  0
LINE
  5
335
100
AcDbEntity
  8
RACCORDO
100
AcDbLine
 62
253
  6
CONTINUOUS
 10
31.5393515533
 20
-14.5726467997
 11
33.7329341979
 21
-14.579932143
  0
LWPOLYLINE
  5
336
100
AcDbEntity
  8
RACCORDO
100
AcDbPolyline
 62
253
  6
CONTINUOUS
 90
7
 70
0
 10
-29.8917823816
 20
-15.2331356818
 10
-31.1477157403
 20
-15.228438276
 10
-32.4365467816
 20
-15.2242467961
 10
-33.7862148976
 20
-15.220237122
 10
-35.2019949446
 20
-15.2164299751
 10
-36.6757180913
 20
-15.2130034177
 10
-39.8261091428
 20
-15.2067918197
  0
LINE
  5
337
100
AcDbEntity
  8
RACCORDO
100
AcDbLine
 62
253
  6
CONTINUOUS
 10
29.3279532126
 20
-14.7144210159
 11
31.483260993
 21
-14.7226430796
  0
LINE
  5
338
100
AcDbEntity
  8
RACCORDO
100
AcDbLine
 62
253
  6
CONTINUOUS
 10
29.391448447
 20
-14.5644256141
 11
31.5393515533
 21
-14.5726467997
  0
LINE
  5
339
100
AcDbEntity
  8
RACCORDO
100
AcDbLine
 62
253
  6
CONTINUOUS
 10
-26.3090671068
 20
-15.2489184395
 11
-27.4670833446
 21
-15.2436132601
  0
LINE
  5
33A
100
AcDbEntity
  8
RACCORDO
100
AcDbLine
 62
253
  6
CONTINUOUS
 10
-27.4670833446
 20
-15.2436132601
 11
-29.8917823816
 21
-15.2331356818
  0
LWPOLYLINE
  5
33B
100
AcDbEntity
  8
RACCORDO
100
AcDbPolyline
 62
253
  6
CONTINUOUS
 90
3
 70
0
 10
26.221662658
 20
-14.7005217578
 10
27.2410613258
 20
-14.7053673003
 10
29.3279532126
 20
-14.7144210159
  0
LWPOLYLINE
  5
33C
100
AcDbEntity
  8
RACCORDO
100
AcDbPolyline
 62
253
  6
CONTINUOUS
 90
3
 70
0
 10
26.2952192595
 20
-14.5505274693
 10
27.3105009042
 20
-14.5553726542
 10
29.391448447
 20
-14.5644256141
  0
LWPOLYLINE
  5
33D
100
AcDbEntity
  8
RACCORDO
100
AcDbPolyline
 62
7
  6
CONTINUOUS
 90
7
 70
0
 10
-27.366163283
 20
-15.0489387476
 10
-28.5671244828
 20
-15.0429093144
 10
-29.8028835995
 20
-15.0372566898
 10
-31.0652134728
 20
-15.0319985497
 10
-32.362341263
 20
-15.0271172182
 10
-33.7189484505
 20
-15.0225596666
 10
-35.1415419007
 20
-15.0183024941
  0
LINE
  5
33E
100
AcDbEntity
  8
RACCORDO
100
AcDbLine
 62
7
  6
CONTINUOUS
 10
-26.2
 20
-15.0553449892
 11
-27.366163283
 21
-15.0489387476
  0
LINE
  5
33F
100
AcDbEntity
  8
RACCORDO
100
AcDbLine
 62
7
  6
CONTINUOUS
 10
-42.9001624846
 20
-14.998638768
 11
-43.0750778827
 21
-14.9976749723
  0
LINE
  5
340
100
AcDbEntity
  8
RACCORDO
100
AcDbLine
 62
7
  6
CONTINUOUS
 10
-43.0750778827
 20
-14.9976749723
 11
-43.1981390797
 21
-14.9967314768
  0
LWPOLYLINE
  5
341
100
AcDbEntity
  8
RACCORDO
100
AcDbPolyline
 62
253
  6
CONTINUOUS
 90
13
 70
0
 10
26.3090671333
 20
-15.2489184809
 10
26.2491107665
 20
-15.2483781794
 10
26.1872466863
 20
-15.2440498984
 10
26.1234822462
 20
-15.2359338654
 10
26.0577129293
 20
-15.2244777216
 10
25.9900589497
 20
-15.20923622
 10
25.9208634031
 20
-15.1888724932
 10
25.8499543296
 20
-15.1635454354
 10
25.7775157181
 20
-15.1331069901
 10
25.7044185161
 20
-15.095766201
 10
25.6302772779
 20
-15.0516681257
 10
25.5554809025
 20
-15.0006962395
 10
25.4820480144
 20
-14.9406807388
  0
LINE
  5
342
100
AcDbEntity
  8
DRAFT
100
AcDbLine
 62
7
  6
CONTINUOUS
 10
25.1630095511
 20
-14.0350757751
 11
25.2371691907
 21
-14.0357996647
  0
LINE
  5
343
100
AcDbEntity
  8
RACCORDO
100
AcDbLine
 62
253
  6
CONTINUOUS
 10
42.5910347638
 20
-14.7490489455
 11
43.8430367263
 21
-14.7621104983
  0
LINE
  5
344
100
AcDbEntity
  8
RACCORDO
100
AcDbLine
 62
253
  6
CONTINUOUS
 10
43.6575483143
 20
-13.953794002
 11
44.2004092228
 21
-13.9594598659
  0
LWPOLYLINE
  5
345
100
AcDbEntity
  8
RACCORDO
100
AcDbPolyline
 62
253
  6
CONTINUOUS
 90
13
 70
0
 10
26.2000059273
 20
-15.055344971
 10
26.1496282549
 20
-15.0544868758
 10
26.097298915
 20
-15.0510423822
 10
26.0431653696
 20
-15.0447152223
 10
25.9875754855
 20
-15.0352421363
 10
25.9305696551
 20
-15.0223084238
 10
25.8719045071
 20
-15.0054586008
 10
25.8119599863
 20
-14.984346557
 10
25.7510394503
 20
-14.9585921231
 10
25.6889369108
 20
-14.9274973839
 10
25.6262511759
 20
-14.8906453929
 10
25.5635769147
 20
-14.8476002588
 10
25.50098828
 20
-14.7974112799
  0
LWPOLYLINE
  5
346
100
AcDbEntity
  8
RACCORDO
100
AcDbPolyline
 62
253
  6
CONTINUOUS
 90
7
 70
0
 10
-43.2338914941
 20
-15.2018645916
 10
-43.2953989216
 20
-15.2007826028
 10
-43.3584864706
 20
-15.1956529725
 10
-43.4231542508
 20
-15.1864767471
 10
-43.4896572927
 20
-15.173621673
 10
-43.5577408365
 20
-15.1567244832
 10
-43.6266397618
 20
-15.134692005
  0
LINE
  5
347
100
AcDbEntity
  8
RACCORDO
100
AcDbLine
 62
7
  6
CONTINUOUS
 10
-38.096642938
 20
-14.9690260939
 11
-36.8395081982
 21
-14.9925531548
  0
LINE
  5
348
100
AcDbEntity
  8
DRAFT
100
AcDbLine
 62
7
  6
CONTINUOUS
 10
-40.9539725068
 20
-14.7587092306
 11
-39.7500271462
 21
-14.7812408614
  0
LINE
  5
349
100
AcDbEntity
  8
DRAFT
100
AcDbLine
 62
7
  6
CONTINUOUS
 10
36.4994005577
 20
-14.7386775773
 11
38.2499744654
 21
-14.7809520306
  0
LWPOLYLINE
  5
34A
100
AcDbEntity
  8
RACCORDO
100
AcDbPolyline
 62
253
  6
CONTINUOUS
 90
9
 70
0
 10
-43.2034698487
 20
-15.0020622458
 10
-43.2545285508
 20
-15.0006719108
 10
-43.3073068832
 20
-14.9964741442
 10
-43.3616329821
 20
-14.9891850563
 10
-43.4172309355
 20
-14.9785375531
 10
-43.4739353348
 20
-14.9642471311
 10
-43.5316792386
 20
-14.9459742767
 10
-43.5900550323
 20
-14.9234588806
 10
-43.6487778658
 20
-14.8964003145
  0
LWPOLYLINE
  5
34B
100
AcDbEntity
  8
RACCORDO
100
AcDbPolyline
 62
253
  6
CONTINUOUS
 90
10
 70
0
 10
25.0504454055
 20
-13.9907351492
 10
25.0671979588
 20
-13.9913713025
 10
25.0824787465
 20
-13.9920890959
 10
25.0961159136
 20
-13.9928804566
 10
25.10795609
 20
-13.9937364848
 10
25.1178661155
 20
-13.9946475531
 10
25.1257345371
 20
-13.9956034151
 10
25.1314728629
 20
-13.9965933209
 10
25.1350165568
 20
-13.9976061374
 10
25.1363257648
 20
-13.998630474
  0
LWPOLYLINE
  5
34C
100
AcDbEntity
  8
RACCORDO
100
AcDbPolyline
 62
7
  6
CONTINUOUS
 90
8
 70
0
 10
-43.1981390797
 20
-14.9967314768
 10
-43.2525332651
 20
-14.9940673902
 10
-43.3089776499
 20
-14.9894073785
 10
-43.3673508714
 20
-14.9819414444
 10
-43.4272910708
 20
-14.9703831984
 10
-43.4886318189
 20
-14.9537932942
 10
-43.5515226855
 20
-14.9322993044
 10
-43.6173718467
 20
-14.9052365484
  0
LWPOLYLINE
  5
34D
100
AcDbEntity
  8
RACCORDO
100
AcDbPolyline
 62
7
  6
CONTINUOUS
 90
10
 70
0
 10
26.2202950125
 20
-14.7015762379
 10
26.1427193105
 20
-14.6970317573
 10
26.0675465555
 20
-14.6857065955
 10
25.994769872
 20
-14.6676007524
 10
25.923714903
 20
-14.6422199645
 10
25.8550440451
 20
-14.6100584954
 10
25.7907501579
 20
-14.5725991361
 10
25.7314877339
 20
-14.5303361503
 10
25.6765792047
 20
-14.4827752744
 10
25.6260147484
 20
-14.4299165084
  0
LINE
  5
34E
100
AcDbEntity
  8
RACCORDO
100
AcDbLine
 62
253
  6
CONTINUOUS
 10
-25.2766723251
 20
-14.7118066664
 11
-25.324702426
 21
-14.7760049681
  0
LWPOLYLINE
  5
34F
100
AcDbEntity
  8
RACCORDO
100
AcDbPolyline
 62
253
  6
CONTINUOUS
 90
4
 70
0
 10
-25.3273394644
 20
-14.6049079695
 10
-25.3679113707
 20
-14.6590650594
 10
-25.4132292501
 20
-14.7120032065
 10
-25.4632922077
 20
-14.7631326592
  0
LWPOLYLINE
  5
350
100
AcDbEntity
  8
RACCORDO
100
AcDbPolyline
 62
253
  6
CONTINUOUS
 90
12
 70
0
 10
-25.324702426
 20
-14.7760049681
 10
-25.3784082663
 20
-14.8388727062
 10
-25.4376151168
 20
-14.9001383585
 10
-25.5024077446
 20
-14.9580408013
 10
-25.5730808544
 20
-15.0126591792
 10
-25.6493882711
 20
-15.0638907607
 10
-25.730604416
 20
-15.1096915444
 10
-25.8169451042
 20
-15.1499878238
 10
-25.9082507139
 20
-15.1848252311
 10
-26.0032252821
 20
-15.21233311
 10
-26.101449557
 20
-15.2318800511
 10
-26.2033886792
 20
-15.2440770227
  0
LWPOLYLINE
  5
351
100
AcDbEntity
  8
RACCORDO
100
AcDbPolyline
 62
7
  6
CONTINUOUS
 90
10
 70
0
 10
-25.6018666706
 20
-14.4299165084
 10
-25.652556301
 20
-14.4828261078
 10
-25.7076087311
 20
-14.5304272312
 10
-25.7670337774
 20
-14.5727198787
 10
-25.8315430526
 20
-14.610201144
 10
-25.9004480689
 20
-14.6423739333
 10
-25.9716536398
 20
-14.6677469654
 10
-26.0444629503
 20
-14.6858231467
 10
-26.1195841406
 20
-14.6970995709
 10
-26.1970237746
 20
-14.7015762379
  0
LWPOLYLINE
  5
352
100
AcDbEntity
  8
DRAFT
100
AcDbPolyline
 62
7
  6
CONTINUOUS
 90
5
 70
0
 10
-26.2
 20
-15.0313307144
 10
-26.0054276906
 20
-15.0087947097
 10
-25.8290159676
 20
-14.9610955884
 10
-25.6706524086
 20
-14.8882333503
 10
-25.5276842277
 20
-14.7860435028
  0
LINE
  5
353
100
AcDbEntity
  8
RACCORDO
100
AcDbLine
 62
7
  6
CONTINUOUS
 10
-42.4673326551
 20
-14.9765450562
 11
-42.9001624846
 21
-14.998638768
  0
LINE
  5
354
100
AcDbEntity
  8
RACCORDO
100
AcDbLine
 62
7
  6
CONTINUOUS
 10
25.1441480461
 20
-12.748630474
 11
25.4241487557
 21
-12.748630474
  0
LINE
  5
355
100
AcDbEntity
  8
RACCORDO
100
AcDbLine
 62
7
  6
CONTINUOUS
 10
-25.1441480461
 20
-12.748630474
 11
-25.4
 21
-12.748630474
  0
LINE
  5
356
100
AcDbEntity
  8
RACCORDO
100
AcDbLine
 62
7
  6
CONTINUOUS
 10
-25.3769935136
 20
-10.998630474
 11
-25.1583396938
 21
-10.998630474
  0
LINE
  5
357
100
AcDbEntity
  8
RACCORDO
100
AcDbLine
 62
7
  6
CONTINUOUS
 10
25.3768751165
 20
-10.998630474
 11
25.1583396938
 21
-10.998630474
  0
LINE
  5
358
100
AcDbEntity
  8
RACCORDO
100
AcDbLine
 62
7
  6
CONTINUOUS
 10
-25.3768751165
 20
-8.998630474
 11
-25.1583396938
 21
-8.998630474
  0
LINE
  5
359
100
AcDbEntity
  8
RACCORDO
100
AcDbLine
 62
7
  6
CONTINUOUS
 10
25.3769935136
 20
-8.998630474
 11
25.1583396938
 21
-8.998630474
  0
LINE
  5
35A
100
AcDbEntity
  8
RACCORDO
100
AcDbLine
 62
7
  6
CONTINUOUS
 10
42.9001624846
 20
-14.998638768
 11
42.4673337066
 21
-14.9765451099
  0
LWPOLYLINE
  5
35B
100
AcDbEntity
  8
DRAFT
100
AcDbPolyline
 62
7
  6
CONTINUOUS
 90
3
 70
0
 10
-25.5276842277
 20
-14.7860435028
 10
-25.4025779314
 20
-14.6586905386
 10
-25.3028796641
 20
-14.5186679359
  0
LWPOLYLINE
  5
35C
100
AcDbEntity
  8
RACCORDO
100
AcDbPolyline
 62
7
  6
CONTINUOUS
 90
4
 70
0
 10
-25.6688352637
 20
-14.4964259245
 10
-25.6185732983
 20
-14.4472434681
 10
-25.5733019521
 20
-14.3944889811
 10
-25.533144429
 20
-14.3386119634
  0
LWPOLYLINE
  5
35D
100
AcDbEntity
  8
RACCORDO
100
AcDbPolyline
 62
253
  6
CONTINUOUS
 90
11
 70
0
 10
-25.4632922077
 20
-14.7631326592
 10
-25.5181424166
 20
-14.8119532987
 10
-25.5778260941
 20
-14.8579735047
 10
-25.642230687
 20
-14.9005950644
 10
-25.7110576231
 20
-14.939160547
 10
-25.7840579987
 20
-14.9731071805
 10
-25.8610055866
 20
-15.0019178272
 10
-25.9415164871
 20
-15.0250492759
 10
-26.0251706322
 20
-15.0419869874
 10
-26.111512536
 20
-15.0522402187
 10
-26.2
 20
-15.0553449892
  0
LWPOLYLINE
  5
35E
100
AcDbEntity
  8
DRAFT
100
AcDbPolyline
 62
7
  6
CONTINUOUS
 90
5
 70
0
 10
26.2
 20
-4.9659302336
 10
26.0054276906
 20
-4.9884662383
 10
25.8290159676
 20
-5.0361653596
 10
25.6706524086
 20
-5.1090275977
 10
25.5276842277
 20
-5.2112174452
  0
LWPOLYLINE
  5
35F
100
AcDbEntity
  8
RACCORDO
100
AcDbPolyline
 62
253
  6
CONTINUOUS
 90
19
 70
0
 10
26.2952192595
 20
-5.4467334787
 10
26.235743888
 20
-5.4499206495
 10
26.1777358672
 20
-5.4582681221
 10
26.1211919289
 20
-5.4717758968
 10
26.0655681784
 20
-5.4907517157
 10
26.0114029815
 20
-5.5148878366
 10
25.9603129297
 20
-5.5432610328
 10
25.9125260296
 20
-5.5759807661
 10
25.8678015567
 20
-5.6129375747
 10
25.8270481984
 20
-5.6528798462
 10
25.7904431175
 20
-5.6957805362
 10
25.7577961541
 20
-5.7416666891
 10
25.7294637514
 20
-5.7893678264
 10
25.7055284442
 20
-5.8389169231
 10
25.6858981103
 20
-5.8902810042
 10
25.6706677872
 20
-5.9421906655
 10
25.6598674933
 20
-5.9942227725
 10
25.6534623226
 20
-6.0468004597
 10
25.6514510736
 20
-6.0999237273
  0
LINE
  5
360
100
AcDbEntity
  8
RACCORDO
100
AcDbLine
 62
7
  6
CONTINUOUS
 10
42.9001624846
 20
-4.99862218
 11
42.4649941751
 21
-5.020835259
  0
LWPOLYLINE
  5
361
100
AcDbEntity
  8
RACCORDO
100
AcDbPolyline
 62
7
  6
CONTINUOUS
 90
9
 70
0
 10
26.2216626597
 20
-5.2967391903
 10
26.1485488092
 20
-5.3004178862
 10
26.0762554683
 20
-5.3107886075
 10
26.0053857092
 20
-5.3277091344
 10
25.9364114815
 20
-5.3510302178
 10
25.8700093282
 20
-5.3804800921
 10
25.8070117997
 20
-5.4155660015
 10
25.7479177296
 20
-5.4558229725
 10
25.6930532009
 20
-5.5008350236
  0
LWPOLYLINE
  5
362
100
AcDbEntity
  8
RACCORDO
100
AcDbPolyline
 62
253
  6
CONTINUOUS
 90
10
 70
0
 10
-25.0475492175
 20
-5.9869471001
 10
-25.0655607833
 20
-5.9878536727
 10
-25.0820387672
 20
-5.9888923164
 10
-25.0967812291
 20
-5.9900503025
 10
-25.1096074982
 20
-5.9913134398
 10
-25.1203603866
 20
-5.9926662483
 10
-25.1289081164
 20
-5.9940921491
 10
-25.1351459339
 20
-5.9955736677
 10
-25.1389973937
 20
-5.9970926478
 10
-25.1404152957
 20
-5.998630474
  0
LINE
  5
363
100
AcDbEntity
  8
RACCORDO
100
AcDbLine
 62
253
  6
CONTINUOUS
 10
26.1916838112
 20
-4.7410035004
 11
26.3004395921
 21
-4.735713171
  0
LINE
  5
364
100
AcDbEntity
  8
DRAFT
100
AcDbLine
 62
7
  6
CONTINUOUS
 10
38.2499744654
 20
-5.2163089174
 11
36.4994005577
 21
-5.2585833707
  0
LWPOLYLINE
  5
365
100
AcDbEntity
  8
RACCORDO
100
AcDbPolyline
 62
253
  6
CONTINUOUS
 90
49
 70
0
 10
-42.6035083679
 20
-5.398206291
 10
-42.6502997027
 20
-5.3991003945
 10
-42.6956382411
 20
-5.401221169
 10
-42.7395233324
 20
-5.4045686145
 10
-42.7818980978
 20
-5.4092248235
 10
-42.8228181826
 20
-5.4151077035
 10
-42.8624518241
 20
-5.4219709765
 10
-42.9008445253
 20
-5.4297978806
 10
-42.9379498404
 20
-5.4386051777
 10
-42.9737981867
 20
-5.4481968759
 10
-43.0084097551
 20
-5.4585728276
 10
-43.04176354
 20
-5.4697331804
 10
-43.0738281921
 20
-5.4814823852
 10
-43.1045800215
 20
-5.4938099942
 10
-43.1340419852
 20
-5.5067264553
 10
-43.1622527317
 20
-5.5200675626
 10
-43.1891954877
 20
-5.5338190494
 10
-43.2148864168
 20
-5.5479951825
 10
-43.2394136258
 20
-5.5624745562
 10
-43.2627725371
 20
-5.5772451407
 10
-43.2849672465
 20
-5.5923189657
 10
-43.3060989287
 20
-5.6076107147
 10
-43.3261753796
 20
-5.6231182073
 10
-43.3451884321
 20
-5.638843624
 10
-43.363215363
 20
-5.6547081891
 10
-43.3802717191
 20
-5.6707271427
 10
-43.3963416655
 20
-5.6868852448
 10
-43.4114554353
 20
-5.7030579993
 10
-43.4255983015
 20
-5.7192343935
 10
-43.4387847587
 20
-5.7354254402
 10
-43.4510888964
 20
-5.7515396818
 10
-43.4624878486
 20
-5.7675321101
 10
-43.4730043087
 20
-5.7834477334
 10
-43.4827807348
 20
-5.799330119
 10
-43.4918337582
 20
-5.8151756102
 10
-43.5001466354
 20
-5.8309878636
 10
-43.5078117873
 20
-5.846821416
 10
-43.5148449285
 20
-5.8626793926
 10
-43.5212302683
 20
-5.878558668
 10
-43.5270129841
 20
-5.8945044029
 10
-43.5322036118
 20
-5.9105108892
 10
-43.5367915628
 20
-5.9265838348
 10
-43.5407903352
 20
-5.9427855241
 10
-43.5442129259
 20
-5.959113075
 10
-43.5470463034
 20
-5.9755693694
 10
-43.5492649276
 20
-5.9922253385
 10
-43.5508602787
 20
-6.0091046257
 10
-43.5518408576
 20
-6.0261835875
 10
-43.5522066597
 20
-6.0434622238
  0
LINE
  5
366
100
AcDbEntity
  8
DRAFT
100
AcDbLine
 62
7
  6
CONTINUOUS
 10
-40.9539725068
 20
-5.2385517174
 11
-39.7500271462
 21
-5.2160200866
  0
LINE
  5
367
100
AcDbEntity
  8
RACCORDO
100
AcDbLine
 62
7
  6
CONTINUOUS
 10
-38.096642938
 20
-5.0282348541
 11
-36.8395081982
 21
-5.0047077932
  0
LWPOLYLINE
  5
368
100
AcDbEntity
  8
RACCORDO
100
AcDbPolyline
 62
253
  6
CONTINUOUS
 90
49
 70
0
 10
-42.5819171334
 20
-5.2482120025
 10
-42.6343781618
 20
-5.2491341728
 10
-42.6853075294
 20
-5.2518459554
 10
-42.7346479452
 20
-5.2562054363
 10
-42.7822532662
 20
-5.2620544335
 10
-42.8281844975
 20
-5.2692629999
 10
-42.8727028892
 20
-5.2777691189
 10
-42.9158427972
 20
-5.2874896213
 10
-42.9575148877
 20
-5.2983120127
 10
-42.997794325
 20
-5.310179375
 10
-43.0366964625
 20
-5.3230212516
 10
-43.0741734782
 20
-5.3367426554
 10
-43.1102085276
 20
-5.3512648258
 10
-43.1447780724
 20
-5.3665038287
 10
-43.1778966076
 20
-5.3823867837
 10
-43.2096077848
 20
-5.3988582613
 10
-43.2398998386
 20
-5.4158428409
 10
-43.2687908859
 20
-5.4332785223
 10
-43.2963688013
 20
-5.4511414873
 10
-43.3226358797
 20
-5.4693716548
 10
-43.3476036969
 20
-5.4879151659
 10
-43.3713701158
 20
-5.5067706393
 10
-43.3939518412
 20
-5.5258988351
 10
-43.4153481704
 20
-5.5452469496
 10
-43.4356269854
 20
-5.5648032465
 10
-43.454818119
 20
-5.5845520907
 10
-43.4729101098
 20
-5.6044321782
 10
-43.4899110577
 20
-5.6243655355
 10
-43.5058243667
 20
-5.6443043126
 10
-43.5206779293
 20
-5.6642231654
 10
-43.534521261
 20
-5.6840776997
 10
-43.5473443045
 20
-5.703787873
 10
-43.5591954339
 20
-5.7233699068
 10
-43.5702050189
 20
-5.7429310022
 10
-43.5803934903
 20
-5.7624530917
 10
-43.5897627741
 20
-5.781910403
 10
-43.5984003915
 20
-5.8014085679
 10
-43.606320753
 20
-5.8209402848
 10
-43.6135189626
 20
-5.8404805314
 10
-43.6200408141
 20
-5.8601146698
 10
-43.625890557
 20
-5.8798250571
 10
-43.6310640804
 20
-5.8996026387
 10
-43.6355825589
 20
-5.9195495876
 10
-43.6394458656
 20
-5.93965112
 10
-43.6426423125
 20
-5.959898001
 10
-43.6451620747
 20
-5.9804030482
 10
-43.6469900495
 20
-6.0011959231
 10
-43.648114005
 20
-6.0222218644
 10
-43.6485212747
 20
-6.0434669449
  0
LINE
  5
369
100
AcDbEntity
  8
RACCORDO
100
AcDbLine
 62
253
  6
CONTINUOUS
 10
44.2004090222
 20
-6.037798811
 11
43.6575483143
 21
-6.0434622238
  0
LINE
  5
36A
100
AcDbEntity
  8
RACCORDO
100
AcDbLine
 62
253
  6
CONTINUOUS
 10
43.8372315383
 20
-5.2352110327
 11
42.5911229221
 21
-5.2482118626
  0
LINE
  5
36B
100
AcDbEntity
  8
DRAFT
100
AcDbLine
 62
7
  6
CONTINUOUS
 10
25.2371691907
 20
-5.9614612833
 11
25.1630095511
 21
-5.9621851729
  0
LINE
  5
36C
100
AcDbEntity
  8
RACCORDO
100
AcDbLine
 62
253
  6
CONTINUOUS
 10
44.2057248462
 20
-5.9966939848
 11
44.2018701059
 21
-5.9967222911
  0
LINE
  5
36D
100
AcDbEntity
  8
RACCORDO
100
AcDbLine
 62
7
  6
CONTINUOUS
 10
-27.9158476068
 20
-4.9547064199
 11
-26.1999864723
 21
-4.946460079
  0
LWPOLYLINE
  5
36E
100
AcDbEntity
  8
RACCORDO
100
AcDbPolyline
 62
7
  6
CONTINUOUS
 90
3
 70
0
 10
-43.1981390797
 20
-5.0005294712
 10
-42.9385302765
 20
-4.9987790476
 10
-42.9001624846
 20
-4.99862218
  0
LINE
  5
36F
100
AcDbEntity
  8
RACCORDO
100
AcDbLine
 62
253
  6
CONTINUOUS
 10
28.3428801402
 20
-5.4372549266
 11
26.2952192595
 21
-5.4467334787
  0
LINE
  5
370
100
AcDbEntity
  8
RACCORDO
100
AcDbLine
 62
253
  6
CONTINUOUS
 10
28.2765683916
 20
-5.2872601816
 11
26.2216626597
 21
-5.2967391902
  0
LINE
  5
371
100
AcDbEntity
  8
RACCORDO
100
AcDbLine
 62
253
  6
CONTINUOUS
 10
30.4580857464
 20
-5.4286168849
 11
28.3428801402
 21
-5.4372549266
  0
LINE
  5
372
100
AcDbEntity
  8
RACCORDO
100
AcDbLine
 62
253
  6
CONTINUOUS
 10
30.397947464
 20
-5.2786213536
 11
28.2765683916
 21
-5.2872601816
  0
LINE
  5
373
100
AcDbEntity
  8
RACCORDO
100
AcDbLine
 62
253
  6
CONTINUOUS
 10
32.6321551092
 20
-5.4208467286
 11
30.4580857464
 21
-5.4286168849
  0
LINE
  5
374
100
AcDbEntity
  8
RACCORDO
100
AcDbLine
 62
253
  6
CONTINUOUS
 10
32.5792930182
 20
-5.2708502475
 11
30.397947464
 21
-5.2786213536
  0
LINE
  5
375
100
AcDbEntity
  8
RACCORDO
100
AcDbLine
 62
253
  6
CONTINUOUS
 10
34.8444950441
 20
-5.4140448319
 11
32.6321551092
 21
-5.4208467286
  0
LINE
  5
376
100
AcDbEntity
  8
RACCORDO
100
AcDbLine
 62
253
  6
CONTINUOUS
 10
34.7992202453
 20
-5.2640479144
 11
32.5792930182
 21
-5.2708502475
  0
LWPOLYLINE
  5
377
100
AcDbEntity
  8
RACCORDO
100
AcDbPolyline
 62
7
  6
CONTINUOUS
 90
5
 70
0
 10
-35.2331111475
 20
-4.9803085343
 10
-33.335294759
 20
-4.9750225964
 10
-31.4824326179
 20
-4.9690054369
 10
-29.6766629887
 20
-4.9622215392
 10
-27.9158476068
 20
-4.9547064199
  0
LINE
  5
378
100
AcDbEntity
  8
RACCORDO
100
AcDbLine
 62
253
  6
CONTINUOUS
 10
37.0753276892
 20
-5.408247535
 11
34.8444950441
 21
-5.4140448319
  0
LINE
  5
379
100
AcDbEntity
  8
RACCORDO
100
AcDbLine
 62
253
  6
CONTINUOUS
 10
37.0368170514
 20
-5.2582504556
 11
34.7992202453
 21
-5.2640479144
  0
LWPOLYLINE
  5
37A
100
AcDbEntity
  8
RACCORDO
100
AcDbPolyline
 62
253
  6
CONTINUOUS
 90
8
 70
0
 10
-39.1923077524
 20
-4.7874802529
 10
-37.2212336142
 20
-4.7829593526
 10
-35.2947003272
 20
-4.7773349839
 10
-33.4130316488
 20
-4.7706699157
 10
-31.5676921019
 20
-4.7636113365
 10
-29.7610894824
 20
-4.7560023884
 10
-28.0043387147
 20
-4.7469055616
 10
-26.3004395487
 20
-4.7357131822
  0
LINE
  5
37B
100
AcDbEntity
  8
RACCORDO
100
AcDbLine
 62
7
  6
CONTINUOUS
 10
-39.1422240193
 20
-4.9890419094
 11
-38.0967282936
 21
-4.9868838265
  0
LINE
  5
37C
100
AcDbEntity
  8
RACCORDO
100
AcDbLine
 62
7
  6
CONTINUOUS
 10
-38.0967282936
 20
-4.9868838265
 11
-35.2331111475
 21
-4.9803085343
  0
LINE
  5
37D
100
AcDbEntity
  8
RACCORDO
100
AcDbLine
 62
253
  6
CONTINUOUS
 10
39.3083956416
 20
-5.4034690023
 11
37.0753276892
 21
-5.408247535
  0
LINE
  5
37E
100
AcDbEntity
  8
RACCORDO
100
AcDbLine
 62
253
  6
CONTINUOUS
 10
39.2773022258
 20
-5.2534721827
 11
37.0368170514
 21
-5.2582504556
  0
LWPOLYLINE
  5
37F
100
AcDbEntity
  8
DRAFT
100
AcDbPolyline
 62
7
  6
CONTINUOUS
 90
7
 70
0
 10
-39.8523071312
 20
-5.0027118326
 10
-39.6617110359
 20
-5.0023831343
 10
-39.4715848748
 20
-5.0020497681
 10
-39.2819286481
 20
-5.0017117338
 10
-39.0927391145
 20
-5.0013690578
 10
-38.9040195152
 20
-5.0010217138
 10
-38.1539474212
 20
-4.9995847946
  0
LINE
  5
380
100
AcDbEntity
  8
RACCORDO
100
AcDbLine
 62
253
  6
CONTINUOUS
 10
-43.2325525852
 20
-4.7950066476
 11
-39.1923077524
 21
-4.7874802529
  0
LWPOLYLINE
  5
381
100
AcDbEntity
  8
RACCORDO
100
AcDbPolyline
 62
253
  6
CONTINUOUS
 90
3
 70
0
 10
42.6130072482
 20
-5.398206291
 10
41.5178215608
 20
-5.39970658
 10
39.3083956416
 20
-5.4034690023
  0
LWPOLYLINE
  5
382
100
AcDbEntity
  8
RACCORDO
100
AcDbPolyline
 62
253
  6
CONTINUOUS
 90
3
 70
0
 10
42.5911229221
 20
-5.2482118626
 10
41.4917279959
 20
-5.2497111098
 10
39.2773022258
 20
-5.2534721827
  0
LINE
  5
383
100
AcDbEntity
  8
DRAFT
100
AcDbLine
 62
7
  6
CONTINUOUS
 10
-41.8439281208
 20
-5.0199868855
 11
-42.4649933253
 21
-5.0208353024
  0
LINE
  5
384
100
AcDbEntity
  8
DRAFT
100
AcDbLine
 62
7
  6
CONTINUOUS
 10
-41.0503593003
 20
-5.018832454
 11
-41.8439281208
 21
-5.0199868855
  0
LWPOLYLINE
  5
385
100
AcDbEntity
  8
RACCORDO
100
AcDbPolyline
 62
7
  6
CONTINUOUS
 90
3
 70
0
 10
-43.2033564394
 20
-4.9953121116
 10
-41.1535205027
 20
-4.9924893467
 10
-39.1422240193
 20
-4.9890419094
  0
LINE
  5
386
100
AcDbEntity
  8
RACCORDO
100
AcDbLine
 62
7
  6
CONTINUOUS
 10
25.1441480461
 20
-7.248630474
 11
25.4241487557
 21
-7.248630474
  0
LINE
  5
387
100
AcDbEntity
  8
RACCORDO
100
AcDbLine
 62
7
  6
CONTINUOUS
 10
-25.1441480461
 20
-7.248630474
 11
-25.4
 21
-7.248630474
  0
LINE
  5
388
100
AcDbEntity
  8
RACCORDO
100
AcDbLine
 62
7
  6
CONTINUOUS
 10
25.1441480461
 20
-6.248630474
 11
25.4241487557
 21
-6.248630474
  0
LINE
  5
389
100
AcDbEntity
  8
RACCORDO
100
AcDbLine
 62
7
  6
CONTINUOUS
 10
-25.1441480461
 20
-6.248630474
 11
-25.4
 21
-6.248630474
  0
LINE
  5
38A
100
AcDbEntity
  8
RACCORDO
100
AcDbLine
 62
253
  6
CONTINUOUS
 10
-25.626577064
 20
-6.0999237273
 11
-25.4013237147
 21
-6.099923735
  0
LINE
  5
38B
100
AcDbEntity
  8
RACCORDO
100
AcDbLine
 62
253
  6
CONTINUOUS
 10
25.6514510736
 20
-6.0999237273
 11
25.4258655865
 21
-6.0999237273
  0
LINE
  5
38C
100
AcDbEntity
  8
RACCORDO
100
AcDbLine
 62
253
  6
CONTINUOUS
 10
-43.5522066597
 20
-6.0434622238
 11
-43.6485211662
 21
-6.0434622238
  0
LINE
  5
38D
100
AcDbEntity
  8
RACCORDO
100
AcDbLine
 62
253
  6
CONTINUOUS
 10
43.5613700032
 20
-6.0434622238
 11
43.6575482605
 21
-6.0434623396
  0
LINE
  5
38E
100
AcDbEntity
  8
RACCORDO
100
AcDbLine
 62
253
  6
CONTINUOUS
 10
25.1404152609
 20
-5.998630474
 11
25.1441480461
 21
-5.998630474
  0
LINE
  5
38F
100
AcDbEntity
  8
RACCORDO
100
AcDbLine
 62
253
  6
CONTINUOUS
 10
-25.1404152957
 20
-5.998630474
 11
-25.1441480461
 21
-5.998630474
  0
LWPOLYLINE
  5
390
100
AcDbEntity
  8
RACCORDO
100
AcDbPolyline
 62
253
  6
CONTINUOUS
 90
3
 70
0
 10
44.4279893004
 20
-5.9965720606
 10
44.3904464358
 20
-5.9965712583
 10
44.2057248462
 20
-5.9966939848
  0
LINE
  5
391
100
AcDbEntity
  8
DRAFT
100
AcDbLine
 62
7
  6
CONTINUOUS
 10
41.0192005714
 20
-5.034410632
 11
39.9166499623
 21
-5.034410632
  0
LINE
  5
392
100
AcDbEntity
  8
DRAFT
100
AcDbLine
 62
7
  6
CONTINUOUS
 10
-39.9157095584
 20
-5.034410632
 11
-41.0192005714
 21
-5.034410632
  0
LINE
  5
393
100
AcDbEntity
  8
RACCORDO
100
AcDbLine
 62
7
  6
CONTINUOUS
 10
41.1965131593
 20
-4.9925347541
 11
43.2033564419
 21
-4.995312109
  0
LINE
  5
394
100
AcDbEntity
  8
RACCORDO
100
AcDbLine
 62
253
  6
CONTINUOUS
 10
-40.4048357779
 20
-5.4014621158
 11
-42.6035083679
 21
-5.398206291
  0
LINE
  5
395
100
AcDbEntity
  8
RACCORDO
100
AcDbLine
 62
253
  6
CONTINUOUS
 10
-40.3762878767
 20
-5.2514658767
 11
-42.5819171293
 21
-5.2482120026
  0
LINE
  5
396
100
AcDbEntity
  8
DRAFT
100
AcDbLine
 62
7
  6
CONTINUOUS
 10
42.4649941751
 20
-5.020835259
 11
41.0503593227
 21
-5.0188324428
  0
LWPOLYLINE
  5
397
100
AcDbEntity
  8
DRAFT
100
AcDbPolyline
 62
7
  6
CONTINUOUS
 90
3
 70
0
 10
39.4715848444
 20
-5.0020497662
 10
39.6617110165
 20
-5.0023831326
 10
39.8523071279
 20
-5.002711831
  0
LINE
  5
398
100
AcDbEntity
  8
RACCORDO
100
AcDbLine
 62
7
  6
CONTINUOUS
 10
39.2332856467
 20
-4.9891920601
 11
41.1965131593
 21
-4.9925347541
  0
LWPOLYLINE
  5
399
100
AcDbEntity
  8
DRAFT
100
AcDbPolyline
 62
7
  6
CONTINUOUS
 90
7
 70
0
 10
38.1539474314
 20
-4.9995847895
 10
38.3407451431
 20
-4.9999511461
 10
38.5280225155
 20
-5.0003127562
 10
38.7157795485
 20
-5.0006696199
 10
38.9040194826
 20
-5.0010217108
 10
39.0927390775
 20
-5.0013690553
 10
39.4715848444
 20
-5.0020497662
  0
LINE
  5
39A
100
AcDbEntity
  8
RACCORDO
100
AcDbLine
 62
253
  6
CONTINUOUS
 10
-38.1811363212
 20
-5.4057335855
 11
-40.4048357779
 21
-5.4014621158
  0
LINE
  5
39B
100
AcDbEntity
  8
RACCORDO
100
AcDbLine
 62
253
  6
CONTINUOUS
 10
-38.1472272782
 20
-5.2557364802
 11
-40.3762878767
 21
-5.2514658767
  0
LINE
  5
39C
100
AcDbEntity
  8
RACCORDO
100
AcDbLine
 62
253
  6
CONTINUOUS
 10
39.2792920475
 20
-4.7877011248
 11
43.2325525991
 21
-4.7950066457
  0
LINE
  5
39D
100
AcDbEntity
  8
RACCORDO
100
AcDbLine
 62
253
  6
CONTINUOUS
 10
37.3619318683
 20
-4.7833291557
 11
39.2792920475
 21
-4.7877011248
  0
LINE
  5
39E
100
AcDbEntity
  8
RACCORDO
100
AcDbLine
 62
253
  6
CONTINUOUS
 10
-35.9440956002
 20
-5.4110201593
 11
-38.1811363212
 21
-5.4057335855
  0
LINE
  5
39F
100
AcDbEntity
  8
RACCORDO
100
AcDbLine
 62
253
  6
CONTINUOUS
 10
-35.9025278991
 20
-5.2610230906
 11
-38.1472272782
 21
-5.2557364802
  0
LINE
  5
3A0
100
AcDbEntity
  8
RACCORDO
100
AcDbLine
 62
7
  6
CONTINUOUS
 10
35.4566396262
 20
-4.9809404223
 11
36.8395562243
 21
-4.9841750652
  0
LINE
  5
3A1
100
AcDbEntity
  8
RACCORDO
100
AcDbLine
 62
7
  6
CONTINUOUS
 10
36.8395562243
 20
-4.9841750652
 11
39.2332856467
 21
-4.9891920601
  0
LWPOLYLINE
  5
3A2
100
AcDbEntity
  8
RACCORDO
100
AcDbPolyline
 62
253
  6
CONTINUOUS
 90
3
 70
0
 10
-44.4279891409
 20
-5.996572063
 10
-44.2057224833
 20
-5.9966939866
 10
-44.2018677276
 20
-5.9967222932
  0
LINE
  5
3A3
100
AcDbEntity
  8
RACCORDO
100
AcDbLine
 62
253
  6
CONTINUOUS
 10
-33.7177450435
 20
-5.417328805
 11
-35.9440956002
 21
-5.4110201593
  0
LINE
  5
3A4
100
AcDbEntity
  8
RACCORDO
100
AcDbLine
 62
253
  6
CONTINUOUS
 10
-33.6687323277
 20
-5.2673319402
 11
-35.9025278991
 21
-5.2610230906
  0
LINE
  5
3A5
100
AcDbEntity
  8
RACCORDO
100
AcDbLine
 62
253
  6
CONTINUOUS
 10
35.5180734984
 20
-4.7779652792
 11
37.3619318683
 21
-4.7833291557
  0
LINE
  5
3A6
100
AcDbEntity
  8
RACCORDO
100
AcDbLine
 62
253
  6
CONTINUOUS
 10
-31.5219978515
 20
-5.4246141483
 11
-33.7177450435
 21
-5.417328805
  0
LINE
  5
3A7
100
AcDbEntity
  8
RACCORDO
100
AcDbLine
 62
253
  6
CONTINUOUS
 10
-31.4662639401
 20
-5.2746178684
 11
-33.6687323277
 21
-5.2673319402
  0
LINE
  5
3A8
100
AcDbEntity
  8
RACCORDO
100
AcDbLine
 62
253
  6
CONTINUOUS
 10
-29.3716533099
 20
-5.4328353339
 11
-31.5219978515
 21
-5.4246141483
  0
LINE
  5
3A9
100
AcDbEntity
  8
RACCORDO
100
AcDbLine
 62
253
  6
CONTINUOUS
 10
-29.3085071019
 20
-5.2828399321
 11
-31.4662639401
 21
-5.2746178684
  0
LWPOLYLINE
  5
3AA
100
AcDbEntity
  8
RACCORDO
100
AcDbPolyline
 62
253
  6
CONTINUOUS
 90
3
 70
0
 10
-26.1980782613
 20
-5.2967391903
 10
-27.2189194001
 20
-5.2918936477
 10
-29.3085071019
 20
-5.2828399321
  0
LWPOLYLINE
  5
3AB
100
AcDbEntity
  8
RACCORDO
100
AcDbPolyline
 62
7
  6
CONTINUOUS
 90
6
 70
0
 10
26.1999688638
 20
-4.9464599728
 10
28.0854263219
 20
-4.9553172553
 10
29.9576144662
 20
-4.9632198951
 10
31.8165332965
 20
-4.9701678921
 10
33.6432211183
 20
-4.9760314785
 10
35.4566396262
 20
-4.9809404223
  0
LWPOLYLINE
  5
3AC
100
AcDbEntity
  8
RACCORDO
100
AcDbPolyline
 62
253
  6
CONTINUOUS
 90
3
 70
0
 10
-26.2712992054
 20
-5.4467334787
 10
-27.2880161589
 20
-5.4418882938
 10
-29.3716533099
 20
-5.4328353339
  0
LWPOLYLINE
  5
3AD
100
AcDbEntity
  8
RACCORDO
100
AcDbPolyline
 62
253
  6
CONTINUOUS
 90
5
 70
0
 10
26.3004395921
 20
-4.735713171
 10
28.1655121283
 20
-4.7480885486
 10
30.0355237639
 20
-4.7575151017
 10
31.9011705067
 20
-4.7650065296
 10
35.5180734984
 20
-4.7779652792
  0
LWPOLYLINE
  5
3AE
100
AcDbEntity
  8
RACCORDO
100
AcDbPolyline
 62
253
  6
CONTINUOUS
 90
15
 70
0
 10
-26.3004395487
 20
-4.7357131822
 10
-26.2492803672
 20
-4.7360794506
 10
-26.1967151904
 20
-4.7390954222
 10
-26.1427487769
 20
-4.7447613331
 10
-26.0873075332
 20
-4.7528314072
 10
-26.0304751886
 20
-4.7635531064
 10
-25.9724919854
 20
-4.7776677898
 10
-25.9133079016
 20
-4.7951150535
 10
-25.8529817907
 20
-4.815961736
 10
-25.7919153485
 20
-4.8411431627
 10
-25.7300335338
 20
-4.8705450065
 10
-25.6674183741
 20
-4.9042965449
 10
-25.6047042164
 20
-4.9437047807
 10
-25.5416465182
 20
-4.9886421777
 10
-25.478493723
 20
-5.0392669967
  0
LINE
  5
3AF
100
AcDbEntity
  8
RACCORDO
100
AcDbLine
 62
7
  6
CONTINUOUS
 10
42.9001624846
 20
-4.99862218
 11
43.0750778827
 21
-4.9995859757
  0
LINE
  5
3B0
100
AcDbEntity
  8
RACCORDO
100
AcDbLine
 62
7
  6
CONTINUOUS
 10
43.0750778827
 20
-4.9995859757
 11
43.1981390797
 21
-5.0005294712
  0
LINE
  5
3B1
100
AcDbEntity
  8
DRAFT
100
AcDbLine
 62
7
  6
CONTINUOUS
 10
-25.1630095511
 20
-5.9621851729
 11
-25.2371691907
 21
-5.9614612833
  0
LINE
  5
3B2
100
AcDbEntity
  8
RACCORDO
100
AcDbLine
 62
253
  6
CONTINUOUS
 10
-43.6485211662
 20
-6.043466946
 11
-44.2004071627
 21
-6.0377246973
  0
LINE
  5
3B3
100
AcDbEntity
  8
RACCORDO
100
AcDbLine
 62
253
  6
CONTINUOUS
 10
-42.5819171293
 20
-5.2482120026
 11
-43.8429703769
 21
-5.235096701
  0
LWPOLYLINE
  5
3B4
100
AcDbEntity
  8
RACCORDO
100
AcDbPolyline
 62
253
  6
CONTINUOUS
 90
15
 70
0
 10
-26.199986473
 20
-4.9464600543
 10
-26.1569793027
 20
-4.9470782917
 10
-26.1125819524
 20
-4.9495634945
 10
-26.066882848
 20
-4.9540949592
 10
-26.020062385
 20
-4.9608399495
 10
-25.9721651348
 20
-4.9699854277
 10
-25.9231075914
 20
-4.9817716166
 10
-25.8731023375
 20
-4.9963924159
 10
-25.822294828
 20
-5.0140629266
 10
-25.7705614039
 20
-5.035134329
 10
-25.7182600395
 20
-5.0598044986
 10
-25.6655970934
 20
-5.0883431177
 10
-25.6123470128
 20
-5.1213465378
 10
-25.5590337421
 20
-5.1590512086
 10
-25.5060681503
 20
-5.2017808568
  0
LINE
  5
3B5
100
AcDbEntity
  8
DRAFT
100
AcDbLine
 62
7
  6
CONTINUOUS
 10
40.960226671
 20
-5.2385517174
 11
39.7500243282
 21
-5.2160280984
  0
LINE
  5
3B6
100
AcDbEntity
  8
RACCORDO
100
AcDbLine
 62
7
  6
CONTINUOUS
 10
36.8395081982
 20
-5.0047077932
 11
38.096642938
 21
-5.0282348541
  0
LWPOLYLINE
  5
3B7
100
AcDbEntity
  8
RACCORDO
100
AcDbPolyline
 62
253
  6
CONTINUOUS
 90
7
 70
0
 10
43.2325525991
 20
-4.7950066457
 10
43.2963067309
 20
-4.7962440394
 10
43.3614794422
 20
-4.8017256819
 10
43.4280722495
 20
-4.8114531246
 10
43.4963057184
 20
-4.8250545694
 10
43.565962486
 20
-4.8429081273
 10
43.6363871738
 20
-4.8661433038
  0
LINE
  5
3B8
100
AcDbEntity
  8
DRAFT
100
AcDbLine
 62
7
  6
CONTINUOUS
 10
-36.4871823366
 20
-5.2585833707
 11
-38.2499723445
 21
-5.21631718
  0
LWPOLYLINE
  5
3B9
100
AcDbEntity
  8
RACCORDO
100
AcDbPolyline
 62
253
  6
CONTINUOUS
 90
10
 70
0
 10
25.0475485822
 20
-5.9869471929
 10
25.0655604296
 20
-5.9878537662
 10
25.0820387019
 20
-5.9888924068
 10
25.0967814526
 20
-5.9900503863
 10
25.109608005
 20
-5.991313514
 10
25.1203611653
 20
-5.9926663105
 10
25.1289091505
 20
-5.9940921973
 10
25.1351472022
 20
-5.9955737004
 10
25.1389988711
 20
-5.9970926643
 10
25.1404169538
 20
-5.9986304742
  0
LINE
  5
3BA
100
AcDbEntity
  8
RACCORDO
100
AcDbLine
 62
7
  6
CONTINUOUS
 10
-42.4649933253
 20
-5.0208353024
 11
-42.9001624846
 21
-4.99862218
  0
LWPOLYLINE
  5
3BB
100
AcDbEntity
  8
RACCORDO
100
AcDbPolyline
 62
7
  6
CONTINUOUS
 90
10
 70
0
 10
-26.1970237746
 20
-5.2956847102
 10
-26.1193352692
 20
-5.3002291908
 10
-26.044052733
 20
-5.3115543526
 10
-25.971169324
 20
-5.3296601956
 10
-25.9000097318
 20
-5.3550409835
 10
-25.8312373635
 20
-5.3872024526
 10
-25.7668480805
 20
-5.4246618119
 10
-25.707497421
 20
-5.4669247977
 10
-25.6525068768
 20
-5.5144856736
 10
-25.6018666706
 20
-5.5673444396
  0
LINE
  5
3BC
100
AcDbEntity
  8
RACCORDO
100
AcDbLine
 62
253
  6
CONTINUOUS
 10
-47.1883265153
 20
-45.1896979198
 11
-47.5
 21
-45.5013714045
  0
LINE
  5
3BD
100
AcDbEntity
  8
RACCORDO
100
AcDbLine
 62
253
  6
CONTINUOUS
 10
45.1868976767
 20
47.1855262722
 11
45.5027409305
 21
47.501369526
  0
LINE
  5
3BE
100
AcDbEntity
  8
DRAFT
100
AcDbLine
 62
7
  6
CONTINUOUS
 10
-38.1550072198
 20
-14.9982060124
 11
-38.096642938
 21
-14.9690260939
  0
LINE
  5
3BF
100
AcDbEntity
  8
RACCORDO
100
AcDbLine
 62
253
  6
CONTINUOUS
 10
-43.3484626659
 20
-4.8020313462
 11
-43.2325525852
 21
-4.7950066476
  0
LINE
  5
3C0
100
AcDbEntity
  8
RACCORDO
100
AcDbLine
 62
253
  6
CONTINUOUS
 10
-43.2991180087
 20
-5.0000688593
 11
-43.2033564394
 21
-4.9953121116
  0
LINE
  5
3C1
100
AcDbEntity
  8
RACCORDO
100
AcDbLine
 62
7
  6
CONTINUOUS
 10
-43.2518574241
 20
-5.0021664753
 11
-43.1981390797
 21
-5.0005294712
  0
LWPOLYLINE
  5
3C2
100
AcDbEntity
  8
RACCORDO
100
AcDbPolyline
 62
253
  6
CONTINUOUS
 90
8
 70
0
 10
43.2033564419
 20
-4.995312109
 10
43.2562466839
 20
-4.9967972689
 10
43.3107540913
 20
-5.0012772699
 10
43.3666912663
 20
-5.0090296799
 10
43.4237129557
 20
-5.0203003208
 10
43.4816934222
 20
-5.0353689402
 10
43.5407058869
 20
-5.0546197273
 10
43.6003570927
 20
-5.0783438799
  0
LWPOLYLINE
  5
3C3
100
AcDbEntity
  8
RACCORDO
100
AcDbPolyline
 62
7
  6
CONTINUOUS
 90
8
 70
0
 10
43.1981390797
 20
-5.0005294712
 10
43.2525332651
 20
-5.0031935578
 10
43.3089776499
 20
-5.0078535695
 10
43.3673508714
 20
-5.0153195037
 10
43.4272910708
 20
-5.0268777496
 10
43.4886318189
 20
-5.0434676538
 10
43.5515226855
 20
-5.0649616436
 10
43.6173718467
 20
-5.0920243996
  0
LINE
  5
3C4
100
AcDbEntity
  8
RACCORDO
100
AcDbLine
 62
253
  6
CONTINUOUS
 10
45.184830967
 20
-47.1807205106
 11
45.5027409305
 21
-47.498630474
  0
LINE
  5
3C5
100
AcDbEntity
  8
RACCORDO
100
AcDbLine
 62
253
  6
CONTINUOUS
 10
-47.1889337642
 20
45.1930442207
 11
-47.5
 21
45.5041104565
  0
LINE
  5
3C6
100
AcDbEntity
  8
RACCORDO
100
AcDbLine
 62
253
  6
CONTINUOUS
 10
-45.1848309675
 20
-47.180720511
 11
-45.5027409305
 21
-47.498630474
  0
LINE
  5
3C7
100
AcDbEntity
  8
RACCORDO
100
AcDbLine
 62
253
  6
CONTINUOUS
 10
47.1889337643
 20
45.1930442207
 11
47.5
 21
45.5041104565
  0
LINE
  5
3C8
100
AcDbEntity
  8
DRAFT
100
AcDbLine
 62
7
  6
CONTINUOUS
 10
38.096642938
 20
-14.9690260939
 11
38.1550072258
 21
-14.9982060153
  0
LWPOLYLINE
  5
3C9
100
AcDbEntity
  8
DRAFT
100
AcDbPolyline
 62
7
  6
CONTINUOUS
 90
5
 70
0
 10
25.5276845891
 20
-14.7860438737
 10
25.6706526929
 20
-14.8882335179
 10
25.8290161738
 20
-14.9610956572
 10
26.0054278021
 20
-15.0087947227
 10
26.2
 20
-15.0313307144
  0
LINE
  5
3CA
100
AcDbEntity
  8
RACCORDO
100
AcDbLine
 62
253
  6
CONTINUOUS
 10
47.1883265146
 20
-45.1896979191
 11
47.5
 21
-45.5013714045
  0
LINE
  5
3CB
100
AcDbEntity
  8
RACCORDO
100
AcDbLine
 62
253
  6
CONTINUOUS
 10
-45.1868976766
 20
47.1855262721
 11
-45.5027409305
 21
47.501369526
  0
LWPOLYLINE
  5
3CC
100
AcDbEntity
  8
RACCORDO
100
AcDbPolyline
 62
7
  6
CONTINUOUS
 90
9
 70
0
 10
25.6932146146
 20
-14.4965706525
 10
25.7480365042
 20
-14.5415268654
 10
25.8070937598
 20
-14.5817455813
 10
25.8700748967
 20
-14.6168136169
 10
25.9364735663
 20
-14.6462549593
 10
26.0054412872
 20
-14.6695678194
 10
26.076295447
 20
-14.6864799754
 10
26.1485701302
 20
-14.6968451292
 10
26.221662658
 20
-14.7005217578
  0
LWPOLYLINE
  5
3CD
100
AcDbEntity
  8
RACCORDO
100
AcDbPolyline
 62
253
  6
CONTINUOUS
 90
4
 70
0
 10
25.50098828
 20
-14.7974112799
 10
25.4393424419
 20
-14.7395352091
 10
25.3798274508
 20
-14.6736909829
 10
25.3233938192
 20
-14.5992336016
  0
LWPOLYLINE
  5
3CE
100
AcDbEntity
  8
RACCORDO
100
AcDbPolyline
 62
253
  6
CONTINUOUS
 90
10
 70
0
 10
25.4820480144
 20
-14.9406807388
 10
25.4092555607
 20
-14.8713731353
 10
25.3378121997
 20
-14.793085089
 10
25.2718577498
 20
-14.7045072748
 10
25.210822694
 20
-14.6039992912
 10
25.1552344762
 20
-14.4933151233
 10
25.1108482031
 20
-14.3762323688
 10
25.0795608749
 20
-14.2540310942
 10
25.0594296028
 20
-14.1255162329
 10
25.0504453658
 20
-13.9907351519
  0
LINE
  5
3CF
100
AcDbEntity
  8
DRAFT
100
AcDbLine
 62
7
  6
CONTINUOUS
 10
25.4025783534
 20
-14.6586911557
 11
25.5276845891
 21
-14.7860438737
  0
LWPOLYLINE
  5
3D0
100
AcDbEntity
  8
RACCORDO
100
AcDbPolyline
 62
253
  6
CONTINUOUS
 90
5
 70
0
 10
43.6363871738
 20
-4.8661433038
 10
43.7077559629
 20
-4.8947078484
 10
43.7798960212
 20
-4.9286721091
 10
43.851628067
 20
-4.9693565558
 10
43.9233720384
 20
-5.0169659407
  0
LINE
  5
3D1
100
AcDbEntity
  8
DRAFT
100
AcDbLine
 62
7
  6
CONTINUOUS
 10
39.9166499623
 20
-5.034410632
 11
39.8523071279
 21
-5.002711831
  0
LINE
  5
3D2
100
AcDbEntity
  8
RACCORDO
100
AcDbLine
 62
253
  6
CONTINUOUS
 10
26.2216626597
 20
-5.2967391902
 11
26.2202950125
 21
-5.2956847102
  0
LWPOLYLINE
  5
3D3
100
AcDbEntity
  8
RACCORDO
100
AcDbPolyline
 62
7
  6
CONTINUOUS
 90
4
 70
0
 10
25.5577245054
 20
-14.3389137435
 10
25.5978349073
 20
-14.3947430525
 10
25.6430450914
 20
-14.4474497472
 10
25.6932146146
 20
-14.4965706525
  0
LINE
  5
3D4
100
AcDbEntity
  8
DRAFT
100
AcDbLine
 62
7
  6
CONTINUOUS
 10
25.3028800848
 20
-14.5186686575
 11
25.4025783534
 21
-14.6586911557
  0
LWPOLYLINE
  5
3D5
100
AcDbEntity
  8
RACCORDO
100
AcDbPolyline
 62
253
  6
CONTINUOUS
 90
7
 70
0
 10
25.3233938192
 20
-14.5992336016
 10
25.2710055453
 20
-14.5151896543
 10
25.224825861
 20
-14.4223329207
 10
25.1872633811
 20
-14.323170694
 10
25.1595202478
 20
-14.2192245026
 10
25.1422429648
 20
-14.110688165
 10
25.1363257648
 20
-13.998630474
  0
LWPOLYLINE
  5
3D6
100
AcDbEntity
  8
RACCORDO
100
AcDbPolyline
 62
253
  6
CONTINUOUS
 90
6
 70
0
 10
43.6003570927
 20
-5.0783438799
 10
43.6602895647
 20
-5.1068425963
 10
43.720497223
 20
-5.1406449951
 10
43.7805415325
 20
-5.1801592389
 10
43.8396637818
 20
-5.2255951143
 10
43.8972252454
 20
-5.2772225388
  0
LWPOLYLINE
  5
3D7
100
AcDbEntity
  8
RACCORDO
100
AcDbPolyline
 62
7
  6
CONTINUOUS
 90
5
 70
0
 10
43.6173718467
 20
-5.0920243996
 10
43.6839087862
 20
-5.1252596057
 10
43.7460851888
 20
-5.1630374802
 10
43.8022025662
 20
-5.2043409724
 10
43.8535766541
 20
-5.2496155292
  0
LWPOLYLINE
  5
3D8
100
AcDbEntity
  8
RACCORDO
100
AcDbPolyline
 62
7
  6
CONTINUOUS
 90
10
 70
0
 10
25.6260147484
 20
-5.5673444396
 10
25.6766285551
 20
-5.5144348403
 10
25.7315988783
 20
-5.4668337168
 10
25.7909355792
 20
-5.4245410693
 10
25.8553492822
 20
-5.3870598041
 10
25.9241525943
 20
-5.3548870147
 10
25.9952534772
 20
-5.3295139826
 10
26.0679561732
 20
-5.3114378013
 10
26.1429678198
 20
-5.3001613771
 10
26.2202950125
 20
-5.2956847102
  0
LWPOLYLINE
  5
3D9
100
AcDbEntity
  8
DRAFT
100
AcDbPolyline
 62
7
  6
CONTINUOUS
 90
3
 70
0
 10
25.5276842277
 20
-5.2112174452
 10
25.4025779314
 20
-5.3385704094
 10
25.3028796641
 20
-5.4785930121
  0
LWPOLYLINE
  5
3DA
100
AcDbEntity
  8
RACCORDO
100
AcDbPolyline
 62
7
  6
CONTINUOUS
 90
4
 70
0
 10
25.6930532009
 20
-5.5008350236
 10
25.6428520512
 20
-5.5500174799
 10
25.5976354267
 20
-5.6027719669
 10
25.5575268068
 20
-5.6586489846
  0
LINE
  5
3DB
100
AcDbEntity
  8
DRAFT
100
AcDbLine
 62
7
  6
CONTINUOUS
 10
38.1539474314
 20
-4.9995847895
 11
38.096642938
 21
-5.0282348541
  0
LWPOLYLINE
  5
3DC
100
AcDbEntity
  8
RACCORDO
100
AcDbPolyline
 62
253
  6
CONTINUOUS
 90
11
 70
0
 10
43.9233720384
 20
-5.0169659407
 10
43.994710888
 20
-5.0713342977
 10
44.0632081416
 20
-5.1332359724
 10
44.1291572474
 20
-5.2032099874
 10
44.1922647722
 20
-5.2807826058
 10
44.2492101575
 20
-5.3652133131
 10
44.2998715953
 20
-5.4570087672
 10
44.3443658371
 20
-5.5557407388
 10
44.3797256913
 20
-5.6592532261
 10
44.4049582938
 20
-5.7668421336
 10
44.4210474717
 20
-5.8792706512
  0
LINE
  5
3DD
100
AcDbEntity
  8
RACCORDO
100
AcDbLine
 62
253
  6
CONTINUOUS
 10
43.1981390797
 20
-14.9967314768
 11
43.2034698508
 21
-15.0020622479
  0
LINE
  5
3DE
100
AcDbEntity
  8
RACCORDO
100
AcDbLine
 62
253
  6
CONTINUOUS
 10
44.2019141138
 20
-14.0005826648
 11
44.2
 21
-13.9986685509
  0
LINE
  5
3DF
100
AcDbEntity
  8
DRAFT
100
AcDbLine
 62
7
  6
CONTINUOUS
 10
25.1623661626
 20
-7.5350694821
 11
25.1441480461
 21
-7.498630474
  0
LWPOLYLINE
  5
3E0
100
AcDbEntity
  8
RACCORDO
100
AcDbPolyline
 62
253
  6
CONTINUOUS
 90
10
 70
0
 10
26.3090674391
 20
-15.2489184629
 10
26.3067640907
 20
-15.2151620112
 10
26.3013770809
 20
-15.1825660075
 10
26.2930620204
 20
-15.1520719054
 10
26.2820590788
 20
-15.1245604444
 10
26.2686860727
 20
-15.100826204
 10
26.2533292812
 20
-15.0815546593
 10
26.2364322585
 20
-15.0673023953
 10
26.2184830261
 20
-15.0584810284
 10
26.2
 20
-15.0553453137
  0
LWPOLYLINE
  5
3E1
100
AcDbEntity
  8
RACCORDO
100
AcDbPolyline
 62
253
  6
CONTINUOUS
 90
10
 70
0
 10
26.2952198659
 20
-5.4467334786
 10
26.2940154446
 20
-5.4208132066
 10
26.2906340895
 20
-5.395673391
 10
26.2851775302
 20
-5.3720704004
 10
26.2778099326
 20
-5.3507143661
 10
26.2687529586
 20
-5.332247816
 10
26.2582790981
 20
-5.317226344
 10
26.2467034701
 20
-5.3061018933
 10
26.2343743422
 20
-5.2992091597
 10
26.2216626522
 20
-5.2967555214
  0
LWPOLYLINE
  5
3E2
100
AcDbEntity
  8
RACCORDO
100
AcDbPolyline
 62
7
  6
CONTINUOUS
 90
8
 70
0
 10
25.4258655865
 20
-13.8973372207
 10
25.4285470203
 20
-13.9629581699
 10
25.4366248167
 20
-14.0284799806
 10
25.4501234669
 20
-14.0934471869
 10
25.4689983654
 20
-14.1573097498
 10
25.4932113691
 20
-14.219694458
 10
25.5228021058
 20
-14.2803801419
 10
25.5577245054
 20
-14.3389137435
  0
LWPOLYLINE
  5
3E3
100
AcDbEntity
  8
RACCORDO
100
AcDbPolyline
 62
253
  6
CONTINUOUS
 90
19
 70
0
 10
25.6514510736
 20
-13.8973372207
 10
25.6535692296
 20
-13.9509101061
 10
25.6600475169
 20
-14.0037734683
 10
25.6708871411
 20
-14.0559273074
 10
25.6861158648
 20
-14.107728369
 10
25.7057107798
 20
-14.1588199074
 10
25.7295982332
 20
-14.2081316857
 10
25.7578691275
 20
-14.2556985445
 10
25.790442099
 20
-14.3014856433
 10
25.8269857218
 20
-14.3443182235
 10
25.8676951181
 20
-14.3842285587
 10
25.9123881917
 20
-14.4211843753
 10
25.9601664906
 20
-14.4539140947
 10
26.0112854087
 20
-14.4823076995
 10
26.0655023872
 20
-14.506475207
 10
26.1211671876
 20
-14.5254750904
 10
26.1777301778
 20
-14.5389935075
 10
26.2357464542
 20
-14.5473443004
 10
26.2952192595
 20
-14.5505274693
  0
LINE
  5
3E4
100
AcDbEntity
  8
RACCORDO
100
AcDbLine
 62
253
  6
CONTINUOUS
 10
26.1999688638
 20
-4.9464599728
 11
26.2
 21
-4.9659302336
  0
LINE
  5
3E5
100
AcDbEntity
  8
RACCORDO
100
AcDbLine
 62
253
  6
CONTINUOUS
 10
25.0504453658
 20
-13.9907351519
 11
25.0475491698
 21
-5.9869471287
  0
LINE
  5
3E6
100
AcDbEntity
  8
RACCORDO
100
AcDbLine
 62
253
  6
CONTINUOUS
 10
26.2000059273
 20
-15.0553449814
 11
26.2
 21
-15.0313307144
  0
LINE
  5
3E7
100
AcDbEntity
  8
DRAFT
100
AcDbLine
 62
7
  6
CONTINUOUS
 10
25.1441480461
 20
-13.998630474
 11
25.1441480461
 21
-12.498630474
  0
LINE
  5
3E8
100
AcDbEntity
  8
DRAFT
100
AcDbLine
 62
7
  6
CONTINUOUS
 10
25.1441480461
 20
-7.498630474
 11
25.1441480461
 21
-5.998630474
  0
LINE
  5
3E9
100
AcDbEntity
  8
DRAFT
100
AcDbLine
 62
7
  6
CONTINUOUS
 10
25.1583396938
 20
-10.998630474
 11
25.1583396938
 21
-8.998630474
  0
LINE
  5
3EA
100
AcDbEntity
  8
DRAFT
100
AcDbLine
 62
7
  6
CONTINUOUS
 10
25.1623661626
 20
-12.4621914659
 11
25.1623661626
 21
-10.998630474
  0
LINE
  5
3EB
100
AcDbEntity
  8
DRAFT
100
AcDbLine
 62
7
  6
CONTINUOUS
 10
25.1623661626
 20
-8.998630474
 11
25.1623661626
 21
-7.5350694821
  0
LINE
  5
3EC
100
AcDbEntity
  8
DRAFT
100
AcDbLine
 62
7
  6
CONTINUOUS
 10
25.2371691907
 20
-14.0357996647
 11
25.2371691907
 21
-13.748630474
  0
LINE
  5
3ED
100
AcDbEntity
  8
DRAFT
100
AcDbLine
 62
7
  6
CONTINUOUS
 10
25.2371691907
 20
-12.748630474
 11
25.2371691907
 21
-12.4614612833
  0
LINE
  5
3EE
100
AcDbEntity
  8
DRAFT
100
AcDbLine
 62
7
  6
CONTINUOUS
 10
25.2371691907
 20
-7.5357996647
 11
25.2371691907
 21
-7.248630474
  0
LINE
  5
3EF
100
AcDbEntity
  8
DRAFT
100
AcDbLine
 62
7
  6
CONTINUOUS
 10
25.2371691907
 20
-6.248630474
 11
25.2371691907
 21
-5.9614612833
  0
LINE
  5
3F0
100
AcDbEntity
  8
RACCORDO
100
AcDbLine
 62
253
  6
CONTINUOUS
 10
25.4258655865
 20
-6.0999237273
 11
25.4258655865
 21
-13.8973372207
  0
LINE
  5
3F1
100
AcDbEntity
  8
RACCORDO
100
AcDbLine
 62
253
  6
CONTINUOUS
 10
25.6514510736
 20
-6.0999237273
 11
25.6514510736
 21
-13.8973372207
  0
LINE
  5
3F2
100
AcDbEntity
  8
RACCORDO
100
AcDbLine
 62
253
  6
CONTINUOUS
 10
25.1363257648
 20
-13.998630474
 11
25.1387942003
 21
-8.8325161723
  0
LINE
  5
3F3
100
AcDbEntity
  8
RACCORDO
100
AcDbLine
 62
253
  6
CONTINUOUS
 10
25.1387942003
 20
-8.8325161723
 11
25.1404152609
 21
-5.998630474
  0
LWPOLYLINE
  5
3F4
100
AcDbEntity
  8
RACCORDO
100
AcDbPolyline
 62
253
  6
CONTINUOUS
 90
12
 70
0
 10
25.0475491698
 20
-5.9869471287
 10
25.048515579
 20
-5.9266768354
 10
25.0530380677
 20
-5.8650486915
 10
25.0611184847
 20
-5.802068243
 10
25.0725405996
 20
-5.73743467
 10
25.0875263071
 20
-5.6714609269
 10
25.1067363112
 20
-5.6050694144
 10
25.1302297504
 20
-5.5382192504
 10
25.1579594607
 20
-5.4709549226
 10
25.190429448
 20
-5.4043183432
 10
25.2276537874
 20
-5.3382886257
 10
25.2696381931
 20
-5.2728806397
  0
LWPOLYLINE
  5
3F5
100
AcDbEntity
  8
RACCORDO
100
AcDbPolyline
 62
7
  6
CONTINUOUS
 90
10
 70
0
 10
26.3043514903
 20
-4.7352784733
 10
26.3035389344
 20
-4.7720465037
 10
26.2993502261
 20
-4.8079379307
 10
26.2919294808
 20
-4.8417367958
 10
26.2815304525
 20
-4.8722992271
 10
26.2685070228
 20
-4.8985921496
 10
26.2533010514
 20
-4.9197280676
 10
26.2364283193
 20
-4.9349948069
 10
26.2184609917
 20
-4.9438794016
 10
26.2000074161
 20
-4.9460852097
  0
LWPOLYLINE
  5
3F6
100
AcDbEntity
  8
RACCORDO
100
AcDbPolyline
 62
253
  6
CONTINUOUS
 90
25
 70
0
 10
25.1404152609
 20
-5.998630474
 10
25.1416568293
 20
-5.9482336506
 10
25.1454670277
 20
-5.8963709745
 10
25.1520699235
 20
-5.8431877307
 10
25.161695482
 20
-5.7888088408
 10
25.1745581047
 20
-5.7334734661
 10
25.1908305839
 20
-5.6775310524
 10
25.2106786081
 20
-5.6212591877
 10
25.2342786058
 20
-5.5648830904
 10
25.2617765447
 20
-5.508704905
 10
25.2932560473
 20
-5.4531139443
 10
25.3288625206
 20
-5.3983621857
 10
25.3688391176
 20
-5.3446060884
 10
25.4132819489
 20
-5.2922539169
 10
25.462247204
 20
-5.2417454077
 10
25.5159411385
 20
-5.193383017
 10
25.5743922527
 20
-5.1476760744
 10
25.6375385133
 20
-5.1051883456
 10
25.7054283636
 20
-5.0664042098
 10
25.777935807
 20
-5.0319335679
 10
25.8548197221
 20
-5.002418744
 10
25.9358780198
 20
-4.9784635897
 10
26.0207672211
 20
-4.9607177229
 10
26.1089861004
 20
-4.9498417824
 10
26.1999688661
 20
-4.946459914
  0
LWPOLYLINE
  5
3F7
100
AcDbEntity
  8
RACCORDO
100
AcDbPolyline
 62
253
  6
CONTINUOUS
 90
10
 70
0
 10
26.2952194121
 20
-14.5505274693
 10
26.2940164151
 20
-14.5764494754
 10
26.2906360962
 20
-14.6015914526
 10
26.2851801739
 20
-14.6251968441
 10
26.2778128244
 20
-14.6465553312
 10
26.2687557413
 20
-14.6650242076
 10
26.2582814649
 20
-14.6800477193
 10
26.2467051804
 20
-14.6911737883
 10
26.2343752342
 20
-14.6980676157
 10
26.2216626515
 20
-14.7005217569
  0
LWPOLYLINE
  5
3F8
100
AcDbEntity
  8
DRAFT
100
AcDbPolyline
 62
7
  6
CONTINUOUS
 90
4
 70
0
 10
25.3028796641
 20
-5.4785930121
 10
25.2310343241
 20
-5.6271207605
 10
25.1844260659
 20
-5.7883181475
 10
25.1630095511
 20
-5.9621851729
  0
LWPOLYLINE
  5
3F9
100
AcDbEntity
  8
RACCORDO
100
AcDbPolyline
 62
7
  6
CONTINUOUS
 90
8
 70
0
 10
25.5575268068
 20
-5.6586489846
 10
25.5225910675
 20
-5.7172714563
 10
25.4929462384
 20
-5.7781738564
 10
25.4686994808
 20
-5.8408286225
 10
25.4498769816
 20
-5.9047983767
 10
25.4364867168
 20
-5.9696226685
 10
25.4285056636
 20
-6.03481575
 10
25.4258655865
 20
-6.0999237273
  0
LWPOLYLINE
  5
3FA
100
AcDbEntity
  8
RACCORDO
100
AcDbPolyline
 62
253
  6
CONTINUOUS
 90
13
 70
0
 10
25.2696381931
 20
-5.2728806397
 10
25.3168776069
 20
-5.2091805952
 10
25.3694605929
 20
-5.14703159
 10
25.4273285963
 20
-5.0865754248
 10
25.490759581
 20
-5.0293357263
 10
25.5599430445
 20
-4.9751418183
 10
25.6347306389
 20
-4.9241388184
 10
25.7148950046
 20
-4.8783122448
 10
25.8007151811
 20
-4.8375486055
 10
25.891961213
 20
-4.8019288215
 10
25.9876372276
 20
-4.7737209935
 10
26.0874238235
 20
-4.7536701052
 10
26.1916838112
 20
-4.7410035004
  0
LINE
  5
3FB
100
AcDbEntity
  8
RACCORDO
100
AcDbLine
 62
253
  6
CONTINUOUS
 10
-11.2833720857
 20
-47.501369526
 11
-10.4995523085
 21
-46.7036056181
  0
LINE
  5
3FC
100
AcDbEntity
  8
RACCORDO
100
AcDbLine
 62
7
  6
CONTINUOUS
 10
-12.0
 20
-47.498630474
 11
-11.2039351439
 21
-46.7025656179
  0
LINE
  5
3FD
100
AcDbEntity
  8
RACCORDO
100
AcDbLine
 62
7
  6
CONTINUOUS
 10
43.9
 20
-5.298630474
 11
43.9580302502
 21
-5.355671039
  0
LWPOLYLINE
  5
3FE
100
AcDbEntity
  8
DRAFT
100
AcDbPolyline
 62
7
  6
CONTINUOUS
 90
4
 70
0
 10
25.1630095511
 20
-14.0350757751
 10
25.1844262679
 20
-14.2089431828
 10
25.2310346663
 20
-14.3701408103
 10
25.3028800848
 20
-14.5186686575
  0
LINE
  5
3FF
100
AcDbEntity
  8
DRAFT
100
AcDbLine
 62
7
  6
CONTINUOUS
 10
25.1623661626
 20
-12.4621914659
 11
25.1441480461
 21
-12.498630474
  0
LWPOLYLINE
  5
400
100
AcDbEntity
  8
RACCORDO
100
AcDbPolyline
 62
253
  6
CONTINUOUS
 90
3
 70
0
 10
8.2066070365
 20
-46.5106254917
 10
8.2051894731
 20
-46.5131448122
 10
8.1827571468
 20
-46.5378694636
  0
LINE
  5
401
100
AcDbEntity
  8
RACCORDO
100
AcDbLine
 62
253
  6
CONTINUOUS
 10
26.221662658
 20
-14.7005217578
 11
26.2202950125
 21
-14.7015762379
  0
LINE
  5
402
100
AcDbEntity
  8
DRAFT
100
AcDbLine
 62
7
  6
CONTINUOUS
 10
39.8516206185
 20
-14.9948923456
 11
39.9157095584
 21
-14.9628503161
  0
LWPOLYLINE
  5
403
100
AcDbEntity
  8
RACCORDO
100
AcDbPolyline
 62
253
  6
CONTINUOUS
 90
9
 70
0
 10
43.8972252454
 20
-5.2772225388
 10
43.9525811844
 20
-5.3353498418
 10
44.0047501274
 20
-5.3999376651
 10
44.0525830559
 20
-5.4705454215
 10
44.0952522118
 20
-5.5469760568
 10
44.1319192223
 20
-5.6289384874
 10
44.1616055222
 20
-5.715562271
 10
44.1835715141
 20
-5.8061238706
 10
44.1972009049
 20
-5.9001020961
  0
LINE
  5
404
100
AcDbEntity
  8
RACCORDO
100
AcDbLine
 62
7
  6
CONTINUOUS
 10
43.8535766541
 20
-5.2496155292
 11
43.9
 21
-5.298630474
  0
LWPOLYLINE
  5
405
100
AcDbEntity
  8
RACCORDO
100
AcDbPolyline
 62
7
  6
CONTINUOUS
 90
8
 70
0
 10
43.9580302502
 20
-5.355671039
 10
44.0111372586
 20
-5.4185486138
 10
44.0587268842
 20
-5.4872262535
 10
44.1000619392
 20
-5.5620061896
 10
44.1345550858
 20
-5.6422545117
 10
44.1620691126
 20
-5.7262285535
 10
44.1824378511
 20
-5.8128882917
 10
44.1951808046
 20
-5.9020598229
  0
LINE
  5
406
100
AcDbEntity
  8
RACCORDO
100
AcDbLine
 62
253
  6
CONTINUOUS
 10
36.3256661651
 20
-14.9963364474
 11
36.3256661651
 21
-14.7386775773
  0
LINE
  5
407
100
AcDbEntity
  8
RACCORDO
100
AcDbLine
 62
253
  6
CONTINUOUS
 10
36.3256661651
 20
-5.2585833707
 11
36.3256661651
 21
-5.0009245007
  0
LINE
  5
408
100
AcDbEntity
  8
RACCORDO
100
AcDbLine
 62
253
  6
CONTINUOUS
 10
43.2033564419
 20
-4.995312109
 11
43.1981390797
 21
-5.0005294712
  0
LINE
  5
409
100
AcDbEntity
  8
RACCORDO
100
AcDbLine
 62
253
  6
CONTINUOUS
 10
44.2
 20
-5.9985923971
 11
44.2018701059
 21
-5.9967222911
  0
LWPOLYLINE
  5
40A
100
AcDbEntity
  8
RACCORDO
100
AcDbPolyline
 62
253
  6
CONTINUOUS
 90
34
 70
0
 10
40.9300529192
 20
-11.998630474
 10
40.935848337
 20
-12.1199074665
 10
40.9524222435
 20
-12.2382813949
 10
40.9797767574
 20
-12.3537522592
 10
41.0183826813
 20
-12.4674380224
 10
41.0677776958
 20
-12.5782207215
 10
41.1265654308
 20
-12.682746467
 10
41.195004534
 20
-12.7807085527
 10
41.2728500866
 20
-12.8724136847
 10
41.3579490144
 20
-12.9554280916
 10
41.4504735437
 20
-13.0294936495
 10
41.5502653776
 20
-13.0948684824
 10
41.6546714677
 20
-13.1498931902
 10
41.7638068328
 20
-13.1943061569
 10
41.8775660165
 20
-13.2283689987
 10
41.9929588697
 20
-13.251207164
 10
42.1100356001
 20
-13.2625325667
 10
42.2287484292
 20
-13.262633293
 10
42.3459528339
 20
-13.2514990493
 10
42.4615913705
 20
-13.2288490382
 10
42.5757164385
 20
-13.1949640573
 10
42.6853413945
 20
-13.1506762056
 10
42.7903848284
 20
-13.0956970417
 10
42.8909178413
 20
-13.030315007
 10
42.9841772802
 20
-12.9562275254
 10
43.0699573841
 20
-12.8731857003
 10
43.14845145
 20
-12.7814384283
 10
43.2174918608
 20
-12.6834298227
 10
43.276820367
 20
-12.5788689561
 10
43.3266843958
 20
-12.468046756
 10
43.3656740936
 20
-12.3542801182
 10
43.3933172244
 20
-12.2386746746
 10
43.4100797967
 20
-12.1201247932
 10
43.4159602833
 20
-11.998630474
  0
LWPOLYLINE
  5
40B
100
AcDbEntity
  8
RACCORDO
100
AcDbPolyline
 62
253
  6
CONTINUOUS
 90
34
 70
0
 10
40.9300529192
 20
-7.998630474
 10
40.9358153548
 20
-8.1197960924
 10
40.9523688189
 20
-8.2381046176
 10
40.97971543
 20
-8.3535560495
 10
41.0183233844
 20
-8.4672845017
 10
41.0677329776
 20
-8.5781558606
 10
41.1265556795
 20
-8.6827677859
 10
41.1950450016
 20
-8.7807967629
 10
41.2729611978
 20
-8.8725663063
 10
41.358174527
 20
-8.9556446189
 10
41.4508994174
 20
-9.0297913376
 10
41.5509355077
 20
-9.0952468255
 10
41.65552659
 20
-9.1503003744
 10
41.7647629129
 20
-9.1946527114
 10
41.8785636422
 20
-9.2286031094
 10
41.9939093946
 20
-9.251338679
 10
42.1108066254
 20
-9.2625813407
 10
42.2292510604
 20
-9.2626091741
 10
42.3461999236
 20
-9.251443528
 10
42.4616203549
 20
-9.2288225877
 10
42.5755402351
 20
-9.1950081679
 10
42.6850011782
 20
-9.1508070619
 10
42.7899335802
 20
-9.0959311656
 10
42.8903968428
 20
-9.0306685831
 10
42.9836208352
 20
-8.9566904197
 10
43.0694046306
 20
-8.8737386513
 10
43.1479367509
 20
-8.782071302
 10
43.2170281603
 20
-8.6841335494
 10
43.2764161009
 20
-8.5796696545
 10
43.3263525105
 20
-8.4689353562
 10
43.3654196229
 20
-8.3551430495
 10
43.3931425587
 20
-8.2393635327
 10
43.4099899569
 20
-8.1205260076
 10
43.4159602833
 20
-7.998630474
  0
LWPOLYLINE
  5
40C
100
AcDbEntity
  8
RACCORDO
100
AcDbPolyline
 62
253
  6
CONTINUOUS
 90
34
 70
0
 10
41.2675266812
 20
-11.998630474
 10
41.2715146047
 20
-12.0892006188
 10
41.2839714154
 20
-12.1783494993
 10
41.3046186603
 20
-12.2656482796
 10
41.333175845
 20
-12.351052973
 10
41.3696146775
 20
-12.4337878425
 10
41.4136779434
 20
-12.5122566056
 10
41.4645587985
 20
-12.585828607
 10
41.5218971338
 20
-12.6542972623
 10
41.5854577918
 20
-12.716585178
 10
41.6542986104
 20
-12.7722025594
 10
41.7277200356
 20
-12.8209820297
 10
41.80548808
 20
-12.862187133
 10
41.8866414693
 20
-12.8955379273
 10
41.9702858379
 20
-12.9209908402
 10
42.0560864049
 20
-12.9380307396
 10
42.1430981758
 20
-12.9465881195
 10
42.2303789422
 20
-12.9468072887
 10
42.3174683702
 20
-12.938398599
 10
42.4034636356
 20
-12.9215022131
 10
42.4874789756
 20
-12.8964526456
 10
42.568990211
 20
-12.863197241
 10
42.6472071568
 20
-12.8220532503
 10
42.7213163325
 20
-12.7735330644
 10
42.7907108154
 20
-12.7178784917
 10
42.8547003592
 20
-12.6556186136
 10
42.9126592499
 20
-12.5874184462
 10
42.9640825152
 20
-12.5137656012
 10
43.0084651433
 20
-12.4353438198
 10
43.0453715358
 20
-12.3529422977
 10
43.0744533443
 20
-12.2672506393
 10
43.0954220568
 20
-12.1790542486
 10
43.1080781075
 20
-12.0892292682
 10
43.1123109395
 20
-11.998630474
  0
LWPOLYLINE
  5
40D
100
AcDbEntity
  8
RACCORDO
100
AcDbPolyline
 62
253
  6
CONTINUOUS
 90
34
 70
0
 10
41.2675266812
 20
-7.998630474
 10
41.271512909
 20
-8.0891552281
 10
41.2839594849
 20
-8.1782784952
 10
41.3045950961
 20
-8.265572149
 10
41.3331498703
 20
-8.3510014979
 10
41.3696013666
 20
-8.4337781859
 10
41.4136808826
 20
-8.5122749638
 10
41.4645636302
 20
-8.5858441947
 10
41.5218942721
 20
-8.6543007286
 10
41.5854595216
 20
-8.7165926987
 10
41.6543431107
 20
-8.7722412428
 10
41.7278339718
 20
-8.821054836
 10
41.8056629399
 20
-8.862272216
 10
41.8868516062
 20
-8.8956132927
 10
41.9705115062
 20
-8.9210458134
 10
42.056298351
 20
-8.9380594695
 10
42.143251059
 20
-8.9465918499
 10
42.230439997
 20
-8.9467992093
 10
42.3174418107
 20
-8.9383963285
 10
42.4033655433
 20
-8.9215198246
 10
42.4873186503
 20
-8.8965019771
 10
42.5687869555
 20
-8.8632838718
 10
42.6469842043
 20
-8.8221764418
 10
42.7210925594
 20
-8.7736880909
 10
42.7905009709
 20
-8.7180564092
 10
42.8545198933
 20
-8.6558034115
 10
42.9125172477
 20
-8.5875943373
 10
42.9639752553
 20
-8.5139279507
 10
43.0083848485
 20
-8.4354955803
 10
43.0453148111
 20
-8.3530810016
 10
43.0744181019
 20
-8.2673678809
 10
43.0954048366
 20
-8.1791396855
 10
43.1080731511
 20
-8.0892753238
 10
43.1123109395
 20
-7.998630474
  0
LINE
  5
40E
100
AcDbEntity
  8
RACCORDO
100
AcDbLine
 62
253
  6
CONTINUOUS
 10
36.8395081982
 20
-14.9925531548
 11
36.8395081982
 21
-14.7386775773
  0
LINE
  5
40F
100
AcDbEntity
  8
RACCORDO
100
AcDbLine
 62
253
  6
CONTINUOUS
 10
36.8395081982
 20
-5.2585833707
 11
36.8395081982
 21
-5.0047077932
  0
LINE
  5
410
100
AcDbEntity
  8
DRAFT
100
AcDbLine
 62
7
  6
CONTINUOUS
 10
38.096642938
 20
-14.7820289179
 11
38.096642938
 21
-14.9690260939
  0
LINE
  5
411
100
AcDbEntity
  8
DRAFT
100
AcDbLine
 62
7
  6
CONTINUOUS
 10
38.096642938
 20
-5.2152320301
 11
38.096642938
 21
-5.0282348541
  0
LINE
  5
412
100
AcDbEntity
  8
ASSI
100
AcDbLine
 62
7
  6
CONTINUOUS
 10
38.25
 20
-14.9980078542
 11
38.25
 21
-14.7798072695
  0
LINE
  5
413
100
AcDbEntity
  8
ASSI
100
AcDbLine
 62
7
  6
CONTINUOUS
 10
38.25
 20
-5.2174536785
 11
38.25
 21
-4.9997731724
  0
LINE
  5
414
100
AcDbEntity
  8
DRAFT
100
AcDbLine
 62
7
  6
CONTINUOUS
 10
38.2500025189
 20
-14.9980078489
 11
38.2500025189
 21
-14.7797903445
  0
LINE
  5
415
100
AcDbEntity
  8
DRAFT
100
AcDbLine
 62
7
  6
CONTINUOUS
 10
38.2500025189
 20
-5.2174706036
 11
38.2500025189
 21
-4.9997731774
  0
LINE
  5
416
100
AcDbEntity
  8
DRAFT
100
AcDbLine
 62
7
  6
CONTINUOUS
 10
39.7499974811
 20
-14.9950777118
 11
39.7499974811
 21
-14.7797903445
  0
LINE
  5
417
100
AcDbEntity
  8
ASSI
100
AcDbLine
 62
7
  6
CONTINUOUS
 10
39.75
 20
-14.9950777072
 11
39.75
 21
-14.7797734966
  0
LINE
  5
418
100
AcDbEntity
  8
DRAFT
100
AcDbLine
 62
7
  6
CONTINUOUS
 10
39.7499974811
 20
-5.2174706036
 11
39.7499974811
 21
-5.0025353898
  0
LINE
  5
419
100
AcDbEntity
  8
ASSI
100
AcDbLine
 62
7
  6
CONTINUOUS
 10
39.75
 20
-5.2174874514
 11
39.75
 21
-5.0025353941
  0
LINE
  5
41A
100
AcDbEntity
  8
DRAFT
100
AcDbLine
 62
7
  6
CONTINUOUS
 10
39.9157078043
 20
-5.2147033153
 11
39.9157068998
 21
-5.0344091595
  0
LINE
  5
41B
100
AcDbEntity
  8
DRAFT
100
AcDbLine
 62
7
  6
CONTINUOUS
 10
39.9157095584
 20
-14.7825564447
 11
39.9157095584
 21
-14.9628503161
  0
LINE
  5
41C
100
AcDbEntity
  8
RACCORDO
100
AcDbLine
 62
7
  6
CONTINUOUS
 10
43.90642293
 20
-14.705053404
 11
43.8577780693
 21
-14.7501687352
  0
LINE
  5
41D
100
AcDbEntity
  8
RACCORDO
100
AcDbLine
 62
7
  6
CONTINUOUS
 10
43.8577780693
 20
-14.7501687352
 11
43.8048836919
 21
-14.7930177567
  0
LWPOLYLINE
  5
41E
100
AcDbEntity
  8
RACCORDO
100
AcDbPolyline
 62
7
  6
CONTINUOUS
 90
10
 70
0
 10
43.8048836919
 20
-14.7930177567
 10
43.7477635917
 20
-14.8331311922
 10
43.6851049587
 20
-14.8707889311
 10
43.6183075881
 20
-14.9045128735
 10
43.5520197975
 20
-14.9321131375
 10
43.4884887732
 20
-14.953523966
 10
43.4266274313
 20
-14.9699739211
 10
43.3664125496
 20
-14.9821010341
 10
43.3080202915
 20
-14.9903554115
 10
43.2518574241
 20
-14.9950944727
  0
LWPOLYLINE
  5
41F
100
AcDbEntity
  8
RACCORDO
100
AcDbPolyline
 62
253
  6
CONTINUOUS
 90
10
 70
0
 10
-10.4995523085
 20
-46.7036056181
 10
-10.4642099619
 20
-46.6859822331
 10
-10.3964091591
 20
-46.6689443928
 10
-10.2961499
 20
-46.6524920974
 10
-10.1616302303
 20
-46.6364438358
 10
-9.9946521044
 20
-46.6209811189
 10
-9.8006213853
 20
-46.6066484797
 10
-9.5783571564
 20
-46.5934962369
 10
-9.3290403343
 20
-46.5814740717
 10
-9.0616195319
 20
-46.5709755603
  0
LINE
  5
420
100
AcDbEntity
  8
RACCORDO
100
AcDbLine
 62
253
  6
CONTINUOUS
 10
44.4210474717
 20
-5.8792706512
 11
44.4279893
 21
-5.9965720606
  0
LINE
  5
421
100
AcDbEntity
  8
RACCORDO
100
AcDbLine
 62
7
  6
CONTINUOUS
 10
44.1951808046
 20
-5.9020598229
 11
44.2
 21
-5.9930590299
  0
LWPOLYLINE
  5
422
100
AcDbEntity
  8
RACCORDO
100
AcDbPolyline
 62
253
  6
CONTINUOUS
 90
19
 70
0
 10
43.6575483143
 20
-6.0434622238
 10
43.6543048719
 20
-5.9805369095
 10
43.6442180276
 20
-5.9173097242
 10
43.6271932581
 20
-5.8542027604
 10
43.6031890525
 20
-5.7916751454
 10
43.5721431699
 20
-5.7301770839
 10
43.533966161
 20
-5.6701512027
 10
43.4885136545
 20
-5.6120101176
 10
43.4359970004
 20
-5.5563663985
 10
43.3769519408
 20
-5.5039426264
 10
43.3116734594
 20
-5.4553510363
 10
43.2402763948
 20
-5.4108852541
 10
43.1630804662
 20
-5.3707981215
 10
43.0804824746
 20
-5.3356629575
 10
42.9926366958
 20
-5.3058520007
 10
42.8994492436
 20
-5.2815655633
 10
42.8011072584
 20
-5.2633952627
 10
42.6981632501
 20
-5.2520794835
 10
42.5911114443
 20
-5.2482119844
  0
LWPOLYLINE
  5
423
100
AcDbEntity
  8
RACCORDO
100
AcDbPolyline
 62
253
  6
CONTINUOUS
 90
19
 70
0
 10
43.5613700032
 20
-6.0434622238
 10
43.5587418204
 20
-5.9921251306
 10
43.549884027
 20
-5.9411419982
 10
43.5347970729
 20
-5.8905128269
 10
43.5135223426
 20
-5.8398201808
 10
43.4860203051
 20
-5.7894814957
 10
43.4521705494
 20
-5.7407490784
 10
43.4117056302
 20
-5.6935737402
 10
43.3648970077
 20
-5.6480046697
 10
43.3124329276
 20
-5.60544174
 10
43.2543107154
 20
-5.5660234171
 10
43.190538514
 20
-5.529611235
 10
43.1218206217
 20
-5.4971896686
 10
43.0481802173
 20
-5.4687248711
 10
42.9696006183
 20
-5.4442506893
 10
42.8867259235
 20
-5.4248531388
 10
42.7997730302
 20
-5.4108942249
 10
42.7085321415
 20
-5.4020119423
 10
42.6130072482
 20
-5.398206291
  0
LWPOLYLINE
  5
424
100
AcDbEntity
  8
RACCORDO
100
AcDbPolyline
 62
253
  6
CONTINUOUS
 90
34
 70
0
 10
43.4159602833
 20
-11.998630474
 10
43.4100167613
 20
-11.8769125696
 10
43.3932128058
 20
-11.7582247429
 10
43.3655499447
 20
-11.642566994
 10
43.3265704416
 20
-11.5288728009
 10
43.2767382478
 20
-11.4182086855
 10
43.2174383863
 20
-11.3137742141
 10
43.1484062869
 20
-11.2158087335
 10
43.0699173488
 20
-11.1240728968
 10
42.984165792
 20
-11.0410482294
 10
42.8909651974
 20
-10.9670028785
 10
42.7905144001
 20
-10.9016686969
 10
42.6855824234
 20
-10.8467227684
 10
42.5760979793
 20
-10.8024547042
 10
42.4621425909
 20
-10.7685748931
 10
42.3467092108
 20
-10.7458915852
 10
42.2297839238
 20
-10.734674002
 10
42.1113855613
 20
-10.7346529221
 10
41.9945494449
 20
-10.745828931
 10
41.8792922785
 20
-10.7684691603
 10
41.7655951307
 20
-10.8023064784
 10
41.6564326379
 20
-10.8465400753
 10
41.5518731863
 20
-10.9014614253
 10
41.4518390583
 20
-10.9667790542
 10
41.3590792476
 20
-11.0408177291
 10
41.2737796356
 20
-11.1238322259
 10
41.1957403505
 20
-11.2155677688
 10
41.1271274385
 20
-11.3135847972
 10
41.0681887032
 20
-11.4181845159
 10
41.0186625485
 20
-11.5290657201
 10
40.979949552
 20
-11.6428852355
 10
40.9525134194
 20
-11.7585286705
 10
40.9358819187
 20
-11.8771104167
 10
40.9300529192
 20
-11.998630474
  0
LWPOLYLINE
  5
425
100
AcDbEntity
  8
RACCORDO
100
AcDbPolyline
 62
253
  6
CONTINUOUS
 90
34
 70
0
 10
43.4159602833
 20
-7.998630474
 10
43.4100944357
 20
-7.8772814198
 10
43.3933709115
 20
-7.7588664655
 10
43.3657912308
 20
-7.643385611
 10
43.3269058535
 20
-7.5297494964
 10
43.2771705147
 20
-7.4190474817
 10
43.2179456216
 20
-7.3145476469
 10
43.148961086
 20
-7.2165045425
 10
43.0704978397
 20
-7.1246636181
 10
42.9847420861
 20
-7.0415293019
 10
42.8914977604
 20
-6.9673691788
 10
42.790973399
 20
-6.9019156639
 10
42.6859590216
 20
-6.8468704314
 10
42.576394008
 20
-6.802530441
 10
42.4623492331
 20
-6.7685987329
 10
42.3468066623
 20
-6.7458861014
 10
42.2297373946
 20
-6.7346614667
 10
42.1111753128
 20
-6.7346559086
 10
41.9941897731
 20
-6.7458734608
 10
41.8787949156
 20
-6.7685963002
 10
41.7649743412
 20
-6.80254225
 10
41.6557442659
 20
-6.8468688139
 10
41.5511986272
 20
-6.9018604616
 10
41.4512340046
 20
-6.9672327234
 10
41.3585640809
 20
-7.0412896935
 10
41.2733778979
 20
-7.124267552
 10
41.1954723941
 20
-7.2159301188
 10
41.1269688673
 20
-7.3138729475
 10
41.0680964386
 20
-7.4184047799
 10
41.0186122576
 20
-7.5292168742
 10
40.9799283263
 20
-7.642978558
 10
40.9525121611
 20
-7.7585796072
 10
40.9358877345
 20
-7.8771302458
 10
40.9300529192
 20
-7.998630474
  0
LINE
  5
426
100
AcDbEntity
  8
RACCORDO
100
AcDbLine
 62
253
  6
CONTINUOUS
 10
44.1972009049
 20
-5.9001020961
 11
44.2018701059
 21
-5.9967222911
  0
LWPOLYLINE
  5
427
100
AcDbEntity
  8
RACCORDO
100
AcDbPolyline
 62
253
  6
CONTINUOUS
 90
34
 70
0
 10
43.1123109395
 20
-11.998630474
 10
43.1080867641
 20
-11.9081210582
 10
43.0954532885
 20
-11.8183734592
 10
43.0745182794
 20
-11.7302407548
 10
43.04548125
 20
-11.6446037807
 10
43.0086256735
 20
-11.5622407902
 10
42.9642852832
 20
-11.4838252592
 10
42.9128767106
 20
-11.4101342066
 10
42.8549088184
 20
-11.3418741751
 10
42.7909105121
 20
-11.2795664006
 10
42.7215191558
 20
-11.2238826882
 10
42.6474189049
 20
-11.1753404375
 10
42.5692208069
 20
-11.1341790805
 10
42.4877347102
 20
-11.1009059883
 10
42.403755127
 20
-11.0758376836
 10
42.3178218956
 20
-11.0589200979
 10
42.2308364854
 20
-11.0504802667
 10
42.1436806797
 20
-11.0506473172
 10
42.0567755665
 20
-11.0591307356
 10
41.9710567014
 20
-11.0760792327
 10
41.887471164
 20
-11.1014271634
 10
41.8063339361
 20
-11.1346737599
 10
41.7285317311
 20
-11.1757928504
 10
41.6550451865
 20
-11.224506874
 10
41.5861298328
 20
-11.2800706986
 10
41.5224961048
 20
-11.3423096069
 10
41.4650786509
 20
-11.4107423478
 10
41.4141060305
 20
-11.4843043467
 10
41.3699484788
 20
-11.562792374
 10
41.3334189436
 20
-11.6455755071
 10
41.3047706172
 20
-11.7310701769
 10
41.284041048
 20
-11.8185071987
 10
41.2715289056
 20
-11.9078379452
 10
41.2675266812
 20
-11.998630474
  0
LWPOLYLINE
  5
428
100
AcDbEntity
  8
RACCORDO
100
AcDbPolyline
 62
253
  6
CONTINUOUS
 90
34
 70
0
 10
43.1123109395
 20
-7.998630474
 10
43.1080885736
 20
-7.9081419369
 10
43.095463108
 20
-7.818423214
 10
43.0745442794
 20
-7.7303260729
 10
43.0455363334
 20
-7.6447366366
 10
43.0087223021
 20
-7.5624235812
 10
42.9644247258
 20
-7.4840389814
 10
42.9130510973
 20
-7.4103533101
 10
42.8551109768
 20
-7.3420831431
 10
42.7911333335
 20
-7.2797560679
 10
42.7217504665
 20
-7.2240435794
 10
42.6476483887
 20
-7.1754680334
 10
42.5694522361
 20
-7.1342788977
 10
42.4879836883
 20
-7.1009859818
 10
42.4040272828
 20
-7.0758977708
 10
42.3181049864
 20
-7.0589553607
 10
42.231117933
 20
-7.0504887537
 10
42.1439481612
 20
-7.0506302438
 10
42.0570006931
 20
-7.0590946392
 10
41.971200041
 20
-7.0760424449
 10
41.8875138377
 20
-7.1014132862
 10
41.8062869745
 20
-7.134698621
 10
41.7284066478
 20
-7.175869939
 10
41.6548567468
 20
-7.2246482432
 10
41.5859155996
 20
-7.2802675909
 10
41.5222977145
 20
-7.3425329295
 10
41.4649157839
 20
-7.410966943
 10
41.4139802382
 20
-7.4845193827
 10
41.3698556536
 20
-7.5629918244
 10
41.3333557282
 20
-7.6457486385
 10
41.304733005
 20
-7.7312097678
 10
41.2840241798
 20
-7.8186070098
 10
41.2715252757
 20
-7.9078910018
 10
41.2675266812
 20
-7.998630474
  0
LWPOLYLINE
  5
429
100
AcDbEntity
  8
RACCORDO
100
AcDbPolyline
 62
253
  6
CONTINUOUS
 90
10
 70
0
 10
43.2338798741
 20
-15.2018646673
 10
43.2333717869
 20
-15.1673552886
 10
43.2319666696
 20
-15.1338869104
 10
43.2297066242
 20
-15.1024636237
 10
43.226659401
 20
-15.074028164
 10
43.2229163677
 20
-15.0494336292
 10
43.2185897684
 20
-15.0294178848
 10
43.2138093537
 20
-15.0145814267
 10
43.2087184882
 20
-15.0053693653
 10
43.2034698511
 20
-15.0020580727
  0
LWPOLYLINE
  5
42A
100
AcDbEntity
  8
RACCORDO
100
AcDbPolyline
 62
253
  6
CONTINUOUS
 90
10
 70
0
 10
42.6130082013
 20
-5.398206291
 10
42.6126457799
 20
-5.3723001384
 10
42.6116337927
 20
-5.3471725662
 10
42.6100026539
 20
-5.3235787538
 10
42.6078013853
 20
-5.3022277853
 10
42.6050961436
 20
-5.2837613387
 10
42.6019682316
 20
-5.2687344012
 10
42.5985116548
 20
-5.2575985897
 10
42.5948302967
 20
-5.2506885776
 10
42.5910347961
 20
-5.2482120374
  0
LINE
  5
42B
100
AcDbEntity
  8
SMUSSO
100
AcDbLine
 62
7
  6
CONTINUOUS
 10
41.0192005714
 20
-5.034410632
 11
41.0192005714
 21
-5.2385517174
  0
LINE
  5
42C
100
AcDbEntity
  8
SMUSSO
100
AcDbLine
 62
7
  6
CONTINUOUS
 10
41.0192005714
 20
-14.7587092306
 11
41.0192005714
 21
-14.9628503161
  0
LINE
  5
42D
100
AcDbEntity
  8
RACCORDO
100
AcDbLine
 62
253
  6
CONTINUOUS
 10
43.5613700032
 20
-13.9537987242
 11
43.5613700032
 21
-6.0434622238
  0
LINE
  5
42E
100
AcDbEntity
  8
RACCORDO
100
AcDbLine
 62
253
  6
CONTINUOUS
 10
43.6575483143
 20
-13.953794002
 11
43.6575483143
 21
-6.0434622238
  0
LINE
  5
42F
100
AcDbEntity
  8
RACCORDO
100
AcDbLine
 62
7
  6
CONTINUOUS
 10
44.2
 20
-13.9986685509
 11
44.2
 21
-5.9985923971
  0
LINE
  5
430
100
AcDbEntity
  8
RACCORDO
100
AcDbLine
 62
253
  6
CONTINUOUS
 10
44.2018701059
 20
-5.9967222911
 11
44.2019141138
 21
-14.0005826648
  0
LINE
  5
431
100
AcDbEntity
  8
RACCORDO
100
AcDbLine
 62
253
  6
CONTINUOUS
 10
44.4279893
 20
-5.9965720606
 11
44.4286907743
 21
-14.0004802453
  0
LWPOLYLINE
  5
432
100
AcDbEntity
  8
RACCORDO
100
AcDbPolyline
 62
253
  6
CONTINUOUS
 90
10
 70
0
 10
43.2325525124
 20
-4.7950066467
 10
43.2320773366
 20
-4.8295865768
 10
43.2307372809
 20
-4.8631346887
 10
43.2285727008
 20
-4.8946407509
 10
43.2256487774
 20
-4.9231560261
 10
43.2220535635
 20
-4.9478218423
 10
43.2178953308
 20
-4.9678954487
 10
43.2132992985
 20
-4.9827723785
 10
43.2084038637
 20
-4.9920046523
 10
43.2033564418
 20
-4.9953142685
  0
LWPOLYLINE
  5
433
100
AcDbEntity
  8
RACCORDO
100
AcDbPolyline
 62
253
  6
CONTINUOUS
 90
10
 70
0
 10
42.6130072536
 20
-14.5990546571
 10
42.6126448572
 20
-14.6249601587
 10
42.6116329291
 20
-14.6500871452
 10
42.6100018799
 20
-14.6736804957
 10
42.607800726
 20
-14.6950311786
 10
42.6050956168
 20
-14.7134975592
 10
42.6019678467
 20
-14.7285246824
 10
42.5985114117
 20
-14.7396609505
 10
42.5948301853
 20
-14.7465716942
 10
42.5910347961
 20
-14.7490492307
  0
LWPOLYLINE
  5
434
100
AcDbEntity
  8
RACCORDO
100
AcDbPolyline
 62
253
  6
CONTINUOUS
 90
11
 70
0
 10
44.4286907743
 20
-14.0004802453
 10
44.4276621204
 20
-14.0628805491
 10
44.4225418972
 20
-14.126839546
 10
44.4133296422
 20
-14.1923624378
 10
44.4003785729
 20
-14.2597330014
 10
44.3833348024
 20
-14.3286789409
 10
44.3611373091
 20
-14.3983684124
 10
44.3338436519
 20
-14.4688946051
 10
44.3013962614
 20
-14.5401695865
 10
44.2625617777
 20
-14.6110824624
 10
44.2173630962
 20
-14.6818856269
  0
LWPOLYLINE
  5
435
100
AcDbEntity
  8
RACCORDO
100
AcDbPolyline
 62
253
  6
CONTINUOUS
 90
21
 70
0
 10
44.2019141138
 20
-14.0005826648
 10
44.2005821831
 20
-14.0522260648
 10
44.196396389
 20
-14.1055875163
 10
44.1890711503
 20
-14.1604905529
 10
44.1783357899
 20
-14.2166649052
 10
44.1639062183
 20
-14.2739285893
 10
44.1454534212
 20
-14.3321773239
 10
44.1227248909
 20
-14.3909963075
 10
44.0954260115
 20
-14.4500996686
 10
44.0630790777
 20
-14.5094655033
 10
44.0254119558
 20
-14.5685432779
 10
43.982147782
 20
-14.626798844
 10
43.9326779782
 20
-14.6840325152
 10
43.8766296435
 20
-14.7395745436
 10
43.813947413
 20
-14.7924234817
 10
43.7445079241
 20
-14.8416809462
 10
43.6681662608
 20
-14.8864298329
 10
43.5852655301
 20
-14.9254666826
 10
43.4966703343
 20
-14.9575118394
 10
43.4031042674
 20
-14.9815523028
 10
43.3050866663
 20
-14.9967065848
  0
LWPOLYLINE
  5
436
100
AcDbEntity
  8
RACCORDO
100
AcDbPolyline
 62
7
  6
CONTINUOUS
 90
9
 70
0
 10
44.2
 20
-13.9986685509
 10
44.1957430042
 20
-14.0907346537
 10
44.1832079899
 20
-14.1808959461
 10
44.1628003163
 20
-14.2684463559
 10
44.134914733
 20
-14.3528837637
 10
44.1000901668
 20
-14.4334858321
 10
44.0591270816
 20
-14.5093654287
 10
44.0127890312
 20
-14.5800311807
 10
43.9616670459
 20
-14.6453298101
  0
LWPOLYLINE
  5
437
100
AcDbEntity
  8
RACCORDO
100
AcDbPolyline
 62
253
  6
CONTINUOUS
 90
11
 70
0
 10
44.2173630962
 20
-14.6818856269
 10
44.1657789799
 20
-14.752323858
 10
44.1065109038
 20
-14.8205134782
 10
44.0392156288
 20
-14.8869110907
 10
43.9642415455
 20
-14.9510442405
 10
43.8813294273
 20
-15.0096178498
 10
43.7897691398
 20
-15.0628092814
 10
43.6902813801
 20
-15.1104078038
 10
43.584754559
 20
-15.1485179634
 10
43.4738226501
 20
-15.1758261707
 10
43.3568656147
 20
-15.1936113812
  0
LINE
  5
438
100
AcDbEntity
  8
RACCORDO
100
AcDbLine
 62
7
  6
CONTINUOUS
 10
43.9616670459
 20
-14.6453298101
 11
43.90642293
 21
-14.705053404
  0
LWPOLYLINE
  5
439
100
AcDbEntity
  8
RACCORDO
100
AcDbPolyline
 62
253
  6
CONTINUOUS
 90
5
 70
0
 10
10.7739794786
 20
-46.6185881959
 10
10.7463095662
 20
-46.6377146961
 10
10.6682319881
 20
-46.6737999991
 10
10.5851596122
 20
-46.69598259
 10
10.4995523085
 20
-46.7036056181
  0
LINE
  5
43A
100
AcDbEntity
  8
RACCORDO
100
AcDbLine
 62
253
  6
CONTINUOUS
 10
46.2818011603
 20
45.1930636643
 11
47.1889309684
 21
45.1930442207
  0
LINE
  5
43B
100
AcDbEntity
  8
RACCORDO
100
AcDbLine
 62
253
  6
CONTINUOUS
 10
-46.2818011612
 20
45.1930636647
 11
-47.1889337642
 21
45.1930442207
  0
LWPOLYLINE
  5
43C
100
AcDbEntity
  8
RACCORDO
100
AcDbPolyline
 62
7
  6
CONTINUOUS
 90
8
 70
0
 10
47.1889337643
 20
45.1930442207
 10
47.1868679464
 20
45.2811905919
 10
47.1806405325
 20
45.3720719169
 10
47.1698650654
 20
45.4654727487
 10
47.1541854627
 20
45.5609910209
 10
47.1332026086
 20
45.6584852628
 10
47.1064032784
 20
45.758056622
 10
47.0734005675
 20
45.8591719297
  0
LWPOLYLINE
  5
43D
100
AcDbEntity
  8
RACCORDO
100
AcDbPolyline
 62
253
  6
CONTINUOUS
 90
25
 70
0
 10
46.2818011596
 20
45.1930636643
 10
46.2811440607
 20
45.2374129362
 10
46.278008041
 20
45.2828670524
 10
46.2723931636
 20
45.3294295449
 10
46.2645218134
 20
45.3772088115
 10
46.2541717196
 20
45.4261040427
 10
46.240675979
 20
45.4758040151
 10
46.2241004025
 20
45.5263492466
 10
46.2043793108
 20
45.5777049448
 10
46.1806485956
 20
45.6294443638
 10
46.1529439871
 20
45.6817335314
 10
46.1212298721
 20
45.7344095741
 10
46.0845351406
 20
45.7865474368
 10
46.0426103243
 20
45.8384836075
 10
45.9957049318
 20
45.8898784194
 10
45.94359628
 20
45.9387821507
 10
45.8859415146
 20
45.985246813
 10
45.8230833328
 20
46.0292037062
 10
45.7558272876
 20
46.0685090372
 10
45.6838915409
 20
46.1029852706
 10
45.6075575254
 20
46.1327854022
 10
45.5284756242
 20
46.1562536082
 10
45.4471957733
 20
46.1728304853
 10
45.3631674607
 20
46.1830569477
 10
45.2763903523
 20
46.1869283918
  0
LWPOLYLINE
  5
43E
100
AcDbEntity
  8
RACCORDO
100
AcDbPolyline
 62
253
  6
CONTINUOUS
 90
10
 70
0
 10
45.2763903539
 20
46.1869283918
 10
45.2743344325
 20
46.3548615552
 10
45.2697949565
 20
46.5180238433
 10
45.2629008654
 20
46.6717807918
 10
45.2538479788
 20
46.8117650859
 10
45.2428934352
 20
46.9340006096
 10
45.2303483874
 20
47.0350153831
 10
45.2165691652
 20
47.1119401811
 10
45.2019471537
 20
47.1625900305
 10
45.1868976767
 20
47.1855262722
  0
LINE
  5
43F
100
AcDbEntity
  8
RACCORDO
100
AcDbLine
 62
253
  6
CONTINUOUS
 10
46.2921022789
 20
12.5630475484
 11
46.2845949516
 21
30.1458593177
  0
LINE
  5
440
100
AcDbEntity
  8
RACCORDO
100
AcDbLine
 62
253
  6
CONTINUOUS
 10
46.2949805399
 20
3.9783439743
 11
46.2921022789
 21
12.5630475484
  0
LWPOLYLINE
  5
441
100
AcDbEntity
  8
RACCORDO
100
AcDbPolyline
 62
253
  6
CONTINUOUS
 90
4
 70
0
 10
46.2845949516
 20
30.1458593177
 10
46.2819890822
 20
41.8801821193
 10
46.2818572621
 20
43.531160257
 10
46.2818011596
 20
45.1930636643
  0
LINE
  5
442
100
AcDbEntity
  8
RACCORDO
100
AcDbLine
 62
253
  6
CONTINUOUS
 10
46.2991680927
 20
-21.6916541959
 11
46.2949805399
 21
3.9783439743
  0
LINE
  5
443
100
AcDbEntity
  8
RACCORDO
100
AcDbLine
 62
253
  6
CONTINUOUS
 10
46.3000772228
 20
-45.1896946481
 11
46.2991680927
 21
-21.6916541959
  0
LINE
  5
444
100
AcDbEntity
  8
RACCORDO
100
AcDbLine
 62
253
  6
CONTINUOUS
 10
47.1883265146
 20
-45.1896979191
 11
47.1884831744
 21
2.4974707571
  0
LINE
  5
445
100
AcDbEntity
  8
RACCORDO
100
AcDbLine
 62
253
  6
CONTINUOUS
 10
47.1884831744
 20
2.4974707571
 11
47.1889337643
 21
45.1930442207
  0
LINE
  5
446
100
AcDbEntity
  8
RACCORDO
100
AcDbLine
 62
7
  6
CONTINUOUS
 10
47.5
 20
-45.5013714045
 11
47.5
 21
45.5041104565
  0
LWPOLYLINE
  5
447
100
AcDbEntity
  8
RACCORDO
100
AcDbPolyline
 62
253
  6
CONTINUOUS
 90
10
 70
0
 10
45.3097772046
 20
-46.1820847275
 10
45.3069111093
 20
-46.3500425133
 10
45.3005763607
 20
-46.5132282801
 10
45.2909529471
 20
-46.6670054517
 10
45.2783142971
 20
-46.8070047769
 10
45.2630195109
 20
-46.9292484728
 10
45.2455031578
 20
-47.0302632451
 10
45.2262629277
 20
-47.1071789738
 10
45.2058454913
 20
-47.1578102623
 10
45.184830967
 20
-47.1807185302
  0
LINE
  5
448
100
AcDbEntity
  8
RACCORDO
100
AcDbLine
 62
253
  6
CONTINUOUS
 10
8.1827571468
 20
-46.5378694636
 11
8.1596818556
 21
-46.5490155044
  0
LWPOLYLINE
  5
449
100
AcDbEntity
  8
RACCORDO
100
AcDbPolyline
 62
7
  6
CONTINUOUS
 90
15
 70
0
 10
-45.1868976766
 20
47.1855262721
 10
-45.2747760925
 20
47.1836940652
 10
-45.3654052278
 20
47.1777617189
 10
-45.4585729539
 20
47.1673452512
 10
-45.5538726289
 20
47.1520915069
 10
-45.651175448
 20
47.1316033935
 10
-45.7506118237
 20
47.1053653185
 10
-45.851651714
 20
47.0729884416
 10
-45.9539839759
 20
47.0340157153
 10
-46.0579179012
 20
46.9876401874
 10
-46.1628083926
 20
46.933348974
 10
-46.2679476022
 20
46.870649676
 10
-46.3732877302
 20
46.7985293602
 10
-46.4782216299
 20
46.7161283399
 10
-46.5812012773
 20
46.6232639437
  0
LWPOLYLINE
  5
44A
100
AcDbEntity
  8
RACCORDO
100
AcDbPolyline
 62
253
  6
CONTINUOUS
 90
25
 70
0
 10
-45.276390352
 20
46.1869283925
 10
-45.3207899106
 20
46.1864948068
 10
-45.3663240408
 20
46.1836273705
 10
-45.4129927664
 20
46.1783266123
 10
-45.4608913458
 20
46.1708175984
 10
-45.5099245637
 20
46.1608774703
 10
-45.5598067532
 20
46.1478359748
 10
-45.6105772778
 20
46.1317679139
 10
-45.6621968588
 20
46.1126048919
 10
-45.7142619083
 20
46.0894645623
 10
-45.7669390527
 20
46.0624042258
 10
-45.8200617972
 20
46.0313807165
 10
-45.8727269229
 20
45.9953661384
 10
-45.9252972485
 20
45.954135446
 10
-45.9774101382
 20
45.9079414749
 10
-46.0270742221
 20
45.8564790414
 10
-46.0743727683
 20
45.7994150651
 10
-46.1192226536
 20
45.7371241068
 10
-46.1593828684
 20
45.6703630333
 10
-46.194683085
 20
45.5988585704
 10
-46.2252935232
 20
45.5229290005
 10
-46.2494838436
 20
45.4442085437
 10
-46.2666770668
 20
45.363248749
 10
-46.277449627
 20
45.2795281872
 10
-46.2818011593
 20
45.1930636647
  0
LINE
  5
44B
100
AcDbEntity
  8
RACCORDO
100
AcDbLine
 62
253
  6
CONTINUOUS
 10
45.2763903523
 20
46.1869283918
 11
42.3663366454
 21
46.1738298169
  0
LWPOLYLINE
  5
44C
100
AcDbEntity
  8
RACCORDO
100
AcDbPolyline
 62
253
  6
CONTINUOUS
 90
3
 70
0
 10
45.1868976767
 20
47.1855262722
 10
42.28262514
 20
47.1722606219
 10
40.7582570903
 20
47.1656971829
  0
LWPOLYLINE
  5
44D
100
AcDbEntity
  8
RACCORDO
100
AcDbPolyline
 62
253
  6
CONTINUOUS
 90
25
 70
0
 10
42.3663366454
 20
46.1738298169
 10
39.2645139363
 20
46.161020111
 10
37.641782979
 20
46.1547715261
 10
35.9673634305
 20
46.1486888004
 10
34.2411502366
 20
46.1427798325
 10
32.4632213559
 20
46.1370683997
 10
30.630429307
 20
46.1316290035
 10
28.7427649726
 20
46.1264781189
 10
26.8002225526
 20
46.1216117258
 10
24.7996592408
 20
46.1170722183
 10
22.7410485899
 20
46.1129370132
 10
20.6244029076
 20
46.1091634981
 10
18.4466340331
 20
46.1056384541
 10
16.2068347249
 20
46.1025141763
 10
13.9059045464
 20
46.0998516987
 10
11.5434755213
 20
46.0974436276
 10
9.1089044753
 20
46.0953245561
 10
6.6129097109
 20
46.0937214987
 10
4.0871925629
 20
46.0926494194
 10
1.5260853309
 20
46.0920820148
 10
-1.0646116094
 20
46.092031421
 10
-3.6359829274
 20
46.092498632
 10
-6.1825731587
 20
46.0934906766
 10
-8.7097005609
 20
46.0950386442
 10
-11.1846189802
 20
46.0971181772
  0
LINE
  5
44E
100
AcDbEntity
  8
RACCORDO
100
AcDbLine
 62
253
  6
CONTINUOUS
 10
40.7582570903
 20
47.1656971829
 11
37.5673550338
 21
47.1526681893
  0
LWPOLYLINE
  5
44F
100
AcDbEntity
  8
RACCORDO
100
AcDbPolyline
 62
253
  6
CONTINUOUS
 90
4
 70
0
 10
37.5673550338
 20
47.1526681893
 10
34.1734004642
 20
47.1400030546
 10
32.3989741833
 20
47.1338292879
 10
30.5697861784
 20
47.1278399362
  0
LWPOLYLINE
  5
450
100
AcDbEntity
  8
RACCORDO
100
AcDbPolyline
 62
253
  6
CONTINUOUS
 90
28
 70
0
 10
30.5697861784
 20
47.1278399362
 10
26.7471159817
 20
47.1164033515
 10
24.7504910253
 20
47.1110551969
 10
22.695937621
 20
47.105978597
 10
20.5834752207
 20
47.1011799274
 10
18.4100149077
 20
47.0967718303
 10
16.1746397077
 20
47.0927474934
 10
13.8782665951
 20
47.0891137289
 10
11.5205575764
 20
47.086003616
 10
9.0908212024
 20
47.0834184989
 10
6.5997489223
 20
47.0813570334
 10
4.0790770907
 20
47.0799482661
 10
1.5230644736
 20
47.0792307953
 10
-1.062547695
 20
47.0791660228
 10
-3.6287993585
 20
47.0797672008
 10
-6.1702994375
 20
47.0810744702
 10
-8.6924390113
 20
47.0830476901
 10
-11.1624312616
 20
47.08557969
 10
-13.5716494678
 20
47.0886796768
 10
-15.9287203504
 20
47.0923384434
 10
-18.2267372526
 20
47.0964211987
 10
-20.4641278738
 20
47.1009261363
 10
-22.6424645146
 20
47.1058550626
 10
-24.7595574204
 20
47.1110786046
 10
-26.815382885
 20
47.1165944405
 10
-28.8099646145
 20
47.1224048922
 10
-30.7411839732
 20
47.1283875525
 10
-32.6090421972
 20
47.1345400275
  0
LINE
  5
451
100
AcDbEntity
  8
RACCORDO
100
AcDbLine
 62
7
  6
CONTINUOUS
 10
45.5027409305
 20
47.501369526
 11
-45.5027409305
 21
47.501369526
  0
LWPOLYLINE
  5
452
100
AcDbEntity
  8
RACCORDO
100
AcDbPolyline
 62
253
  6
CONTINUOUS
 90
13
 70
0
 10
-11.1846189802
 20
46.0971181772
 10
-15.9604215716
 20
46.1021887487
 10
-18.2629906642
 20
46.1053685014
 10
-20.5048236864
 20
46.1089706285
 10
-22.6874766317
 20
46.1128392196
 10
-24.8087511681
 20
46.1170917071
 10
-26.8686356071
 20
46.1217769248
 10
-28.8671567769
 20
46.1268080248
 10
-30.802176678
 20
46.1321217246
 10
-32.6737168958
 20
46.1377201776
 10
-34.4817796691
 20
46.1435817614
 10
-36.2242049537
 20
46.1496006614
 10
-37.9010704694
 20
46.1557454188
  0
LINE
  5
453
100
AcDbEntity
  8
RACCORDO
100
AcDbLine
 62
253
  6
CONTINUOUS
 10
-32.6090421972
 20
47.1345400275
 11
-36.1525491876
 21
47.1472463779
  0
LINE
  5
454
100
AcDbEntity
  8
RACCORDO
100
AcDbLine
 62
253
  6
CONTINUOUS
 10
-36.1525491876
 20
47.1472463779
 11
-39.4342057231
 21
47.1601761622
  0
LINE
  5
455
100
AcDbEntity
  8
RACCORDO
100
AcDbLine
 62
253
  6
CONTINUOUS
 10
-37.9010704694
 20
46.1557454188
 11
-41.0557143909
 21
46.168282573
  0
LINE
  5
456
100
AcDbEntity
  8
RACCORDO
100
AcDbLine
 62
253
  6
CONTINUOUS
 10
-39.4342057231
 20
47.1601761622
 11
-42.4464068718
 21
47.1729722862
  0
LWPOLYLINE
  5
457
100
AcDbEntity
  8
RACCORDO
100
AcDbPolyline
 62
253
  6
CONTINUOUS
 90
3
 70
0
 10
-41.0557143909
 20
46.168282573
 10
-43.9373145019
 20
46.1807636209
 10
-45.276390352
 20
46.1869283925
  0
LINE
  5
458
100
AcDbEntity
  8
RACCORDO
100
AcDbLine
 62
253
  6
CONTINUOUS
 10
-42.4464068718
 20
47.1729722862
 11
-45.1868976766
 21
47.1855262721
  0
LWPOLYLINE
  5
459
100
AcDbEntity
  8
RACCORDO
100
AcDbPolyline
 62
7
  6
CONTINUOUS
 90
5
 70
0
 10
47.0750603331
 20
-45.8491988831
 10
47.1234432881
 20
-45.6913529908
 10
47.1588799662
 20
-45.5283143915
 10
47.1807394339
 20
-45.3607201251
 10
47.1883265146
 20
-45.1896979191
  0
LWPOLYLINE
  5
45A
100
AcDbEntity
  8
RACCORDO
100
AcDbPolyline
 62
7
  6
CONTINUOUS
 90
6
 70
0
 10
46.6800461106
 20
-46.5159786528
 10
46.7747797811
 20
-46.4020010259
 10
46.8633309149
 20
-46.2774133216
 10
46.9436776185
 20
-46.1434455193
 10
47.014641983
 20
-46.0005263604
 10
47.0750603331
 20
-45.8491988831
  0
LWPOLYLINE
  5
45B
100
AcDbEntity
  8
RACCORDO
100
AcDbPolyline
 62
7
  6
CONTINUOUS
 90
11
 70
0
 10
46.6183037446
 20
46.5864331063
 10
46.5144085497
 20
46.6849609484
 10
46.3999049458
 20
46.778684303
 10
46.2749258746
 20
46.8661664399
 10
46.1406764717
 20
46.9454640075
 10
45.9975891882
 20
47.0154169322
 10
45.8462053318
 20
47.0748824545
 10
45.688361467
 20
47.1224273321
 10
45.5253551875
 20
47.1571535768
 10
45.3578284634
 20
47.1784181672
 10
45.1868976767
 20
47.1855262722
  0
LINE
  5
45C
100
AcDbEntity
  8
RACCORDO
100
AcDbLine
 62
7
  6
CONTINUOUS
 10
46.7118960881
 20
46.4841901169
 11
46.6183037446
 21
46.5864331063
  0
LWPOLYLINE
  5
45D
100
AcDbEntity
  8
RACCORDO
100
AcDbPolyline
 62
7
  6
CONTINUOUS
 90
7
 70
0
 10
47.0734005675
 20
45.8591719297
 10
47.0337398879
 20
45.9615146802
 10
46.9866249617
 20
46.0653631596
 10
46.9315429718
 20
46.1700811639
 10
46.8680158934
 20
46.274946695
 10
46.7950782267
 20
46.3798544913
 10
46.7118960881
 20
46.4841901169
  0
LWPOLYLINE
  5
45E
100
AcDbEntity
  8
RACCORDO
100
AcDbPolyline
 62
253
  6
CONTINUOUS
 90
25
 70
0
 10
-94.5540591313
 20
-46.1820847275
 10
-94.5485667567
 20
-46.1817367054
 10
-94.5429642172
 20
-46.178954412
 10
-94.5372537236
 20
-46.1737380537
 10
-94.5314259256
 20
-46.1663119435
 10
-94.5254948665
 20
-46.1564527032
 10
-94.5194972971
 20
-46.143489499
 10
-94.5134301259
 20
-46.1274929581
 10
-94.5073000314
 20
-46.1083952888
 10
-94.5011569189
 20
-46.0853192454
 10
-94.4949821894
 20
-46.0583136381
 10
-94.4887964581
 20
-46.0273360024
 10
-94.482705463
 20
-45.9913745008
 10
-94.4766669007
 20
-45.9501936527
 10
-94.4707212623
 20
-45.9040414898
 10
-94.4650920332
 20
-45.8526341021
 10
-94.4597647794
 20
-45.7956269017
 10
-94.454743743
 20
-45.733383306
 10
-94.4502722604
 20
-45.6666816717
 10
-94.4463610956
 20
-45.5952396032
 10
-94.4429843006
 20
-45.5193600228
 10
-94.4403251871
 20
-45.4406947045
 10
-94.4384402198
 20
-45.3597973611
 10
-94.4372614448
 20
-45.2761280959
 10
-94.4367859574
 20
-45.1896946481
  0
LINE
  5
45F
100
AcDbEntity
  8
RACCORDO
100
AcDbLine
 62
253
  6
CONTINUOUS
 10
-110.5510512843
 20
-45.3314314196
 11
-109.4537843045
 21
-45.3874857785
  0
LINE
  5
460
100
AcDbEntity
  8
RACCORDO
100
AcDbLine
 62
253
  6
CONTINUOUS
 10
-109.4537843045
 20
-45.3874857785
 11
-107.4985721888
 21
-45.4884528682
  0
LINE
  5
461
100
AcDbEntity
  8
RACCORDO
100
AcDbLine
 62
7
  6
CONTINUOUS
 10
-113.5932250641
 20
-46.1336658294
 11
-87.5481481056
 21
-47.498630474
  0
LINE
  5
462
100
AcDbEntity
  8
RACCORDO
100
AcDbLine
 62
253
  6
CONTINUOUS
 10
-107.4985721888
 20
-45.4884528682
 11
-106.7760449025
 21
-45.5263257338
  0
LWPOLYLINE
  5
463
100
AcDbEntity
  8
RACCORDO
100
AcDbPolyline
 62
253
  6
CONTINUOUS
 90
3
 70
0
 10
-106.7760449025
 20
-45.5263257338
 10
-105.2541407701
 20
-45.6062922785
 10
-102.8655293429
 20
-45.7337057963
  0
LINE
  5
464
100
AcDbEntity
  8
RACCORDO
100
AcDbLine
 62
253
  6
CONTINUOUS
 10
-97.6792309289
 20
-46.0141839368
 11
-94.5540591313
 21
-46.1820847275
  0
LINE
  5
465
100
AcDbEntity
  8
RACCORDO
100
AcDbLine
 62
253
  6
CONTINUOUS
 10
-102.8655293429
 20
-45.7337057963
 11
-100.4979793136
 21
-45.8613642474
  0
LINE
  5
466
100
AcDbEntity
  8
RACCORDO
100
AcDbLine
 62
253
  6
CONTINUOUS
 10
-114.5405040637
 20
-45.1285305955
 11
-110.5510512843
 21
-45.3314314196
  0
LINE
  5
467
100
AcDbEntity
  8
RACCORDO
100
AcDbLine
 62
253
  6
CONTINUOUS
 10
-98.3278070757
 20
-45.9788786036
 11
-97.6792309289
 21
-46.0141839368
  0
LWPOLYLINE
  5
468
100
AcDbEntity
  8
RACCORDO
100
AcDbPolyline
 62
253
  6
CONTINUOUS
 90
3
 70
0
 10
-100.4979793136
 20
-45.8613642474
 10
-99.7443913875
 20
-45.9024791636
 10
-98.3278070757
 20
-45.9788786036
  0
LINE
  5
469
100
AcDbEntity
  8
RACCORDO
100
AcDbLine
 62
253
  6
CONTINUOUS
 10
-94.4367859652
 20
-45.1896946481
 11
-93.4952324822
 21
-45.1896979191
  0
LINE
  5
46A
100
AcDbEntity
  8
RACCORDO
100
AcDbLine
 62
253
  6
CONTINUOUS
 10
-93.4952324822
 20
-45.1896979191
 11
-87.5481481056
 21
-45.5013714045
  0
LINE
  5
46B
100
AcDbEntity
  8
ASSI
100
AcDbLine
 62
7
  6
CONTINUOUS
 10
-87.5481481056
 20
-26.648630474
 11
-83.7481481056
 21
-26.5823012273
  0
LINE
  5
46C
100
AcDbEntity
  8
DRAFT
100
AcDbLine
 62
7
  6
CONTINUOUS
 10
-87.5481481056
 20
-26.648630474
 11
-83.7481481056
 21
-26.5823012273
  0
LINE
  5
46D
100
AcDbEntity
  8
ASSI
100
AcDbLine
 62
7
  6
CONTINUOUS
 10
-83.7481481056
 20
-25.4323012273
 11
-87.5481481056
 21
-25.498630474
  0
LINE
  5
46E
100
AcDbEntity
  8
DRAFT
100
AcDbLine
 62
7
  6
CONTINUOUS
 10
-83.7481481056
 20
-25.4323012273
 11
-87.5481481056
 21
-25.498630474
  0
LINE
  5
46F
100
AcDbEntity
  8
ASSI
100
AcDbLine
 62
7
  6
CONTINUOUS
 10
-87.5481481056
 20
-18.5715491752
 11
-79.5394219024
 21
-18.4317563393
  0
LINE
  5
470
100
AcDbEntity
  8
RACCORDO
100
AcDbLine
 62
7
  6
CONTINUOUS
 10
-87.5481481056
 20
-18.5715491752
 11
-79.5394219024
 21
-18.4317563393
  0
LINE
  5
471
100
AcDbEntity
  8
ASSI
100
AcDbLine
 62
253
  6
CONTINUOUS
 10
-87.5481481056
 20
-17.57170148
 11
-79.5394219024
 21
-17.4319086442
  0
LINE
  5
472
100
AcDbEntity
  8
RACCORDO
100
AcDbLine
 62
253
  6
CONTINUOUS
 10
-87.5481481056
 20
-17.57170148
 11
-79.5394219024
 21
-17.4319086442
  0
LINE
  5
473
100
AcDbEntity
  8
ASSI
100
AcDbLine
 62
253
  6
CONTINUOUS
 10
-79.0481481056
 20
-17.4319086442
 11
-79.5394219024
 21
-17.4319086429
  0
LINE
  5
474
100
AcDbEntity
  8
RACCORDO
100
AcDbLine
 62
253
  6
CONTINUOUS
 10
-79.0481481056
 20
-17.4319086442
 11
-79.5394219024
 21
-17.4319086429
  0
LINE
  5
475
100
AcDbEntity
  8
ASSI
100
AcDbLine
 62
7
  6
CONTINUOUS
 10
-83.7481481056
 20
-20.5649597207
 11
-87.5481481056
 21
-20.498630474
  0
LINE
  5
476
100
AcDbEntity
  8
DRAFT
100
AcDbLine
 62
7
  6
CONTINUOUS
 10
-83.7481481056
 20
-20.5649597207
 11
-87.5481481056
 21
-20.498630474
  0
LINE
  5
477
100
AcDbEntity
  8
ASSI
100
AcDbLine
 62
7
  6
CONTINUOUS
 10
-87.5481481056
 20
-19.348630474
 11
-83.7481481056
 21
-19.4149597207
  0
LINE
  5
478
100
AcDbEntity
  8
DRAFT
100
AcDbLine
 62
7
  6
CONTINUOUS
 10
-87.5481481056
 20
-19.348630474
 11
-83.7481481056
 21
-19.4149597207
  0
LWPOLYLINE
  5
479
100
AcDbEntity
  8
RACCORDO
100
AcDbPolyline
 62
7
  6
CONTINUOUS
 90
4
 70
0
 10
-100.3731483742
 20
-14.6340218521
 10
-100.3220684349
 20
-14.6630923966
 10
-100.2695046695
 20
-14.6838425146
 10
-100.216563799
 20
-14.6962173194
  0
LINE
  5
47A
100
AcDbEntity
  8
ASSI
100
AcDbLine
 62
7
  6
CONTINUOUS
 10
-87.5481481056
 20
-14.748630474
 11
-83.7481481056
 21
-14.6823012273
  0
LINE
  5
47B
100
AcDbEntity
  8
DRAFT
100
AcDbLine
 62
7
  6
CONTINUOUS
 10
-87.5481481056
 20
-14.748630474
 11
-83.7481481056
 21
-14.6823012273
  0
LINE
  5
47C
100
AcDbEntity
  8
ASSI
100
AcDbLine
 62
7
  6
CONTINUOUS
 10
-83.7481481056
 20
-14.0003823891
 11
-87.5481481056
 21
-14.0375040794
  0
LINE
  5
47D
100
AcDbEntity
  8
DRAFT
100
AcDbLine
 62
7
  6
CONTINUOUS
 10
-83.7481481056
 20
-14.0003823891
 11
-87.5481481056
 21
-14.0375040794
  0
LINE
  5
47E
100
AcDbEntity
  8
RACCORDO
100
AcDbLine
 62
7
  6
CONTINUOUS
 10
-94.7469843618
 20
-15.0029837521
 11
-100.7469869478
 21
-15.0553449814
  0
LINE
  5
47F
100
AcDbEntity
  8
RACCORDO
100
AcDbLine
 62
253
  6
CONTINUOUS
 10
-94.837317815
 20
-15.2018645949
 11
-100.1479841207
 21
-15.2434581778
  0
LINE
  5
480
100
AcDbEntity
  8
RACCORDO
100
AcDbLine
 62
253
  6
CONTINUOUS
 10
-100.1479841207
 20
-15.2434581778
 11
-100.9127656521
 21
-15.2489184809
  0
LINE
  5
481
100
AcDbEntity
  8
ASSI
100
AcDbLine
 62
7
  6
CONTINUOUS
 10
-79.0481481056
 20
-15.748630474
 11
-78.7481481056
 21
-15.748630474
  0
LINE
  5
482
100
AcDbEntity
  8
ASSI
100
AcDbLine
 62
7
  6
CONTINUOUS
 10
-79.0481481056
 20
-15.240300474
 11
-78.7481481056
 21
-15.240300474
  0
LINE
  5
483
100
AcDbEntity
  8
RACCORDO
100
AcDbLine
 62
253
  6
CONTINUOUS
 10
-101.5444927636
 20
-13.998630474
 11
-100.6481481056
 21
-13.998630474
  0
LINE
  5
484
100
AcDbEntity
  8
RACCORDO
100
AcDbLine
 62
253
  6
CONTINUOUS
 10
-100.6629038295
 20
-13.8973372207
 11
-100.6833452938
 21
-13.8973378672
  0
LINE
  5
485
100
AcDbEntity
  8
RACCORDO
100
AcDbLine
 62
253
  6
CONTINUOUS
 10
-94.6639368736
 20
-14.0004802453
 11
-94.665738466
 21
-14.0004794356
  0
LINE
  5
486
100
AcDbEntity
  8
RACCORDO
100
AcDbLine
 62
7
  6
CONTINUOUS
 10
-100.1645852775
 20
-14.7005216862
 11
-94.703521861
 21
-14.7478294908
  0
LINE
  5
487
100
AcDbEntity
  8
RACCORDO
100
AcDbLine
 62
253
  6
CONTINUOUS
 10
-100.2939927057
 20
-14.5505274693
 11
-94.7085408244
 21
-14.5990546571
  0
LINE
  5
488
100
AcDbEntity
  8
RACCORDO
100
AcDbLine
 62
253
  6
CONTINUOUS
 10
-100.1654831927
 20
-14.7005102355
 11
-100.1645770614
 21
-14.7005217569
  0
LWPOLYLINE
  5
489
100
AcDbEntity
  8
RACCORDO
100
AcDbPolyline
 62
253
  6
CONTINUOUS
 90
13
 70
0
 10
-100.9127656521
 20
-15.2489184809
 10
-100.9518571157
 20
-15.2483781794
 10
-100.9922060329
 20
-15.2440498984
 10
-101.0338187976
 20
-15.2359338654
 10
-101.0767936056
 20
-15.2244777216
 10
-101.1210455048
 20
-15.20923622
 10
-101.1663027259
 20
-15.1888724932
 10
-101.2126929619
 20
-15.1635454354
 10
-101.2600929041
 20
-15.1331069901
 10
-101.3078432347
 20
-15.095766201
 10
-101.3562054138
 20
-15.0516681257
 10
-101.4049058128
 20
-15.0006962395
 10
-101.4524610936
 20
-14.9406807388
  0
LWPOLYLINE
  5
48A
100
AcDbEntity
  8
RACCORDO
100
AcDbPolyline
 62
253
  6
CONTINUOUS
 90
16
 70
0
 10
-100.7469901236
 20
-15.0553450091
 10
-100.786262673
 20
-15.0544868758
 10
-100.8268141334
 20
-15.0510423822
 10
-100.8686401358
 20
-15.0447152223
 10
-100.9118295309
 20
-15.0352421363
 10
-100.956293468
 20
-15.0223084238
 10
-101.0017653943
 20
-15.0054586008
 10
-101.0483801493
 20
-14.984346557
 10
-101.0960028935
 20
-14.9585921231
 10
-101.1439625551
 20
-14.9274973839
 10
-101.1925427381
 20
-14.8906453929
 10
-101.2414598386
 20
-14.8476002588
 10
-101.289191973
 20
-14.7974112799
 10
-101.3362290334
 20
-14.7395352091
 10
-101.3820811277
 20
-14.6736909829
 10
-101.4237566966
 20
-14.5992336016
  0
LINE
  5
48B
100
AcDbEntity
  8
RACCORDO
100
AcDbLine
 62
253
  6
CONTINUOUS
 10
-101.7068088395
 20
-13.9907351492
 11
-101.5444927636
 21
-13.998630474
  0
LINE
  5
48C
100
AcDbEntity
  8
RACCORDO
100
AcDbLine
 62
7
  6
CONTINUOUS
 10
-100.216563799
 20
-14.6962173194
 11
-100.1654830027
 21
-14.7004976327
  0
LINE
  5
48D
100
AcDbEntity
  8
RACCORDO
100
AcDbLine
 62
253
  6
CONTINUOUS
 10
-100.3275149789
 20
-14.5473443004
 11
-100.2939927057
 21
-14.5505274693
  0
LWPOLYLINE
  5
48E
100
AcDbEntity
  8
RACCORDO
100
AcDbPolyline
 62
253
  6
CONTINUOUS
 90
10
 70
0
 10
-101.4524610936
 20
-14.9406807388
 10
-101.4993287646
 20
-14.8713731353
 10
-101.5450110348
 20
-14.793085089
 10
-101.5865584483
 20
-14.7045072748
 10
-101.6242356893
 20
-14.6039992912
 10
-101.6577078214
 20
-14.4933151233
 10
-101.6831037293
 20
-14.3762323688
 10
-101.6991178393
 20
-14.2540310942
 10
-101.7070192557
 20
-14.1255162329
 10
-101.7068087823
 20
-13.9907351519
  0
LWPOLYLINE
  5
48F
100
AcDbEntity
  8
RACCORDO
100
AcDbPolyline
 62
253
  6
CONTINUOUS
 90
7
 70
0
 10
-101.4237566966
 20
-14.5992336016
 10
-101.4615780789
 20
-14.5151896543
 10
-101.4952229358
 20
-14.4223329207
 10
-101.5207326903
 20
-14.323170694
 10
-101.536787817
 20
-14.2192245026
 10
-101.5447078414
 20
-14.110688165
 10
-101.5444927636
 20
-13.998630474
  0
LWPOLYLINE
  5
490
100
AcDbEntity
  8
RACCORDO
100
AcDbPolyline
 62
7
  6
CONTINUOUS
 90
12
 70
0
 10
-100.6816672738
 20
-13.9622944906
 10
-100.6757796943
 20
-14.0355550037
 10
-100.6652880935
 20
-14.1096602844
 10
-100.6500563907
 20
-14.1834229146
 10
-100.6301903673
 20
-14.2550591067
 10
-100.6057207859
 20
-14.3238675275
 10
-100.5767333425
 20
-14.3891485018
 10
-100.5436466228
 20
-14.4495926397
 10
-100.506526328
 20
-14.5048661525
 10
-100.4654820194
 20
-14.5545096292
 10
-100.4210700547
 20
-14.5976108401
 10
-100.3731483742
 20
-14.6340218521
  0
LWPOLYLINE
  5
491
100
AcDbEntity
  8
RACCORDO
100
AcDbPolyline
 62
253
  6
CONTINUOUS
 90
10
 70
0
 10
-100.2939929769
 20
-14.5505274693
 10
-100.2920802875
 20
-14.5764494754
 10
-100.2862914697
 20
-14.6015914526
 10
-100.276800717
 20
-14.6251968441
 10
-100.2638936192
 20
-14.6465553312
 10
-100.2479585687
 20
-14.6650242076
 10
-100.2294750731
 20
-14.6800477193
 10
-100.2089993263
 20
-14.6911737883
 10
-100.1871474716
 20
-14.6980676157
 10
-100.1654831927
 20
-14.7005102355
  0
LWPOLYLINE
  5
492
100
AcDbEntity
  8
RACCORDO
100
AcDbPolyline
 62
253
  6
CONTINUOUS
 90
17
 70
0
 10
-100.6616679955
 20
-13.9509101061
 10
-100.6578891617
 20
-14.0037734683
 10
-100.6515693958
 20
-14.0559273074
 10
-100.642697164
 20
-14.107728369
 10
-100.6312923375
 20
-14.1588199074
 10
-100.6174060711
 20
-14.2081316857
 10
-100.6009956533
 20
-14.2556985445
 10
-100.582120269
 20
-14.3014856433
 10
-100.5609850314
 20
-14.3443182235
 10
-100.537491538
 20
-14.3842285587
 10
-100.5117609012
 20
-14.4211843753
 10
-100.4843254978
 20
-14.4539140947
 10
-100.4550534341
 20
-14.4823076995
 10
-100.4240993221
 20
-14.506475207
 10
-100.3924169016
 20
-14.5254750904
 10
-100.3603250447
 20
-14.5389935075
 10
-100.3275149789
 20
-14.5473443004
  0
LINE
  5
493
100
AcDbEntity
  8
ASSI
100
AcDbLine
 62
7
  6
CONTINUOUS
 10
-79.0481481056
 20
-10.2224478766
 11
-68.0394219024
 21
-10.030289846
  0
LINE
  5
494
100
AcDbEntity
  8
RACCORDO
100
AcDbLine
 62
7
  6
CONTINUOUS
 10
-79.0481481056
 20
-10.2224478766
 11
-68.0394219024
 21
-10.030289846
  0
LINE
  5
495
100
AcDbEntity
  8
ASSI
100
AcDbLine
 62
7
  6
CONTINUOUS
 10
-83.7481481056
 20
-12.6292088767
 11
-87.5481481056
 21
-12.6580477034
  0
LINE
  5
496
100
AcDbEntity
  8
DRAFT
100
AcDbLine
 62
7
  6
CONTINUOUS
 10
-83.7481481056
 20
-12.6292088767
 11
-87.5481481056
 21
-12.6580477034
  0
LINE
  5
497
100
AcDbEntity
  8
ASSI
100
AcDbLine
 62
7
  6
CONTINUOUS
 10
-79.0481481056
 20
-11.756960474
 11
-78.7481481056
 21
-11.756960474
  0
LINE
  5
498
100
AcDbEntity
  8
ASSI
100
AcDbLine
 62
7
  6
CONTINUOUS
 10
-79.0481481056
 20
-11.248630474
 11
-78.7481481056
 21
-11.248630474
  0
LINE
  5
499
100
AcDbEntity
  8
RACCORDO
100
AcDbLine
 62
7
  6
CONTINUOUS
 10
-94.898535833
 20
-10.998630474
 11
-94.8674541902
 21
-10.998630474
  0
LWPOLYLINE
  5
49A
100
AcDbEntity
  8
RACCORDO
100
AcDbPolyline
 62
253
  6
CONTINUOUS
 90
20
 70
0
 10
-94.9165110875
 20
-12.9295852485
 10
-94.9087458291
 20
-12.9380307396
 10
-94.8948551721
 20
-12.9465881195
 10
-94.8810027211
 20
-12.9468072887
 10
-94.8675007358
 20
-12.938398599
 10
-94.8544170363
 20
-12.9215022131
 10
-94.841746336
 20
-12.8964526456
 10
-94.8297110691
 20
-12.863197241
 10
-94.8183684151
 20
-12.8220532503
 10
-94.8077252827
 20
-12.7735330644
 10
-94.7979366373
 20
-12.7178784917
 10
-94.7890533422
 20
-12.6556186136
 10
-94.7810787841
 20
-12.5874184462
 10
-94.7740974285
 20
-12.5137656012
 10
-94.7681401732
 20
-12.4353438198
 10
-94.7632137507
 20
-12.3529422977
 10
-94.7593633971
 20
-12.2672506393
 10
-94.7566107098
 20
-12.1790542486
 10
-94.7549531944
 20
-12.0892292682
 10
-94.7543955556
 20
-11.998630474
  0
LINE
  5
49B
100
AcDbEntity
  8
RACCORDO
100
AcDbLine
 62
7
  6
CONTINUOUS
 10
-94.9166685826
 20
-12.9293867131
 11
-94.9165110875
 21
-12.9295852485
  0
LWPOLYLINE
  5
49C
100
AcDbEntity
  8
ASSI
100
AcDbPolyline
 62
7
  6
CONTINUOUS
 90
31
 70
0
 10
-94.9167301676
 20
-12.9293088761
 10
-94.9211035835
 20
-12.9237540782
 10
-94.9491063354
 20
-12.8868543227
 10
-94.9737936916
 20
-12.8522409397
 10
-94.995508235
 20
-12.8199784966
 10
-95.0143735449
 20
-12.7904001997
 10
-95.0311846332
 20
-12.7626865629
 10
-95.0461439307
 20
-12.736829893
 10
-95.0593164308
 20
-12.7130281862
 10
-95.0711745768
 20
-12.6906874159
 10
-95.0818373559
 20
-12.6697853254
 10
-95.0913426123
 20
-12.6504405577
 10
-95.0999776523
 20
-12.6322315394
 10
-95.1078138473
 20
-12.61513717
 10
-95.1148746895
 20
-12.5992301357
 10
-95.1213403586
 20
-12.5842104294
 10
-95.1272549053
 20
-12.5700613118
 10
-95.1326335468
 20
-12.5568285507
 10
-95.1375929327
 20
-12.5442960236
 10
-95.1421610797
 20
-12.5324511634
 10
-95.1463481603
 20
-12.5213236161
 10
-95.1502320145
 20
-12.5107552247
 10
-95.1538309818
 20
-12.5007367066
 10
-95.1571520368
 20
-12.4912877943
 10
-95.1602485878
 20
-12.4822908226
 10
-95.1631329628
 20
-12.4737389389
 10
-95.1658100473
 20
-12.465645613
 10
-95.1683174225
 20
-12.4579218809
 10
-95.170663577
 20
-12.450562651
 10
-95.1728519979
 20
-12.4435773335
 10
-95.1749097368
 20
-12.4368976302
  0
LWPOLYLINE
  5
49D
100
AcDbEntity
  8
RACCORDO
100
AcDbPolyline
 62
7
  6
CONTINUOUS
 90
5
 70
0
 10
-94.9165360237
 20
-12.9295480711
 10
-94.9036292969
 20
-12.9469351998
 10
-94.8930069964
 20
-12.963258669
 10
-94.8858297867
 20
-12.9759007685
 10
-94.883698882
 20
-12.9800674251
  0
LWPOLYLINE
  5
49E
100
AcDbEntity
  8
DRAFT
100
AcDbPolyline
 62
7
  6
CONTINUOUS
 90
6
 70
0
 10
-98.39585754
 20
-14.7158784694
 10
-98.3578623116
 20
-14.7860438737
 10
-98.2796267043
 20
-14.8882335179
 10
-98.1936761867
 20
-14.9610956572
 10
-98.0988034448
 20
-15.0087947227
 10
-97.99522451
 20
-15.0313307144
  0
LWPOLYLINE
  5
49F
100
AcDbEntity
  8
RACCORDO
100
AcDbPolyline
 62
253
  6
CONTINUOUS
 90
10
 70
0
 10
-94.5540592058
 20
-46.1820847275
 10
-94.5401023573
 20
-46.3500425133
 10
-94.4983518487
 20
-46.5132282801
 10
-94.429993932
 20
-46.6670054517
 10
-94.336970852
 20
-46.8070047769
 10
-94.2219256615
 20
-46.9292484728
 10
-94.0881271247
 20
-47.0302632451
 10
-93.9393768424
 20
-47.1071789738
 10
-93.7799012372
 20
-47.1578102623
 10
-93.614231469
 20
-47.1807185302
  0
LWPOLYLINE
  5
4A0
100
AcDbEntity
  8
RACCORDO
100
AcDbPolyline
 62
7
  6
CONTINUOUS
 90
10
 70
0
 10
-100.4038923892
 20
-4.7352784733
 10
-100.4028094267
 20
-4.7720465037
 10
-100.3959146427
 20
-4.8079379307
 10
-100.3834451199
 20
-4.8417367958
 10
-100.3658264377
 20
-4.8722992271
 10
-100.3436583836
 20
-4.8985921496
 10
-100.317694378
 20
-4.9197280676
 10
-100.2888152802
 20
-4.9349948069
 10
-100.2579994521
 20
-4.9438794016
 10
-100.2262899068
 20
-4.9460852097
  0
LINE
  5
4A1
100
AcDbEntity
  8
RACCORDO
100
AcDbLine
 62
7
  6
CONTINUOUS
 10
-100.6833143115
 20
-13.8973378665
 11
-100.6816672738
 21
-13.9622944906
  0
LINE
  5
4A2
100
AcDbEntity
  8
RACCORDO
100
AcDbLine
 62
253
  6
CONTINUOUS
 10
-100.6629038295
 20
-13.8973372207
 11
-100.6616679955
 21
-13.9509101061
  0
LINE
  5
4A3
100
AcDbEntity
  8
RACCORDO
100
AcDbLine
 62
7
  6
CONTINUOUS
 10
-100.6833454195
 20
-6.0999237273
 11
-100.6833454195
 21
-13.8973378658
  0
LINE
  5
4A4
100
AcDbEntity
  8
RACCORDO
100
AcDbLine
 62
253
  6
CONTINUOUS
 10
-100.6629038295
 20
-6.0999237273
 11
-100.6629038295
 21
-13.8973372207
  0
LINE
  5
4A5
100
AcDbEntity
  8
RACCORDO
100
AcDbLine
 62
253
  6
CONTINUOUS
 10
-100.6617303667
 20
-6.0468004597
 11
-100.6629038295
 21
-6.0999237273
  0
LINE
  5
4A6
100
AcDbEntity
  8
RACCORDO
100
AcDbLine
 62
7
  6
CONTINUOUS
 10
-100.6813713583
 20
-6.0295731173
 11
-100.683321391
 21
-6.0999237348
  0
LWPOLYLINE
  5
4A7
100
AcDbEntity
  8
IMPORT_IGES
100
AcDbPolyline
 62
7
  6
CONTINUOUS
 90
16
 70
0
 10
-96.5534834989
 20
46.0919193578
 10
-96.7728666072
 20
41.1932805476
 10
-97.5372169113
 20
35.3711743875
 10
-98.8460570602
 20
29.9464332743
 10
-100.7521512365
 20
24.476882782
 10
-103.1180353897
 20
18.8087556186
 10
-105.5047478548
 20
13.1065099354
 10
-107.6525187179
 20
7.292098985
 10
-109.5489643063
 20
1.009491832
 10
-111.1193883756
 20
-5.6867535112
 10
-112.3288255081
 20
-12.5520051521
 10
-113.2228761509
 20
-19.5144300641
 10
-113.8685085093
 20
-26.7641387356
 10
-114.2915018987
 20
-34.3337937642
 10
-114.5054292296
 20
-41.9620296606
 10
-114.5405044667
 20
-45.1285427576
  0
LWPOLYLINE
  5
4A8
100
AcDbEntity
  8
RACCORDO
100
AcDbPolyline
 62
253
  6
CONTINUOUS
 90
11
 70
0
 10
-101.7068087823
 20
-13.9907351519
 10
-101.677858943
 20
-13.3953936326
 10
-101.6472733387
 20
-12.7839608584
 10
-101.6149959133
 20
-12.1571307106
 10
-101.5809421175
 20
-11.515150188
 10
-101.5450825973
 20
-10.8592022138
 10
-101.5074479041
 20
-10.1913466528
 10
-101.4679830852
 20
-9.5121979523
 10
-101.4266391466
 20
-8.8224930692
 10
-101.3834652435
 20
-8.1243658732
 10
-101.3384501432
 20
-7.4189076423
  0
LWPOLYLINE
  5
4A9
100
AcDbEntity
  8
RACCORDO
100
AcDbPolyline
 62
253
  6
CONTINUOUS
 90
12
 70
0
 10
-101.5444927636
 20
-13.998630474
 10
-101.5153555594
 20
-13.4023557949
 10
-101.4844541025
 20
-12.7914077349
 10
-101.4517883929
 20
-12.1657862939
 10
-101.417384376
 20
-11.5243436782
 10
-101.3812161064
 20
-10.8682276815
 10
-101.3432057483
 20
-10.2008816854
 10
-101.3033429544
 20
-9.5223139286
 10
-101.261638072
 20
-8.8325161723
 10
-101.2180443072
 20
-8.1349070822
 10
-101.172546062
 20
-7.4306262134
 10
-101.1251589345
 20
-6.7185340106
  0
LINE
  5
4AA
100
AcDbEntity
  8
RACCORDO
100
AcDbLine
 62
253
  6
CONTINUOUS
 10
-101.3384501432
 20
-7.4189076423
 11
-101.2915170663
 21
-6.7062338646
  0
LINE
  5
4AB
100
AcDbEntity
  8
RACCORDO
100
AcDbLine
 62
253
  6
CONTINUOUS
 10
-101.2915170663
 20
-6.7062338646
 11
-101.2426233933
 21
-5.9869471287
  0
LINE
  5
4AC
100
AcDbEntity
  8
RACCORDO
100
AcDbLine
 62
253
  6
CONTINUOUS
 10
-101.1251589345
 20
-6.7185340106
 11
-101.0758829245
 21
-5.998630474
  0
LWPOLYLINE
  5
4AD
100
AcDbEntity
  8
RACCORDO
100
AcDbPolyline
 62
253
  6
CONTINUOUS
 90
10
 70
0
 10
-100.2939937833
 20
-5.4467334786
 10
-100.2920783208
 20
-5.4208132066
 10
-100.2862874481
 20
-5.395673391
 10
-100.2767953941
 20
-5.3720704004
 10
-100.263887743
 20
-5.3507143661
 10
-100.2479528424
 20
-5.332247816
 10
-100.2294701191
 20
-5.317226344
 10
-100.2089956548
 20
-5.3061018933
 10
-100.1871454555
 20
-5.2992091597
 10
-100.1655108046
 20
-5.2967675022
  0
LWPOLYLINE
  5
4AE
100
AcDbEntity
  8
RACCORDO
100
AcDbPolyline
 62
253
  6
CONTINUOUS
 90
12
 70
0
 10
-101.2426233933
 20
-5.9869471287
 10
-101.2378246029
 20
-5.9266768354
 10
-101.2306644053
 20
-5.8650486915
 10
-101.2211487775
 20
-5.802068243
 10
-101.2094017935
 20
-5.73743467
 10
-101.1953141716
 20
-5.6714609269
 10
-101.1785451088
 20
-5.6050694144
 10
-101.159069947
 20
-5.5382192504
 10
-101.1369389555
 20
-5.4709549226
 10
-101.1119286769
 20
-5.4043183432
 10
-101.0840523845
 20
-5.3382886257
 10
-101.0533332977
 20
-5.2728806397
  0
LWPOLYLINE
  5
4AF
100
AcDbEntity
  8
RACCORDO
100
AcDbPolyline
 62
253
  6
CONTINUOUS
 90
10
 70
0
 10
-94.518447945
 20
46.1869283918
 10
-94.5043681155
 20
46.3548615552
 10
-94.4623981655
 20
46.5180238433
 10
-94.3937302102
 20
46.6717807918
 10
-94.3003146952
 20
46.8117650859
 10
-94.1848049964
 20
46.9340006096
 10
-94.0504820531
 20
47.0350153831
 10
-93.9011611762
 20
47.1119401811
 10
-93.7410836784
 20
47.1625900305
 10
-93.5747964033
 20
47.1855262722
  0
LWPOLYLINE
  5
4B0
100
AcDbEntity
  8
RACCORDO
100
AcDbPolyline
 62
253
  6
CONTINUOUS
 90
10
 70
0
 10
-100.9127661218
 20
-15.2489184629
 10
-100.9095239425
 20
-15.2151620112
 10
-100.9015369567
 20
-15.1825660075
 10
-100.8890358739
 20
-15.1520719054
 10
-100.8723817887
 20
-15.1245604444
 10
-100.8520557267
 20
-15.100826204
 10
-100.8286447474
 20
-15.0815546593
 10
-100.8028250197
 20
-15.0673023953
 10
-100.7753422939
 20
-15.0584810284
 10
-100.7469903371
 20
-15.0553453137
  0
LWPOLYLINE
  5
4B1
100
AcDbEntity
  8
RACCORDO
100
AcDbPolyline
 62
253
  6
CONTINUOUS
 90
14
 70
0
 10
-101.0758829245
 20
-5.998630474
 10
-101.0710318499
 20
-5.9482336506
 10
-101.0638228543
 20
-5.8963709745
 10
-101.0542559377
 20
-5.8431877307
 10
-101.0424383413
 20
-5.7888088408
 10
-101.028262824
 20
-5.7334734661
 10
-101.0114076622
 20
-5.6775310524
 10
-100.9918298576
 20
-5.6212591877
 10
-100.9695724087
 20
-5.5648830904
 10
-100.944442587
 20
-5.508704905
 10
-100.9164300433
 20
-5.4531139443
 10
-100.8855451269
 20
-5.3983621857
 10
-100.8516261575
 20
-5.3446060884
 10
-100.8146111057
 20
-5.2922539169
  0
LINE
  5
4B2
100
AcDbEntity
  8
ASSI
100
AcDbLine
 62
7
  6
CONTINUOUS
 10
-80.2636502804
 20
13.833755075
 11
-80.0028355008
 21
13.9587076945
  0
LINE
  5
4B3
100
AcDbEntity
  8
RACCORDO
100
AcDbLine
 62
7
  6
CONTINUOUS
 10
-80.2636502804
 20
13.833755075
 11
-80.0028355008
 21
13.9587076945
  0
LINE
  5
4B4
100
AcDbEntity
  8
ASSI
100
AcDbLine
 62
7
  6
CONTINUOUS
 10
-80.0028355008
 20
13.9587076945
 11
-79.8849851242
 21
14.0144915168
  0
LINE
  5
4B5
100
AcDbEntity
  8
RACCORDO
100
AcDbLine
 62
7
  6
CONTINUOUS
 10
-80.0028355008
 20
13.9587076945
 11
-79.8849851242
 21
14.0144915168
  0
LWPOLYLINE
  5
4B6
100
AcDbEntity
  8
ASSI
100
AcDbPolyline
 62
7
  6
CONTINUOUS
 90
21
 70
0
 10
-79.8849851242
 20
14.0144915168
 10
-79.7747343392
 20
14.0659557914
 10
-79.7224443684
 20
14.0900249023
 10
-79.6720417291
 20
14.1129567559
 10
-79.6235119817
 20
14.1347070257
 10
-79.576768631
 20
14.1553570435
 10
-79.5317834594
 20
14.1748687965
 10
-79.4885835105
 20
14.1931871846
 10
-79.4471661409
 20
14.2103459547
 10
-79.407510088
 20
14.2263055524
 10
-79.3696356809
 20
14.2410143292
 10
-79.3336032614
 20
14.254470503
 10
-79.2994265341
 20
14.2666227113
 10
-79.2670907016
 20
14.2774385897
 10
-79.2366139409
 20
14.2869224561
 10
-79.2079787471
 20
14.295023859
 10
-79.1812017922
 20
14.3016934121
 10
-79.1563531695
 20
14.3069067674
 10
-79.1334560954
 20
14.3106106117
 10
-79.1124864766
 20
14.3127424747
 10
-79.0934435794
 20
14.3132528887
  0
LWPOLYLINE
  5
4B7
100
AcDbEntity
  8
RACCORDO
100
AcDbPolyline
 62
7
  6
CONTINUOUS
 90
21
 70
0
 10
-79.8849851242
 20
14.0144915168
 10
-79.7747343392
 20
14.0659557914
 10
-79.7224443684
 20
14.0900249023
 10
-79.6720417291
 20
14.1129567559
 10
-79.6235119817
 20
14.1347070257
 10
-79.576768631
 20
14.1553570435
 10
-79.5317834594
 20
14.1748687965
 10
-79.4885835105
 20
14.1931871846
 10
-79.4471661409
 20
14.2103459547
 10
-79.407510088
 20
14.2263055524
 10
-79.3696356809
 20
14.2410143292
 10
-79.3336032614
 20
14.254470503
 10
-79.2994265341
 20
14.2666227113
 10
-79.2670907016
 20
14.2774385897
 10
-79.2366139409
 20
14.2869224561
 10
-79.2079787471
 20
14.295023859
 10
-79.1812017922
 20
14.3016934121
 10
-79.1563531695
 20
14.3069067674
 10
-79.1334560954
 20
14.3106106117
 10
-79.1124864766
 20
14.3127424747
 10
-79.0934435794
 20
14.3132528887
  0
LINE
  5
4B8
100
AcDbEntity
  8
0
100
AcDbLine
 62
7
  6
CONTINUOUS
 10
-78.0678715898
 20
10.9859216638
 11
-78.6383430423
 21
10.8161981796
  0
LINE
  5
4B9
100
AcDbEntity
  8
ASSI
100
AcDbLine
 62
253
  6
CONTINUOUS
 10
-79.5394219024
 20
-9.2311753975
 11
-68.0394219024
 21
-9.0304421508
  0
LINE
  5
4BA
100
AcDbEntity
  8
RACCORDO
100
AcDbLine
 62
253
  6
CONTINUOUS
 10
-79.5394219024
 20
-9.2311753975
 11
-68.0394219024
 21
-9.0304421508
  0
LINE
  5
4BB
100
AcDbEntity
  8
ASSI
100
AcDbLine
 62
253
  6
CONTINUOUS
 10
-67.5481481056
 20
-9.0304421508
 11
-68.0394219024
 21
-9.0304421496
  0
LINE
  5
4BC
100
AcDbEntity
  8
RACCORDO
100
AcDbLine
 62
253
  6
CONTINUOUS
 10
-67.5481481056
 20
-9.0304421508
 11
-68.0394219024
 21
-9.0304421496
  0
LINE
  5
4BD
100
AcDbEntity
  8
RACCORDO
100
AcDbLine
 62
7
  6
CONTINUOUS
 10
-94.8674541909
 20
-8.998630474
 11
-94.8985452037
 21
-8.998630474
  0
LINE
  5
4BE
100
AcDbEntity
  8
ASSI
100
AcDbLine
 62
7
  6
CONTINUOUS
 10
-83.7481481056
 20
-7.3680520714
 11
-87.5481481056
 21
-7.3392132446
  0
LINE
  5
4BF
100
AcDbEntity
  8
DRAFT
100
AcDbLine
 62
7
  6
CONTINUOUS
 10
-83.7481481056
 20
-7.3680520714
 11
-87.5481481056
 21
-7.3392132446
  0
LINE
  5
4C0
100
AcDbEntity
  8
RACCORDO
100
AcDbLine
 62
253
  6
CONTINUOUS
 10
-101.2426224692
 20
-5.9869471929
 11
-101.0758829393
 21
-5.9986304742
  0
LWPOLYLINE
  5
4C1
100
AcDbEntity
  8
RACCORDO
100
AcDbPolyline
 62
253
  6
CONTINUOUS
 90
20
 70
0
 10
-94.9165139025
 20
-8.9295816989
 10
-94.908713803
 20
-8.9380594695
 10
-94.8948340743
 20
-8.9465918499
 10
-94.8809974781
 20
-8.9467992093
 10
-94.8675099446
 20
-8.9383963285
 10
-94.8544373521
 20
-8.9215198246
 10
-94.8417760527
 20
-8.8965019771
 10
-94.8297471521
 20
-8.8632838718
 10
-94.8184066958
 20
-8.8221764418
 10
-94.807762458
 20
-8.7736880909
 10
-94.7979711075
 20
-8.7180564092
 10
-94.7890834173
 20
-8.6558034115
 10
-94.7811028244
 20
-8.5875943373
 10
-94.774115815
 20
-8.5139279507
 10
-94.7681539143
 20
-8.4354955803
 10
-94.7632232793
 20
-8.3530810016
 10
-94.7593694021
 20
-8.2673678809
 10
-94.756613981
 20
-8.1791396855
 10
-94.7549544598
 20
-8.0892753238
 10
-94.7543955556
 20
-7.998630474
  0
LINE
  5
4C2
100
AcDbEntity
  8
RACCORDO
100
AcDbLine
 62
7
  6
CONTINUOUS
 10
-94.916670805
 20
-8.9293839044
 11
-94.9165139025
 21
-8.9295816989
  0
LWPOLYLINE
  5
4C3
100
AcDbEntity
  8
RACCORDO
100
AcDbPolyline
 62
7
  6
CONTINUOUS
 90
5
 70
0
 10
-94.9165376011
 20
-8.9295356223
 10
-94.903708102
 20
-8.9468131853
 10
-94.8930738553
 20
-8.9631440626
 10
-94.8858689062
 20
-8.9758280487
 10
-94.8837258369
 20
-8.9800167111
  0
LINE
  5
4C4
100
AcDbEntity
  8
ASSI
100
AcDbLine
 62
7
  6
CONTINUOUS
 10
-95.1749097368
 20
-12.4368976302
 11
-95.1786536185
 21
-12.4244503226
  0
LINE
  5
4C5
100
AcDbEntity
  8
ASSI
100
AcDbLine
 62
7
  6
CONTINUOUS
 10
-95.1786536185
 20
-12.4244503226
 11
-95.1819726954
 21
-12.413074606
  0
LINE
  5
4C6
100
AcDbEntity
  8
ASSI
100
AcDbLine
 62
7
  6
CONTINUOUS
 10
-95.1819726954
 20
-12.413074606
 11
-95.1849201605
 21
-12.4026812967
  0
LINE
  5
4C7
100
AcDbEntity
  8
ASSI
100
AcDbLine
 62
7
  6
CONTINUOUS
 10
-95.1849201605
 20
-12.4026812967
 11
-95.1875532723
 21
-12.3931463516
  0
LINE
  5
4C8
100
AcDbEntity
  8
ASSI
100
AcDbLine
 62
7
  6
CONTINUOUS
 10
-95.1875532723
 20
-12.3931463516
 11
-95.1899156012
 21
-12.3843761444
  0
LWPOLYLINE
  5
4C9
100
AcDbEntity
  8
RACCORDO
100
AcDbPolyline
 62
253
  6
CONTINUOUS
 90
15
 70
0
 10
-94.8954851254
 20
-13.0294936495
 10
-94.8782746892
 20
-13.0948684824
 10
-94.8605030795
 20
-13.1498931902
 10
-94.842182644
 20
-13.1943061569
 10
-94.8233644091
 20
-13.2283689987
 10
-94.8045659048
 20
-13.251207164
 10
-94.7857911888
 20
-13.2625325667
 10
-94.767060325
 20
-13.262633293
 10
-94.7488695995
 20
-13.2514990493
 10
-94.7312157761
 20
-13.2288490382
 10
-94.714078871
 20
-13.1949640573
 10
-94.6978848152
 20
-13.1506762056
 10
-94.6826128634
 20
-13.0956970417
 10
-94.6682212828
 20
-13.030315007
 10
-94.6634169341
 20
-13.0032556195
  0
LINE
  5
4CA
100
AcDbEntity
  8
ASSI
100
AcDbLine
 62
7
  6
CONTINUOUS
 10
-95.1899156012
 20
-12.3843761444
 11
-95.1920373126
 21
-12.3763130914
  0
LWPOLYLINE
  5
4CB
100
AcDbEntity
  8
ASSI
100
AcDbPolyline
 62
7
  6
CONTINUOUS
 90
15
 70
0
 10
-95.1920373126
 20
-12.3763130914
 10
-95.1934907861
 20
-12.3706816926
 10
-95.1948395798
 20
-12.3653733717
 10
-95.1972109403
 20
-12.3558370768
 10
-95.2001320954
 20
-12.3437053517
 10
-95.2030354844
 20
-12.3311837654
 10
-95.2058529476
 20
-12.3185393775
 10
-95.2086379327
 20
-12.30550377
 10
-95.2110955879
 20
-12.2935002025
 10
-95.2131378389
 20
-12.2831243745
 10
-95.2149096701
 20
-12.2737933822
 10
-95.2164931588
 20
-12.2651680236
 10
-95.217908616
 20
-12.2572063163
 10
-95.2191592946
 20
-12.2499550345
 10
-95.2202904996
 20
-12.2432058479
  0
LINE
  5
4CC
100
AcDbEntity
  8
RACCORDO
100
AcDbLine
 62
253
  6
CONTINUOUS
 10
-94.9116382511
 20
-12.9554280916
 11
-94.8954851254
 21
-13.0294936495
  0
LINE
  5
4CD
100
AcDbEntity
  8
ASSI
100
AcDbLine
 62
7
  6
CONTINUOUS
 10
-95.2327468286
 20
-8.1496041368
 11
-95.2316252473
 21
-8.1603074559
  0
LINE
  5
4CE
100
AcDbEntity
  8
ASSI
100
AcDbLine
 62
7
  6
CONTINUOUS
 10
-95.2316114234
 20
-12.1604349133
 11
-95.2328826695
 21
-12.1482552548
  0
LINE
  5
4CF
100
AcDbEntity
  8
ASSI
100
AcDbLine
 62
7
  6
CONTINUOUS
 10
-95.2336408438
 20
-8.1404889297
 11
-95.2327468286
 21
-8.1496041368
  0
LINE
  5
4D0
100
AcDbEntity
  8
ASSI
100
AcDbLine
 62
7
  6
CONTINUOUS
 10
-95.2328826695
 20
-12.1482552548
 11
-95.2338529302
 21
-12.1382383856
  0
LINE
  5
4D1
100
AcDbEntity
  8
ASSI
100
AcDbLine
 62
7
  6
CONTINUOUS
 10
-95.2345196797
 20
-8.1309118336
 11
-95.2336408438
 21
-8.1404889297
  0
LWPOLYLINE
  5
4D2
100
AcDbEntity
  8
RACCORDO
100
AcDbPolyline
 62
253
  6
CONTINUOUS
 90
5
 70
0
 10
-94.6897751572
 20
-5.2807826058
 10
-94.682208738
 20
-5.3652133131
 10
-94.6755234181
 20
-5.4570087672
 10
-94.6696907932
 20
-5.5557407388
 10
-94.6650908636
 20
-5.6592532261
  0
LINE
  5
4D3
100
AcDbEntity
  8
ASSI
100
AcDbLine
 62
7
  6
CONTINUOUS
 10
-95.2338529302
 20
-12.1382383856
 11
-95.234604651
 21
-12.1299485241
  0
LWPOLYLINE
  5
4D4
100
AcDbEntity
  8
RACCORDO
100
AcDbPolyline
 62
253
  6
CONTINUOUS
 90
4
 70
0
 10
-94.7085408609
 20
-14.5990546571
 10
-94.7063160441
 20
-14.6249601587
 10
-94.6996989008
 20
-14.6500871452
 10
-94.6943528444
 20
-14.6617545144
  0
LWPOLYLINE
  5
4D5
100
AcDbEntity
  8
RACCORDO
100
AcDbPolyline
 62
253
  6
CONTINUOUS
 90
7
 70
0
 10
-94.8245064107
 20
-4.7950066467
 10
-94.821587797
 20
-4.8295865768
 10
-94.8127990231
 20
-4.8631346887
 10
-94.7984047543
 20
-4.8946407509
 10
-94.7788384542
 20
-4.9231560261
 10
-94.7546893283
 20
-4.9478218423
 10
-94.7501647093
 20
-4.9510650573
  0
LINE
  5
4D6
100
AcDbEntity
  8
ASSI
100
AcDbLine
 62
7
  6
CONTINUOUS
 10
-95.234604651
 20
-12.1299485241
 11
-95.2352065636
 21
-12.1229094471
  0
LINE
  5
4D7
100
AcDbEntity
  8
ASSI
100
AcDbLine
 62
7
  6
CONTINUOUS
 10
-95.2353174377
 20
-8.1215685564
 11
-95.2345196797
 21
-8.1309118336
  0
LINE
  5
4D8
100
AcDbEntity
  8
ASSI
100
AcDbLine
 62
7
  6
CONTINUOUS
 10
-95.2352065636
 20
-12.1229094471
 11
-95.2358304703
 21
-12.1151619683
  0
LWPOLYLINE
  5
4D9
100
AcDbEntity
  8
ASSI
100
AcDbPolyline
 62
7
  6
CONTINUOUS
 90
3
 70
0
 10
-95.2358304703
 20
-12.1151619683
 10
-95.2365443323
 20
-12.1056069463
 10
-95.2370525219
 20
-12.0982448352
  0
LWPOLYLINE
  5
4DA
100
AcDbEntity
  8
ASSI
100
AcDbPolyline
 62
7
  6
CONTINUOUS
 90
4
 70
0
 10
-95.2371205068
 20
-8.0972180586
 10
-95.2365981815
 20
-8.1048511244
 10
-95.2360948872
 20
-8.1117174578
 10
-95.2353174377
 20
-8.1215685564
  0
LINE
  5
4DB
100
AcDbEntity
  8
ASSI
100
AcDbLine
 62
7
  6
CONTINUOUS
 10
-95.2370525219
 20
-12.0982448352
 11
-95.2377924394
 21
-12.0864235327
  0
LINE
  5
4DC
100
AcDbEntity
  8
ASSI
100
AcDbLine
 62
7
  6
CONTINUOUS
 10
-95.2378666695
 20
-8.0851481436
 11
-95.2371205068
 21
-8.0972180586
  0
LINE
  5
4DD
100
AcDbEntity
  8
ASSI
100
AcDbLine
 62
7
  6
CONTINUOUS
 10
-95.2377924394
 20
-12.0864235327
 11
-95.2382645511
 21
-12.0779620023
  0
LINE
  5
4DE
100
AcDbEntity
  8
ASSI
100
AcDbLine
 62
7
  6
CONTINUOUS
 10
-95.2383279269
 20
-8.076756181
 11
-95.2378666695
 21
-8.0851481436
  0
LINE
  5
4DF
100
AcDbEntity
  8
RACCORDO
100
AcDbLine
 62
7
  6
CONTINUOUS
 10
-94.6740814216
 20
-5.5133099068
 11
-94.6675296181
 21
-5.6447989245
  0
LINE
  5
4E0
100
AcDbEntity
  8
ASSI
100
AcDbLine
 62
7
  6
CONTINUOUS
 10
-95.2382645511
 20
-12.0779620023
 11
-95.2387394786
 21
-12.0684192792
  0
LINE
  5
4E1
100
AcDbEntity
  8
ASSI
100
AcDbLine
 62
7
  6
CONTINUOUS
 10
-95.2387868581
 20
-8.0673944935
 11
-95.2383279269
 21
-8.076756181
  0
LINE
  5
4E2
100
AcDbEntity
  8
ASSI
100
AcDbLine
 62
7
  6
CONTINUOUS
 10
-95.2387394786
 20
-12.0684192792
 11
-95.2390506873
 21
-12.0613820895
  0
LINE
  5
4E3
100
AcDbEntity
  8
ASSI
100
AcDbLine
 62
7
  6
CONTINUOUS
 10
-95.2390846802
 20
-8.0605649131
 11
-95.2387868581
 21
-8.0673944935
  0
LINE
  5
4E4
100
AcDbEntity
  8
ASSI
100
AcDbLine
 62
7
  6
CONTINUOUS
 10
-95.2390506873
 20
-12.0613820895
 11
-95.2393365732
 21
-12.0541352191
  0
LINE
  5
4E5
100
AcDbEntity
  8
ASSI
100
AcDbLine
 62
7
  6
CONTINUOUS
 10
-95.2393990754
 20
-8.0524207574
 11
-95.2390846802
 21
-8.0605649131
  0
LINE
  5
4E6
100
AcDbEntity
  8
ASSI
100
AcDbLine
 62
7
  6
CONTINUOUS
 10
-95.2393365732
 20
-12.0541352191
 11
-95.2395737741
 21
-12.0473090631
  0
LWPOLYLINE
  5
4E7
100
AcDbEntity
  8
RACCORDO
100
AcDbPolyline
 62
7
  6
CONTINUOUS
 90
4
 70
0
 10
-94.6675296181
 20
-5.6447989245
 10
-94.6630564906
 20
-5.7853568696
 10
-94.6608695779
 20
-5.9331047753
 10
-94.6606912186
 20
-5.9965709387
  0
LINE
  5
4E8
100
AcDbEntity
  8
ASSI
100
AcDbLine
 62
7
  6
CONTINUOUS
 10
-95.2397084225
 20
-8.0429684324
 11
-95.2393990754
 21
-8.0524207574
  0
LINE
  5
4E9
100
AcDbEntity
  8
RACCORDO
100
AcDbLine
 62
253
  6
CONTINUOUS
 10
-94.6650908636
 20
-5.6592532261
 11
-94.6618423018
 21
-5.7668421336
  0
LINE
  5
4EA
100
AcDbEntity
  8
ASSI
100
AcDbLine
 62
7
  6
CONTINUOUS
 10
-95.2395737741
 20
-12.0473090631
 11
-95.2398104563
 21
-12.039372056
  0
LINE
  5
4EB
100
AcDbEntity
  8
ASSI
100
AcDbLine
 62
7
  6
CONTINUOUS
 10
-95.239906634
 20
-8.0356634406
 11
-95.2397084225
 21
-8.0429684324
  0
LINE
  5
4EC
100
AcDbEntity
  8
ASSI
100
AcDbLine
 62
7
  6
CONTINUOUS
 10
-95.2398104563
 20
-12.039372056
 11
-95.2399977541
 21
-12.0317688989
  0
LINE
  5
4ED
100
AcDbEntity
  8
ASSI
100
AcDbLine
 62
7
  6
CONTINUOUS
 10
-95.2400688964
 20
-8.0283756513
 11
-95.239906634
 21
-8.0356634406
  0
LINE
  5
4EE
100
AcDbEntity
  8
ASSI
100
AcDbLine
 62
7
  6
CONTINUOUS
 10
-95.2399977541
 20
-12.0317688989
 11
-95.2401427467
 21
-12.0243843604
  0
LINE
  5
4EF
100
AcDbEntity
  8
RACCORDO
100
AcDbLine
 62
253
  6
CONTINUOUS
 10
-94.6618423018
 20
-5.7668421336
 11
-94.6598072606
 21
-5.8792706512
  0
LINE
  5
4F0
100
AcDbEntity
  8
ASSI
100
AcDbLine
 62
7
  6
CONTINUOUS
 10
-95.2401943164
 20
-8.0211820556
 11
-95.2400688964
 21
-8.0283756513
  0
LINE
  5
4F1
100
AcDbEntity
  8
ASSI
100
AcDbLine
 62
7
  6
CONTINUOUS
 10
-95.2401427467
 20
-12.0243843604
 11
-95.2402441665
 21
-12.0175787537
  0
LINE
  5
4F2
100
AcDbEntity
  8
ASSI
100
AcDbLine
 62
7
  6
CONTINUOUS
 10
-95.240297521
 20
-8.01273663
 11
-95.2401943164
 21
-8.0211820556
  0
LINE
  5
4F3
100
AcDbEntity
  8
ASSI
100
AcDbLine
 62
7
  6
CONTINUOUS
 10
-95.2402441665
 20
-12.0175787537
 11
-95.2403263173
 21
-12.009241706
  0
LINE
  5
4F4
100
AcDbEntity
  8
RACCORDO
100
AcDbLine
 62
253
  6
CONTINUOUS
 10
-94.6598072606
 20
-5.8792706512
 11
-94.6589817892
 21
-5.9965720606
  0
LWPOLYLINE
  5
4F5
100
AcDbEntity
  8
RACCORDO
100
AcDbPolyline
 62
253
  6
CONTINUOUS
 90
4
 70
0
 10
-94.4271743895
 20
45.2374129362
 10
-94.4274616559
 20
45.2828670524
 10
-94.4279766083
 20
45.3294295449
 10
-94.4296483146
 20
45.4261040427
  0
LWPOLYLINE
  5
4F6
100
AcDbEntity
  8
RACCORDO
100
AcDbPolyline
 62
253
  6
CONTINUOUS
 90
20
 70
0
 10
-94.7543955556
 20
-11.998630474
 10
-94.7549517769
 20
-11.9081210582
 10
-94.7566068519
 20
-11.8183734592
 10
-94.7593560936
 20
-11.7302407548
 10
-94.7632010928
 20
-11.6446037807
 10
-94.7681212144
 20
-11.5622407902
 10
-94.774074024
 20
-11.4838252592
 10
-94.7810545103
 20
-11.4101342066
 10
-94.7890300314
 20
-11.3418741751
 10
-94.7979137145
 20
-11.2795664006
 10
-94.8077019009
 20
-11.2238826882
 10
-94.8183440221
 20
-11.1753404375
 10
-94.8296836388
 20
-11.1341790805
 10
-94.8417143655
 20
-11.1009059883
 10
-94.8543786573
 20
-11.0758376836
 10
-94.8674514448
 20
-11.0589200979
 10
-94.8809351361
 20
-11.0504802667
 10
-94.8947653987
 20
-11.0506473172
 10
-94.9086366779
 20
-11.0591307356
 10
-94.9165159611
 20
-11.0676818385
  0
LWPOLYLINE
  5
4F7
100
AcDbEntity
  8
RACCORDO
100
AcDbPolyline
 62
253
  6
CONTINUOUS
 90
20
 70
0
 10
-94.7543955556
 20
-7.998630474
 10
-94.7549516754
 20
-7.9081419369
 10
-94.7566051585
 20
-7.818423214
 10
-94.759351323
 20
-7.7303260729
 10
-94.7631911404
 20
-7.6447366366
 10
-94.7681046343
 20
-7.5624235812
 10
-94.7740512945
 20
-7.4840389814
 10
-94.781026574
 20
-7.4103533101
 10
-94.7889974032
 20
-7.3420831431
 10
-94.7978774653
 20
-7.2797560679
 10
-94.8076637975
 20
-7.2240435794
 10
-94.8183051016
 20
-7.1754680334
 10
-94.8296433727
 20
-7.1342788977
 10
-94.8416708566
 20
-7.1009859818
 10
-94.8543314636
 20
-7.0758977708
 10
-94.8674027358
 20
-7.0589553607
 10
-94.8808869186
 20
-7.0504887537
 10
-94.8947196736
 20
-7.0506302438
 10
-94.908598033
 20
-7.0590946392
 10
-94.9165127176
 20
-7.0676777509
  0
LINE
  5
4F8
100
AcDbEntity
  8
ASSI
100
AcDbLine
 62
7
  6
CONTINUOUS
 10
-95.240349265
 20
-8.0052442436
 11
-95.240297521
 21
-8.01273663
  0
LINE
  5
4F9
100
AcDbEntity
  8
ASSI
100
AcDbLine
 62
7
  6
CONTINUOUS
 10
-95.2403263173
 20
-12.009241706
 11
-95.2403602281
 21
-12.0019200017
  0
LINE
  5
4FA
100
AcDbEntity
  8
ASSI
100
AcDbLine
 62
7
  6
CONTINUOUS
 10
-95.2403638506
 20
-7.998630474
 11
-95.240349265
 21
-8.0052442436
  0
LINE
  5
4FB
100
AcDbEntity
  8
RACCORDO
100
AcDbLine
 62
253
  6
CONTINUOUS
 10
-94.4367859574
 20
-45.1896946481
 11
-94.4364020304
 21
-24.0028805442
  0
LINE
  5
4FC
100
AcDbEntity
  8
RACCORDO
100
AcDbLine
 62
253
  6
CONTINUOUS
 10
-94.4364020304
 20
-24.0028805442
 11
-94.4354224255
 21
-7.4633514706
  0
LWPOLYLINE
  5
4FD
100
AcDbEntity
  8
RACCORDO
100
AcDbPolyline
 62
253
  6
CONTINUOUS
 90
3
 70
0
 10
-94.4354224255
 20
-7.4633514706
 10
-94.434722655
 20
-0.616705867
 10
-94.432275087
 20
14.0964425807
  0
LINE
  5
4FE
100
AcDbEntity
  8
RACCORDO
100
AcDbLine
 62
253
  6
CONTINUOUS
 10
-94.4277794358
 20
35.4134571159
 11
-94.4271743895
 21
45.2374129362
  0
LINE
  5
4FF
100
AcDbEntity
  8
RACCORDO
100
AcDbLine
 62
253
  6
CONTINUOUS
 10
-94.432275087
 20
14.0964425807
 11
-94.4277794358
 21
35.4134571159
  0
LINE
  5
500
100
AcDbEntity
  8
RACCORDO
100
AcDbLine
 62
7
  6
CONTINUOUS
 10
-94.6589817892
 20
-5.9965720606
 11
-94.6639368849
 21
-14.0004802453
  0
LWPOLYLINE
  5
501
100
AcDbEntity
  8
RACCORDO
100
AcDbPolyline
 62
7
  6
CONTINUOUS
 90
5
 70
0
 10
-94.665738466
 20
-14.0004794356
 10
-94.6658056871
 20
-14.0305288982
 10
-94.6677413921
 20
-14.1820047336
 10
-94.6721593792
 20
-14.326348943
 10
-94.6788022415
 20
-14.4614475156
  0
LINE
  5
502
100
AcDbEntity
  8
ASSI
100
AcDbLine
 62
7
  6
CONTINUOUS
 10
-95.2403602281
 20
-12.0019200017
 11
-95.2403558556
 21
-11.9937330423
  0
LWPOLYLINE
  5
503
100
AcDbEntity
  8
RACCORDO
100
AcDbPolyline
 62
253
  6
CONTINUOUS
 90
9
 70
0
 10
-94.6639368849
 20
-14.0004802453
 10
-94.6641081217
 20
-14.0628805491
 10
-94.664833475
 20
-14.126839546
 10
-94.6661142046
 20
-14.1923624378
 10
-94.6679044924
 20
-14.2597330014
 10
-94.6702547113
 20
-14.3286789409
 10
-94.6733124022
 20
-14.3983684124
 10
-94.6770752171
 20
-14.4688946051
 10
-94.6815576047
 20
-14.5401695865
  0
LINE
  5
504
100
AcDbEntity
  8
ASSI
100
AcDbLine
 62
7
  6
CONTINUOUS
 10
-95.2403483537
 20
-7.991813278
 11
-95.2403638506
 21
-7.998630474
  0
LINE
  5
505
100
AcDbEntity
  8
ASSI
100
AcDbLine
 62
7
  6
CONTINUOUS
 10
-95.2403558556
 20
-11.9937330423
 11
-95.2403146574
 21
-11.9864825011
  0
LINE
  5
506
100
AcDbEntity
  8
ASSI
100
AcDbLine
 62
7
  6
CONTINUOUS
 10
-95.2402922177
 20
-7.983971251
 11
-95.2403483537
 21
-7.991813278
  0
LINE
  5
507
100
AcDbEntity
  8
ASSI
100
AcDbLine
 62
7
  6
CONTINUOUS
 10
-95.2403146574
 20
-11.9864825011
 11
-95.2402260206
 21
-11.9782964895
  0
LINE
  5
508
100
AcDbEntity
  8
ASSI
100
AcDbLine
 62
7
  6
CONTINUOUS
 10
-95.2402142997
 20
-7.9774495812
 11
-95.2402922177
 21
-7.983971251
  0
LINE
  5
509
100
AcDbEntity
  8
ASSI
100
AcDbLine
 62
7
  6
CONTINUOUS
 10
-95.2402260206
 20
-11.9782964895
 11
-95.2401151874
 21
-11.971318798
  0
LINE
  5
50A
100
AcDbEntity
  8
ASSI
100
AcDbLine
 62
7
  6
CONTINUOUS
 10
-95.2401007844
 20
-7.9705390273
 11
-95.2402142997
 21
-7.9774495812
  0
LINE
  5
50B
100
AcDbEntity
  8
ASSI
100
AcDbLine
 62
7
  6
CONTINUOUS
 10
-95.2401151874
 20
-11.971318798
 11
-95.2399647676
 21
-11.9640314929
  0
LINE
  5
50C
100
AcDbEntity
  8
ASSI
100
AcDbLine
 62
7
  6
CONTINUOUS
 10
-95.2399354491
 20
-7.9627832888
 11
-95.2401007844
 21
-7.9705390273
  0
LINE
  5
50D
100
AcDbEntity
  8
ASSI
100
AcDbLine
 62
7
  6
CONTINUOUS
 10
-95.2399647676
 20
-11.9640314929
 11
-95.2397828986
 21
-11.9568869904
  0
LINE
  5
50E
100
AcDbEntity
  8
ASSI
100
AcDbLine
 62
7
  6
CONTINUOUS
 10
-95.2397495127
 20
-7.955704536
 11
-95.2399354491
 21
-7.9627832888
  0
LINE
  5
50F
100
AcDbEntity
  8
ASSI
100
AcDbLine
 62
7
  6
CONTINUOUS
 10
-95.2397828986
 20
-11.9568869904
 11
-95.2395082421
 21
-11.9479738529
  0
LINE
  5
510
100
AcDbEntity
  8
ASSI
100
AcDbLine
 62
7
  6
CONTINUOUS
 10
-95.239453642
 20
-7.9463830159
 11
-95.2397495127
 21
-7.955704536
  0
LINE
  5
511
100
AcDbEntity
  8
ASSI
100
AcDbLine
 62
7
  6
CONTINUOUS
 10
-95.2395082421
 20
-11.9479738529
 11
-95.2391886331
 21
-11.9392649006
  0
LINE
  5
512
100
AcDbEntity
  8
ASSI
100
AcDbLine
 62
7
  6
CONTINUOUS
 10
-95.2391450613
 20
-7.9381748504
 11
-95.239453642
 21
-7.9463830159
  0
LINE
  5
513
100
AcDbEntity
  8
ASSI
100
AcDbLine
 62
7
  6
CONTINUOUS
 10
-95.2391886331
 20
-11.9392649006
 11
-95.2388957508
 21
-11.9322818189
  0
LINE
  5
514
100
AcDbEntity
  8
ASSI
100
AcDbLine
 62
7
  6
CONTINUOUS
 10
-95.2388548866
 20
-7.9313652154
 11
-95.2391450613
 21
-7.9381748504
  0
LINE
  5
515
100
AcDbEntity
  8
ASSI
100
AcDbLine
 62
7
  6
CONTINUOUS
 10
-95.2388957508
 20
-11.9322818189
 11
-95.2385080542
 21
-11.9240386169
  0
LINE
  5
516
100
AcDbEntity
  8
ASSI
100
AcDbLine
 62
7
  6
CONTINUOUS
 10
-95.238449701
 20
-7.9228757069
 11
-95.2388548866
 21
-7.9313652154
  0
LINE
  5
517
100
AcDbEntity
  8
ASSI
100
AcDbLine
 62
7
  6
CONTINUOUS
 10
-95.2385080542
 20
-11.9240386169
 11
-95.2381163397
 21
-11.9165483124
  0
LINE
  5
518
100
AcDbEntity
  8
ASSI
100
AcDbLine
 62
7
  6
CONTINUOUS
 10
-95.2380471479
 20
-7.9152953625
 11
-95.238449701
 21
-7.9228757069
  0
LWPOLYLINE
  5
519
100
AcDbEntity
  8
ASSI
100
AcDbPolyline
 62
7
  6
CONTINUOUS
 90
4
 70
0
 10
-95.2381163397
 20
-11.9165483124
 10
-95.2375521544
 20
-11.9068307854
 10
-95.2371205068
 20
-11.9000428894
 10
-95.2365981815
 20
-11.8924098236
  0
LWPOLYLINE
  5
51A
100
AcDbEntity
  8
ASSI
100
AcDbPolyline
 62
7
  6
CONTINUOUS
 90
4
 70
0
 10
-95.2365443323
 20
-7.8916540017
 10
-95.2370525219
 20
-7.8990161128
 10
-95.2374802836
 20
-7.9056660411
 10
-95.2380471479
 20
-7.9152953625
  0
LINE
  5
51B
100
AcDbEntity
  8
ASSI
100
AcDbLine
 62
7
  6
CONTINUOUS
 10
-95.2358304703
 20
-7.8820989797
 11
-95.2365443323
 21
-7.8916540017
  0
LINE
  5
51C
100
AcDbEntity
  8
ASSI
100
AcDbLine
 62
7
  6
CONTINUOUS
 10
-95.2365981815
 20
-11.8924098236
 11
-95.235684065
 21
-11.8802351356
  0
LINE
  5
51D
100
AcDbEntity
  8
ASSI
100
AcDbLine
 62
7
  6
CONTINUOUS
 10
-95.2352065636
 20
-7.8743515009
 11
-95.2358304703
 21
-7.8820989797
  0
LINE
  5
51E
100
AcDbEntity
  8
ASSI
100
AcDbLine
 62
7
  6
CONTINUOUS
 10
-95.235684065
 20
-11.8802351356
 11
-95.2349370265
 21
-11.8711509782
  0
LWPOLYLINE
  5
51F
100
AcDbEntity
  8
RACCORDO
100
AcDbPolyline
 62
253
  6
CONTINUOUS
 90
5
 70
0
 10
-94.7085472592
 20
-5.398206291
 10
-94.7063223028
 20
-5.3723001384
 10
-94.699704786
 20
-5.3471725662
 10
-94.6888935905
 20
-5.3235787538
 10
-94.6887098751
 20
-5.3233115526
  0
LINE
  5
520
100
AcDbEntity
  8
ASSI
100
AcDbLine
 62
7
  6
CONTINUOUS
 10
-95.234604651
 20
-7.8673124239
 11
-95.2352065636
 21
-7.8743515009
  0
LINE
  5
521
100
AcDbEntity
  8
ASSI
100
AcDbLine
 62
7
  6
CONTINUOUS
 10
-95.2349370265
 20
-11.8711509782
 11
-95.2340869248
 21
-11.8615488289
  0
LINE
  5
522
100
AcDbEntity
  8
ASSI
100
AcDbLine
 62
7
  6
CONTINUOUS
 10
-95.2338529302
 20
-7.8590225624
 11
-95.234604651
 21
-7.8673124239
  0
LWPOLYLINE
  5
523
100
AcDbEntity
  8
ASSI
100
AcDbPolyline
 62
7
  6
CONTINUOUS
 90
3
 70
0
 10
-95.2340869248
 20
-11.8615488289
 10
-95.2331997101
 20
-11.8522026881
 10
-95.2327468286
 20
-11.8476568112
  0
LINE
  5
524
100
AcDbEntity
  8
ASSI
100
AcDbLine
 62
7
  6
CONTINUOUS
 10
-95.2328826695
 20
-7.8490056932
 11
-95.2338529302
 21
-7.8590225624
  0
LWPOLYLINE
  5
525
100
AcDbEntity
  8
ASSI
100
AcDbPolyline
 62
7
  6
CONTINUOUS
 90
8
 70
0
 10
-95.2251578217
 20
-7.7855885454
 10
-95.2263033699
 20
-7.7937311212
 10
-95.2275928049
 20
-7.8033101284
 10
-95.2287814815
 20
-7.8125848994
 10
-95.2298237905
 20
-7.821122482
 10
-95.2307816389
 20
-7.8293531393
 10
-95.2316114234
 20
-7.8368260348
 10
-95.2328826695
 20
-7.8490056932
  0
LWPOLYLINE
  5
526
100
AcDbEntity
  8
ASSI
100
AcDbPolyline
 62
7
  6
CONTINUOUS
 90
3
 70
0
 10
-95.2230662918
 20
-7.7714885124
 10
-95.2237443517
 20
-7.775959666
 10
-95.2251578217
 20
-7.7855885454
  0
LINE
  5
527
100
AcDbEntity
  8
ASSI
100
AcDbLine
 62
253
  6
CONTINUOUS
 10
-86.0257510414
 20
25.9344244379
 11
-86.0426689551
 21
25.8964022144
  0
LINE
  5
528
100
AcDbEntity
  8
RACCORDO
100
AcDbLine
 62
253
  6
CONTINUOUS
 10
-86.0257510414
 20
25.9344244379
 11
-86.0426689551
 21
25.8964022144
  0
LINE
  5
529
100
AcDbEntity
  8
ASSI
100
AcDbLine
 62
253
  6
CONTINUOUS
 10
-86.0426689551
 20
25.8964022144
 11
-86.0634139052
 21
25.8505328836
  0
LINE
  5
52A
100
AcDbEntity
  8
RACCORDO
100
AcDbLine
 62
253
  6
CONTINUOUS
 10
-86.0426689551
 20
25.8964022144
 11
-86.0634139052
 21
25.8505328836
  0
LINE
  5
52B
100
AcDbEntity
  8
ASSI
100
AcDbLine
 62
253
  6
CONTINUOUS
 10
-86.0634139052
 20
25.8505328836
 11
-86.0997063739
 21
25.7714319103
  0
LINE
  5
52C
100
AcDbEntity
  8
RACCORDO
100
AcDbLine
 62
253
  6
CONTINUOUS
 10
-86.0634139052
 20
25.8505328836
 11
-86.0997063739
 21
25.7714319103
  0
LINE
  5
52D
100
AcDbEntity
  8
ASSI
100
AcDbLine
 62
253
  6
CONTINUOUS
 10
-86.0997063739
 20
25.7714319103
 11
-86.1258239603
 21
25.7151623574
  0
LINE
  5
52E
100
AcDbEntity
  8
RACCORDO
100
AcDbLine
 62
253
  6
CONTINUOUS
 10
-86.0997063739
 20
25.7714319103
 11
-86.1258239603
 21
25.7151623574
  0
LWPOLYLINE
  5
52F
100
AcDbEntity
  8
RACCORDO
100
AcDbPolyline
 62
253
  6
CONTINUOUS
 90
14
 70
0
 10
-101.0533332977
 20
-5.2728806397
 10
-101.01956777
 20
-5.2091805952
 10
-100.9827229442
 20
-5.14703159
 10
-100.942880534
 20
-5.0865754248
 10
-100.9000123195
 20
-5.0293357263
 10
-100.8540320664
 20
-4.9751418183
 10
-100.8050849544
 20
-4.9241388184
 10
-100.7534875231
 20
-4.8783122448
 10
-100.6991081603
 20
-4.8375486055
 10
-100.6421380215
 20
-4.8019288215
 10
-100.5833632739
 20
-4.7737209935
 10
-100.5230540037
 20
-4.7536701052
 10
-100.4609768322
 20
-4.7410035004
 10
-100.3971508846
 20
-4.735713171
  0
LINE
  5
530
100
AcDbEntity
  8
RACCORDO
100
AcDbLine
 62
253
  6
CONTINUOUS
 10
-100.8146111057
 20
-5.2922539169
 11
-100.7745620009
 21
-5.2417454077
  0
LWPOLYLINE
  5
531
100
AcDbEntity
  8
RACCORDO
100
AcDbPolyline
 62
253
  6
CONTINUOUS
 90
11
 70
0
 10
-100.7745620009
 20
-5.2417454077
 10
-100.7315032512
 20
-5.193383017
 10
-100.6853181311
 20
-5.1476760744
 10
-100.636123366
 20
-5.1051883456
 10
-100.5842935403
 20
-5.0664042098
 10
-100.5296729702
 20
-5.0319335679
 10
-100.4724173394
 20
-5.002418744
 10
-100.4133682839
 20
-4.9784635897
 10
-100.3528063488
 20
-4.9607177229
 10
-100.290450989
 20
-4.9498417824
 10
-100.2263022043
 20
-4.946459914
  0
LINE
  5
532
100
AcDbEntity
  8
0
100
AcDbLine
 62
7
  6
CONTINUOUS
 10
-77.0284246214
 20
9.9464746955
 11
-76.4579531689
 21
10.1161981796
  0
LWPOLYLINE
  5
533
100
AcDbEntity
  8
DRAFT
100
AcDbPolyline
 62
7
  6
CONTINUOUS
 90
6
 70
0
 10
-97.99522451
 20
-4.9659302336
 10
-98.0988035045
 20
-4.9884662383
 10
-98.1936762981
 20
-5.0361653596
 10
-98.2796268593
 20
-5.1090275977
 10
-98.3578625101
 20
-5.2112174452
 10
-98.3958574832
 20
-5.2813824782
  0
LWPOLYLINE
  5
534
100
AcDbEntity
  8
RACCORDO
100
AcDbPolyline
 62
253
  6
CONTINUOUS
 90
18
 70
0
 10
-100.2939927057
 20
-5.4467334787
 10
-100.3275164278
 20
-5.4499206495
 10
-100.3603218219
 20
-5.4582681221
 10
-100.3924028418
 20
-5.4717758968
 10
-100.4240618173
 20
-5.4907517157
 10
-100.4549862059
 20
-5.5148878366
 10
-100.4842415225
 20
-5.5432610328
 10
-100.5116816453
 20
-5.5759807661
 10
-100.5374301824
 20
-5.6129375747
 10
-100.5609489348
 20
-5.6528798462
 10
-100.5821196793
 20
-5.6957805362
 10
-100.6010379786
 20
-5.7416666891
 10
-100.617484196
 20
-5.7893678264
 10
-100.6313984045
 20
-5.8389169231
 10
-100.6428239741
 20
-5.8902810042
 10
-100.6516972465
 20
-5.9421906655
 10
-100.6579941523
 20
-5.9942227725
 10
-100.6617303667
 20
-6.0468004597
  0
LWPOLYLINE
  5
535
100
AcDbEntity
  8
RACCORDO
100
AcDbPolyline
 62
7
  6
CONTINUOUS
 90
5
 70
0
 10
-100.1655108046
 20
-5.2967675022
 10
-100.2119510312
 20
-5.3003507718
 10
-100.2651140761
 20
-5.3120691322
 10
-100.3179676931
 20
-5.3322224348
 10
-100.3693863445
 20
-5.3607724526
  0
LINE
  5
536
100
AcDbEntity
  8
RACCORDO
100
AcDbLine
 62
253
  6
CONTINUOUS
 10
-100.1655108046
 20
-5.2967675022
 11
-100.1645769185
 21
-5.2967555214
  0
LINE
  5
537
100
AcDbEntity
  8
RACCORDO
100
AcDbLine
 62
253
  6
CONTINUOUS
 10
-94.7085408244
 20
-5.398206291
 11
-100.2939927057
 21
-5.4467334787
  0
LINE
  5
538
100
AcDbEntity
  8
RACCORDO
100
AcDbLine
 62
7
  6
CONTINUOUS
 10
-94.6962842224
 20
-5.249369324
 11
-100.1645770572
 21
-5.2967391902
  0
LINE
  5
539
100
AcDbEntity
  8
RACCORDO
100
AcDbLine
 62
253
  6
CONTINUOUS
 10
-100.6629038295
 20
-6.0999237273
 11
-100.6833453037
 21
-6.0999237273
  0
LINE
  5
53A
100
AcDbEntity
  8
RACCORDO
100
AcDbLine
 62
253
  6
CONTINUOUS
 10
-101.0758829245
 20
-5.998630474
 11
-100.6481481056
 21
-5.998630474
  0
LINE
  5
53B
100
AcDbEntity
  8
ASSI
100
AcDbLine
 62
7
  6
CONTINUOUS
 10
-67.5481481056
 20
-5.6441347506
 11
-67.3481481056
 21
-5.6441347506
  0
LINE
  5
53C
100
AcDbEntity
  8
0
100
AcDbLine
 62
7
  6
CONTINUOUS
 10
-67.5481481056
 20
-5.6441347506
 11
-67.3481481056
 21
-5.6441347506
  0
LINE
  5
53D
100
AcDbEntity
  8
ASSI
100
AcDbLine
 62
7
  6
CONTINUOUS
 10
-67.5481481056
 20
-5.2385485033
 11
-67.3481481056
 21
-5.238548474
  0
LINE
  5
53E
100
AcDbEntity
  8
0
100
AcDbLine
 62
7
  6
CONTINUOUS
 10
-67.5481481056
 20
-5.2385485033
 11
-67.3481481056
 21
-5.238548474
  0
LINE
  5
53F
100
AcDbEntity
  8
ASSI
100
AcDbLine
 62
7
  6
CONTINUOUS
 10
-67.5481481056
 20
-5.2251405015
 11
-67.3481481056
 21
-5.225140474
  0
LINE
  5
540
100
AcDbEntity
  8
0
100
AcDbLine
 62
7
  6
CONTINUOUS
 10
-67.5481481056
 20
-5.2251405015
 11
-67.3481481056
 21
-5.225140474
  0
LINE
  5
541
100
AcDbEntity
  8
ASSI
100
AcDbLine
 62
7
  6
CONTINUOUS
 10
-67.3481481056
 20
-4.4039112891
 11
-67.5481481056
 21
-4.4039112891
  0
LINE
  5
542
100
AcDbEntity
  8
0
100
AcDbLine
 62
7
  6
CONTINUOUS
 10
-67.3481481056
 20
-4.4039112891
 11
-67.5481481056
 21
-4.4039112891
  0
LINE
  5
543
100
AcDbEntity
  8
ASSI
100
AcDbLine
 62
7
  6
CONTINUOUS
 10
-67.5481481056
 20
-3.948630474
 11
-67.3481481056
 21
-3.948630474
  0
LINE
  5
544
100
AcDbEntity
  8
0
100
AcDbLine
 62
7
  6
CONTINUOUS
 10
-67.5481481056
 20
-3.948630474
 11
-67.3481481056
 21
-3.948630474
  0
LINE
  5
545
100
AcDbEntity
  8
ASSI
100
AcDbLine
 62
7
  6
CONTINUOUS
 10
-67.5481481056
 20
-3.7581996638
 11
-67.3481481056
 21
-3.7581996638
  0
LINE
  5
546
100
AcDbEntity
  8
0
100
AcDbLine
 62
7
  6
CONTINUOUS
 10
-67.5481481056
 20
-3.7581996638
 11
-67.3481481056
 21
-3.7581996638
  0
LINE
  5
547
100
AcDbEntity
  8
ASSI
100
AcDbLine
 62
7
  6
CONTINUOUS
 10
-67.5481481056
 20
-3.198630474
 11
-67.3481481056
 21
-3.198630474
  0
LINE
  5
548
100
AcDbEntity
  8
0
100
AcDbLine
 62
7
  6
CONTINUOUS
 10
-67.5481481056
 20
-3.198630474
 11
-67.3481481056
 21
-3.198630474
  0
LINE
  5
549
100
AcDbEntity
  8
RACCORDO
100
AcDbLine
 62
253
  6
CONTINUOUS
 10
-94.6589817923
 20
-5.9965720606
 11
-94.6606956504
 21
-5.9965709357
  0
LINE
  5
54A
100
AcDbEntity
  8
RACCORDO
100
AcDbLine
 62
7
  6
CONTINUOUS
 10
-100.2262954124
 20
-4.9464599728
 11
-94.7561404344
 21
-4.9941972921
  0
LWPOLYLINE
  5
54B
100
AcDbEntity
  8
RACCORDO
100
AcDbPolyline
 62
253
  6
CONTINUOUS
 90
4
 70
0
 10
-98.4731347229
 20
-4.7575151017
 10
-97.6910650767
 20
-4.7650065296
 10
-97.0301318966
 20
-4.7716952251
 10
-95.9698366057
 20
-4.7833291557
  0
LINE
  5
54C
100
AcDbEntity
  8
ASSI
100
AcDbLine
 62
7
  6
CONTINUOUS
 10
-83.7481481056
 20
-5.9968785589
 11
-87.5481481056
 21
-5.9597568687
  0
LINE
  5
54D
100
AcDbEntity
  8
DRAFT
100
AcDbLine
 62
7
  6
CONTINUOUS
 10
-83.7481481056
 20
-5.9968785589
 11
-87.5481481056
 21
-5.9597568687
  0
LINE
  5
54E
100
AcDbEntity
  8
RACCORDO
100
AcDbLine
 62
253
  6
CONTINUOUS
 10
-99.3745060767
 20
-4.7480885486
 11
-98.4731347229
 21
-4.7575151017
  0
LINE
  5
54F
100
AcDbEntity
  8
RACCORDO
100
AcDbLine
 62
253
  6
CONTINUOUS
 10
-95.9698366057
 20
-4.7833291557
 11
-94.8245069984
 21
-4.7950066457
  0
LINE
  5
550
100
AcDbEntity
  8
RACCORDO
100
AcDbLine
 62
253
  6
CONTINUOUS
 10
-100.3971508846
 20
-4.735713171
 11
-99.3745060767
 21
-4.7480885486
  0
LINE
  5
551
100
AcDbEntity
  8
ASSI
100
AcDbLine
 62
7
  6
CONTINUOUS
 10
-87.5481481056
 20
-5.248630474
 11
-83.7481481056
 21
-5.3149597207
  0
LINE
  5
552
100
AcDbEntity
  8
DRAFT
100
AcDbLine
 62
7
  6
CONTINUOUS
 10
-87.5481481056
 20
-5.248630474
 11
-83.7481481056
 21
-5.3149597207
  0
LWPOLYLINE
  5
553
100
AcDbEntity
  8
RACCORDO
100
AcDbPolyline
 62
253
  6
CONTINUOUS
 90
10
 70
0
 10
-94.8245069984
 20
-4.7950066457
 10
-94.8151301538
 20
-4.7962440394
 10
-94.8056104471
 20
-4.8017256819
 10
-94.7959507186
 20
-4.8114531246
 10
-94.7861218341
 20
-4.8250545694
 10
-94.7761592098
 20
-4.8429081273
 10
-94.7661605336
 20
-4.8661433038
 10
-94.7561020918
 20
-4.8947078484
 10
-94.7460098895
 20
-4.9286721091
 10
-94.7360505914
 20
-4.9693565558
  0
LINE
  5
554
100
AcDbEntity
  8
RACCORDO
100
AcDbLine
 62
253
  6
CONTINUOUS
 10
-94.6944925398
 20
-5.4020119423
 11
-94.7085408244
 21
-5.398206291
  0
LWPOLYLINE
  5
555
100
AcDbEntity
  8
RACCORDO
100
AcDbPolyline
 62
7
  6
CONTINUOUS
 90
4
 70
0
 10
-94.7556219737
 20
-4.934787582
 10
-94.7571105295
 20
-4.932795264
 10
-94.7506557648
 20
-4.9494030416
 10
-94.7393780627
 20
-4.9875733077
  0
LWPOLYLINE
  5
556
100
AcDbEntity
  8
RACCORDO
100
AcDbPolyline
 62
253
  6
CONTINUOUS
 90
15
 70
0
 10
-94.8954112118
 20
-9.0297913376
 10
-94.8781598574
 20
-9.0952468255
 10
-94.8603585136
 20
-9.1503003744
 10
-94.842023304
 20
-9.1946527114
 10
-94.8232006362
 20
-9.2286031094
 10
-94.8044122677
 20
-9.251338679
 10
-94.7856685397
 20
-9.2625813407
 10
-94.7669816734
 20
-9.2626091741
 10
-94.7488315668
 20
-9.251443528
 10
-94.7312113877
 20
-9.2288225877
 10
-94.7141051108
 20
-9.1950081679
 10
-94.6979346682
 20
-9.1508070619
 10
-94.682677956
 20
-9.0959311656
 10
-94.6682952992
 20
-9.0306685831
 10
-94.6610578492
 20
-8.9899533584
  0
LWPOLYLINE
  5
557
100
AcDbEntity
  8
RACCORDO
100
AcDbPolyline
 62
7
  6
CONTINUOUS
 90
7
 70
0
 10
-94.7393780627
 20
-4.9875733077
 10
-94.7271923332
 20
-5.0408054259
 10
-94.7151208385
 20
-5.1072693151
 10
-94.7032596388
 20
-5.1889977249
 10
-94.6922393346
 20
-5.284377463
 10
-94.6824238728
 20
-5.3926535525
 10
-94.6740814216
 20
-5.5133099068
  0
LINE
  5
558
100
AcDbEntity
  8
RACCORDO
100
AcDbLine
 62
253
  6
CONTINUOUS
 10
-94.9115986511
 20
-8.9556446189
 11
-94.8954112118
 21
-9.0297913376
  0
LWPOLYLINE
  5
559
100
AcDbEntity
  8
RACCORDO
100
AcDbPolyline
 62
253
  6
CONTINUOUS
 90
6
 70
0
 10
-94.7360505914
 20
-4.9693565558
 10
-94.7261640973
 20
-5.0169659407
 10
-94.7164062984
 20
-5.0713342977
 10
-94.7071076014
 20
-5.1332359724
 10
-94.698220069
 20
-5.2032099874
 10
-94.6897751572
 20
-5.2807826058
  0
LINE
  5
55A
100
AcDbEntity
  8
RACCORDO
100
AcDbLine
 62
253
  6
CONTINUOUS
 10
-94.9162528161
 20
-12.9299295906
 11
-94.9116382511
 21
-12.9554280916
  0
LINE
  5
55B
100
AcDbEntity
  8
RACCORDO
100
AcDbLine
 62
253
  6
CONTINUOUS
 10
-94.9162581737
 20
-8.9299119289
 11
-94.9115986511
 21
-8.9556446189
  0
LWPOLYLINE
  5
55C
100
AcDbEntity
  8
ASSI
100
AcDbPolyline
 62
7
  6
CONTINUOUS
 90
41
 70
0
 10
-95.2174900557
 20
-8.2595867427
 10
-95.2162402249
 20
-8.2665650326
 10
-95.2148537289
 20
-8.2740929915
 10
-95.2132698338
 20
-8.2824402071
 10
-95.2114875132
 20
-8.2915385981
 10
-95.209479319
 20
-8.3014501237
 10
-95.2071291638
 20
-8.3126360725
 10
-95.2044380657
 20
-8.3249534621
 10
-95.2013455996
 20
-8.3385309431
 10
-95.1976045603
 20
-8.3542278781
 10
-95.1928412591
 20
-8.3732094079
 10
-95.1872490142
 20
-8.3942607601
 10
-95.1815073356
 20
-8.4146899115
 10
-95.1757648993
 20
-8.4340886573
 10
-95.1699312994
 20
-8.4528737008
 10
-95.164495686
 20
-8.469638452
 10
-95.1600472958
 20
-8.4828813546
 10
-95.1561530212
 20
-8.4941514364
 10
-95.1517322825
 20
-8.506606014
 10
-95.1464339455
 20
-8.5210928058
 10
-95.1405239619
 20
-8.5367305228
 10
-95.1337458962
 20
-8.5540460616
 10
-95.1257035389
 20
-8.5738121391
 10
-95.1166351141
 20
-8.5951850894
 10
-95.1072936907
 20
-8.6162896131
 10
-95.0976776391
 20
-8.6371438094
 10
-95.0878039805
 20
-8.6577246222
 10
-95.0786230652
 20
-8.6761718191
 10
-95.0710652076
 20
-8.6908976901
 10
-95.06439068
 20
-8.7035793763
 10
-95.0570246401
 20
-8.7172432802
 10
-95.0484417137
 20
-8.7327505622
 10
-95.0390801029
 20
-8.7491876643
 10
-95.0287045486
 20
-8.7668610681
 10
-95.0172903627
 20
-8.7856874495
 10
-95.0047528366
 20
-8.8056747677
 10
-94.9907269653
 20
-8.8272389952
 10
-94.9751716258
 20
-8.8502464428
 10
-94.957950043
 20
-8.8746920381
 10
-94.9384847144
 20
-8.9011305546
 10
-94.9167365128
 20
-8.9293008558
  0
LWPOLYLINE
  5
55D
100
AcDbEntity
  8
RACCORDO
100
AcDbPolyline
 62
253
  6
CONTINUOUS
 90
15
 70
0
 10
-94.6622969778
 20
-11.000334442
 10
-94.6682145553
 20
-10.9670028785
 10
-94.6825941736
 20
-10.9016686969
 10
-94.697849498
 20
-10.8467227684
 10
-94.7140220551
 20
-10.8024547042
 10
-94.7311323231
 20
-10.7685748931
 10
-94.7487531801
 20
-10.7458915852
 10
-94.766898297
 20
-10.734674002
 10
-94.7855764553
 20
-10.7346529221
 10
-94.804308825
 20
-10.745828931
 10
-94.823081035
 20
-10.7684691603
 10
-94.8418846232
 20
-10.8023064784
 10
-94.8602053558
 20
-10.8465400753
 10
-94.8779991959
 20
-10.9014614253
 10
-94.895248144
 20
-10.9667790542
  0
LWPOLYLINE
  5
55E
100
AcDbEntity
  8
RACCORDO
100
AcDbPolyline
 62
253
  6
CONTINUOUS
 90
15
 70
0
 10
-94.6597198289
 20
-7.0148460416
 10
-94.6681389026
 20
-6.9673691788
 10
-94.6825279688
 20
-6.9019156639
 10
-94.6977943189
 20
-6.8468704314
 10
-94.7139779752
 20
-6.802530441
 10
-94.7311010399
 20
-6.7685987329
 10
-94.7487381816
 20
-6.7458861014
 10
-94.7669055771
 20
-6.7346614667
 10
-94.7856098961
 20
-6.7346559086
 10
-94.8043669528
 20
-6.7458734608
 10
-94.8231626728
 20
-6.7685963002
 10
-94.8419880702
 20
-6.80254225
 10
-94.8603217162
 20
-6.8468688139
 10
-94.8781147727
 20
-6.9018604616
 10
-94.8953531444
 20
-6.9672327234
  0
LINE
  5
55F
100
AcDbEntity
  8
ASSI
100
AcDbLine
 62
7
  6
CONTINUOUS
 10
-95.2196220802
 20
-8.2472166564
 11
-95.2174900557
 21
-8.2595867427
  0
LINE
  5
560
100
AcDbEntity
  8
ASSI
100
AcDbLine
 62
7
  6
CONTINUOUS
 10
-95.2213778558
 20
-8.2365327989
 11
-95.2196220802
 21
-8.2472166564
  0
LINE
  5
561
100
AcDbEntity
  8
ASSI
100
AcDbLine
 62
7
  6
CONTINUOUS
 10
-95.2202904996
 20
-12.2432058479
 11
-95.2222295285
 21
-12.2311688848
  0
LINE
  5
562
100
AcDbEntity
  8
ASSI
100
AcDbLine
 62
7
  6
CONTINUOUS
 10
-95.2228376561
 20
-8.2272599033
 11
-95.2213778558
 21
-8.2365327989
  0
LINE
  5
563
100
AcDbEntity
  8
ASSI
100
AcDbLine
 62
7
  6
CONTINUOUS
 10
-95.2222295285
 20
-12.2311688848
 11
-95.2237443517
 21
-12.2213012821
  0
LINE
  5
564
100
AcDbEntity
  8
ASSI
100
AcDbLine
 62
7
  6
CONTINUOUS
 10
-95.224009681
 20
-8.2195264896
 11
-95.2228376561
 21
-8.2272599033
  0
LWPOLYLINE
  5
565
100
AcDbEntity
  8
ASSI
100
AcDbPolyline
 62
7
  6
CONTINUOUS
 90
8
 70
0
 10
-95.2237443517
 20
-12.2213012821
 10
-95.2251578217
 20
-12.2116724026
 10
-95.2263033699
 20
-12.2035298268
 10
-95.2275928049
 20
-12.1939508196
 10
-95.2287814815
 20
-12.1846760486
 10
-95.2298237905
 20
-12.176138466
 10
-95.2307816389
 20
-12.1679078087
 10
-95.2316114234
 20
-12.1604349133
  0
LINE
  5
566
100
AcDbEntity
  8
ASSI
100
AcDbLine
 62
7
  6
CONTINUOUS
 10
-95.2253276264
 20
-8.2104855761
 11
-95.224009681
 21
-8.2195264896
  0
LWPOLYLINE
  5
567
100
AcDbEntity
  8
ASSI
100
AcDbPolyline
 62
7
  6
CONTINUOUS
 90
7
 70
0
 10
-95.2316252473
 20
-8.1603074559
 10
-95.2309449608
 20
-8.166463587
 10
-95.2301507462
 20
-8.1733731582
 10
-95.2291500095
 20
-8.1817036095
 10
-95.2280053277
 20
-8.19078363
 10
-95.2269402751
 20
-8.1988566813
 10
-95.2253276264
 20
-8.2104855761
  0
LWPOLYLINE
  5
568
100
AcDbEntity
  8
RACCORDO
100
AcDbPolyline
 62
253
  6
CONTINUOUS
 90
8
 70
0
 10
-93.545438904
 20
46.8661664399
 10
-93.5501167412
 20
46.9454640075
 10
-93.5547530262
 20
47.0154169322
 10
-93.5592679357
 20
47.0748824545
 10
-93.5635302097
 20
47.1224273321
 10
-93.5675099916
 20
47.1571535768
 10
-93.5712580252
 20
47.1784181672
 10
-93.5747964033
 20
47.1855262722
  0
LINE
  5
569
100
AcDbEntity
  8
RACCORDO
100
AcDbLine
 62
253
  6
CONTINUOUS
 10
-93.5359742423
 20
46.6849609484
 11
-93.545438904
 21
46.8661664399
  0
LINE
  5
56A
100
AcDbEntity
  8
RACCORDO
100
AcDbLine
 62
253
  6
CONTINUOUS
 10
-93.5268569095
 20
46.4841901169
 11
-93.5359742423
 21
46.6849609484
  0
LINE
  5
56B
100
AcDbEntity
  8
RACCORDO
100
AcDbLine
 62
253
  6
CONTINUOUS
 10
-93.5182395811
 20
46.274946695
 11
-93.5268569095
 21
46.4841901169
  0
LINE
  5
56C
100
AcDbEntity
  8
RACCORDO
100
AcDbLine
 62
253
  6
CONTINUOUS
 10
-93.5067622821
 20
45.9615146802
 11
-93.5182395811
 21
46.274946695
  0
LINE
  5
56D
100
AcDbEntity
  8
RACCORDO
100
AcDbLine
 62
253
  6
CONTINUOUS
 10
-93.4939418408
 20
45.5609910209
 11
-93.5067622821
 21
45.9615146802
  0
LINE
  5
56E
100
AcDbEntity
  8
RACCORDO
100
AcDbLine
 62
253
  6
CONTINUOUS
 10
-93.4836454685
 20
45.1930442207
 11
-93.4939418408
 21
45.5609910209
  0
LWPOLYLINE
  5
56F
100
AcDbEntity
  8
RACCORDO
100
AcDbPolyline
 62
253
  6
CONTINUOUS
 90
20
 70
0
 10
-94.4296483146
 20
45.4261040427
 10
-94.4308864266
 20
45.4758040151
 10
-94.432406761
 20
45.5263492466
 10
-94.4342150269
 20
45.5777049448
 10
-94.4363900631
 20
45.6294443638
 10
-94.4389280113
 20
45.6817335314
 10
-94.4418314636
 20
45.7344095741
 10
-94.4451884953
 20
45.7865474368
 10
-94.4490207908
 20
45.8384836075
 10
-94.4533042503
 20
45.8898784194
 10
-94.4580578061
 20
45.9387821507
 10
-94.4633110486
 20
45.985246813
 10
-94.469030888
 20
46.0292037062
 10
-94.4751422518
 20
46.0685090372
 10
-94.4816689289
 20
46.1029852706
 10
-94.4885834315
 20
46.1327854022
 10
-94.4957346803
 20
46.1562536082
 10
-94.5030718112
 20
46.1728304853
 10
-94.5106433321
 20
46.1830569477
 10
-94.5184479269
 20
46.1869283918
  0
LINE
  5
570
100
AcDbEntity
  8
RACCORDO
100
AcDbLine
 62
253
  6
CONTINUOUS
 10
-93.4952324822
 20
-45.1896979191
 11
-93.4948644163
 21
-26.390450124
  0
LINE
  5
571
100
AcDbEntity
  8
RACCORDO
100
AcDbLine
 62
253
  6
CONTINUOUS
 10
-93.4948644163
 20
-26.390450124
 11
-93.4939353753
 21
-11.2126481237
  0
LWPOLYLINE
  5
572
100
AcDbEntity
  8
RACCORDO
100
AcDbPolyline
 62
253
  6
CONTINUOUS
 90
3
 70
0
 10
-93.4939353753
 20
-11.2126481237
 10
-93.4927253222
 20
-0.6178642401
 10
-93.4908565957
 20
9.6403911363
  0
LINE
  5
573
100
AcDbEntity
  8
RACCORDO
100
AcDbLine
 62
253
  6
CONTINUOUS
 10
-93.4842045187
 20
37.0508653891
 11
-93.4836454685
 21
45.1930442207
  0
LINE
  5
574
100
AcDbEntity
  8
RACCORDO
100
AcDbLine
 62
253
  6
CONTINUOUS
 10
-93.4908565957
 20
9.6403911363
 11
-93.4858510462
 21
28.271028692
  0
LINE
  5
575
100
AcDbEntity
  8
RACCORDO
100
AcDbLine
 62
253
  6
CONTINUOUS
 10
-93.4858510462
 20
28.271028692
 11
-93.4842045187
 21
37.0508653891
  0
LWPOLYLINE
  5
576
100
AcDbEntity
  8
RACCORDO
100
AcDbPolyline
 62
7
  6
CONTINUOUS
 90
8
 70
0
 10
-94.6788022415
 20
-14.4614475156
 10
-94.6873847011
 20
-14.5855151416
 10
-94.6975635248
 20
-14.6968829919
 10
-94.70902633
 20
-14.7948952182
 10
-94.7213979264
 20
-14.8788945963
 10
-94.734048948
 20
-14.9474528637
 10
-94.7468645624
 20
-15.0025370348
 10
-94.7484608622
 20
-15.0084894428
  0
LWPOLYLINE
  5
577
100
AcDbEntity
  8
RACCORDO
100
AcDbPolyline
 62
253
  6
CONTINUOUS
 90
4
 70
0
 10
-94.6815576047
 20
-14.5401695865
 10
-94.686936797
 20
-14.6110824624
 10
-94.6932213829
 20
-14.6818856269
 10
-94.7004276477
 20
-14.752323858
  0
LWPOLYLINE
  5
578
100
AcDbEntity
  8
ASSI
100
AcDbPolyline
 62
7
  6
CONTINUOUS
 90
7
 70
0
 10
-95.2327468286
 20
-11.8476568112
 10
-95.2316252473
 20
-11.8369534921
 10
-95.2309449608
 20
-11.830797361
 10
-95.2301507462
 20
-11.8238877899
 10
-95.2291500095
 20
-11.8155573385
 10
-95.2280053277
 20
-11.806477318
 10
-95.2269402751
 20
-11.7984042667
  0
LWPOLYLINE
  5
579
100
AcDbEntity
  8
RACCORDO
100
AcDbPolyline
 62
253
  6
CONTINUOUS
 90
4
 70
0
 10
-94.7004276477
 20
-14.752323858
 10
-94.7087519559
 20
-14.8205134782
 10
-94.7182643262
 20
-14.8869110907
 10
-94.7289401444
 20
-14.9510442405
  0
LINE
  5
57A
100
AcDbEntity
  8
ASSI
100
AcDbLine
 62
7
  6
CONTINUOUS
 10
-95.2269402751
 20
-11.7984042667
 11
-95.2253276264
 21
-11.7867753719
  0
LINE
  5
57B
100
AcDbEntity
  8
ASSI
100
AcDbLine
 62
7
  6
CONTINUOUS
 10
-95.2253276264
 20
-11.7867753719
 11
-95.224009681
 21
-11.7777344584
  0
LINE
  5
57C
100
AcDbEntity
  8
ASSI
100
AcDbLine
 62
7
  6
CONTINUOUS
 10
-95.224009681
 20
-11.7777344584
 11
-95.2228376561
 21
-11.7700010448
  0
LINE
  5
57D
100
AcDbEntity
  8
ASSI
100
AcDbLine
 62
7
  6
CONTINUOUS
 10
-95.2228376561
 20
-11.7700010448
 11
-95.2213778558
 21
-11.7607281491
  0
LINE
  5
57E
100
AcDbEntity
  8
ASSI
100
AcDbLine
 62
7
  6
CONTINUOUS
 10
-95.2213778558
 20
-11.7607281491
 11
-95.2196220802
 21
-11.7500442916
  0
LWPOLYLINE
  5
57F
100
AcDbEntity
  8
ASSI
100
AcDbPolyline
 62
7
  6
CONTINUOUS
 90
41
 70
0
 10
-95.2196220802
 20
-11.7500442916
 10
-95.2174900557
 20
-11.7376742054
 10
-95.2162402249
 20
-11.7306959154
 10
-95.2148537289
 20
-11.7231679565
 10
-95.2132698338
 20
-11.7148207409
 10
-95.2114875132
 20
-11.7057223499
 10
-95.209479319
 20
-11.6958108243
 10
-95.2071291638
 20
-11.6846248756
 10
-95.2044380657
 20
-11.6723074859
 10
-95.2013455996
 20
-11.658730005
 10
-95.1976045603
 20
-11.6430330699
 10
-95.1928412591
 20
-11.6240515401
 10
-95.1872490142
 20
-11.6030001879
 10
-95.1815073356
 20
-11.5825710366
 10
-95.1757648993
 20
-11.5631722908
 10
-95.1699312994
 20
-11.5443872472
 10
-95.164495686
 20
-11.527622496
 10
-95.1600472958
 20
-11.5143795934
 10
-95.1561530212
 20
-11.5031095117
 10
-95.1517322825
 20
-11.490654934
 10
-95.1464339455
 20
-11.4761681423
 10
-95.1405239619
 20
-11.4605304252
 10
-95.1337458962
 20
-11.4432148864
 10
-95.1257035389
 20
-11.4234488089
 10
-95.1166351141
 20
-11.4020758586
 10
-95.1072936907
 20
-11.3809713349
 10
-95.0976776391
 20
-11.3601171386
 10
-95.0878039805
 20
-11.3395363258
 10
-95.0786230652
 20
-11.3210891289
 10
-95.0710652076
 20
-11.3063632579
 10
-95.06439068
 20
-11.2936815718
 10
-95.0570246401
 20
-11.2800176678
 10
-95.0484417137
 20
-11.2645103858
 10
-95.0390801029
 20
-11.2480732837
 10
-95.0287045486
 20
-11.2303998799
 10
-95.0172903627
 20
-11.2115734985
 10
-95.0047528366
 20
-11.1915861803
 10
-94.9907269653
 20
-11.1700219529
 10
-94.9751716258
 20
-11.1470145052
 10
-94.957950043
 20
-11.1225689099
 10
-94.9384847144
 20
-11.0961303934
  0
LINE
  5
580
100
AcDbEntity
  8
RACCORDO
100
AcDbLine
 62
253
  6
CONTINUOUS
 10
-94.9115302483
 20
-7.0412896935
 11
-94.9162487586
 21
-7.0673262474
  0
LINE
  5
581
100
AcDbEntity
  8
RACCORDO
100
AcDbLine
 62
253
  6
CONTINUOUS
 10
-94.9114397938
 20
-11.0408177291
 11
-94.9162499678
 21
-11.0673380079
  0
LWPOLYLINE
  5
582
100
AcDbEntity
  8
RACCORDO
100
AcDbPolyline
 62
253
  6
CONTINUOUS
 90
7
 70
0
 10
-94.7289401444
 20
-14.9510442405
 10
-94.7408414852
 20
-15.0096178498
 10
-94.7541023559
 20
-15.0628092814
 10
-94.7686541771
 20
-15.1104078038
 10
-94.7842510647
 20
-15.1485179634
 10
-94.8008267761
 20
-15.1758261707
 10
-94.8185049075
 20
-15.1936113812
  0
LINE
  5
583
100
AcDbEntity
  8
RACCORDO
100
AcDbLine
 62
253
  6
CONTINUOUS
 10
-94.8953531444
 20
-6.9672327234
 11
-94.9115302483
 21
-7.0412896935
  0
LINE
  5
584
100
AcDbEntity
  8
RACCORDO
100
AcDbLine
 62
253
  6
CONTINUOUS
 10
-94.895248144
 20
-10.9667790542
 11
-94.9114397938
 21
-11.0408177291
  0
LWPOLYLINE
  5
585
100
AcDbEntity
  8
ASSI
100
AcDbPolyline
 62
7
  6
CONTINUOUS
 90
15
 70
0
 10
-95.1948395798
 20
-7.6318875763
 10
-95.1972109403
 20
-7.6414238712
 10
-95.2001320954
 20
-7.6535555963
 10
-95.2030354844
 20
-7.6660771826
 10
-95.2058529476
 20
-7.6787215705
 10
-95.2086379327
 20
-7.6917571781
 10
-95.2110955879
 20
-7.7037607455
 10
-95.2131378389
 20
-7.7141365736
 10
-95.2149096701
 20
-7.7234675659
 10
-95.2164931588
 20
-7.7320929244
 10
-95.217908616
 20
-7.7400546317
 10
-95.2191592946
 20
-7.7473059135
 10
-95.2202904996
 20
-7.7540551001
 10
-95.2213131752
 20
-7.7603258415
 10
-95.2230662918
 20
-7.7714885124
  0
LINE
  5
586
100
AcDbEntity
  8
ASSI
100
AcDbLine
 62
7
  6
CONTINUOUS
 10
-95.1927874654
 20
-7.6238430104
 11
-95.1948395798
 21
-7.6318875763
  0
LINE
  5
587
100
AcDbEntity
  8
ASSI
100
AcDbLine
 62
7
  6
CONTINUOUS
 10
-95.1910031241
 20
-7.6169949175
 11
-95.1927874654
 21
-7.6238430104
  0
LINE
  5
588
100
AcDbEntity
  8
ASSI
100
AcDbLine
 62
7
  6
CONTINUOUS
 10
-95.1887660001
 20
-7.6085904591
 11
-95.1910031241
 21
-7.6169949175
  0
LINE
  5
589
100
AcDbEntity
  8
ASSI
100
AcDbLine
 62
7
  6
CONTINUOUS
 10
-95.1862750985
 20
-7.5994554959
 11
-95.1887660001
 21
-7.6085904591
  0
LINE
  5
58A
100
AcDbEntity
  8
ASSI
100
AcDbLine
 62
7
  6
CONTINUOUS
 10
-95.1834870689
 20
-7.5894906731
 11
-95.1862750985
 21
-7.5994554959
  0
LINE
  5
58B
100
AcDbEntity
  8
ASSI
100
AcDbLine
 62
7
  6
CONTINUOUS
 10
-95.1803621662
 20
-7.5786246991
 11
-95.1834870689
 21
-7.5894906731
  0
LWPOLYLINE
  5
58C
100
AcDbEntity
  8
RACCORDO
100
AcDbPolyline
 62
7
  6
CONTINUOUS
 90
8
 70
0
 10
-94.8835938849
 20
-11.0182208335
 10
-94.8830933624
 20
-11.0168037862
 10
-94.8813788367
 20
-11.012232743
 10
-94.8820758882
 20
-11.0137935066
 10
-94.8859208374
 20
-11.0215310876
 10
-94.8931410902
 20
-11.0342276701
 10
-94.9037784329
 20
-11.0505488345
 10
-94.9165397802
 20
-11.0677281532
  0
LWPOLYLINE
  5
58D
100
AcDbEntity
  8
RACCORDO
100
AcDbPolyline
 62
7
  6
CONTINUOUS
 90
8
 70
0
 10
-94.883600633
 20
-7.0182394253
 10
-94.8830993121
 20
-7.0168209118
 10
-94.8813768465
 20
-7.0122333396
 10
-94.8820607336
 20
-7.0137662196
 10
-94.8858829467
 20
-7.0214609886
 10
-94.8930759569
 20
-7.034116309
 10
-94.9037014867
 20
-7.0504298713
 10
-94.9165370133
 20
-7.0677144162
  0
LWPOLYLINE
  5
58E
100
AcDbEntity
  8
RACCORDO
100
AcDbPolyline
 62
7
  6
CONTINUOUS
 90
12
 70
0
 10
-100.3693863445
 20
-5.3607724526
 10
-100.4176650093
 20
-5.3967452106
 10
-100.4624485362
 20
-5.4394868394
 10
-100.5038560093
 20
-5.4888278111
 10
-100.5413166372
 20
-5.5438493165
 10
-100.5747389525
 20
-5.6041077653
 10
-100.604048449
 20
-5.6692144782
 10
-100.6288082165
 20
-5.7378398223
 10
-100.6489469198
 20
-5.8092968345
 10
-100.6644552257
 20
-5.8828290413
 10
-100.6752120842
 20
-5.9566531705
 10
-100.6813713583
 20
-6.0295731173
  0
LINE
  5
58F
100
AcDbEntity
  8
DRAFT
100
AcDbLine
 62
7
  6
CONTINUOUS
 10
-79.5861845279
 20
-1.9504202204
 11
-82.3481481056
 21
-1.998630474
  0
LINE
  5
590
100
AcDbEntity
  8
ASSI
100
AcDbLine
 62
7
  6
CONTINUOUS
 10
-67.5481481056
 20
-2.6390612842
 11
-67.3481481056
 21
-2.6390612842
  0
LINE
  5
591
100
AcDbEntity
  8
0
100
AcDbLine
 62
7
  6
CONTINUOUS
 10
-67.5481481056
 20
-2.6390612842
 11
-67.3481481056
 21
-2.6390612842
  0
LINE
  5
592
100
AcDbEntity
  8
ASSI
100
AcDbLine
 62
7
  6
CONTINUOUS
 10
-67.5481481056
 20
-2.448630474
 11
-67.3481481056
 21
-2.448630474
  0
LINE
  5
593
100
AcDbEntity
  8
0
100
AcDbLine
 62
7
  6
CONTINUOUS
 10
-67.5481481056
 20
-2.448630474
 11
-67.3481481056
 21
-2.448630474
  0
LINE
  5
594
100
AcDbEntity
  8
ASSI
100
AcDbLine
 62
7
  6
CONTINUOUS
 10
-67.5481481056
 20
-2.5248130714
 11
-82.5481481056
 21
-2.2629870975
  0
LINE
  5
595
100
AcDbEntity
  8
RACCORDO
100
AcDbLine
 62
7
  6
CONTINUOUS
 10
-67.5481481056
 20
-2.5248130714
 11
-82.5481481056
 21
-2.2629870975
  0
LINE
  5
596
100
AcDbEntity
  8
RACCORDO
100
AcDbLine
 62
7
  6
CONTINUOUS
 10
-87.5481481056
 20
-47.498630474
 11
-87.5481481056
 21
47.501369526
  0
LWPOLYLINE
  5
597
100
AcDbEntity
  8
ASSI
100
AcDbPolyline
 62
253
  6
CONTINUOUS
 90
7
 70
0
 10
-86.0042742037
 20
25.9870546935
 10
-86.0045148033
 20
25.9853705349
 10
-86.0061288771
 20
25.9807536305
 10
-86.0090989065
 20
25.9732540907
 10
-86.0133926558
 20
25.962953313
 10
-86.0189635222
 20
25.9499630983
 10
-86.0257510414
 20
25.9344244379
  0
LWPOLYLINE
  5
598
100
AcDbEntity
  8
RACCORDO
100
AcDbPolyline
 62
253
  6
CONTINUOUS
 90
7
 70
0
 10
-86.0042742037
 20
25.9870546935
 10
-86.0045148033
 20
25.9853705349
 10
-86.0061288771
 20
25.9807536305
 10
-86.0090989065
 20
25.9732540907
 10
-86.0133926558
 20
25.962953313
 10
-86.0189635222
 20
25.9499630983
 10
-86.0257510414
 20
25.9344244379
  0
LINE
  5
599
100
AcDbEntity
  8
ASSI
100
AcDbLine
 62
253
  6
CONTINUOUS
 10
-80.2636502804
 20
13.833755075
 11
-78.5714734836
 21
17.4626399265
  0
LINE
  5
59A
100
AcDbEntity
  8
RACCORDO
100
AcDbLine
 62
253
  6
CONTINUOUS
 10
-80.2636502804
 20
13.833755075
 11
-78.5714734836
 21
17.4626399265
  0
LWPOLYLINE
  5
59B
100
AcDbEntity
  8
ASSI
100
AcDbPolyline
 62
7
  6
CONTINUOUS
 90
31
 70
0
 10
-94.9491063354
 20
-7.1104066253
 10
-94.9737936916
 20
-7.1450200083
 10
-94.995508235
 20
-7.1772824514
 10
-95.0143735449
 20
-7.2068607483
 10
-95.0311846332
 20
-7.2345743851
 10
-95.0461439307
 20
-7.260431055
 10
-95.0593164308
 20
-7.2842327618
 10
-95.0711745768
 20
-7.3065735321
 10
-95.0818373559
 20
-7.3274756226
 10
-95.0913426123
 20
-7.3468203903
 10
-95.0999776523
 20
-7.3650294087
 10
-95.1078138473
 20
-7.382123778
 10
-95.1148746895
 20
-7.3980308123
 10
-95.1213403586
 20
-7.4130505186
 10
-95.1272549053
 20
-7.4271996363
 10
-95.1326335468
 20
-7.4404323973
 10
-95.1375929327
 20
-7.4529649244
 10
-95.1421610797
 20
-7.4648097846
 10
-95.1463481603
 20
-7.4759373319
 10
-95.1502320145
 20
-7.4865057233
 10
-95.1538309818
 20
-7.4965242414
 10
-95.1571520368
 20
-7.5059731537
 10
-95.1602485878
 20
-7.5149701254
 10
-95.1631329628
 20
-7.5235220092
 10
-95.1658100473
 20
-7.531615335
 10
-95.1683174225
 20
-7.5393390671
 10
-95.170663577
 20
-7.546698297
 10
-95.1728519979
 20
-7.5536836145
 10
-95.1749097368
 20
-7.5603633178
 10
-95.176842767
 20
-7.5667412259
 10
-95.1803621662
 20
-7.5786246991
  0
LINE
  5
59C
100
AcDbEntity
  8
ASSI
100
AcDbLine
 62
7
  6
CONTINUOUS
 10
-94.9384847144
 20
-11.0961303934
 11
-94.9167364628
 21
-11.067960029
  0
LWPOLYLINE
  5
59D
100
AcDbEntity
  8
ASSI
100
AcDbPolyline
 62
7
  6
CONTINUOUS
 90
3
 70
0
 10
-94.9167304594
 20
-7.0679524407
 10
-94.9211035835
 20
-7.0735068698
 10
-94.9491063354
 20
-7.1104066253
  0
LINE
  5
59E
100
AcDbEntity
  8
RACCORDO
100
AcDbLine
 62
7
  6
CONTINUOUS
 10
-94.9165159611
 20
-11.0676818385
 11
-94.9166709908
 21
-11.0678772785
  0
LINE
  5
59F
100
AcDbEntity
  8
RACCORDO
100
AcDbLine
 62
7
  6
CONTINUOUS
 10
-94.9165127176
 20
-7.0676777509
 11
-94.9166689377
 21
-7.0678746837
  0
LINE
  5
5A0
100
AcDbEntity
  8
ASSI
100
AcDbLine
 62
7
  6
CONTINUOUS
 10
-67.5481481056
 20
2.5275521234
 11
-82.5481481056
 21
2.2657261495
  0
LINE
  5
5A1
100
AcDbEntity
  8
RACCORDO
100
AcDbLine
 62
7
  6
CONTINUOUS
 10
-67.5481481056
 20
2.5275521234
 11
-82.5481481056
 21
2.2657261495
  0
LINE
  5
5A2
100
AcDbEntity
  8
DRAFT
100
AcDbLine
 62
7
  6
CONTINUOUS
 10
-79.5861845279
 20
1.9531592724
 11
-82.3481481056
 21
2.001369526
  0
LWPOLYLINE
  5
5A3
100
AcDbEntity
  8
ASSI
100
AcDbPolyline
 62
7
  6
CONTINUOUS
 90
3
 70
0
 10
-79.5394219024
 20
-9.2311753975
 10
-79.4330332663
 20
-9.3805386056
 10
-79.4016898639
 20
-9.4250210088
  0
LWPOLYLINE
  5
5A4
100
AcDbEntity
  8
RACCORDO
100
AcDbPolyline
 62
7
  6
CONTINUOUS
 90
3
 70
0
 10
-79.5394219024
 20
-9.2311753975
 10
-79.4330332663
 20
-9.3805386056
 10
-79.4016898639
 20
-9.4250210088
  0
LINE
  5
5A5
100
AcDbEntity
  8
ASSI
100
AcDbLine
 62
253
  6
CONTINUOUS
 10
-86.4073635767
 20
26.0232751871
 11
-86.4072826159
 21
25.9813158206
  0
LINE
  5
5A6
100
AcDbEntity
  8
RACCORDO
100
AcDbLine
 62
253
  6
CONTINUOUS
 10
-86.4073635767
 20
26.0232751871
 11
-86.4072826159
 21
25.9813158206
  0
LINE
  5
5A7
100
AcDbEntity
  8
ASSI
100
AcDbLine
 62
7
  6
CONTINUOUS
 10
-83.7481481056
 20
-5.3151219963
 11
-83.7481481056
 21
-14.6821389517
  0
LINE
  5
5A8
100
AcDbEntity
  8
DRAFT
100
AcDbLine
 62
7
  6
CONTINUOUS
 10
-83.7481481056
 20
-5.3151219963
 11
-83.7481481056
 21
-14.6821389517
  0
LINE
  5
5A9
100
AcDbEntity
  8
ASSI
100
AcDbLine
 62
7
  6
CONTINUOUS
 10
-83.7481481056
 20
-19.4149597207
 11
-83.7481481056
 21
-26.5823012273
  0
LINE
  5
5AA
100
AcDbEntity
  8
DRAFT
100
AcDbLine
 62
7
  6
CONTINUOUS
 10
-83.7481481056
 20
-19.4149597207
 11
-83.7481481056
 21
-26.5823012273
  0
LINE
  5
5AB
100
AcDbEntity
  8
ASSI
100
AcDbLine
 62
253
  6
CONTINUOUS
 10
-86.4072826159
 20
25.9813158206
 11
-86.4075246475
 21
25.9305895844
  0
LINE
  5
5AC
100
AcDbEntity
  8
RACCORDO
100
AcDbLine
 62
253
  6
CONTINUOUS
 10
-86.4072826159
 20
25.9813158206
 11
-86.4075246475
 21
25.9305895844
  0
LINE
  5
5AD
100
AcDbEntity
  8
ASSI
100
AcDbLine
 62
253
  6
CONTINUOUS
 10
-86.4075246475
 20
25.9305895844
 11
-86.4084664082
 21
25.8429915009
  0
LINE
  5
5AE
100
AcDbEntity
  8
RACCORDO
100
AcDbLine
 62
253
  6
CONTINUOUS
 10
-86.4075246475
 20
25.9305895844
 11
-86.4084664082
 21
25.8429915009
  0
LINE
  5
5AF
100
AcDbEntity
  8
ASSI
100
AcDbLine
 62
253
  6
CONTINUOUS
 10
-86.4084664082
 20
25.8429915009
 11
-86.409440059
 21
25.7806402931
  0
LINE
  5
5B0
100
AcDbEntity
  8
RACCORDO
100
AcDbLine
 62
253
  6
CONTINUOUS
 10
-86.4084664082
 20
25.8429915009
 11
-86.409440059
 21
25.7806402931
  0
LINE
  5
5B1
100
AcDbEntity
  8
ASSI
100
AcDbLine
 62
7
  6
CONTINUOUS
 10
-78.9552560332
 20
14.3108408161
 11
-77.5022974743
 21
17.426720501
  0
LINE
  5
5B2
100
AcDbEntity
  8
RACCORDO
100
AcDbLine
 62
7
  6
CONTINUOUS
 10
-78.9552560332
 20
14.3108408161
 11
-77.5022974743
 21
17.426720501
  0
LINE
  5
5B3
100
AcDbEntity
  8
DRAFT
100
AcDbLine
 62
7
  6
CONTINUOUS
 10
-78.9552560332
 20
14.3108408161
 11
-77.5022974743
 21
17.426720501
  0
LINE
  5
5B4
100
AcDbEntity
  8
ASSI
100
AcDbLine
 62
253
  6
CONTINUOUS
 10
-67.5481481056
 20
7.2339144495
 11
-68.0394219024
 21
7.2339144495
  0
LINE
  5
5B5
100
AcDbEntity
  8
RACCORDO
100
AcDbLine
 62
253
  6
CONTINUOUS
 10
-67.5481481056
 20
7.2339144495
 11
-68.0394219024
 21
7.2339144495
  0
LWPOLYLINE
  5
5B6
100
AcDbEntity
  8
ASSI
100
AcDbPolyline
 62
7
  6
CONTINUOUS
 90
20
 70
0
 10
-79.4016898639
 20
-9.4250210088
 10
-79.34455955
 20
-9.5072616233
 10
-79.3181841098
 20
-9.5458482906
 10
-79.2933096798
 20
-9.5827419195
 10
-79.2693495486
 20
-9.6187472961
 10
-79.2463655439
 20
-9.6539335293
 10
-79.22442611
 20
-9.6882315101
 10
-79.2030817327
 20
-9.722238698
 10
-79.182362395
 20
-9.7562081808
 10
-79.1625361847
 20
-9.7898868706
 10
-79.1436244053
 20
-9.823112963
 10
-79.1257777855
 20
-9.8559935469
 10
-79.1092453005
 20
-9.8884215333
 10
-79.0942368961
 20
-9.9199138501
 10
-79.0809515115
 20
-9.9504851237
 10
-79.0696215766
 20
-9.9801207278
 10
-79.0604885207
 20
-10.0082937117
 10
-79.0537487962
 20
-10.0348284253
 10
-79.0495764216
 20
-10.0599005188
 10
-79.0481481056
 20
-10.0835099922
  0
LWPOLYLINE
  5
5B7
100
AcDbEntity
  8
RACCORDO
100
AcDbPolyline
 62
7
  6
CONTINUOUS
 90
20
 70
0
 10
-79.4016898639
 20
-9.4250210088
 10
-79.34455955
 20
-9.5072616233
 10
-79.3181841098
 20
-9.5458482906
 10
-79.2933096798
 20
-9.5827419195
 10
-79.2693495486
 20
-9.6187472961
 10
-79.2463655439
 20
-9.6539335293
 10
-79.22442611
 20
-9.6882315101
 10
-79.2030817327
 20
-9.722238698
 10
-79.182362395
 20
-9.7562081808
 10
-79.1625361847
 20
-9.7898868706
 10
-79.1436244053
 20
-9.823112963
 10
-79.1257777855
 20
-9.8559935469
 10
-79.1092453005
 20
-9.8884215333
 10
-79.0942368961
 20
-9.9199138501
 10
-79.0809515115
 20
-9.9504851237
 10
-79.0696215766
 20
-9.9801207278
 10
-79.0604885207
 20
-10.0082937117
 10
-79.0537487962
 20
-10.0348284253
 10
-79.0495764216
 20
-10.0599005188
 10
-79.0481481056
 20
-10.0835099922
  0
LINE
  5
5B8
100
AcDbEntity
  8
ASSI
100
AcDbLine
 62
7
  6
CONTINUOUS
 10
-82.5481481056
 20
2.2657261495
 11
-82.5481481056
 21
-2.2629870975
  0
LINE
  5
5B9
100
AcDbEntity
  8
DRAFT
100
AcDbLine
 62
7
  6
CONTINUOUS
 10
-82.5481481056
 20
2.2657261495
 11
-82.5481481056
 21
-2.2629870975
  0
LINE
  5
5BA
100
AcDbEntity
  8
DRAFT
100
AcDbLine
 62
7
  6
CONTINUOUS
 10
-82.3481481056
 20
-2.2664781105
 11
-82.3481481056
 21
2.2692171624
  0
LINE
  5
5BB
100
AcDbEntity
  8
DRAFT
100
AcDbLine
 62
7
  6
CONTINUOUS
 10
-81.7294427499
 20
-1.9878309319
 11
-81.7294427499
 21
1.9905699838
  0
LINE
  5
5BC
100
AcDbEntity
  8
0
100
AcDbLine
 62
7
  6
CONTINUOUS
 10
-78.0678715898
 20
10.9859216638
 11
-77.8981481056
 21
11.5563931163
  0
LINE
  5
5BD
100
AcDbEntity
  8
0
100
AcDbLine
 62
7
  6
CONTINUOUS
 10
-77.0284246214
 20
9.9464746955
 11
-77.1981481056
 21
9.3760032429
  0
LINE
  5
5BE
100
AcDbEntity
  8
0
100
AcDbLine
 62
7
  6
CONTINUOUS
 10
-77.1981481056
 20
9.3235032349
 11
-77.4755308669
 21
9.3235032349
  0
LINE
  5
5BF
100
AcDbEntity
  8
0
100
AcDbLine
 62
7
  6
CONTINUOUS
 10
-77.6207653443
 20
9.3235032349
 11
-77.8981481056
 21
9.3235032349
  0
LINE
  5
5C0
100
AcDbEntity
  8
0
100
AcDbLine
 62
7
  6
CONTINUOUS
 10
-74.4252555874
 20
9.8661981796
 11
-77.0523080426
 21
9.8661981796
  0
LINE
  5
5C1
100
AcDbEntity
  8
0
100
AcDbLine
 62
7
  6
CONTINUOUS
 10
-78.0439881686
 20
9.8661981796
 11
-80.6710406238
 21
9.8661981796
  0
LINE
  5
5C2
100
AcDbEntity
  8
0
100
AcDbLine
 62
7
  6
CONTINUOUS
 10
-76.0564460352
 20
10.1161981796
 11
-76.4579531689
 21
10.1161981796
  0
LINE
  5
5C3
100
AcDbEntity
  8
0
100
AcDbLine
 62
7
  6
CONTINUOUS
 10
-78.6383430423
 20
10.1161981796
 11
-79.0398501759
 21
10.1161981796
  0
LINE
  5
5C4
100
AcDbEntity
  8
0
100
AcDbLine
 62
7
  6
CONTINUOUS
 10
-76.0564460352
 20
10.8161981796
 11
-76.4579531689
 21
10.8161981796
  0
LINE
  5
5C5
100
AcDbEntity
  8
0
100
AcDbLine
 62
7
  6
CONTINUOUS
 10
-78.6383430423
 20
10.8161981796
 11
-79.0398501759
 21
10.8161981796
  0
LINE
  5
5C6
100
AcDbEntity
  8
0
100
AcDbLine
 62
7
  6
CONTINUOUS
 10
-80.6710406238
 20
11.0661981796
 11
-78.0439881686
 21
11.0661981796
  0
LINE
  5
5C7
100
AcDbEntity
  8
0
100
AcDbLine
 62
7
  6
CONTINUOUS
 10
-77.0523080426
 20
11.0661981796
 11
-74.4252555874
 21
11.0661981796
  0
LINE
  5
5C8
100
AcDbEntity
  8
ASSI
100
AcDbLine
 62
253
  6
CONTINUOUS
 10
-75.5481481056
 20
7.3649797529
 11
-68.0394219024
 21
7.2339144495
  0
LINE
  5
5C9
100
AcDbEntity
  8
RACCORDO
100
AcDbLine
 62
253
  6
CONTINUOUS
 10
-75.5481481056
 20
7.3649797529
 11
-68.0394219024
 21
7.2339144495
  0
LINE
  5
5CA
100
AcDbEntity
  8
ASSI
100
AcDbLine
 62
7
  6
CONTINUOUS
 10
-75.0764454465
 20
8.3565938475
 11
-68.0394219024
 21
8.2337621446
  0
LINE
  5
5CB
100
AcDbEntity
  8
RACCORDO
100
AcDbLine
 62
7
  6
CONTINUOUS
 10
-75.0764454465
 20
8.3565938475
 11
-68.0394219024
 21
8.2337621446
  0
LWPOLYLINE
  5
5CC
100
AcDbEntity
  8
0
100
AcDbPolyline
 62
7
  6
CONTINUOUS
 90
10
 70
0
 10
-77.8981481056
 20
8.528478198
 10
-77.8205039
 20
8.5267952194
 10
-77.7427929083
 20
8.5255329854
 10
-77.6650151305
 20
8.5246914961
 10
-77.5871260426
 20
8.5242707515
 10
-77.5091701686
 20
8.5242707515
 10
-77.4312810807
 20
8.5246914961
 10
-77.3535033029
 20
8.5255329854
 10
-77.2757923112
 20
8.5267952194
 10
-77.1981481056
 20
8.528478198
  0
LINE
  5
5CD
100
AcDbEntity
  8
ASSI
100
AcDbLine
 62
253
  6
CONTINUOUS
 10
-79.5394219024
 20
-17.4319086442
 11
-79.5374606203
 21
-17.6906779307
  0
LINE
  5
5CE
100
AcDbEntity
  8
RACCORDO
100
AcDbLine
 62
253
  6
CONTINUOUS
 10
-79.5394219024
 20
-17.4319086442
 11
-79.5374606203
 21
-17.6906779307
  0
LINE
  5
5CF
100
AcDbEntity
  8
ASSI
100
AcDbLine
 62
253
  6
CONTINUOUS
 10
-79.5374606203
 20
-17.6906779307
 11
-79.536229385
 21
-17.9318039323
  0
LINE
  5
5D0
100
AcDbEntity
  8
RACCORDO
100
AcDbLine
 62
253
  6
CONTINUOUS
 10
-79.5374606203
 20
-17.6906779307
 11
-79.536229385
 21
-17.9318039323
  0
LINE
  5
5D1
100
AcDbEntity
  8
ASSI
100
AcDbLine
 62
253
  6
CONTINUOUS
 10
-79.536229385
 20
-17.9318039323
 11
-79.5358092534
 21
-18.138863604
  0
LINE
  5
5D2
100
AcDbEntity
  8
RACCORDO
100
AcDbLine
 62
253
  6
CONTINUOUS
 10
-79.536229385
 20
-17.9318039323
 11
-79.5358092534
 21
-18.138863604
  0
LINE
  5
5D3
100
AcDbEntity
  8
DRAFT
100
AcDbLine
 62
7
  6
CONTINUOUS
 10
-79.5861845279
 20
1.9531592724
 11
-79.5861845279
 21
-1.9504202204
  0
LINE
  5
5D4
100
AcDbEntity
  8
ASSI
100
AcDbLine
 62
253
  6
CONTINUOUS
 10
-79.5394219024
 20
-9.2311753975
 11
-79.5394219024
 21
-17.4319086442
  0
LINE
  5
5D5
100
AcDbEntity
  8
RACCORDO
100
AcDbLine
 62
253
  6
CONTINUOUS
 10
-79.5394219024
 20
-9.2311753975
 11
-79.5394219024
 21
-17.4319086442
  0
LINE
  5
5D6
100
AcDbEntity
  8
ASSI
100
AcDbLine
 62
7
  6
CONTINUOUS
 10
-79.0481481056
 20
-10.0835099922
 11
-79.0481481056
 21
-17.9318324917
  0
LINE
  5
5D7
100
AcDbEntity
  8
RACCORDO
100
AcDbLine
 62
7
  6
CONTINUOUS
 10
-79.0481481056
 20
-10.0835099922
 11
-79.0481481056
 21
-17.9318324917
  0
LINE
  5
5D8
100
AcDbEntity
  8
0
100
AcDbLine
 62
7
  6
CONTINUOUS
 10
-79.0398501759
 20
10.1161981796
 11
-79.0398501759
 21
10.8161981796
  0
LINE
  5
5D9
100
AcDbEntity
  8
ASSI
100
AcDbLine
 62
7
  6
CONTINUOUS
 10
-78.7481481056
 20
-11.248630474
 11
-78.7481481056
 21
-15.748630474
  0
LINE
  5
5DA
100
AcDbEntity
  8
0
100
AcDbLine
 62
7
  6
CONTINUOUS
 10
-78.6908430503
 20
10.8161981796
 11
-78.6908430503
 21
10.5388154184
  0
LINE
  5
5DB
100
AcDbEntity
  8
0
100
AcDbLine
 62
7
  6
CONTINUOUS
 10
-78.6908430503
 20
10.3935809409
 11
-78.6908430503
 21
10.1161981796
  0
LINE
  5
5DC
100
AcDbEntity
  8
0
100
AcDbLine
 62
7
  6
CONTINUOUS
 10
-77.8981481056
 20
12.4039181613
 11
-77.8981481056
 21
11.5563931163
  0
LINE
  5
5DD
100
AcDbEntity
  8
0
100
AcDbLine
 62
7
  6
CONTINUOUS
 10
-77.8981481056
 20
9.3760032429
 11
-77.8981481056
 21
8.528478198
  0
LINE
  5
5DE
100
AcDbEntity
  8
0
100
AcDbLine
 62
7
  6
CONTINUOUS
 10
-77.1981481056
 20
12.4039181613
 11
-77.1981481056
 21
11.5563931163
  0
LINE
  5
5DF
100
AcDbEntity
  8
0
100
AcDbLine
 62
7
  6
CONTINUOUS
 10
-77.1981481056
 20
9.3760032429
 11
-77.1981481056
 21
8.528478198
  0
LINE
  5
5E0
100
AcDbEntity
  8
ASSI
100
AcDbLine
 62
253
  6
CONTINUOUS
 10
-77.0394219024
 20
17.4348000246
 11
-77.0394219024
 21
25.5679390278
  0
LINE
  5
5E1
100
AcDbEntity
  8
RACCORDO
100
AcDbLine
 62
253
  6
CONTINUOUS
 10
-77.0394219024
 20
17.4348000246
 11
-77.0394219024
 21
25.5679390278
  0
LINE
  5
5E2
100
AcDbEntity
  8
ASSI
100
AcDbLine
 62
7
  6
CONTINUOUS
 10
-76.5481481056
 20
17.9347238945
 11
-76.5481481056
 21
25.0679722268
  0
LINE
  5
5E3
100
AcDbEntity
  8
RACCORDO
100
AcDbLine
 62
7
  6
CONTINUOUS
 10
-76.5481481056
 20
17.9347238945
 11
-76.5481481056
 21
25.0679722268
  0
LINE
  5
5E4
100
AcDbEntity
  8
0
100
AcDbLine
 62
7
  6
CONTINUOUS
 10
-76.4054531609
 20
10.8161981796
 11
-76.4054531609
 21
10.5388154184
  0
LINE
  5
5E5
100
AcDbEntity
  8
0
100
AcDbLine
 62
7
  6
CONTINUOUS
 10
-76.4054531609
 20
10.3935809409
 11
-76.4054531609
 21
10.1161981796
  0
LINE
  5
5E6
100
AcDbEntity
  8
ASSI
100
AcDbLine
 62
253
  6
CONTINUOUS
 10
-79.5358092534
 20
-18.138863604
 11
-79.5360461031
 21
-18.2632034319
  0
LINE
  5
5E7
100
AcDbEntity
  8
RACCORDO
100
AcDbLine
 62
253
  6
CONTINUOUS
 10
-79.5358092534
 20
-18.138863604
 11
-79.5360461031
 21
-18.2632034319
  0
LINE
  5
5E8
100
AcDbEntity
  8
ASSI
100
AcDbLine
 62
253
  6
CONTINUOUS
 10
-79.5360461031
 20
-18.2632034319
 11
-79.5364627715
 21
-18.3285996388
  0
LINE
  5
5E9
100
AcDbEntity
  8
RACCORDO
100
AcDbLine
 62
253
  6
CONTINUOUS
 10
-79.5360461031
 20
-18.2632034319
 11
-79.5364627715
 21
-18.3285996388
  0
LWPOLYLINE
  5
5EA
100
AcDbEntity
  8
ASSI
100
AcDbPolyline
 62
253
  6
CONTINUOUS
 90
7
 70
0
 10
-79.5364627715
 20
-18.3285996388
 10
-79.537081083
 20
-18.378656895
 10
-79.5374605912
 20
-18.3976550722
 10
-79.5378877817
 20
-18.4125188014
 10
-79.5383606054
 20
-18.4231844096
 10
-79.5388734399
 20
-18.4296061152
 10
-79.5394219024
 20
-18.4317563393
  0
LWPOLYLINE
  5
5EB
100
AcDbEntity
  8
RACCORDO
100
AcDbPolyline
 62
253
  6
CONTINUOUS
 90
7
 70
0
 10
-79.5364627715
 20
-18.3285996388
 10
-79.537081083
 20
-18.378656895
 10
-79.5374605912
 20
-18.3976550722
 10
-79.5378877817
 20
-18.4125188014
 10
-79.5383606054
 20
-18.4231844096
 10
-79.5388734399
 20
-18.4296061152
 10
-79.5394219024
 20
-18.4317563393
  0
LINE
  5
5EC
100
AcDbEntity
  8
RACCORDO
100
AcDbLine
 62
253
  6
CONTINUOUS
 10
-94.8185049075
 20
-15.1936113812
 11
-94.837317815
 21
-15.2018645949
  0
LINE
  5
5ED
100
AcDbEntity
  8
0
100
AcDbLine
 62
7
  6
CONTINUOUS
 10
-77.1981481056
 20
11.6088931243
 11
-77.4755308669
 21
11.6088931243
  0
LINE
  5
5EE
100
AcDbEntity
  8
0
100
AcDbLine
 62
7
  6
CONTINUOUS
 10
-77.6207653443
 20
11.6088931243
 11
-77.8981481056
 21
11.6088931243
  0
LINE
  5
5EF
100
AcDbEntity
  8
ASSI
100
AcDbLine
 62
253
  6
CONTINUOUS
 10
-80.2636502804
 20
13.833755075
 11
-75.5481481056
 21
13.7514456784
  0
LINE
  5
5F0
100
AcDbEntity
  8
RACCORDO
100
AcDbLine
 62
253
  6
CONTINUOUS
 10
-80.2636502804
 20
13.833755075
 11
-75.5481481056
 21
13.7514456784
  0
LINE
  5
5F1
100
AcDbEntity
  8
ASSI
100
AcDbLine
 62
7
  6
CONTINUOUS
 10
-79.0934435794
 20
14.3132528887
 11
-75.5481481056
 21
14.251369526
  0
LINE
  5
5F2
100
AcDbEntity
  8
RACCORDO
100
AcDbLine
 62
7
  6
CONTINUOUS
 10
-79.0934435794
 20
14.3132528887
 11
-75.5481481056
 21
14.251369526
  0
LWPOLYLINE
  5
5F3
100
AcDbEntity
  8
0
100
AcDbPolyline
 62
7
  6
CONTINUOUS
 90
10
 70
0
 10
-77.1981481056
 20
12.4039181613
 10
-77.2757923112
 20
12.4056011399
 10
-77.3535033029
 20
12.4068633738
 10
-77.4312810807
 20
12.4077048632
 10
-77.5091701686
 20
12.4081256078
 10
-77.5871260426
 20
12.4081256078
 10
-77.6650151305
 20
12.4077048632
 10
-77.7427929083
 20
12.4068633738
 10
-77.8205039
 20
12.4056011399
 10
-77.8981481056
 20
12.4039181613
  0
LINE
  5
5F4
100
AcDbEntity
  8
0
100
AcDbLine
 62
7
  6
CONTINUOUS
 10
-78.6383430423
 20
10.1161981796
 11
-78.0678715898
 21
9.9464746955
  0
LINE
  5
5F5
100
AcDbEntity
  8
0
100
AcDbLine
 62
7
  6
CONTINUOUS
 10
-76.4579531689
 20
10.8161981796
 11
-77.0284246214
 21
10.9859216638
  0
LWPOLYLINE
  5
5F6
100
AcDbEntity
  8
ASSI
100
AcDbPolyline
 62
253
  6
CONTINUOUS
 90
7
 70
0
 10
-86.409440059
 20
26.0805946017
 10
-86.4089217124
 20
26.0789424686
 10
-86.4084663863
 20
26.0740232685
 10
-86.4080790674
 20
26.065890889
 10
-86.4077639973
 20
26.0546344052
 10
-86.4075246265
 20
26.0403771129
 10
-86.4073635767
 20
26.0232751871
  0
LWPOLYLINE
  5
5F7
100
AcDbEntity
  8
RACCORDO
100
AcDbPolyline
 62
253
  6
CONTINUOUS
 90
7
 70
0
 10
-86.409440059
 20
26.0805946017
 10
-86.4089217124
 20
26.0789424686
 10
-86.4084663863
 20
26.0740232685
 10
-86.4080790674
 20
26.065890889
 10
-86.4077639973
 20
26.0546344052
 10
-86.4075246265
 20
26.0403771129
 10
-86.4073635767
 20
26.0232751871
  0
LINE
  5
5F8
100
AcDbEntity
  8
0
100
AcDbLine
 62
7
  6
CONTINUOUS
 10
-76.0564460352
 20
10.1161981796
 11
-76.0564460352
 21
10.8161981796
  0
LINE
  5
5F9
100
AcDbEntity
  8
ASSI
100
AcDbLine
 62
7
  6
CONTINUOUS
 10
-75.5481481056
 20
14.251369526
 11
-75.5481481056
 21
13.0275080972
  0
LINE
  5
5FA
100
AcDbEntity
  8
RACCORDO
100
AcDbLine
 62
7
  6
CONTINUOUS
 10
-75.5481481056
 20
14.251369526
 11
-75.5481481056
 21
13.0275080972
  0
LINE
  5
5FB
100
AcDbEntity
  8
ASSI
100
AcDbLine
 62
7
  6
CONTINUOUS
 10
-75.5481481056
 20
7.3649797529
 11
-75.5481481056
 21
7.904888262
  0
LINE
  5
5FC
100
AcDbEntity
  8
RACCORDO
100
AcDbLine
 62
7
  6
CONTINUOUS
 10
-75.5481481056
 20
7.3649797529
 11
-75.5481481056
 21
7.904888262
  0
LINE
  5
5FD
100
AcDbEntity
  8
ASSI
100
AcDbLine
 62
7
  6
CONTINUOUS
 10
-77.5735714636
 20
17.4254764089
 11
-77.0394219024
 21
17.4348000242
  0
LINE
  5
5FE
100
AcDbEntity
  8
DRAFT
100
AcDbLine
 62
7
  6
CONTINUOUS
 10
-77.5735714636
 20
17.4254764089
 11
-77.0394219024
 21
17.4348000242
  0
LINE
  5
5FF
100
AcDbEntity
  8
ASSI
100
AcDbLine
 62
7
  6
CONTINUOUS
 10
-85.5357913695
 20
17.3607719296
 11
-78.5714734836
 21
17.4626399265
  0
LINE
  5
600
100
AcDbEntity
  8
DRAFT
100
AcDbLine
 62
7
  6
CONTINUOUS
 10
-85.5357913695
 20
17.3607719296
 11
-78.5714734836
 21
17.4626399265
  0
LINE
  5
601
100
AcDbEntity
  8
ASSI
100
AcDbLine
 62
7
  6
CONTINUOUS
 10
-87.5481481056
 20
17.3318006261
 11
-85.5357913695
 21
17.3607719296
  0
LINE
  5
602
100
AcDbEntity
  8
DRAFT
100
AcDbLine
 62
7
  6
CONTINUOUS
 10
-87.5481481056
 20
17.3318006261
 11
-85.5357913695
 21
17.3607719296
  0
LWPOLYLINE
  5
603
100
AcDbEntity
  8
ASSI
100
AcDbPolyline
 62
7
  6
CONTINUOUS
 90
9
 70
0
 10
-78.5714734836
 20
17.4626399265
 10
-78.4870414385
 20
17.4635675034
 10
-78.4040495983
 20
17.4633493871
 10
-78.3228835247
 20
17.4621663643
 10
-78.2438592215
 20
17.4602232904
 10
-78.1673898193
 20
17.4576579918
 10
-78.0939743805
 20
17.4545362563
 10
-78.0241228861
 20
17.4509582939
 10
-77.9579032271
 20
17.4470979172
  0
LWPOLYLINE
  5
604
100
AcDbEntity
  8
DRAFT
100
AcDbPolyline
 62
7
  6
CONTINUOUS
 90
9
 70
0
 10
-78.5714734836
 20
17.4626399265
 10
-78.4870414385
 20
17.4635675034
 10
-78.4040495983
 20
17.4633493871
 10
-78.3228835247
 20
17.4621663643
 10
-78.2438592215
 20
17.4602232904
 10
-78.1673898193
 20
17.4576579918
 10
-78.0939743805
 20
17.4545362563
 10
-78.0241228861
 20
17.4509582939
 10
-77.9579032271
 20
17.4470979172
  0
LINE
  5
605
100
AcDbEntity
  8
ASSI
100
AcDbLine
 62
7
  6
CONTINUOUS
 10
-77.5759826813
 20
17.4255096946
 11
-77.5679792963
 21
17.4255901659
  0
LINE
  5
606
100
AcDbEntity
  8
DRAFT
100
AcDbLine
 62
7
  6
CONTINUOUS
 10
-77.5759826813
 20
17.4255096946
 11
-77.5679792963
 21
17.4255901659
  0
LINE
  5
607
100
AcDbEntity
  8
0
100
AcDbLine
 62
7
  6
CONTINUOUS
 10
-77.8981481056
 20
9.3760032429
 11
-78.0678715898
 21
9.9464746955
  0
LINE
  5
608
100
AcDbEntity
  8
0
100
AcDbLine
 62
7
  6
CONTINUOUS
 10
-77.0284246214
 20
10.9859216638
 11
-77.1981481056
 21
11.5563931163
  0
LINE
  5
609
100
AcDbEntity
  8
RACCORDO
100
AcDbLine
 62
7
  6
CONTINUOUS
 10
-70.0481481056
 20
0.7663064739
 11
-70.0481481056
 21
-2.4811754091
  0
LWPOLYLINE
  5
60A
100
AcDbEntity
  8
ASSI
100
AcDbPolyline
 62
7
  6
CONTINUOUS
 90
5
 70
0
 10
-77.7302767504
 20
17.4320620354
 10
-77.6845860246
 20
17.4293048599
 10
-77.6437209829
 20
17.4271602744
 10
-77.6074942915
 20
17.4258545987
 10
-77.5759826813
 20
17.4255096946
  0
LWPOLYLINE
  5
60B
100
AcDbEntity
  8
DRAFT
100
AcDbPolyline
 62
7
  6
CONTINUOUS
 90
5
 70
0
 10
-77.7302767504
 20
17.4320620354
 10
-77.6845860246
 20
17.4293048599
 10
-77.6437209829
 20
17.4271602744
 10
-77.6074942915
 20
17.4258545987
 10
-77.5759826813
 20
17.4255096946
  0
LINE
  5
60C
100
AcDbEntity
  8
ASSI
100
AcDbLine
 62
7
  6
CONTINUOUS
 10
-77.9579032271
 20
17.4470979172
 11
-77.7302767504
 21
17.4320620354
  0
LINE
  5
60D
100
AcDbEntity
  8
DRAFT
100
AcDbLine
 62
7
  6
CONTINUOUS
 10
-77.9579032271
 20
17.4470979172
 11
-77.7302767504
 21
17.4320620354
  0
LINE
  5
60E
100
AcDbEntity
  8
ASSI
100
AcDbLine
 62
253
  6
CONTINUOUS
 10
-68.0370811315
 20
8.1806621508
 11
-68.0364628722
 21
8.1306047514
  0
LINE
  5
60F
100
AcDbEntity
  8
RACCORDO
100
AcDbLine
 62
253
  6
CONTINUOUS
 10
-68.0370811315
 20
8.1806621508
 11
-68.0364628722
 21
8.1306047514
  0
LINE
  5
610
100
AcDbEntity
  8
ASSI
100
AcDbLine
 62
253
  6
CONTINUOUS
 10
-68.0394219024
 20
-9.0304421508
 11
-68.0374606203
 21
-9.2892114374
  0
LINE
  5
611
100
AcDbEntity
  8
RACCORDO
100
AcDbLine
 62
253
  6
CONTINUOUS
 10
-68.0394219024
 20
-9.0304421508
 11
-68.0374606203
 21
-9.2892114374
  0
LINE
  5
612
100
AcDbEntity
  8
ASSI
100
AcDbLine
 62
253
  6
CONTINUOUS
 10
-68.0374606203
 20
-9.2892114374
 11
-68.036229385
 21
-9.530337439
  0
LINE
  5
613
100
AcDbEntity
  8
RACCORDO
100
AcDbLine
 62
253
  6
CONTINUOUS
 10
-68.0374606203
 20
-9.2892114374
 11
-68.036229385
 21
-9.530337439
  0
LINE
  5
614
100
AcDbEntity
  8
ASSI
100
AcDbLine
 62
253
  6
CONTINUOUS
 10
-68.0364628722
 20
8.1306047514
 11
-68.035914313
 21
8.0270984193
  0
LINE
  5
615
100
AcDbEntity
  8
RACCORDO
100
AcDbLine
 62
253
  6
CONTINUOUS
 10
-68.0364628722
 20
8.1306047514
 11
-68.035914313
 21
8.0270984193
  0
LINE
  5
616
100
AcDbEntity
  8
ASSI
100
AcDbLine
 62
253
  6
CONTINUOUS
 10
-68.036229385
 20
-9.530337439
 11
-68.0358092534
 21
-9.7373971106
  0
LINE
  5
617
100
AcDbEntity
  8
RACCORDO
100
AcDbLine
 62
253
  6
CONTINUOUS
 10
-68.036229385
 20
-9.530337439
 11
-68.0358092534
 21
-9.7373971106
  0
LINE
  5
618
100
AcDbEntity
  8
ASSI
100
AcDbLine
 62
7
  6
CONTINUOUS
 10
-69.0481481056
 20
-2.498630474
 11
-69.0481481056
 21
2.501369526
  0
LINE
  5
619
100
AcDbEntity
  8
DRAFT
100
AcDbLine
 62
7
  6
CONTINUOUS
 10
-69.0481481056
 20
-2.498630474
 11
-69.0481481056
 21
2.501369526
  0
LINE
  5
61A
100
AcDbEntity
  8
ASSI
100
AcDbLine
 62
253
  6
CONTINUOUS
 10
-68.0394219024
 20
7.2339144495
 11
-68.0394219024
 21
2.5189769074
  0
LINE
  5
61B
100
AcDbEntity
  8
RACCORDO
100
AcDbLine
 62
253
  6
CONTINUOUS
 10
-68.0394219024
 20
7.2339144495
 11
-68.0394219024
 21
2.5189769074
  0
LINE
  5
61C
100
AcDbEntity
  8
ASSI
100
AcDbLine
 62
253
  6
CONTINUOUS
 10
-68.0394219024
 20
-2.5162378554
 11
-68.0394219024
 21
-9.0304421508
  0
LINE
  5
61D
100
AcDbEntity
  8
RACCORDO
100
AcDbLine
 62
253
  6
CONTINUOUS
 10
-68.0394219024
 20
-2.5162378554
 11
-68.0394219024
 21
-9.0304421508
  0
LINE
  5
61E
100
AcDbEntity
  8
RACCORDO
100
AcDbLine
 62
7
  6
CONTINUOUS
 10
-67.5481481056
 20
7.733838297
 11
-67.5481481056
 21
2.5275521234
  0
LINE
  5
61F
100
AcDbEntity
  8
RACCORDO
100
AcDbLine
 62
7
  6
CONTINUOUS
 10
-67.5481481056
 20
-2.5248130714
 11
-67.5481481056
 21
-6.1862266335
  0
LINE
  5
620
100
AcDbEntity
  8
RACCORDO
100
AcDbLine
 62
7
  6
CONTINUOUS
 10
-67.5481481056
 20
-7.8110343145
 11
-67.5481481056
 21
-9.5303659984
  0
LINE
  5
621
100
AcDbEntity
  8
ASSI
100
AcDbLine
 62
7
  6
CONTINUOUS
 10
-67.5481481056
 20
-9.5303659984
 11
-67.5481481056
 21
7.733838297
  0
LINE
  5
622
100
AcDbEntity
  8
DRAFT
100
AcDbLine
 62
7
  6
CONTINUOUS
 10
-67.5481481056
 20
-2.5248130714
 11
-67.5481481056
 21
2.5275521234
  0
LINE
  5
623
100
AcDbEntity
  8
ASSI
100
AcDbLine
 62
7
  6
CONTINUOUS
 10
-67.3481481056
 20
-2.448630474
 11
-67.3481481056
 21
-3.948630474
  0
LINE
  5
624
100
AcDbEntity
  8
0
100
AcDbLine
 62
7
  6
CONTINUOUS
 10
-67.3481481056
 20
-2.448630474
 11
-67.3481481056
 21
-3.948630474
  0
LINE
  5
625
100
AcDbEntity
  8
ASSI
100
AcDbLine
 62
7
  6
CONTINUOUS
 10
-67.3481481056
 20
-4.4039384718
 11
-67.3481481056
 21
-5.6440978159
  0
LINE
  5
626
100
AcDbEntity
  8
0
100
AcDbLine
 62
7
  6
CONTINUOUS
 10
-67.3481481056
 20
-4.4039589474
 11
-67.3481481056
 21
-5.6442980576
  0
LINE
  5
627
100
AcDbEntity
  8
ASSI
100
AcDbLine
 62
253
  6
CONTINUOUS
 10
-68.035914313
 20
8.0270984193
 11
-68.0359142054
 21
7.842545003
  0
LINE
  5
628
100
AcDbEntity
  8
RACCORDO
100
AcDbLine
 62
253
  6
CONTINUOUS
 10
-68.035914313
 20
8.0270984193
 11
-68.0359142054
 21
7.842545003
  0
LINE
  5
629
100
AcDbEntity
  8
ASSI
100
AcDbLine
 62
253
  6
CONTINUOUS
 10
-68.0358092534
 20
-9.7373971106
 11
-68.0360461031
 21
-9.8617369385
  0
LINE
  5
62A
100
AcDbEntity
  8
RACCORDO
100
AcDbLine
 62
253
  6
CONTINUOUS
 10
-68.0358092534
 20
-9.7373971106
 11
-68.0360461031
 21
-9.8617369385
  0
LINE
  5
62B
100
AcDbEntity
  8
ASSI
100
AcDbLine
 62
253
  6
CONTINUOUS
 10
-68.0359142054
 20
7.842545003
 11
-68.0367477183
 21
7.6165188603
  0
LINE
  5
62C
100
AcDbEntity
  8
RACCORDO
100
AcDbLine
 62
253
  6
CONTINUOUS
 10
-68.0359142054
 20
7.842545003
 11
-68.0367477183
 21
7.6165188603
  0
LINE
  5
62D
100
AcDbEntity
  8
ASSI
100
AcDbLine
 62
253
  6
CONTINUOUS
 10
-68.0367477183
 20
7.6165188603
 11
-68.0383606054
 21
7.3644163168
  0
LINE
  5
62E
100
AcDbEntity
  8
RACCORDO
100
AcDbLine
 62
253
  6
CONTINUOUS
 10
-68.0367477183
 20
7.6165188603
 11
-68.0383606054
 21
7.3644163168
  0
LINE
  5
62F
100
AcDbEntity
  8
ASSI
100
AcDbLine
 62
253
  6
CONTINUOUS
 10
-68.0360461031
 20
-9.8617369385
 11
-68.0364627715
 21
-9.9271331454
  0
LINE
  5
630
100
AcDbEntity
  8
RACCORDO
100
AcDbLine
 62
253
  6
CONTINUOUS
 10
-68.0360461031
 20
-9.8617369385
 11
-68.0364627715
 21
-9.9271331454
  0
LINE
  5
631
100
AcDbEntity
  8
ASSI
100
AcDbLine
 62
253
  6
CONTINUOUS
 10
-68.0383606054
 20
7.3644163168
 11
-68.0394219024
 21
7.2339144495
  0
LINE
  5
632
100
AcDbEntity
  8
RACCORDO
100
AcDbLine
 62
253
  6
CONTINUOUS
 10
-68.0383606054
 20
7.3644163168
 11
-68.0394219024
 21
7.2339144495
  0
LWPOLYLINE
  5
633
100
AcDbEntity
  8
ASSI
100
AcDbPolyline
 62
253
  6
CONTINUOUS
 90
7
 70
0
 10
-68.0364627715
 20
-9.9271331454
 10
-68.037081083
 20
-9.9771904017
 10
-68.0374605912
 20
-9.9961885789
 10
-68.0378877817
 20
-10.011052308
 10
-68.0383606054
 20
-10.0217179163
 10
-68.0388734399
 20
-10.0281396218
 10
-68.0394219024
 20
-10.030289846
  0
LWPOLYLINE
  5
634
100
AcDbEntity
  8
RACCORDO
100
AcDbPolyline
 62
253
  6
CONTINUOUS
 90
7
 70
0
 10
-68.0364627715
 20
-9.9271331454
 10
-68.037081083
 20
-9.9771904017
 10
-68.0374605912
 20
-9.9961885789
 10
-68.0378877817
 20
-10.011052308
 10
-68.0383606054
 20
-10.0217179163
 10
-68.0388734399
 20
-10.0281396218
 10
-68.0394219024
 20
-10.030289846
  0
LWPOLYLINE
  5
635
100
AcDbEntity
  8
ASSI
100
AcDbPolyline
 62
7
  6
CONTINUOUS
 90
23
 70
0
 10
-85.3562578189
 20
25.6848796907
 10
-85.3531899697
 20
25.6829954551
 10
-85.3519625288
 20
25.6810746261
 10
-85.3525682292
 20
25.6791343195
 10
-85.3550261599
 20
25.6772076954
 10
-85.3592999655
 20
25.6753014746
 10
-85.3652994523
 20
25.6733925254
 10
-85.3730255146
 20
25.6715017236
 10
-85.3824592904
 20
25.6696492533
 10
-85.3934808454
 20
25.6678110869
 10
-85.4061456041
 20
25.6660199188
 10
-85.4203769406
 20
25.6642906751
 10
-85.4358479614
 20
25.6625912045
 10
-85.452554812
 20
25.6609836716
 10
-85.4704619534
 20
25.6594910572
 10
-85.4891837861
 20
25.6580455553
 10
-85.5085002529
 20
25.6566953488
 10
-85.5285854148
 20
25.6554900332
 10
-85.5496531057
 20
25.6543467514
 10
-85.571771265
 20
25.6532574635
 10
-85.5948553094
 20
25.6522670267
 10
-85.6189027718
 20
25.6513463106
 10
-85.643916237
 20
25.65051014
  0
LWPOLYLINE
  5
636
100
AcDbEntity
  8
RACCORDO
100
AcDbPolyline
 62
7
  6
CONTINUOUS
 90
23
 70
0
 10
-85.3562578189
 20
25.6848796907
 10
-85.3531899697
 20
25.6829954551
 10
-85.3519625288
 20
25.6810746261
 10
-85.3525682292
 20
25.6791343195
 10
-85.3550261599
 20
25.6772076954
 10
-85.3592999655
 20
25.6753014746
 10
-85.3652994523
 20
25.6733925254
 10
-85.3730255146
 20
25.6715017236
 10
-85.3824592904
 20
25.6696492533
 10
-85.3934808454
 20
25.6678110869
 10
-85.4061456041
 20
25.6660199188
 10
-85.4203769406
 20
25.6642906751
 10
-85.4358479614
 20
25.6625912045
 10
-85.452554812
 20
25.6609836716
 10
-85.4704619534
 20
25.6594910572
 10
-85.4891837861
 20
25.6580455553
 10
-85.5085002529
 20
25.6566953488
 10
-85.5285854148
 20
25.6554900332
 10
-85.5496531057
 20
25.6543467514
 10
-85.571771265
 20
25.6532574635
 10
-85.5948553094
 20
25.6522670267
 10
-85.6189027718
 20
25.6513463106
 10
-85.643916237
 20
25.65051014
  0
LWPOLYLINE
  5
637
100
AcDbEntity
  8
ASSI
100
AcDbPolyline
 62
253
  6
CONTINUOUS
 90
6
 70
0
 10
-68.0394219024
 20
8.2337621446
 10
-68.0388734396
 20
8.2316118881
 10
-68.0383606099
 20
8.2251900964
 10
-68.0378877959
 20
8.2145243644
 10
-68.0374606203
 20
8.1996604852
 10
-68.0370811315
 20
8.1806621508
  0
LWPOLYLINE
  5
638
100
AcDbEntity
  8
RACCORDO
100
AcDbPolyline
 62
253
  6
CONTINUOUS
 90
6
 70
0
 10
-68.0394219024
 20
8.2337621446
 10
-68.0388734396
 20
8.2316118881
 10
-68.0383606099
 20
8.2251900964
 10
-68.0378877959
 20
8.2145243644
 10
-68.0374606203
 20
8.1996604852
 10
-68.0370811315
 20
8.1806621508
  0
LWPOLYLINE
  5
639
100
AcDbEntity
  8
ASSI
100
AcDbPolyline
 62
7
  6
CONTINUOUS
 90
3
 70
0
 10
-85.643916237
 20
25.65051014
 10
-85.6967528514
 20
25.6491300235
 10
-85.7244870476
 20
25.6485792894
  0
LWPOLYLINE
  5
63A
100
AcDbEntity
  8
RACCORDO
100
AcDbPolyline
 62
7
  6
CONTINUOUS
 90
3
 70
0
 10
-85.643916237
 20
25.65051014
 10
-85.6967528514
 20
25.6491300235
 10
-85.7244870476
 20
25.6485792894
  0
LWPOLYLINE
  5
63B
100
AcDbEntity
  8
ASSI
100
AcDbPolyline
 62
7
  6
CONTINUOUS
 90
3
 70
0
 10
-85.7244870476
 20
25.6485792894
 10
-85.7827638735
 20
25.6478112652
 10
-85.8134166187
 20
25.6475864314
  0
LWPOLYLINE
  5
63C
100
AcDbEntity
  8
RACCORDO
100
AcDbPolyline
 62
7
  6
CONTINUOUS
 90
3
 70
0
 10
-85.7244870476
 20
25.6485792894
 10
-85.7827638735
 20
25.6478112652
 10
-85.8134166187
 20
25.6475864314
  0
LWPOLYLINE
  5
63D
100
AcDbEntity
  8
ASSI
100
AcDbPolyline
 62
7
  6
CONTINUOUS
 90
4
 70
0
 10
-85.8134166187
 20
25.6475864314
 10
-85.877816018
 20
25.6475118675
 10
-85.9116974064
 20
25.6476469996
 10
-85.9466599394
 20
25.6479396032
  0
LWPOLYLINE
  5
63E
100
AcDbEntity
  8
RACCORDO
100
AcDbPolyline
 62
7
  6
CONTINUOUS
 90
4
 70
0
 10
-85.8134166187
 20
25.6475864314
 10
-85.877816018
 20
25.6475118675
 10
-85.9116974064
 20
25.6476469996
 10
-85.9466599394
 20
25.6479396032
  0
LINE
  5
63F
100
AcDbEntity
  8
ASSI
100
AcDbLine
 62
7
  6
CONTINUOUS
 10
-85.9466599394
 20
25.6479396032
 11
-87.5481481056
 21
25.6709384259
  0
LINE
  5
640
100
AcDbEntity
  8
RACCORDO
100
AcDbLine
 62
7
  6
CONTINUOUS
 10
-85.9466599394
 20
25.6479396032
 11
-87.5481481056
 21
25.6709384259
  0
LINE
  5
641
100
AcDbEntity
  8
ASSI
100
AcDbLine
 62
7
  6
CONTINUOUS
 10
-85.4117215421
 20
25.7140780616
 11
-77.0394219024
 21
25.5679390278
  0
LINE
  5
642
100
AcDbEntity
  8
DRAFT
100
AcDbLine
 62
7
  6
CONTINUOUS
 10
-85.4117215421
 20
25.7140780616
 11
-77.0394219024
 21
25.5679390278
  0
LINE
  5
643
100
AcDbEntity
  8
ASSI
100
AcDbLine
 62
253
  6
CONTINUOUS
 10
-87.5481481056
 20
25.800516516
 11
-86.409440059
 21
25.7806402931
  0
LINE
  5
644
100
AcDbEntity
  8
RACCORDO
100
AcDbLine
 62
253
  6
CONTINUOUS
 10
-87.5481481056
 20
25.800516516
 11
-86.409440059
 21
25.7806402931
  0
LINE
  5
645
100
AcDbEntity
  8
ASSI
100
AcDbLine
 62
7
  6
CONTINUOUS
 10
-87.5481481056
 20
26.1004708246
 11
-86.409440059
 21
26.0805946017
  0
LINE
  5
646
100
AcDbEntity
  8
RACCORDO
100
AcDbLine
 62
7
  6
CONTINUOUS
 10
-87.5481481056
 20
26.1004708246
 11
-86.409440059
 21
26.0805946017
  0
LWPOLYLINE
  5
647
100
AcDbEntity
  8
ASSI
100
AcDbPolyline
 62
253
  6
CONTINUOUS
 90
10
 70
0
 10
-86.409440059
 20
25.7806402931
 10
-86.3768842259
 20
25.7793189778
 10
-86.3445097716
 20
25.7764907805
 10
-86.3123166961
 20
25.7721557013
 10
-86.2801991935
 20
25.7662892345
 10
-86.2482630698
 20
25.7589158858
 10
-86.2168257428
 20
25.7501091721
 10
-86.1859930186
 20
25.7398935989
 10
-86.1556590911
 20
25.7282446607
 10
-86.1258239603
 20
25.7151623574
  0
LWPOLYLINE
  5
648
100
AcDbEntity
  8
RACCORDO
100
AcDbPolyline
 62
253
  6
CONTINUOUS
 90
10
 70
0
 10
-86.409440059
 20
25.7806402931
 10
-86.3768842259
 20
25.7793189778
 10
-86.3445097716
 20
25.7764907805
 10
-86.3123166961
 20
25.7721557013
 10
-86.2801991935
 20
25.7662892345
 10
-86.2482630698
 20
25.7589158858
 10
-86.2168257428
 20
25.7501091721
 10
-86.1859930186
 20
25.7398935989
 10
-86.1556590911
 20
25.7282446607
 10
-86.1258239603
 20
25.7151623574
  0
LINE
  5
649
100
AcDbEntity
  8
ASSI
100
AcDbLine
 62
253
  6
CONTINUOUS
 10
-86.1258239603
 20
25.7151623574
 11
-85.9826909214
 21
25.6484183253
  0
LINE
  5
64A
100
AcDbEntity
  8
RACCORDO
100
AcDbLine
 62
253
  6
CONTINUOUS
 10
-86.1258239603
 20
25.7151623574
 11
-85.9826909214
 21
25.6484183253
  0
LINE
  5
64B
100
AcDbEntity
  8
ASSI
100
AcDbLine
 62
7
  6
CONTINUOUS
 10
-86.0042742037
 20
25.9870546935
 11
-85.3562578189
 21
25.6848796907
  0
LINE
  5
64C
100
AcDbEntity
  8
RACCORDO
100
AcDbLine
 62
7
  6
CONTINUOUS
 10
-86.0042742037
 20
25.9870546935
 11
-85.3562578189
 21
25.6848796907
  0
LWPOLYLINE
  5
64D
100
AcDbEntity
  8
RACCORDO
100
AcDbPolyline
 62
253
  6
CONTINUOUS
 90
25
 70
0
 10
-93.6142315728
 20
-47.1807205106
 10
-93.6108625423
 20
-47.1789723272
 10
-93.607384284
 20
-47.1731239052
 10
-93.6037654842
 20
-47.1627899679
 10
-93.5999358258
 20
-47.1476162965
 10
-93.5958980682
 20
-47.1272040859
 10
-93.5917231618
 20
-47.1010353539
 10
-93.5873532738
 20
-47.0687188125
 10
-93.5827575497
 20
-47.02979651
 10
-93.5780297322
 20
-46.9834625774
 10
-93.5730802194
 20
-46.9292027919
 10
-93.5678748845
 20
-46.8665254355
 10
-93.5625647849
 20
-46.7944254655
 10
-93.5570288861
 20
-46.7120487452
 10
-93.551221055
 20
-46.6192126549
 10
-93.5453988783
 20
-46.5159786528
 10
-93.5394973375
 20
-46.4020010259
 10
-93.5334353582
 20
-46.2774133216
 10
-93.5274806625
 20
-46.1434455193
 10
-93.5216393959
 20
-46.0005263604
 10
-93.5158336243
 20
-45.8491988831
 10
-93.5102573401
 20
-45.6913529908
 10
-93.5049899504
 20
-45.5283143915
 10
-93.4999741081
 20
-45.3607201251
 10
-93.4952324822
 20
-45.1896979191
  0
LINE
  5
64E
100
AcDbEntity
  8
RACCORDO
100
AcDbLine
 62
253
  6
CONTINUOUS
 10
-93.4836454685
 20
45.1930442207
 11
-87.5481481056
 21
45.5041104565
  0
LINE
  5
64F
100
AcDbEntity
  8
RACCORDO
100
AcDbLine
 62
253
  6
CONTINUOUS
 10
-94.5184479269
 20
46.1869283918
 11
-95.0226611336
 21
46.161020111
  0
LINE
  5
650
100
AcDbEntity
  8
RACCORDO
100
AcDbLine
 62
253
  6
CONTINUOUS
 10
-95.0226611336
 20
46.161020111
 11
-95.3889296039
 21
46.1427798325
  0
LINE
  5
651
100
AcDbEntity
  8
RACCORDO
100
AcDbLine
 62
253
  6
CONTINUOUS
 10
-95.3889296039
 20
46.1427798325
 11
-95.6213374407
 21
46.1316290035
  0
LINE
  5
652
100
AcDbEntity
  8
RACCORDO
100
AcDbLine
 62
253
  6
CONTINUOUS
 10
-95.6213374407
 20
46.1316290035
 11
-95.9422328779
 21
46.1170722183
  0
LINE
  5
653
100
AcDbEntity
  8
RACCORDO
100
AcDbLine
 62
253
  6
CONTINUOUS
 10
-96.3613793155
 20
46.0998516987
 11
-96.5534826868
 21
46.0919901692
  0
LINE
  5
654
100
AcDbEntity
  8
RACCORDO
100
AcDbLine
 62
253
  6
CONTINUOUS
 10
-95.9422328779
 20
46.1170722183
 11
-96.3613793155
 21
46.0998516987
  0
LINE
  5
655
100
AcDbEntity
  8
RACCORDO
100
AcDbLine
 62
253
  6
CONTINUOUS
 10
-94.4271148781
 20
45.1930636643
 11
-93.483645322
 21
45.1930442207
  0
LINE
  5
656
100
AcDbEntity
  8
RACCORDO
100
AcDbLine
 62
7
  6
CONTINUOUS
 10
-95.6052866009
 20
47.0791127901
 11
-87.5481481056
 21
47.501369526
  0
ARC
  5
657
100
AcDbEntity
  8
RACCORDO
100
AcDbCircle
 62
7
  6
CONTINUOUS
 10
-113.5406393477
 20
-45.135049384
 40
1.0
100
AcDbArc
 50
179.6271515688
 51
267.0000026772
  0
ARC
  5
658
100
AcDbEntity
  8
RACCORDO
100
AcDbCircle
 62
7
  6
CONTINUOUS
 10
-95.5535598982
 20
46.0804513257
 40
1.0
100
AcDbArc
 50
92.9999999999
 51
179.3429087652
  0
ARC
  5
659
100
AcDbEntity
  8
ASSI
100
AcDbCircle
 62
7
  6
CONTINUOUS
 10
-66.5981481056
 20
-6.998630474
 40
1.25
100
AcDbArc
 50
139.4641978887
 51
220.5358021113
  0
ARC
  5
65A
100
AcDbEntity
  8
ASSI
100
AcDbCircle
 62
7
  6
CONTINUOUS
 10
-79.5481481056
 20
-17.9318254639
 40
0.5
100
AcDbArc
 50
270.9999859461
 51
359.9991946667
  0
ARC
  5
65B
100
AcDbEntity
  8
ASSI
100
AcDbCircle
 62
7
  6
CONTINUOUS
 10
-68.0481481056
 20
-9.5303659984
 40
0.5
100
AcDbArc
 50
271.0
 51
360.0
  0
ARC
  5
65C
100
AcDbEntity
  8
RACCORDO
100
AcDbCircle
 62
7
  6
CONTINUOUS
 10
-79.5481481056
 20
-17.9318254639
 40
0.5
100
AcDbArc
 50
270.9999859461
 51
359.9991946667
  0
ARC
  5
65D
100
AcDbEntity
  8
RACCORDO
100
AcDbCircle
 62
7
  6
CONTINUOUS
 10
-68.0481481056
 20
-9.5303659984
 40
0.5
100
AcDbArc
 50
271.0
 51
360.0
  0
CIRCLE
  5
65E
100
AcDbEntity
  8
0
100
AcDbCircle
 62
7
  6
CONTINUOUS
 10
-77.5481481056
 20
10.4661981796
 40
3.25
  0
ARC
  5
65F
100
AcDbEntity
  8
0
100
AcDbCircle
 62
7
  6
CONTINUOUS
 10
-77.5481481056
 20
10.4661981796
 40
3.1800090692
100
AcDbArc
 50
169.1243149002
 51
190.8756850998
  0
ARC
  5
660
100
AcDbEntity
  8
0
100
AcDbCircle
 62
7
  6
CONTINUOUS
 10
-77.5481481056
 20
10.4661981796
 40
3.1800090692
100
AcDbArc
 50
349.1243149002
 51
10.8756850998
  0
ARC
  5
661
100
AcDbEntity
  8
0
100
AcDbCircle
 62
253
  6
CONTINUOUS
 10
-77.5481481056
 20
10.4661981796
 40
3.1554439925
100
AcDbArc
 50
10.9613962005
 51
169.0386037995
  0
ARC
  5
662
100
AcDbEntity
  8
0
100
AcDbCircle
 62
253
  6
CONTINUOUS
 10
-77.5481481056
 20
10.4661981796
 40
3.1554439925
100
AcDbArc
 50
190.9613962005
 51
349.0386037995
  0
ARC
  5
663
100
AcDbEntity
  8
0
100
AcDbCircle
 62
253
  6
CONTINUOUS
 10
-77.5481481056
 20
10.4661981796
 40
3.0500528323
100
AcDbArc
 50
11.3450962605
 51
168.6549037395
  0
ARC
  5
664
100
AcDbEntity
  8
0
100
AcDbCircle
 62
253
  6
CONTINUOUS
 10
-77.5481481056
 20
10.4661981796
 40
3.0500528323
100
AcDbArc
 50
191.3450962605
 51
348.6549037395
  0
ARC
  5
665
100
AcDbEntity
  8
RACCORDO
100
AcDbCircle
 62
7
  6
CONTINUOUS
 10
-72.0481481056
 20
0.7663064739
 40
2.0
100
AcDbArc
 50
0.0
 51
58.2922840303
  0
ARC
  5
666
100
AcDbEntity
  8
0
100
AcDbCircle
 62
7
  6
CONTINUOUS
 10
-77.5481481056
 20
10.4661981796
 40
1.145
100
AcDbArc
 50
266.3637942714
 51
273.6362057286
  0
ARC
  5
667
100
AcDbEntity
  8
0
100
AcDbCircle
 62
7
  6
CONTINUOUS
 10
-77.5481481056
 20
10.4661981796
 40
1.145
100
AcDbArc
 50
86.3637942714
 51
93.6362057286
  0
ARC
  5
668
100
AcDbEntity
  8
0
100
AcDbCircle
 62
7
  6
CONTINUOUS
 10
-77.5481481056
 20
10.4661981796
 40
1.145
100
AcDbArc
 50
356.3637942714
 51
3.6362057286
  0
ARC
  5
669
100
AcDbEntity
  8
0
100
AcDbCircle
 62
7
  6
CONTINUOUS
 10
-77.5481481056
 20
10.4661981796
 40
1.145
100
AcDbArc
 50
176.3637942714
 51
183.6362057286
  0
ARC
  5
66A
100
AcDbEntity
  8
ASSI
100
AcDbCircle
 62
7
  6
CONTINUOUS
 10
-86.4268924655
 20
25.0807469065
 40
1.0
100
AcDbArc
 50
65.0
 51
89.0
  0
ARC
  5
66B
100
AcDbEntity
  8
RACCORDO
100
AcDbCircle
 62
7
  6
CONTINUOUS
 10
-86.4268924655
 20
25.0807469065
 40
1.0
100
AcDbArc
 50
65.0
 51
89.0
  0
ARC
  5
66C
100
AcDbEntity
  8
ASSI
100
AcDbCircle
 62
7
  6
CONTINUOUS
 10
-77.0481481056
 20
25.0680151802
 40
0.5
100
AcDbArc
 50
0.0
 51
89.0
  0
ARC
  5
66D
100
AcDbEntity
  8
ASSI
100
AcDbCircle
 62
7
  6
CONTINUOUS
 10
-77.0481481056
 20
17.9347238718
 40
0.5
100
AcDbArc
 50
271.0
 51
360.0
  0
ARC
  5
66E
100
AcDbEntity
  8
ASSI
100
AcDbCircle
 62
7
  6
CONTINUOUS
 10
-68.0481481056
 20
7.733838297
 40
0.5
100
AcDbArc
 50
0.0
 51
89.0
  0
ARC
  5
66F
100
AcDbEntity
  8
RACCORDO
100
AcDbCircle
 62
7
  6
CONTINUOUS
 10
-77.0481481056
 20
25.0680151802
 40
0.5
100
AcDbArc
 50
0.0
 51
89.0
  0
ARC
  5
670
100
AcDbEntity
  8
RACCORDO
100
AcDbCircle
 62
7
  6
CONTINUOUS
 10
-77.0481481056
 20
17.9347238718
 40
0.5
100
AcDbArc
 50
271.0
 51
360.0
  0
ARC
  5
671
100
AcDbEntity
  8
RACCORDO
100
AcDbCircle
 62
7
  6
CONTINUOUS
 10
-68.0481481056
 20
7.733838297
 40
0.5
100
AcDbArc
 50
0.0
 51
89.0
  0
ELLIPSE
  5
672
100
AcDbEntity
  8
RACCORDO
100
AcDbEllipse
 62
7
  6
CONTINUOUS
 10
49.5646994317
 20
-14.3379873361
 30
0.0
 11
48.95
 21
0.0011072196
 31
0.0
 40
0.0087268385
 41
-1.7474954401
 42
-1.687958939
  0
ELLIPSE
  5
673
100
AcDbEntity
  8
RACCORDO
100
AcDbEllipse
 62
7
  6
CONTINUOUS
 10
49.5646994317
 20
-5.6592736119
 30
0.0
 11
48.95
 21
-0.0011072196
 31
0.0
 40
0.0087268385
 41
1.6880791407
 42
1.7474954401
  0
ELLIPSE
  5
674
100
AcDbEntity
  8
RACCORDO
100
AcDbEllipse
 62
7
  6
CONTINUOUS
 10
49.5646994317
 20
-5.6592736119
 30
0.0
 11
47.7048643884
 21
-0.0010790554
 31
0.0
 40
0.0087268385
 41
1.8482191221
 42
2.0821414809
  0
ELLIPSE
  5
675
100
AcDbEntity
  8
RACCORDO
100
AcDbEllipse
 62
7
  6
CONTINUOUS
 10
49.5646994317
 20
-14.3379873361
 30
0.0
 11
47.7048643884
 21
0.0010790554
 31
0.0
 40
0.0087268385
 41
-2.0821414809
 42
-1.8482191221
  0
ELLIPSE
  5
676
100
AcDbEntity
  8
RACCORDO
100
AcDbEllipse
 62
7
  6
CONTINUOUS
 10
26.2241765315
 20
-13.8986000113
 30
0.0
 11
0.5531241936
 21
0.5780562313
 31
0.0
 40
0.9999237765
 41
-3.9489898986
 42
-3.2227494634
  0
ELLIPSE
  5
677
100
AcDbEntity
  8
RACCORDO
100
AcDbEllipse
 62
7
  6
CONTINUOUS
 10
26.2241765315
 20
-6.0986609367
 30
0.0
 11
-0.5531241936
 21
0.5780562313
 31
0.0
 40
0.9999237765
 41
0.0811568098
 42
0.807397245
  0
ELLIPSE
  5
678
100
AcDbEntity
  8
DRAFT
100
AcDbEllipse
 62
7
  6
CONTINUOUS
 10
39.0
 20
-5.2174706036
 30
0.0
 11
0.75
 21
-0.0000169645
 31
0.0
 40
0.0087268385
 41
-3.1390007243
 42
-0.0000575146
  0
ELLIPSE
  5
679
100
AcDbEntity
  8
DRAFT
100
AcDbEllipse
 62
7
  6
CONTINUOUS
 10
39.0
 20
-14.7797903445
 30
0.0
 11
0.75
 21
0.0000169645
 31
0.0
 40
0.0087268385
 41
0.0000575146
 42
3.1390007243
  0
ELLIPSE
  5
67A
100
AcDbEntity
  8
RACCORDO
100
AcDbEllipse
 62
7
  6
CONTINUOUS
 10
-49.4335266109
 20
-5.6592736119
 30
0.0
 11
48.95
 21
0.0
 31
0.0
 40
0.0087268678
 41
1.3966891428
 42
1.4563316204
  0
ELLIPSE
  5
67B
100
AcDbEntity
  8
RACCORDO
100
AcDbEllipse
 62
7
  6
CONTINUOUS
 10
-49.4335266109
 20
-14.3379873361
 30
0.0
 11
48.95
 21
-0.0
 31
0.0
 40
0.0087268678
 41
-1.4562114667
 42
-1.3966891428
  0
ELLIPSE
  5
67C
100
AcDbEntity
  8
RACCORDO
100
AcDbEllipse
 62
7
  6
CONTINUOUS
 10
-49.4335266109
 20
-14.3379873361
 30
0.0
 11
47.7048643884
 21
0.0
 31
0.0
 40
0.0087268678
 41
-1.2959654608
 42
-1.062043102
  0
ELLIPSE
  5
67D
100
AcDbEntity
  8
RACCORDO
100
AcDbEllipse
 62
7
  6
CONTINUOUS
 10
-49.4335266109
 20
-5.6592736119
 30
0.0
 11
47.7048643884
 21
-0.0
 31
0.0
 40
0.0087268678
 41
1.062043102
 42
1.2959654608
  0
ELLIPSE
  5
67E
100
AcDbEntity
  8
RACCORDO
100
AcDbEllipse
 62
7
  6
CONTINUOUS
 10
-26.2000304627
 20
-6.0986609367
 30
0.0
 11
0.5657285049
 21
0.5657285049
 31
0.0
 40
0.9999238505
 41
-0.7853600872
 42
-0.059119652
  0
ELLIPSE
  5
67F
100
AcDbEntity
  8
RACCORDO
100
AcDbEllipse
 62
7
  6
CONTINUOUS
 10
-26.2000304627
 20
-13.8986000113
 30
0.0
 11
0.5657285049
 21
-0.5657285049
 31
0.0
 40
0.9999238505
 41
0.059119652
 42
0.7853600872
  0
ELLIPSE
  5
680
100
AcDbEntity
  8
DRAFT
100
AcDbEllipse
 62
7
  6
CONTINUOUS
 10
-39.0
 20
-14.7797903445
 30
0.0
 11
0.75
 21
0.0
 31
0.0
 40
0.0087268678
 41
0.0
 42
3.1415926536
  0
ELLIPSE
  5
681
100
AcDbEntity
  8
DRAFT
100
AcDbEllipse
 62
7
  6
CONTINUOUS
 10
-39.0
 20
-5.2174706036
 30
0.0
 11
0.75
 21
0.0
 31
0.0
 40
0.0087268678
 41
3.1415926536
 42
6.2831853072
  0
ELLIPSE
  5
682
100
AcDbEntity
  8
RACCORDO
100
AcDbEllipse
 62
7
  6
CONTINUOUS
 10
-11.2829233057
 20
-47.0015979949
 30
0.0
 11
0.4871252033
 21
0.1158603371
 31
0.0
 40
0.998011014
 41
-2.9055826569
 42
-1.8047513509
  0
ELLIPSE
  5
683
100
AcDbEntity
  8
RACCORDO
100
AcDbEllipse
 62
7
  6
CONTINUOUS
 10
11.2829233057
 20
-47.0015979949
 30
0.0
 11
0.4871252033
 21
-0.1158603371
 31
0.0
 40
0.998011014
 41
-1.3368413027
 42
-0.2360099967
  0
ELLIPSE
  5
684
100
AcDbEntity
  8
DRAFT
100
AcDbEllipse
 62
7
  6
CONTINUOUS
 10
26.2
 20
-13.294818512
 30
0.0
 11
-0.0
 21
1.4077311343
 31
0.0
 40
0.8660473877
 41
-4.1888341742
 42
-4.1586733126
  0
ELLIPSE
  5
685
100
AcDbEntity
  8
DRAFT
100
AcDbEllipse
 62
7
  6
CONTINUOUS
 10
26.2
 20
-6.702442436
 30
0.0
 11
0.0
 21
1.4077311343
 31
0.0
 40
0.8660473877
 41
7.3002659662
 42
7.3304268278
  0
ELLIPSE
  5
686
100
AcDbEntity
  8
DRAFT
100
AcDbEllipse
 62
7
  6
CONTINUOUS
 10
-26.2
 20
-13.294818512
 30
0.0
 11
0.0
 21
1.4077311343
 31
0.0
 40
0.8660473877
 41
4.1586733126
 42
4.1888341742
  0
ELLIPSE
  5
687
100
AcDbEntity
  8
DRAFT
100
AcDbEllipse
 62
7
  6
CONTINUOUS
 10
-26.2
 20
-6.702442436
 30
0.0
 11
0.0
 21
1.4077311343
 31
0.0
 40
0.8660473877
 41
-1.0472415206
 42
-1.017080659
  0
ELLIPSE
  5
688
100
AcDbEntity
  8
RACCORDO
100
AcDbEllipse
 62
7
  6
CONTINUOUS
 10
0.0
 20
-48.0227082668
 30
0.0
 11
30.0
 21
-0.0
 31
0.0
 40
0.0524077793
 41
1.2898289005
 42
1.8517637531
  0
ELLIPSE
  5
689
100
AcDbEntity
  8
RACCORDO
100
AcDbEllipse
 62
7
  6
CONTINUOUS
 10
-7.2094170048
 20
-46.7135368629
 30
0.0
 11
4.0
 21
0.0
 31
0.0
 40
0.0524077793
 41
1.8517637531
 42
3.089232776
  0
ELLIPSE
  5
68A
100
AcDbEntity
  8
RACCORDO
100
AcDbEllipse
 62
7
  6
CONTINUOUS
 10
7.2094170048
 20
-46.7135368629
 30
0.0
 11
4.0
 21
0.0
 31
0.0
 40
0.0524077793
 41
0.0523598776
 42
1.2898289005
  0
ELLIPSE
  5
68B
100
AcDbEntity
  8
RACCORDO
100
AcDbEllipse
 62
7
  6
CONTINUOUS
 10
45.497255308
 20
-45.495885782
 30
0.0
 11
1.4180924869
 21
-1.4180924869
 31
0.0
 40
0.9972646886
 41
-0.7840286355
 42
0.7840286355
  0
ELLIPSE
  5
68C
100
AcDbEntity
  8
RACCORDO
100
AcDbEllipse
 62
7
  6
CONTINUOUS
 10
45.497255308
 20
45.498624834
 30
0.0
 11
1.4180924869
 21
1.4180924869
 31
0.0
 40
0.9972646886
 41
-0.7840286355
 42
0.7840286355
  0
ELLIPSE
  5
68D
100
AcDbEntity
  8
RACCORDO
100
AcDbEllipse
 62
7
  6
CONTINUOUS
 10
-45.497255308
 20
45.498624834
 30
0.0
 11
1.4180924869
 21
-1.4180924869
 31
0.0
 40
0.9972646886
 41
-2.8803690599
 42
-2.3575640181
  0
ELLIPSE
  5
68E
100
AcDbEntity
  8
RACCORDO
100
AcDbEllipse
 62
7
  6
CONTINUOUS
 10
-45.497255308
 20
45.498624834
 30
0.0
 11
-1.4180924869
 21
1.4180924869
 31
0.0
 40
0.9972646886
 41
-0.2612309992
 42
0.2612235937
  0
ELLIPSE
  5
68F
100
AcDbEntity
  8
RACCORDO
100
AcDbEllipse
 62
7
  6
CONTINUOUS
 10
-45.497255308
 20
45.498624834
 30
0.0
 11
1.4180924869
 21
-1.4180924869
 31
0.0
 40
0.9972646886
 41
2.3575640181
 42
2.8803616544
  0
ELLIPSE
  5
690
100
AcDbEntity
  8
RACCORDO
100
AcDbEllipse
 62
7
  6
CONTINUOUS
 10
-45.497255308
 20
-45.495885782
 30
0.0
 11
1.4180924869
 21
1.4180924869
 31
0.0
 40
0.9972646886
 41
-3.9256212891
 42
-2.3575640181
  0
ELLIPSE
  5
691
100
AcDbEntity
  8
RACCORDO
100
AcDbEllipse
 62
7
  6
CONTINUOUS
 10
49.4335266109
 20
-4.583008069
 30
0.0
 11
49.65
 21
-0.0
 31
0.0
 40
0.0087268678
 41
-2.0577616784
 42
-1.8379687581
  0
ELLIPSE
  5
692
100
AcDbEntity
  8
RACCORDO
100
AcDbEllipse
 62
7
  6
CONTINUOUS
 10
-49.4335266109
 20
-4.583008069
 30
0.0
 11
49.65
 21
-0.0
 31
0.0
 40
0.0087268678
 41
-1.3036238955
 42
-1.0838309752
  0
ELLIPSE
  5
693
100
AcDbEntity
  8
RACCORDO
100
AcDbEllipse
 62
7
  6
CONTINUOUS
 10
-36.1144619686
 20
-14.9896026478
 30
0.0
 11
0.8
 21
0.0
 31
0.0
 40
0.0087268678
 41
-2.7052603406
 42
-1.8379687581
  0
ELLIPSE
  5
694
100
AcDbEntity
  8
RACCORDO
100
AcDbEllipse
 62
7
  6
CONTINUOUS
 10
-36.1144619686
 20
-5.0076583002
 30
0.0
 11
0.8
 21
-0.0
 31
0.0
 40
0.0087268678
 41
1.8379687581
 42
2.7052603406
  0
ELLIPSE
  5
695
100
AcDbEntity
  8
RACCORDO
100
AcDbEllipse
 62
7
  6
CONTINUOUS
 10
36.1144619686
 20
-14.9896026478
 30
0.0
 11
0.8
 21
0.0
 31
0.0
 40
0.0087268678
 41
-1.3036238955
 42
-0.436332313
  0
ELLIPSE
  5
696
100
AcDbEntity
  8
RACCORDO
100
AcDbEllipse
 62
7
  6
CONTINUOUS
 10
36.1144619686
 20
-5.0076583002
 30
0.0
 11
0.8
 21
0.0
 31
0.0
 40
0.0087268678
 41
0.436332313
 42
1.3036238955
  0
ELLIPSE
  5
697
100
AcDbEntity
  8
RACCORDO
100
AcDbEllipse
 62
7
  6
CONTINUOUS
 10
49.4335266109
 20
-15.414252879
 30
0.0
 11
49.65
 21
-0.0
 31
0.0
 40
0.0087268678
 41
1.8379687581
 42
2.0577616784
  0
ELLIPSE
  5
698
100
AcDbEntity
  8
RACCORDO
100
AcDbEllipse
 62
7
  6
CONTINUOUS
 10
-49.4335266109
 20
-15.414252879
 30
0.0
 11
49.65
 21
0.0
 31
0.0
 40
0.0087268678
 41
1.0838309752
 42
1.3036238955
  0
ENDSEC
  0
SECTION
  2
OBJECTS
  0
DICTIONARY
  5
C
100
AcDbDictionary
280
0
281
1
  3
ACAD_GROUP
350
D
  3
ACAD_MLINESTYLE
350
17
  3
ACAD_LAYOUT
350
1A
  3
ACAD_PLOTSETTINGS
350
19
  3
ACAD_PLOTSTYLENAME
350
E
  0
DICTIONARY
  5
D
102
{ACAD_REACTORS
330
C
102
}
100
AcDbDictionary
280
0
281
1
  0
ACDBDICTIONARYWDFLT
  5
E
102
{ACAD_REACTORS
330
C
102
}
100
AcDbDictionary
281
1
  3
Normal
350
F
100
AcDbDictionaryWithDefault
340
F
  0
DICTIONARY
  5
17
102
{ACAD_REACTORS
330
C
102
}
100
AcDbDictionary
280
0
281
1
  3
Standard
350
18
  0
DICTIONARY
  5
19
102
{ACAD_REACTORS
330
C
102
}
100
AcDbDictionary
281
1
  0
DICTIONARY
  5
1A
102
{ACAD_REACTORS
330
C
102
}
100
AcDbDictionary
281
1
  3
Model
350
699
  3
Layout1
350
69A
  0
ACDBPLACEHOLDER
  5
F
102
{ACAD_REACTORS
330
E
102
}
  0
MLINESTYLE
  5
18
102
{ACAD_REACTORS
330
17
102
}
100
AcDbMlineStyle
  2
STANDARD
 70
0
  3

 62
256
 51
90.0
 52
90.0
 71
2
 49
0.5
 62
256
  6
BYLAYER
 49
-0.5
 62
256
  6
BYLAYER
  0
LAYOUT
  5
699
102
{ACAD_REACTORS
330
1A
102
}
100
AcDbPlotSettings
  1

  2
none_device
  4
ISO_A4_(297.00_x_210.00_MM)
  6

 40
0.0
 41
0.0
 42
0.0
 43
0.0
 44
297.0
 45
210.0
 46
0.0
 47
0.0
 48
0.0
 49
0.0
140
0.0
141
0.0
142
1.0
143
1.0
 70
1024
 72
1
 73
0
 74
0
  7

 75
0
147
1.0
148
0.0
149
0.0
100
AcDbLayout
  1
Model
 70
0
 71
0
 10
0.0
 20
0.0
 11
297.0
 21
210.0
 12
0.0
 22
0.0
 32
0.0
 14
0.0
 24
0.0
 34
0.0
 15
0.0
 25
0.0
 35
0.0
146
0.0
 13
0.0
 23
0.0
 33
0.0
 16
1.0
 26
0.0
 36
0.0
 17
0.0
 27
1.0
 37
0.0
 76
0
330
21B
345
0
346
0
  0
LAYOUT
  5
69A
102
{ACAD_REACTORS
330
1A
102
}
100
AcDbPlotSettings
  1

  2
none_device
  4
ISO_A4_(297.00_x_210.00_MM)
  6

 40
0.0
 41
0.0
 42
0.0
 43
0.0
 44
297.0
 45
210.0
 46
0.0
 47
0.0
 48
0.0
 49
0.0
140
0.0
141
0.0
142
1.0
143
1.0
 70
0
 72
1
 73
0
 74
0
  7

 75
0
147
1.0
148
0.0
149
0.0
100
AcDbLayout
  1
Layout1
 70
0
 71
1
 10
0.0
 20
0.0
 11
297.0
 21
210.0
 12
0.0
 22
0.0
 32
0.0
 14
0.0
 24
0.0
 34
0.0
 15
0.0
 25
0.0
 35
0.0
146
0.0
 13
0.0
 23
0.0
 33
0.0
 16
1.0
 26
0.0
 36
0.0
 17
0.0
 27
1.0
 37
0.0
 76
0
330
21C
345
0
346
0
  0
ENDSEC
  0
EOF
