  0
SECTION
  2
HEADER
  9
$ACADVER
  1
AC1024
  9
$DWGCODEPAGE
  3
ANSI_1252
  9
$EXTMAX
 10
297.0
 20
210.0
 30
0.0
  9
$EXTMIN
 10
0.0
 20
0.0
 30
0.0
  9
$LIMMIN
 10
0.0
 20
0.0
  9
$LIMMAX
 10
297.0
 20
210.0
  9
$VIEWCTR
 10
148.5
 20
105.0
  9
$VIEWSIZE
 40
210.0
  9
$CLAYER
  8
0
  9
$LTSCALE
 40
16.335
  9
$CELTYPE
  6
BYLAYER
  9
$DIMSCALE
 40
1.0
  9
$DIMASZ
 40
3.0
  9
$DIMEXO
 40
0.5
  9
$DIMDLI
 40
11.286
  9
$DIMEXE
 40
1.5
  9
$DIMCEN
 40
2.673
  9
$DIMLFAC
 40
1.0
  9
$DIMBLK
  1
_FILLED
  9
$DIMALT
 70
0
  9
$DIMALTF
 40
0.0393700787
  9
$DIMTXT
 40
3.0
  9
$DIMTOL
 70
1
  9
$DIMLIM
 70
0
  9
$DIMTFAC
 40
1.0
  9
$DIMTP
 40
0.01
  9
$DIMTM
 40
0.01
  9
$DIMGAP
 40
0.625
  9
$DIMDSEP
 70
44
  9
$AUNITS
 70
0
  9
$PDMODE
 70
3
  9
$PDSIZE
 40
3.0
  9
$HANDSEED
  5
2F1
  9
$TILEMODE
 70
1
  9
$MEASUREMENT
 70
1
  9
$INSUNITS
 70
4
  0
ENDSEC
  0
SECTION
  2
CLASSES
  0
CLASS
  1
ACDBDICTIONARYWDFLT
  2
AcDbDictionaryWithDefault
  3
AutoCAD 2000
 90
0
 91
1
280
0
281
0
  0
CLASS
  1
ACDBPLACEHOLDER
  2
AcDbPlaceHolder
  3
AutoCAD 2000
 90
0
 91
1
280
0
281
0
  0
CLASS
  1
LAYOUT
  2
AcDbLayout
  3
AutoCAD 2000
 90
0
 91
0
280
0
281
0
  0
ENDSEC
  0
SECTION
  2
TABLES
  0
TABLE
  2
VPORT
  5
8
100
AcDbSymbolTable
 70
2
  0
VPORT
  5
1F4
100
AcDbSymbolTableRecord
100
AcDbViewportTableRecord
  2
*ACTIVE
 70
0
 10
0.0
 20
0.0
 11
1.0
 21
1.0
 12
148.5
 22
105.0
 13
0.0
 23
0.0
 14
1.0
 24
1.0
 15
0.0
 25
0.0
 16
0.0
 26
0.0
 36
1.0
 17
0.0
 27
0.0
 37
0.0
 40
210.0
 41
1.4142857143
 42
50.0
 43
0.0
 44
0.0
 50
0.0
 51
0.0
 71
0
 72
100
 73
1
 74
1
 75
0
 76
0
 77
0
 78
0
  0
ENDTAB
  0
TABLE
  2
LTYPE
  5
5
100
AcDbSymbolTable
 70
6
  0
LTYPE
  5
14
100
AcDbSymbolTableRecord
100
AcDbLinetypeTableRecord
  2
BYBLOCK
 70
0
  3

 72
65
 73
0
 40
0.0
  0
LTYPE
  5
15
100
AcDbSymbolTableRecord
100
AcDbLinetypeTableRecord
  2
BYLAYER
 70
0
  3

 72
65
 73
0
 40
0.0
  0
LTYPE
  5
16
100
AcDbSymbolTableRecord
100
AcDbLinetypeTableRecord
  2
CONTINUOUS
 70
64
  3
Solid line
 72
65
 73
0
 40
0.0
  0
LTYPE
  5
1F5
100
AcDbSymbolTableRecord
100
AcDbLinetypeTableRecord
  2
CENTER
 70
64
  3
____ _ ____ _ ____ _ ____ _ ____ _ ____ _ ____
 72
65
 73
4
 40
0.6
 49
0.375
 74
0
 49
-0.075
 74
0
 49
0.075
 74
0
 49
-0.075
 74
0
  0
LTYPE
  5
1F6
100
AcDbSymbolTableRecord
100
AcDbLinetypeTableRecord
  2
HIDDEN
 70
64
  3
- - - - - - - - - - - - - - - - - - - -
 72
65
 73
2
 40
0.2
 49
0.1
 74
0
 49
-0.1
 74
0
  0
LTYPE
  5
1F7
100
AcDbSymbolTableRecord
100
AcDbLinetypeTableRecord
  2
PHANTOM
 70
64
  3
_____ _ _ _____ _ _ _____ _ _ _____
 72
65
 73
6
 40
0.8
 49
0.45
 74
0
 49
-0.05
 74
0
 49
0.1
 74
0
 49
-0.05
 74
0
 49
0.1
 74
0
 49
-0.05
 74
0
  0
LTYPE
  5
1F8
100
AcDbSymbolTableRecord
100
AcDbLinetypeTableRecord
  2
DOT
 70
64
  3
. . . . . . . . . . . . . . . . . . . .
 72
65
 73
2
 40
0.2
 49
0.1
 74
0
 49
-0.1
 74
0
  0
LTYPE
  5
1F9
100
AcDbSymbolTableRecord
100
AcDbLinetypeTableRecord
  2
DASHED
 70
64
  3
- - - - - - - - - - - - - - - - - - - -
 72
65
 73
2
 40
0.2
 49
0.1
 74
0
 49
-0.1
 74
0
  0
ENDTAB
  0
TABLE
  2
LAYER
  5
2
100
AcDbSymbolTable
 70
36
  0
LAYER
  5
10
100
AcDbSymbolTableRecord
100
AcDbLayerTableRecord
  2
0
 70
0
 62
7
  6
CONTINUOUS
370
-3
390
F
  0
LAYER
  5
1FA
100
AcDbSymbolTableRecord
100
AcDbLayerTableRecord
  2
DEFAULT_1
 70
0
 62
7
  6
CENTER
370
-3
390
F
  0
LAYER
  5
1FB
100
AcDbSymbolTableRecord
100
AcDbLayerTableRecord
  2
DEFAULT_2
 70
0
 62
7
  6
HIDDEN
370
-3
390
F
  0
LAYER
  5
1FC
100
AcDbSymbolTableRecord
100
AcDbLayerTableRecord
  2
DEFAULT_3
 70
0
 62
7
  6
PHANTOM
370
-3
390
F
  0
LAYER
  5
1FD
100
AcDbSymbolTableRecord
100
AcDbLayerTableRecord
  2
ASSI
 70
0
 62
7
  6
CONTINUOUS
370
-3
390
F
  0
LAYER
  5
1FE
100
AcDbSymbolTableRecord
100
AcDbLayerTableRecord
  2
COORDINATE
 70
0
 62
7
  6
CONTINUOUS
370
-3
390
F
  0
LAYER
  5
1FF
100
AcDbSymbolTableRecord
100
AcDbLayerTableRecord
  2
COPY_PUBLISH
 70
0
 62
7
  6
CONTINUOUS
370
-3
390
F
  0
LAYER
  5
200
100
AcDbSymbolTableRecord
100
AcDbLayerTableRecord
  2
COSMETIC
 70
0
 62
7
  6
CONTINUOUS
370
-3
390
F
  0
LAYER
  5
201
100
AcDbSymbolTableRecord
100
AcDbLayerTableRecord
  2
COSMETICI
 70
0
 62
7
  6
CONTINUOUS
370
-3
390
F
  0
LAYER
  5
202
100
AcDbSymbolTableRecord
100
AcDbLayerTableRecord
  2
CURVE
 70
0
 62
7
  6
CONTINUOUS
370
-3
390
F
  0
LAYER
  5
203
100
AcDbSymbolTableRecord
100
AcDbLayerTableRecord
  2
DRAFT
 70
0
 62
7
  6
CONTINUOUS
370
-3
390
F
  0
LAYER
  5
204
100
AcDbSymbolTableRecord
100
AcDbLayerTableRecord
  2
IMPORT_IGES
 70
0
 62
7
  6
CONTINUOUS
370
-3
390
F
  0
LAYER
  5
205
100
AcDbSymbolTableRecord
100
AcDbLayerTableRecord
  2
INTFCLR_11
 70
0
 62
7
  6
CONTINUOUS
370
-3
390
F
  0
LAYER
  5
206
100
AcDbSymbolTableRecord
100
AcDbLayerTableRecord
  2
INTF_1
 70
0
 62
7
  6
CONTINUOUS
370
-3
390
F
  0
LAYER
  5
207
100
AcDbSymbolTableRecord
100
AcDbLayerTableRecord
  2
INTF_3
 70
0
 62
7
  6
CONTINUOUS
370
-3
390
F
  0
LAYER
  5
208
100
AcDbSymbolTableRecord
100
AcDbLayerTableRecord
  2
NOTE
 70
0
 62
7
  6
CONTINUOUS
370
-3
390
F
  0
LAYER
  5
209
100
AcDbSymbolTableRecord
100
AcDbLayerTableRecord
  2
PIANI
 70
0
 62
7
  6
CONTINUOUS
370
-3
390
F
  0
LAYER
  5
20A
100
AcDbSymbolTableRecord
100
AcDbLayerTableRecord
  2
PUNTI
 70
0
 62
7
  6
CONTINUOUS
370
-3
390
F
  0
LAYER
  5
20B
100
AcDbSymbolTableRecord
100
AcDbLayerTableRecord
  2
RACCORDO
 70
0
 62
7
  6
CONTINUOUS
370
-3
390
F
  0
LAYER
  5
20C
100
AcDbSymbolTableRecord
100
AcDbLayerTableRecord
  2
SIMBOLI
 70
0
 62
7
  6
CONTINUOUS
370
-3
390
F
  0
LAYER
  5
20D
100
AcDbSymbolTableRecord
100
AcDbLayerTableRecord
  2
SMUSSO
 70
0
 62
7
  6
CONTINUOUS
370
-3
390
F
  0
LAYER
  5
20E
100
AcDbSymbolTableRecord
100
AcDbLayerTableRecord
  2
SNAPLINE
 70
0
 62
7
  6
CONTINUOUS
370
-3
390
F
  0
LAYER
  5
20F
100
AcDbSymbolTableRecord
100
AcDbLayerTableRecord
  2
SUPERFICI
 70
0
 62
7
  6
CONTINUOUS
370
-3
390
F
  0
LAYER
  5
210
100
AcDbSymbolTableRecord
100
AcDbLayerTableRecord
  2
TRASH
 70
0
 62
7
  6
CONTINUOUS
370
-3
390
F
  0
LAYER
  5
211
100
AcDbSymbolTableRecord
100
AcDbLayerTableRecord
  2
___SHELL
 70
0
 62
7
  6
CONTINUOUS
370
-3
390
F
  0
ENDTAB
  0
TABLE
  2
STYLE
  5
3
100
AcDbSymbolTable
 70
1
  0
STYLE
  5
11
100
AcDbSymbolTableRecord
100
AcDbTextStyleTableRecord
  2
STANDARD
 70
0
 40
0.0
 41
0.8
 50
0.0
 71
0
 42
0.2
  3
txt
  4

  0
STYLE
  5
212
100
AcDbSymbolTableRecord
100
AcDbTextStyleTableRecord
  2
TEXTSTYLE_1
 70
0
 40
0.0
 41
0.8
 50
0.0
 71
0
 42
0.2
  3
gdt
  4

  0
ENDTAB
  0
TABLE
  2
VIEW
  5
6
100
AcDbSymbolTable
 70
0
  0
ENDTAB
  0
TABLE
  2
UCS
  5
7
100
AcDbSymbolTable
 70
0
  0
ENDTAB
  0
TABLE
  2
APPID
  5
9
100
AcDbSymbolTable
 70
1
  0
APPID
  5
213
100
AcDbSymbolTableRecord
100
AcDbRegAppTableRecord
  2
ACAD
 70
0
  0
ENDTAB
  0
TABLE
  2
BLOCK_RECORD
  5
1
100
AcDbSymbolTable
 70
0
  0
BLOCK_RECORD
  5
214
100
AcDbSymbolTableRecord
100
AcDbBlockTableRecord
  2
*Model_Space
  0
BLOCK_RECORD
  5
215
100
AcDbSymbolTableRecord
100
AcDbBlockTableRecord
  2
*Paper_Space
  0
BLOCK_RECORD
  5
216
100
AcDbSymbolTableRecord
100
AcDbBlockTableRecord
  2
_FILLED
  0
BLOCK_RECORD
  5
217
100
AcDbSymbolTableRecord
100
AcDbBlockTableRecord
  2
*D0
  0
BLOCK_RECORD
  5
218
100
AcDbSymbolTableRecord
100
AcDbBlockTableRecord
  2
*D1
  0
BLOCK_RECORD
  5
219
100
AcDbSymbolTableRecord
100
AcDbBlockTableRecord
  2
*D2
  0
BLOCK_RECORD
  5
21A
100
AcDbSymbolTableRecord
100
AcDbBlockTableRecord
  2
*D3
  0
ENDTAB
  0
TABLE
  2
DIMSTYLE
  5
A
100
AcDbSymbolTable
 70
1
100
AcDbDimStyleTable
 71
0
  0
DIMSTYLE
105
21B
100
AcDbSymbolTableRecord
100
AcDbDimStyleTableRecord
  2
STANDARD
 70
0
  3

  4

 40
1.0
 41
3.0
 42
0.5
 43
0.38
 44
1.5
 45
0.0
 46
0.0
 47
0.01
 48
0.01
140
3.0
141
0.09
142
0.0
143
25.4
144
1.0
145
0.0
146
1.0
147
0.625
 71
1
 72
0
 73
0
 74
0
 75
0
 76
0
 77
1
 78
8
 79
2
170
0
171
1
172
0
173
0
174
0
175
0
176
0
177
0
178
0
270
2
179
2
271
2
272
2
273
2
274
2
275
0
280
0
281
0
282
0
283
1
284
8
285
0
286
0
287
3
288
0
340
11
278
44
341
216
342
216
343
216
344
216
  0
DIMSTYLE
105
21C
100
AcDbSymbolTableRecord
100
AcDbDimStyleTableRecord
  2
DIMSTYLE_1
 70
0
  3

  4

 40
1.0
 41
3.0
 42
0.5
 43
0.38
 44
1.5
 45
0.0
 46
0.0
 47
0.0
 48
0.0
140
3.0
141
0.09
142
0.0
143
25.4
144
1.0
145
0.0
146
1.0
147
0.75
 71
0
 72
0
 73
0
 74
0
 75
0
 76
0
 77
1
 78
8
 79
2
170
0
171
1
172
0
173
0
174
0
175
0
176
0
177
0
178
0
270
2
179
2
271
1
272
1
273
2
274
2
275
0
280
0
281
0
282
0
283
1
284
8
285
0
286
0
287
3
288
0
340
11
278
44
341
216
342
216
343
216
344
216
  0
ENDTAB
  0
ENDSEC
  0
SECTION
  2
BLOCKS
  0
BLOCK
  5
20
100
AcDbEntity
  8
0
100
AcDbBlockBegin
  2
*Model_Space
 70
0
 10
0.0
 20
0.0
 30
0.0
  3
*Model_Space
  1

  0
ENDBLK
  5
21
100
AcDbEntity
  8
0
100
AcDbBlockEnd
  0
BLOCK
  5
1C
100
AcDbEntity
  8
0
100
AcDbBlockBegin
  2
*Paper_Space
 70
0
 10
0.0
 20
0.0
 30
0.0
  3
*Paper_Space
  1

  0
ENDBLK
  5
1D
100
AcDbEntity
  8
0
100
AcDbBlockEnd
  0
BLOCK
  5
21D
100
AcDbEntity
  8
0
100
AcDbBlockBegin
  2
_FILLED
 70
64
 10
0.0
 20
0.0
  3
_FILLED
  1

  0
SOLID
  5
21E
100
AcDbEntity
  8
0
  6
BYBLOCK
 62
0
100
AcDbTrace
 10
0.0
 20
0.0
 11
-1.0
 21
0.3166666667
 12
-1.0
 22
-0.3166666667
 13
-1.0
 23
-0.3166666667
  0
ENDBLK
  5
21F
100
AcDbEntity
  8
0
  6
BYBLOCK
 62
0
100
AcDbBlockEnd
  0
BLOCK
  5
220
100
AcDbEntity
  8
0
100
AcDbBlockBegin
 62
7
  6
CONTINUOUS
  2
*D0
 70
65
 10
0.0
 20
0.0
  3
*D0
  1

  0
MTEXT
  5
221
100
AcDbEntity
  8
0
100
AcDbMText
 62
7
  6
CONTINUOUS
  7
STANDARD
 71
2
 72
1
 10
51.0105254569
 20
81.0413500289
 30
0.0
 11
1.0
 21
0.0
 31
0.0
 73
2
 44
0.9
  1
{\ftxt;\W0.0001;\H0.0001;\~}{\ftxt;\W2.7142857143;\H3.0; }{\ftxt;\W0.0001;\H0.0001;\~}
 40
3.0
 41
12.2142857143
  0
LINE
  5
222
100
AcDbEntity
  8
0
100
AcDbLine
 62
7
  6
CONTINUOUS
 10
62.0479321829
 20
62.0104098334
 11
62.0479321829
 21
78.7913500289
  0
LINE
  5
223
100
AcDbEntity
  8
0
100
AcDbLine
 62
7
  6
CONTINUOUS
 10
39.9731187309
 20
62.0104098334
 11
39.9731187309
 21
78.7913500289
  0
LINE
  5
224
100
AcDbEntity
  8
0
100
AcDbLine
 62
7
  6
CONTINUOUS
 10
62.0479321829
 20
77.2913500289
 11
51.0105254569
 21
77.2913500289
  0
LINE
  5
225
100
AcDbEntity
  8
0
100
AcDbLine
 62
7
  6
CONTINUOUS
 10
39.9731187309
 20
77.2913500289
 11
51.0105254569
 21
77.2913500289
  0
INSERT
  5
226
100
AcDbEntity
  8
0
100
AcDbBlockReference
 62
7
  6
CONTINUOUS
  2
_FILLED
 10
62.0479321829
 20
77.2913500289
 41
3.0
 42
3.0
 43
3.0
  0
INSERT
  5
227
100
AcDbEntity
  8
0
100
AcDbBlockReference
 62
7
  6
CONTINUOUS
  2
_FILLED
 10
39.9731187309
 20
77.2913500289
 41
3.0
 42
3.0
 43
3.0
 50
180.0
  0
ENDBLK
  5
228
100
AcDbEntity
  8
0
  6
BYBLOCK
 62
0
100
AcDbBlockEnd
  0
BLOCK
  5
229
100
AcDbEntity
  8
0
100
AcDbBlockBegin
 62
7
  6
CONTINUOUS
  2
*D1
 70
65
 10
0.0
 20
0.0
  3
*D1
  1

  0
MTEXT
  5
22A
100
AcDbEntity
  8
0
100
AcDbMText
 62
7
  6
CONTINUOUS
  7
STANDARD
 71
2
 72
1
 10
73.1158450241
 20
39.897968342
 30
0.0
 11
0.0
 21
1.0
 31
0.0
 73
2
 44
0.9
  1
{\ftxt;\W0.0001;\H0.0001;\~}{\ftxt;\W2.9285714286;\H3.0; }{\ftxt;\W0.0001;\H0.0001;\~}
 40
3.0
 41
13.1785714286
  0
LINE
  5
22B
100
AcDbEntity
  8
0
100
AcDbLine
 62
7
  6
CONTINUOUS
 10
62.0486174155
 20
62.0097246007
 11
78.3658450241
 21
62.0097246007
  0
LINE
  5
22C
100
AcDbEntity
  8
0
100
AcDbLine
 62
7
  6
CONTINUOUS
 10
62.0486174155
 20
17.7862120833
 11
78.3658450241
 21
17.7862120833
  0
LINE
  5
22D
100
AcDbEntity
  8
0
100
AcDbLine
 62
7
  6
CONTINUOUS
 10
76.8658450241
 20
62.0097246007
 11
76.8658450241
 21
39.897968342
  0
LINE
  5
22E
100
AcDbEntity
  8
0
100
AcDbLine
 62
7
  6
CONTINUOUS
 10
76.8658450241
 20
17.7862120833
 11
76.8658450241
 21
39.897968342
  0
INSERT
  5
22F
100
AcDbEntity
  8
0
100
AcDbBlockReference
 62
7
  6
CONTINUOUS
  2
_FILLED
 10
76.8658450241
 20
62.0097246007
 41
3.0
 42
3.0
 43
3.0
 50
90.0
  0
INSERT
  5
230
100
AcDbEntity
  8
0
100
AcDbBlockReference
 62
7
  6
CONTINUOUS
  2
_FILLED
 10
76.8658450241
 20
17.7862120833
 41
3.0
 42
3.0
 43
3.0
 50
270.0
  0
ENDBLK
  5
231
100
AcDbEntity
  8
0
  6
BYBLOCK
 62
0
100
AcDbBlockEnd
  0
BLOCK
  5
232
100
AcDbEntity
  8
0
100
AcDbBlockBegin
 62
7
  6
CONTINUOUS
  2
*D2
 70
65
 10
0.0
 20
0.0
  3
*D2
  1

  0
MTEXT
  5
233
100
AcDbEntity
  8
0
100
AcDbMText
 62
7
  6
CONTINUOUS
  7
STANDARD
 71
3
 72
1
 10
1.1809244429
 20
73.1550939333
 30
0.0
 11
0.9999982479
 21
0.0018719637
 31
0.0
 73
2
 44
0.9
  1
{\ftxt;\W0.0001;\H0.0001;\~}{\ftxt;\W0.7142857143;\H3.0; }{\ftxt;\W0.0001;\H0.0001;\~}
 40
3.0
 41
3.2142857143
  0
LINE
  5
234
100
AcDbEntity
  8
0
100
AcDbLine
 62
7
  6
CONTINUOUS
 10
11.3776386908
 20
40.397967466
 11
11.3204948346
 21
70.9240709315
  0
LINE
  5
235
100
AcDbEntity
  8
0
100
AcDbLine
 62
7
  6
CONTINUOUS
 10
16.3735464063
 20
52.4625162705
 11
16.3389694005
 21
70.9334653499
  0
LINE
  5
236
100
AcDbEntity
  8
0
100
AcDbLine
 62
7
  6
CONTINUOUS
 10
11.3233027801
 20
69.4240735597
 11
-0.9549090817
 21
69.4010891531
  0
LINE
  5
237
100
AcDbEntity
  8
0
100
AcDbLine
 62
7
  6
CONTINUOUS
 10
-0.9549090817
 20
69.4010891531
 11
13.832540063
 21
69.4287707689
  0
LINE
  5
238
100
AcDbEntity
  8
0
100
AcDbLine
 62
7
  6
CONTINUOUS
 10
16.3417773459
 20
69.4334679781
 11
20.3417703374
 21
69.4409558327
  0
LINE
  5
239
100
AcDbEntity
  8
0
100
AcDbLine
 62
7
  6
CONTINUOUS
 10
20.3417703374
 20
69.4409558327
 11
13.832540063
 21
69.4287707689
  0
INSERT
  5
23A
100
AcDbEntity
  8
0
100
AcDbBlockReference
 62
7
  6
CONTINUOUS
  2
_FILLED
 10
11.3233027801
 20
69.4240735597
 41
3.0
 42
3.0
 43
3.0
 50
0.1072556792
  0
INSERT
  5
23B
100
AcDbEntity
  8
0
100
AcDbBlockReference
 62
7
  6
CONTINUOUS
  2
_FILLED
 10
16.3417773459
 20
69.4334679781
 41
3.0
 42
3.0
 43
3.0
 50
180.1072556792
  0
ENDBLK
  5
23C
100
AcDbEntity
  8
0
  6
BYBLOCK
 62
0
100
AcDbBlockEnd
  0
BLOCK
  5
23D
100
AcDbEntity
  8
0
100
AcDbBlockBegin
 62
7
  6
CONTINUOUS
  2
*D3
 70
65
 10
0.0
 20
0.0
  3
*D3
  1

  0
MTEXT
  5
23E
100
AcDbEntity
  8
0
100
AcDbMText
 62
7
  6
CONTINUOUS
  7
STANDARD
 71
3
 72
1
 10
3.6825983317
 20
81.0413500289
 30
0.0
 11
1.0
 21
0.0
 31
0.0
 73
2
 44
0.9
  1
{\ftxt;\W0.0001;\H0.0001;\~}{\ftxt;\W2.0714285714;\H3.0; }{\ftxt;\W0.0001;\H0.0001;\~}
 40
3.0
 41
9.3214285714
  0
LINE
  5
23F
100
AcDbEntity
  8
0
100
AcDbLine
 62
7
  6
CONTINUOUS
 10
15.0744823907
 20
62.0104098334
 11
15.0744823907
 21
78.7913500289
  0
LINE
  5
240
100
AcDbEntity
  8
0
100
AcDbLine
 62
7
  6
CONTINUOUS
 10
11.3813826006
 20
41.8979596004
 11
11.3813826006
 21
78.7913500289
  0
LINE
  5
241
100
AcDbEntity
  8
0
100
AcDbLine
 62
7
  6
CONTINUOUS
 10
15.0744823907
 20
77.2913500289
 11
19.0744823907
 21
77.2913500289
  0
LINE
  5
242
100
AcDbEntity
  8
0
100
AcDbLine
 62
7
  6
CONTINUOUS
 10
19.0744823907
 20
77.2913500289
 11
13.2279324957
 21
77.2913500289
  0
LINE
  5
243
100
AcDbEntity
  8
0
100
AcDbLine
 62
7
  6
CONTINUOUS
 10
11.3813826006
 20
77.2913500289
 11
-2.5316873826
 21
77.2913500289
  0
LINE
  5
244
100
AcDbEntity
  8
0
100
AcDbLine
 62
7
  6
CONTINUOUS
 10
-2.5316873826
 20
77.2913500289
 11
13.2279324957
 21
77.2913500289
  0
INSERT
  5
245
100
AcDbEntity
  8
0
100
AcDbBlockReference
 62
7
  6
CONTINUOUS
  2
_FILLED
 10
15.0744823907
 20
77.2913500289
 41
3.0
 42
3.0
 43
3.0
 50
180.0
  0
INSERT
  5
246
100
AcDbEntity
  8
0
100
AcDbBlockReference
 62
7
  6
CONTINUOUS
  2
_FILLED
 10
11.3813826006
 20
77.2913500289
 41
3.0
 42
3.0
 43
3.0
  0
ENDBLK
  5
247
100
AcDbEntity
  8
0
  6
BYBLOCK
 62
0
100
AcDbBlockEnd
  0
ENDSEC
  0
SECTION
  2
ENTITIES
  0
DIMENSION
  5
248
100
AcDbEntity
  8
0
100
AcDbDimension
 62
7
  6
CONTINUOUS
  2
*D0
 10
39.9731187309
 20
77.2913500289
 11
50.5819537125
 21
77.2913500289
 70
160
 71
2
 72
2
 41
0.9
 42
22.074813452
  1
{\ftxt;\W0.0001;\H0.0001;\~}{\ftxt;\W2.7142857143;\H3.0; }{\ftxt;\W0.0001;\H0.0001;\~}
  3
DIMSTYLE_1
100
AcDbAlignedDimension
 13
62.0479321829
 23
61.5104098334
 14
39.9731187309
 24
61.5104098334
 50
180.0
100
AcDbRotatedDimension
  0
DIMENSION
  5
249
100
AcDbEntity
  8
0
100
AcDbDimension
 62
7
  6
CONTINUOUS
  2
*D1
 10
76.8658450241
 20
17.7862120833
 11
76.8658450241
 21
39.4694002846
 70
160
 71
2
 72
2
 41
0.9
 42
44.2235125174
  1
{\ftxt;\W0.0001;\H0.0001;\~}{\ftxt;\W2.9285714286;\H3.0; }{\ftxt;\W0.0001;\H0.0001;\~}
  3
DIMSTYLE_1
100
AcDbAlignedDimension
 13
61.5486174155
 23
62.0097246007
 14
61.5486174155
 24
17.7862120833
 50
270.0
100
AcDbRotatedDimension
  0
DIMENSION
  5
24A
100
AcDbEntity
  8
0
100
AcDbDimension
 62
7
  6
CONTINUOUS
  2
*D2
 10
16.3417773459
 20
69.4334679781
 11
-0.3120530467
 21
69.4022925584
 70
160
 71
3
 72
2
 41
0.9
 42
5.0184833589
  1
{\ftxt;\W0.0001;\H0.0001;\~}{\ftxt;\W0.7142857143;\H3.0; }{\ftxt;\W0.0001;\H0.0001;\~}
  3
DIMSTYLE_1
100
AcDbAlignedDimension
 13
11.3785746726
 23
39.897968342
 14
16.3744823881
 24
51.9625171466
 50
0.1072556792
100
AcDbRotatedDimension
  0
DIMENSION
  5
24B
100
AcDbEntity
  8
0
100
AcDbDimension
 62
7
  6
CONTINUOUS
  2
*D3
 10
11.3813826006
 20
77.2913500289
 11
0.1468841085
 21
77.2913500289
 70
160
 71
3
 72
2
 41
0.9
 42
3.6930997901
  1
{\ftxt;\W0.0001;\H0.0001;\~}{\ftxt;\W2.0714285714;\H3.0; }{\ftxt;\W0.0001;\H0.0001;\~}
  3
DIMSTYLE_1
100
AcDbAlignedDimension
 13
15.0744823907
 23
61.5104098334
 14
11.3813826006
 24
41.3979596004
 50
180.0
100
AcDbRotatedDimension
  0
LWPOLYLINE
  5
24C
100
AcDbEntity
  8
0
100
AcDbPolyline
 62
7
  6
CONTINUOUS
 90
3
 70
0
 43
0.3500000006
 10
53.3676678772
 20
80.1842034302
 10
54.2248103485
 20
81.0413504333
 10
54.2248103485
 20
78.0413495178
  0
LWPOLYLINE
  5
24D
100
AcDbEntity
  8
RACCORDO
100
AcDbPolyline
 62
250
  6
CONTINUOUS
 90
16
 70
0
 10
61.4621917671
 20
17.8726377318
 10
61.5142945236
 20
17.875506287
 10
61.5658283422
 20
17.8837951944
 10
61.6162305641
 20
17.8974139336
 10
61.6649509028
 20
17.9162137983
 10
61.7114574091
 20
17.9399895049
 10
61.7552422858
 20
17.9684814197
 10
61.795827493
 20
18.0013784274
 10
61.8327699457
 20
18.0383213322
 10
61.8656663164
 20
18.0789067494
 10
61.8941574674
 20
18.1226915321
 10
61.9179323729
 20
18.1691976246
 10
61.9367314996
 20
18.2179172705
 10
61.9503496352
 20
18.2683185457
 10
61.9586381323
 20
18.3198511645
 10
61.9615065345
 20
18.3719524991
  0
LWPOLYLINE
  5
24E
100
AcDbEntity
  8
RACCORDO
100
AcDbPolyline
 62
250
  6
CONTINUOUS
 90
14
 70
0
 10
61.5573100743
 20
19.0212709722
 10
61.6032505427
 20
19.0220052288
 10
61.6475510923
 20
19.0229220125
 10
61.6897989713
 20
19.0240127816
 10
61.7296005527
 20
19.0252673733
 10
61.7665850018
 20
19.0266740985
 10
61.8004077315
 20
19.0282198506
 10
61.8307536126
 20
19.0298902277
 10
61.8573399101
 20
19.0316696667
 10
61.8799189172
 20
19.0335415885
 10
61.8982802635
 20
19.0354885523
 10
61.9122528748
 20
19.0374924179
 10
61.9217065671
 20
19.0395345152
 10
61.9265532596
 20
19.0415958179
  0
LINE
  5
24F
100
AcDbEntity
  8
RACCORDO
100
AcDbLine
 62
250
  6
CONTINUOUS
 10
61.4622327969
 20
19.0203756406
 11
61.5573100743
 21
19.0212709722
  0
LINE
  5
250
100
AcDbEntity
  8
RACCORDO
100
AcDbLine
 62
250
  6
CONTINUOUS
 10
40.5588591457
 20
17.8726377308
 11
43.9395691061
 21
17.8831714756
  0
LINE
  5
251
100
AcDbEntity
  8
RACCORDO
100
AcDbLine
 62
250
  6
CONTINUOUS
 10
43.9395691061
 20
17.8831714756
 11
47.3233651737
 21
17.8896395443
  0
LINE
  5
252
100
AcDbEntity
  8
RACCORDO
100
AcDbLine
 62
250
  6
CONTINUOUS
 10
40.5588181151
 20
19.0203756813
 11
45.9722058447
 21
19.0260769937
  0
LINE
  5
253
100
AcDbEntity
  8
RACCORDO
100
AcDbLine
 62
250
  6
CONTINUOUS
 10
47.3233651737
 20
17.8896395443
 11
50.7087856036
 21
17.892038317
  0
LINE
  5
254
100
AcDbEntity
  8
0
100
AcDbLine
 62
7
  6
CONTINUOUS
 10
40.4724334983
 20
17.7862120833
 11
61.5486174155
 21
17.7862120833
  0
LINE
  5
255
100
AcDbEntity
  8
RACCORDO
100
AcDbLine
 62
250
  6
CONTINUOUS
 10
45.9722058447
 20
19.0260769937
 11
51.3907991446
 21
19.0277896816
  0
LINE
  5
256
100
AcDbEntity
  8
RACCORDO
100
AcDbLine
 62
250
  6
CONTINUOUS
 10
51.3907991446
 20
19.0277896816
 11
56.1548327206
 21
19.0260066955
  0
LINE
  5
257
100
AcDbEntity
  8
RACCORDO
100
AcDbLine
 62
250
  6
CONTINUOUS
 10
50.7087856036
 20
17.892038317
 11
54.0883502827
 21
17.8903751694
  0
LINE
  5
258
100
AcDbEntity
  8
RACCORDO
100
AcDbLine
 62
250
  6
CONTINUOUS
 10
56.1548327206
 20
19.0260066955
 11
61.462232797
 21
19.0203756831
  0
LINE
  5
259
100
AcDbEntity
  8
RACCORDO
100
AcDbLine
 62
250
  6
CONTINUOUS
 10
54.0883502827
 20
17.8903751694
 11
56.8517892928
 21
17.8859929023
  0
LINE
  5
25A
100
AcDbEntity
  8
RACCORDO
100
AcDbLine
 62
250
  6
CONTINUOUS
 10
56.8517892928
 20
17.8859929023
 11
59.8396231595
 21
17.8781778312
  0
LINE
  5
25B
100
AcDbEntity
  8
RACCORDO
100
AcDbLine
 62
250
  6
CONTINUOUS
 10
59.8396231595
 20
17.8781778312
 11
61.4621917671
 21
17.8726377317
  0
LWPOLYLINE
  5
25C
100
AcDbEntity
  8
RACCORDO
100
AcDbPolyline
 62
250
  6
CONTINUOUS
 90
15
 70
0
 10
40.5588190231
 20
19.0203761954
 10
40.4637426089
 20
19.0212714998
 10
40.417802512
 20
19.0220057341
 10
40.373502278
 20
19.0229224901
 10
40.3312546477
 20
19.0240132264
 10
40.2914532383
 20
19.0252677812
 10
40.2544688755
 20
19.0266744659
 10
40.220646139
 20
19.0282201745
 10
40.1903001519
 20
19.0298905057
 10
40.1637136448
 20
19.0316698974
 10
40.1411343216
 20
19.0335417711
 10
40.1227725515
 20
19.0354886867
 10
40.1087994095
 20
19.037492505
 10
40.0993450819
 20
19.0395345566
 10
40.0944976538
 20
19.041595816
  0
LWPOLYLINE
  5
25D
100
AcDbEntity
  8
RACCORDO
100
AcDbPolyline
 62
250
  6
CONTINUOUS
 90
16
 70
0
 10
40.5588591457
 20
17.8726377308
 10
40.506757023
 20
17.8755062174
 10
40.4552237548
 20
17.8837949383
 10
40.4048219848
 20
17.8974133965
 10
40.3561020031
 20
17.9162129049
 10
40.3095957376
 20
17.939988209
 10
40.2658109469
 20
17.9684797286
 10
40.2252256764
 20
18.0013763913
 10
40.1882830387
 20
18.0383190291
 10
40.1553863761
 20
18.0789042996
 10
40.1268948566
 20
18.1226890903
 10
40.1031195524
 20
18.1691953558
 10
40.0843200441
 20
18.2179153375
 10
40.0707015859
 20
18.2683171074
 10
40.0624128651
 20
18.3198503755
 10
40.0595443784
 20
18.3719524981
  0
LINE
  5
25E
100
AcDbEntity
  8
RACCORDO
100
AcDbLine
 62
250
  6
CONTINUOUS
 10
40.0906412466
 20
61.0374365789
 11
40.0926268212
 21
60.946450241
  0
LINE
  5
25F
100
AcDbEntity
  8
RACCORDO
100
AcDbLine
 62
250
  6
CONTINUOUS
 10
40.0926268212
 20
60.946450241
 11
40.0939166759
 21
60.8518367556
  0
LINE
  5
260
100
AcDbEntity
  8
RACCORDO
100
AcDbLine
 62
250
  6
CONTINUOUS
 10
40.0939166759
 20
60.8518367556
 11
40.0944976537
 21
60.754340868
  0
LWPOLYLINE
  5
261
100
AcDbEntity
  8
RACCORDO
100
AcDbPolyline
 62
250
  6
CONTINUOUS
 90
9
 70
0
 10
40.0944976537
 20
60.754340868
 10
40.1037278442
 20
56.1214858139
 10
40.1106504867
 20
51.4876832458
 10
40.1152655812
 20
46.8529331638
 10
40.1175731273
 20
42.2166036814
 10
40.1175731253
 20
37.5793266852
 10
40.1152655769
 20
32.9429978345
 10
40.1106504824
 20
28.308249016
 10
40.1037278413
 20
23.6744483432
  0
LINE
  5
262
100
AcDbEntity
  8
RACCORDO
100
AcDbLine
 62
250
  6
CONTINUOUS
 10
40.5683660327
 20
51.5000133997
 11
40.5724580078
 21
42.2188156244
  0
LINE
  5
263
100
AcDbEntity
  8
0
100
AcDbLine
 62
7
  6
CONTINUOUS
 10
39.9731187309
 20
61.5104098334
 11
39.9731187309
 21
18.2855268507
  0
LINE
  5
264
100
AcDbEntity
  8
RACCORDO
100
AcDbLine
 62
250
  6
CONTINUOUS
 10
40.5724580078
 20
42.2188156244
 11
40.5710940127
 21
32.9359377361
  0
LINE
  5
265
100
AcDbEntity
  8
RACCORDO
100
AcDbLine
 62
250
  6
CONTINUOUS
 10
40.5710940127
 20
32.9359377361
 11
40.5642740612
 21
23.6572589241
  0
LINE
  5
266
100
AcDbEntity
  8
RACCORDO
100
AcDbLine
 62
250
  6
CONTINUOUS
 10
40.5642740612
 20
23.6572589241
 11
40.559321196
 21
18.0037265947
  0
LINE
  5
267
100
AcDbEntity
  8
RACCORDO
100
AcDbLine
 62
250
  6
CONTINUOUS
 10
40.5590050417
 20
61.9158979372
 11
40.5683660327
 21
51.5000133997
  0
LINE
  5
268
100
AcDbEntity
  8
RACCORDO
100
AcDbLine
 62
250
  6
CONTINUOUS
 10
40.1037278413
 20
23.6744483432
 11
40.0942952879
 21
18.9924640105
  0
LWPOLYLINE
  5
269
100
AcDbEntity
  8
RACCORDO
100
AcDbPolyline
 62
250
  6
CONTINUOUS
 90
3
 70
0
 10
40.559321196
 20
18.0037265947
 10
40.5590051188
 20
17.8800385896
 10
40.5588591457
 20
17.8726377308
  0
LINE
  5
26A
100
AcDbEntity
  8
RACCORDO
100
AcDbLine
 62
250
  6
CONTINUOUS
 10
40.0942952879
 20
18.9924640105
 11
40.0933622538
 21
18.8965449533
  0
LWPOLYLINE
  5
26B
100
AcDbEntity
  8
RACCORDO
100
AcDbPolyline
 62
250
  6
CONTINUOUS
 90
18
 70
0
 10
40.0933622538
 20
18.8965449533
 10
40.0917160365
 20
18.8032548253
 10
40.0906419464
 20
18.7585277526
 10
40.0894026011
 20
18.715371183
 10
40.0880003247
 20
18.6737418457
 10
40.0864552595
 20
18.634255643
 10
40.0847651108
 20
18.5969416297
 10
40.0829321732
 20
18.561770751
 10
40.0809834735
 20
18.529271744
 10
40.0789172607
 20
18.4994860022
 10
40.0767352857
 20
18.4723721321
 10
40.0744698279
 20
18.4483346901
 10
40.0721184662
 20
18.4274185892
 10
40.0696836217
 20
18.4095789163
 10
40.0672048365
 20
18.3950854891
 10
40.0646952912
 20
18.3840282465
 10
40.0621418051
 20
18.3763172496
 10
40.0595443784
 20
18.3719524981
  0
LWPOLYLINE
  5
26C
100
AcDbEntity
  8
0
100
AcDbPolyline
 62
7
  6
CONTINUOUS
 90
3
 70
0
 43
0.3500000006
 10
52.367667572
 20
78.3270651855
 10
52.296240921
 20
78.1127807007
 10
52.1533830872
 20
77.827065033
  0
LINE
  5
26D
100
AcDbEntity
  8
RACCORDO
100
AcDbLine
 62
250
  6
CONTINUOUS
 10
40.5588591457
 20
61.9232989533
 11
40.5590050417
 21
61.9158979372
  0
LINE
  5
26E
100
AcDbEntity
  8
0
100
AcDbLine
 62
250
  6
CONTINUOUS
 10
61.4621917672
 20
61.9232989524
 11
61.5486174155
 21
62.0097246007
  0
LINE
  5
26F
100
AcDbEntity
  8
0
100
AcDbLine
 62
250
  6
CONTINUOUS
 10
61.5486174155
 20
17.7862120833
 11
61.4621917671
 21
17.8726377317
  0
LINE
  5
270
100
AcDbEntity
  8
0
100
AcDbLine
 62
250
  6
CONTINUOUS
 10
61.9615065345
 20
61.423984185
 11
62.0479321829
 21
61.5104098334
  0
LINE
  5
271
100
AcDbEntity
  8
0
100
AcDbLine
 62
250
  6
CONTINUOUS
 10
62.0479321829
 20
18.2855268507
 11
61.9615065345
 21
18.3719524991
  0
LWPOLYLINE
  5
272
100
AcDbEntity
  8
0
100
AcDbPolyline
 62
7
  6
CONTINUOUS
 90
2
 70
0
 43
0.3500000006
 10
76.1158484802
 20
36.5051091614
 10
74.6158434906
 20
36.5051091614
  0
LWPOLYLINE
  5
273
100
AcDbEntity
  8
0
100
AcDbPolyline
 62
7
  6
CONTINUOUS
 90
43
 70
0
 10
50.0345193984
 20
38.3291716961
 10
50.0416804205
 20
38.2612126373
 10
50.053578485
 20
38.1940979006
 10
50.0703352786
 20
38.127428272
 10
50.0918291304
 20
38.0616029633
 10
50.1176950107
 20
37.9978196087
 10
50.1480225195
 20
37.9361683347
 10
50.1827220821
 20
37.8765590106
 10
50.2211599055
 20
37.8199188818
 10
50.2632568213
 20
37.7664073886
 10
50.3090920217
 20
37.7158650862
 10
50.3582692501
 20
37.6687408898
 10
50.4108063865
 20
37.624980714
 10
50.4666855675
 20
37.584638642
 10
50.5254569161
 20
37.5483258408
 10
50.5875372572
 20
37.5159751188
 10
50.6525097696
 20
37.4876536676
 10
50.7186740972
 20
37.4641742257
 10
50.7863761355
 20
37.4458676835
 10
50.8552699705
 20
37.4324031487
 10
50.9226175198
 20
37.42360068
 10
50.986518456
 20
37.41939934
 10
51.0488730798
 20
37.4198600578
 10
51.1126442485
 20
37.4249856925
 10
51.1798003082
 20
37.4347867922
 10
51.248372886
 20
37.4492528173
 10
51.315419763
 20
37.4683549967
 10
51.3804005042
 20
37.4923405298
 10
51.4438555292
 20
37.520962218
 10
51.5044639123
 20
37.5534496879
 10
51.561899463
 20
37.5897075495
 10
51.616488376
 20
37.6298311928
 10
51.6678883122
 20
37.6733364118
 10
51.716137558
 20
37.720209745
 10
51.7611978424
 20
37.7704646565
 10
51.8026119946
 20
37.8236573271
 10
51.8404473816
 20
37.8799554166
 10
51.8746366593
 20
37.9391912697
 10
51.9045205952
 20
38.0004180933
 10
51.9299957016
 20
38.0636803663
 10
51.9511654907
 20
38.1289336139
 10
51.9676812315
 20
38.1950976082
 10
51.9794266857
 20
38.2618122735
  0
LINE
  5
274
100
AcDbEntity
  8
0
100
AcDbLine
 62
7
  6
CONTINUOUS
 10
50.0320954146
 20
38.3979750791
 11
50.0345193984
 21
38.3291716961
  0
LINE
  5
275
100
AcDbEntity
  8
0
100
AcDbLine
 62
7
  6
CONTINUOUS
 10
50.0320954146
 20
41.3979595241
 11
50.0320954146
 21
38.3979750791
  0
LINE
  5
276
100
AcDbEntity
  8
DRAFT
100
AcDbLine
 62
7
  6
CONTINUOUS
 10
50.0320954141
 20
38.3979751113
 11
50.0320954146
 21
41.3979595083
  0
LWPOLYLINE
  5
277
100
AcDbEntity
  8
DRAFT
100
AcDbPolyline
 62
7
  6
CONTINUOUS
 90
37
 70
0
 10
50.0320954146
 20
41.3979595083
 10
50.0362192742
 20
41.4849905428
 10
50.0474756665
 20
41.5698988927
 10
50.0658646011
 20
41.6526845636
 10
50.0916232782
 20
41.7338724727
 10
50.1245145335
 20
41.8129377099
 10
50.1638268351
 20
41.8883055415
 10
50.2097604045
 20
41.9599879797
 10
50.2621150713
 20
42.0279730195
 10
50.3195787084
 20
42.0906499076
 10
50.3821299367
 20
42.1478117805
 10
50.4497901695
 20
42.1996655085
 10
50.5213114517
 20
42.2452209434
 10
50.5969371645
 20
42.2844445258
 10
50.6764239286
 20
42.317369818
 10
50.7577936297
 20
42.3431073598
 10
50.8410129874
 20
42.3614380147
 10
50.9261152456
 20
42.3725809214
 10
51.0112220615
 20
42.376304038
 10
51.0963676176
 20
42.372437773
 10
51.1815176805
 20
42.3611517177
 10
51.2646912836
 20
42.3427226103
 10
51.3458426305
 20
42.3169552908
 10
51.4250174822
 20
42.2840449175
 10
51.5003722221
 20
42.2448537117
 10
51.5717083656
 20
42.1993536433
 10
51.6392243992
 20
42.1475727395
 10
51.7016721825
 20
42.0904573125
 10
51.7590857502
 20
42.0277776604
 10
51.8114311013
 20
41.9597634782
 10
51.8573580588
 20
41.8880501788
 10
51.8966565463
 20
41.8126421575
 10
51.9295366912
 20
41.7335350117
 10
51.9552786297
 20
41.6523509638
 10
51.9736424204
 20
41.5696307535
 10
51.9848680406
 20
41.4848336343
 10
51.9889554999
 20
41.3979596004
  0
LWPOLYLINE
  5
278
100
AcDbEntity
  8
0
100
AcDbPolyline
 62
7
  6
CONTINUOUS
 90
3
 70
0
 10
50.0415879861
 20
41.5340402143
 10
50.0345163097
 20
41.4664643761
 10
50.0320954146
 20
41.3979595241
  0
LWPOLYLINE
  5
279
100
AcDbEntity
  8
0
100
AcDbPolyline
 62
7
  6
CONTINUOUS
 90
2
 70
0
 43
0.3500000006
 10
76.1158484802
 20
38.8622520905
 10
74.6158434906
 20
38.8622520905
  0
LWPOLYLINE
  5
27A
100
AcDbEntity
  8
RACCORDO
100
AcDbPolyline
 62
250
  6
CONTINUOUS
 90
16
 70
0
 10
61.9615065345
 20
18.3719524991
 10
61.9589091077
 20
18.3763172508
 10
61.9563556217
 20
18.3840282479
 10
61.9538460763
 20
18.3950854905
 10
61.9513672911
 20
18.4095789178
 10
61.9489324465
 20
18.4274185905
 10
61.9465810849
 20
18.4483346914
 10
61.944315627
 20
18.4723721335
 10
61.9421336521
 20
18.4994860038
 10
61.9400674393
 20
18.5292717458
 10
61.9381187395
 20
18.5617707529
 10
61.9362858019
 20
18.5969416317
 10
61.9345956532
 20
18.634255645
 10
61.933050588
 20
18.6737418477
 10
61.9316483116
 20
18.7153711849
 10
61.9304089662
 20
18.7585277545
  0
LWPOLYLINE
  5
27B
100
AcDbEntity
  8
0
100
AcDbPolyline
 62
7
  6
CONTINUOUS
 90
43
 70
0
 10
51.9865361936
 20
41.4669507625
 10
51.9793429742
 20
41.5350944265
 10
51.9673758369
 20
41.6023905857
 10
51.9505042761
 20
41.6692429109
 10
51.9288587813
 20
41.7352477337
 10
51.9028308393
 20
41.7991940498
 10
51.8723380268
 20
41.8609957702
 10
51.8374627415
 20
41.9207389883
 10
51.7988437023
 20
41.977470976
 10
51.7565664294
 20
42.031013906
 10
51.7105453789
 20
42.0815456102
 10
51.6611626772
 20
42.1286468517
 10
51.6084095782
 20
42.1723803472
 10
51.5522948116
 20
42.2126833821
 10
51.4932267227
 20
42.2489485727
 10
51.4307242516
 20
42.2812626508
 10
51.3652684544
 20
42.3095388844
 10
51.2987108614
 20
42.3329096974
 10
51.2307399724
 20
42.3510038196
 10
51.161667307
 20
42.3641925236
 10
51.0942789373
 20
42.3727220539
 10
51.0305369844
 20
42.3766679625
 10
50.9684793537
 20
42.3759547063
 10
50.9050057957
 20
42.3706018861
 10
50.8381116177
 20
42.3606112122
 10
50.769801539
 20
42.345980966
 10
50.7029894247
 20
42.3267256036
 10
50.6381847844
 20
42.3025784374
 10
50.5748781238
 20
42.2738061541
 10
50.5144547915
 20
42.2412232776
 10
50.4572808958
 20
42.2049472157
 10
50.4029903237
 20
42.1648605609
 10
50.351870083
 20
42.1214256167
 10
50.303864597
 20
42.0746621482
 10
50.2590294273
 20
42.0245503879
 10
50.2178182842
 20
41.9714933411
 10
50.180169519
 20
41.9153075233
 10
50.1461447579
 20
41.8561764145
 10
50.1163826194
 20
41.795053468
 10
50.090966563
 20
41.7319022231
 10
50.0698131051
 20
41.6667591365
 10
50.0533104477
 20
41.600687041
 10
50.0415879861
 20
41.5340402143
  0
LINE
  5
27C
100
AcDbEntity
  8
0
100
AcDbLine
 62
7
  6
CONTINUOUS
 10
51.9889554992
 20
41.3979595918
 11
51.9865361936
 21
41.4669507625
  0
LINE
  5
27D
100
AcDbEntity
  8
DRAFT
100
AcDbLine
 62
7
  6
CONTINUOUS
 10
51.9889554999
 20
41.3979596004
 11
51.9889554992
 21
38.397973878
  0
LINE
  5
27E
100
AcDbEntity
  8
0
100
AcDbLine
 62
7
  6
CONTINUOUS
 10
51.9889554992
 20
38.3979738546
 11
51.9889554992
 21
41.3979595918
  0
LWPOLYLINE
  5
27F
100
AcDbEntity
  8
DRAFT
100
AcDbPolyline
 62
7
  6
CONTINUOUS
 90
37
 70
0
 10
51.9889554992
 20
38.397973878
 10
51.9850181857
 20
38.3118444149
 10
51.9739523837
 20
38.2276170858
 10
51.9557580837
 20
38.1452918856
 10
51.9302306264
 20
38.0643156447
 10
51.8975746355
 20
37.9852415267
 10
51.8584040214
 20
37.909729024
 10
51.8124712922
 20
37.8377352649
 10
51.7600238877
 20
37.7693031146
 10
51.7024181235
 20
37.7062206637
 10
51.6396644416
 20
37.6487452554
 10
51.5717523653
 20
37.5966195398
 10
51.5000068485
 20
37.5508595622
 10
51.4241750003
 20
37.5115217708
 10
51.34450971
 20
37.4785497146
 10
51.2630946221
 20
37.4527900843
 10
51.1800436228
 20
37.4344706353
 10
51.0952428631
 20
37.4233636096
 10
51.0104343994
 20
37.4196324226
 10
50.9255917438
 20
37.4233965001
 10
50.8407414346
 20
37.4345364165
 10
50.7577050665
 20
37.4528573054
 10
50.6764340925
 20
37.4785634186
 10
50.5969770963
 20
37.5114505067
 10
50.5213013547
 20
37.5507109468
 10
50.4496085263
 20
37.5964132722
 10
50.3816969517
 20
37.6484889527
 10
50.3189289106
 20
37.7059247657
 10
50.2613035025
 20
37.7689744834
 10
50.2088215935
 20
37.8373843404
 10
50.1628480966
 20
37.9093798011
 10
50.1236274759
 20
37.984929584
 10
50.0909152154
 20
38.0640649773
 10
50.0653427509
 20
38.1451052929
 10
50.0471205481
 20
38.2274903023
 10
50.0360381056
 20
38.31178024
 10
50.0320954141
 20
38.3979751113
  0
LWPOLYLINE
  5
280
100
AcDbEntity
  8
0
100
AcDbPolyline
 62
7
  6
CONTINUOUS
 90
3
 70
0
 10
51.9794266857
 20
38.2618122735
 10
51.986518107
 20
38.3294376882
 10
51.9889554992
 20
38.3979738546
  0
LWPOLYLINE
  5
281
100
AcDbEntity
  8
RACCORDO
100
AcDbPolyline
 62
250
  6
CONTINUOUS
 90
16
 70
0
 10
40.0595443784
 20
61.4239841859
 10
40.0621413744
 20
61.4196208501
 10
40.0646945005
 20
61.4119116562
 10
40.0672037566
 20
61.4008566045
 10
40.0696823433
 20
61.3863656744
 10
40.0721170601
 20
61.3685288864
 10
40.0744683051
 20
61.3476163013
 10
40.0767336138
 20
61.3235836207
 10
40.0789154508
 20
61.296475143
 10
40.0809816085
 20
61.2666938246
 10
40.0829303745
 20
61.2341978952
 10
40.0847634611
 20
61.1990291251
 10
40.0864537987
 20
61.1617157817
 10
40.0879991026
 20
61.1222282323
 10
40.0894016575
 20
61.0805961095
 10
40.0906412466
 20
61.0374365789
  0
LINE
  5
282
100
AcDbEntity
  8
0
100
AcDbLine
 62
250
  6
CONTINUOUS
 10
40.0595443784
 20
18.3719524981
 11
39.9731187309
 21
18.2855268507
  0
LINE
  5
283
100
AcDbEntity
  8
0
100
AcDbLine
 62
250
  6
CONTINUOUS
 10
40.5588591457
 20
17.8726377308
 11
40.4724334983
 21
17.7862120833
  0
LINE
  5
284
100
AcDbEntity
  8
0
100
AcDbLine
 62
250
  6
CONTINUOUS
 10
39.9731187309
 20
61.5104098334
 11
40.0595443784
 21
61.4239841859
  0
LINE
  5
285
100
AcDbEntity
  8
0
100
AcDbLine
 62
250
  6
CONTINUOUS
 10
40.4724334983
 20
62.0097246007
 11
40.5588591457
 21
61.9232989533
  0
LINE
  5
286
100
AcDbEntity
  8
RACCORDO
100
AcDbLine
 62
250
  6
CONTINUOUS
 10
61.4621917671
 20
17.8726377318
 11
61.4620457942
 21
17.8800385898
  0
LINE
  5
287
100
AcDbEntity
  8
RACCORDO
100
AcDbLine
 62
250
  6
CONTINUOUS
 10
61.9304089662
 20
18.7585277545
 11
61.9284237171
 21
18.8495091322
  0
LINE
  5
288
100
AcDbEntity
  8
RACCORDO
100
AcDbLine
 62
250
  6
CONTINUOUS
 10
61.9284237171
 20
18.8495091322
 11
61.9271340916
 21
18.9441137248
  0
LINE
  5
289
100
AcDbEntity
  8
RACCORDO
100
AcDbLine
 62
250
  6
CONTINUOUS
 10
61.9271340916
 20
18.9441137248
 11
61.9265532596
 21
19.0415958179
  0
LINE
  5
28A
100
AcDbEntity
  8
RACCORDO
100
AcDbLine
 62
250
  6
CONTINUOUS
 10
61.452684884
 20
28.2959179003
 11
61.4485929076
 21
37.5771133654
  0
LINE
  5
28B
100
AcDbEntity
  8
RACCORDO
100
AcDbLine
 62
250
  6
CONTINUOUS
 10
61.4485929076
 20
37.5771133654
 11
61.4499568979
 21
46.8599920226
  0
LINE
  5
28C
100
AcDbEntity
  8
RACCORDO
100
AcDbLine
 62
250
  6
CONTINUOUS
 10
61.4499568979
 20
46.8599920226
 11
61.4567768496
 21
56.1386746814
  0
LINE
  5
28D
100
AcDbEntity
  8
RACCORDO
100
AcDbLine
 62
250
  6
CONTINUOUS
 10
61.4620457942
 20
17.8800385898
 11
61.452684884
 21
28.2959179003
  0
LINE
  5
28E
100
AcDbEntity
  8
RACCORDO
100
AcDbLine
 62
250
  6
CONTINUOUS
 10
61.4567768496
 20
56.1386746814
 11
61.4619660114
 21
61.9025967676
  0
LWPOLYLINE
  5
28F
100
AcDbEntity
  8
RACCORDO
100
AcDbPolyline
 62
250
  6
CONTINUOUS
 90
3
 70
0
 10
61.4619660114
 20
61.9025967676
 10
61.4620458709
 20
61.9158979354
 10
61.4621917671
 20
61.9232989523
  0
LINE
  5
290
100
AcDbEntity
  8
RACCORDO
100
AcDbLine
 62
250
  6
CONTINUOUS
 10
61.9265532596
 20
60.7543408662
 11
61.9271342369
 21
60.851836754
  0
LINE
  5
291
100
AcDbEntity
  8
RACCORDO
100
AcDbLine
 62
250
  6
CONTINUOUS
 10
61.9271342369
 20
60.851836754
 11
61.9284240915
 21
60.9464502392
  0
LWPOLYLINE
  5
292
100
AcDbEntity
  8
RACCORDO
100
AcDbPolyline
 62
250
  6
CONTINUOUS
 90
17
 70
0
 10
61.9284240915
 20
60.9464502392
 10
61.9304096662
 20
61.0374365769
 10
61.9316492553
 20
61.0805961075
 10
61.9330518101
 20
61.1222282303
 10
61.9345971141
 20
61.1617157798
 10
61.9362874516
 20
61.1990291232
 10
61.9381205383
 20
61.2341978934
 10
61.9400693042
 20
61.2666938229
 10
61.942135462
 20
61.2964751413
 10
61.944317299
 20
61.323583619
 10
61.9465826077
 20
61.3476162998
 10
61.9489338527
 20
61.3685288851
 10
61.9513685695
 20
61.3863656734
 10
61.9538471562
 20
61.4008566037
 10
61.9563564123
 20
61.4119116555
 10
61.9589095384
 20
61.4196208493
 10
61.9615065345
 20
61.423984185
  0
LWPOLYLINE
  5
293
100
AcDbEntity
  8
0
100
AcDbPolyline
 62
7
  6
CONTINUOUS
 90
10
 70
0
 43
0.3500000006
 10
75.6158437958
 20
40.8622527008
 10
75.7587016296
 20
40.9336838837
 10
75.8301328125
 20
40.9336838837
 10
75.9729861145
 20
40.7908260498
 10
75.9729861145
 20
40.7193948669
 10
75.9015594635
 20
40.6479682159
 10
75.8301328125
 20
40.6479682159
 10
75.6872749786
 20
40.7193948669
 10
75.6158437958
 20
40.7908260498
 10
75.6158437958
 20
40.8622527008
  0
LWPOLYLINE
  5
294
100
AcDbEntity
  8
0
100
AcDbPolyline
 62
7
  6
CONTINUOUS
 90
3
 70
0
 43
0.3500000006
 10
75.8301328125
 20
40.9336838837
 10
76.0444172974
 20
40.8622527008
 10
76.3301329651
 20
40.7193948669
  0
LWPOLYLINE
  5
295
100
AcDbEntity
  8
RACCORDO
100
AcDbPolyline
 62
250
  6
CONTINUOUS
 90
10
 70
0
 10
61.9265532596
 20
19.0415958179
 10
61.9173230722
 20
23.6744483448
 10
61.9104004313
 20
28.3082490172
 10
61.905785337
 20
32.9429978353
 10
61.9034777886
 20
37.5793266855
 10
61.9034777866
 20
42.2166036812
 10
61.9057853326
 20
46.8529331631
 10
61.910400427
 20
51.4876832446
 10
61.9173230694
 20
56.1214858124
 10
61.9265532596
 20
60.7543408662
  0
LINE
  5
296
100
AcDbEntity
  8
0
100
AcDbLine
 62
7
  6
CONTINUOUS
 10
62.0479321829
 20
18.2855268507
 11
62.0479321829
 21
61.5104098334
  0
LWPOLYLINE
  5
297
100
AcDbEntity
  8
0
100
AcDbPolyline
 62
7
  6
CONTINUOUS
 90
10
 70
0
 43
0.3500000006
 10
52.296240921
 20
78.5413496704
 10
52.367667572
 20
78.3984963684
 10
52.367667572
 20
78.3270651855
 10
52.2248097382
 20
78.1842028198
 10
52.1533830872
 20
78.1842028198
 10
52.0819519043
 20
78.2556340027
 10
52.0819519043
 20
78.3270651855
 10
52.1533830872
 20
78.4699184875
 10
52.2248097382
 20
78.5413496704
 10
52.296240921
 20
78.5413496704
  0
LWPOLYLINE
  5
298
100
AcDbEntity
  8
RACCORDO
100
AcDbPolyline
 62
250
  6
CONTINUOUS
 90
14
 70
0
 10
40.4637408368
 20
60.7746657142
 10
40.4178003679
 20
60.7739314576
 10
40.3734998179
 20
60.7730146738
 10
40.3312519386
 20
60.7719239047
 10
40.291450357
 20
60.7706693129
 10
40.2544659078
 20
60.7692625877
 10
40.2206431781
 20
60.7677168356
 10
40.1902972971
 20
60.7660464585
 10
40.1637109998
 20
60.7642670194
 10
40.1411319931
 20
60.7623950975
 10
40.1227706474
 20
60.7604481338
 10
40.1087980367
 20
60.7584442681
 10
40.0993443452
 20
60.7564021707
 10
40.0944976537
 20
60.754340868
  0
LINE
  5
299
100
AcDbEntity
  8
RACCORDO
100
AcDbLine
 62
250
  6
CONTINUOUS
 10
40.5588181153
 20
60.7755610458
 11
40.4637408368
 21
60.7746657142
  0
LINE
  5
29A
100
AcDbEntity
  8
RACCORDO
100
AcDbLine
 62
250
  6
CONTINUOUS
 10
40.5588181152
 20
60.7755610013
 11
61.4622327971
 21
60.7755609995
  0
LWPOLYLINE
  5
29B
100
AcDbEntity
  8
RACCORDO
100
AcDbPolyline
 62
250
  6
CONTINUOUS
 90
15
 70
0
 10
61.4622319759
 20
60.7755605393
 10
61.5573084623
 20
60.7746652326
 10
61.6032485901
 20
60.7739309964
 10
61.6475488502
 20
60.773014238
 10
61.6897965008
 20
60.7719234988
 10
61.7295979241
 20
60.7706689406
 10
61.7665822936
 20
60.7692622522
 10
61.8004050288
 20
60.7677165396
 10
61.8307510062
 20
60.7660462039
 10
61.8573374949
 20
60.7642668078
 10
61.8799167907
 20
60.7623949295
 10
61.8982785243
 20
60.7604480092
 10
61.9122516208
 20
60.7584441862
 10
61.9217058941
 20
60.75640213
 10
61.9265532595
 20
60.7543408662
  0
LWPOLYLINE
  5
29C
100
AcDbEntity
  8
RACCORDO
100
AcDbPolyline
 62
250
  6
CONTINUOUS
 90
16
 70
0
 10
40.5588591457
 20
61.9232989533
 10
40.5067563173
 20
61.9204303904
 10
40.4552224363
 20
61.9121414619
 10
40.4048201633
 20
61.898522691
 10
40.3560997845
 20
61.8797227861
 10
40.3095932513
 20
61.8559470343
 10
40.2658083654
 20
61.8274550753
 10
40.2252231659
 20
61.7945580293
 10
40.1882807348
 20
61.7576150953
 10
40.1553843973
 20
61.7170296624
 10
40.1268932881
 20
61.6732448816
 10
40.1031184275
 20
61.6267388095
 10
40.0843193435
 20
61.5780192016
 10
40.0707012436
 20
61.5276179814
 10
40.0624127712
 20
61.4760854342
 10
40.0595443784
 20
61.4239841859
  0
LINE
  5
29D
100
AcDbEntity
  8
RACCORDO
100
AcDbLine
 62
250
  6
CONTINUOUS
 10
54.0902549542
 20
61.9055636218
 11
61.4621917672
 21
61.9232989524
  0
LINE
  5
29E
100
AcDbEntity
  8
0
100
AcDbLine
 62
7
  6
CONTINUOUS
 10
61.5486174155
 20
62.0097246007
 11
40.4724334983
 21
62.0097246007
  0
LINE
  5
29F
100
AcDbEntity
  8
RACCORDO
100
AcDbLine
 62
250
  6
CONTINUOUS
 10
46.6472435475
 20
61.9072641118
 11
54.0902549542
 21
61.9055636218
  0
LINE
  5
2A0
100
AcDbEntity
  8
RACCORDO
100
AcDbLine
 62
250
  6
CONTINUOUS
 10
40.5588591457
 20
61.9232989533
 11
46.6472435475
 21
61.9072641118
  0
LWPOLYLINE
  5
2A1
100
AcDbEntity
  8
RACCORDO
100
AcDbPolyline
 62
250
  6
CONTINUOUS
 90
16
 70
0
 10
61.4621917671
 20
61.9232989523
 10
61.5142938899
 20
61.9204304657
 10
61.5658271581
 20
61.9121417449
 10
61.6162289281
 20
61.8985232866
 10
61.6649489098
 20
61.8797237783
 10
61.7114551753
 20
61.8559484741
 10
61.755239966
 20
61.8274569545
 10
61.7958252365
 20
61.7945602918
 10
61.8327678742
 20
61.757617654
 10
61.8656645368
 20
61.7170323835
 10
61.8941560563
 20
61.6732475928
 10
61.9179313604
 20
61.6267413273
 10
61.9367308688
 20
61.5780213456
 10
61.950349327
 20
61.5276195757
 10
61.9586380478
 20
61.4760863076
 10
61.9615065345
 20
61.423984185
  0
LWPOLYLINE
  5
2A2
100
AcDbEntity
  8
0
100
AcDbPolyline
 62
7
  6
CONTINUOUS
 90
3
 70
0
 43
0.3500000006
 10
75.4729859619
 20
39.362252243
 10
75.4729859619
 20
37.8622563171
 10
73.1158430328
 20
38.5051097717
  0
LWPOLYLINE
  5
2A3
100
AcDbEntity
  8
0
100
AcDbPolyline
 62
7
  6
CONTINUOUS
 90
3
 70
0
 43
0.3500000006
 10
75.4729859619
 20
37.005109314
 10
75.4729859619
 20
35.5051133881
 10
73.1158430328
 20
36.1479668427
  0
LWPOLYLINE
  5
2A4
100
AcDbEntity
  8
0
100
AcDbPolyline
 62
7
  6
CONTINUOUS
 90
7
 70
0
 43
0.3500000006
 10
76.1158484802
 20
43.4336846466
 10
76.1158484802
 20
41.9336841888
 10
73.972990036
 20
43.4336846466
 10
73.5444165344
 20
43.4336846466
 10
73.1158430328
 20
43.005111145
 10
73.1158430328
 20
42.3622531586
 10
73.7587010193
 20
41.9336841888
  0
LWPOLYLINE
  5
2A5
100
AcDbEntity
  8
0
100
AcDbPolyline
 62
7
  6
CONTINUOUS
 90
7
 70
0
 43
0.3500000006
 10
50.7962404633
 20
78.0413495178
 10
49.2962400055
 20
78.0413495178
 10
50.7962404633
 20
80.1842034302
 10
50.7962404633
 20
80.6127814636
 10
50.3676669617
 20
81.0413504333
 10
49.7248089752
 20
81.0413504333
 10
49.2962400055
 20
80.3984969788
  0
LWPOLYLINE
  5
2A6
100
AcDbEntity
  8
0
100
AcDbPolyline
 62
7
  6
CONTINUOUS
 90
7
 70
0
 43
0.3500000006
 10
48.4390975342
 20
78.0413495178
 10
46.9390970764
 20
78.0413495178
 10
48.4390975342
 20
80.1842034302
 10
48.4390975342
 20
80.6127814636
 10
48.0105240326
 20
81.0413504333
 10
47.367670578
 20
81.0413504333
 10
46.9390970764
 20
80.3984969788
  0
LWPOLYLINE
  5
2A7
100
AcDbEntity
  8
0
100
AcDbPolyline
 62
7
  6
CONTINUOUS
 90
5
 70
0
 43
0.3500000006
 10
-1.6745444927
 20
79.7556344604
 10
-1.3174016075
 20
79.9699189453
 10
-1.3174016075
 20
80.6127814636
 10
-1.6745444927
 20
81.0413504333
 10
-2.5316872473
 20
81.0413504333
  0
LWPOLYLINE
  5
2A8
100
AcDbEntity
  8
0
100
AcDbPolyline
 62
7
  6
CONTINUOUS
 90
3
 70
0
 43
0.3500000006
 10
0.3254554803
 20
78.3270651855
 10
0.2540268998
 20
78.1127807007
 10
0.1111697563
 20
77.827065033
  0
LINE
  5
2A9
100
AcDbEntity
  8
RACCORDO
100
AcDbLine
 62
250
  6
CONTINUOUS
 10
12.2862802537
 20
19.0203756406
 11
12.2919679346
 21
19.0207260839
  0
LINE
  5
2AA
100
AcDbEntity
  8
RACCORDO
100
AcDbLine
 62
250
  6
CONTINUOUS
 10
12.2919679346
 20
19.0207260839
 11
12.3170172908
 21
19.0220052288
  0
LINE
  5
2AB
100
AcDbEntity
  8
RACCORDO
100
AcDbLine
 62
250
  6
CONTINUOUS
 10
12.3170172908
 20
19.0220052288
 11
12.6170246465
 21
19.0354885523
  0
LINE
  5
2AC
100
AcDbEntity
  8
RACCORDO
100
AcDbLine
 62
250
  6
CONTINUOUS
 10
12.6170246465
 20
19.0354885523
 11
12.7584345635
 21
19.0415958179
  0
LINE
  5
2AD
100
AcDbEntity
  8
RACCORDO
100
AcDbLine
 62
250
  6
CONTINUOUS
 10
11.9193265533
 20
19.0277993915
 11
12.2862802491
 21
19.0203756831
  0
LINE
  5
2AE
100
AcDbEntity
  8
0
100
AcDbLine
 62
7
  6
CONTINUOUS
 10
15.0744823907
 20
17.7862120833
 11
13.4253827802
 21
17.8726377317
  0
LINE
  5
2AF
100
AcDbEntity
  8
RACCORDO
100
AcDbLine
 62
7
  6
CONTINUOUS
 10
13.425382799
 20
17.8726377308
 11
13.0548890259
 21
17.8920544866
  0
LINE
  5
2B0
100
AcDbEntity
  8
0
100
AcDbLine
 62
250
  6
CONTINUOUS
 10
15.0744823907
 20
18.2855268507
 11
13.42538278
 21
18.3719524991
  0
LWPOLYLINE
  5
2B1
100
AcDbEntity
  8
RACCORDO
100
AcDbPolyline
 62
250
  6
CONTINUOUS
 90
22
 70
0
 10
13.42538278
 20
17.8726377318
 10
13.3409959004
 20
17.8800385898
 10
13.2573606589
 20
17.8933395045
 10
13.1748887836
 20
17.9124710567
 10
13.093985616
 20
17.9373345319
 10
13.0150487459
 20
17.9678036847
 10
12.9384665148
 20
18.0037265943
 10
12.8646115823
 20
18.0449253976
 10
12.7938496403
 20
18.0911926625
 10
12.7265377682
 20
18.1422932419
 10
12.6630066261
 20
18.1979699707
 10
12.6035637369
 20
18.2579463044
 10
12.5485025096
 20
18.3219235695
 10
12.4980908087
 20
18.389583578
 10
12.4525727492
 20
18.4605903203
 10
12.4121717245
 20
18.5345918432
 10
12.3770855928
 20
18.6112154534
 10
12.347479214
 20
18.6900878942
 10
12.3234913432
 20
18.7708391187
 10
12.3052395996
 20
18.8530782584
 10
12.2928154149
 20
18.9363939055
 10
12.286280255
 20
19.0203756836
  0
LWPOLYLINE
  5
2B2
100
AcDbEntity
  8
RACCORDO
100
AcDbPolyline
 62
250
  6
CONTINUOUS
 90
22
 70
0
 10
13.42538278
 20
18.3719524991
 10
13.3758209244
 20
18.3763172508
 10
13.3270975081
 20
18.3840282479
 10
13.279212531
 20
18.3950854905
 10
13.2319144902
 20
18.4095789178
 10
13.1854548887
 20
18.4274185905
 10
13.1405882353
 20
18.4483346914
 10
13.0973607246
 20
18.4723721335
 10
13.0557261621
 20
18.4994860038
 10
13.0163004733
 20
18.5292717458
 10
12.9791170672
 20
18.5617707529
 10
12.9441425347
 20
18.5969416317
 10
12.9118925749
 20
18.634255645
 10
12.8824109748
 20
18.6737418477
 10
12.8556539473
 20
18.7153711849
 10
12.8320058297
 20
18.7585277545
 10
12.8115109698
 20
18.8032548272
 10
12.7941250198
 20
18.8495091322
 10
12.7800992747
 20
18.8965449553
 10
12.7695174994
 20
18.9441137248
 10
12.762295929
 20
18.9924640124
 10
12.7584345635
 20
19.0415958179
  0
LWPOLYLINE
  5
2B3
100
AcDbEntity
  8
RACCORDO
100
AcDbPolyline
 62
250
  6
CONTINUOUS
 90
16
 70
0
 10
13.4253827806
 20
61.9232989523
 10
13.4228025563
 20
61.9204304657
 10
13.4205362065
 20
61.9121417449
 10
13.4186084752
 20
61.8985232866
 10
13.4170404097
 20
61.8797237783
 10
13.4158491301
 20
61.8559484741
 10
13.4150476433
 20
61.8274569545
 10
13.4146447002
 20
61.7945602918
 10
13.4146446999
 20
61.757617654
 10
13.4150476425
 20
61.7170323835
 10
13.4158491286
 20
61.6732475928
 10
13.4170404076
 20
61.6267413273
 10
13.418608473
 20
61.5780213456
 10
13.4205362045
 20
61.5276195757
 10
13.4228025551
 20
61.4760863076
 10
13.4253827806
 20
61.423984185
  0
LWPOLYLINE
  5
2B4
100
AcDbEntity
  8
RACCORDO
100
AcDbPolyline
 62
250
  6
CONTINUOUS
 90
16
 70
0
 10
13.42538278
 20
17.8726377318
 10
13.4228025202
 20
17.875506287
 10
13.4205361462
 20
17.8837951944
 10
13.4186084017
 20
17.8974139336
 10
13.4170403327
 20
17.9162137983
 10
13.4158490589
 20
17.9399895049
 10
13.4150475866
 20
17.9684814197
 10
13.414644664
 20
18.0013784274
 10
13.4146446875
 20
18.0383213322
 10
13.415047654
 20
18.0789067494
 10
13.415849161
 20
18.1226915321
 10
13.4170404545
 20
18.1691976246
 10
13.4186085258
 20
18.2179172705
 10
13.4205362525
 20
18.2683185457
 10
13.4228025858
 20
18.3198511645
 10
13.42538278
 20
18.3719524991
  0
LINE
  5
2B5
100
AcDbEntity
  8
0
100
AcDbLine
 62
7
  6
CONTINUOUS
 10
15.0744823907
 20
26.576580011
 11
16.0744823907
 21
26.6289877902
  0
LWPOLYLINE
  5
2B6
100
AcDbEntity
  8
0
100
AcDbPolyline
 62
7
  6
CONTINUOUS
 90
4
 70
0
 43
0.3500000006
 10
1.3254554315
 20
80.3984969788
 10
1.3254554315
 20
81.0413504333
 10
2.8254554644
 20
81.0413504333
 10
1.9683125682
 20
78.0413495178
  0
LINE
  5
2B7
100
AcDbEntity
  8
0
100
AcDbLine
 62
7
  6
CONTINUOUS
 10
15.0744823907
 20
30.2193566731
 11
16.3744823907
 21
30.15122656
  0
LWPOLYLINE
  5
2B8
100
AcDbEntity
  8
RACCORDO
100
AcDbPolyline
 62
250
  6
CONTINUOUS
 90
10
 70
0
 10
12.2862802491
 20
19.0203756831
 10
12.1103594057
 20
23.6572589257
 10
11.9783331601
 20
28.2959179003
 10
11.8902716696
 20
32.9359377371
 10
11.8462252581
 20
37.5771133654
 10
11.8462252215
 20
42.2188156244
 10
11.890271571
 20
46.8599920226
 10
11.9783330325
 20
51.5000133988
 10
12.1103593036
 20
56.1386746814
 10
12.286280249
 20
60.7755609995
  0
LWPOLYLINE
  5
2B9
100
AcDbEntity
  8
RACCORDO
100
AcDbPolyline
 62
250
  6
CONTINUOUS
 90
10
 70
0
 10
12.7584345635
 20
19.0415958179
 10
12.5823120971
 20
23.6744483448
 10
12.4502202404
 20
28.3082490172
 10
12.3621589934
 20
32.9429978353
 10
12.3181283471
 20
37.5793266855
 10
12.3181283105
 20
42.2166036812
 10
12.3621589112
 20
46.8529331631
 10
12.4502201582
 20
51.4876832446
 10
12.5823120424
 20
56.1214858124
 10
12.7584345638
 20
60.7543408662
  0
LWPOLYLINE
  5
2BA
100
AcDbEntity
  8
0
100
AcDbPolyline
 62
7
  6
CONTINUOUS
 90
7
 70
0
 10
11.3821601733
 20
37.4196324167
 10
11.3897727619
 20
36.400542415
 10
11.4355855957
 20
32.9067169578
 10
11.511919707
 20
29.4134251644
 10
11.6187666264
 20
25.9209334702
 10
11.7561151585
 20
22.4295082504
 10
11.9193265579
 20
19.0277993037
  0
LINE
  5
2BB
100
AcDbEntity
  8
0
100
AcDbLine
 62
7
  6
CONTINUOUS
 10
11.382478669
 20
37.6298311928
 11
11.3788918926
 21
39.3937984679
  0
LINE
  5
2BC
100
AcDbEntity
  8
0
100
AcDbLine
 62
7
  6
CONTINUOUS
 10
11.3788918926
 20
39.3937984679
 11
11.379129326
 21
40.5646329457
  0
LINE
  5
2BD
100
AcDbEntity
  8
DRAFT
100
AcDbLine
 62
7
  6
CONTINUOUS
 10
11.3821601736
 20
42.3763043063
 11
11.3821393581
 21
41.6523509638
  0
LINE
  5
2BE
100
AcDbEntity
  8
0
100
AcDbLine
 62
7
  6
CONTINUOUS
 10
11.3821639396
 20
37.4190246358
 11
11.382478669
 21
37.6298311928
  0
LINE
  5
2BF
100
AcDbEntity
  8
DRAFT
100
AcDbLine
 62
7
  6
CONTINUOUS
 10
11.3824939875
 20
37.6487452554
 11
11.3821601734
 21
37.4196324144
  0
LINE
  5
2C0
100
AcDbEntity
  8
0
100
AcDbLine
 62
7
  6
CONTINUOUS
 10
11.3818395891
 20
41.5350944265
 11
11.3821641432
 21
42.3768362987
  0
LINE
  5
2C1
100
AcDbEntity
  8
DRAFT
100
AcDbLine
 62
7
  6
CONTINUOUS
 10
11.3821393581
 20
41.6523509638
 11
11.3824939875
 21
37.6487452554
  0
LINE
  5
2C2
100
AcDbEntity
  8
0
100
AcDbLine
 62
7
  6
CONTINUOUS
 10
11.379129326
 20
40.5646329457
 11
11.3818395891
 21
41.5350944265
  0
LWPOLYLINE
  5
2C3
100
AcDbEntity
  8
0
100
AcDbPolyline
 62
7
  6
CONTINUOUS
 90
7
 70
0
 10
11.9193265579
 20
60.7681373801
 10
11.755824085
 20
57.3597685132
 10
11.6185337267
 20
53.8683407785
 10
11.5117450077
 20
50.3758471279
 10
11.435469122
 20
46.8825539365
 10
11.3897145245
 20
43.3887276403
 10
11.3821601734
 20
42.3763042707
  0
LWPOLYLINE
  5
2C4
100
AcDbEntity
  8
RACCORDO
100
AcDbPolyline
 62
250
  6
CONTINUOUS
 90
22
 70
0
 10
12.2862802556
 20
60.7755609989
 10
12.2928152134
 20
60.8595410014
 10
12.305239052
 20
60.9428554707
 10
12.3234904274
 20
61.0250940303
 10
12.347478106
 20
61.1058454924
 10
12.3770845392
 20
61.184718706
 10
12.4121707495
 20
61.261342901
 10
12.4525716727
 20
61.3353445399
 10
12.4980895434
 20
61.4063512562
 10
12.5485010924
 20
61.4740113178
 10
12.6035622886
 20
61.5379887832
 10
12.6630052208
 20
61.5979653653
 10
12.7265364421
 20
61.6536423378
 10
12.7938484825
 20
61.7047431889
 10
12.8646106338
 20
61.7510107028
 10
12.9384655885
 20
61.792209609
 10
13.0150473394
 20
61.8281323944
 10
13.0939834813
 20
61.8586014094
 10
13.174886331
 20
61.8834649642
 10
13.2573585567
 20
61.9025967676
 10
13.340994615
 20
61.9158979354
 10
13.4253827806
 20
61.9232989523
  0
LWPOLYLINE
  5
2C5
100
AcDbEntity
  8
RACCORDO
100
AcDbPolyline
 62
250
  6
CONTINUOUS
 90
22
 70
0
 10
12.7584345638
 20
60.7543408662
 10
12.7622971051
 20
60.8034801415
 10
12.7695202713
 20
60.851836754
 10
12.7801040624
 20
60.8994107038
 10
12.7941321629
 20
60.9464502392
 10
12.8115208883
 20
60.992707112
 10
12.832019185
 20
61.0374365769
 10
12.8556719539
 20
61.0805961075
 10
12.8824342942
 20
61.1222282303
 10
12.9119204505
 20
61.1617157798
 10
12.9441740122
 20
61.1990291232
 10
12.9791513898
 20
61.2341978934
 10
13.0163360591
 20
61.2666938229
 10
13.0557606977
 20
61.2964751413
 10
13.0973926279
 20
61.323583619
 10
13.1406172926
 20
61.3476162998
 10
13.1854817211
 20
61.3685288851
 10
13.231938884
 20
61.3863656734
 10
13.2792331359
 20
61.4008566037
 10
13.3271125951
 20
61.4119116555
 10
13.3758291433
 20
61.4196208493
 10
13.4253827806
 20
61.423984185
  0
LINE
  5
2C6
100
AcDbEntity
  8
0
100
AcDbLine
 62
7
  6
CONTINUOUS
 10
15.0744823907
 20
17.7862120833
 11
15.0744823907
 21
62.0097246007
  0
LINE
  5
2C7
100
AcDbEntity
  8
0
100
AcDbLine
 62
250
  6
CONTINUOUS
 10
15.6954167732
 20
26.609121803
 11
15.6954167732
 21
27.5830531309
  0
LINE
  5
2C8
100
AcDbEntity
  8
0
100
AcDbLine
 62
250
  6
CONTINUOUS
 10
15.6954167732
 20
52.2128835532
 11
15.6954167732
 21
53.186814881
  0
LINE
  5
2C9
100
AcDbEntity
  8
0
100
AcDbLine
 62
250
  6
CONTINUOUS
 10
15.9954167732
 20
52.0729912557
 11
15.9954167732
 21
49.6248441368
  0
LINE
  5
2CA
100
AcDbEntity
  8
0
100
AcDbLine
 62
250
  6
CONTINUOUS
 10
15.9954167732
 20
27.7229454284
 11
15.9954167732
 21
30.1710925473
  0
LINE
  5
2CB
100
AcDbEntity
  8
0
100
AcDbLine
 62
7
  6
CONTINUOUS
 10
16.0744823907
 20
53.1669488938
 11
16.0744823907
 21
52.197968342
  0
LINE
  5
2CC
100
AcDbEntity
  8
0
100
AcDbLine
 62
7
  6
CONTINUOUS
 10
16.0744823907
 20
27.597968342
 11
16.0744823907
 21
26.6289877902
  0
LINE
  5
2CD
100
AcDbEntity
  8
0
100
AcDbLine
 62
7
  6
CONTINUOUS
 10
16.3744823907
 20
27.8334211786
 11
16.3744823907
 21
30.15122656
  0
LINE
  5
2CE
100
AcDbEntity
  8
0
100
AcDbLine
 62
7
  6
CONTINUOUS
 10
16.3744823907
 20
49.644710124
 11
16.3744823907
 21
51.9625155055
  0
LWPOLYLINE
  5
2CF
100
AcDbEntity
  8
0
100
AcDbPolyline
 62
250
  6
CONTINUOUS
 90
13
 70
0
 10
16.0509591191
 20
27.5869992603
 10
16.0512620156
 20
27.5885168934
 10
16.0505054982
 20
27.5922704012
 10
16.0487021496
 20
27.5981973536
 10
16.045881964
 20
27.6061991711
 10
16.0420918478
 20
27.6161427639
 10
16.03739484
 20
27.6278627457
 10
16.0318690633
 20
27.6411641846
 10
16.0256064248
 20
27.6558258453
 10
16.0187110874
 20
27.6716038684
 10
16.0112977374
 20
27.6882358271
 10
16.003489677
 20
27.7054450911
 10
15.9954167732
 20
27.7229454284
  0
LWPOLYLINE
  5
2D0
100
AcDbEntity
  8
0
100
AcDbPolyline
 62
7
  6
CONTINUOUS
 90
10
 70
0
 43
0.3500000006
 10
0.2540268998
 20
78.5413496704
 10
0.3254554803
 20
78.3984963684
 10
0.3254554803
 20
78.3270651855
 10
0.1825983369
 20
78.1842028198
 10
0.1111697563
 20
78.1842028198
 10
0.039741189
 20
78.2556340027
 10
0.039741189
 20
78.3270651855
 10
0.1111697563
 20
78.4699184875
 10
0.1825983369
 20
78.5413496704
 10
0.2540268998
 20
78.5413496704
  0
LWPOLYLINE
  5
2D1
100
AcDbEntity
  8
0
100
AcDbPolyline
 62
250
  6
CONTINUOUS
 90
13
 70
0
 10
16.0509591191
 20
52.2089374238
 10
16.0512619575
 20
52.2074198736
 10
16.0505054298
 20
52.2036665119
 10
16.0487021033
 20
52.1977397349
 10
16.0458819544
 20
52.1897380851
 10
16.0420918758
 20
52.1797946228
 10
16.0373949021
 20
52.168074724
 10
16.0318691483
 20
52.1547733036
 10
16.0256065141
 20
52.1401115858
 10
16.0187111685
 20
52.1243334476
 10
16.0112978014
 20
52.1077013264
 10
16.0034897132
 20
52.0904918492
 10
15.9954167737
 20
52.0729912555
  0
LINE
  5
2D2
100
AcDbEntity
  8
0
100
AcDbLine
 62
7
  6
CONTINUOUS
 10
16.3744823907
 20
49.644710124
 11
15.0744823907
 21
49.576580011
  0
LINE
  5
2D3
100
AcDbEntity
  8
0
100
AcDbLine
 62
250
  6
CONTINUOUS
 10
15.9954167732
 20
27.7229454284
 11
15.6954167732
 21
27.5830531309
  0
LINE
  5
2D4
100
AcDbEntity
  8
0
100
AcDbLine
 62
7
  6
CONTINUOUS
 10
16.28787513
 20
27.6974750105
 11
15.9968801931
 21
27.561781843
  0
LWPOLYLINE
  5
2D5
100
AcDbEntity
  8
0
100
AcDbPolyline
 62
7
  6
CONTINUOUS
 90
12
 70
0
 10
15.9968801931
 20
27.561781843
 10
15.9814432424
 20
27.5558995323
 10
15.9640391832
 20
27.5517294742
 10
15.9446687508
 20
27.5492360424
 10
15.9232644736
 20
27.5483235726
 10
15.8999426606
 20
27.5489162137
 10
15.8750166373
 20
27.5509322628
 10
15.8487153907
 20
27.5541306731
 10
15.8209876205
 20
27.558324863
 10
15.7917219331
 20
27.5635190746
 10
15.7609298679
 20
27.5695861819
 10
15.6954167732
 20
27.5830531309
  0
LINE
  5
2D6
100
AcDbEntity
  8
0
100
AcDbLine
 62
250
  6
CONTINUOUS
 10
16.374482388
 20
27.8334195034
 11
16.3731283782
 21
27.8330115072
  0
LWPOLYLINE
  5
2D7
100
AcDbEntity
  8
0
100
AcDbPolyline
 62
250
  6
CONTINUOUS
 90
3
 70
0
 10
16.3731283782
 20
27.8330115072
 10
16.0637794591
 20
27.7429625102
 10
15.9954167732
 20
27.7229454284
  0
LINE
  5
2D8
100
AcDbEntity
  8
0
100
AcDbLine
 62
7
  6
CONTINUOUS
 10
15.6954167732
 20
52.2128835532
 11
15.7609298679
 21
52.2263505022
  0
LWPOLYLINE
  5
2D9
100
AcDbEntity
  8
0
100
AcDbPolyline
 62
7
  6
CONTINUOUS
 90
11
 70
0
 10
15.7609298679
 20
52.2263505022
 10
15.7917219332
 20
52.2324176095
 10
15.8209876206
 20
52.237611821
 10
15.8487153908
 20
52.2418060109
 10
15.8750166374
 20
52.2450044213
 10
15.8999426606
 20
52.2470204704
 10
15.9232644736
 20
52.2476131115
 10
15.9446687508
 20
52.2467006416
 10
15.9640391833
 20
52.2442072099
 10
15.9814432424
 20
52.2400371518
 10
15.9968801931
 20
52.2341548411
  0
LINE
  5
2DA
100
AcDbEntity
  8
0
100
AcDbLine
 62
7
  6
CONTINUOUS
 10
15.0744823907
 20
53.2193566731
 11
16.0744823907
 21
53.1669488938
  0
LINE
  5
2DB
100
AcDbEntity
  8
0
100
AcDbLine
 62
250
  6
CONTINUOUS
 10
15.9954167732
 20
52.0729912557
 11
16.3731249851
 21
51.9629279057
  0
LINE
  5
2DC
100
AcDbEntity
  8
0
100
AcDbLine
 62
250
  6
CONTINUOUS
 10
16.3731249851
 20
51.9629279057
 11
16.3744823881
 21
51.9625171466
  0
LINE
  5
2DD
100
AcDbEntity
  8
0
100
AcDbLine
 62
250
  6
CONTINUOUS
 10
15.6954167732
 20
52.2128835532
 11
15.9954167732
 21
52.0729912557
  0
LINE
  5
2DE
100
AcDbEntity
  8
0
100
AcDbLine
 62
7
  6
CONTINUOUS
 10
15.9968801931
 20
52.2341548411
 11
16.28787513
 21
52.0984616735
  0
LINE
  5
2DF
100
AcDbEntity
  8
RACCORDO
100
AcDbLine
 62
250
  6
CONTINUOUS
 10
11.9193265534
 20
60.7681372937
 11
12.286280249
 21
60.7755609995
  0
LINE
  5
2E0
100
AcDbEntity
  8
RACCORDO
100
AcDbLine
 62
250
  6
CONTINUOUS
 10
12.3361555929
 20
60.773014238
 11
12.7584345638
 21
60.7543408662
  0
LWPOLYLINE
  5
2E1
100
AcDbEntity
  8
RACCORDO
100
AcDbPolyline
 62
250
  6
CONTINUOUS
 90
4
 70
0
 10
12.286292042
 20
60.7755605393
 10
12.2919794466
 20
60.7752101058
 10
12.302256653
 20
60.7746652326
 10
12.3361555929
 20
60.773014238
  0
LINE
  5
2E2
100
AcDbEntity
  8
0
100
AcDbLine
 62
250
  6
CONTINUOUS
 10
13.4253827806
 20
61.423984185
 11
15.0744823907
 21
61.5104098334
  0
LINE
  5
2E3
100
AcDbEntity
  8
RACCORDO
100
AcDbLine
 62
7
  6
CONTINUOUS
 10
13.425382799
 20
61.9232989533
 11
13.0548890237
 21
61.9038821973
  0
LINE
  5
2E4
100
AcDbEntity
  8
0
100
AcDbLine
 62
7
  6
CONTINUOUS
 10
13.4253827808
 20
61.9232989524
 11
15.0744823907
 21
62.0097246007
  0
LWPOLYLINE
  5
2E5
100
AcDbEntity
  8
0
100
AcDbPolyline
 62
7
  6
CONTINUOUS
 90
8
 70
0
 43
0.3500000006
 10
-0.9563130298
 20
70.1510906067
 10
-0.0991717003
 20
70.1526948853
 10
0.3285966969
 20
70.5820614624
 10
0.3269921705
 20
71.4392084656
 10
-0.1023807796
 20
71.8669707642
 10
-0.9595221534
 20
71.8653664856
 10
-0.9619289253
 20
73.1510824585
 10
0.3237830822
 20
73.1534934082
  0
LWPOLYLINE
  5
2E6
100
AcDbEntity
  8
0
100
AcDbPolyline
 62
7
  6
CONTINUOUS
 90
6
 70
0
 43
0.3500000006
 10
-2.5316872473
 20
78.0413495178
 10
-1.4602588749
 20
78.0413495178
 10
-1.2459731154
 20
78.2556340027
 10
-1.2459731154
 20
79.3270654907
 10
-1.6745444927
 20
79.7556344604
 10
-2.1031160116
 20
79.7556344604
  0
ARC
  5
2E7
100
AcDbEntity
  8
RACCORDO
100
AcDbCircle
 62
7
  6
CONTINUOUS
 10
13.1176921712
 20
60.7055267556
 40
1.2
100
AcDbArc
 50
93.0
 51
177.0092051148
  0
ARC
  5
2E8
100
AcDbEntity
  8
RACCORDO
100
AcDbCircle
 62
7
  6
CONTINUOUS
 10
13.1176921734
 20
19.0904099284
 40
1.2
100
AcDbArc
 50
182.9907948857
 51
267.0
  0
ARC
  5
2E9
100
AcDbEntity
  8
0
100
AcDbCircle
 62
7
  6
CONTINUOUS
 10
16.22446144
 20
51.962525275
 40
0.15
100
AcDbArc
 50
359.9962716879
 51
64.9911700817
  0
ARC
  5
2EA
100
AcDbEntity
  8
0
100
AcDbCircle
 62
7
  6
CONTINUOUS
 10
16.2244821438
 20
27.8334210634
 40
0.15
100
AcDbArc
 50
295.0001040944
 51
0.0000439919
  0
ELLIPSE
  5
2EB
100
AcDbEntity
  8
0
100
AcDbEllipse
 62
7
  6
CONTINUOUS
 10
61.5472460099
 20
18.2868982563
 30
0.0
 11
-0.3545231217
 21
0.3545231217
 31
0.0
 40
0.9972646886
 41
2.3575640181
 42
3.9256212891
  0
ELLIPSE
  5
2EC
100
AcDbEntity
  8
0
100
AcDbEllipse
 62
7
  6
CONTINUOUS
 10
61.5472460099
 20
61.5090384277
 30
0.0
 11
0.3545231217
 21
0.3545231217
 31
0.0
 40
0.9972646886
 41
-0.7840286355
 42
0.7840286355
  0
ELLIPSE
  5
2ED
100
AcDbEntity
  8
0
100
AcDbEllipse
 62
7
  6
CONTINUOUS
 10
40.4738049039
 20
61.5090384277
 30
0.0
 11
0.3545231217
 21
-0.3545231217
 31
0.0
 40
0.9972646886
 41
2.3575640181
 42
3.9256212891
  0
ELLIPSE
  5
2EE
100
AcDbEntity
  8
0
100
AcDbEllipse
 62
7
  6
CONTINUOUS
 10
40.4738049039
 20
18.2868982563
 30
0.0
 11
0.3545231217
 21
0.3545231217
 31
0.0
 40
0.9972646886
 41
-3.9256212891
 42
-2.3575640181
  0
ENDSEC
  0
SECTION
  2
OBJECTS
  0
DICTIONARY
  5
C
100
AcDbDictionary
280
0
281
1
  3
ACAD_GROUP
350
D
  3
ACAD_MLINESTYLE
350
17
  3
ACAD_LAYOUT
350
1A
  3
ACAD_PLOTSETTINGS
350
19
  3
ACAD_PLOTSTYLENAME
350
E
  0
DICTIONARY
  5
D
102
{ACAD_REACTORS
330
C
102
}
100
AcDbDictionary
280
0
281
1
  0
ACDBDICTIONARYWDFLT
  5
E
102
{ACAD_REACTORS
330
C
102
}
100
AcDbDictionary
281
1
  3
Normal
350
F
100
AcDbDictionaryWithDefault
340
F
  0
DICTIONARY
  5
17
102
{ACAD_REACTORS
330
C
102
}
100
AcDbDictionary
280
0
281
1
  3
Standard
350
18
  0
DICTIONARY
  5
19
102
{ACAD_REACTORS
330
C
102
}
100
AcDbDictionary
281
1
  0
DICTIONARY
  5
1A
102
{ACAD_REACTORS
330
C
102
}
100
AcDbDictionary
281
1
  3
Model
350
2EF
  3
Layout1
350
2F0
  0
ACDBPLACEHOLDER
  5
F
102
{ACAD_REACTORS
330
E
102
}
  0
MLINESTYLE
  5
18
102
{ACAD_REACTORS
330
17
102
}
100
AcDbMlineStyle
  2
STANDARD
 70
0
  3

 62
256
 51
90.0
 52
90.0
 71
2
 49
0.5
 62
256
  6
BYLAYER
 49
-0.5
 62
256
  6
BYLAYER
  0
LAYOUT
  5
2EF
102
{ACAD_REACTORS
330
1A
102
}
100
AcDbPlotSettings
  1

  2
none_device
  4
ISO_A4_(297.00_x_210.00_MM)
  6

 40
0.0
 41
0.0
 42
0.0
 43
0.0
 44
297.0
 45
210.0
 46
0.0
 47
0.0
 48
0.0
 49
0.0
140
0.0
141
0.0
142
1.0
143
1.0
 70
1024
 72
1
 73
0
 74
0
  7

 75
0
147
1.0
148
0.0
149
0.0
100
AcDbLayout
  1
Model
 70
0
 71
0
 10
0.0
 20
0.0
 11
297.0
 21
210.0
 12
0.0
 22
0.0
 32
0.0
 14
0.0
 24
0.0
 34
0.0
 15
0.0
 25
0.0
 35
0.0
146
0.0
 13
0.0
 23
0.0
 33
0.0
 16
1.0
 26
0.0
 36
0.0
 17
0.0
 27
1.0
 37
0.0
 76
0
330
214
345
0
346
0
  0
LAYOUT
  5
2F0
102
{ACAD_REACTORS
330
1A
102
}
100
AcDbPlotSettings
  1

  2
none_device
  4
ISO_A4_(297.00_x_210.00_MM)
  6

 40
0.0
 41
0.0
 42
0.0
 43
0.0
 44
297.0
 45
210.0
 46
0.0
 47
0.0
 48
0.0
 49
0.0
140
0.0
141
0.0
142
1.0
143
1.0
 70
0
 72
1
 73
0
 74
0
  7

 75
0
147
1.0
148
0.0
149
0.0
100
AcDbLayout
  1
Layout1
 70
0
 71
1
 10
0.0
 20
0.0
 11
297.0
 21
210.0
 12
0.0
 22
0.0
 32
0.0
 14
0.0
 24
0.0
 34
0.0
 15
0.0
 25
0.0
 35
0.0
146
0.0
 13
0.0
 23
0.0
 33
0.0
 16
1.0
 26
0.0
 36
0.0
 17
0.0
 27
1.0
 37
0.0
 76
0
330
215
345
0
346
0
  0
ENDSEC
  0
EOF
