  0
SECTION
  2
HEADER
  9
$ACADVER
  1
AC1015
  9
$DWGCODEPAGE
  3
ANSI_1252
  9
$EXTMAX
 10
297.0
 20
210.0
 30
0.0
  9
$EXTMIN
 10
0.0
 20
0.0
 30
0.0
  9
$LIMMIN
 10
0.0
 20
0.0
  9
$LIMMAX
 10
297.0
 20
210.0
  9
$VIEWCTR
 10
148.5
 20
105.0
  9
$VIEWSIZE
 40
210.0
  9
$CLAYER
  8
0
  9
$LTSCALE
 40
16.335
  9
$CELTYPE
  6
BYLAYER
  9
$DIMSCALE
 40
1.0
  9
$DIMASZ
 40
3.0
  9
$DIMEXO
 40
1.85625
  9
$DIMDLI
 40
11.286
  9
$DIMEXE
 40
5.346
  9
$DIMCEN
 40
2.673
  9
$DIMLFAC
 40
1.0
  9
$DIMBLK
  1
_FILLED
  9
$DIMTXT
 40
3.0
  9
$DIMTOL
 70
1
  9
$DIMLIM
 70
0
  9
$DIMTFAC
 40
1.0
  9
$DIMTP
 40
0.01
  9
$DIMTM
 40
0.01
  9
$PDMODE
 70
3
  9
$PDSIZE
 40
3.0
  9
$HANDSEED
  5
2DA
  9
$TILEMODE
 70
1
  9
$MEASUREMENT
 70
1
  9
$INSUNITS
 70
4
  0
ENDSEC
  0
SECTION
  2
CLASSES
  0
CLASS
  1
ACDBDICTIONARYWDFLT
  2
AcDbDictionaryWithDefault
  3
AutoCAD 2000
 90
0
280
0
281
0
  0
CLASS
  1
ACDBPLACEHOLDER
  2
AcDbPlaceHolder
  3
AutoCAD 2000
 90
0
280
0
281
0
  0
CLASS
  1
LAYOUT
  2
AcDbLayout
  3
AutoCAD 2000
 90
0
280
0
281
0
  0
ENDSEC
  0
SECTION
  2
TABLES
  0
TABLE
  2
VPORT
  5
8
100
AcDbSymbolTable
 70
2
  0
VPORT
  5
1F4
100
AcDbSymbolTableRecord
100
AcDbViewportTableRecord
  2
*ACTIVE
 70
0
 10
0.0
 20
0.0
 11
1.0
 21
1.0
 12
148.5
 22
105.0
 13
0.0
 23
0.0
 14
1.0
 24
1.0
 15
0.0
 25
0.0
 16
0.0
 26
0.0
 36
1.0
 17
0.0
 27
0.0
 37
0.0
 40
210.0
 41
1.4142857143
 42
50.0
 43
0.0
 44
0.0
 50
0.0
 51
0.0
 71
0
 72
100
 73
1
 74
1
 75
0
 76
0
 77
0
 78
0
  0
ENDTAB
  0
TABLE
  2
LTYPE
  5
5
100
AcDbSymbolTable
 70
6
  0
LTYPE
  5
14
100
AcDbSymbolTableRecord
100
AcDbLinetypeTableRecord
  2
BYBLOCK
 70
0
  3

 72
65
 73
0
 40
0.0
  0
LTYPE
  5
15
100
AcDbSymbolTableRecord
100
AcDbLinetypeTableRecord
  2
BYLAYER
 70
0
  3

 72
65
 73
0
 40
0.0
  0
LTYPE
  5
16
100
AcDbSymbolTableRecord
100
AcDbLinetypeTableRecord
  2
CONTINUOUS
 70
64
  3
Solid line
 72
65
 73
0
 40
0.0
  0
LTYPE
  5
1F5
100
AcDbSymbolTableRecord
100
AcDbLinetypeTableRecord
  2
CENTER
 70
64
  3
____ _ ____ _ ____ _ ____ _ ____ _ ____ _ ____
 72
65
 73
4
 40
0.6
 49
0.375
 74
0
 49
-0.075
 74
0
 49
0.075
 74
0
 49
-0.075
 74
0
  0
LTYPE
  5
1F6
100
AcDbSymbolTableRecord
100
AcDbLinetypeTableRecord
  2
HIDDEN
 70
64
  3
- - - - - - - - - - - - - - - - - - - -
 72
65
 73
2
 40
0.2
 49
0.1
 74
0
 49
-0.1
 74
0
  0
LTYPE
  5
1F7
100
AcDbSymbolTableRecord
100
AcDbLinetypeTableRecord
  2
PHANTOM
 70
64
  3
_____ _ _ _____ _ _ _____ _ _ _____
 72
65
 73
6
 40
0.8
 49
0.45
 74
0
 49
-0.05
 74
0
 49
0.1
 74
0
 49
-0.05
 74
0
 49
0.1
 74
0
 49
-0.05
 74
0
  0
LTYPE
  5
1F8
100
AcDbSymbolTableRecord
100
AcDbLinetypeTableRecord
  2
DOT
 70
64
  3
. . . . . . . . . . . . . . . . . . . .
 72
65
 73
2
 40
0.2
 49
0.1
 74
0
 49
-0.1
 74
0
  0
LTYPE
  5
1F9
100
AcDbSymbolTableRecord
100
AcDbLinetypeTableRecord
  2
DASHED
 70
64
  3
- - - - - - - - - - - - - - - - - - - -
 72
65
 73
2
 40
0.2
 49
0.1
 74
0
 49
-0.1
 74
0
  0
ENDTAB
  0
TABLE
  2
LAYER
  5
2
100
AcDbSymbolTable
 70
36
  0
LAYER
  5
10
100
AcDbSymbolTableRecord
100
AcDbLayerTableRecord
  2
0
 70
0
 62
7
  6
CONTINUOUS
370
-3
390
F
  0
LAYER
  5
1FA
100
AcDbSymbolTableRecord
100
AcDbLayerTableRecord
  2
DEFAULT_1
 70
0
 62
7
  6
CENTER
370
-3
390
F
  0
LAYER
  5
1FB
100
AcDbSymbolTableRecord
100
AcDbLayerTableRecord
  2
DEFAULT_2
 70
0
 62
7
  6
HIDDEN
370
-3
390
F
  0
LAYER
  5
1FC
100
AcDbSymbolTableRecord
100
AcDbLayerTableRecord
  2
DEFAULT_3
 70
0
 62
7
  6
PHANTOM
370
-3
390
F
  0
LAYER
  5
1FD
100
AcDbSymbolTableRecord
100
AcDbLayerTableRecord
  2
ASSI
 70
0
 62
7
  6
CONTINUOUS
370
-3
390
F
  0
LAYER
  5
1FE
100
AcDbSymbolTableRecord
100
AcDbLayerTableRecord
  2
COORDINATE
 70
0
 62
7
  6
CONTINUOUS
370
-3
390
F
  0
LAYER
  5
1FF
100
AcDbSymbolTableRecord
100
AcDbLayerTableRecord
  2
COPY_PUBLISH
 70
0
 62
7
  6
CONTINUOUS
370
-3
390
F
  0
LAYER
  5
200
100
AcDbSymbolTableRecord
100
AcDbLayerTableRecord
  2
COSMETIC
 70
0
 62
7
  6
CONTINUOUS
370
-3
390
F
  0
LAYER
  5
201
100
AcDbSymbolTableRecord
100
AcDbLayerTableRecord
  2
COSMETICI
 70
0
 62
7
  6
CONTINUOUS
370
-3
390
F
  0
LAYER
  5
202
100
AcDbSymbolTableRecord
100
AcDbLayerTableRecord
  2
CURVE
 70
0
 62
7
  6
CONTINUOUS
370
-3
390
F
  0
LAYER
  5
203
100
AcDbSymbolTableRecord
100
AcDbLayerTableRecord
  2
DRAFT
 70
0
 62
7
  6
CONTINUOUS
370
-3
390
F
  0
LAYER
  5
204
100
AcDbSymbolTableRecord
100
AcDbLayerTableRecord
  2
IMPORT_IGES
 70
0
 62
7
  6
CONTINUOUS
370
-3
390
F
  0
LAYER
  5
205
100
AcDbSymbolTableRecord
100
AcDbLayerTableRecord
  2
INTFCLR_11
 70
0
 62
7
  6
CONTINUOUS
370
-3
390
F
  0
LAYER
  5
206
100
AcDbSymbolTableRecord
100
AcDbLayerTableRecord
  2
INTF_1
 70
0
 62
7
  6
CONTINUOUS
370
-3
390
F
  0
LAYER
  5
207
100
AcDbSymbolTableRecord
100
AcDbLayerTableRecord
  2
INTF_3
 70
0
 62
7
  6
CONTINUOUS
370
-3
390
F
  0
LAYER
  5
208
100
AcDbSymbolTableRecord
100
AcDbLayerTableRecord
  2
NOTE
 70
0
 62
7
  6
CONTINUOUS
370
-3
390
F
  0
LAYER
  5
209
100
AcDbSymbolTableRecord
100
AcDbLayerTableRecord
  2
PIANI
 70
0
 62
7
  6
CONTINUOUS
370
-3
390
F
  0
LAYER
  5
20A
100
AcDbSymbolTableRecord
100
AcDbLayerTableRecord
  2
PUNTI
 70
0
 62
7
  6
CONTINUOUS
370
-3
390
F
  0
LAYER
  5
20B
100
AcDbSymbolTableRecord
100
AcDbLayerTableRecord
  2
RACCORDO
 70
0
 62
7
  6
CONTINUOUS
370
-3
390
F
  0
LAYER
  5
20C
100
AcDbSymbolTableRecord
100
AcDbLayerTableRecord
  2
SIMBOLI
 70
0
 62
7
  6
CONTINUOUS
370
-3
390
F
  0
LAYER
  5
20D
100
AcDbSymbolTableRecord
100
AcDbLayerTableRecord
  2
SMUSSO
 70
0
 62
7
  6
CONTINUOUS
370
-3
390
F
  0
LAYER
  5
20E
100
AcDbSymbolTableRecord
100
AcDbLayerTableRecord
  2
SNAPLINE
 70
0
 62
7
  6
CONTINUOUS
370
-3
390
F
  0
LAYER
  5
20F
100
AcDbSymbolTableRecord
100
AcDbLayerTableRecord
  2
SUPERFICI
 70
0
 62
7
  6
CONTINUOUS
370
-3
390
F
  0
LAYER
  5
210
100
AcDbSymbolTableRecord
100
AcDbLayerTableRecord
  2
TRASH
 70
0
 62
7
  6
CONTINUOUS
370
-3
390
F
  0
LAYER
  5
211
100
AcDbSymbolTableRecord
100
AcDbLayerTableRecord
  2
___SHELL
 70
0
 62
7
  6
CONTINUOUS
370
-3
390
F
  0
ENDTAB
  0
TABLE
  2
STYLE
  5
3
100
AcDbSymbolTable
 70
1
  0
STYLE
  5
11
100
AcDbSymbolTableRecord
100
AcDbTextStyleTableRecord
  2
STANDARD
 70
0
 40
0.0
 41
0.8
 50
0.0
 71
0
 42
0.2
  3
txt
  4

  0
STYLE
  5
212
100
AcDbSymbolTableRecord
100
AcDbTextStyleTableRecord
  2
TEXTSTYLE_1
 70
0
 40
0.0
 41
0.8
 50
0.0
 71
0
 42
0.2
  3
gdt
  4

  0
ENDTAB
  0
TABLE
  2
VIEW
  5
6
100
AcDbSymbolTable
 70
0
  0
ENDTAB
  0
TABLE
  2
UCS
  5
7
100
AcDbSymbolTable
 70
0
  0
ENDTAB
  0
TABLE
  2
APPID
  5
9
100
AcDbSymbolTable
 70
1
  0
APPID
  5
213
100
AcDbSymbolTableRecord
100
AcDbRegAppTableRecord
  2
ACAD
 70
0
  0
ENDTAB
  0
TABLE
  2
BLOCK_RECORD
  5
1
100
AcDbSymbolTable
 70
0
  0
BLOCK_RECORD
  5
214
100
AcDbSymbolTableRecord
100
AcDbBlockTableRecord
  2
*Model_Space
  0
BLOCK_RECORD
  5
215
100
AcDbSymbolTableRecord
100
AcDbBlockTableRecord
  2
*Paper_Space
  0
BLOCK_RECORD
  5
216
100
AcDbSymbolTableRecord
100
AcDbBlockTableRecord
  2
_FILLED
  0
BLOCK_RECORD
  5
217
100
AcDbSymbolTableRecord
100
AcDbBlockTableRecord
  2
*D0
  0
BLOCK_RECORD
  5
218
100
AcDbSymbolTableRecord
100
AcDbBlockTableRecord
  2
*D1
  0
BLOCK_RECORD
  5
219
100
AcDbSymbolTableRecord
100
AcDbBlockTableRecord
  2
*D2
  0
ENDTAB
  0
TABLE
  2
DIMSTYLE
  5
A
100
AcDbSymbolTable
 70
1
100
AcDbDimStyleTable
 71
0
  0
DIMSTYLE
105
21A
100
AcDbSymbolTableRecord
100
AcDbDimStyleTableRecord
  2
STANDARD
 70
0
  3

  4

 40
1.0
 41
3.0
 42
0.0625
 43
0.38
 44
0.18
 45
0.0
 46
0.0
 47
0.01
 48
0.01
140
3.0
141
0.09
142
0.0
143
25.4
144
1.0
145
0.0
146
1.0
147
0.09
 71
1.0
 72
0.0
 73
0
 74
0
 75
0
 76
0
 77
1
 78
8
170
0
171
2
172
0
173
0
174
0
175
0
176
0
177
0
178
0
270
2
271
2
272
2
273
2
274
2
275
0
280
0
281
0
282
0
283
1
284
8
285
0
286
0
287
3
288
0
340
11
341
216
342
216
343
216
344
216
  0
DIMSTYLE
105
21B
100
AcDbSymbolTableRecord
100
AcDbDimStyleTableRecord
  2
DIMSTYLE_1
 70
0
  3

  4

 40
1.0
 41
3.0
 42
0.0625
 43
0.38
 44
0.18
 45
0.0
 46
0.0
 47
0.0
 48
0.0
140
3.0
141
0.09
142
0.0
143
25.4
144
1.0
145
0.0
146
1.0
147
0.09
 71
0.0
 72
0.0
 73
0
 74
0
 75
0
 76
0
 77
1
 78
8
170
0
171
2
172
0
173
0
174
0
175
0
176
0
177
0
178
0
270
2
271
1
272
1
273
2
274
2
275
0
280
0
281
0
282
0
283
1
284
8
285
0
286
0
287
3
288
0
340
11
341
216
342
216
343
216
344
216
  0
ENDTAB
  0
ENDSEC
  0
SECTION
  2
BLOCKS
  0
BLOCK
  5
20
100
AcDbEntity
  8
0
100
AcDbBlockBegin
  2
*Model_Space
 70
0
 10
0.0
 20
0.0
 30
0.0
  3
*Model_Space
  1

  0
ENDBLK
  5
21
100
AcDbEntity
  8
0
100
AcDbBlockEnd
  0
BLOCK
  5
1C
100
AcDbEntity
  8
0
100
AcDbBlockBegin
  2
*Paper_Space
 70
0
 10
0.0
 20
0.0
 30
0.0
  3
*Paper_Space
  1

  0
ENDBLK
  5
1D
100
AcDbEntity
  8
0
100
AcDbBlockEnd
  0
BLOCK
  5
21C
100
AcDbEntity
  8
0
100
AcDbBlockBegin
  2
_FILLED
 70
64
 10
0.0
 20
0.0
  3
_FILLED
  1

  0
SOLID
  5
21D
100
AcDbEntity
  8
0
  6
BYBLOCK
 62
0
100
AcDbTrace
 10
0.0
 20
0.0
 11
-1.0
 21
0.3166666667
 12
-1.0
 22
-0.3166666667
 13
-1.0
 23
-0.3166666667
  0
ENDBLK
  5
21E
100
AcDbEntity
  8
0
  6
BYBLOCK
 62
0
100
AcDbBlockEnd
  0
BLOCK
  5
21F
100
AcDbEntity
  8
0
100
AcDbBlockBegin
 62
7
  6
CONTINUOUS
  2
*D0
 70
65
 10
0.0
 20
0.0
  3
*D0
  1

  0
LINE
  5
220
100
AcDbEntity
  8
0
100
AcDbLine
 62
7
  6
CONTINUOUS
 10
-11.037406726
 20
-21.1124414913
 11
-11.037406726
 21
36.8933816869
  0
LINE
  5
221
100
AcDbEntity
  8
0
100
AcDbLine
 62
7
  6
CONTINUOUS
 10
11.037406726
 20
22.1124414913
 11
11.037406726
 21
36.8933816869
  0
LINE
  5
222
100
AcDbEntity
  8
0
100
AcDbLine
 62
7
  6
CONTINUOUS
 10
-11.037406726
 20
35.3933816869
 11
-0.0
 21
35.3933816869
  0
LINE
  5
223
100
AcDbEntity
  8
0
100
AcDbLine
 62
7
  6
CONTINUOUS
 10
11.037406726
 20
35.3933816869
 11
-0.0
 21
35.3933816869
  0
INSERT
  5
224
100
AcDbEntity
  8
0
100
AcDbBlockReference
 62
7
  6
CONTINUOUS
  2
_FILLED
 10
-11.037406726
 20
35.3933816869
 41
3.0
 42
3.0
 43
3.0
 50
180.0
  0
INSERT
  5
225
100
AcDbEntity
  8
0
100
AcDbBlockReference
 62
7
  6
CONTINUOUS
  2
_FILLED
 10
11.037406726
 20
35.3933816869
 41
3.0
 42
3.0
 43
3.0
  0
ENDBLK
  5
226
100
AcDbEntity
  8
0
  6
BYBLOCK
 62
0
100
AcDbBlockEnd
  0
BLOCK
  5
227
100
AcDbEntity
  8
0
100
AcDbBlockBegin
 62
7
  6
CONTINUOUS
  2
*D1
 70
65
 10
0.0
 20
0.0
  3
*D1
  1

  0
LINE
  5
228
100
AcDbEntity
  8
0
100
AcDbLine
 62
7
  6
CONTINUOUS
 10
11.0380919586
 20
22.1117562587
 11
25.3553195672
 21
22.1117562587
  0
LINE
  5
229
100
AcDbEntity
  8
0
100
AcDbLine
 62
7
  6
CONTINUOUS
 10
11.0380919586
 20
-22.1117562587
 11
25.3553195672
 21
-22.1117562587
  0
LINE
  5
22A
100
AcDbEntity
  8
0
100
AcDbLine
 62
7
  6
CONTINUOUS
 10
23.8553195672
 20
22.1117562587
 11
23.8553195672
 21
-0.0
  0
LINE
  5
22B
100
AcDbEntity
  8
0
100
AcDbLine
 62
7
  6
CONTINUOUS
 10
23.8553195672
 20
-22.1117562587
 11
23.8553195672
 21
-0.0
  0
INSERT
  5
22C
100
AcDbEntity
  8
0
100
AcDbBlockReference
 62
7
  6
CONTINUOUS
  2
_FILLED
 10
23.8553195672
 20
22.1117562587
 41
3.0
 42
3.0
 43
3.0
 50
90.0
  0
INSERT
  5
22D
100
AcDbEntity
  8
0
100
AcDbBlockReference
 62
7
  6
CONTINUOUS
  2
_FILLED
 10
23.8553195672
 20
-22.1117562587
 41
3.0
 42
3.0
 43
3.0
 50
270.0
  0
ENDBLK
  5
22E
100
AcDbEntity
  8
0
  6
BYBLOCK
 62
0
100
AcDbBlockEnd
  0
BLOCK
  5
22F
100
AcDbEntity
  8
0
100
AcDbBlockBegin
 62
7
  6
CONTINUOUS
  2
*D2
 70
65
 10
0.0
 20
0.0
  3
*D2
  1

  0
LINE
  5
230
100
AcDbEntity
  8
0
100
AcDbLine
 62
7
  6
CONTINUOUS
 10
-31.5787751109
 20
13.7689805518
 11
-31.5787751109
 21
36.8933816869
  0
LINE
  5
231
100
AcDbEntity
  8
0
100
AcDbLine
 62
7
  6
CONTINUOUS
 10
-36.254338191
 20
-1.0017961838
 11
-36.254338191
 21
36.8933816869
  0
LINE
  5
232
100
AcDbEntity
  8
0
100
AcDbLine
 62
7
  6
CONTINUOUS
 10
-31.5787751109
 20
35.3933816869
 11
-27.5787751109
 21
35.3933816869
  0
LINE
  5
233
100
AcDbEntity
  8
0
100
AcDbLine
 62
7
  6
CONTINUOUS
 10
-27.5787751109
 20
35.3933816869
 11
-33.916556651
 21
35.3933816869
  0
LINE
  5
234
100
AcDbEntity
  8
0
100
AcDbLine
 62
7
  6
CONTINUOUS
 10
-36.254338191
 20
35.3933816869
 11
-49.8047672321
 21
35.3933816869
  0
LINE
  5
235
100
AcDbEntity
  8
0
100
AcDbLine
 62
7
  6
CONTINUOUS
 10
-49.8047672321
 20
35.3933816869
 11
-33.916556651
 21
35.3933816869
  0
INSERT
  5
236
100
AcDbEntity
  8
0
100
AcDbBlockReference
 62
7
  6
CONTINUOUS
  2
_FILLED
 10
-31.5787751109
 20
35.3933816869
 41
3.0
 42
3.0
 43
3.0
 50
180.0
  0
INSERT
  5
237
100
AcDbEntity
  8
0
100
AcDbBlockReference
 62
7
  6
CONTINUOUS
  2
_FILLED
 10
-36.254338191
 20
35.3933816869
 41
3.0
 42
3.0
 43
3.0
  0
ENDBLK
  5
238
100
AcDbEntity
  8
0
  6
BYBLOCK
 62
0
100
AcDbBlockEnd
  0
ENDSEC
  0
SECTION
  2
ENTITIES
  0
DIMENSION
  5
239
100
AcDbEntity
  8
0
100
AcDbDimension
 62
7
  6
CONTINUOUS
  2
*D0
 10
11.037406726
 20
35.3933816869
 11
-4.0714285714
 21
36.1433816869
 70
160
 71
2
 42
22.074813452
  3
DIMSTYLE_1
100
AcDbAlignedDimension
 13
-11.037406726
 23
-21.1124414913
 14
11.037406726
 24
22.1124414913
100
AcDbRotatedDimension
  0
DIMENSION
  5
23A
100
AcDbEntity
  8
0
100
AcDbDimension
 62
7
  6
CONTINUOUS
  2
*D1
 10
23.8553195672
 20
-22.1117562587
 11
23.1053195672
 21
-4.3928571429
 70
160
 71
2
 42
44.2235125174
  3
DIMSTYLE_1
100
AcDbAlignedDimension
 13
11.0380919586
 23
22.1117562587
 14
11.0380919586
 24
-22.1117562587
 50
270.0
100
AcDbRotatedDimension
  0
DIMENSION
  5
23B
100
AcDbEntity
  8
0
100
AcDbDimension
 62
7
  6
CONTINUOUS
  2
*D2
 10
-36.254338191
 20
35.3933816869
 11
-49.8047672321
 21
36.1433816869
 70
160
 71
3
 42
4.6755630801
  3
DIMSTYLE_1
100
AcDbAlignedDimension
 13
-31.5787751109
 23
13.7689805518
 14
-36.254338191
 24
-1.0017961838
 50
180.0
100
AcDbRotatedDimension
  0
LWPOLYLINE
  5
23C
100
AcDbEntity
  8
0
100
AcDbPolyline
 62
7
  6
CONTINUOUS
 90
3
 70
0
 43
0.3500000006
 10
2.3571427875
 20
38.2862390442
 10
3.2142856836
 20
39.1433815155
 10
3.2142856836
 20
36.1433806
  0
LWPOLYLINE
  5
23D
100
AcDbEntity
  8
RACCORDO
100
AcDbPolyline
 62
253
  6
CONTINUOUS
 90
16
 70
0
 10
10.4516663102
 20
-22.0253306103
 10
10.5037690666
 20
-22.0224620551
 10
10.5553028853
 20
-22.0141731476
 10
10.6057051072
 20
-22.0005544084
 10
10.6544254459
 20
-21.9817545437
 10
10.7009319522
 20
-21.9579788371
 10
10.7447168289
 20
-21.9294869224
 10
10.7853020361
 20
-21.8965899146
 10
10.8222444888
 20
-21.8596470098
 10
10.8551408595
 20
-21.8190615926
 10
10.8836320105
 20
-21.77527681
 10
10.907406916
 20
-21.7287707174
 10
10.9262060426
 20
-21.6800510715
 10
10.9398241783
 20
-21.6296497963
 10
10.9481126754
 20
-21.5781171775
 10
10.9509810776
 20
-21.5260158429
  0
LWPOLYLINE
  5
23E
100
AcDbEntity
  8
RACCORDO
100
AcDbPolyline
 62
253
  6
CONTINUOUS
 90
14
 70
0
 10
10.5467846174
 20
-20.8766973698
 10
10.5927250858
 20
-20.8759631133
 10
10.6370256354
 20
-20.8750463295
 10
10.6792735144
 20
-20.8739555604
 10
10.7190750957
 20
-20.8727009687
 10
10.7560595448
 20
-20.8712942435
 10
10.7898822745
 20
-20.8697484914
 10
10.8202281557
 20
-20.8680781143
 10
10.8468144532
 20
-20.8662986753
 10
10.8693934603
 20
-20.8644267535
 10
10.8877548066
 20
-20.8624797898
 10
10.9017274179
 20
-20.8604759241
 10
10.9111811102
 20
-20.8584338268
 10
10.9160278026
 20
-20.8563725241
  0
LINE
  5
23F
100
AcDbEntity
  8
RACCORDO
100
AcDbLine
 62
253
  6
CONTINUOUS
 10
10.45170734
 20
-20.8775927014
 11
10.5467846174
 21
-20.8766973698
  0
LINE
  5
240
100
AcDbEntity
  8
RACCORDO
100
AcDbLine
 62
253
  6
CONTINUOUS
 10
-10.4516663112
 20
-22.0253306113
 11
-7.0709563508
 21
-22.0147968665
  0
LINE
  5
241
100
AcDbEntity
  8
RACCORDO
100
AcDbLine
 62
253
  6
CONTINUOUS
 10
-7.0709563508
 20
-22.0147968665
 11
-3.6871602833
 21
-22.0083287978
  0
LINE
  5
242
100
AcDbEntity
  8
RACCORDO
100
AcDbLine
 62
253
  6
CONTINUOUS
 10
-10.4517073418
 20
-20.8775926608
 11
-5.0383196122
 21
-20.8718913483
  0
LINE
  5
243
100
AcDbEntity
  8
RACCORDO
100
AcDbLine
 62
253
  6
CONTINUOUS
 10
-3.6871602833
 20
-22.0083287978
 11
-0.3017398533
 21
-22.0059300251
  0
LINE
  5
244
100
AcDbEntity
  8
0
100
AcDbLine
 62
7
  6
CONTINUOUS
 10
-10.5380919586
 20
-22.1117562587
 11
10.5380919586
 21
-22.1117562587
  0
LINE
  5
245
100
AcDbEntity
  8
RACCORDO
100
AcDbLine
 62
253
  6
CONTINUOUS
 10
-5.0383196122
 20
-20.8718913483
 11
0.3802736877
 21
-20.8701786604
  0
LINE
  5
246
100
AcDbEntity
  8
RACCORDO
100
AcDbLine
 62
253
  6
CONTINUOUS
 10
0.3802736877
 20
-20.8701786604
 11
5.1443072636
 21
-20.8719616466
  0
LINE
  5
247
100
AcDbEntity
  8
RACCORDO
100
AcDbLine
 62
253
  6
CONTINUOUS
 10
-0.3017398533
 20
-22.0059300251
 11
3.0778248258
 21
-22.0075931727
  0
LINE
  5
248
100
AcDbEntity
  8
RACCORDO
100
AcDbLine
 62
253
  6
CONTINUOUS
 10
5.1443072636
 20
-20.8719616466
 11
10.4517073401
 21
-20.877592659
  0
LINE
  5
249
100
AcDbEntity
  8
RACCORDO
100
AcDbLine
 62
253
  6
CONTINUOUS
 10
3.0778248258
 20
-22.0075931727
 11
5.8412638358
 21
-22.0119754398
  0
LINE
  5
24A
100
AcDbEntity
  8
RACCORDO
100
AcDbLine
 62
253
  6
CONTINUOUS
 10
5.8412638358
 20
-22.0119754398
 11
8.8290977026
 21
-22.0197905108
  0
LINE
  5
24B
100
AcDbEntity
  8
RACCORDO
100
AcDbLine
 62
253
  6
CONTINUOUS
 10
8.8290977026
 20
-22.0197905108
 11
10.4516663102
 21
-22.0253306103
  0
LWPOLYLINE
  5
24C
100
AcDbEntity
  8
RACCORDO
100
AcDbPolyline
 62
253
  6
CONTINUOUS
 90
15
 70
0
 10
-10.4517064338
 20
-20.8775921467
 10
-10.5467828481
 20
-20.8766968422
 10
-10.5927229449
 20
-20.8759626079
 10
-10.637023179
 20
-20.875045852
 10
-10.6792708092
 20
-20.8739551156
 10
-10.7190722186
 20
-20.8727005609
 10
-10.7560565814
 20
-20.8712938762
 10
-10.7898793179
 20
-20.8697481676
 10
-10.820225305
 20
-20.8680778363
 10
-10.8468118121
 20
-20.8662984446
 10
-10.8693911354
 20
-20.864426571
 10
-10.8877529054
 20
-20.8624796554
 10
-10.9017260474
 20
-20.8604758371
 10
-10.911180375
 20
-20.8584337854
 10
-10.9160278031
 20
-20.856372526
  0
LWPOLYLINE
  5
24D
100
AcDbEntity
  8
RACCORDO
100
AcDbPolyline
 62
253
  6
CONTINUOUS
 90
16
 70
0
 10
-10.4516663112
 20
-22.0253306113
 10
-10.5037684339
 20
-22.0224621246
 10
-10.5553017021
 20
-22.0141734038
 10
-10.6057034721
 20
-22.0005549456
 10
-10.6544234538
 20
-21.9817554372
 10
-10.7009297193
 20
-21.957980133
 10
-10.74471451
 20
-21.9294886134
 10
-10.7852997805
 20
-21.8965919507
 10
-10.8222424182
 20
-21.859649313
 10
-10.8551390808
 20
-21.8190640424
 10
-10.8836306004
 20
-21.7752792517
 10
-10.9074059045
 20
-21.7287729862
 10
-10.9262054128
 20
-21.6800530045
 10
-10.939823871
 20
-21.6296512346
 10
-10.9481125919
 20
-21.5781179665
 10
-10.9509810786
 20
-21.5260158439
  0
LINE
  5
24E
100
AcDbEntity
  8
RACCORDO
100
AcDbLine
 62
253
  6
CONTINUOUS
 10
-10.9198842104
 20
21.1394682369
 11
-10.9178986357
 21
21.048481899
  0
LINE
  5
24F
100
AcDbEntity
  8
RACCORDO
100
AcDbLine
 62
253
  6
CONTINUOUS
 10
-10.9178986357
 20
21.048481899
 11
-10.916608781
 21
20.9538684136
  0
LINE
  5
250
100
AcDbEntity
  8
RACCORDO
100
AcDbLine
 62
253
  6
CONTINUOUS
 10
-10.916608781
 20
20.9538684136
 11
-10.9160278032
 21
20.856372526
  0
LWPOLYLINE
  5
251
100
AcDbEntity
  8
RACCORDO
100
AcDbPolyline
 62
253
  6
CONTINUOUS
 90
9
 70
0
 10
-10.9160278032
 20
20.856372526
 10
-10.9067976127
 20
16.2235174718
 10
-10.8998749702
 20
11.5897149038
 10
-10.8952598757
 20
6.9549648218
 10
-10.8929523297
 20
2.3186353394
 10
-10.8929523316
 20
-2.3186416569
 10
-10.89525988
 20
-6.9549705075
 10
-10.8998749746
 20
-11.589719326
 10
-10.9067976156
 20
-16.2235199988
  0
LINE
  5
252
100
AcDbEntity
  8
RACCORDO
100
AcDbLine
 62
253
  6
CONTINUOUS
 10
-10.4421594243
 20
11.6020450577
 11
-10.4380674491
 21
2.3208472824
  0
LINE
  5
253
100
AcDbEntity
  8
0
100
AcDbLine
 62
7
  6
CONTINUOUS
 10
-11.037406726
 20
21.6124414913
 11
-11.037406726
 21
-21.6124414913
  0
LINE
  5
254
100
AcDbEntity
  8
RACCORDO
100
AcDbLine
 62
253
  6
CONTINUOUS
 10
-10.4380674491
 20
2.3208472824
 11
-10.4394314443
 21
-6.9620306059
  0
LINE
  5
255
100
AcDbEntity
  8
RACCORDO
100
AcDbLine
 62
253
  6
CONTINUOUS
 10
-10.4394314443
 20
-6.9620306059
 11
-10.4462513957
 21
-16.2407094179
  0
LINE
  5
256
100
AcDbEntity
  8
RACCORDO
100
AcDbLine
 62
253
  6
CONTINUOUS
 10
-10.4462513957
 20
-16.2407094179
 11
-10.4512042609
 21
-21.8942417473
  0
LINE
  5
257
100
AcDbEntity
  8
RACCORDO
100
AcDbLine
 62
253
  6
CONTINUOUS
 10
-10.4515204152
 20
22.0179295951
 11
-10.4421594243
 21
11.6020450577
  0
LINE
  5
258
100
AcDbEntity
  8
RACCORDO
100
AcDbLine
 62
253
  6
CONTINUOUS
 10
-10.9067976156
 20
-16.2235199988
 11
-10.9162301691
 21
-20.9055043316
  0
LWPOLYLINE
  5
259
100
AcDbEntity
  8
RACCORDO
100
AcDbPolyline
 62
253
  6
CONTINUOUS
 90
3
 70
0
 10
-10.4512042609
 20
-21.8942417473
 10
-10.4515203381
 20
-22.0179297525
 10
-10.4516663112
 20
-22.0253306113
  0
LINE
  5
25A
100
AcDbEntity
  8
RACCORDO
100
AcDbLine
 62
253
  6
CONTINUOUS
 10
-10.9162301691
 20
-20.9055043316
 11
-10.9171632032
 21
-21.0014233887
  0
LWPOLYLINE
  5
25B
100
AcDbEntity
  8
RACCORDO
100
AcDbPolyline
 62
253
  6
CONTINUOUS
 90
18
 70
0
 10
-10.9171632032
 20
-21.0014233887
 10
-10.9188094204
 20
-21.0947135168
 10
-10.9198835105
 20
-21.1394405895
 10
-10.9211228558
 20
-21.1825971591
 10
-10.9225251322
 20
-21.2242264963
 10
-10.9240701974
 20
-21.2637126991
 10
-10.9257603461
 20
-21.3010267123
 10
-10.9275932837
 20
-21.336197591
 10
-10.9295419835
 20
-21.3686965981
 10
-10.9316081962
 20
-21.3984823398
 10
-10.9337901712
 20
-21.4255962099
 10
-10.936055629
 20
-21.4496336519
 10
-10.9384069907
 20
-21.4705497529
 10
-10.9408418352
 20
-21.4883894257
 10
-10.9433206205
 20
-21.502882853
 10
-10.9458301658
 20
-21.5139400955
 10
-10.9483836518
 20
-21.5216510925
 10
-10.9509810786
 20
-21.5260158439
  0
LINE
  5
25C
100
AcDbEntity
  8
RACCORDO
100
AcDbLine
 62
253
  6
CONTINUOUS
 10
-10.4516663112
 20
22.0253306113
 11
-10.4515204152
 21
22.0179295951
  0
LWPOLYLINE
  5
25D
100
AcDbEntity
  8
0
100
AcDbPolyline
 62
7
  6
CONTINUOUS
 90
3
 70
0
 43
0.3500000006
 10
1.3571429071
 20
36.4290962677
 10
1.2857142735
 20
36.2148117828
 10
1.1428571477
 20
35.9290961151
  0
LINE
  5
25E
100
AcDbEntity
  8
0
100
AcDbLine
 62
253
  6
CONTINUOUS
 10
10.4516663102
 20
22.0253306103
 11
10.5380919586
 21
22.1117562587
  0
LINE
  5
25F
100
AcDbEntity
  8
0
100
AcDbLine
 62
253
  6
CONTINUOUS
 10
10.5380919586
 20
-22.1117562587
 11
10.4516663102
 21
-22.0253306103
  0
LINE
  5
260
100
AcDbEntity
  8
0
100
AcDbLine
 62
253
  6
CONTINUOUS
 10
10.9509810776
 20
21.5260158429
 11
11.037406726
 21
21.6124414913
  0
LINE
  5
261
100
AcDbEntity
  8
0
100
AcDbLine
 62
253
  6
CONTINUOUS
 10
11.037406726
 20
-21.6124414913
 11
10.9509810776
 21
-21.5260158429
  0
LINE
  5
262
100
AcDbEntity
  8
0
100
AcDbLine
 62
7
  6
CONTINUOUS
 10
-2.2500512991
 20
-1.5017961838
 11
-2.2500512991
 21
1.5017961838
  0
LWPOLYLINE
  5
263
100
AcDbEntity
  8
0
100
AcDbPolyline
 62
7
  6
CONTINUOUS
 90
49
 70
0
 10
-2.2500512991
 20
1.5017961838
 10
-2.245009313
 20
1.6503358488
 10
-2.2308578976
 20
1.7964745746
 10
-2.2075621272
 20
1.9404407263
 10
-2.1747325252
 20
2.0832294527
 10
-2.1326224922
 20
2.2242534408
 10
-2.0821420075
 20
2.3612987729
 10
-2.0232762599
 20
2.4939637846
 10
-1.9558330095
 20
2.6227965559
 10
-1.8804629573
 20
2.7469062667
 10
-1.7967986249
 20
2.8664506231
 10
-1.7049839579
 20
2.9811627744
 10
-1.6064750359
 20
3.0894326357
 10
-1.5015723027
 20
3.190663261
 10
-1.389835712
 20
3.2851259237
 10
-1.2716579805
 20
3.3724686578
 10
-1.1464924051
 20
3.4527820922
 10
-1.0148173806
 20
3.5255158562
 10
-0.8786220101
 20
3.5893730799
 10
-0.7376452827
 20
3.6439699121
 10
-0.5922319703
 20
3.6892598664
 10
-0.4453598218
 20
3.7245824608
 10
-0.2977633655
 20
3.7496315849
 10
-0.1489139712
 20
3.7645416729
 10
0.0000662229
 20
3.7694614653
 10
0.149071651
 20
3.7645276106
 10
0.2979847034
 20
3.7496020278
 10
0.445665111
 20
3.7245202902
 10
0.5926287532
 20
3.6891524142
 10
0.7381532571
 20
3.6437993327
 10
0.8792798943
 20
3.5890916493
 10
1.0157218067
 20
3.5250297679
 10
1.1476800249
 20
3.4520420219
 10
1.2730097663
 20
3.3715344632
 10
1.3911572962
 20
3.2840951311
 10
1.5027493932
 20
3.1896005406
 10
1.6074721539
 20
3.0884072185
 10
1.7057615594
 20
2.9802815667
 10
1.7973227835
 20
2.8657811946
 10
1.8807899603
 20
2.7464045821
 10
1.9560652137
 20
2.6223553727
 10
2.0234673942
 20
2.4935395379
 10
2.0822931587
 20
2.3609268573
 10
2.1327110608
 20
2.2240259752
 10
2.1747596409
 20
2.0831810156
 10
2.2075479699
 20
1.9405130765
 10
2.230828759
 20
1.7965792889
 10
2.2449849151
 20
1.6504161767
 10
2.2500512991
 20
1.5017961838
  0
LWPOLYLINE
  5
264
100
AcDbEntity
  8
0
100
AcDbPolyline
 62
7
  6
CONTINUOUS
 90
2
 70
0
 43
0.3500000006
 10
23.1053206558
 20
-3.3928568802
 10
21.6053201981
 20
-3.3928568802
  0
LWPOLYLINE
  5
265
100
AcDbEntity
  8
0
100
AcDbPolyline
 62
7
  6
CONTINUOUS
 90
4
 70
0
 10
-0.9999999498
 20
-1.5003166561
 10
-0.9988595113
 20
-1.5486313309
 10
-0.9953399734
 20
-1.5968297018
 10
-0.9894404644
 20
-1.6449197479
  0
LINE
  5
266
100
AcDbEntity
  8
0
100
AcDbLine
 62
7
  6
CONTINUOUS
 10
-1.0
 20
1.5003166561
 11
-1.0
 21
-1.5003166561
  0
LINE
  5
267
100
AcDbEntity
  8
DRAFT
100
AcDbLine
 62
7
  6
CONTINUOUS
 10
-1.0000000013
 20
-1.4999971976
 11
-1.0000000013
 21
1.4999968688
  0
LWPOLYLINE
  5
268
100
AcDbEntity
  8
DRAFT
100
AcDbPolyline
 62
7
  6
CONTINUOUS
 90
37
 70
0
 10
-0.9999999995
 20
1.4999968688
 10
-0.9958643763
 20
1.5886408156
 10
-0.9844366856
 20
1.675163227
 10
-0.9657083772
 20
1.7596043132
 10
-0.9394118048
 20
1.8425756068
 10
-0.9057822028
 20
1.9235304795
 10
-0.8655611403
 20
2.0007562302
 10
-0.818494029
 20
2.0742517335
 10
-0.7647896843
 20
2.1440169692
 10
-0.7058918651
 20
2.2083167399
 10
-0.6418220892
 20
2.2668378824
 10
-0.5725295909
 20
2.3198287474
 10
-0.4993650817
 20
2.3663849048
 10
-0.4220890101
 20
2.4064221118
 10
-0.3409406035
 20
2.4399347728
 10
-0.2580065142
 20
2.4661490532
 10
-0.1734337095
 20
2.4848337117
 10
-0.0871077057
 20
2.4961623293
 10
-0.0007349051
 20
2.5000011008
 10
0.085668598
 20
2.4962813319
 10
0.1720754012
 20
2.4850711646
 10
0.2567620836
 20
2.4664790952
 10
0.339853598
 20
2.440320805
 10
0.4211921356
 20
2.4068377801
 10
0.4986421572
 20
2.3668106557
 10
0.5719457317
 20
2.3202482941
 10
0.6413611175
 20
2.2672322302
 10
0.7055450014
 20
2.2086650632
 10
0.7645562537
 20
2.1442862813
 10
0.818365275
 20
2.0744215623
 10
0.8655115084
 20
2.0008412154
 10
0.9057754874
 20
1.9235550856
 10
0.9394227182
 20
1.8425543834
 10
0.9657272058
 20
1.7595572518
 10
0.9844589051
 20
1.675112126
 10
0.9958803174
 20
1.5886055425
 10
0.9999999995
 20
1.4999971976
  0
LWPOLYLINE
  5
269
100
AcDbEntity
  8
0
100
AcDbPolyline
 62
7
  6
CONTINUOUS
 90
5
 70
0
 10
-0.9806393098
 20
1.695416849
 10
-0.9892074114
 20
1.6465342412
 10
-0.9952448965
 20
1.597898136
 10
-0.9988421049
 20
1.5491617015
 10
-0.9999999499
 20
1.5003166561
  0
LINE
  5
26A
100
AcDbEntity
  8
DRAFT
100
AcDbLine
 62
253
  6
CONTINUOUS
 10
-0.9999999995
 20
-1.4999971976
 11
-2.2500512991
 21
-1.5017961838
  0
LWPOLYLINE
  5
26B
100
AcDbEntity
  8
0
100
AcDbPolyline
 62
7
  6
CONTINUOUS
 90
2
 70
0
 43
0.3500000006
 10
23.1053206558
 20
-1.0357139511
 10
21.6053201981
 20
-1.0357139511
  0
LINE
  5
26C
100
AcDbEntity
  8
DRAFT
100
AcDbLine
 62
253
  6
CONTINUOUS
 10
2.25
 20
-0.0
 11
1.0
 21
-0.0
  0
LINE
  5
26D
100
AcDbEntity
  8
0
100
AcDbLine
 62
253
  6
CONTINUOUS
 10
1.0
 20
-0.0
 11
-1.0
 21
-0.0
  0
LINE
  5
26E
100
AcDbEntity
  8
DRAFT
100
AcDbLine
 62
253
  6
CONTINUOUS
 10
-1.0
 20
-0.0
 11
-2.25
 21
-0.0
  0
LINE
  5
26F
100
AcDbEntity
  8
0
100
AcDbLine
 62
253
  6
CONTINUOUS
 10
0.9999999499
 20
-1.5003166561
 11
-0.9999999498
 21
-1.5003166561
  0
LINE
  5
270
100
AcDbEntity
  8
DRAFT
100
AcDbLine
 62
253
  6
CONTINUOUS
 10
2.2500512991
 20
-1.5017961838
 11
0.9999999995
 21
-1.4999968688
  0
LWPOLYLINE
  5
271
100
AcDbEntity
  8
RACCORDO
100
AcDbPolyline
 62
253
  6
CONTINUOUS
 90
16
 70
0
 10
10.9509810776
 20
-21.5260158429
 10
10.9483836508
 20
-21.5216510913
 10
10.9458301647
 20
-21.5139400941
 10
10.9433206194
 20
-21.5028828515
 10
10.9408418341
 20
-21.4883894243
 10
10.9384069896
 20
-21.4705497515
 10
10.9360556279
 20
-21.4496336506
 10
10.9337901701
 20
-21.4255962085
 10
10.9316081951
 20
-21.3984823382
 10
10.9295419823
 20
-21.3686965963
 10
10.9275932826
 20
-21.3361975891
 10
10.925760345
 20
-21.3010267103
 10
10.9240701962
 20
-21.263712697
 10
10.922525131
 20
-21.2242264943
 10
10.9211228547
 20
-21.1825971571
 10
10.9198835093
 20
-21.1394405875
  0
LWPOLYLINE
  5
272
100
AcDbEntity
  8
0
100
AcDbPolyline
 62
7
  6
CONTINUOUS
 90
60
 70
0
 10
-0.9894404644
 20
-1.6449197479
 10
-0.9810770879
 20
-1.6932302459
 10
-0.9703302217
 20
-1.7414476708
 10
-0.9574448429
 20
-1.7886146521
 10
-0.9423476278
 20
-1.8345924276
 10
-0.9251060701
 20
-1.8795289593
 10
-0.9061768625
 20
-1.9228929099
 10
-0.885632514
 20
-1.9644734878
 10
-0.863394909
 20
-2.0044828571
 10
-0.8396958516
 20
-2.0430208528
 10
-0.8146336097
 20
-2.0800440474
 10
-0.7881049317
 20
-2.1155926975
 10
-0.7600396622
 20
-2.1498908637
 10
-0.7304930012
 20
-2.1829766117
 10
-0.6994046393
 20
-2.2148054603
 10
-0.6665305789
 20
-2.2454768112
 10
-0.6318799796
 20
-2.2750791781
 10
-0.5954382135
 20
-2.3035131915
 10
-0.5569247197
 20
-2.3305948511
 10
-0.5160546795
 20
-2.3564730133
 10
-0.4731075536
 20
-2.3809810242
 10
-0.4286504275
 20
-2.4034611431
 10
-0.3825491353
 20
-2.4238325462
 10
-0.3349381445
 20
-2.442156619
 10
-0.2867911807
 20
-2.4579934966
 10
-0.2382399575
 20
-2.4711834111
 10
-0.1891590948
 20
-2.4818750721
 10
-0.1401393322
 20
-2.4900983791
 10
-0.0913727681
 20
-2.4958322045
 10
-0.0426753882
 20
-2.4990956123
 10
0.0059256611
 20
-2.4999825322
 10
0.0544292256
 20
-2.4985297179
 10
0.1028287435
 20
-2.4947015114
 10
0.151089032
 20
-2.488484336
 10
0.1993854097
 20
-2.4798559541
 10
0.247535066
 20
-2.4688427889
 10
0.294966348
 20
-2.4555077751
 10
0.341750891
 20
-2.4397334588
 10
0.3878118825
 20
-2.4216495884
 10
0.4323574107
 20
-2.4016957516
 10
0.4752389959
 20
-2.3798620794
 10
0.5166053363
 20
-2.3561766763
 10
0.5561130742
 20
-2.3311391801
 10
0.5935558849
 20
-2.3049001746
 10
0.6291444794
 20
-2.2773248956
 10
0.6631616982
 20
-2.2484841905
 10
0.6956502052
 20
-2.2184466559
 10
0.726571733
 20
-2.1871539087
 10
0.7560870279
 20
-2.1544850151
 10
0.7842538852
 20
-2.1204760372
 10
0.8110189832
 20
-2.0850975567
 10
0.8363761877
 20
-2.0481296237
 10
0.8604230772
 20
-2.0095239562
 10
0.8830668277
 20
-1.9693324847
 10
0.9040163351
 20
-1.9274841002
 10
0.9233436707
 20
-1.8837626158
 10
0.9409824552
 20
-1.8383831563
 10
0.9564351796
 20
-1.7919180054
 10
0.9696272368
 20
-1.7442149472
 10
0.9806393098
 20
-1.695416849
  0
LWPOLYLINE
  5
273
100
AcDbEntity
  8
0
100
AcDbPolyline
 62
7
  6
CONTINUOUS
 90
4
 70
0
 10
0.9999999498
 20
1.5003166561
 10
0.9988595113
 20
1.5486313309
 10
0.9953399734
 20
1.5968297018
 10
0.9894404644
 20
1.6449197479
  0
LINE
  5
274
100
AcDbEntity
  8
DRAFT
100
AcDbLine
 62
7
  6
CONTINUOUS
 10
1.0000000013
 20
1.4999971976
 11
1.0000000013
 21
-1.4999968688
  0
LINE
  5
275
100
AcDbEntity
  8
0
100
AcDbLine
 62
7
  6
CONTINUOUS
 10
1.0
 20
-1.5003166561
 11
1.0
 21
1.5003166561
  0
LINE
  5
276
100
AcDbEntity
  8
0
100
AcDbLine
 62
7
  6
CONTINUOUS
 10
2.2500512991
 20
1.5017961838
 11
2.2500512991
 21
-1.5017961838
  0
LWPOLYLINE
  5
277
100
AcDbEntity
  8
0
100
AcDbPolyline
 62
7
  6
CONTINUOUS
 90
49
 70
0
 10
2.2500512991
 20
-1.5017961838
 10
2.2450094982
 20
-1.6503351976
 10
2.2308581281
 20
-1.7964736904
 10
2.2075622629
 20
-1.9404400329
 10
2.174732431
 20
-2.0832295268
 10
2.1326220251
 20
-2.2242547158
 10
2.0821410031
 20
-2.3613012436
 10
2.0232744649
 20
-2.4939674047
 10
1.9558302522
 20
-2.6228013251
 10
1.8804593043
 20
-2.7469118695
 10
1.7967942681
 20
-2.8664565364
 10
1.7049789671
 20
-2.9811686721
 10
1.6064693485
 20
-3.0894384808
 10
1.501567519
 20
-3.1906683231
 10
1.3898317882
 20
-3.2851301684
 10
1.2716496885
 20
-3.3724743837
 10
1.1464738682
 20
-3.4527930046
 10
1.014783206
 20
-3.5255340363
 10
0.8785631962
 20
-3.5893982273
 10
0.7375508424
 20
-3.6440021369
 10
0.5920927692
 20
-3.6892982075
 10
0.4451689021
 20
-3.7246213181
 10
0.2974979844
 20
-3.7496624317
 10
0.1485672883
 20
-3.7645580148
 10
-0.0004511008
 20
-3.7694614207
 10
-0.1494184648
 20
-3.7645111316
 10
-0.2982503466
 20
-3.7495710058
 10
-0.4458559478
 20
-3.7244814048
 10
-0.5927667427
 20
-3.6891144398
 10
-0.7382448914
 20
-3.6437680904
 10
-0.8793343045
 20
-3.5890683625
 10
-1.0157499207
 20
-3.5250147578
 10
-1.1476908467
 20
-3.452035842
 10
-1.2730093124
 20
-3.3715347771
 10
-1.3911523803
 20
-3.2840978119
 10
-1.5027458427
 20
-3.1896030082
 10
-1.6074702518
 20
-3.0884091757
 10
-1.7057599335
 20
-2.9802833209
 10
-1.7973217254
 20
-2.8657824578
 10
-1.8807893011
 20
-2.7464055937
 10
-1.9560645636
 20
-2.6223566348
 10
-2.0234665924
 20
-2.4935412855
 10
-2.0822922644
 20
-2.3609290583
 10
-2.1327102109
 20
-2.2240286531
 10
-2.174758892
 20
-2.0831841427
 10
-2.2075473584
 20
-1.9405162012
 10
-2.2308283147
 20
-1.7965818194
 10
-2.2449846745
 20
-1.6504176649
 10
-2.2500512991
 20
-1.5017961838
  0
LWPOLYLINE
  5
278
100
AcDbEntity
  8
DRAFT
100
AcDbPolyline
 62
7
  6
CONTINUOUS
 90
37
 70
0
 10
0.9999999995
 20
-1.4999968688
 10
0.9958643763
 20
-1.5886408156
 10
0.9844366856
 20
-1.675163227
 10
0.9657083772
 20
-1.7596043132
 10
0.9394118048
 20
-1.8425756068
 10
0.9057822028
 20
-1.9235304795
 10
0.8655611403
 20
-2.0007562302
 10
0.818494029
 20
-2.0742517336
 10
0.7647896843
 20
-2.1440169692
 10
0.7058918651
 20
-2.2083167399
 10
0.6418220892
 20
-2.2668378824
 10
0.5725295909
 20
-2.3198287474
 10
0.4993650817
 20
-2.3663849048
 10
0.4220890101
 20
-2.4064221118
 10
0.3409406035
 20
-2.4399347728
 10
0.2580065142
 20
-2.4661490532
 10
0.1734337095
 20
-2.4848337117
 10
0.0871077057
 20
-2.4961623293
 10
0.0007349051
 20
-2.5000011008
 10
-0.085668598
 20
-2.4962813319
 10
-0.1720754012
 20
-2.4850711646
 10
-0.2567620836
 20
-2.4664790952
 10
-0.339853598
 20
-2.440320805
 10
-0.4211921356
 20
-2.4068377801
 10
-0.4986421572
 20
-2.3668106557
 10
-0.5719457317
 20
-2.3202482941
 10
-0.6413611175
 20
-2.2672322302
 10
-0.7055450014
 20
-2.2086650632
 10
-0.7645562537
 20
-2.1442862813
 10
-0.818365275
 20
-2.0744215623
 10
-0.8655115084
 20
-2.0008412154
 10
-0.9057754874
 20
-1.9235550856
 10
-0.9394227182
 20
-1.8425543834
 10
-0.9657272058
 20
-1.7595572519
 10
-0.9844589052
 20
-1.675112126
 10
-0.9958803174
 20
-1.5886055425
 10
-0.9999999995
 20
-1.4999971976
  0
LWPOLYLINE
  5
279
100
AcDbEntity
  8
0
100
AcDbPolyline
 62
7
  6
CONTINUOUS
 90
5
 70
0
 10
0.9806393098
 20
-1.695416849
 10
0.9892074114
 20
-1.6465342412
 10
0.9952448965
 20
-1.597898136
 10
0.9988421049
 20
-1.5491617015
 10
0.9999999499
 20
-1.5003166561
  0
LINE
  5
27A
100
AcDbEntity
  8
DRAFT
100
AcDbLine
 62
253
  6
CONTINUOUS
 10
0.9999999995
 20
1.4999971976
 11
2.2500512991
 21
1.5017961838
  0
LINE
  5
27B
100
AcDbEntity
  8
0
100
AcDbLine
 62
253
  6
CONTINUOUS
 10
-0.9999999499
 20
1.5003166561
 11
0.9999999498
 21
1.5003166561
  0
LINE
  5
27C
100
AcDbEntity
  8
DRAFT
100
AcDbLine
 62
253
  6
CONTINUOUS
 10
-2.2500512991
 20
1.5017961838
 11
-0.9999999995
 21
1.4999968688
  0
LWPOLYLINE
  5
27D
100
AcDbEntity
  8
RACCORDO
100
AcDbPolyline
 62
253
  6
CONTINUOUS
 90
16
 70
0
 10
-10.9509810786
 20
21.5260158439
 10
-10.9483840825
 20
21.521652508
 10
-10.9458309564
 20
21.5139433142
 10
-10.9433217003
 20
21.5028882624
 10
-10.9408431136
 20
21.4883973324
 10
-10.9384083969
 20
21.4705605444
 10
-10.9360571518
 20
21.4496479593
 10
-10.9337918431
 20
21.4256152786
 10
-10.9316100061
 20
21.3985068009
 10
-10.9295438484
 20
21.3687254826
 10
-10.9275950825
 20
21.3362295532
 10
-10.9257619958
 20
21.3010607831
 10
-10.9240716582
 20
21.2637474397
 10
-10.9225263543
 20
21.2242598903
 10
-10.9211237994
 20
21.1826277675
 10
-10.9198842104
 20
21.1394682369
  0
LWPOLYLINE
  5
27E
100
AcDbEntity
  8
0
100
AcDbPolyline
 62
7
  6
CONTINUOUS
 90
60
 70
0
 10
0.9894404644
 20
1.6449197479
 10
0.9810770879
 20
1.6932302459
 10
0.9703302217
 20
1.7414476708
 10
0.9574448429
 20
1.7886146521
 10
0.9423476278
 20
1.8345924276
 10
0.9251060701
 20
1.8795289593
 10
0.9061768625
 20
1.9228929099
 10
0.885632514
 20
1.9644734878
 10
0.863394909
 20
2.0044828571
 10
0.8396958516
 20
2.0430208528
 10
0.8146336097
 20
2.0800440474
 10
0.7881049317
 20
2.1155926975
 10
0.7600396622
 20
2.1498908637
 10
0.7304930012
 20
2.1829766116
 10
0.6994046393
 20
2.2148054603
 10
0.6665305789
 20
2.2454768112
 10
0.6318799796
 20
2.2750791781
 10
0.5954382135
 20
2.3035131915
 10
0.5569247197
 20
2.3305948511
 10
0.5160546795
 20
2.3564730133
 10
0.4731075536
 20
2.3809810242
 10
0.4286504275
 20
2.4034611431
 10
0.3825491353
 20
2.4238325462
 10
0.3349381445
 20
2.442156619
 10
0.2867911807
 20
2.4579934966
 10
0.2382399575
 20
2.4711834111
 10
0.1891590948
 20
2.4818750721
 10
0.1401393322
 20
2.4900983791
 10
0.0913727681
 20
2.4958322045
 10
0.0426753882
 20
2.4990956123
 10
-0.0059256611
 20
2.4999825322
 10
-0.0544292256
 20
2.4985297179
 10
-0.1028287435
 20
2.4947015114
 10
-0.151089032
 20
2.488484336
 10
-0.1993854097
 20
2.4798559541
 10
-0.247535066
 20
2.4688427889
 10
-0.294966348
 20
2.4555077751
 10
-0.341750891
 20
2.4397334588
 10
-0.3878118825
 20
2.4216495884
 10
-0.4323574108
 20
2.4016957516
 10
-0.4752389959
 20
2.3798620794
 10
-0.5166053363
 20
2.3561766763
 10
-0.5561130742
 20
2.3311391801
 10
-0.5935558849
 20
2.3049001746
 10
-0.6291444794
 20
2.2773248956
 10
-0.6631616982
 20
2.2484841905
 10
-0.6956502052
 20
2.2184466559
 10
-0.726571733
 20
2.1871539087
 10
-0.7560870279
 20
2.1544850151
 10
-0.7842538852
 20
2.1204760372
 10
-0.8110189832
 20
2.0850975567
 10
-0.8363761877
 20
2.0481296237
 10
-0.8604230772
 20
2.0095239561
 10
-0.8830668277
 20
1.9693324847
 10
-0.9040163351
 20
1.9274841002
 10
-0.9233436707
 20
1.8837626158
 10
-0.9409824552
 20
1.8383831563
 10
-0.9564351796
 20
1.7919180054
 10
-0.9696272368
 20
1.7442149472
 10
-0.9806393098
 20
1.695416849
  0
LINE
  5
27F
100
AcDbEntity
  8
0
100
AcDbLine
 62
253
  6
CONTINUOUS
 10
-10.9509810786
 20
-21.5260158439
 11
-11.037406726
 21
-21.6124414913
  0
LINE
  5
280
100
AcDbEntity
  8
0
100
AcDbLine
 62
253
  6
CONTINUOUS
 10
-10.4516663112
 20
-22.0253306113
 11
-10.5380919586
 21
-22.1117562587
  0
LWPOLYLINE
  5
281
100
AcDbEntity
  8
0
100
AcDbPolyline
 62
7
  6
CONTINUOUS
 90
3
 70
0
 43
0.3500000006
 10
22.8196049881
 20
1.0357133102
 10
23.0338917389
 20
0.9642866592
 10
23.3196051407
 20
0.8214288254
  0
LINE
  5
282
100
AcDbEntity
  8
0
100
AcDbLine
 62
253
  6
CONTINUOUS
 10
-11.037406726
 20
21.6124414913
 11
-10.9509810786
 21
21.5260158439
  0
LINE
  5
283
100
AcDbEntity
  8
0
100
AcDbLine
 62
253
  6
CONTINUOUS
 10
-10.5380919586
 20
22.1117562587
 11
-10.4516663112
 21
22.0253306113
  0
LINE
  5
284
100
AcDbEntity
  8
RACCORDO
100
AcDbLine
 62
253
  6
CONTINUOUS
 10
10.4516663102
 20
-22.0253306103
 11
10.4515203372
 21
-22.0179297522
  0
LINE
  5
285
100
AcDbEntity
  8
RACCORDO
100
AcDbLine
 62
253
  6
CONTINUOUS
 10
10.9198835093
 20
-21.1394405875
 11
10.9178982602
 21
-21.0484592098
  0
LINE
  5
286
100
AcDbEntity
  8
RACCORDO
100
AcDbLine
 62
253
  6
CONTINUOUS
 10
10.9178982602
 20
-21.0484592098
 11
10.9166086347
 21
-20.9538546172
  0
LINE
  5
287
100
AcDbEntity
  8
RACCORDO
100
AcDbLine
 62
253
  6
CONTINUOUS
 10
10.9166086347
 20
-20.9538546172
 11
10.9160278026
 21
-20.8563725241
  0
LINE
  5
288
100
AcDbEntity
  8
RACCORDO
100
AcDbLine
 62
253
  6
CONTINUOUS
 10
10.4421594271
 20
-11.6020504417
 11
10.4380674507
 21
-2.3208549767
  0
LINE
  5
289
100
AcDbEntity
  8
RACCORDO
100
AcDbLine
 62
253
  6
CONTINUOUS
 10
10.4380674507
 20
-2.3208549767
 11
10.439431441
 21
6.9620236805
  0
LINE
  5
28A
100
AcDbEntity
  8
RACCORDO
100
AcDbLine
 62
253
  6
CONTINUOUS
 10
10.439431441
 20
6.9620236805
 11
10.4462513927
 21
16.2407063394
  0
LINE
  5
28B
100
AcDbEntity
  8
RACCORDO
100
AcDbLine
 62
253
  6
CONTINUOUS
 10
10.4515203372
 20
-22.0179297522
 11
10.4421594271
 21
-11.6020504417
  0
LINE
  5
28C
100
AcDbEntity
  8
RACCORDO
100
AcDbLine
 62
253
  6
CONTINUOUS
 10
10.4462513927
 20
16.2407063394
 11
10.4514405545
 21
22.0046284256
  0
LWPOLYLINE
  5
28D
100
AcDbEntity
  8
RACCORDO
100
AcDbPolyline
 62
253
  6
CONTINUOUS
 90
3
 70
0
 10
10.4514405545
 20
22.0046284256
 10
10.451520414
 20
22.0179295934
 10
10.4516663102
 20
22.0253306103
  0
LINE
  5
28E
100
AcDbEntity
  8
RACCORDO
100
AcDbLine
 62
253
  6
CONTINUOUS
 10
10.9160278027
 20
20.8563725242
 11
10.91660878
 21
20.9538684119
  0
LINE
  5
28F
100
AcDbEntity
  8
RACCORDO
100
AcDbLine
 62
253
  6
CONTINUOUS
 10
10.91660878
 20
20.9538684119
 11
10.9178986346
 21
21.0484818972
  0
LWPOLYLINE
  5
290
100
AcDbEntity
  8
RACCORDO
100
AcDbPolyline
 62
253
  6
CONTINUOUS
 90
17
 70
0
 10
10.9178986346
 20
21.0484818972
 10
10.9198842093
 20
21.1394682348
 10
10.9211237983
 20
21.1826277654
 10
10.9225263532
 20
21.2242598882
 10
10.9240716571
 20
21.2637474377
 10
10.9257619947
 20
21.3010607812
 10
10.9275950814
 20
21.3362295514
 10
10.9295438473
 20
21.3687254808
 10
10.9316100051
 20
21.3985067993
 10
10.9337918421
 20
21.425615277
 10
10.9360571508
 20
21.4496479577
 10
10.9384083958
 20
21.4705605431
 10
10.9408431126
 20
21.4883973314
 10
10.9433216993
 20
21.5028882617
 10
10.9458309554
 20
21.5139433135
 10
10.9483840815
 20
21.5216525072
 10
10.9509810776
 20
21.5260158429
  0
LWPOLYLINE
  5
291
100
AcDbEntity
  8
0
100
AcDbPolyline
 62
7
  6
CONTINUOUS
 90
10
 70
0
 43
0.3500000006
 10
22.6053205032
 20
0.9642866592
 10
22.7481760712
 20
1.0357133102
 10
22.8196049881
 20
1.0357133102
 10
22.962462822
 20
0.8928577423
 10
22.962462822
 20
0.8214288254
 10
22.891033905
 20
0.7499999084
 10
22.8196049881
 20
0.7499999084
 10
22.6767471542
 20
0.8214288254
 10
22.6053205032
 20
0.8928577423
 10
22.6053205032
 20
0.9642866592
  0
LWPOLYLINE
  5
292
100
AcDbEntity
  8
RACCORDO
100
AcDbPolyline
 62
253
  6
CONTINUOUS
 90
10
 70
0
 10
10.9160278026
 20
-20.8563725241
 10
10.9067976153
 20
-16.2235199973
 10
10.8998749744
 20
-11.5897193248
 10
10.89525988
 20
-6.9549705067
 10
10.8929523316
 20
-2.3186416566
 10
10.8929523297
 20
2.3186353392
 10
10.8952598757
 20
6.9549648211
 10
10.8998749701
 20
11.5897149026
 10
10.9067976124
 20
16.2235174703
 10
10.9160278027
 20
20.8563725242
  0
LINE
  5
293
100
AcDbEntity
  8
0
100
AcDbLine
 62
7
  6
CONTINUOUS
 10
11.037406726
 20
-21.6124414913
 11
11.037406726
 21
21.6124414913
  0
LWPOLYLINE
  5
294
100
AcDbEntity
  8
0
100
AcDbPolyline
 62
7
  6
CONTINUOUS
 90
10
 70
0
 43
0.3500000006
 10
1.2857142735
 20
36.6433807526
 10
1.3571429071
 20
36.5005229187
 10
1.3571429071
 20
36.4290962677
 10
1.2142857814
 20
36.2862384338
 10
1.1428571477
 20
36.2862384338
 10
1.0714285848
 20
36.3576696167
 10
1.0714285848
 20
36.4290962677
 10
1.1428571477
 20
36.5719541016
 10
1.2142857814
 20
36.6433807526
 10
1.2857142735
 20
36.6433807526
  0
LWPOLYLINE
  5
295
100
AcDbEntity
  8
RACCORDO
100
AcDbPolyline
 62
253
  6
CONTINUOUS
 90
14
 70
0
 10
-10.5467846201
 20
20.8766973721
 10
-10.592725089
 20
20.8759631155
 10
-10.637025639
 20
20.8750463318
 10
-10.6792735183
 20
20.8739555626
 10
-10.7190750999
 20
20.8727009709
 10
-10.7560595491
 20
20.8712942457
 10
-10.7898822788
 20
20.8697484935
 10
-10.8202281598
 20
20.8680781164
 10
-10.8468144571
 20
20.8662986774
 10
-10.8693934638
 20
20.8644267555
 10
-10.8877548096
 20
20.8624797917
 10
-10.9017274202
 20
20.8604759261
 10
-10.9111811117
 20
20.8584338287
 10
-10.9160278032
 20
20.856372526
  0
LINE
  5
296
100
AcDbEntity
  8
RACCORDO
100
AcDbLine
 62
253
  6
CONTINUOUS
 10
-10.4517073416
 20
20.8775927037
 11
-10.5467846201
 21
20.8766973721
  0
LINE
  5
297
100
AcDbEntity
  8
RACCORDO
100
AcDbLine
 62
253
  6
CONTINUOUS
 10
-10.4517073418
 20
20.8775926593
 11
10.4517073402
 21
20.8775926575
  0
LWPOLYLINE
  5
298
100
AcDbEntity
  8
RACCORDO
100
AcDbPolyline
 62
253
  6
CONTINUOUS
 90
15
 70
0
 10
10.451706519
 20
20.8775921973
 10
10.5467830054
 20
20.8766968906
 10
10.5927231331
 20
20.8759626544
 10
10.6370233933
 20
20.875045896
 10
10.6792710439
 20
20.8739551567
 10
10.7190724672
 20
20.8727005986
 10
10.7560568367
 20
20.8712939102
 10
10.7898795719
 20
20.8697481975
 10
10.8202255493
 20
20.8680778619
 10
10.846812038
 20
20.8662984657
 10
10.8693913338
 20
20.8644265874
 10
10.8877530674
 20
20.8624796671
 10
10.9017261639
 20
20.8604758442
 10
10.9111804372
 20
20.858433788
 10
10.9160278026
 20
20.8563725242
  0
LWPOLYLINE
  5
299
100
AcDbEntity
  8
0
100
AcDbPolyline
 62
7
  6
CONTINUOUS
 90
3
 70
0
 43
0.3500000006
 10
22.4624626694
 20
-0.5357137985
 10
22.4624626694
 20
-2.0357142563
 10
20.1053197403
 20
-1.3928574028
  0
LWPOLYLINE
  5
29A
100
AcDbEntity
  8
0
100
AcDbPolyline
 62
7
  6
CONTINUOUS
 90
3
 70
0
 43
0.3500000006
 10
22.4624626694
 20
-2.8928567276
 10
22.4624626694
 20
-4.3928571854
 10
20.1053197403
 20
-3.7500003319
  0
LWPOLYLINE
  5
29B
100
AcDbEntity
  8
0
100
AcDbPolyline
 62
7
  6
CONTINUOUS
 90
7
 70
0
 43
0.3500000006
 10
23.1053206558
 20
3.5357140732
 10
23.1053206558
 20
2.0357136154
 10
20.9624622116
 20
3.5357140732
 10
20.533890976
 20
3.5357140732
 10
20.1053197403
 20
3.1071428375
 10
20.1053197403
 20
2.4642848511
 10
20.7481777267
 20
2.0357136154
  0
LWPOLYLINE
  5
29C
100
AcDbEntity
  8
RACCORDO
100
AcDbPolyline
 62
253
  6
CONTINUOUS
 90
16
 70
0
 10
-10.4516663112
 20
22.0253306113
 10
-10.5037691396
 20
22.0224620484
 10
-10.5553030207
 20
22.0141731198
 10
-10.6057052936
 20
22.0005543489
 10
-10.6544256724
 20
21.9817544441
 10
-10.7009322056
 20
21.9579786923
 10
-10.7447170915
 20
21.9294867333
 10
-10.785302291
 20
21.8965896872
 10
-10.8222447221
 20
21.8596467532
 10
-10.8551410596
 20
21.8190613204
 10
-10.8836321688
 20
21.7752765396
 10
-10.9074070294
 20
21.7287704675
 10
-10.9262061134
 20
21.6800508596
 10
-10.9398242133
 20
21.6296496393
 10
-10.9481126857
 20
21.5781170921
 10
-10.9509810786
 20
21.5260158439
  0
LINE
  5
29D
100
AcDbEntity
  8
RACCORDO
100
AcDbLine
 62
253
  6
CONTINUOUS
 10
3.0797294973
 20
22.0075952798
 11
10.4516663102
 21
22.0253306103
  0
LINE
  5
29E
100
AcDbEntity
  8
0
100
AcDbLine
 62
7
  6
CONTINUOUS
 10
10.5380919586
 20
22.1117562587
 11
-10.5380919586
 21
22.1117562587
  0
LINE
  5
29F
100
AcDbEntity
  8
RACCORDO
100
AcDbLine
 62
253
  6
CONTINUOUS
 10
-4.3632819094
 20
22.0092957697
 11
3.0797294973
 21
22.0075952798
  0
LINE
  5
2A0
100
AcDbEntity
  8
RACCORDO
100
AcDbLine
 62
253
  6
CONTINUOUS
 10
-10.4516663112
 20
22.0253306113
 11
-4.3632819094
 21
22.0092957697
  0
LWPOLYLINE
  5
2A1
100
AcDbEntity
  8
RACCORDO
100
AcDbPolyline
 62
253
  6
CONTINUOUS
 90
16
 70
0
 10
10.4516663102
 20
22.0253306103
 10
10.503768433
 20
22.0224621237
 10
10.5553017012
 20
22.0141734028
 10
10.6057034712
 20
22.0005549446
 10
10.6544234529
 20
21.9817554362
 10
10.7009297184
 20
21.957980132
 10
10.7447145091
 20
21.9294886124
 10
10.7852997796
 20
21.8965919497
 10
10.8222424173
 20
21.859649312
 10
10.8551390799
 20
21.8190640414
 10
10.8836305994
 20
21.7752792507
 10
10.9074059035
 20
21.7287729852
 10
10.9262054118
 20
21.6800530035
 10
10.9398238701
 20
21.6296512337
 10
10.9481125909
 20
21.5781179655
 10
10.9509810776
 20
21.5260158429
  0
LWPOLYLINE
  5
2A2
100
AcDbEntity
  8
0
100
AcDbPolyline
 62
7
  6
CONTINUOUS
 90
7
 70
0
 43
0.3500000006
 10
-0.2142857063
 20
36.1433806
 10
-1.7142856507
 20
36.1433806
 10
-0.2142857063
 20
38.2862390442
 10
-0.2142857063
 20
38.7148080139
 10
-0.6428571367
 20
39.1433815155
 10
-1.2857142735
 20
39.1433815155
 10
-1.7142856507
 20
38.5005235291
  0
LWPOLYLINE
  5
2A3
100
AcDbEntity
  8
0
100
AcDbPolyline
 62
7
  6
CONTINUOUS
 90
7
 70
0
 43
0.3500000006
 10
-2.5714285469
 20
36.1433806
 10
-4.0714284382
 20
36.1433806
 10
-2.5714285469
 20
38.2862390442
 10
-2.5714285469
 20
38.7148080139
 10
-3.0000000658
 20
39.1433815155
 10
-3.6428572025
 20
39.1433815155
 10
-4.0714284382
 20
38.5005235291
  0
LWPOLYLINE
  5
2A4
100
AcDbEntity
  8
0
100
AcDbPolyline
 62
7
  6
CONTINUOUS
 90
3
 70
0
 43
0.3500000006
 10
-46.7333370209
 20
36.4290962677
 10
-46.8047682037
 20
36.2148117828
 10
-46.9476260376
 20
35.9290961151
  0
LINE
  5
2A5
100
AcDbEntity
  8
RACCORDO
100
AcDbLine
 62
253
  6
CONTINUOUS
 10
-35.366977248
 20
-20.8775927014
 11
-35.3612895671
 21
-20.8772422581
  0
LINE
  5
2A6
100
AcDbEntity
  8
RACCORDO
100
AcDbLine
 62
253
  6
CONTINUOUS
 10
-35.3612895671
 20
-20.8772422581
 11
-35.3362402109
 21
-20.8759631133
  0
LINE
  5
2A7
100
AcDbEntity
  8
RACCORDO
100
AcDbLine
 62
253
  6
CONTINUOUS
 10
-35.3362402109
 20
-20.8759631133
 11
-35.0362328552
 21
-20.8624797898
  0
LINE
  5
2A8
100
AcDbEntity
  8
RACCORDO
100
AcDbLine
 62
253
  6
CONTINUOUS
 10
-35.0362328552
 20
-20.8624797898
 11
-34.8948229382
 21
-20.8563725241
  0
LINE
  5
2A9
100
AcDbEntity
  8
RACCORDO
100
AcDbLine
 62
253
  6
CONTINUOUS
 10
-35.7339309484
 20
-20.8701689506
 11
-35.3669772526
 21
-20.877592659
  0
LINE
  5
2AA
100
AcDbEntity
  8
RACCORDO
100
AcDbLine
 62
7
  6
CONTINUOUS
 10
-34.5983721889
 20
-22.0059136608
 11
-34.2278747215
 21
-22.0253306103
  0
LINE
  5
2AB
100
AcDbEntity
  8
0
100
AcDbLine
 62
7
  6
CONTINUOUS
 10
-32.5787751109
 20
-22.1117562587
 11
-34.2278747215
 21
-22.0253306103
  0
LINE
  5
2AC
100
AcDbEntity
  8
0
100
AcDbLine
 62
253
  6
CONTINUOUS
 10
-32.5787751109
 20
-21.6124414913
 11
-34.2278747216
 21
-21.5260158429
  0
LWPOLYLINE
  5
2AD
100
AcDbEntity
  8
RACCORDO
100
AcDbPolyline
 62
253
  6
CONTINUOUS
 90
22
 70
0
 10
-34.2278747216
 20
-22.0253306103
 10
-34.3122616013
 20
-22.0179297522
 10
-34.3958968427
 20
-22.0046288375
 10
-34.4783687181
 20
-21.9854972854
 10
-34.5592718857
 20
-21.9606338102
 10
-34.6382087558
 20
-21.9301646573
 10
-34.7147909869
 20
-21.8942417477
 10
-34.7886459194
 20
-21.8530429444
 10
-34.8594078614
 20
-21.8067756796
 10
-34.9267197335
 20
-21.7556751002
 10
-34.9902508756
 20
-21.6999983713
 10
-35.0496937648
 20
-21.6400220376
 10
-35.1047549921
 20
-21.5760447725
 10
-35.155166693
 20
-21.508384764
 10
-35.2006847525
 20
-21.4373780217
 10
-35.2410857772
 20
-21.3633764989
 10
-35.2761719088
 20
-21.2867528886
 10
-35.3057782877
 20
-21.2078804478
 10
-35.3297661585
 20
-21.1271292234
 10
-35.3480179021
 20
-21.0448900836
 10
-35.3604420868
 20
-20.9615744365
 10
-35.3669772467
 20
-20.8775926584
  0
LWPOLYLINE
  5
2AE
100
AcDbEntity
  8
RACCORDO
100
AcDbPolyline
 62
253
  6
CONTINUOUS
 90
22
 70
0
 10
-34.2278747216
 20
-21.5260158429
 10
-34.2774365773
 20
-21.5216510913
 10
-34.3261599936
 20
-21.5139400941
 10
-34.3740449707
 20
-21.5028828515
 10
-34.4213430115
 20
-21.4883894243
 10
-34.467802613
 20
-21.4705497515
 10
-34.5126692663
 20
-21.4496336506
 10
-34.555896777
 20
-21.4255962085
 10
-34.5975313396
 20
-21.3984823382
 10
-34.6369570283
 20
-21.3686965963
 10
-34.6741404345
 20
-21.3361975891
 10
-34.709114967
 20
-21.3010267103
 10
-34.7413649268
 20
-21.263712697
 10
-34.7708465269
 20
-21.2242264943
 10
-34.7976035544
 20
-21.1825971571
 10
-34.8212516719
 20
-21.1394405875
 10
-34.8417465319
 20
-21.0947135149
 10
-34.8591324819
 20
-21.0484592098
 10
-34.873158227
 20
-21.0014233868
 10
-34.8837400023
 20
-20.9538546172
 10
-34.8909615727
 20
-20.9055043297
 10
-34.8948229382
 20
-20.8563725241
  0
LWPOLYLINE
  5
2AF
100
AcDbEntity
  8
0
100
AcDbPolyline
 62
7
  6
CONTINUOUS
 90
2
 70
0
 43
0.3500000006
 10
-48.8047688141
 20
36.1433806
 10
-48.8047688141
 20
37.6433810577
  0
LWPOLYLINE
  5
2B0
100
AcDbEntity
  8
RACCORDO
100
AcDbPolyline
 62
253
  6
CONTINUOUS
 90
16
 70
0
 10
-34.2278747211
 20
22.0253306103
 10
-34.2304549454
 20
22.0224621237
 10
-34.2327212952
 20
22.0141734028
 10
-34.2346490264
 20
22.0005549446
 10
-34.236217092
 20
21.9817554362
 10
-34.2374083716
 20
21.957980132
 10
-34.2382098584
 20
21.9294886124
 10
-34.2386128015
 20
21.8965919497
 10
-34.2386128018
 20
21.859649312
 10
-34.2382098592
 20
21.8190640414
 10
-34.2374083731
 20
21.7752792507
 10
-34.2362170941
 20
21.7287729852
 10
-34.2346490287
 20
21.6800530035
 10
-34.2327212972
 20
21.6296512337
 10
-34.2304549466
 20
21.5781179655
 10
-34.2278747211
 20
21.5260158429
  0
LWPOLYLINE
  5
2B1
100
AcDbEntity
  8
RACCORDO
100
AcDbPolyline
 62
253
  6
CONTINUOUS
 90
16
 70
0
 10
-34.2278747216
 20
-22.0253306103
 10
-34.2304549815
 20
-22.0224620551
 10
-34.2327213555
 20
-22.0141731476
 10
-34.2346491
 20
-22.0005544084
 10
-34.236217169
 20
-21.9817545437
 10
-34.2374084428
 20
-21.9579788371
 10
-34.2382099151
 20
-21.9294869224
 10
-34.2386128377
 20
-21.8965899146
 10
-34.2386128142
 20
-21.8596470098
 10
-34.2382098476
 20
-21.8190615926
 10
-34.2374083407
 20
-21.77527681
 10
-34.2362170472
 20
-21.7287707174
 10
-34.2346489759
 20
-21.6800510715
 10
-34.2327212492
 20
-21.6296497963
 10
-34.2304549159
 20
-21.5781171775
 10
-34.2278747216
 20
-21.5260158429
  0
LINE
  5
2B2
100
AcDbEntity
  8
0
100
AcDbLine
 62
7
  6
CONTINUOUS
 10
-31.5787751109
 20
-13.2689805518
 11
-32.5787751109
 21
-13.3213883311
  0
LWPOLYLINE
  5
2B3
100
AcDbEntity
  8
0
100
AcDbPolyline
 62
7
  6
CONTINUOUS
 90
4
 70
0
 43
0.3500000006
 10
-45.7333367157
 20
38.5005235291
 10
-45.7333367157
 20
39.1433815155
 10
-44.2333407898
 20
39.1433815155
 10
-45.0904832611
 20
36.1433806
  0
LINE
  5
2B4
100
AcDbEntity
  8
0
100
AcDbLine
 62
7
  6
CONTINUOUS
 10
-31.5787751109
 20
-9.7310194482
 11
-32.5787751109
 21
-9.6786116689
  0
LWPOLYLINE
  5
2B5
100
AcDbEntity
  8
RACCORDO
100
AcDbPolyline
 62
253
  6
CONTINUOUS
 90
10
 70
0
 10
-35.3669772526
 20
-20.877592659
 10
-35.542898096
 20
-16.2407094163
 10
-35.6749243415
 20
-11.6020504417
 10
-35.7629858321
 20
-6.9620306049
 10
-35.8070322436
 20
-2.3208549767
 10
-35.8070322801
 20
2.3208472824
 10
-35.7629859307
 20
6.9620236805
 10
-35.6749244692
 20
11.6020450567
 10
-35.5428981981
 20
16.2407063394
 10
-35.3669772527
 20
20.8775926575
  0
LWPOLYLINE
  5
2B6
100
AcDbEntity
  8
RACCORDO
100
AcDbPolyline
 62
253
  6
CONTINUOUS
 90
10
 70
0
 10
-34.8948229382
 20
-20.8563725241
 10
-35.0709454046
 20
-16.2235199973
 10
-35.2030372613
 20
-11.5897193248
 10
-35.2910985083
 20
-6.9549705067
 10
-35.3351291546
 20
-2.3186416566
 10
-35.3351291912
 20
2.3186353392
 10
-35.2910985905
 20
6.9549648211
 10
-35.2030373435
 20
11.5897149026
 10
-35.0709454593
 20
16.2235174703
 10
-34.8948229379
 20
20.8563725242
  0
LWPOLYLINE
  5
2B7
100
AcDbEntity
  8
0
100
AcDbPolyline
 62
7
  6
CONTINUOUS
 90
6
 70
0
 10
-36.2610135396
 20
-3.7694614663
 10
-36.217671906
 20
-6.9912513843
 10
-36.1413377947
 20
-10.4845431777
 10
-36.0344908753
 20
-13.9770348719
 10
-35.8971423432
 20
-17.4684600916
 10
-35.7339309438
 20
-20.8701690383
  0
LINE
  5
2B8
100
AcDbEntity
  8
0
100
AcDbLine
 62
7
  6
CONTINUOUS
 10
-36.2610135407
 20
3.7694614685
 11
-36.2552205836
 21
2.9802815667
  0
LINE
  5
2B9
100
AcDbEntity
  8
0
100
AcDbLine
 62
7
  6
CONTINUOUS
 10
-36.2610135407
 20
3.7694614685
 11
-36.2609891914
 21
3.7645276106
  0
LINE
  5
2BA
100
AcDbEntity
  8
0
100
AcDbLine
 62
7
  6
CONTINUOUS
 10
-36.2552205836
 20
2.9802815667
 11
-36.2531244356
 21
2.2240259752
  0
LINE
  5
2BB
100
AcDbEntity
  8
0
100
AcDbLine
 62
7
  6
CONTINUOUS
 10
-36.2570997966
 20
0.1668667405
 11
-36.2531190823
 21
-2.2242547158
  0
LINE
  5
2BC
100
AcDbEntity
  8
0
100
AcDbLine
 62
7
  6
CONTINUOUS
 10
-36.2531244356
 20
2.2240259752
 11
-36.2570997966
 21
0.1668667405
  0
LINE
  5
2BD
100
AcDbEntity
  8
0
100
AcDbLine
 62
7
  6
CONTINUOUS
 10
-36.2531190823
 20
-2.2242547158
 11
-36.2552163547
 21
-2.9811686721
  0
LINE
  5
2BE
100
AcDbEntity
  8
0
100
AcDbLine
 62
7
  6
CONTINUOUS
 10
-36.2608780837
 20
-3.7496624317
 11
-36.2610135323
 21
-3.7694614504
  0
LINE
  5
2BF
100
AcDbEntity
  8
0
100
AcDbLine
 62
7
  6
CONTINUOUS
 10
-36.2552163547
 20
-2.9811686721
 11
-36.2608780837
 21
-3.7496624317
  0
LWPOLYLINE
  5
2C0
100
AcDbEntity
  8
0
100
AcDbPolyline
 62
7
  6
CONTINUOUS
 90
6
 70
0
 10
-35.7339309438
 20
20.8701690381
 10
-35.8974334167
 20
17.4618001712
 10
-36.034723775
 20
13.9703724365
 10
-36.141512494
 20
10.4778787858
 10
-36.2177883796
 20
6.9845855945
 10
-36.2610135396
 20
3.7694614663
  0
LWPOLYLINE
  5
2C1
100
AcDbEntity
  8
RACCORDO
100
AcDbPolyline
 62
253
  6
CONTINUOUS
 90
22
 70
0
 10
-35.3669772461
 20
20.8775926568
 10
-35.3604422883
 20
20.9615726594
 10
-35.3480184496
 20
21.0448871287
 10
-35.3297670743
 20
21.1271256883
 10
-35.3057793957
 20
21.2078771503
 10
-35.2761729625
 20
21.286750364
 10
-35.2410867522
 20
21.363374559
 10
-35.200685829
 20
21.4373761979
 10
-35.1551679583
 20
21.5083829142
 10
-35.1047564093
 20
21.5760429757
 10
-35.049695213
 20
21.6400204412
 10
-34.9902522809
 20
21.6999970232
 10
-34.9267210596
 20
21.7556739957
 10
-34.8594090192
 20
21.8067748469
 10
-34.7886468679
 20
21.8530423607
 10
-34.7147919132
 20
21.8942412669
 10
-34.6382101623
 20
21.9301640524
 10
-34.5592740204
 20
21.9606330674
 10
-34.4783711707
 20
21.9854966221
 10
-34.395898945
 20
22.0046284256
 10
-34.3122628867
 20
22.0179295934
 10
-34.2278747211
 20
22.0253306103
  0
LWPOLYLINE
  5
2C2
100
AcDbEntity
  8
RACCORDO
100
AcDbPolyline
 62
253
  6
CONTINUOUS
 90
22
 70
0
 10
-34.8948229379
 20
20.8563725242
 10
-34.8909603966
 20
20.9055117994
 10
-34.8837372303
 20
20.9538684119
 10
-34.8731534393
 20
21.0014423617
 10
-34.8591253388
 20
21.0484818972
 10
-34.8417366134
 20
21.0947387699
 10
-34.8212383167
 20
21.1394682348
 10
-34.7975855478
 20
21.1826277654
 10
-34.7708232075
 20
21.2242598882
 10
-34.7413370512
 20
21.2637474377
 10
-34.7090834895
 20
21.3010607812
 10
-34.6741061119
 20
21.3362295514
 10
-34.6369214426
 20
21.3687254808
 10
-34.597496804
 20
21.3985067993
 10
-34.5558648738
 20
21.425615277
 10
-34.5126402091
 20
21.4496479577
 10
-34.4677757806
 20
21.4705605431
 10
-34.4213186177
 20
21.4883973314
 10
-34.3740243658
 20
21.5028882617
 10
-34.3261449066
 20
21.5139433135
 10
-34.2774283584
 20
21.5216525072
 10
-34.2278747211
 20
21.5260158429
  0
LINE
  5
2C3
100
AcDbEntity
  8
0
100
AcDbLine
 62
7
  6
CONTINUOUS
 10
-32.5787751109
 20
-22.1117562587
 11
-32.5787751109
 21
22.1117562587
  0
LINE
  5
2C4
100
AcDbEntity
  8
0
100
AcDbLine
 62
253
  6
CONTINUOUS
 10
-31.9578407284
 20
13.288846539
 11
-31.9578407284
 21
9.711153461
  0
LINE
  5
2C5
100
AcDbEntity
  8
0
100
AcDbLine
 62
253
  6
CONTINUOUS
 10
-31.9578407284
 20
-9.711153461
 11
-31.9578407284
 21
-13.288846539
  0
LINE
  5
2C6
100
AcDbEntity
  8
0
100
AcDbLine
 62
7
  6
CONTINUOUS
 10
-31.5787751109
 20
13.2689805518
 11
-31.5787751109
 21
9.7310194482
  0
LINE
  5
2C7
100
AcDbEntity
  8
0
100
AcDbLine
 62
7
  6
CONTINUOUS
 10
-31.5787751109
 20
-9.7310194482
 11
-31.5787751109
 21
-13.2689805518
  0
LWPOLYLINE
  5
2C8
100
AcDbEntity
  8
0
100
AcDbPolyline
 62
7
  6
CONTINUOUS
 90
10
 70
0
 43
0.3500000006
 10
-46.8047682037
 20
36.6433807526
 10
-46.7333370209
 20
36.5005229187
 10
-46.7333370209
 20
36.4290962677
 10
-46.8761948547
 20
36.2862384338
 10
-46.9476260376
 20
36.2862384338
 10
-47.0190526886
 20
36.3576696167
 10
-47.0190526886
 20
36.4290962677
 10
-46.9476260376
 20
36.5719541016
 10
-46.8761948547
 20
36.6433807526
 10
-46.8047682037
 20
36.6433807526
  0
LINE
  5
2C9
100
AcDbEntity
  8
0
100
AcDbLine
 62
7
  6
CONTINUOUS
 10
-31.5787751109
 20
9.7310194482
 11
-32.5787751109
 21
9.6786116689
  0
LINE
  5
2CA
100
AcDbEntity
  8
0
100
AcDbLine
 62
7
  6
CONTINUOUS
 10
-31.5787751109
 20
13.2689805518
 11
-32.5787751109
 21
13.3213883311
  0
LINE
  5
2CB
100
AcDbEntity
  8
RACCORDO
100
AcDbLine
 62
253
  6
CONTINUOUS
 10
-35.7339309483
 20
20.8701689517
 11
-35.3669772527
 21
20.8775926575
  0
LINE
  5
2CC
100
AcDbEntity
  8
RACCORDO
100
AcDbLine
 62
253
  6
CONTINUOUS
 10
-35.3171019088
 20
20.875045896
 11
-34.8948229379
 21
20.8563725242
  0
LWPOLYLINE
  5
2CD
100
AcDbEntity
  8
RACCORDO
100
AcDbPolyline
 62
253
  6
CONTINUOUS
 90
4
 70
0
 10
-35.3669654597
 20
20.8775921973
 10
-35.3612780551
 20
20.8772417637
 10
-35.3510008487
 20
20.8766968906
 10
-35.3171019088
 20
20.875045896
  0
LINE
  5
2CE
100
AcDbEntity
  8
0
100
AcDbLine
 62
253
  6
CONTINUOUS
 10
-34.2278747211
 20
21.5260158429
 11
-32.5787751109
 21
21.6124414913
  0
LINE
  5
2CF
100
AcDbEntity
  8
RACCORDO
100
AcDbLine
 62
7
  6
CONTINUOUS
 10
-34.5983721317
 20
22.0059136638
 11
-34.2278747209
 21
22.0253306103
  0
LINE
  5
2D0
100
AcDbEntity
  8
0
100
AcDbLine
 62
7
  6
CONTINUOUS
 10
-34.2278747209
 20
22.0253306103
 11
-32.5787751109
 21
22.1117562587
  0
LWPOLYLINE
  5
2D1
100
AcDbEntity
  8
0
100
AcDbPolyline
 62
7
  6
CONTINUOUS
 90
3
 70
0
 43
0.3500000006
 10
-48.3047686615
 20
36.7862385864
 10
-49.8047691193
 20
36.7862385864
 10
-49.1619111328
 20
39.1433815155
  0
ARC
  5
2D2
100
AcDbEntity
  8
RACCORDO
100
AcDbCircle
 62
7
  6
CONTINUOUS
 10
-34.5355653283
 20
-20.8075584137
 40
1.2
100
AcDbArc
 50
182.9907948857
 51
267.0
  0
ARC
  5
2D3
100
AcDbEntity
  8
RACCORDO
100
AcDbCircle
 62
7
  6
CONTINUOUS
 10
-34.5355653305
 20
20.8075584136
 40
1.2
100
AcDbArc
 50
93.0
 51
177.0092051148
  0
ELLIPSE
  5
2D4
100
AcDbEntity
  8
0
100
AcDbEllipse
 62
7
  6
CONTINUOUS
 10
10.536720553
 20
-21.6110700857
 30
0.0
 11
-0.3545231217
 21
0.3545231217
 31
0.0
 40
0.9972646886
 41
2.3575640181
 42
3.9256212891
  0
ELLIPSE
  5
2D5
100
AcDbEntity
  8
0
100
AcDbEllipse
 62
7
  6
CONTINUOUS
 10
10.536720553
 20
21.6110700857
 30
0.0
 11
0.3545231217
 21
0.3545231217
 31
0.0
 40
0.9972646886
 41
-0.7840286355
 42
0.7840286355
  0
ELLIPSE
  5
2D6
100
AcDbEntity
  8
0
100
AcDbEllipse
 62
7
  6
CONTINUOUS
 10
-10.536720553
 20
21.6110700857
 30
0.0
 11
0.3545231217
 21
-0.3545231217
 31
0.0
 40
0.9972646886
 41
2.3575640181
 42
3.9256212891
  0
ELLIPSE
  5
2D7
100
AcDbEntity
  8
0
100
AcDbEllipse
 62
7
  6
CONTINUOUS
 10
-10.536720553
 20
-21.6110700857
 30
0.0
 11
0.3545231217
 21
0.3545231217
 31
0.0
 40
0.9972646886
 41
-3.9256212891
 42
-2.3575640181
  0
ENDSEC
  0
SECTION
  2
OBJECTS
  0
DICTIONARY
  5
C
100
AcDbDictionary
280
0
281
1
  3
ACAD_GROUP
350
D
  3
ACAD_MLINESTYLE
350
17
  3
ACAD_LAYOUT
350
1A
  3
ACAD_PLOTSETTINGS
350
19
  3
ACAD_PLOTSTYLENAME
350
E
  0
DICTIONARY
  5
D
102
{ACAD_REACTORS
330
C
102
}
100
AcDbDictionary
280
0
281
1
  0
ACDBDICTIONARYWDFLT
  5
E
102
{ACAD_REACTORS
330
C
102
}
100
AcDbDictionary
281
1
  3
Normal
350
F
100
AcDbDictionaryWithDefault
340
F
  0
DICTIONARY
  5
17
102
{ACAD_REACTORS
330
C
102
}
100
AcDbDictionary
280
0
281
1
  3
Standard
350
18
  0
DICTIONARY
  5
19
102
{ACAD_REACTORS
330
C
102
}
100
AcDbDictionary
281
1
  0
DICTIONARY
  5
1A
102
{ACAD_REACTORS
330
C
102
}
100
AcDbDictionary
281
1
  3
Model
350
2D8
  3
Layout1
350
2D9
  0
ACDBPLACEHOLDER
  5
F
102
{ACAD_REACTORS
330
E
102
}
  0
MLINESTYLE
  5
18
102
{ACAD_REACTORS
330
17
102
}
100
AcDbMlineStyle
  2
STANDARD
 70
0
  3

 62
256
 51
90.0
 52
90.0
 71
2
 49
0.5
 62
256
  6
BYLAYER
 49
-0.5
 62
256
  6
BYLAYER
  0
LAYOUT
  5
2D8
102
{ACAD_REACTORS
330
1A
102
}
100
AcDbPlotSettings
  1

  2
none_device
  4
ISO_A4_(297.00_x_210.00_MM)
  6

 40
0.0
 41
0.0
 42
0.0
 43
0.0
 44
297.0
 45
210.0
 46
0.0
 47
0.0
 48
0.0
 49
0.0
140
0.0
141
0.0
142
1.0
143
1.0
 70
1024
 72
1
 73
0
 74
0
  7

 75
0
147
1.0
148
0.0
149
0.0
100
AcDbLayout
  1
Model
 70
0
 71
0
 10
0.0
 20
0.0
 11
297.0
 21
210.0
 12
0.0
 22
0.0
 32
0.0
 14
0.0
 24
0.0
 34
0.0
 15
0.0
 25
0.0
 35
0.0
146
0.0
 13
0.0
 23
0.0
 33
0.0
 16
1.0
 26
0.0
 36
0.0
 17
0.0
 27
1.0
 37
0.0
 76
0
330
214
345
0
346
0
  0
LAYOUT
  5
2D9
102
{ACAD_REACTORS
330
1A
102
}
100
AcDbPlotSettings
  1

  2
none_device
  4
ISO_A4_(297.00_x_210.00_MM)
  6

 40
0.0
 41
0.0
 42
0.0
 43
0.0
 44
297.0
 45
210.0
 46
0.0
 47
0.0
 48
0.0
 49
0.0
140
0.0
141
0.0
142
1.0
143
1.0
 70
0
 72
1
 73
0
 74
0
  7

 75
0
147
1.0
148
0.0
149
0.0
100
AcDbLayout
  1
Layout1
 70
0
 71
1
 10
0.0
 20
0.0
 11
297.0
 21
210.0
 12
0.0
 22
0.0
 32
0.0
 14
0.0
 24
0.0
 34
0.0
 15
0.0
 25
0.0
 35
0.0
146
0.0
 13
0.0
 23
0.0
 33
0.0
 16
1.0
 26
0.0
 36
0.0
 17
0.0
 27
1.0
 37
0.0
 76
0
330
215
345
0
346
0
  0
ENDSEC
  0
EOF
