  0
SECTION
  2
HEADER
  9
$ACADVER
  1
AC1015
  9
$DWGCODEPAGE
  3
ANSI_1252
  9
$EXTMAX
 10
297.0
 20
210.0
 30
0.0
  9
$EXTMIN
 10
0.0
 20
0.0
 30
0.0
  9
$LIMMIN
 10
0.0
 20
0.0
  9
$LIMMAX
 10
297.0
 20
210.0
  9
$VIEWCTR
 10
148.5
 20
105.0
  9
$VIEWSIZE
 40
210.0
  9
$CLAYER
  8
0
  9
$LTSCALE
 40
16.335
  9
$CELTYPE
  6
BYLAYER
  9
$DIMSCALE
 40
1.0
  9
$DIMASZ
 40
3.0
  9
$DIMEXO
 40
1.85625
  9
$DIMDLI
 40
11.286
  9
$DIMEXE
 40
5.346
  9
$DIMCEN
 40
2.673
  9
$DIMLFAC
 40
1.0
  9
$DIMBLK
  1
_FILLED
  9
$DIMTXT
 40
3.0
  9
$DIMTOL
 70
1
  9
$DIMLIM
 70
0
  9
$DIMTFAC
 40
1.0
  9
$DIMTP
 40
0.01
  9
$DIMTM
 40
0.01
  9
$PDMODE
 70
3
  9
$PDSIZE
 40
3.0
  9
$HANDSEED
  5
329
  9
$TILEMODE
 70
1
  9
$MEASUREMENT
 70
1
  9
$INSUNITS
 70
4
  0
ENDSEC
  0
SECTION
  2
CLASSES
  0
CLASS
  1
ACDBDICTIONARYWDFLT
  2
AcDbDictionaryWithDefault
  3
AutoCAD 2000
 90
0
280
0
281
0
  0
CLASS
  1
ACDBPLACEHOLDER
  2
AcDbPlaceHolder
  3
AutoCAD 2000
 90
0
280
0
281
0
  0
CLASS
  1
LAYOUT
  2
AcDbLayout
  3
AutoCAD 2000
 90
0
280
0
281
0
  0
ENDSEC
  0
SECTION
  2
TABLES
  0
TABLE
  2
VPORT
  5
8
100
AcDbSymbolTable
 70
2
  0
VPORT
  5
1F4
100
AcDbSymbolTableRecord
100
AcDbViewportTableRecord
  2
*ACTIVE
 70
0
 10
0.0
 20
0.0
 11
1.0
 21
1.0
 12
148.5
 22
105.0
 13
0.0
 23
0.0
 14
1.0
 24
1.0
 15
0.0
 25
0.0
 16
0.0
 26
0.0
 36
1.0
 17
0.0
 27
0.0
 37
0.0
 40
210.0
 41
1.4142857143
 42
50.0
 43
0.0
 44
0.0
 50
0.0
 51
0.0
 71
0
 72
100
 73
1
 74
1
 75
0
 76
0
 77
0
 78
0
  0
ENDTAB
  0
TABLE
  2
LTYPE
  5
5
100
AcDbSymbolTable
 70
6
  0
LTYPE
  5
14
100
AcDbSymbolTableRecord
100
AcDbLinetypeTableRecord
  2
BYBLOCK
 70
0
  3

 72
65
 73
0
 40
0.0
  0
LTYPE
  5
15
100
AcDbSymbolTableRecord
100
AcDbLinetypeTableRecord
  2
BYLAYER
 70
0
  3

 72
65
 73
0
 40
0.0
  0
LTYPE
  5
16
100
AcDbSymbolTableRecord
100
AcDbLinetypeTableRecord
  2
CONTINUOUS
 70
64
  3
Solid line
 72
65
 73
0
 40
0.0
  0
LTYPE
  5
1F5
100
AcDbSymbolTableRecord
100
AcDbLinetypeTableRecord
  2
CENTER
 70
64
  3
____ _ ____ _ ____ _ ____ _ ____ _ ____ _ ____
 72
65
 73
4
 40
0.6
 49
0.375
 74
0
 49
-0.075
 74
0
 49
0.075
 74
0
 49
-0.075
 74
0
  0
LTYPE
  5
1F6
100
AcDbSymbolTableRecord
100
AcDbLinetypeTableRecord
  2
HIDDEN
 70
64
  3
- - - - - - - - - - - - - - - - - - - -
 72
65
 73
2
 40
0.2
 49
0.1
 74
0
 49
-0.1
 74
0
  0
LTYPE
  5
1F7
100
AcDbSymbolTableRecord
100
AcDbLinetypeTableRecord
  2
PHANTOM
 70
64
  3
_____ _ _ _____ _ _ _____ _ _ _____
 72
65
 73
6
 40
0.8
 49
0.45
 74
0
 49
-0.05
 74
0
 49
0.1
 74
0
 49
-0.05
 74
0
 49
0.1
 74
0
 49
-0.05
 74
0
  0
LTYPE
  5
1F8
100
AcDbSymbolTableRecord
100
AcDbLinetypeTableRecord
  2
DOT
 70
64
  3
. . . . . . . . . . . . . . . . . . . .
 72
65
 73
2
 40
0.2
 49
0.1
 74
0
 49
-0.1
 74
0
  0
LTYPE
  5
1F9
100
AcDbSymbolTableRecord
100
AcDbLinetypeTableRecord
  2
DASHED
 70
64
  3
- - - - - - - - - - - - - - - - - - - -
 72
65
 73
2
 40
0.2
 49
0.1
 74
0
 49
-0.1
 74
0
  0
ENDTAB
  0
TABLE
  2
LAYER
  5
2
100
AcDbSymbolTable
 70
36
  0
LAYER
  5
10
100
AcDbSymbolTableRecord
100
AcDbLayerTableRecord
  2
0
 70
0
 62
7
  6
CONTINUOUS
370
-3
390
F
  0
LAYER
  5
1FA
100
AcDbSymbolTableRecord
100
AcDbLayerTableRecord
  2
DEFAULT_1
 70
0
 62
7
  6
CENTER
370
-3
390
F
  0
LAYER
  5
1FB
100
AcDbSymbolTableRecord
100
AcDbLayerTableRecord
  2
DEFAULT_2
 70
0
 62
7
  6
HIDDEN
370
-3
390
F
  0
LAYER
  5
1FC
100
AcDbSymbolTableRecord
100
AcDbLayerTableRecord
  2
DEFAULT_3
 70
0
 62
7
  6
PHANTOM
370
-3
390
F
  0
LAYER
  5
1FD
100
AcDbSymbolTableRecord
100
AcDbLayerTableRecord
  2
ASSI
 70
0
 62
7
  6
CONTINUOUS
370
-3
390
F
  0
LAYER
  5
1FE
100
AcDbSymbolTableRecord
100
AcDbLayerTableRecord
  2
COORDINATE
 70
0
 62
7
  6
CONTINUOUS
370
-3
390
F
  0
LAYER
  5
1FF
100
AcDbSymbolTableRecord
100
AcDbLayerTableRecord
  2
COPY_PUBLISH
 70
0
 62
7
  6
CONTINUOUS
370
-3
390
F
  0
LAYER
  5
200
100
AcDbSymbolTableRecord
100
AcDbLayerTableRecord
  2
COSMETIC
 70
0
 62
7
  6
CONTINUOUS
370
-3
390
F
  0
LAYER
  5
201
100
AcDbSymbolTableRecord
100
AcDbLayerTableRecord
  2
COSMETICI
 70
0
 62
7
  6
CONTINUOUS
370
-3
390
F
  0
LAYER
  5
202
100
AcDbSymbolTableRecord
100
AcDbLayerTableRecord
  2
CURVE
 70
0
 62
7
  6
CONTINUOUS
370
-3
390
F
  0
LAYER
  5
203
100
AcDbSymbolTableRecord
100
AcDbLayerTableRecord
  2
DRAFT
 70
0
 62
7
  6
CONTINUOUS
370
-3
390
F
  0
LAYER
  5
204
100
AcDbSymbolTableRecord
100
AcDbLayerTableRecord
  2
IMPORT_IGES
 70
0
 62
7
  6
CONTINUOUS
370
-3
390
F
  0
LAYER
  5
205
100
AcDbSymbolTableRecord
100
AcDbLayerTableRecord
  2
INTFCLR_11
 70
0
 62
7
  6
CONTINUOUS
370
-3
390
F
  0
LAYER
  5
206
100
AcDbSymbolTableRecord
100
AcDbLayerTableRecord
  2
INTF_1
 70
0
 62
7
  6
CONTINUOUS
370
-3
390
F
  0
LAYER
  5
207
100
AcDbSymbolTableRecord
100
AcDbLayerTableRecord
  2
INTF_3
 70
0
 62
7
  6
CONTINUOUS
370
-3
390
F
  0
LAYER
  5
208
100
AcDbSymbolTableRecord
100
AcDbLayerTableRecord
  2
NOTE
 70
0
 62
7
  6
CONTINUOUS
370
-3
390
F
  0
LAYER
  5
209
100
AcDbSymbolTableRecord
100
AcDbLayerTableRecord
  2
PIANI
 70
0
 62
7
  6
CONTINUOUS
370
-3
390
F
  0
LAYER
  5
20A
100
AcDbSymbolTableRecord
100
AcDbLayerTableRecord
  2
PUNTI
 70
0
 62
7
  6
CONTINUOUS
370
-3
390
F
  0
LAYER
  5
20B
100
AcDbSymbolTableRecord
100
AcDbLayerTableRecord
  2
RACCORDO
 70
0
 62
7
  6
CONTINUOUS
370
-3
390
F
  0
LAYER
  5
20C
100
AcDbSymbolTableRecord
100
AcDbLayerTableRecord
  2
SIMBOLI
 70
0
 62
7
  6
CONTINUOUS
370
-3
390
F
  0
LAYER
  5
20D
100
AcDbSymbolTableRecord
100
AcDbLayerTableRecord
  2
SMUSSO
 70
0
 62
7
  6
CONTINUOUS
370
-3
390
F
  0
LAYER
  5
20E
100
AcDbSymbolTableRecord
100
AcDbLayerTableRecord
  2
SNAPLINE
 70
0
 62
7
  6
CONTINUOUS
370
-3
390
F
  0
LAYER
  5
20F
100
AcDbSymbolTableRecord
100
AcDbLayerTableRecord
  2
SUPERFICI
 70
0
 62
7
  6
CONTINUOUS
370
-3
390
F
  0
LAYER
  5
210
100
AcDbSymbolTableRecord
100
AcDbLayerTableRecord
  2
TRASH
 70
0
 62
7
  6
CONTINUOUS
370
-3
390
F
  0
LAYER
  5
211
100
AcDbSymbolTableRecord
100
AcDbLayerTableRecord
  2
___SHELL
 70
0
 62
7
  6
CONTINUOUS
370
-3
390
F
  0
ENDTAB
  0
TABLE
  2
STYLE
  5
3
100
AcDbSymbolTable
 70
1
  0
STYLE
  5
11
100
AcDbSymbolTableRecord
100
AcDbTextStyleTableRecord
  2
STANDARD
 70
0
 40
0.0
 41
0.8
 50
0.0
 71
0
 42
0.2
  3
txt
  4

  0
STYLE
  5
212
100
AcDbSymbolTableRecord
100
AcDbTextStyleTableRecord
  2
TEXTSTYLE_1
 70
0
 40
0.0
 41
0.8
 50
0.0
 71
0
 42
0.2
  3
gdt
  4

  0
ENDTAB
  0
TABLE
  2
VIEW
  5
6
100
AcDbSymbolTable
 70
0
  0
ENDTAB
  0
TABLE
  2
UCS
  5
7
100
AcDbSymbolTable
 70
0
  0
ENDTAB
  0
TABLE
  2
APPID
  5
9
100
AcDbSymbolTable
 70
1
  0
APPID
  5
213
100
AcDbSymbolTableRecord
100
AcDbRegAppTableRecord
  2
ACAD
 70
0
  0
ENDTAB
  0
TABLE
  2
BLOCK_RECORD
  5
1
100
AcDbSymbolTable
 70
0
  0
BLOCK_RECORD
  5
214
100
AcDbSymbolTableRecord
100
AcDbBlockTableRecord
  2
*Model_Space
  0
BLOCK_RECORD
  5
215
100
AcDbSymbolTableRecord
100
AcDbBlockTableRecord
  2
*Paper_Space
  0
BLOCK_RECORD
  5
216
100
AcDbSymbolTableRecord
100
AcDbBlockTableRecord
  2
_FILLED
  0
BLOCK_RECORD
  5
217
100
AcDbSymbolTableRecord
100
AcDbBlockTableRecord
  2
*D0
  0
BLOCK_RECORD
  5
218
100
AcDbSymbolTableRecord
100
AcDbBlockTableRecord
  2
*D1
  0
BLOCK_RECORD
  5
219
100
AcDbSymbolTableRecord
100
AcDbBlockTableRecord
  2
*D2
  0
ENDTAB
  0
TABLE
  2
DIMSTYLE
  5
A
100
AcDbSymbolTable
 70
1
100
AcDbDimStyleTable
 71
0
  0
DIMSTYLE
105
21A
100
AcDbSymbolTableRecord
100
AcDbDimStyleTableRecord
  2
STANDARD
 70
0
  3

  4

 40
1.0
 41
3.0
 42
0.0625
 43
0.38
 44
0.18
 45
0.0
 46
0.0
 47
0.01
 48
0.01
140
3.0
141
0.09
142
0.0
143
25.4
144
1.0
145
0.0
146
1.0
147
0.09
 71
1.0
 72
0.0
 73
0
 74
0
 75
0
 76
0
 77
1
 78
8
170
0
171
2
172
0
173
0
174
0
175
0
176
0
177
0
178
0
270
2
271
2
272
2
273
2
274
2
275
0
280
0
281
0
282
0
283
1
284
8
285
0
286
0
287
3
288
0
340
11
341
216
342
216
343
216
344
216
  0
DIMSTYLE
105
21B
100
AcDbSymbolTableRecord
100
AcDbDimStyleTableRecord
  2
DIMSTYLE_1
 70
0
  3

  4

 40
1.0
 41
3.0
 42
0.0625
 43
0.38
 44
0.18
 45
0.0
 46
0.0
 47
0.0
 48
0.0
140
3.0
141
0.09
142
0.0
143
25.4
144
1.0
145
0.0
146
1.0
147
0.09
 71
0.0
 72
0.0
 73
0
 74
0
 75
0
 76
0
 77
1
 78
8
170
0
171
2
172
0
173
0
174
0
175
0
176
0
177
0
178
0
270
2
271
1
272
1
273
2
274
2
275
0
280
0
281
0
282
0
283
1
284
8
285
0
286
0
287
3
288
0
340
11
341
216
342
216
343
216
344
216
  0
ENDTAB
  0
ENDSEC
  0
SECTION
  2
BLOCKS
  0
BLOCK
  5
20
100
AcDbEntity
  8
0
100
AcDbBlockBegin
  2
*Model_Space
 70
0
 10
0.0
 20
0.0
 30
0.0
  3
*Model_Space
  1

  0
ENDBLK
  5
21
100
AcDbEntity
  8
0
100
AcDbBlockEnd
  0
BLOCK
  5
1C
100
AcDbEntity
  8
0
100
AcDbBlockBegin
  2
*Paper_Space
 70
0
 10
0.0
 20
0.0
 30
0.0
  3
*Paper_Space
  1

  0
ENDBLK
  5
1D
100
AcDbEntity
  8
0
100
AcDbBlockEnd
  0
BLOCK
  5
21C
100
AcDbEntity
  8
0
100
AcDbBlockBegin
  2
_FILLED
 70
64
 10
0.0
 20
0.0
  3
_FILLED
  1

  0
SOLID
  5
21D
100
AcDbEntity
  8
0
  6
BYBLOCK
 62
0
100
AcDbTrace
 10
0.0
 20
0.0
 11
-1.0
 21
0.3166666667
 12
-1.0
 22
-0.3166666667
 13
-1.0
 23
-0.3166666667
  0
ENDBLK
  5
21E
100
AcDbEntity
  8
0
  6
BYBLOCK
 62
0
100
AcDbBlockEnd
  0
BLOCK
  5
21F
100
AcDbEntity
  8
0
100
AcDbBlockBegin
 62
7
  6
CONTINUOUS
  2
*D0
 70
65
 10
0.0
 20
0.0
  3
*D0
  1

  0
LINE
  5
220
100
AcDbEntity
  8
0
100
AcDbLine
 62
7
  6
CONTINUOUS
 10
-11.0374076812
 20
22.4305780232
 11
-11.0374076812
 21
36.8933816869
  0
LINE
  5
221
100
AcDbEntity
  8
0
100
AcDbLine
 62
7
  6
CONTINUOUS
 10
11.0374076812
 20
22.1124424466
 11
11.0374076812
 21
36.8933816869
  0
LINE
  5
222
100
AcDbEntity
  8
0
100
AcDbLine
 62
7
  6
CONTINUOUS
 10
-11.0374076812
 20
35.3933816869
 11
-0.0
 21
35.3933816869
  0
LINE
  5
223
100
AcDbEntity
  8
0
100
AcDbLine
 62
7
  6
CONTINUOUS
 10
11.0374076812
 20
35.3933816869
 11
-0.0
 21
35.3933816869
  0
INSERT
  5
224
100
AcDbEntity
  8
0
100
AcDbBlockReference
 62
7
  6
CONTINUOUS
  2
_FILLED
 10
-11.0374076812
 20
35.3933816869
 41
3.0
 42
3.0
 43
3.0
 50
180.0
  0
INSERT
  5
225
100
AcDbEntity
  8
0
100
AcDbBlockReference
 62
7
  6
CONTINUOUS
  2
_FILLED
 10
11.0374076812
 20
35.3933816869
 41
3.0
 42
3.0
 43
3.0
  0
ENDBLK
  5
226
100
AcDbEntity
  8
0
  6
BYBLOCK
 62
0
100
AcDbBlockEnd
  0
BLOCK
  5
227
100
AcDbEntity
  8
0
100
AcDbBlockBegin
 62
7
  6
CONTINUOUS
  2
*D1
 70
65
 10
0.0
 20
0.0
  3
*D1
  1

  0
LINE
  5
228
100
AcDbEntity
  8
0
100
AcDbLine
 62
7
  6
CONTINUOUS
 10
11.0380929139
 20
22.1117572139
 11
25.3553195672
 21
22.1117572139
  0
LINE
  5
229
100
AcDbEntity
  8
0
100
AcDbLine
 62
7
  6
CONTINUOUS
 10
11.0380929139
 20
-22.1117572139
 11
25.3553195672
 21
-22.1117572139
  0
LINE
  5
22A
100
AcDbEntity
  8
0
100
AcDbLine
 62
7
  6
CONTINUOUS
 10
23.8553195672
 20
22.1117572139
 11
23.8553195672
 21
-0.0
  0
LINE
  5
22B
100
AcDbEntity
  8
0
100
AcDbLine
 62
7
  6
CONTINUOUS
 10
23.8553195672
 20
-22.1117572139
 11
23.8553195672
 21
-0.0
  0
INSERT
  5
22C
100
AcDbEntity
  8
0
100
AcDbBlockReference
 62
7
  6
CONTINUOUS
  2
_FILLED
 10
23.8553195672
 20
22.1117572139
 41
3.0
 42
3.0
 43
3.0
 50
90.0
  0
INSERT
  5
22D
100
AcDbEntity
  8
0
100
AcDbBlockReference
 62
7
  6
CONTINUOUS
  2
_FILLED
 10
23.8553195672
 20
-22.1117572139
 41
3.0
 42
3.0
 43
3.0
 50
270.0
  0
ENDBLK
  5
22E
100
AcDbEntity
  8
0
  6
BYBLOCK
 62
0
100
AcDbBlockEnd
  0
BLOCK
  5
22F
100
AcDbEntity
  8
0
100
AcDbBlockBegin
 62
7
  6
CONTINUOUS
  2
*D2
 70
65
 10
0.0
 20
0.0
  3
*D2
  1

  0
LINE
  5
230
100
AcDbEntity
  8
0
100
AcDbLine
 62
7
  6
CONTINUOUS
 10
-34.0102082444
 20
13.7689805518
 11
-34.0102082444
 21
36.8933816869
  0
LINE
  5
231
100
AcDbEntity
  8
0
100
AcDbLine
 62
7
  6
CONTINUOUS
 10
-38.6902258097
 20
4.5000000001
 11
-38.6902258097
 21
36.8933816869
  0
LINE
  5
232
100
AcDbEntity
  8
0
100
AcDbLine
 62
7
  6
CONTINUOUS
 10
-34.0102082444
 20
35.3933816869
 11
-30.0102082444
 21
35.3933816869
  0
LINE
  5
233
100
AcDbEntity
  8
0
100
AcDbLine
 62
7
  6
CONTINUOUS
 10
-30.0102082444
 20
35.3933816869
 11
-36.3502170271
 21
35.3933816869
  0
LINE
  5
234
100
AcDbEntity
  8
0
100
AcDbLine
 62
7
  6
CONTINUOUS
 10
-38.6902258097
 20
35.3933816869
 11
-47.6588069637
 21
35.3933816869
  0
LINE
  5
235
100
AcDbEntity
  8
0
100
AcDbLine
 62
7
  6
CONTINUOUS
 10
-47.6588069637
 20
35.3933816869
 11
-36.3502170271
 21
35.3933816869
  0
INSERT
  5
236
100
AcDbEntity
  8
0
100
AcDbBlockReference
 62
7
  6
CONTINUOUS
  2
_FILLED
 10
-34.0102082444
 20
35.3933816869
 41
3.0
 42
3.0
 43
3.0
 50
180.0
  0
INSERT
  5
237
100
AcDbEntity
  8
0
100
AcDbBlockReference
 62
7
  6
CONTINUOUS
  2
_FILLED
 10
-38.6902258097
 20
35.3933816869
 41
3.0
 42
3.0
 43
3.0
  0
ENDBLK
  5
238
100
AcDbEntity
  8
0
  6
BYBLOCK
 62
0
100
AcDbBlockEnd
  0
ENDSEC
  0
SECTION
  2
ENTITIES
  0
DIMENSION
  5
239
100
AcDbEntity
  8
0
100
AcDbDimension
 62
7
  6
CONTINUOUS
  2
*D0
 10
11.0374076812
 20
35.3933816869
 11
-4.0714285714
 21
36.1433816869
 70
160
 71
2
 42
22.0748153625
  3
DIMSTYLE_1
100
AcDbAlignedDimension
 13
-11.0374076812
 23
22.4305780232
 14
11.0374076812
 24
22.1124424466
100
AcDbRotatedDimension
  0
DIMENSION
  5
23A
100
AcDbEntity
  8
0
100
AcDbDimension
 62
7
  6
CONTINUOUS
  2
*D1
 10
23.8553195672
 20
-22.1117572139
 11
23.1053195672
 21
-4.3928571429
 70
160
 71
2
 42
44.2235144279
  3
DIMSTYLE_1
100
AcDbAlignedDimension
 13
11.0380929139
 23
22.1117572139
 14
11.0380929139
 24
-22.1117572139
 50
270.0
100
AcDbRotatedDimension
  0
DIMENSION
  5
23B
100
AcDbEntity
  8
0
100
AcDbDimension
 62
7
  6
CONTINUOUS
  2
*D2
 10
-38.6902258097
 20
35.3933816869
 11
-47.6588069637
 21
36.1433816869
 70
160
 71
3
 42
4.6800175652
  3
DIMSTYLE_1
100
AcDbAlignedDimension
 13
-34.0102082444
 23
13.7689805518
 14
-38.6902258097
 24
4.5000000001
 50
180.0
100
AcDbRotatedDimension
  0
LWPOLYLINE
  5
23C
100
AcDbEntity
  8
0
100
AcDbPolyline
 62
7
  6
CONTINUOUS
 90
3
 70
0
 43
0.3500000006
 10
2.3571427875
 20
38.2862390442
 10
3.2142856836
 20
39.1433815155
 10
3.2142856836
 20
36.1433806
  0
LWPOLYLINE
  5
23D
100
AcDbEntity
  8
RACCORDO
100
AcDbPolyline
 62
253
  6
CONTINUOUS
 90
16
 70
0
 10
10.4516663102
 20
-22.0253306103
 10
10.5037690666
 20
-22.0224620551
 10
10.5553028853
 20
-22.0141731476
 10
10.6057051072
 20
-22.0005544084
 10
10.6544254459
 20
-21.9817545437
 10
10.7009319522
 20
-21.9579788371
 10
10.7447168289
 20
-21.9294869224
 10
10.7853020361
 20
-21.8965899146
 10
10.8222444888
 20
-21.8596470098
 10
10.8551408595
 20
-21.8190615926
 10
10.8836320105
 20
-21.77527681
 10
10.907406916
 20
-21.7287707174
 10
10.9262060426
 20
-21.6800510715
 10
10.9398241783
 20
-21.6296497963
 10
10.9481126754
 20
-21.5781171775
 10
10.9509810776
 20
-21.5260158429
  0
LWPOLYLINE
  5
23E
100
AcDbEntity
  8
RACCORDO
100
AcDbPolyline
 62
253
  6
CONTINUOUS
 90
14
 70
0
 10
10.5467846174
 20
-20.8766973698
 10
10.5927250858
 20
-20.8759631133
 10
10.6370256354
 20
-20.8750463295
 10
10.6792735144
 20
-20.8739555604
 10
10.7190750957
 20
-20.8727009687
 10
10.7560595448
 20
-20.8712942435
 10
10.7898822745
 20
-20.8697484914
 10
10.8202281557
 20
-20.8680781143
 10
10.8468144532
 20
-20.8662986753
 10
10.8693934603
 20
-20.8644267535
 10
10.8877548066
 20
-20.8624797898
 10
10.9017274179
 20
-20.8604759241
 10
10.9111811102
 20
-20.8584338268
 10
10.9160278026
 20
-20.8563725241
  0
LINE
  5
23F
100
AcDbEntity
  8
RACCORDO
100
AcDbLine
 62
253
  6
CONTINUOUS
 10
10.45170734
 20
-20.8775927014
 11
10.5467846174
 21
-20.8766973698
  0
LINE
  5
240
100
AcDbEntity
  8
RACCORDO
100
AcDbLine
 62
253
  6
CONTINUOUS
 10
-10.4516663112
 20
-22.0253306113
 11
-7.0709563508
 21
-22.0147968665
  0
LINE
  5
241
100
AcDbEntity
  8
RACCORDO
100
AcDbLine
 62
253
  6
CONTINUOUS
 10
-7.0709563508
 20
-22.0147968665
 11
-3.6871602833
 21
-22.0083287978
  0
LINE
  5
242
100
AcDbEntity
  8
RACCORDO
100
AcDbLine
 62
253
  6
CONTINUOUS
 10
-10.4517073418
 20
-20.8775926608
 11
-5.0383196122
 21
-20.8718913483
  0
LINE
  5
243
100
AcDbEntity
  8
RACCORDO
100
AcDbLine
 62
253
  6
CONTINUOUS
 10
-3.6871602833
 20
-22.0083287978
 11
-0.3017398533
 21
-22.0059300251
  0
LINE
  5
244
100
AcDbEntity
  8
RACCORDO
100
AcDbLine
 62
7
  6
CONTINUOUS
 10
-10.5380929139
 20
-22.1117572139
 11
10.5380929139
 21
-22.1117572139
  0
LINE
  5
245
100
AcDbEntity
  8
RACCORDO
100
AcDbLine
 62
253
  6
CONTINUOUS
 10
-5.0383196122
 20
-20.8718913483
 11
0.3802736877
 21
-20.8701786604
  0
LINE
  5
246
100
AcDbEntity
  8
RACCORDO
100
AcDbLine
 62
253
  6
CONTINUOUS
 10
0.3802736877
 20
-20.8701786604
 11
5.1443072636
 21
-20.8719616466
  0
LINE
  5
247
100
AcDbEntity
  8
RACCORDO
100
AcDbLine
 62
253
  6
CONTINUOUS
 10
-0.3017398533
 20
-22.0059300251
 11
3.0778248258
 21
-22.0075931727
  0
LINE
  5
248
100
AcDbEntity
  8
RACCORDO
100
AcDbLine
 62
253
  6
CONTINUOUS
 10
5.1443072636
 20
-20.8719616466
 11
10.4517073401
 21
-20.877592659
  0
LINE
  5
249
100
AcDbEntity
  8
RACCORDO
100
AcDbLine
 62
253
  6
CONTINUOUS
 10
3.0778248258
 20
-22.0075931727
 11
5.8412638358
 21
-22.0119754398
  0
LINE
  5
24A
100
AcDbEntity
  8
RACCORDO
100
AcDbLine
 62
253
  6
CONTINUOUS
 10
5.8412638358
 20
-22.0119754398
 11
8.8290977026
 21
-22.0197905108
  0
LINE
  5
24B
100
AcDbEntity
  8
RACCORDO
100
AcDbLine
 62
253
  6
CONTINUOUS
 10
8.8290977026
 20
-22.0197905108
 11
10.4516663102
 21
-22.0253306103
  0
LWPOLYLINE
  5
24C
100
AcDbEntity
  8
RACCORDO
100
AcDbPolyline
 62
253
  6
CONTINUOUS
 90
15
 70
0
 10
-10.4517064338
 20
-20.8775921467
 10
-10.5467828481
 20
-20.8766968422
 10
-10.5927229449
 20
-20.8759626079
 10
-10.637023179
 20
-20.875045852
 10
-10.6792708092
 20
-20.8739551156
 10
-10.7190722186
 20
-20.8727005609
 10
-10.7560565814
 20
-20.8712938762
 10
-10.7898793179
 20
-20.8697481676
 10
-10.820225305
 20
-20.8680778363
 10
-10.8468118121
 20
-20.8662984446
 10
-10.8693911354
 20
-20.864426571
 10
-10.8877529054
 20
-20.8624796554
 10
-10.9017260474
 20
-20.8604758371
 10
-10.911180375
 20
-20.8584337854
 10
-10.9160278031
 20
-20.856372526
  0
LWPOLYLINE
  5
24D
100
AcDbEntity
  8
RACCORDO
100
AcDbPolyline
 62
253
  6
CONTINUOUS
 90
16
 70
0
 10
-10.4516663112
 20
-22.0253306113
 10
-10.5037684339
 20
-22.0224621246
 10
-10.5553017021
 20
-22.0141734038
 10
-10.6057034721
 20
-22.0005549456
 10
-10.6544234538
 20
-21.9817554372
 10
-10.7009297193
 20
-21.957980133
 10
-10.74471451
 20
-21.9294886134
 10
-10.7852997805
 20
-21.8965919507
 10
-10.8222424182
 20
-21.859649313
 10
-10.8551390808
 20
-21.8190640424
 10
-10.8836306004
 20
-21.7752792517
 10
-10.9074059045
 20
-21.7287729862
 10
-10.9262054128
 20
-21.6800530045
 10
-10.939823871
 20
-21.6296512346
 10
-10.9481125919
 20
-21.5781179665
 10
-10.9509810786
 20
-21.5260158439
  0
LINE
  5
24E
100
AcDbEntity
  8
RACCORDO
100
AcDbLine
 62
253
  6
CONTINUOUS
 10
-10.9198842104
 20
21.1394682369
 11
-10.9178986357
 21
21.048481899
  0
LINE
  5
24F
100
AcDbEntity
  8
RACCORDO
100
AcDbLine
 62
253
  6
CONTINUOUS
 10
-10.9178986357
 20
21.048481899
 11
-10.916608781
 21
20.9538684136
  0
LINE
  5
250
100
AcDbEntity
  8
RACCORDO
100
AcDbLine
 62
253
  6
CONTINUOUS
 10
-10.916608781
 20
20.9538684136
 11
-10.9160278032
 21
20.856372526
  0
LWPOLYLINE
  5
251
100
AcDbEntity
  8
RACCORDO
100
AcDbPolyline
 62
253
  6
CONTINUOUS
 90
9
 70
0
 10
-10.9160278032
 20
20.856372526
 10
-10.9067976127
 20
16.2235174718
 10
-10.8998749702
 20
11.5897149038
 10
-10.8952598757
 20
6.9549648218
 10
-10.8929523297
 20
2.3186353394
 10
-10.8929523316
 20
-2.3186416569
 10
-10.89525988
 20
-6.9549705075
 10
-10.8998749746
 20
-11.589719326
 10
-10.9067976156
 20
-16.2235199988
  0
LINE
  5
252
100
AcDbEntity
  8
RACCORDO
100
AcDbLine
 62
253
  6
CONTINUOUS
 10
-10.4421594243
 20
11.6020450577
 11
-10.4380674491
 21
2.3208472824
  0
LINE
  5
253
100
AcDbEntity
  8
RACCORDO
100
AcDbLine
 62
7
  6
CONTINUOUS
 10
-11.0374076812
 20
21.6124424466
 11
-11.0374076812
 21
-21.6124424466
  0
LINE
  5
254
100
AcDbEntity
  8
RACCORDO
100
AcDbLine
 62
253
  6
CONTINUOUS
 10
-10.4380674491
 20
2.3208472824
 11
-10.4394314443
 21
-6.9620306059
  0
LINE
  5
255
100
AcDbEntity
  8
RACCORDO
100
AcDbLine
 62
253
  6
CONTINUOUS
 10
-10.4394314443
 20
-6.9620306059
 11
-10.4462513957
 21
-16.2407094179
  0
LINE
  5
256
100
AcDbEntity
  8
RACCORDO
100
AcDbLine
 62
253
  6
CONTINUOUS
 10
-10.4462513957
 20
-16.2407094179
 11
-10.4512042609
 21
-21.8942417473
  0
LINE
  5
257
100
AcDbEntity
  8
RACCORDO
100
AcDbLine
 62
253
  6
CONTINUOUS
 10
-10.4515204152
 20
22.0179295951
 11
-10.4421594243
 21
11.6020450577
  0
LINE
  5
258
100
AcDbEntity
  8
RACCORDO
100
AcDbLine
 62
253
  6
CONTINUOUS
 10
-10.9067976156
 20
-16.2235199988
 11
-10.9162301691
 21
-20.9055043316
  0
LWPOLYLINE
  5
259
100
AcDbEntity
  8
RACCORDO
100
AcDbPolyline
 62
253
  6
CONTINUOUS
 90
3
 70
0
 10
-10.4512042609
 20
-21.8942417473
 10
-10.4515203381
 20
-22.0179297525
 10
-10.4516663112
 20
-22.0253306113
  0
LINE
  5
25A
100
AcDbEntity
  8
RACCORDO
100
AcDbLine
 62
253
  6
CONTINUOUS
 10
-10.9162301691
 20
-20.9055043316
 11
-10.9171632032
 21
-21.0014233887
  0
LWPOLYLINE
  5
25B
100
AcDbEntity
  8
RACCORDO
100
AcDbPolyline
 62
253
  6
CONTINUOUS
 90
18
 70
0
 10
-10.9171632032
 20
-21.0014233887
 10
-10.9188094204
 20
-21.0947135168
 10
-10.9198835105
 20
-21.1394405895
 10
-10.9211228558
 20
-21.1825971591
 10
-10.9225251322
 20
-21.2242264963
 10
-10.9240701974
 20
-21.2637126991
 10
-10.9257603461
 20
-21.3010267123
 10
-10.9275932837
 20
-21.336197591
 10
-10.9295419835
 20
-21.3686965981
 10
-10.9316081962
 20
-21.3984823398
 10
-10.9337901712
 20
-21.4255962099
 10
-10.936055629
 20
-21.4496336519
 10
-10.9384069907
 20
-21.4705497529
 10
-10.9408418352
 20
-21.4883894257
 10
-10.9433206205
 20
-21.502882853
 10
-10.9458301658
 20
-21.5139400955
 10
-10.9483836518
 20
-21.5216510925
 10
-10.9509810786
 20
-21.5260158439
  0
LINE
  5
25C
100
AcDbEntity
  8
RACCORDO
100
AcDbLine
 62
253
  6
CONTINUOUS
 10
-10.4516663112
 20
22.0253306113
 11
-10.4515204152
 21
22.0179295951
  0
LWPOLYLINE
  5
25D
100
AcDbEntity
  8
0
100
AcDbPolyline
 62
7
  6
CONTINUOUS
 90
3
 70
0
 43
0.3500000006
 10
1.3571429071
 20
36.4290962677
 10
1.2857142735
 20
36.2148117828
 10
1.1428571477
 20
35.9290961151
  0
LINE
  5
25E
100
AcDbEntity
  8
RACCORDO
100
AcDbLine
 62
253
  6
CONTINUOUS
 10
10.4516663102
 20
22.0253306103
 11
10.5380929139
 21
22.1117572139
  0
LINE
  5
25F
100
AcDbEntity
  8
RACCORDO
100
AcDbLine
 62
253
  6
CONTINUOUS
 10
10.5380929139
 20
-22.1117572139
 11
10.4516663102
 21
-22.0253306103
  0
LINE
  5
260
100
AcDbEntity
  8
RACCORDO
100
AcDbLine
 62
253
  6
CONTINUOUS
 10
10.9509810776
 20
21.5260158429
 11
11.0374076812
 21
21.6124424466
  0
LINE
  5
261
100
AcDbEntity
  8
RACCORDO
100
AcDbLine
 62
253
  6
CONTINUOUS
 10
11.0374076812
 20
-21.6124424466
 11
10.9509810776
 21
-21.5260158429
  0
LINE
  5
262
100
AcDbEntity
  8
0
100
AcDbLine
 62
7
  6
CONTINUOUS
 10
-5.1932133907
 20
-0.2084715181
 11
-5.1725325335
 21
-0.4182518299
  0
LWPOLYLINE
  5
263
100
AcDbEntity
  8
0
100
AcDbPolyline
 62
7
  6
CONTINUOUS
 90
3
 70
0
 10
-5.1939408861
 20
-0.1982847011
 10
-5.1746463566
 20
-0.4036941316
 10
-5.1379139199
 20
-0.6272948668
  0
LINE
  5
264
100
AcDbEntity
  8
0
100
AcDbLine
 62
7
  6
CONTINUOUS
 10
-5.1999923339
 20
0.0070042855
 11
-5.1932133907
 21
-0.2084715181
  0
LINE
  5
265
100
AcDbEntity
  8
0
100
AcDbLine
 62
7
  6
CONTINUOUS
 10
-5.1930853088
 20
0.2121069179
 11
-5.2000001362
 21
0.0000003003
  0
LINE
  5
266
100
AcDbEntity
  8
0
100
AcDbLine
 62
7
  6
CONTINUOUS
 10
-5.1729351898
 20
0.4170889115
 11
-5.193212698
 21
0.208479151
  0
LINE
  5
267
100
AcDbEntity
  8
0
100
AcDbLine
 62
7
  6
CONTINUOUS
 10
-5.1379457586
 20
0.6271366495
 11
-5.1725447125
 21
0.4181703055
  0
LINE
  5
268
100
AcDbEntity
  8
0
100
AcDbLine
 62
7
  6
CONTINUOUS
 10
-5.0898437009
 20
0.8323655164
 11
-5.1391334158
 21
0.6211649364
  0
LINE
  5
269
100
AcDbEntity
  8
0
100
AcDbLine
 62
7
  6
CONTINUOUS
 10
-5.0287785157
 20
1.0328208437
 11
-5.0911732137
 21
0.8257218795
  0
LWPOLYLINE
  5
26A
100
AcDbEntity
  8
0
100
AcDbPolyline
 62
7
  6
CONTINUOUS
 90
3
 70
0
 10
-4.8685473278
 20
1.4181786236
 10
-4.95540573
 20
1.2271710356
 10
-5.029560545
 20
1.0293726621
  0
LINE
  5
26B
100
AcDbEntity
  8
0
100
AcDbLine
 62
7
  6
CONTINUOUS
 10
-4.7696605261
 20
1.6026133527
 11
-4.8684742058
 21
1.4184116591
  0
LINE
  5
26C
100
AcDbEntity
  8
0
100
AcDbLine
 62
7
  6
CONTINUOUS
 10
-4.658791974
 20
1.7805051135
 11
-4.7691452907
 21
1.6033337135
  0
LINE
  5
26D
100
AcDbEntity
  8
0
100
AcDbLine
 62
7
  6
CONTINUOUS
 10
-4.5372557539
 20
1.949981756
 11
-4.6590234562
 21
1.7801591504
  0
LWPOLYLINE
  5
26E
100
AcDbEntity
  8
0
100
AcDbPolyline
 62
7
  6
CONTINUOUS
 90
5
 70
0
 10
-3.9496239836
 20
2.5373763096
 10
-4.1115297286
 20
2.4043639472
 10
-4.2636095231
 20
2.2619861193
 10
-4.4055376001
 20
2.11039739
 10
-4.5376412379
 20
1.9494430869
  0
LINE
  5
26F
100
AcDbEntity
  8
0
100
AcDbLine
 62
7
  6
CONTINUOUS
 10
-3.778604191
 20
2.6601126929
 11
-3.9488116762
 21
2.5379945393
  0
LINE
  5
270
100
AcDbEntity
  8
0
100
AcDbLine
 62
7
  6
CONTINUOUS
 10
-3.6008982543
 20
2.7708085269
 11
-3.7800005985
 21
2.6591774913
  0
LWPOLYLINE
  5
271
100
AcDbEntity
  8
0
100
AcDbPolyline
 62
7
  6
CONTINUOUS
 90
3
 70
0
 10
-3.2269291407
 20
2.9554690884
 10
-3.4174884171
 20
2.8688399618
 10
-3.6026037964
 20
2.7696142257
  0
LWPOLYLINE
  5
272
100
AcDbEntity
  8
0
100
AcDbPolyline
 62
7
  6
CONTINUOUS
 90
52
 70
0
 10
2.0001011033
 20
-3.9912503495
 10
2.2484597123
 20
-3.9833923201
 10
2.4940658905
 20
-3.9605261035
 10
2.7369190522
 20
-3.9226516214
 10
2.9780454557
 20
-3.8694481485
 10
3.2164177729
 20
-3.8012361901
 10
3.448955425
 20
-3.7189774841
 10
3.6753024067
 20
-3.6226417734
 10
3.8958147917
 20
-3.5122590058
 10
4.1084807788
 20
-3.3888812226
 10
4.3135583478
 20
-3.2521153981
 10
4.5107905321
 20
-3.1023542466
 10
4.6973937771
 20
-2.9418284598
 10
4.8728542299
 20
-2.7707878601
 10
5.0376878512
 20
-2.5889824241
 10
5.1906563141
 20
-2.3978931412
 10
5.3319685379
 20
-2.1969548227
 10
5.4614180129
 20
-1.9867325823
 10
5.5771435116
 20
-1.770402947
 10
5.6787146845
 20
-1.5484790853
 10
5.7665642775
 20
-1.3204479407
 10
5.8401257167
 20
-1.0879467789
 10
5.8994252516
 20
-0.8503086646
 10
5.9444383197
 20
-0.6082007534
 10
5.9745218838
 20
-0.3652614981
 10
5.9894618212
 20
-0.1221502897
 10
5.9894728427
 20
0.1217919575
 10
5.9745548117
 20
0.3649044843
 10
5.9444933912
 20
0.6078455684
 10
5.8995023309
 20
0.8499566267
 10
5.8402232756
 20
1.0876016306
 10
5.7666812418
 20
1.3201139962
 10
5.6788495264
 20
1.5481600872
 10
5.5772919491
 20
1.7701033459
 10
5.4615758653
 20
1.9864574341
 10
5.3321315227
 20
2.196708578
 10
5.1908170903
 20
2.3976791433
 10
5.0378359915
 20
2.5888063865
 10
4.8729823913
 20
2.770653126
 10
4.6975008131
 20
2.9417301545
 10
4.5108786485
 20
3.1022838625
 10
4.3136263976
 20
3.2520680605
 10
4.108523754
 20
3.3888547378
 10
3.8958210002
 20
3.512253697
 10
3.6752668387
 20
3.6226554469
 10
3.4488892604
 20
3.7190030762
 10
3.2163382384
 20
3.8012619432
 10
2.9779637339
 20
3.869466999
 10
2.7368443815
 20
3.9226657179
 10
2.4940068611
 20
3.9605406654
 10
2.2484255637
 20
3.9834094959
 10
2.0001010756
 20
3.9912722879
  0
LINE
  5
273
100
AcDbEntity
  8
0
100
AcDbLine
 62
7
  6
CONTINUOUS
 10
2.0000987345
 20
-3.9999780605
 11
-2.0000987132
 21
-3.9999780605
  0
LINE
  5
274
100
AcDbEntity
  8
0
100
AcDbLine
 62
7
  6
CONTINUOUS
 10
-2.0001010815
 20
-3.9912503495
 11
2.0001011033
 21
-3.9912503495
  0
LWPOLYLINE
  5
275
100
AcDbEntity
  8
0
100
AcDbPolyline
 62
7
  6
CONTINUOUS
 90
52
 70
0
 10
-2.0000987132
 20
-3.9999780605
 10
-2.2489714464
 20
-3.9921078139
 10
-2.4950936002
 20
-3.9691958287
 10
-2.7384647573
 20
-3.9312421916
 10
-2.9801131722
 20
-3.8779278376
 10
-3.2190098077
 20
-3.8095719931
 10
-3.4520686473
 20
-3.7271321975
 10
-3.6789383326
 20
-3.6305747817
 10
-3.8999703847
 20
-3.5199336009
 10
-4.1131336917
 20
-3.3962675
 10
-4.3186802727
 20
-3.2591852392
 10
-4.516359006
 20
-3.1090782216
 10
-4.7033846602
 20
-2.9481792541
 10
-4.8792450803
 20
-2.7767356876
 10
-5.0444542088
 20
-2.5945002778
 10
-5.1977664193
 20
-2.4029639178
 10
-5.3393880826
 20
-2.2015627357
 10
-5.4691148029
 20
-1.9908606224
 10
-5.5850850525
 20
-1.7740400788
 10
-5.6868680058
 20
-1.5516153524
 10
-5.7748964702
 20
-1.3230720975
 10
-5.8486044305
 20
-1.0900498852
 10
-5.9080186024
 20
-0.8518797877
 10
-5.9531136229
 20
-0.6092305452
 10
-5.9832452184
 20
-0.365748203
 10
-5.9981988826
 20
-0.1220924148
 10
-5.9981896222
 20
0.1223967244
 10
-5.9832172106
 20
0.3660525212
 10
-5.953066212
 20
0.6095357946
 10
-5.9079515613
 20
0.8521859768
 10
-5.8485183659
 20
1.0903542805
 10
-5.7747911467
 20
1.3233719272
 10
-5.6867440296
 20
1.5519078831
 10
-5.5849463883
 20
1.774319949
 10
-5.4689655104
 20
1.9911210704
 10
-5.339232127
 20
2.2017984
 10
-5.1976108399
 20
2.4031710095
 10
-5.0443088718
 20
2.5946729263
 10
-4.8791170267
 20
2.776870104
 10
-4.7032755266
 20
2.9482794668
 10
-4.5162673741
 20
3.1091515731
 10
-4.3186077794
 20
3.2592357581
 10
-4.1130857344
 20
3.3962970905
 10
-3.8999590641
 20
3.5199417382
 10
-3.6789690476
 20
3.6305633702
 10
-3.4521304483
 20
3.7271083035
 10
-3.21908576
 20
3.8095466229
 10
-2.9801923234
 20
3.8779080574
 10
-2.7385377553
 20
3.9312284094
 10
-2.4951516261
 20
3.9691862329
 10
-2.249005147
 20
3.9921028122
 10
-2.0000987345
 20
3.9999780605
  0
LINE
  5
276
100
AcDbEntity
  8
0
100
AcDbLine
 62
7
  6
CONTINUOUS
 10
-3.4196259782
 20
-2.8677689717
 11
-3.2261513966
 21
-2.9557922508
  0
LINE
  5
277
100
AcDbEntity
  8
0
100
AcDbLine
 62
7
  6
CONTINUOUS
 10
-3.6054072375
 20
-2.7679829668
 11
-3.4165812152
 21
-2.8694470386
  0
LINE
  5
278
100
AcDbEntity
  8
0
100
AcDbLine
 62
7
  6
CONTINUOUS
 10
-3.7834209255
 20
-2.6568818746
 11
-3.6009163438
 21
-2.7707995672
  0
LINE
  5
279
100
AcDbEntity
  8
0
100
AcDbLine
 62
7
  6
CONTINUOUS
 10
-3.9536021017
 20
-2.5343041108
 11
-3.778602419
 21
-2.6601135218
  0
LINE
  5
27A
100
AcDbEntity
  8
0
100
AcDbLine
 62
7
  6
CONTINUOUS
 10
-4.1160166553
 20
-2.400411075
 11
-3.9488089329
 21
-2.5379919144
  0
LINE
  5
27B
100
AcDbEntity
  8
0
100
AcDbLine
 62
7
  6
CONTINUOUS
 10
-4.2685011865
 20
-2.2570833514
 11
-4.1105100835
 21
-2.4053033084
  0
LINE
  5
27C
100
AcDbEntity
  8
0
100
AcDbLine
 62
7
  6
CONTINUOUS
 10
-4.4107226046
 20
-2.1044671269
 11
-4.262745456
 21
-2.2628487035
  0
LINE
  5
27D
100
AcDbEntity
  8
0
100
AcDbLine
 62
7
  6
CONTINUOUS
 10
-4.543015536
 20
-1.9424161058
 11
-4.4050547046
 21
-2.1110187234
  0
LINE
  5
27E
100
AcDbEntity
  8
0
100
AcDbLine
 62
7
  6
CONTINUOUS
 10
-4.6642184435
 20
-1.7723721938
 11
-4.5372234508
 21
-1.9500314145
  0
LINE
  5
27F
100
AcDbEntity
  8
0
100
AcDbLine
 62
7
  6
CONTINUOUS
 10
-4.7744855902
 20
-1.5940345844
 11
-4.6589721556
 21
-1.7802389833
  0
LINE
  5
280
100
AcDbEntity
  8
0
100
AcDbLine
 62
7
  6
CONTINUOUS
 10
-4.8736643592
 20
-1.4077040662
 11
-4.7696151453
 21
-1.6026840107
  0
LWPOLYLINE
  5
281
100
AcDbEntity
  8
0
100
AcDbPolyline
 62
7
  6
CONTINUOUS
 90
3
 70
0
 10
-5.089802054
 20
-0.8325236035
 10
-5.0287607721
 20
-1.0328814126
 10
-4.9549392422
 20
-1.2282932971
  0
LWPOLYLINE
  5
282
100
AcDbEntity
  8
0
100
AcDbPolyline
 62
7
  6
CONTINUOUS
 90
4
 70
0
 10
-5.0945156269
 20
-0.8131936545
 10
-5.0336786289
 20
-1.0172835538
 10
-4.9601330146
 20
-1.2157249886
 10
-4.8684536655
 20
-1.4184429147
  0
LINE
  5
283
100
AcDbEntity
  8
0
100
AcDbLine
 62
7
  6
CONTINUOUS
 10
-5.1416632374
 20
-0.6082412366
 11
-5.089802054
 21
-0.8325236035
  0
LINE
  5
284
100
AcDbEntity
  8
0
100
AcDbLine
 62
253
  6
CONTINUOUS
 10
-2.0000987132
 20
-3.9999780605
 11
-2.0001010815
 21
-3.9912503495
  0
LINE
  5
285
100
AcDbEntity
  8
0
100
AcDbLine
 62
253
  6
CONTINUOUS
 10
-2.0000987285
 20
3.9999999959
 11
-2.0001010973
 21
3.991272285
  0
LWPOLYLINE
  5
286
100
AcDbEntity
  8
0
100
AcDbPolyline
 62
7
  6
CONTINUOUS
 90
3
 70
0
 10
-2.8294589828
 20
3.0905784382
 10
-3.0301274656
 20
3.0296175422
 10
-3.2260796435
 20
2.9558212972
  0
LWPOLYLINE
  5
287
100
AcDbEntity
  8
0
100
AcDbPolyline
 62
7
  6
CONTINUOUS
 90
3
 70
0
 10
2.6264190521
 20
-3.1380804771
 10
2.8308699532
 20
-3.0901282679
 10
3.0326517504
 20
-3.0286749771
  0
LINE
  5
288
100
AcDbEntity
  8
0
100
AcDbLine
 62
7
  6
CONTINUOUS
 10
2.4181948797
 20
-3.1725672924
 11
2.6251354561
 21
-3.138336741
  0
LINE
  5
289
100
AcDbEntity
  8
0
100
AcDbLine
 62
7
  6
CONTINUOUS
 10
2.2095323352
 20
-3.1931356933
 11
2.4202495434
 21
-3.1722235385
  0
LINE
  5
28A
100
AcDbEntity
  8
0
100
AcDbLine
 62
7
  6
CONTINUOUS
 10
1.9999052455
 20
-3.2000069002
 11
2.2114115013
 21
-3.1928656621
  0
LWPOLYLINE
  5
28B
100
AcDbEntity
  8
0
100
AcDbPolyline
 62
7
  6
CONTINUOUS
 90
2
 70
0
 43
0.3500000006
 10
23.1053206558
 20
-3.3928568802
 10
21.6053201981
 20
-3.3928568802
  0
LINE
  5
28C
100
AcDbEntity
  8
0
100
AcDbLine
 62
7
  6
CONTINUOUS
 10
-1.9999751999
 20
-3.2000069007
 11
1.9999752016
 21
-3.2000069007
  0
LWPOLYLINE
  5
28D
100
AcDbEntity
  8
0
100
AcDbPolyline
 62
7
  6
CONTINUOUS
 90
3
 70
0
 10
-2.4182440966
 20
-3.172561228
 10
-2.209557538
 20
-3.1931343197
 10
-1.9999751938
 20
-3.2000000217
  0
LINE
  5
28E
100
AcDbEntity
  8
0
100
AcDbLine
 62
7
  6
CONTINUOUS
 10
-2.6247859577
 20
-3.1384061754
 11
-2.4188508086
 21
-3.1724909527
  0
LWPOLYLINE
  5
28F
100
AcDbEntity
  8
0
100
AcDbPolyline
 62
7
  6
CONTINUOUS
 90
3
 70
0
 10
-3.0301935562
 20
-3.0295920751
 10
-2.8295388238
 20
-3.0905518252
 10
-2.6252089759
 20
-3.1383218293
  0
LINE
  5
290
100
AcDbEntity
  8
0
100
AcDbLine
 62
7
  6
CONTINUOUS
 10
-3.228437252
 20
-2.9548438131
 11
-3.0316116624
 21
-3.0290223646
  0
LWPOLYLINE
  5
291
100
AcDbEntity
  8
0
100
AcDbPolyline
 62
7
  6
CONTINUOUS
 90
2
 70
0
 43
0.3500000006
 10
23.1053206558
 20
-1.0357139511
 10
21.6053201981
 20
-1.0357139511
  0
LWPOLYLINE
  5
292
100
AcDbEntity
  8
RACCORDO
100
AcDbPolyline
 62
253
  6
CONTINUOUS
 90
16
 70
0
 10
10.9509810776
 20
-21.5260158429
 10
10.9483836508
 20
-21.5216510913
 10
10.9458301647
 20
-21.5139400941
 10
10.9433206194
 20
-21.5028828515
 10
10.9408418341
 20
-21.4883894243
 10
10.9384069896
 20
-21.4705497515
 10
10.9360556279
 20
-21.4496336506
 10
10.9337901701
 20
-21.4255962085
 10
10.9316081951
 20
-21.3984823382
 10
10.9295419823
 20
-21.3686965963
 10
10.9275932826
 20
-21.3361975891
 10
10.925760345
 20
-21.3010267103
 10
10.9240701962
 20
-21.263712697
 10
10.922525131
 20
-21.2242264943
 10
10.9211228547
 20
-21.1825971571
 10
10.9198835093
 20
-21.1394405875
  0
LINE
  5
293
100
AcDbEntity
  8
0
100
AcDbLine
 62
253
  6
CONTINUOUS
 10
2.0000987132
 20
3.9999780634
 11
2.0001010815
 21
3.9912503524
  0
LINE
  5
294
100
AcDbEntity
  8
0
100
AcDbLine
 62
253
  6
CONTINUOUS
 10
2.0000987285
 20
-3.9999999959
 11
2.0001010974
 21
-3.991272285
  0
LWPOLYLINE
  5
295
100
AcDbEntity
  8
RACCORDO
100
AcDbPolyline
 62
253
  6
CONTINUOUS
 90
16
 70
0
 10
-10.9509810786
 20
21.5260158439
 10
-10.9483840825
 20
21.521652508
 10
-10.9458309564
 20
21.5139433142
 10
-10.9433217003
 20
21.5028882624
 10
-10.9408431136
 20
21.4883973324
 10
-10.9384083969
 20
21.4705605444
 10
-10.9360571518
 20
21.4496479593
 10
-10.9337918431
 20
21.4256152786
 10
-10.9316100061
 20
21.3985068009
 10
-10.9295438484
 20
21.3687254826
 10
-10.9275950825
 20
21.3362295532
 10
-10.9257619958
 20
21.3010607831
 10
-10.9240716582
 20
21.2637474397
 10
-10.9225263543
 20
21.2242598903
 10
-10.9211237994
 20
21.1826277675
 10
-10.9198842104
 20
21.1394682369
  0
LINE
  5
296
100
AcDbEntity
  8
0
100
AcDbLine
 62
7
  6
CONTINUOUS
 10
3.9486657622
 20
-2.5381041211
 11
4.1130258122
 21
-2.40305086
  0
LINE
  5
297
100
AcDbEntity
  8
0
100
AcDbLine
 62
7
  6
CONTINUOUS
 10
3.7784611675
 20
-2.6602099445
 11
3.951243301
 21
-2.5361337419
  0
LINE
  5
298
100
AcDbEntity
  8
0
100
AcDbLine
 62
7
  6
CONTINUOUS
 10
3.600782194
 20
-2.7708764239
 11
3.7817320461
 21
-2.6580179136
  0
LINE
  5
299
100
AcDbEntity
  8
0
100
AcDbLine
 62
7
  6
CONTINUOUS
 10
3.4164529001
 20
-2.8695084588
 11
3.604452258
 21
-2.7685515886
  0
LINE
  5
29A
100
AcDbEntity
  8
0
100
AcDbLine
 62
7
  6
CONTINUOUS
 10
3.2260284982
 20
-2.9558423244
 11
3.4194427873
 21
-2.8678867356
  0
LINE
  5
29B
100
AcDbEntity
  8
0
100
AcDbLine
 62
7
  6
CONTINUOUS
 10
3.0300799189
 20
-3.0296313964
 11
3.2289137718
 21
-2.9546449497
  0
LINE
  5
29C
100
AcDbEntity
  8
0
100
AcDbLine
 62
7
  6
CONTINUOUS
 10
-2.6248621352
 20
3.1383920859
 11
-2.8290616138
 21
3.0906023954
  0
LINE
  5
29D
100
AcDbEntity
  8
0
100
AcDbLine
 62
7
  6
CONTINUOUS
 10
-2.4182067966
 20
3.1725635606
 11
-2.6251417507
 21
3.1383363403
  0
LWPOLYLINE
  5
29E
100
AcDbEntity
  8
0
100
AcDbPolyline
 62
7
  6
CONTINUOUS
 90
3
 70
0
 10
-1.9999051248
 20
3.2000069002
 10
-2.2107669844
 20
3.1929472081
 10
-2.4190860961
 20
3.1724089538
  0
LWPOLYLINE
  5
29F
100
AcDbEntity
  8
0
100
AcDbPolyline
 62
7
  6
CONTINUOUS
 90
52
 70
0
 10
-2.0001011033
 20
3.9912503495
 10
-2.2484597482
 20
3.9833922308
 10
-2.4940656995
 20
3.9605260571
 10
-2.7369183715
 20
3.9226517501
 10
-2.9780438873
 20
3.8694486042
 10
-3.216415054
 20
3.8012371048
 10
-3.4489516984
 20
3.7189789313
 10
-3.675297861
 20
3.6226439123
 10
-3.8958095698
 20
3.5122619098
 10
-4.1084752922
 20
3.3888846491
 10
-4.3135530612
 20
3.2521191803
 10
-4.510785857
 20
3.1023581419
 10
-4.6973902336
 20
2.9418316815
 10
-4.8728526481
 20
2.7707892822
 10
-5.0376887514
 20
2.5889812598
 10
-5.1906593956
 20
2.3978890784
 10
-5.3319732549
 20
2.1969476795
 10
-5.461424065
 20
1.9867220464
 10
-5.5771505122
 20
1.7703887891
 10
-5.678722278
 20
1.5484607185
 10
-5.7665720775
 20
1.3204251356
 10
-5.840133159
 20
1.0879204617
 10
-5.8994315439
 20
0.8502801246
 10
-5.9444428979
 20
0.6081709166
 10
-5.9745246905
 20
0.3652313561
 10
-5.9894628395
 20
0.1221210464
 10
-5.989472015
 20
-0.1218193105
 10
-5.9745524662
 20
-0.3649295271
 10
-5.944489984
 20
-0.6078679206
 10
-5.8994981899
 20
-0.8499758684
 10
-5.8402187302
 20
-1.0876177959
 10
-5.7666767262
 20
-1.3201271035
 10
-5.67884537
 20
-1.5481701704
 10
-5.5772881687
 20
-1.7701109399
 10
-5.4615723866
 20
-1.9864633494
 10
-5.3321283626
 20
-2.1967133494
 10
-5.1908142262
 20
-2.3976829797
 10
-5.0378333651
 20
-2.5888094369
 10
-4.87297998
 20
-2.7706555992
 10
-4.6974986626
 20
-2.941732113
 10
-4.510876826
 20
-3.1022853244
 10
-4.3136249489
 20
-3.2520690885
 10
-4.1085227291
 20
-3.3888553822
 10
-3.8958205035
 20
-3.5122539887
 10
-3.6752669204
 20
-3.6226554362
 10
-3.4488898124
 20
-3.719002859
 10
-3.2163391288
 20
-3.8012624668
 10
-2.9779648548
 20
-3.8694683591
 10
-2.7368455378
 20
-3.9226655011
 10
-2.4940078289
 20
-3.9605356216
 10
-2.2484261481
 20
-3.9833972116
 10
-2.0001010815
 20
-3.9912503495
  0
LINE
  5
2A0
100
AcDbEntity
  8
0
100
AcDbLine
 62
7
  6
CONTINUOUS
 10
1.999905192
 20
3.2000069002
 11
-1.9999051248
 21
3.2000069002
  0
LINE
  5
2A1
100
AcDbEntity
  8
0
100
AcDbLine
 62
7
  6
CONTINUOUS
 10
2.0001010756
 20
3.9912722879
 11
-2.0001011033
 21
3.9912503495
  0
LINE
  5
2A2
100
AcDbEntity
  8
0
100
AcDbLine
 62
7
  6
CONTINUOUS
 10
-2.0000987345
 20
3.9999780605
 11
2.0000987072
 21
3.9999999988
  0
LWPOLYLINE
  5
2A3
100
AcDbEntity
  8
0
100
AcDbPolyline
 62
7
  6
CONTINUOUS
 90
52
 70
0
 10
2.0000987072
 20
3.9999999988
 10
2.2489708311
 20
3.9921200994
 10
2.4950925692
 20
3.9692008798
 10
2.7384635046
 20
3.9312424265
 10
2.9801119147
 20
3.8779265141
 10
3.2190087392
 20
3.8095715296
 10
3.4520678922
 20
3.7271324939
 10
3.6789380527
 20
3.6305748801
 10
3.8999707043
 20
3.5199334012
 10
4.1131345535
 20
3.3962669573
 10
4.3186815504
 20
3.2591843373
 10
4.5163606421
 20
3.1090769155
 10
4.7033866225
 20
2.9481774679
 10
4.8792473293
 20
2.7767333767
 10
5.0444567123
 20
2.594497366
 10
5.1977691916
 20
2.4029602038
 10
5.3393911627
 20
2.2015580912
 10
5.4691182052
 20
1.9908548461
 10
5.5850887634
 20
1.7740326255
 10
5.6868721089
 20
1.5516053903
 10
5.774900952
 20
1.3230590814
 10
5.8486089576
 20
1.0900337853
 10
5.9080227334
 20
0.8518605948
 10
5.9531170246
 20
0.6092082294
 10
5.9832475615
 20
0.3657231884
 10
5.9981997116
 20
0.1220650921
 10
5.9981886078
 20
-0.1224259311
 10
5.9832144064
 20
-0.366082634
 10
5.9530616284
 20
-0.6095656393
 10
5.9079452518
 20
-0.8522145756
 10
5.8485108967
 20
-1.0903806915
 10
5.7747833169
 20
-1.3233948272
 10
5.6867364055
 20
-1.5519263301
 10
5.5849393504
 20
-1.774334181
 10
5.4689594049
 20
-1.9911316951
 10
5.3392273344
 20
-2.2018056555
 10
5.1976076588
 20
-2.4031752051
 10
5.0443078419
 20
-2.5946742402
 10
4.8791184467
 20
-2.7768688456
 10
4.7032788894
 20
-2.9482764107
 10
4.5162718751
 20
-3.109147824
 10
4.3186129114
 20
-3.2592320906
 10
4.1130910762
 20
-3.3962937542
 10
3.8999641248
 20
-3.519938917
 10
3.6789734059
 20
-3.6305613136
 10
3.452133977
 20
-3.7271069332
 10
3.2190882992
 20
-3.8095457682
 10
2.980193746
 20
-3.8779076401
 10
2.7385383264
 20
-3.9312283012
 10
2.4951517417
 20
-3.969186289
 10
2.2490050722
 20
-3.9921029043
 10
2.0000987345
 20
-3.9999780605
  0
LWPOLYLINE
  5
2A4
100
AcDbEntity
  8
0
100
AcDbPolyline
 62
7
  6
CONTINUOUS
 90
5
 70
0
 10
2.8293740223
 20
3.0906021109
 10
2.6250752515
 20
3.1383498875
 10
2.418164171
 20
3.172568669
 10
2.2095162864
 20
3.1931349455
 10
1.9999752068
 20
3.1999999999
  0
LINE
  5
2A5
100
AcDbEntity
  8
0
100
AcDbLine
 62
7
  6
CONTINUOUS
 10
3.0316553094
 20
3.0290069473
 11
2.8295052407
 21
3.0904614667
  0
LINE
  5
2A6
100
AcDbEntity
  8
0
100
AcDbLine
 62
7
  6
CONTINUOUS
 10
3.2283765483
 20
2.9548682561
 11
3.0300301733
 21
3.0296507548
  0
LINE
  5
2A7
100
AcDbEntity
  8
0
100
AcDbLine
 62
7
  6
CONTINUOUS
 10
3.4194470055
 20
2.8678574849
 11
3.2259613767
 21
2.9558702354
  0
LINE
  5
2A8
100
AcDbEntity
  8
0
100
AcDbLine
 62
7
  6
CONTINUOUS
 10
3.6050888464
 20
2.7681623437
 11
3.4163792994
 21
2.8695463741
  0
LINE
  5
2A9
100
AcDbEntity
  8
0
100
AcDbLine
 62
7
  6
CONTINUOUS
 10
3.7829428166
 20
2.6572036748
 11
3.6007476544
 21
2.7708960762
  0
LINE
  5
2AA
100
AcDbEntity
  8
0
100
AcDbLine
 62
7
  6
CONTINUOUS
 10
3.9529284037
 20
2.5348339576
 11
3.778440478
 21
2.6602223759
  0
LINE
  5
2AB
100
AcDbEntity
  8
0
100
AcDbLine
 62
7
  6
CONTINUOUS
 10
4.1151270728
 20
2.4012005291
 11
3.9486383865
 21
2.5381277913
  0
LINE
  5
2AC
100
AcDbEntity
  8
0
100
AcDbLine
 62
7
  6
CONTINUOUS
 10
5.1938217216
 20
0.2003975569
 11
5.1725199481
 21
0.4183541728
  0
LINE
  5
2AD
100
AcDbEntity
  8
0
100
AcDbLine
 62
7
  6
CONTINUOUS
 10
5.1999966888
 20
-0.0049075332
 11
5.193203603
 21
0.2086256219
  0
LINE
  5
2AE
100
AcDbEntity
  8
0
100
AcDbLine
 62
7
  6
CONTINUOUS
 10
5.1932082035
 20
-0.2101130179
 11
5.2000002145
 21
0.0001781389
  0
LINE
  5
2AF
100
AcDbEntity
  8
0
100
AcDbLine
 62
7
  6
CONTINUOUS
 10
5.1725471335
 20
-0.4181344815
 11
5.1932266056
 21
-0.2082740297
  0
LINE
  5
2B0
100
AcDbEntity
  8
0
100
AcDbLine
 62
7
  6
CONTINUOUS
 10
5.1379192653
 20
-0.6272699006
 11
5.1731682723
 21
-0.4152286967
  0
LINE
  5
2B1
100
AcDbEntity
  8
0
100
AcDbLine
 62
7
  6
CONTINUOUS
 10
5.0898010589
 20
-0.8325296545
 11
5.139483327
 21
-0.6193953664
  0
LINE
  5
2B2
100
AcDbEntity
  8
0
100
AcDbLine
 62
7
  6
CONTINUOUS
 10
5.0287515839
 20
-1.032901384
 11
5.0916569995
 21
-0.8239501521
  0
LINE
  5
2B3
100
AcDbEntity
  8
0
100
AcDbLine
 62
7
  6
CONTINUOUS
 10
4.9549104195
 20
-1.2283534542
 11
5.0301848476
 21
-1.0275557373
  0
LINE
  5
2B4
100
AcDbEntity
  8
0
100
AcDbLine
 62
7
  6
CONTINUOUS
 10
4.868397785
 20
-1.4185535671
 11
4.9561609715
 21
-1.225341286
  0
LINE
  5
2B5
100
AcDbEntity
  8
0
100
AcDbLine
 62
7
  6
CONTINUOUS
 10
4.7701176066
 20
-1.6016484254
 11
4.8694158948
 21
-1.4164049188
  0
LINE
  5
2B6
100
AcDbEntity
  8
0
100
AcDbLine
 62
7
  6
CONTINUOUS
 10
4.6588873367
 20
-1.7803706147
 11
4.7695414103
 21
-1.6028152908
  0
LINE
  5
2B7
100
AcDbEntity
  8
0
100
AcDbLine
 62
7
  6
CONTINUOUS
 10
4.5371287935
 20
-1.9501557372
 11
4.6598663503
 21
-1.7789065339
  0
LINE
  5
2B8
100
AcDbEntity
  8
0
100
AcDbLine
 62
7
  6
CONTINUOUS
 10
4.4049475039
 20
-2.1111383293
 11
4.5388162314
 21
-1.9479173038
  0
LINE
  5
2B9
100
AcDbEntity
  8
0
100
AcDbLine
 62
7
  6
CONTINUOUS
 10
4.2626233843
 20
-2.2629679325
 11
4.4068115223
 21
-2.108942695
  0
LINE
  5
2BA
100
AcDbEntity
  8
0
100
AcDbLine
 62
7
  6
CONTINUOUS
 10
4.1103734906
 20
-2.4054228642
 11
4.2649878393
 21
-2.2606033359
  0
LINE
  5
2BB
100
AcDbEntity
  8
0
100
AcDbLine
 62
7
  6
CONTINUOUS
 10
4.26742299
 20
2.2581665504
 11
4.1103472158
 21
2.4054512448
  0
LINE
  5
2BC
100
AcDbEntity
  8
0
100
AcDbLine
 62
7
  6
CONTINUOUS
 10
4.4094839562
 20
2.1059007046
 11
4.2625779828
 21
2.2630171255
  0
LINE
  5
2BD
100
AcDbEntity
  8
0
100
AcDbLine
 62
7
  6
CONTINUOUS
 10
4.5416436992
 20
1.9442342003
 11
4.4048880133
 21
2.1112042887
  0
LINE
  5
2BE
100
AcDbEntity
  8
0
100
AcDbLine
 62
7
  6
CONTINUOUS
 10
4.6627855559
 20
1.7745240308
 11
4.5370798642
 21
1.9502101672
  0
LINE
  5
2BF
100
AcDbEntity
  8
0
100
AcDbLine
 62
7
  6
CONTINUOUS
 10
4.7730869502
 20
1.5964696667
 11
4.6588542214
 21
1.7804131188
  0
LINE
  5
2C0
100
AcDbEntity
  8
0
100
AcDbLine
 62
7
  6
CONTINUOUS
 10
4.8723720928
 20
1.4103716179
 11
4.769498939
 21
1.6028951899
  0
LWPOLYLINE
  5
2C1
100
AcDbEntity
  8
0
100
AcDbPolyline
 62
7
  6
CONTINUOUS
 90
3
 70
0
 10
5.0897679299
 20
0.8326475247
 10
5.0286773645
 20
1.0331129701
 10
4.954814377
 20
1.2285899982
  0
LWPOLYLINE
  5
2C2
100
AcDbEntity
  8
0
100
AcDbPolyline
 62
7
  6
CONTINUOUS
 90
4
 70
0
 10
5.093865055
 20
0.8155492609
 10
5.0327603961
 20
1.0199113688
 10
4.958994622
 20
1.2184884864
 10
4.8683250502
 20
1.4187137727
  0
LINE
  5
2C3
100
AcDbEntity
  8
0
100
AcDbLine
 62
7
  6
CONTINUOUS
 10
5.1412468507
 20
0.6103876753
 11
5.0897679299
 21
0.8326475247
  0
LINE
  5
2C4
100
AcDbEntity
  8
0
100
AcDbLine
 62
7
  6
CONTINUOUS
 10
5.174395317
 20
0.405792258
 11
5.1378950209
 21
0.6273915655
  0
LINE
  5
2C5
100
AcDbEntity
  8
RACCORDO
100
AcDbLine
 62
253
  6
CONTINUOUS
 10
-10.9509810786
 20
-21.5260158439
 11
-11.0374076812
 21
-21.6124424466
  0
LINE
  5
2C6
100
AcDbEntity
  8
RACCORDO
100
AcDbLine
 62
253
  6
CONTINUOUS
 10
-10.4516663112
 20
-22.0253306113
 11
-10.5380929139
 21
-22.1117572139
  0
LWPOLYLINE
  5
2C7
100
AcDbEntity
  8
0
100
AcDbPolyline
 62
7
  6
CONTINUOUS
 90
3
 70
0
 43
0.3500000006
 10
22.8196049881
 20
1.0357133102
 10
23.0338917389
 20
0.9642866592
 10
23.3196051407
 20
0.8214288254
  0
LINE
  5
2C8
100
AcDbEntity
  8
RACCORDO
100
AcDbLine
 62
253
  6
CONTINUOUS
 10
-11.0374076812
 20
21.6124424466
 11
-10.9509810786
 21
21.5260158439
  0
LINE
  5
2C9
100
AcDbEntity
  8
RACCORDO
100
AcDbLine
 62
253
  6
CONTINUOUS
 10
-10.5380929139
 20
22.1117572139
 11
-10.4516663112
 21
22.0253306113
  0
LINE
  5
2CA
100
AcDbEntity
  8
RACCORDO
100
AcDbLine
 62
253
  6
CONTINUOUS
 10
10.4516663102
 20
-22.0253306103
 11
10.4515203372
 21
-22.0179297522
  0
LINE
  5
2CB
100
AcDbEntity
  8
RACCORDO
100
AcDbLine
 62
253
  6
CONTINUOUS
 10
10.9198835093
 20
-21.1394405875
 11
10.9178982602
 21
-21.0484592098
  0
LINE
  5
2CC
100
AcDbEntity
  8
RACCORDO
100
AcDbLine
 62
253
  6
CONTINUOUS
 10
10.9178982602
 20
-21.0484592098
 11
10.9166086347
 21
-20.9538546172
  0
LINE
  5
2CD
100
AcDbEntity
  8
RACCORDO
100
AcDbLine
 62
253
  6
CONTINUOUS
 10
10.9166086347
 20
-20.9538546172
 11
10.9160278026
 21
-20.8563725241
  0
LINE
  5
2CE
100
AcDbEntity
  8
RACCORDO
100
AcDbLine
 62
253
  6
CONTINUOUS
 10
10.4421594271
 20
-11.6020504417
 11
10.4380674507
 21
-2.3208549767
  0
LINE
  5
2CF
100
AcDbEntity
  8
RACCORDO
100
AcDbLine
 62
253
  6
CONTINUOUS
 10
10.4380674507
 20
-2.3208549767
 11
10.439431441
 21
6.9620236805
  0
LINE
  5
2D0
100
AcDbEntity
  8
RACCORDO
100
AcDbLine
 62
253
  6
CONTINUOUS
 10
10.439431441
 20
6.9620236805
 11
10.4462513927
 21
16.2407063394
  0
LINE
  5
2D1
100
AcDbEntity
  8
RACCORDO
100
AcDbLine
 62
253
  6
CONTINUOUS
 10
10.4515203372
 20
-22.0179297522
 11
10.4421594271
 21
-11.6020504417
  0
LINE
  5
2D2
100
AcDbEntity
  8
RACCORDO
100
AcDbLine
 62
253
  6
CONTINUOUS
 10
10.4462513927
 20
16.2407063394
 11
10.4514405545
 21
22.0046284256
  0
LWPOLYLINE
  5
2D3
100
AcDbEntity
  8
RACCORDO
100
AcDbPolyline
 62
253
  6
CONTINUOUS
 90
3
 70
0
 10
10.4514405545
 20
22.0046284256
 10
10.451520414
 20
22.0179295934
 10
10.4516663102
 20
22.0253306103
  0
LINE
  5
2D4
100
AcDbEntity
  8
RACCORDO
100
AcDbLine
 62
253
  6
CONTINUOUS
 10
10.9160278027
 20
20.8563725242
 11
10.91660878
 21
20.9538684119
  0
LINE
  5
2D5
100
AcDbEntity
  8
RACCORDO
100
AcDbLine
 62
253
  6
CONTINUOUS
 10
10.91660878
 20
20.9538684119
 11
10.9178986346
 21
21.0484818972
  0
LWPOLYLINE
  5
2D6
100
AcDbEntity
  8
RACCORDO
100
AcDbPolyline
 62
253
  6
CONTINUOUS
 90
17
 70
0
 10
10.9178986346
 20
21.0484818972
 10
10.9198842093
 20
21.1394682348
 10
10.9211237983
 20
21.1826277654
 10
10.9225263532
 20
21.2242598882
 10
10.9240716571
 20
21.2637474377
 10
10.9257619947
 20
21.3010607812
 10
10.9275950814
 20
21.3362295514
 10
10.9295438473
 20
21.3687254808
 10
10.9316100051
 20
21.3985067993
 10
10.9337918421
 20
21.425615277
 10
10.9360571508
 20
21.4496479577
 10
10.9384083958
 20
21.4705605431
 10
10.9408431126
 20
21.4883973314
 10
10.9433216993
 20
21.5028882617
 10
10.9458309554
 20
21.5139433135
 10
10.9483840815
 20
21.5216525072
 10
10.9509810776
 20
21.5260158429
  0
LWPOLYLINE
  5
2D7
100
AcDbEntity
  8
0
100
AcDbPolyline
 62
7
  6
CONTINUOUS
 90
10
 70
0
 43
0.3500000006
 10
22.6053205032
 20
0.9642866592
 10
22.7481760712
 20
1.0357133102
 10
22.8196049881
 20
1.0357133102
 10
22.962462822
 20
0.8928577423
 10
22.962462822
 20
0.8214288254
 10
22.891033905
 20
0.7499999084
 10
22.8196049881
 20
0.7499999084
 10
22.6767471542
 20
0.8214288254
 10
22.6053205032
 20
0.8928577423
 10
22.6053205032
 20
0.9642866592
  0
LWPOLYLINE
  5
2D8
100
AcDbEntity
  8
RACCORDO
100
AcDbPolyline
 62
253
  6
CONTINUOUS
 90
10
 70
0
 10
10.9160278026
 20
-20.8563725241
 10
10.9067976153
 20
-16.2235199973
 10
10.8998749744
 20
-11.5897193248
 10
10.89525988
 20
-6.9549705067
 10
10.8929523316
 20
-2.3186416566
 10
10.8929523297
 20
2.3186353392
 10
10.8952598757
 20
6.9549648211
 10
10.8998749701
 20
11.5897149026
 10
10.9067976124
 20
16.2235174703
 10
10.9160278027
 20
20.8563725242
  0
LINE
  5
2D9
100
AcDbEntity
  8
RACCORDO
100
AcDbLine
 62
7
  6
CONTINUOUS
 10
11.0374076812
 20
-21.6124424466
 11
11.0374076812
 21
21.6124424466
  0
LWPOLYLINE
  5
2DA
100
AcDbEntity
  8
0
100
AcDbPolyline
 62
7
  6
CONTINUOUS
 90
10
 70
0
 43
0.3500000006
 10
1.2857142735
 20
36.6433807526
 10
1.3571429071
 20
36.5005229187
 10
1.3571429071
 20
36.4290962677
 10
1.2142857814
 20
36.2862384338
 10
1.1428571477
 20
36.2862384338
 10
1.0714285848
 20
36.3576696167
 10
1.0714285848
 20
36.4290962677
 10
1.1428571477
 20
36.5719541016
 10
1.2142857814
 20
36.6433807526
 10
1.2857142735
 20
36.6433807526
  0
LWPOLYLINE
  5
2DB
100
AcDbEntity
  8
RACCORDO
100
AcDbPolyline
 62
253
  6
CONTINUOUS
 90
14
 70
0
 10
-10.5467846201
 20
20.8766973721
 10
-10.592725089
 20
20.8759631155
 10
-10.637025639
 20
20.8750463318
 10
-10.6792735183
 20
20.8739555626
 10
-10.7190750999
 20
20.8727009709
 10
-10.7560595491
 20
20.8712942457
 10
-10.7898822788
 20
20.8697484935
 10
-10.8202281598
 20
20.8680781164
 10
-10.8468144571
 20
20.8662986774
 10
-10.8693934638
 20
20.8644267555
 10
-10.8877548096
 20
20.8624797917
 10
-10.9017274202
 20
20.8604759261
 10
-10.9111811117
 20
20.8584338287
 10
-10.9160278032
 20
20.856372526
  0
LINE
  5
2DC
100
AcDbEntity
  8
RACCORDO
100
AcDbLine
 62
253
  6
CONTINUOUS
 10
-10.4517073416
 20
20.8775927037
 11
-10.5467846201
 21
20.8766973721
  0
LINE
  5
2DD
100
AcDbEntity
  8
RACCORDO
100
AcDbLine
 62
253
  6
CONTINUOUS
 10
-10.4517073418
 20
20.8775926593
 11
10.4517073402
 21
20.8775926575
  0
LWPOLYLINE
  5
2DE
100
AcDbEntity
  8
RACCORDO
100
AcDbPolyline
 62
253
  6
CONTINUOUS
 90
15
 70
0
 10
10.451706519
 20
20.8775921973
 10
10.5467830054
 20
20.8766968906
 10
10.5927231331
 20
20.8759626544
 10
10.6370233933
 20
20.875045896
 10
10.6792710439
 20
20.8739551567
 10
10.7190724672
 20
20.8727005986
 10
10.7560568367
 20
20.8712939102
 10
10.7898795719
 20
20.8697481975
 10
10.8202255493
 20
20.8680778619
 10
10.846812038
 20
20.8662984657
 10
10.8693913338
 20
20.8644265874
 10
10.8877530674
 20
20.8624796671
 10
10.9017261639
 20
20.8604758442
 10
10.9111804372
 20
20.858433788
 10
10.9160278026
 20
20.8563725242
  0
LWPOLYLINE
  5
2DF
100
AcDbEntity
  8
0
100
AcDbPolyline
 62
7
  6
CONTINUOUS
 90
3
 70
0
 43
0.3500000006
 10
22.4624626694
 20
-0.5357137985
 10
22.4624626694
 20
-2.0357142563
 10
20.1053197403
 20
-1.3928574028
  0
LWPOLYLINE
  5
2E0
100
AcDbEntity
  8
0
100
AcDbPolyline
 62
7
  6
CONTINUOUS
 90
3
 70
0
 43
0.3500000006
 10
22.4624626694
 20
-2.8928567276
 10
22.4624626694
 20
-4.3928571854
 10
20.1053197403
 20
-3.7500003319
  0
LWPOLYLINE
  5
2E1
100
AcDbEntity
  8
0
100
AcDbPolyline
 62
7
  6
CONTINUOUS
 90
7
 70
0
 43
0.3500000006
 10
23.1053206558
 20
3.5357140732
 10
23.1053206558
 20
2.0357136154
 10
20.9624622116
 20
3.5357140732
 10
20.533890976
 20
3.5357140732
 10
20.1053197403
 20
3.1071428375
 10
20.1053197403
 20
2.4642848511
 10
20.7481777267
 20
2.0357136154
  0
LWPOLYLINE
  5
2E2
100
AcDbEntity
  8
RACCORDO
100
AcDbPolyline
 62
253
  6
CONTINUOUS
 90
16
 70
0
 10
-10.4516663112
 20
22.0253306113
 10
-10.5037691396
 20
22.0224620484
 10
-10.5553030207
 20
22.0141731198
 10
-10.6057052936
 20
22.0005543489
 10
-10.6544256724
 20
21.9817544441
 10
-10.7009322056
 20
21.9579786923
 10
-10.7447170915
 20
21.9294867333
 10
-10.785302291
 20
21.8965896872
 10
-10.8222447221
 20
21.8596467532
 10
-10.8551410596
 20
21.8190613204
 10
-10.8836321688
 20
21.7752765396
 10
-10.9074070294
 20
21.7287704675
 10
-10.9262061134
 20
21.6800508596
 10
-10.9398242133
 20
21.6296496393
 10
-10.9481126857
 20
21.5781170921
 10
-10.9509810786
 20
21.5260158439
  0
LINE
  5
2E3
100
AcDbEntity
  8
RACCORDO
100
AcDbLine
 62
253
  6
CONTINUOUS
 10
3.0797294973
 20
22.0075952798
 11
10.4516663102
 21
22.0253306103
  0
LINE
  5
2E4
100
AcDbEntity
  8
RACCORDO
100
AcDbLine
 62
7
  6
CONTINUOUS
 10
10.5380929139
 20
22.1117572139
 11
-10.5380929139
 21
22.1117572139
  0
LINE
  5
2E5
100
AcDbEntity
  8
RACCORDO
100
AcDbLine
 62
253
  6
CONTINUOUS
 10
-4.3632819094
 20
22.0092957697
 11
3.0797294973
 21
22.0075952798
  0
LINE
  5
2E6
100
AcDbEntity
  8
RACCORDO
100
AcDbLine
 62
253
  6
CONTINUOUS
 10
-10.4516663112
 20
22.0253306113
 11
-4.3632819094
 21
22.0092957697
  0
LWPOLYLINE
  5
2E7
100
AcDbEntity
  8
RACCORDO
100
AcDbPolyline
 62
253
  6
CONTINUOUS
 90
16
 70
0
 10
10.4516663102
 20
22.0253306103
 10
10.503768433
 20
22.0224621237
 10
10.5553017012
 20
22.0141734028
 10
10.6057034712
 20
22.0005549446
 10
10.6544234529
 20
21.9817554362
 10
10.7009297184
 20
21.957980132
 10
10.7447145091
 20
21.9294886124
 10
10.7852997796
 20
21.8965919497
 10
10.8222424173
 20
21.859649312
 10
10.8551390799
 20
21.8190640414
 10
10.8836305994
 20
21.7752792507
 10
10.9074059035
 20
21.7287729852
 10
10.9262054118
 20
21.6800530035
 10
10.9398238701
 20
21.6296512337
 10
10.9481125909
 20
21.5781179655
 10
10.9509810776
 20
21.5260158429
  0
LWPOLYLINE
  5
2E8
100
AcDbEntity
  8
0
100
AcDbPolyline
 62
7
  6
CONTINUOUS
 90
7
 70
0
 43
0.3500000006
 10
-0.2142857063
 20
36.1433806
 10
-1.7142856507
 20
36.1433806
 10
-0.2142857063
 20
38.2862390442
 10
-0.2142857063
 20
38.7148080139
 10
-0.6428571367
 20
39.1433815155
 10
-1.2857142735
 20
39.1433815155
 10
-1.7142856507
 20
38.5005235291
  0
LWPOLYLINE
  5
2E9
100
AcDbEntity
  8
0
100
AcDbPolyline
 62
7
  6
CONTINUOUS
 90
7
 70
0
 43
0.3500000006
 10
-2.5714285469
 20
36.1433806
 10
-4.0714284382
 20
36.1433806
 10
-2.5714285469
 20
38.2862390442
 10
-2.5714285469
 20
38.7148080139
 10
-3.0000000658
 20
39.1433815155
 10
-3.6428572025
 20
39.1433815155
 10
-4.0714284382
 20
38.5005235291
  0
LINE
  5
2EA
100
AcDbEntity
  8
RACCORDO
100
AcDbLine
 62
7
  6
CONTINUOUS
 10
-35.0102082444
 20
-22.1117572139
 11
-37.0298235497
 21
-22.0059136608
  0
LWPOLYLINE
  5
2EB
100
AcDbEntity
  8
RACCORDO
100
AcDbPolyline
 62
253
  6
CONTINUOUS
 90
22
 70
0
 10
-36.6593260824
 20
-22.0253306103
 10
-36.7437129621
 20
-22.0179297522
 10
-36.8273482035
 20
-22.0046288375
 10
-36.9098200789
 20
-21.9854972854
 10
-36.9907232465
 20
-21.9606338102
 10
-37.0696601166
 20
-21.9301646573
 10
-37.1462423476
 20
-21.8942417477
 10
-37.2200972801
 20
-21.8530429444
 10
-37.2908592222
 20
-21.8067756796
 10
-37.3581710943
 20
-21.7556751002
 10
-37.4217022363
 20
-21.6999983713
 10
-37.4811451256
 20
-21.6400220376
 10
-37.5362063529
 20
-21.5760447725
 10
-37.5866180538
 20
-21.508384764
 10
-37.6321361133
 20
-21.4373780217
 10
-37.672537138
 20
-21.3633764989
 10
-37.7076232696
 20
-21.2867528886
 10
-37.7372296484
 20
-21.2078804478
 10
-37.7612175193
 20
-21.1271292234
 10
-37.7794692629
 20
-21.0448900836
 10
-37.7918934475
 20
-20.9615744365
 10
-37.7984286074
 20
-20.8775926584
  0
LWPOLYLINE
  5
2EC
100
AcDbEntity
  8
0
100
AcDbPolyline
 62
7
  6
CONTINUOUS
 90
3
 70
0
 43
0.3500000006
 10
-44.5873787842
 20
36.4290962677
 10
-44.6588054352
 20
36.2148117828
 10
-44.801663269
 20
35.9290961151
  0
LINE
  5
2ED
100
AcDbEntity
  8
RACCORDO
100
AcDbLine
 62
253
  6
CONTINUOUS
 10
-37.7984286087
 20
-20.8775927014
 11
-37.7927409279
 21
-20.8772422581
  0
LINE
  5
2EE
100
AcDbEntity
  8
RACCORDO
100
AcDbLine
 62
253
  6
CONTINUOUS
 10
-37.7927409279
 20
-20.8772422581
 11
-37.7676915717
 21
-20.8759631133
  0
LINE
  5
2EF
100
AcDbEntity
  8
RACCORDO
100
AcDbLine
 62
253
  6
CONTINUOUS
 10
-37.7676915717
 20
-20.8759631133
 11
-37.467684216
 21
-20.8624797898
  0
LINE
  5
2F0
100
AcDbEntity
  8
RACCORDO
100
AcDbLine
 62
253
  6
CONTINUOUS
 10
-37.467684216
 20
-20.8624797898
 11
-37.326274299
 21
-20.8563725241
  0
LINE
  5
2F1
100
AcDbEntity
  8
RACCORDO
100
AcDbLine
 62
253
  6
CONTINUOUS
 10
-38.1653823092
 20
-20.8701689506
 11
-37.7984286134
 21
-20.877592659
  0
LINE
  5
2F2
100
AcDbEntity
  8
RACCORDO
100
AcDbLine
 62
253
  6
CONTINUOUS
 10
-35.0102082444
 20
-21.6124424466
 11
-36.6593260824
 21
-21.5260158429
  0
LWPOLYLINE
  5
2F3
100
AcDbEntity
  8
RACCORDO
100
AcDbPolyline
 62
253
  6
CONTINUOUS
 90
22
 70
0
 10
-36.6593260824
 20
-21.5260158429
 10
-36.708887938
 20
-21.5216510913
 10
-36.7576113544
 20
-21.5139400941
 10
-36.8054963315
 20
-21.5028828515
 10
-36.8527943723
 20
-21.4883894243
 10
-36.8992539738
 20
-21.4705497515
 10
-36.9441206271
 20
-21.4496336506
 10
-36.9873481378
 20
-21.4255962085
 10
-37.0289827003
 20
-21.3984823382
 10
-37.0684083891
 20
-21.3686965963
 10
-37.1055917953
 20
-21.3361975891
 10
-37.1405663277
 20
-21.3010267103
 10
-37.1728162876
 20
-21.263712697
 10
-37.2022978877
 20
-21.2242264943
 10
-37.2290549152
 20
-21.1825971571
 10
-37.2527030327
 20
-21.1394405875
 10
-37.2731978927
 20
-21.0947135149
 10
-37.2905838427
 20
-21.0484592098
 10
-37.3046095878
 20
-21.0014233868
 10
-37.315191363
 20
-20.9538546172
 10
-37.3224129334
 20
-20.9055043297
 10
-37.326274299
 20
-20.8563725241
  0
LWPOLYLINE
  5
2F4
100
AcDbEntity
  8
RACCORDO
100
AcDbPolyline
 62
253
  6
CONTINUOUS
 90
16
 70
0
 10
-36.6593260818
 20
22.0253306103
 10
-36.6619063062
 20
22.0224621237
 10
-36.664172656
 20
22.0141734028
 10
-36.6661003872
 20
22.0005549446
 10
-36.6676684528
 20
21.9817554362
 10
-36.6688597324
 20
21.957980132
 10
-36.6696612191
 20
21.9294886124
 10
-36.6700641623
 20
21.8965919497
 10
-36.6700641626
 20
21.859649312
 10
-36.66966122
 20
21.8190640414
 10
-36.6688597339
 20
21.7752792507
 10
-36.6676684549
 20
21.7287729852
 10
-36.6661003895
 20
21.6800530035
 10
-36.664172658
 20
21.6296512337
 10
-36.6619063073
 20
21.5781179655
 10
-36.6593260818
 20
21.5260158429
  0
LWPOLYLINE
  5
2F5
100
AcDbEntity
  8
RACCORDO
100
AcDbPolyline
 62
253
  6
CONTINUOUS
 90
16
 70
0
 10
-36.6593260824
 20
-22.0253306103
 10
-36.6619063423
 20
-22.0224620551
 10
-36.6641727163
 20
-22.0141731476
 10
-36.6661004607
 20
-22.0005544084
 10
-36.6676685298
 20
-21.9817545437
 10
-36.6688598036
 20
-21.9579788371
 10
-36.6696612759
 20
-21.9294869224
 10
-36.6700641984
 20
-21.8965899146
 10
-36.670064175
 20
-21.8596470098
 10
-36.6696612084
 20
-21.8190615926
 10
-36.6688597015
 20
-21.77527681
 10
-36.667668408
 20
-21.7287707174
 10
-36.6661003367
 20
-21.6800510715
 10
-36.6641726099
 20
-21.6296497963
 10
-36.6619062767
 20
-21.5781171775
 10
-36.6593260824
 20
-21.5260158429
  0
LWPOLYLINE
  5
2F6
100
AcDbEntity
  8
0
100
AcDbPolyline
 62
7
  6
CONTINUOUS
 90
2
 70
0
 43
0.3500000006
 10
-46.6588060455
 20
36.1433806
 10
-46.6588060455
 20
37.6433810577
  0
LINE
  5
2F7
100
AcDbEntity
  8
0
100
AcDbLine
 62
7
  6
CONTINUOUS
 10
-34.0102082444
 20
-13.2689805518
 11
-35.0102082444
 21
-13.3213883311
  0
LWPOLYLINE
  5
2F8
100
AcDbEntity
  8
0
100
AcDbPolyline
 62
7
  6
CONTINUOUS
 90
4
 70
0
 43
0.3500000006
 10
-43.587378479
 20
38.5005235291
 10
-43.587378479
 20
39.1433815155
 10
-42.0873780212
 20
39.1433815155
 10
-42.9445204926
 20
36.1433806
  0
LINE
  5
2F9
100
AcDbEntity
  8
0
100
AcDbLine
 62
7
  6
CONTINUOUS
 10
-34.0102082444
 20
-9.7310194482
 11
-35.0102082444
 21
-9.6786116689
  0
LWPOLYLINE
  5
2FA
100
AcDbEntity
  8
0
100
AcDbPolyline
 62
7
  6
CONTINUOUS
 90
6
 70
0
 10
-38.1653823046
 20
20.8701690381
 10
-38.3288847775
 20
17.4618001712
 10
-38.4661751358
 20
13.9703724365
 10
-38.5729638547
 20
10.4778787858
 10
-38.6492397404
 20
6.9845855945
 10
-38.6902257822
 20
4.0000027422
  0
LWPOLYLINE
  5
2FB
100
AcDbEntity
  8
RACCORDO
100
AcDbPolyline
 62
253
  6
CONTINUOUS
 90
22
 70
0
 10
-37.7984286069
 20
20.8775926568
 10
-37.7918936491
 20
20.9615726594
 10
-37.7794698104
 20
21.0448871287
 10
-37.761218435
 20
21.1271256883
 10
-37.7372307565
 20
21.2078771503
 10
-37.7076243233
 20
21.286750364
 10
-37.672538113
 20
21.363374559
 10
-37.6321371898
 20
21.4373761979
 10
-37.586619319
 20
21.5083829142
 10
-37.5362077701
 20
21.5760429757
 10
-37.4811465738
 20
21.6400204412
 10
-37.4217036417
 20
21.6999970232
 10
-37.3581724204
 20
21.7556739957
 10
-37.29086038
 20
21.8067748469
 10
-37.2200982287
 20
21.8530423607
 10
-37.146243274
 20
21.8942412669
 10
-37.0696615231
 20
21.9301640524
 10
-36.9907253812
 20
21.9606330674
 10
-36.9098225315
 20
21.9854966221
 10
-36.8273503058
 20
22.0046284256
 10
-36.7437142475
 20
22.0179295934
 10
-36.6593260818
 20
22.0253306103
  0
LWPOLYLINE
  5
2FC
100
AcDbEntity
  8
RACCORDO
100
AcDbPolyline
 62
253
  6
CONTINUOUS
 90
22
 70
0
 10
-37.3262742987
 20
20.8563725242
 10
-37.3224117573
 20
20.9055117994
 10
-37.3151885911
 20
20.9538684119
 10
-37.3046048
 20
21.0014423617
 10
-37.2905766996
 20
21.0484818972
 10
-37.2731879742
 20
21.0947387699
 10
-37.2526896774
 20
21.1394682348
 10
-37.2290369086
 20
21.1826277654
 10
-37.2022745682
 20
21.2242598882
 10
-37.172788412
 20
21.2637474377
 10
-37.1405348503
 20
21.3010607812
 10
-37.1055574727
 20
21.3362295514
 10
-37.0683728034
 20
21.3687254808
 10
-37.0289481648
 20
21.3985067993
 10
-36.9873162346
 20
21.425615277
 10
-36.9440915699
 20
21.4496479577
 10
-36.8992271414
 20
21.4705605431
 10
-36.8527699785
 20
21.4883973314
 10
-36.8054757266
 20
21.5028882617
 10
-36.7575962674
 20
21.5139433135
 10
-36.7088797191
 20
21.5216525072
 10
-36.6593260818
 20
21.5260158429
  0
LINE
  5
2FD
100
AcDbEntity
  8
0
100
AcDbLine
 62
7
  6
CONTINUOUS
 10
-38.6238943538
 20
3.3962669573
 11
-38.611355508
 21
3.1090769155
  0
LWPOLYLINE
  5
2FE
100
AcDbEntity
  8
RACCORDO
100
AcDbPolyline
 62
253
  6
CONTINUOUS
 90
10
 70
0
 10
-37.7984286134
 20
-20.877592659
 10
-37.9743494568
 20
-16.2407094163
 10
-38.1063757023
 20
-11.6020504417
 10
-38.1944371929
 20
-6.9620306049
 10
-38.2384836044
 20
-2.3208549767
 10
-38.2384836409
 20
2.3208472824
 10
-38.1944372915
 20
6.9620236805
 10
-38.10637583
 20
11.6020450567
 10
-37.9743495588
 20
16.2407063394
 10
-37.7984286135
 20
20.8775926575
  0
LWPOLYLINE
  5
2FF
100
AcDbEntity
  8
RACCORDO
100
AcDbPolyline
 62
253
  6
CONTINUOUS
 90
10
 70
0
 10
-37.326274299
 20
-20.8563725241
 10
-37.5023967654
 20
-16.2235199973
 10
-37.6344886221
 20
-11.5897193248
 10
-37.722549869
 20
-6.9549705067
 10
-37.7665805154
 20
-2.3186416566
 10
-37.7665805519
 20
2.3186353392
 10
-37.7225499513
 20
6.9549648211
 10
-37.6344887043
 20
11.5897149026
 10
-37.5023968201
 20
16.2235174703
 10
-37.3262742987
 20
20.8563725242
  0
LINE
  5
300
100
AcDbEntity
  8
0
100
AcDbLine
 62
7
  6
CONTINUOUS
 10
-38.611355508
 20
3.1090769155
 11
-38.5991920857
 21
2.7767333767
  0
LINE
  5
301
100
AcDbEntity
  8
0
100
AcDbLine
 62
7
  6
CONTINUOUS
 10
-38.5991920857
 20
2.7767333767
 11
-38.5878274519
 21
2.4029602038
  0
LINE
  5
302
100
AcDbEntity
  8
0
100
AcDbLine
 62
7
  6
CONTINUOUS
 10
-38.5878274519
 20
2.4029602038
 11
-38.577632815
 21
1.9908548461
  0
LINE
  5
303
100
AcDbEntity
  8
0
100
AcDbLine
 62
7
  6
CONTINUOUS
 10
-38.577632815
 20
1.9908548461
 11
-38.5691018362
 21
1.5516053903
  0
LWPOLYLINE
  5
304
100
AcDbEntity
  8
0
100
AcDbPolyline
 62
7
  6
CONTINUOUS
 90
6
 70
0
 10
-38.6902257822
 20
-4.0000027423
 10
-38.6491232668
 20
-6.9912513843
 10
-38.5727891555
 20
-10.4845431777
 10
-38.465942236
 20
-13.9770348719
 10
-38.3285937039
 20
-17.4684600916
 10
-38.1653823046
 20
-20.8701690383
  0
LINE
  5
305
100
AcDbEntity
  8
0
100
AcDbLine
 62
7
  6
CONTINUOUS
 10
-38.5691018362
 20
1.5516053903
 11
-38.5625672285
 21
1.0900337853
  0
LINE
  5
306
100
AcDbEntity
  8
0
100
AcDbLine
 62
7
  6
CONTINUOUS
 10
-38.5625672285
 20
1.0900337853
 11
-38.5582548065
 21
0.6092082294
  0
LINE
  5
307
100
AcDbEntity
  8
0
100
AcDbLine
 62
7
  6
CONTINUOUS
 10
-38.5582548065
 20
0.6092082294
 11
-38.5563687436
 21
0.1220650921
  0
LINE
  5
308
100
AcDbEntity
  8
0
100
AcDbLine
 62
7
  6
CONTINUOUS
 10
-38.5563687436
 20
0.1220650921
 11
-38.5569968571
 21
-0.366082634
  0
LINE
  5
309
100
AcDbEntity
  8
0
100
AcDbLine
 62
7
  6
CONTINUOUS
 10
-38.5569968571
 20
-0.366082634
 11
-38.5601284428
 21
-0.8522145756
  0
LINE
  5
30A
100
AcDbEntity
  8
0
100
AcDbLine
 62
7
  6
CONTINUOUS
 10
-38.5601284428
 20
-0.8522145756
 11
-38.5655711217
 21
-1.3233948272
  0
LINE
  5
30B
100
AcDbEntity
  8
0
100
AcDbLine
 62
7
  6
CONTINUOUS
 10
-38.5655711217
 20
-1.3233948272
 11
-38.5731330748
 21
-1.774334181
  0
LINE
  5
30C
100
AcDbEntity
  8
0
100
AcDbLine
 62
7
  6
CONTINUOUS
 10
-38.5731330748
 20
-1.774334181
 11
-38.5825730621
 21
-2.2018056555
  0
LINE
  5
30D
100
AcDbEntity
  8
0
100
AcDbLine
 62
7
  6
CONTINUOUS
 10
-38.5825730621
 20
-2.2018056555
 11
-38.5933838819
 21
-2.5946742402
  0
LINE
  5
30E
100
AcDbEntity
  8
0
100
AcDbLine
 62
7
  6
CONTINUOUS
 10
-38.5933838819
 20
-2.5946742402
 11
-38.6051936281
 21
-2.9482764107
  0
LWPOLYLINE
  5
30F
100
AcDbEntity
  8
0
100
AcDbPolyline
 62
7
  6
CONTINUOUS
 90
12
 70
0
 10
-38.6051936281
 20
-2.9482764107
 10
-38.6176326981
 20
-3.2592320906
 10
-38.6238956533
 20
-3.3962937542
 10
-38.6301144972
 20
-3.519938917
 10
-38.6362654422
 20
-3.6305613136
 10
-38.6422662408
 20
-3.7271069332
 10
-38.6481042866
 20
-3.8095457682
 10
-38.6537431806
 20
-3.8779076401
 10
-38.6590933081
 20
-3.9312283012
 10
-38.6641262619
 20
-3.969186289
 10
-38.6688532924
 20
-3.9921029043
 10
-38.6732606966
 20
-3.9999780605
  0
LINE
  5
310
100
AcDbEntity
  8
0
100
AcDbLine
 62
7
  6
CONTINUOUS
 10
-38.6732606966
 20
-3.9999780605
 11
-38.6902257822
 21
-4.0000027423
  0
LWPOLYLINE
  5
311
100
AcDbEntity
  8
0
100
AcDbPolyline
 62
7
  6
CONTINUOUS
 90
10
 70
0
 10
-38.6732604791
 20
3.9999999988
 10
-38.6688537754
 20
3.9921200994
 10
-38.6641273711
 20
3.9692008798
 10
-38.6590949095
 20
3.9312424265
 10
-38.65374507
 20
3.8779265141
 10
-38.6481062197
 20
3.8095715296
 10
-38.6422679447
 20
3.7271324939
 10
-38.6362664267
 20
3.6305748801
 10
-38.6301143265
 20
3.5199334012
 10
-38.6238943538
 20
3.3962669573
  0
LINE
  5
312
100
AcDbEntity
  8
RACCORDO
100
AcDbLine
 62
7
  6
CONTINUOUS
 10
-35.0102082444
 20
-22.1117572139
 11
-35.0102082444
 21
22.1117572139
  0
LINE
  5
313
100
AcDbEntity
  8
0
100
AcDbLine
 62
253
  6
CONTINUOUS
 10
-34.389273862
 20
-13.288846539
 11
-34.389273862
 21
-9.711153461
  0
LINE
  5
314
100
AcDbEntity
  8
0
100
AcDbLine
 62
253
  6
CONTINUOUS
 10
-34.389273862
 20
9.711153461
 11
-34.389273862
 21
13.288846539
  0
LINE
  5
315
100
AcDbEntity
  8
0
100
AcDbLine
 62
7
  6
CONTINUOUS
 10
-34.0102082444
 20
-13.2689805518
 11
-34.0102082444
 21
-9.7310194482
  0
LINE
  5
316
100
AcDbEntity
  8
0
100
AcDbLine
 62
7
  6
CONTINUOUS
 10
-34.0102082444
 20
9.7310194482
 11
-34.0102082444
 21
13.2689805518
  0
LINE
  5
317
100
AcDbEntity
  8
0
100
AcDbLine
 62
7
  6
CONTINUOUS
 10
-38.6901330589
 20
4.0000011238
 11
-38.6732604791
 21
3.9999999988
  0
LWPOLYLINE
  5
318
100
AcDbEntity
  8
0
100
AcDbPolyline
 62
7
  6
CONTINUOUS
 90
10
 70
0
 43
0.3500000006
 10
-44.6588054352
 20
36.6433807526
 10
-44.5873787842
 20
36.5005229187
 10
-44.5873787842
 20
36.4290962677
 10
-44.730236618
 20
36.2862384338
 10
-44.801663269
 20
36.2862384338
 10
-44.8730944519
 20
36.3576696167
 10
-44.8730944519
 20
36.4290962677
 10
-44.801663269
 20
36.5719541016
 10
-44.730236618
 20
36.6433807526
 10
-44.6588054352
 20
36.6433807526
  0
LINE
  5
319
100
AcDbEntity
  8
0
100
AcDbLine
 62
7
  6
CONTINUOUS
 10
-34.0102082444
 20
9.7310194482
 11
-35.0102082444
 21
9.6786116689
  0
LINE
  5
31A
100
AcDbEntity
  8
0
100
AcDbLine
 62
7
  6
CONTINUOUS
 10
-34.0102082444
 20
13.2689805518
 11
-35.0102082444
 21
13.3213883311
  0
LINE
  5
31B
100
AcDbEntity
  8
RACCORDO
100
AcDbLine
 62
253
  6
CONTINUOUS
 10
-37.7485532696
 20
20.875045896
 11
-37.3262742987
 21
20.8563725242
  0
LWPOLYLINE
  5
31C
100
AcDbEntity
  8
RACCORDO
100
AcDbPolyline
 62
253
  6
CONTINUOUS
 90
4
 70
0
 10
-37.7984168205
 20
20.8775921973
 10
-37.7927294159
 20
20.8772417637
 10
-37.7824522095
 20
20.8766968906
 10
-37.7485532696
 20
20.875045896
  0
LINE
  5
31D
100
AcDbEntity
  8
RACCORDO
100
AcDbLine
 62
253
  6
CONTINUOUS
 10
-36.6593260818
 20
21.5260158429
 11
-35.0102082444
 21
21.6124424466
  0
LINE
  5
31E
100
AcDbEntity
  8
RACCORDO
100
AcDbLine
 62
7
  6
CONTINUOUS
 10
-37.0298234925
 20
22.0059136638
 11
-35.0102082444
 21
22.1117572139
  0
LINE
  5
31F
100
AcDbEntity
  8
RACCORDO
100
AcDbLine
 62
253
  6
CONTINUOUS
 10
-38.1653823091
 20
20.8701689517
 11
-37.7984286135
 21
20.8775926575
  0
LWPOLYLINE
  5
320
100
AcDbEntity
  8
0
100
AcDbPolyline
 62
7
  6
CONTINUOUS
 90
3
 70
0
 43
0.3500000006
 10
-46.1588058929
 20
36.7862385864
 10
-47.6588063507
 20
36.7862385864
 10
-47.0159483643
 20
39.1433815155
  0
ARC
  5
321
100
AcDbEntity
  8
RACCORDO
100
AcDbCircle
 62
7
  6
CONTINUOUS
 10
-36.9670166913
 20
20.8075584136
 40
1.2
100
AcDbArc
 50
93.0
 51
177.0092051148
  0
ARC
  5
322
100
AcDbEntity
  8
RACCORDO
100
AcDbCircle
 62
7
  6
CONTINUOUS
 10
-36.9670166891
 20
-20.8075584137
 40
1.2
100
AcDbArc
 50
182.9907948857
 51
267.0
  0
ELLIPSE
  5
323
100
AcDbEntity
  8
RACCORDO
100
AcDbEllipse
 62
7
  6
CONTINUOUS
 10
-10.5367215082
 20
21.6110710409
 30
0.0
 11
0.3545231217
 21
-0.3545231217
 31
0.0
 40
0.9972646886
 41
2.3575640181
 42
3.9256212891
  0
ELLIPSE
  5
324
100
AcDbEntity
  8
RACCORDO
100
AcDbEllipse
 62
7
  6
CONTINUOUS
 10
10.5367215082
 20
21.6110710409
 30
0.0
 11
0.3545231217
 21
0.3545231217
 31
0.0
 40
0.9972646886
 41
-0.7840286355
 42
0.7840286355
  0
ELLIPSE
  5
325
100
AcDbEntity
  8
RACCORDO
100
AcDbEllipse
 62
7
  6
CONTINUOUS
 10
10.5367215082
 20
-21.6110710409
 30
0.0
 11
0.3545231217
 21
-0.3545231217
 31
0.0
 40
0.9972646886
 41
-0.7840286355
 42
0.7840286355
  0
ELLIPSE
  5
326
100
AcDbEntity
  8
RACCORDO
100
AcDbEllipse
 62
7
  6
CONTINUOUS
 10
-10.5367215082
 20
-21.6110710409
 30
0.0
 11
0.3545231217
 21
0.3545231217
 31
0.0
 40
0.9972646886
 41
-3.9256212891
 42
-2.3575640181
  0
ENDSEC
  0
SECTION
  2
OBJECTS
  0
DICTIONARY
  5
C
100
AcDbDictionary
280
0
281
1
  3
ACAD_GROUP
350
D
  3
ACAD_MLINESTYLE
350
17
  3
ACAD_LAYOUT
350
1A
  3
ACAD_PLOTSETTINGS
350
19
  3
ACAD_PLOTSTYLENAME
350
E
  0
DICTIONARY
  5
D
102
{ACAD_REACTORS
330
C
102
}
100
AcDbDictionary
280
0
281
1
  0
ACDBDICTIONARYWDFLT
  5
E
102
{ACAD_REACTORS
330
C
102
}
100
AcDbDictionary
281
1
  3
Normal
350
F
100
AcDbDictionaryWithDefault
340
F
  0
DICTIONARY
  5
17
102
{ACAD_REACTORS
330
C
102
}
100
AcDbDictionary
280
0
281
1
  3
Standard
350
18
  0
DICTIONARY
  5
19
102
{ACAD_REACTORS
330
C
102
}
100
AcDbDictionary
281
1
  0
DICTIONARY
  5
1A
102
{ACAD_REACTORS
330
C
102
}
100
AcDbDictionary
281
1
  3
Model
350
327
  3
Layout1
350
328
  0
ACDBPLACEHOLDER
  5
F
102
{ACAD_REACTORS
330
E
102
}
  0
MLINESTYLE
  5
18
102
{ACAD_REACTORS
330
17
102
}
100
AcDbMlineStyle
  2
STANDARD
 70
0
  3

 62
256
 51
90.0
 52
90.0
 71
2
 49
0.5
 62
256
  6
BYLAYER
 49
-0.5
 62
256
  6
BYLAYER
  0
LAYOUT
  5
327
102
{ACAD_REACTORS
330
1A
102
}
100
AcDbPlotSettings
  1

  2
none_device
  4
ISO_A4_(297.00_x_210.00_MM)
  6

 40
0.0
 41
0.0
 42
0.0
 43
0.0
 44
297.0
 45
210.0
 46
0.0
 47
0.0
 48
0.0
 49
0.0
140
0.0
141
0.0
142
1.0
143
1.0
 70
1024
 72
1
 73
0
 74
0
  7

 75
0
147
1.0
148
0.0
149
0.0
100
AcDbLayout
  1
Model
 70
0
 71
0
 10
0.0
 20
0.0
 11
297.0
 21
210.0
 12
0.0
 22
0.0
 32
0.0
 14
0.0
 24
0.0
 34
0.0
 15
0.0
 25
0.0
 35
0.0
146
0.0
 13
0.0
 23
0.0
 33
0.0
 16
1.0
 26
0.0
 36
0.0
 17
0.0
 27
1.0
 37
0.0
 76
0
330
214
345
0
346
0
  0
LAYOUT
  5
328
102
{ACAD_REACTORS
330
1A
102
}
100
AcDbPlotSettings
  1

  2
none_device
  4
ISO_A4_(297.00_x_210.00_MM)
  6

 40
0.0
 41
0.0
 42
0.0
 43
0.0
 44
297.0
 45
210.0
 46
0.0
 47
0.0
 48
0.0
 49
0.0
140
0.0
141
0.0
142
1.0
143
1.0
 70
0
 72
1
 73
0
 74
0
  7

 75
0
147
1.0
148
0.0
149
0.0
100
AcDbLayout
  1
Layout1
 70
0
 71
1
 10
0.0
 20
0.0
 11
297.0
 21
210.0
 12
0.0
 22
0.0
 32
0.0
 14
0.0
 24
0.0
 34
0.0
 15
0.0
 25
0.0
 35
0.0
146
0.0
 13
0.0
 23
0.0
 33
0.0
 16
1.0
 26
0.0
 36
0.0
 17
0.0
 27
1.0
 37
0.0
 76
0
330
215
345
0
346
0
  0
ENDSEC
  0
EOF
