  0
SECTION
  2
HEADER
  9
$ACADVER
  1
AC1015
  9
$DWGCODEPAGE
  3
ANSI_1252
  9
$EXTMAX
 10
297.0
 20
210.0
 30
0.0
  9
$EXTMIN
 10
0.0
 20
0.0
 30
0.0
  9
$LIMMIN
 10
0.0
 20
0.0
  9
$LIMMAX
 10
297.0
 20
210.0
  9
$VIEWCTR
 10
148.5
 20
105.0
  9
$VIEWSIZE
 40
210.0
  9
$CLAYER
  8
0
  9
$LTSCALE
 40
16.335
  9
$CELTYPE
  6
BYLAYER
  9
$DIMSCALE
 40
1.0
  9
$DIMASZ
 40
3.0
  9
$DIMEXO
 40
1.85625
  9
$DIMDLI
 40
11.286
  9
$DIMEXE
 40
5.346
  9
$DIMCEN
 40
2.673
  9
$DIMLFAC
 40
1.0
  9
$DIMBLK
  1
_FILLED
  9
$DIMTXT
 40
3.0
  9
$DIMTOL
 70
1
  9
$DIMLIM
 70
0
  9
$DIMTFAC
 40
1.0
  9
$DIMTP
 40
0.01
  9
$DIMTM
 40
0.01
  9
$PDMODE
 70
3
  9
$PDSIZE
 40
3.0
  9
$HANDSEED
  5
348
  9
$TILEMODE
 70
1
  9
$MEASUREMENT
 70
1
  9
$INSUNITS
 70
4
  0
ENDSEC
  0
SECTION
  2
CLASSES
  0
CLASS
  1
ACDBDICTIONARYWDFLT
  2
AcDbDictionaryWithDefault
  3
AutoCAD 2000
 90
0
280
0
281
0
  0
CLASS
  1
ACDBPLACEHOLDER
  2
AcDbPlaceHolder
  3
AutoCAD 2000
 90
0
280
0
281
0
  0
CLASS
  1
LAYOUT
  2
AcDbLayout
  3
AutoCAD 2000
 90
0
280
0
281
0
  0
ENDSEC
  0
SECTION
  2
TABLES
  0
TABLE
  2
VPORT
  5
8
100
AcDbSymbolTable
 70
2
  0
VPORT
  5
1F4
100
AcDbSymbolTableRecord
100
AcDbViewportTableRecord
  2
*ACTIVE
 70
0
 10
0.0
 20
0.0
 11
1.0
 21
1.0
 12
148.5
 22
105.0
 13
0.0
 23
0.0
 14
1.0
 24
1.0
 15
0.0
 25
0.0
 16
0.0
 26
0.0
 36
1.0
 17
0.0
 27
0.0
 37
0.0
 40
210.0
 41
1.4142857143
 42
50.0
 43
0.0
 44
0.0
 50
0.0
 51
0.0
 71
0
 72
100
 73
1
 74
1
 75
0
 76
0
 77
0
 78
0
  0
ENDTAB
  0
TABLE
  2
LTYPE
  5
5
100
AcDbSymbolTable
 70
6
  0
LTYPE
  5
14
100
AcDbSymbolTableRecord
100
AcDbLinetypeTableRecord
  2
BYBLOCK
 70
0
  3

 72
65
 73
0
 40
0.0
  0
LTYPE
  5
15
100
AcDbSymbolTableRecord
100
AcDbLinetypeTableRecord
  2
BYLAYER
 70
0
  3

 72
65
 73
0
 40
0.0
  0
LTYPE
  5
16
100
AcDbSymbolTableRecord
100
AcDbLinetypeTableRecord
  2
CONTINUOUS
 70
64
  3
Solid line
 72
65
 73
0
 40
0.0
  0
LTYPE
  5
1F5
100
AcDbSymbolTableRecord
100
AcDbLinetypeTableRecord
  2
CENTER
 70
64
  3
____ _ ____ _ ____ _ ____ _ ____ _ ____ _ ____
 72
65
 73
4
 40
0.6
 49
0.375
 74
0
 49
-0.075
 74
0
 49
0.075
 74
0
 49
-0.075
 74
0
  0
LTYPE
  5
1F6
100
AcDbSymbolTableRecord
100
AcDbLinetypeTableRecord
  2
HIDDEN
 70
64
  3
- - - - - - - - - - - - - - - - - - - -
 72
65
 73
2
 40
0.2
 49
0.1
 74
0
 49
-0.1
 74
0
  0
LTYPE
  5
1F7
100
AcDbSymbolTableRecord
100
AcDbLinetypeTableRecord
  2
PHANTOM
 70
64
  3
_____ _ _ _____ _ _ _____ _ _ _____
 72
65
 73
6
 40
0.8
 49
0.45
 74
0
 49
-0.05
 74
0
 49
0.1
 74
0
 49
-0.05
 74
0
 49
0.1
 74
0
 49
-0.05
 74
0
  0
LTYPE
  5
1F8
100
AcDbSymbolTableRecord
100
AcDbLinetypeTableRecord
  2
DOT
 70
64
  3
. . . . . . . . . . . . . . . . . . . .
 72
65
 73
2
 40
0.2
 49
0.1
 74
0
 49
-0.1
 74
0
  0
LTYPE
  5
1F9
100
AcDbSymbolTableRecord
100
AcDbLinetypeTableRecord
  2
DASHED
 70
64
  3
- - - - - - - - - - - - - - - - - - - -
 72
65
 73
2
 40
0.2
 49
0.1
 74
0
 49
-0.1
 74
0
  0
ENDTAB
  0
TABLE
  2
LAYER
  5
2
100
AcDbSymbolTable
 70
36
  0
LAYER
  5
10
100
AcDbSymbolTableRecord
100
AcDbLayerTableRecord
  2
0
 70
0
 62
7
  6
CONTINUOUS
370
-3
390
F
  0
LAYER
  5
1FA
100
AcDbSymbolTableRecord
100
AcDbLayerTableRecord
  2
DEFAULT_1
 70
0
 62
7
  6
CENTER
370
-3
390
F
  0
LAYER
  5
1FB
100
AcDbSymbolTableRecord
100
AcDbLayerTableRecord
  2
DEFAULT_2
 70
0
 62
7
  6
HIDDEN
370
-3
390
F
  0
LAYER
  5
1FC
100
AcDbSymbolTableRecord
100
AcDbLayerTableRecord
  2
DEFAULT_3
 70
0
 62
7
  6
PHANTOM
370
-3
390
F
  0
LAYER
  5
1FD
100
AcDbSymbolTableRecord
100
AcDbLayerTableRecord
  2
ASSI
 70
0
 62
7
  6
CONTINUOUS
370
-3
390
F
  0
LAYER
  5
1FE
100
AcDbSymbolTableRecord
100
AcDbLayerTableRecord
  2
COORDINATE
 70
0
 62
7
  6
CONTINUOUS
370
-3
390
F
  0
LAYER
  5
1FF
100
AcDbSymbolTableRecord
100
AcDbLayerTableRecord
  2
COPY_PUBLISH
 70
0
 62
7
  6
CONTINUOUS
370
-3
390
F
  0
LAYER
  5
200
100
AcDbSymbolTableRecord
100
AcDbLayerTableRecord
  2
COSMETIC
 70
0
 62
7
  6
CONTINUOUS
370
-3
390
F
  0
LAYER
  5
201
100
AcDbSymbolTableRecord
100
AcDbLayerTableRecord
  2
COSMETICI
 70
0
 62
7
  6
CONTINUOUS
370
-3
390
F
  0
LAYER
  5
202
100
AcDbSymbolTableRecord
100
AcDbLayerTableRecord
  2
CURVE
 70
0
 62
7
  6
CONTINUOUS
370
-3
390
F
  0
LAYER
  5
203
100
AcDbSymbolTableRecord
100
AcDbLayerTableRecord
  2
DRAFT
 70
0
 62
7
  6
CONTINUOUS
370
-3
390
F
  0
LAYER
  5
204
100
AcDbSymbolTableRecord
100
AcDbLayerTableRecord
  2
IMPORT_IGES
 70
0
 62
7
  6
CONTINUOUS
370
-3
390
F
  0
LAYER
  5
205
100
AcDbSymbolTableRecord
100
AcDbLayerTableRecord
  2
INTFCLR_11
 70
0
 62
7
  6
CONTINUOUS
370
-3
390
F
  0
LAYER
  5
206
100
AcDbSymbolTableRecord
100
AcDbLayerTableRecord
  2
INTF_1
 70
0
 62
7
  6
CONTINUOUS
370
-3
390
F
  0
LAYER
  5
207
100
AcDbSymbolTableRecord
100
AcDbLayerTableRecord
  2
INTF_3
 70
0
 62
7
  6
CONTINUOUS
370
-3
390
F
  0
LAYER
  5
208
100
AcDbSymbolTableRecord
100
AcDbLayerTableRecord
  2
NOTE
 70
0
 62
7
  6
CONTINUOUS
370
-3
390
F
  0
LAYER
  5
209
100
AcDbSymbolTableRecord
100
AcDbLayerTableRecord
  2
PIANI
 70
0
 62
7
  6
CONTINUOUS
370
-3
390
F
  0
LAYER
  5
20A
100
AcDbSymbolTableRecord
100
AcDbLayerTableRecord
  2
PUNTI
 70
0
 62
7
  6
CONTINUOUS
370
-3
390
F
  0
LAYER
  5
20B
100
AcDbSymbolTableRecord
100
AcDbLayerTableRecord
  2
RACCORDO
 70
0
 62
7
  6
CONTINUOUS
370
-3
390
F
  0
LAYER
  5
20C
100
AcDbSymbolTableRecord
100
AcDbLayerTableRecord
  2
SIMBOLI
 70
0
 62
7
  6
CONTINUOUS
370
-3
390
F
  0
LAYER
  5
20D
100
AcDbSymbolTableRecord
100
AcDbLayerTableRecord
  2
SMUSSO
 70
0
 62
7
  6
CONTINUOUS
370
-3
390
F
  0
LAYER
  5
20E
100
AcDbSymbolTableRecord
100
AcDbLayerTableRecord
  2
SNAPLINE
 70
0
 62
7
  6
CONTINUOUS
370
-3
390
F
  0
LAYER
  5
20F
100
AcDbSymbolTableRecord
100
AcDbLayerTableRecord
  2
SUPERFICI
 70
0
 62
7
  6
CONTINUOUS
370
-3
390
F
  0
LAYER
  5
210
100
AcDbSymbolTableRecord
100
AcDbLayerTableRecord
  2
TRASH
 70
0
 62
7
  6
CONTINUOUS
370
-3
390
F
  0
LAYER
  5
211
100
AcDbSymbolTableRecord
100
AcDbLayerTableRecord
  2
___SHELL
 70
0
 62
7
  6
CONTINUOUS
370
-3
390
F
  0
ENDTAB
  0
TABLE
  2
STYLE
  5
3
100
AcDbSymbolTable
 70
1
  0
STYLE
  5
11
100
AcDbSymbolTableRecord
100
AcDbTextStyleTableRecord
  2
STANDARD
 70
0
 40
0.0
 41
0.8
 50
0.0
 71
0
 42
0.2
  3
txt
  4

  0
STYLE
  5
212
100
AcDbSymbolTableRecord
100
AcDbTextStyleTableRecord
  2
TEXTSTYLE_1
 70
0
 40
0.0
 41
0.8
 50
0.0
 71
0
 42
0.2
  3
gdt
  4

  0
ENDTAB
  0
TABLE
  2
VIEW
  5
6
100
AcDbSymbolTable
 70
0
  0
ENDTAB
  0
TABLE
  2
UCS
  5
7
100
AcDbSymbolTable
 70
0
  0
ENDTAB
  0
TABLE
  2
APPID
  5
9
100
AcDbSymbolTable
 70
1
  0
APPID
  5
213
100
AcDbSymbolTableRecord
100
AcDbRegAppTableRecord
  2
ACAD
 70
0
  0
ENDTAB
  0
TABLE
  2
BLOCK_RECORD
  5
1
100
AcDbSymbolTable
 70
0
  0
BLOCK_RECORD
  5
214
100
AcDbSymbolTableRecord
100
AcDbBlockTableRecord
  2
*Model_Space
  0
BLOCK_RECORD
  5
215
100
AcDbSymbolTableRecord
100
AcDbBlockTableRecord
  2
*Paper_Space
  0
BLOCK_RECORD
  5
216
100
AcDbSymbolTableRecord
100
AcDbBlockTableRecord
  2
_FILLED
  0
BLOCK_RECORD
  5
217
100
AcDbSymbolTableRecord
100
AcDbBlockTableRecord
  2
*D0
  0
BLOCK_RECORD
  5
218
100
AcDbSymbolTableRecord
100
AcDbBlockTableRecord
  2
*D1
  0
BLOCK_RECORD
  5
219
100
AcDbSymbolTableRecord
100
AcDbBlockTableRecord
  2
*D2
  0
ENDTAB
  0
TABLE
  2
DIMSTYLE
  5
A
100
AcDbSymbolTable
 70
1
100
AcDbDimStyleTable
 71
0
  0
DIMSTYLE
105
21A
100
AcDbSymbolTableRecord
100
AcDbDimStyleTableRecord
  2
STANDARD
 70
0
  3

  4

 40
1.0
 41
3.0
 42
0.0625
 43
0.38
 44
0.18
 45
0.0
 46
0.0
 47
0.01
 48
0.01
140
3.0
141
0.09
142
0.0
143
25.4
144
1.0
145
0.0
146
1.0
147
0.09
 71
1.0
 72
0.0
 73
0
 74
0
 75
0
 76
0
 77
1
 78
8
170
0
171
2
172
0
173
0
174
0
175
0
176
0
177
0
178
0
270
2
271
2
272
2
273
2
274
2
275
0
280
0
281
0
282
0
283
1
284
8
285
0
286
0
287
3
288
0
340
11
341
216
342
216
343
216
344
216
  0
DIMSTYLE
105
21B
100
AcDbSymbolTableRecord
100
AcDbDimStyleTableRecord
  2
DIMSTYLE_1
 70
0
  3

  4

 40
1.0
 41
3.0
 42
0.0625
 43
0.38
 44
0.18
 45
0.0
 46
0.0
 47
0.0
 48
0.0
140
3.0
141
0.09
142
0.0
143
25.4
144
1.0
145
0.0
146
1.0
147
0.09
 71
0.0
 72
0.0
 73
0
 74
0
 75
0
 76
0
 77
1
 78
8
170
0
171
2
172
0
173
0
174
0
175
0
176
0
177
0
178
0
270
2
271
1
272
1
273
2
274
2
275
0
280
0
281
0
282
0
283
1
284
8
285
0
286
0
287
3
288
0
340
11
341
216
342
216
343
216
344
216
  0
ENDTAB
  0
ENDSEC
  0
SECTION
  2
BLOCKS
  0
BLOCK
  5
20
100
AcDbEntity
  8
0
100
AcDbBlockBegin
  2
*Model_Space
 70
0
 10
0.0
 20
0.0
 30
0.0
  3
*Model_Space
  1

  0
ENDBLK
  5
21
100
AcDbEntity
  8
0
100
AcDbBlockEnd
  0
BLOCK
  5
1C
100
AcDbEntity
  8
0
100
AcDbBlockBegin
  2
*Paper_Space
 70
0
 10
0.0
 20
0.0
 30
0.0
  3
*Paper_Space
  1

  0
ENDBLK
  5
1D
100
AcDbEntity
  8
0
100
AcDbBlockEnd
  0
BLOCK
  5
21C
100
AcDbEntity
  8
0
100
AcDbBlockBegin
  2
_FILLED
 70
64
 10
0.0
 20
0.0
  3
_FILLED
  1

  0
SOLID
  5
21D
100
AcDbEntity
  8
0
  6
BYBLOCK
 62
0
100
AcDbTrace
 10
0.0
 20
0.0
 11
-1.0
 21
0.3166666667
 12
-1.0
 22
-0.3166666667
 13
-1.0
 23
-0.3166666667
  0
ENDBLK
  5
21E
100
AcDbEntity
  8
0
  6
BYBLOCK
 62
0
100
AcDbBlockEnd
  0
BLOCK
  5
21F
100
AcDbEntity
  8
0
100
AcDbBlockBegin
 62
7
  6
CONTINUOUS
  2
*D0
 70
65
 10
0.0
 20
0.0
  3
*D0
  1

  0
LINE
  5
220
100
AcDbEntity
  8
0
100
AcDbLine
 62
7
  6
CONTINUOUS
 10
11.037406726
 20
-22.4305789785
 11
11.037406726
 21
36.8933816869
  0
LINE
  5
221
100
AcDbEntity
  8
0
100
AcDbLine
 62
7
  6
CONTINUOUS
 10
-11.037406726
 20
22.1124414913
 11
-11.037406726
 21
36.8933816869
  0
LINE
  5
222
100
AcDbEntity
  8
0
100
AcDbLine
 62
7
  6
CONTINUOUS
 10
11.037406726
 20
35.3933816869
 11
-0.0
 21
35.3933816869
  0
LINE
  5
223
100
AcDbEntity
  8
0
100
AcDbLine
 62
7
  6
CONTINUOUS
 10
-11.037406726
 20
35.3933816869
 11
-0.0
 21
35.3933816869
  0
INSERT
  5
224
100
AcDbEntity
  8
0
100
AcDbBlockReference
 62
7
  6
CONTINUOUS
  2
_FILLED
 10
11.037406726
 20
35.3933816869
 41
3.0
 42
3.0
 43
3.0
  0
INSERT
  5
225
100
AcDbEntity
  8
0
100
AcDbBlockReference
 62
7
  6
CONTINUOUS
  2
_FILLED
 10
-11.037406726
 20
35.3933816869
 41
3.0
 42
3.0
 43
3.0
 50
180.0
  0
ENDBLK
  5
226
100
AcDbEntity
  8
0
  6
BYBLOCK
 62
0
100
AcDbBlockEnd
  0
BLOCK
  5
227
100
AcDbEntity
  8
0
100
AcDbBlockBegin
 62
7
  6
CONTINUOUS
  2
*D1
 70
65
 10
0.0
 20
0.0
  3
*D1
  1

  0
LINE
  5
228
100
AcDbEntity
  8
0
100
AcDbLine
 62
7
  6
CONTINUOUS
 10
-10.0380919586
 20
22.1117562587
 11
25.3553195672
 21
22.1117562587
  0
LINE
  5
229
100
AcDbEntity
  8
0
100
AcDbLine
 62
7
  6
CONTINUOUS
 10
11.0380919586
 20
-22.1117562587
 11
25.3553195672
 21
-22.1117562587
  0
LINE
  5
22A
100
AcDbEntity
  8
0
100
AcDbLine
 62
7
  6
CONTINUOUS
 10
23.8553195672
 20
22.1117562587
 11
23.8553195672
 21
-0.0
  0
LINE
  5
22B
100
AcDbEntity
  8
0
100
AcDbLine
 62
7
  6
CONTINUOUS
 10
23.8553195672
 20
-22.1117562587
 11
23.8553195672
 21
-0.0
  0
INSERT
  5
22C
100
AcDbEntity
  8
0
100
AcDbBlockReference
 62
7
  6
CONTINUOUS
  2
_FILLED
 10
23.8553195672
 20
22.1117562587
 41
3.0
 42
3.0
 43
3.0
 50
90.0
  0
INSERT
  5
22D
100
AcDbEntity
  8
0
100
AcDbBlockReference
 62
7
  6
CONTINUOUS
  2
_FILLED
 10
23.8553195672
 20
-22.1117562587
 41
3.0
 42
3.0
 43
3.0
 50
270.0
  0
ENDBLK
  5
22E
100
AcDbEntity
  8
0
  6
BYBLOCK
 62
0
100
AcDbBlockEnd
  0
BLOCK
  5
22F
100
AcDbEntity
  8
0
100
AcDbBlockBegin
 62
7
  6
CONTINUOUS
  2
*D2
 70
65
 10
0.0
 20
0.0
  3
*D2
  1

  0
LINE
  5
230
100
AcDbEntity
  8
0
100
AcDbLine
 62
7
  6
CONTINUOUS
 10
-34.0102264717
 20
13.7689805518
 11
-34.0102264717
 21
36.8933816869
  0
LINE
  5
231
100
AcDbEntity
  8
0
100
AcDbLine
 62
7
  6
CONTINUOUS
 10
-38.7020982406
 20
3.0499996835
 11
-38.7020982406
 21
36.8933816869
  0
LINE
  5
232
100
AcDbEntity
  8
0
100
AcDbLine
 62
7
  6
CONTINUOUS
 10
-34.0102264717
 20
35.3933816869
 11
-30.0102264717
 21
35.3933816869
  0
LINE
  5
233
100
AcDbEntity
  8
0
100
AcDbLine
 62
7
  6
CONTINUOUS
 10
-30.0102264717
 20
35.3933816869
 11
-36.3561623562
 21
35.3933816869
  0
LINE
  5
234
100
AcDbEntity
  8
0
100
AcDbLine
 62
7
  6
CONTINUOUS
 10
-38.7020982406
 20
35.3933816869
 11
-48.7003437344
 21
35.3933816869
  0
LINE
  5
235
100
AcDbEntity
  8
0
100
AcDbLine
 62
7
  6
CONTINUOUS
 10
-48.7003437344
 20
35.3933816869
 11
-36.3561623562
 21
35.3933816869
  0
INSERT
  5
236
100
AcDbEntity
  8
0
100
AcDbBlockReference
 62
7
  6
CONTINUOUS
  2
_FILLED
 10
-34.0102264717
 20
35.3933816869
 41
3.0
 42
3.0
 43
3.0
 50
180.0
  0
INSERT
  5
237
100
AcDbEntity
  8
0
100
AcDbBlockReference
 62
7
  6
CONTINUOUS
  2
_FILLED
 10
-38.7020982406
 20
35.3933816869
 41
3.0
 42
3.0
 43
3.0
  0
ENDBLK
  5
238
100
AcDbEntity
  8
0
  6
BYBLOCK
 62
0
100
AcDbBlockEnd
  0
ENDSEC
  0
SECTION
  2
ENTITIES
  0
DIMENSION
  5
239
100
AcDbEntity
  8
0
100
AcDbDimension
 62
7
  6
CONTINUOUS
  2
*D0
 10
-11.037406726
 20
35.3933816869
 11
-4.0714285714
 21
36.1433816869
 70
160
 71
2
 42
22.074813452
  3
DIMSTYLE_1
100
AcDbAlignedDimension
 13
11.037406726
 23
-22.4305789785
 14
-11.037406726
 24
22.1124414913
 50
180.0
100
AcDbRotatedDimension
  0
DIMENSION
  5
23A
100
AcDbEntity
  8
0
100
AcDbDimension
 62
7
  6
CONTINUOUS
  2
*D1
 10
23.8553195672
 20
-22.1117562587
 11
23.1053195672
 21
-4.3928571429
 70
160
 71
2
 42
44.2235125174
  3
DIMSTYLE_1
100
AcDbAlignedDimension
 13
-10.0380919586
 23
22.1117562587
 14
11.0380919586
 24
-22.1117562587
 50
270.0
100
AcDbRotatedDimension
  0
DIMENSION
  5
23B
100
AcDbEntity
  8
0
100
AcDbDimension
 62
7
  6
CONTINUOUS
  2
*D2
 10
-38.7020982406
 20
35.3933816869
 11
-48.7003437344
 21
36.1433816869
 70
160
 71
3
 42
4.6918717689
  3
DIMSTYLE_1
100
AcDbAlignedDimension
 13
-34.0102264717
 23
13.7689805518
 14
-38.7020982406
 24
3.0499996835
 50
180.0
100
AcDbRotatedDimension
  0
LWPOLYLINE
  5
23C
100
AcDbEntity
  8
0
100
AcDbPolyline
 62
7
  6
CONTINUOUS
 90
3
 70
0
 43
0.3500000006
 10
2.3571427875
 20
38.2862390442
 10
3.2142856836
 20
39.1433815155
 10
3.2142856836
 20
36.1433806
  0
LWPOLYLINE
  5
23D
100
AcDbEntity
  8
RACCORDO
100
AcDbPolyline
 62
253
  6
CONTINUOUS
 90
16
 70
0
 10
10.4516663102
 20
-22.0253306103
 10
10.5037690666
 20
-22.0224620551
 10
10.5553028853
 20
-22.0141731476
 10
10.6057051072
 20
-22.0005544084
 10
10.6544254459
 20
-21.9817545437
 10
10.7009319522
 20
-21.9579788371
 10
10.7447168289
 20
-21.9294869224
 10
10.7853020361
 20
-21.8965899146
 10
10.8222444888
 20
-21.8596470098
 10
10.8551408595
 20
-21.8190615926
 10
10.8836320105
 20
-21.77527681
 10
10.907406916
 20
-21.7287707174
 10
10.9262060426
 20
-21.6800510715
 10
10.9398241783
 20
-21.6296497963
 10
10.9481126754
 20
-21.5781171775
 10
10.9509810776
 20
-21.5260158429
  0
LWPOLYLINE
  5
23E
100
AcDbEntity
  8
RACCORDO
100
AcDbPolyline
 62
253
  6
CONTINUOUS
 90
14
 70
0
 10
10.5467846174
 20
-20.8766973698
 10
10.5927250858
 20
-20.8759631133
 10
10.6370256354
 20
-20.8750463295
 10
10.6792735144
 20
-20.8739555604
 10
10.7190750957
 20
-20.8727009687
 10
10.7560595448
 20
-20.8712942435
 10
10.7898822745
 20
-20.8697484914
 10
10.8202281557
 20
-20.8680781143
 10
10.8468144532
 20
-20.8662986753
 10
10.8693934603
 20
-20.8644267535
 10
10.8877548066
 20
-20.8624797898
 10
10.9017274179
 20
-20.8604759241
 10
10.9111811102
 20
-20.8584338268
 10
10.9160278026
 20
-20.8563725241
  0
LINE
  5
23F
100
AcDbEntity
  8
RACCORDO
100
AcDbLine
 62
253
  6
CONTINUOUS
 10
10.45170734
 20
-20.8775927014
 11
10.5467846174
 21
-20.8766973698
  0
LINE
  5
240
100
AcDbEntity
  8
RACCORDO
100
AcDbLine
 62
253
  6
CONTINUOUS
 10
-10.4516663112
 20
-22.0253306113
 11
-7.0709563508
 21
-22.0147968665
  0
LINE
  5
241
100
AcDbEntity
  8
RACCORDO
100
AcDbLine
 62
253
  6
CONTINUOUS
 10
-7.0709563508
 20
-22.0147968665
 11
-3.6871602833
 21
-22.0083287978
  0
LINE
  5
242
100
AcDbEntity
  8
RACCORDO
100
AcDbLine
 62
253
  6
CONTINUOUS
 10
-10.4517073418
 20
-20.8775926608
 11
-5.0383196122
 21
-20.8718913483
  0
LINE
  5
243
100
AcDbEntity
  8
RACCORDO
100
AcDbLine
 62
253
  6
CONTINUOUS
 10
-3.6871602833
 20
-22.0083287978
 11
-0.3017398533
 21
-22.0059300251
  0
LINE
  5
244
100
AcDbEntity
  8
0
100
AcDbLine
 62
7
  6
CONTINUOUS
 10
-10.5380919586
 20
-22.1117562587
 11
10.5380919586
 21
-22.1117562587
  0
LINE
  5
245
100
AcDbEntity
  8
RACCORDO
100
AcDbLine
 62
253
  6
CONTINUOUS
 10
-5.0383196122
 20
-20.8718913483
 11
0.3802736877
 21
-20.8701786604
  0
LINE
  5
246
100
AcDbEntity
  8
RACCORDO
100
AcDbLine
 62
253
  6
CONTINUOUS
 10
0.3802736877
 20
-20.8701786604
 11
5.1443072636
 21
-20.8719616466
  0
LINE
  5
247
100
AcDbEntity
  8
RACCORDO
100
AcDbLine
 62
253
  6
CONTINUOUS
 10
-0.3017398533
 20
-22.0059300251
 11
3.0778248258
 21
-22.0075931727
  0
LINE
  5
248
100
AcDbEntity
  8
RACCORDO
100
AcDbLine
 62
253
  6
CONTINUOUS
 10
5.1443072636
 20
-20.8719616466
 11
10.4517073401
 21
-20.877592659
  0
LINE
  5
249
100
AcDbEntity
  8
RACCORDO
100
AcDbLine
 62
253
  6
CONTINUOUS
 10
3.0778248258
 20
-22.0075931727
 11
5.8412638358
 21
-22.0119754398
  0
LINE
  5
24A
100
AcDbEntity
  8
RACCORDO
100
AcDbLine
 62
253
  6
CONTINUOUS
 10
5.8412638358
 20
-22.0119754398
 11
8.8290977026
 21
-22.0197905108
  0
LINE
  5
24B
100
AcDbEntity
  8
RACCORDO
100
AcDbLine
 62
253
  6
CONTINUOUS
 10
8.8290977026
 20
-22.0197905108
 11
10.4516663102
 21
-22.0253306103
  0
LWPOLYLINE
  5
24C
100
AcDbEntity
  8
RACCORDO
100
AcDbPolyline
 62
253
  6
CONTINUOUS
 90
15
 70
0
 10
-10.4517064338
 20
-20.8775921467
 10
-10.5467828481
 20
-20.8766968422
 10
-10.5927229449
 20
-20.8759626079
 10
-10.637023179
 20
-20.875045852
 10
-10.6792708092
 20
-20.8739551156
 10
-10.7190722186
 20
-20.8727005609
 10
-10.7560565814
 20
-20.8712938762
 10
-10.7898793179
 20
-20.8697481676
 10
-10.820225305
 20
-20.8680778363
 10
-10.8468118121
 20
-20.8662984446
 10
-10.8693911354
 20
-20.864426571
 10
-10.8877529054
 20
-20.8624796554
 10
-10.9017260474
 20
-20.8604758371
 10
-10.911180375
 20
-20.8584337854
 10
-10.9160278031
 20
-20.856372526
  0
LWPOLYLINE
  5
24D
100
AcDbEntity
  8
RACCORDO
100
AcDbPolyline
 62
253
  6
CONTINUOUS
 90
16
 70
0
 10
-10.4516663112
 20
-22.0253306113
 10
-10.5037684339
 20
-22.0224621246
 10
-10.5553017021
 20
-22.0141734038
 10
-10.6057034721
 20
-22.0005549456
 10
-10.6544234538
 20
-21.9817554372
 10
-10.7009297193
 20
-21.957980133
 10
-10.74471451
 20
-21.9294886134
 10
-10.7852997805
 20
-21.8965919507
 10
-10.8222424182
 20
-21.859649313
 10
-10.8551390808
 20
-21.8190640424
 10
-10.8836306004
 20
-21.7752792517
 10
-10.9074059045
 20
-21.7287729862
 10
-10.9262054128
 20
-21.6800530045
 10
-10.939823871
 20
-21.6296512346
 10
-10.9481125919
 20
-21.5781179665
 10
-10.9509810786
 20
-21.5260158439
  0
LINE
  5
24E
100
AcDbEntity
  8
RACCORDO
100
AcDbLine
 62
253
  6
CONTINUOUS
 10
-10.9198842104
 20
21.1394682369
 11
-10.9178986357
 21
21.048481899
  0
LINE
  5
24F
100
AcDbEntity
  8
RACCORDO
100
AcDbLine
 62
253
  6
CONTINUOUS
 10
-10.9178986357
 20
21.048481899
 11
-10.916608781
 21
20.9538684136
  0
LINE
  5
250
100
AcDbEntity
  8
RACCORDO
100
AcDbLine
 62
253
  6
CONTINUOUS
 10
-10.916608781
 20
20.9538684136
 11
-10.9160278032
 21
20.856372526
  0
LWPOLYLINE
  5
251
100
AcDbEntity
  8
RACCORDO
100
AcDbPolyline
 62
253
  6
CONTINUOUS
 90
9
 70
0
 10
-10.9160278032
 20
20.856372526
 10
-10.9067976127
 20
16.2235174718
 10
-10.8998749702
 20
11.5897149038
 10
-10.8952598757
 20
6.9549648218
 10
-10.8929523297
 20
2.3186353394
 10
-10.8929523316
 20
-2.3186416569
 10
-10.89525988
 20
-6.9549705075
 10
-10.8998749746
 20
-11.589719326
 10
-10.9067976156
 20
-16.2235199988
  0
LINE
  5
252
100
AcDbEntity
  8
RACCORDO
100
AcDbLine
 62
253
  6
CONTINUOUS
 10
-10.4421594243
 20
11.6020450577
 11
-10.4380674491
 21
2.3208472824
  0
LINE
  5
253
100
AcDbEntity
  8
0
100
AcDbLine
 62
7
  6
CONTINUOUS
 10
-11.037406726
 20
21.6124414913
 11
-11.037406726
 21
-21.6124414913
  0
LINE
  5
254
100
AcDbEntity
  8
RACCORDO
100
AcDbLine
 62
253
  6
CONTINUOUS
 10
-10.4380674491
 20
2.3208472824
 11
-10.4394314443
 21
-6.9620306059
  0
LINE
  5
255
100
AcDbEntity
  8
RACCORDO
100
AcDbLine
 62
253
  6
CONTINUOUS
 10
-10.4394314443
 20
-6.9620306059
 11
-10.4462513957
 21
-16.2407094179
  0
LINE
  5
256
100
AcDbEntity
  8
RACCORDO
100
AcDbLine
 62
253
  6
CONTINUOUS
 10
-10.4462513957
 20
-16.2407094179
 11
-10.4512042609
 21
-21.8942417473
  0
LINE
  5
257
100
AcDbEntity
  8
RACCORDO
100
AcDbLine
 62
253
  6
CONTINUOUS
 10
-10.4515204152
 20
22.0179295951
 11
-10.4421594243
 21
11.6020450577
  0
LINE
  5
258
100
AcDbEntity
  8
RACCORDO
100
AcDbLine
 62
253
  6
CONTINUOUS
 10
-10.9067976156
 20
-16.2235199988
 11
-10.9162301691
 21
-20.9055043316
  0
LWPOLYLINE
  5
259
100
AcDbEntity
  8
RACCORDO
100
AcDbPolyline
 62
253
  6
CONTINUOUS
 90
3
 70
0
 10
-10.4512042609
 20
-21.8942417473
 10
-10.4515203381
 20
-22.0179297525
 10
-10.4516663112
 20
-22.0253306113
  0
LINE
  5
25A
100
AcDbEntity
  8
RACCORDO
100
AcDbLine
 62
253
  6
CONTINUOUS
 10
-10.9162301691
 20
-20.9055043316
 11
-10.9171632032
 21
-21.0014233887
  0
LWPOLYLINE
  5
25B
100
AcDbEntity
  8
RACCORDO
100
AcDbPolyline
 62
253
  6
CONTINUOUS
 90
18
 70
0
 10
-10.9171632032
 20
-21.0014233887
 10
-10.9188094204
 20
-21.0947135168
 10
-10.9198835105
 20
-21.1394405895
 10
-10.9211228558
 20
-21.1825971591
 10
-10.9225251322
 20
-21.2242264963
 10
-10.9240701974
 20
-21.2637126991
 10
-10.9257603461
 20
-21.3010267123
 10
-10.9275932837
 20
-21.336197591
 10
-10.9295419835
 20
-21.3686965981
 10
-10.9316081962
 20
-21.3984823398
 10
-10.9337901712
 20
-21.4255962099
 10
-10.936055629
 20
-21.4496336519
 10
-10.9384069907
 20
-21.4705497529
 10
-10.9408418352
 20
-21.4883894257
 10
-10.9433206205
 20
-21.502882853
 10
-10.9458301658
 20
-21.5139400955
 10
-10.9483836518
 20
-21.5216510925
 10
-10.9509810786
 20
-21.5260158439
  0
LINE
  5
25C
100
AcDbEntity
  8
RACCORDO
100
AcDbLine
 62
253
  6
CONTINUOUS
 10
-10.4516663112
 20
22.0253306113
 11
-10.4515204152
 21
22.0179295951
  0
LWPOLYLINE
  5
25D
100
AcDbEntity
  8
0
100
AcDbPolyline
 62
7
  6
CONTINUOUS
 90
3
 70
0
 43
0.3500000006
 10
1.3571429071
 20
36.4290962677
 10
1.2857142735
 20
36.2148117828
 10
1.1428571477
 20
35.9290961151
  0
LINE
  5
25E
100
AcDbEntity
  8
0
100
AcDbLine
 62
253
  6
CONTINUOUS
 10
10.4516663102
 20
22.0253306103
 11
10.5380919586
 21
22.1117562587
  0
LINE
  5
25F
100
AcDbEntity
  8
0
100
AcDbLine
 62
253
  6
CONTINUOUS
 10
10.5380919586
 20
-22.1117562587
 11
10.4516663102
 21
-22.0253306103
  0
LINE
  5
260
100
AcDbEntity
  8
0
100
AcDbLine
 62
253
  6
CONTINUOUS
 10
10.9509810776
 20
21.5260158429
 11
11.037406726
 21
21.6124414913
  0
LINE
  5
261
100
AcDbEntity
  8
0
100
AcDbLine
 62
253
  6
CONTINUOUS
 10
11.037406726
 20
-21.6124414913
 11
10.9509810776
 21
-21.5260158429
  0
LINE
  5
262
100
AcDbEntity
  8
0
100
AcDbLine
 62
7
  6
CONTINUOUS
 10
-2.4038700845
 20
-1.8384110257
 11
-2.4039586664
 21
-1.8404348844
  0
LWPOLYLINE
  5
263
100
AcDbEntity
  8
0
100
AcDbPolyline
 62
7
  6
CONTINUOUS
 90
4
 70
0
 10
-2.4038700846
 20
-1.8384110257
 10
-2.4039927997
 20
-1.840328281
 10
-2.4037471368
 20
-1.8422325244
 10
-2.4032069186
 20
-1.8438596199
  0
LINE
  5
264
100
AcDbEntity
  8
0
100
AcDbLine
 62
7
  6
CONTINUOUS
 10
-3.0523606929
 20
-2.1448886096
 11
-3.0498850114
 21
-2.1112410876
  0
LWPOLYLINE
  5
265
100
AcDbEntity
  8
0
100
AcDbPolyline
 62
7
  6
CONTINUOUS
 90
3
 70
0
 10
-3.0498857838
 20
-2.1112409873
 10
-2.9751217261
 20
-1.6162512769
 10
-2.8802795644
 20
-1.1246100491
  0
LINE
  5
266
100
AcDbEntity
  8
0
100
AcDbLine
 62
7
  6
CONTINUOUS
 10
-2.32630075
 20
-1.4083877307
 11
-2.4038700845
 21
-1.8384110257
  0
LINE
  5
267
100
AcDbEntity
  8
0
100
AcDbLine
 62
7
  6
CONTINUOUS
 10
-2.2326495711
 20
-0.9811168981
 11
-2.3261326054
 21
-1.4076549884
  0
LINE
  5
268
100
AcDbEntity
  8
0
100
AcDbLine
 62
7
  6
CONTINUOUS
 10
-2.8802795644
 20
-1.1246100491
 11
-2.7655195837
 21
-0.6371755316
  0
LINE
  5
269
100
AcDbEntity
  8
0
100
AcDbLine
 62
7
  6
CONTINUOUS
 10
-2.1232977695
 20
-0.5583562878
 11
-2.2327324603
 21
-0.9814970719
  0
LWPOLYLINE
  5
26A
100
AcDbEntity
  8
0
100
AcDbPolyline
 62
7
  6
CONTINUOUS
 90
3
 70
0
 10
-2.7655157594
 20
-0.6371592884
 10
-2.6309605371
 20
-0.1546043791
 10
-2.4768386037
 20
0.3222011618
  0
LWPOLYLINE
  5
26B
100
AcDbEntity
  8
0
100
AcDbPolyline
 62
7
  6
CONTINUOUS
 90
3
 70
0
 10
-1.8573361535
 20
0.2745162999
 10
-1.9981064296
 20
-0.1394780859
 10
-2.1232977695
 20
-0.5583562878
  0
LWPOLYLINE
  5
26C
100
AcDbEntity
  8
0
100
AcDbPolyline
 62
7
  6
CONTINUOUS
 90
3
 70
0
 10
-2.4765722693
 20
0.3227101099
 10
-2.3033442723
 20
0.7925786971
 10
-2.1115380655
 20
1.25392378
  0
LWPOLYLINE
  5
26D
100
AcDbEntity
  8
0
100
AcDbPolyline
 62
7
  6
CONTINUOUS
 90
3
 70
0
 10
-1.5304065193
 20
1.0842541327
 10
-1.7012539585
 20
0.6828480874
 10
-1.8572667643
 20
0.2745311913
  0
LINE
  5
26E
100
AcDbEntity
  8
0
100
AcDbLine
 62
7
  6
CONTINUOUS
 10
-2.1112367286
 20
1.2545820614
 11
-1.9003845075
 21
1.7086862874
  0
LINE
  5
26F
100
AcDbEntity
  8
0
100
AcDbLine
 62
7
  6
CONTINUOUS
 10
-1.9008575196
 20
1.7076453944
 11
-1.6713020376
 21
2.1537429289
  0
LWPOLYLINE
  5
270
100
AcDbEntity
  8
0
100
AcDbPolyline
 62
7
  6
CONTINUOUS
 90
3
 70
0
 10
-1.1435219254
 20
1.868350138
 10
-1.3440920646
 20
1.4802929465
 10
-1.5300931254
 20
1.0849384771
  0
LWPOLYLINE
  5
271
100
AcDbEntity
  8
0
100
AcDbPolyline
 62
7
  6
CONTINUOUS
 90
21
 70
0
 10
-1.6713020376
 20
2.1537429289
 10
-1.605342206
 20
2.266408752
 10
-1.5311706396
 20
2.3750924913
 10
-1.4487511772
 20
2.4792395954
 10
-1.3590886105
 20
2.5775097598
 10
-1.2632064462
 20
2.6691192286
 10
-1.1606650985
 20
2.7542832545
 10
-1.0522599748
 20
2.8319427609
 10
-0.9396013741
 20
2.9013105808
 10
-0.822853641
 20
2.9625695921
 10
-0.7028271971
 20
3.0153089071
 10
-0.5804883194
 20
3.0592464676
 10
-0.4561188414
 20
3.0944595667
 10
-0.330482441
 20
3.1209098086
 10
-0.2046435757
 20
3.1387794541
 10
-0.0794144064
 20
3.1483046786
 10
0.0441830398
 20
3.1495914704
 10
0.1654683634
 20
3.1428825203
 10
0.2842091691
 20
3.1286326828
 10
0.4009823581
 20
3.1072150907
 10
0.5157874706
 20
3.0786822866
  0
LWPOLYLINE
  5
272
100
AcDbEntity
  8
0
100
AcDbPolyline
 62
7
  6
CONTINUOUS
 90
9
 70
0
 10
-1.6115376684
 20
2.2564269249
 10
-1.5459814627
 20
2.3545603461
 10
-1.4746333582
 20
2.4481431974
 10
-1.397122225
 20
2.5375502018
 10
-1.3138190671
 20
2.622406639
 10
-1.2258370408
 20
2.7015883505
 10
-1.133230148
 20
2.7749394125
 10
-1.0359443205
 20
2.8426157504
 10
-0.9349306462
 20
2.9039609849
  0
LWPOLYLINE
  5
273
100
AcDbEntity
  8
0
100
AcDbPolyline
 62
7
  6
CONTINUOUS
 90
3
 70
0
 10
-1.0535617255
 20
2.0116231874
 10
-1.1008851473
 20
1.9414328225
 10
-1.1435219254
 20
1.868350138
  0
LINE
  5
274
100
AcDbEntity
  8
0
100
AcDbLine
 62
7
  6
CONTINUOUS
 10
-1.001664857
 20
2.0786732015
 11
-1.053543293
 21
2.011647002
  0
LWPOLYLINE
  5
275
100
AcDbEntity
  8
0
100
AcDbPolyline
 62
7
  6
CONTINUOUS
 90
4
 70
0
 10
-0.8214333042
 20
2.2575556899
 10
-0.8853915718
 20
2.2017928475
 10
-0.9458501528
 20
2.141750136
 10
-1.0019757834
 20
2.078297515
  0
LINE
  5
276
100
AcDbEntity
  8
0
100
AcDbLine
 62
7
  6
CONTINUOUS
 10
-0.7532509084
 20
2.3095394774
 11
-0.8209681743
 21
2.2579352016
  0
LWPOLYLINE
  5
277
100
AcDbEntity
  8
0
100
AcDbPolyline
 62
7
  6
CONTINUOUS
 90
12
 70
0
 10
-0.8300355698
 20
2.9589983075
 10
-0.7214126472
 20
3.0077045243
 10
-0.6104736722
 20
3.0493536833
 10
-0.496927286
 20
3.0837474987
 10
-0.3810649234
 20
3.1110842545
 10
-0.2651726083
 20
3.1312328648
 10
-0.1494374489
 20
3.1439948441
 10
-0.0336724654
 20
3.1495686839
 10
0.0803974335
 20
3.1484187759
 10
0.1923718603
 20
3.1404554327
 10
0.3026510873
 20
3.1257683524
 10
0.4107112032
 20
3.1050910102
  0
LWPOLYLINE
  5
278
100
AcDbEntity
  8
0
100
AcDbPolyline
 62
7
  6
CONTINUOUS
 90
6
 70
0
 10
-0.3752166898
 20
2.4947145794
 10
-0.4551865117
 20
2.4677198767
 10
-0.5335198733
 20
2.4354696786
 10
-0.6093935568
 20
2.3982950544
 10
-0.6828798327
 20
2.3560915071
 10
-0.7539064234
 20
2.3089635321
  0
LWPOLYLINE
  5
279
100
AcDbEntity
  8
0
100
AcDbPolyline
 62
7
  6
CONTINUOUS
 90
4
 70
0
 10
-2.0412062618
 20
-2.4427354404
 10
-2.062510442
 20
-2.446762805
 10
-2.0840580106
 20
-2.449188688
 10
-2.1057367021
 20
-2.45
  0
LINE
  5
27A
100
AcDbEntity
  8
0
100
AcDbLine
 62
7
  6
CONTINUOUS
 10
1.038471914
 20
-1.8572664896
 11
1.0597766668
 21
-1.8532383918
  0
LWPOLYLINE
  5
27B
100
AcDbEntity
  8
0
100
AcDbPolyline
 62
7
  6
CONTINUOUS
 90
3
 70
0
 10
2.3940094531
 20
-1.8499923698
 10
2.3960201607
 20
-1.8497575456
 10
2.3978360058
 20
-1.8492189823
  0
LWPOLYLINE
  5
27C
100
AcDbEntity
  8
0
100
AcDbPolyline
 62
7
  6
CONTINUOUS
 90
3
 70
0
 10
1.0597766668
 20
-1.8532383918
 10
1.0813248487
 20
-1.8508118602
 10
1.1030041307
 20
-1.85
  0
LINE
  5
27D
100
AcDbEntity
  8
0
100
AcDbLine
 62
7
  6
CONTINUOUS
 10
2.3940094531
 20
-1.8499923698
 11
2.3959194229
 21
-1.849808313
  0
LWPOLYLINE
  5
27E
100
AcDbEntity
  8
0
100
AcDbPolyline
 62
7
  6
CONTINUOUS
 90
2
 70
0
 43
0.3500000006
 10
23.1053206558
 20
-3.3928568802
 10
21.6053201981
 20
-3.3928568802
  0
LINE
  5
27F
100
AcDbEntity
  8
0
100
AcDbLine
 62
7
  6
CONTINUOUS
 10
-2.1057692478
 20
-2.4500056997
 11
-2.7524496666
 21
-2.4499935815
  0
LINE
  5
280
100
AcDbEntity
  8
0
100
AcDbLine
 62
7
  6
CONTINUOUS
 10
2.7524053693
 20
-2.4499854043
 11
1.1030700733
 21
-2.4500099309
  0
LINE
  5
281
100
AcDbEntity
  8
0
100
AcDbLine
 62
7
  6
CONTINUOUS
 10
-2.3940102803
 20
-1.8499981176
 11
-2.1057284449
 21
-1.8500019154
  0
LINE
  5
282
100
AcDbEntity
  8
0
100
AcDbLine
 62
7
  6
CONTINUOUS
 10
1.1029701675
 20
-1.8500055867
 11
2.3940094531
 21
-1.8499923698
  0
LWPOLYLINE
  5
283
100
AcDbEntity
  8
0
100
AcDbPolyline
 62
7
  6
CONTINUOUS
 90
4
 70
0
 10
1.1030084519
 20
-2.45
 10
1.0813259613
 20
-2.4491854737
 10
1.0597819974
 20
-2.4467547891
 10
1.0384879896
 20
-2.4427277277
  0
LINE
  5
284
100
AcDbEntity
  8
0
100
AcDbLine
 62
7
  6
CONTINUOUS
 10
-2.1057284467
 20
-1.85
 11
-2.0840479904
 21
-1.8508148205
  0
LWPOLYLINE
  5
285
100
AcDbEntity
  8
0
100
AcDbPolyline
 62
7
  6
CONTINUOUS
 90
19
 70
0
 10
-2.7524496666
 20
-2.4499935815
 10
-2.7804842299
 20
-2.4487046084
 10
-2.8079649994
 20
-2.4448518741
 10
-2.8348919796
 20
-2.4384353803
 10
-2.8615391655
 20
-2.429369879
 10
-2.8876325691
 20
-2.4177406206
 10
-2.9123502281
 20
-2.4038033535
 10
-2.9356436042
 20
-2.3874540477
 10
-2.9575612586
 20
-2.3687967338
 10
-2.9774268915
 20
-2.3483992512
 10
-2.9951361816
 20
-2.3262642706
 10
-3.0107934786
 20
-2.3023891195
 10
-3.0240354937
 20
-2.2773336224
 10
-3.0348209826
 20
-2.2509917049
 10
-3.0431912113
 20
-2.2234694376
 10
-3.048906657
 20
-2.1956448627
 10
-3.0518874817
 20
-2.1678106599
 10
-3.052213532
 20
-2.1396741455
 10
-3.0498848084
 20
-2.1112353174
  0
LWPOLYLINE
  5
286
100
AcDbEntity
  8
0
100
AcDbPolyline
 62
7
  6
CONTINUOUS
 90
16
 70
0
 10
-2.1057185604
 20
-1.8500019155
 10
-2.0755013112
 20
-1.8515853589
 10
-2.0460882914
 20
-1.8561696317
 10
-2.0174795082
 20
-1.8637547354
 10
-1.9893507844
 20
-1.8744600979
 10
-1.9620263088
 20
-1.8881662929
 10
-1.936478644
 20
-1.9045150401
 10
-1.9127577864
 20
-1.9236380862
 10
-1.890813762
 20
-1.9454036837
 10
-1.8714691863
 20
-1.9690583111
 10
-1.8548465679
 20
-1.9946896299
 10
-1.8408234206
 20
-2.0222099754
 10
-1.8298548717
 20
-2.0506028374
 10
-1.8220926351
 20
-2.0795293782
 10
-1.8173850101
 20
-2.1093284318
 10
-1.815732
 20
-2.1399999958
  0
LWPOLYLINE
  5
287
100
AcDbEntity
  8
0
100
AcDbPolyline
 62
7
  6
CONTINUOUS
 90
16
 70
0
 10
1.1030700733
 20
-2.4500099309
 10
1.0728200999
 20
-2.4484216697
 10
1.04338244
 20
-2.4438338301
 10
1.0147570979
 20
-2.4362464113
 10
0.9866226326
 20
-2.4255404963
 10
0.959300492
 20
-2.4118349992
 10
0.933755016
 20
-2.3954866661
 10
0.9100332993
 20
-2.3763630694
 10
0.8880882586
 20
-2.3545966342
 10
0.868742971
 20
-2.3309413875
 10
0.8521201877
 20
-2.305309891
 10
0.8380971682
 20
-2.2777895819
 10
0.827128753
 20
-2.2493968038
 10
0.8193665578
 20
-2.2204703387
 10
0.814658973
 20
-2.1906714056
 10
0.813006
 20
-2.1600000046
  0
LWPOLYLINE
  5
288
100
AcDbEntity
  8
0
100
AcDbPolyline
 62
7
  6
CONTINUOUS
 90
15
 70
0
 10
-2.7524053278
 20
-2.4500003004
 10
-2.7856455766
 20
-2.4481463462
 10
-2.8186706221
 20
-2.4425846404
 10
-2.8510566022
 20
-2.4333156694
 10
-2.8824007902
 20
-2.420374466
 10
-2.9122601161
 20
-2.4038601884
 10
-2.9401523904
 20
-2.3839518296
 10
-2.9656798479
 20
-2.3609505538
 10
-2.9883993911
 20
-2.33524099
 10
-3.0079228938
 20
-2.3072419033
 10
-3.0240790493
 20
-2.2772403451
 10
-3.0367632011
 20
-2.2454730884
 10
-3.0458081644
 20
-2.2124487469
 10
-3.0510270386
 20
-2.178752884
 10
-3.0523606929
 20
-2.1448886096
  0
LINE
  5
289
100
AcDbEntity
  8
0
100
AcDbLine
 62
7
  6
CONTINUOUS
 10
-2.3959202316
 20
-1.8498140645
 11
-2.3940102803
 21
-1.8499981176
  0
LWPOLYLINE
  5
28A
100
AcDbEntity
  8
0
100
AcDbPolyline
 62
7
  6
CONTINUOUS
 90
3
 70
0
 10
-2.0840479904
 20
-1.8508148205
 10
-2.0625059998
 20
-1.8532455043
 10
-2.0412138376
 20
-1.857272302
  0
LWPOLYLINE
  5
28B
100
AcDbEntity
  8
0
100
AcDbPolyline
 62
7
  6
CONTINUOUS
 90
7
 70
0
 10
-2.0202998068
 20
-1.8628698847
 10
-1.9998552804
 20
-1.8700181687
 10
-1.9799553068
 20
-1.8786948018
 10
-1.9607262452
 20
-1.8888585227
 10
-1.9423276161
 20
-1.9004208874
 10
-1.9248945685
 20
-1.9132878555
 10
-1.9085060842
 20
-1.9273926568
  0
LWPOLYLINE
  5
28C
100
AcDbEntity
  8
0
100
AcDbPolyline
 62
7
  6
CONTINUOUS
 90
7
 70
0
 10
1.0175722114
 20
-2.4371296237
 10
0.9971261728
 20
-2.4299806127
 10
0.9772252038
 20
-2.4213032225
 10
0.957995831
 20
-2.4111389296
 10
0.939597336
 20
-2.3995761983
 10
0.9221645102
 20
-2.386708903
 10
0.9057761978
 20
-2.3726037328
  0
LWPOLYLINE
  5
28D
100
AcDbEntity
  8
0
100
AcDbPolyline
 62
7
  6
CONTINUOUS
 90
12
 70
0
 10
-0.8797774603
 20
-3.0283312135
 10
-0.9247846352
 20
-2.9930474216
 10
-0.9662235318
 20
-2.954354062
 10
-1.0040003921
 20
-2.9121226655
 10
-1.0382090028
 20
-2.8664816956
 10
-1.0680657371
 20
-2.8186750645
 10
-1.0934026905
 20
-2.7687167207
 10
-1.1143877976
 20
-2.71659271
 10
-1.1307411921
 20
-2.6635050958
 10
-1.1423695915
 20
-2.6098545654
 10
-1.1493662961
 20
-2.5552404275
 10
-1.1517313107
 20
-2.4996626787
  0
LINE
  5
28E
100
AcDbEntity
  8
0
100
AcDbLine
 62
7
  6
CONTINUOUS
 10
-2.4009583891
 20
-1.8471857484
 11
-2.399459328
 21
-1.8483814435
  0
LWPOLYLINE
  5
28F
100
AcDbEntity
  8
0
100
AcDbPolyline
 62
7
  6
CONTINUOUS
 90
7
 70
0
 10
-1.8932151282
 20
-1.9426738037
 10
-1.8790955798
 20
-1.9590623686
 10
-1.8662236106
 20
-1.9765011613
 10
-1.85466671
 20
-1.9949074408
 10
-1.8444970821
 20
-2.014144408
 10
-1.8357907558
 20
-2.0340603733
 10
-1.8286104075
 20
-2.054531151
  0
LWPOLYLINE
  5
290
100
AcDbEntity
  8
0
100
AcDbPolyline
 62
7
  6
CONTINUOUS
 90
7
 70
0
 10
-2.4031440321
 20
-1.8440502298
 10
-2.4021947219
 20
-1.8456950192
 10
-2.4009148122
 20
-1.8471956848
 10
-2.399442585
 20
-1.8483923182
 10
-2.3978241344
 20
-1.8492316168
 10
-2.3960133662
 20
-1.8497668833
 10
-2.3940102803
 20
-1.8499981176
  0
LINE
  5
291
100
AcDbEntity
  8
0
100
AcDbLine
 62
7
  6
CONTINUOUS
 10
-2.4031424329
 20
-1.8440538458
 11
-2.4022012664
 21
-1.8457253575
  0
LWPOLYLINE
  5
292
100
AcDbEntity
  8
0
100
AcDbPolyline
 62
7
  6
CONTINUOUS
 90
4
 70
0
 10
-1.8229979775
 20
-2.0754682163
 10
-1.8189700215
 20
-2.0967732105
 10
-1.8165436847
 20
-2.1183212573
 10
-1.815732
 20
-2.14
  0
LINE
  5
293
100
AcDbEntity
  8
0
100
AcDbLine
 62
7
  6
CONTINUOUS
 10
0.1453360968
 20
-2.438117283
 11
0.1482687176
 21
-2.4996625454
  0
LINE
  5
294
100
AcDbEntity
  8
0
100
AcDbLine
 62
7
  6
CONTINUOUS
 10
-1.1488741059
 20
-2.5603812009
 11
-1.1517312824
 21
-2.4996625454
  0
LINE
  5
295
100
AcDbEntity
  8
0
100
AcDbLine
 62
7
  6
CONTINUOUS
 10
-1.815732
 20
-2.14
 11
-1.815732
 21
-2.16
  0
LINE
  5
296
100
AcDbEntity
  8
0
100
AcDbLine
 62
7
  6
CONTINUOUS
 10
-1.815732
 20
-2.16
 11
-1.8165468483
 21
-2.1816843419
  0
LWPOLYLINE
  5
297
100
AcDbEntity
  8
0
100
AcDbPolyline
 62
7
  6
CONTINUOUS
 90
12
 70
0
 10
-1.1517313107
 20
-2.4996626787
 10
-1.1488400597
 20
-2.4384904121
 10
-1.1401826614
 20
-2.3777029762
 10
-1.1257845326
 20
-2.3178495303
 10
-1.105713417
 20
-2.2594697792
 10
-1.0801356034
 20
-2.2031114365
 10
-1.0492474165
 20
-2.1493411254
 10
-1.0132431866
 20
-2.0986002077
 10
-0.9724627678
 20
-2.0514296785
 10
-0.9274301285
 20
-2.0084728665
 10
-0.8787473753
 20
-1.9701896959
 10
-0.8267856292
 20
-1.9367772189
  0
LWPOLYLINE
  5
298
100
AcDbEntity
  8
0
100
AcDbPolyline
 62
7
  6
CONTINUOUS
 90
33
 70
0
 10
0.1482687558
 20
-2.4996621335
 10
0.1452722281
 20
-2.5620066576
 10
0.1362698532
 20
-2.6239847288
 10
0.1212427862
 20
-2.6851405921
 10
0.1002263795
 20
-2.7449132598
 10
0.0734967818
 20
-2.8023197121
 10
0.0417898127
 20
-2.8561684339
 10
0.0056424524
 20
-2.9059491688
 10
-0.0348019412
 20
-2.9518459809
 10
-0.079258147
 20
-2.9936720796
 10
-0.1275104695
 20
-3.0311733195
 10
-0.1793163172
 20
-3.0640644029
 10
-0.23437226
 20
-3.092076716
 10
-0.2921268052
 20
-3.1148992009
 10
-0.3518404229
 20
-3.1321531527
 10
-0.4126858465
 20
-3.1435537229
 10
-0.473964595
 20
-3.149078368
 10
-0.5353733963
 20
-3.1487801645
 10
-0.5967467933
 20
-3.1426610581
 10
-0.6577377987
 20
-3.1306601652
 10
-0.7174929024
 20
-3.11280472
 10
-0.7751031065
 20
-3.0893731686
 10
-0.8298931895
 20
-3.0607417721
 10
-0.881586568
 20
-3.0271218629
 10
-0.9299445315
 20
-2.9886838164
 10
-0.9746129748
 20
-2.9456136203
 10
-1.0150390935
 20
-2.8983714627
 10
-1.0507136709
 20
-2.8476489057
 10
-1.081266519
 20
-2.7940415097
 10
-1.1064752977
 20
-2.7380182769
 10
-1.1261925335
 20
-2.6800935947
 10
-1.1403412415
 20
-2.6207183352
 10
-1.1488741059
 20
-2.5603812009
  0
LWPOLYLINE
  5
299
100
AcDbEntity
  8
0
100
AcDbPolyline
 62
7
  6
CONTINUOUS
 90
16
 70
0
 10
-1.815732
 20
-2.160000262
 10
-1.8173155631
 20
-2.190219666
 10
-1.8218995417
 20
-2.2196341517
 10
-1.8294839325
 20
-2.248243718
 10
-1.8401878726
 20
-2.2763721141
 10
-1.8538922123
 20
-2.3036955884
 10
-1.8702395165
 20
-2.3292428901
 10
-1.8893618231
 20
-2.3529647034
 10
-1.9111270715
 20
-2.3749103444
 10
-1.9347816814
 20
-2.3942565142
 10
-1.9604118229
 20
-2.4108803535
 10
-1.987931302
 20
-2.4249047245
 10
-2.0163280009
 20
-2.4358749139
 10
-2.0452645455
 20
-2.4436393524
 10
-2.075078297
 20
-2.4483496138
 10
-2.1057692478
 20
-2.4500056997
  0
LINE
  5
29A
100
AcDbEntity
  8
0
100
AcDbLine
 62
7
  6
CONTINUOUS
 10
-1.8165468483
 20
-2.1816843419
 11
-1.8189781072
 21
-2.2032299655
  0
LWPOLYLINE
  5
29B
100
AcDbEntity
  8
0
100
AcDbPolyline
 62
7
  6
CONTINUOUS
 90
11
 70
0
 10
-1.149289368
 20
-2.4432395995
 10
-1.142086169
 20
-2.3878364694
 10
-1.130121709
 20
-2.3334532884
 10
-1.1132468772
 20
-2.2796272734
 10
-1.0916107652
 20
-2.2268212055
 10
-1.0656606687
 20
-2.1764234353
 10
-1.035283855
 20
-2.1285373499
 10
-1.0005930263
 20
-2.0830595662
 10
-0.9623736331
 20
-2.0410682846
 10
-0.9205317039
 20
-2.0026502089
 10
-0.8751611816
 20
-1.9677186425
  0
LINE
  5
29C
100
AcDbEntity
  8
0
100
AcDbLine
 62
7
  6
CONTINUOUS
 10
-1.8189781072
 20
-2.2032299655
 11
-1.8230059538
 21
-2.224525404
  0
LWPOLYLINE
  5
29D
100
AcDbEntity
  8
0
100
AcDbPolyline
 62
7
  6
CONTINUOUS
 90
7
 70
0
 10
-1.8286050248
 20
-2.2454423966
 10
-1.8357551281
 20
-2.2658893667
 10
-1.8444336163
 20
-2.2857908456
 10
-1.8545989164
 20
-2.3050202934
 10
-1.8661625014
 20
-2.3234184956
 10
-1.8790304587
 20
-2.3408507117
 10
-1.8931360348
 20
-2.3572381677
  0
LWPOLYLINE
  5
29E
100
AcDbEntity
  8
0
100
AcDbPolyline
 62
7
  6
CONTINUOUS
 90
2
 70
0
 43
0.3500000006
 10
23.1053206558
 20
-1.0357139511
 10
21.6053201981
 20
-1.0357139511
  0
LWPOLYLINE
  5
29F
100
AcDbEntity
  8
0
100
AcDbPolyline
 62
7
  6
CONTINUOUS
 90
12
 70
0
 10
-0.1762128107
 20
-1.9370450543
 10
-0.1287712673
 20
-1.9672928868
 10
-0.0839242591
 20
-2.0017078865
 10
-0.0424069481
 20
-2.0397491212
 10
-0.0041332739
 20
-2.0816335054
 10
0.0308106962
 20
-2.1271441163
 10
0.0614316098
 20
-2.1750892688
 10
0.0875508479
 20
-2.2255102485
 10
0.1093470294
 20
-2.2783657631
 10
0.1263626595
 20
-2.3323402648
 10
0.1384452409
 20
-2.386995238
 10
0.1457472728
 20
-2.4427691952
  0
LWPOLYLINE
  5
2A0
100
AcDbEntity
  8
0
100
AcDbPolyline
 62
7
  6
CONTINUOUS
 90
7
 70
0
 10
0.8904855
 20
-2.3573222977
 10
0.8763663411
 20
-2.3409335812
 10
0.8634949123
 20
-2.3234948576
 10
0.8519386049
 20
-2.3050888592
 10
0.8417694903
 20
-2.2858522322
 10
0.833063583
 20
-2.2659366161
 10
0.8258836108
 20
-2.2454662848
  0
LWPOLYLINE
  5
2A1
100
AcDbEntity
  8
RACCORDO
100
AcDbPolyline
 62
253
  6
CONTINUOUS
 90
16
 70
0
 10
10.9509810776
 20
-21.5260158429
 10
10.9483836508
 20
-21.5216510913
 10
10.9458301647
 20
-21.5139400941
 10
10.9433206194
 20
-21.5028828515
 10
10.9408418341
 20
-21.4883894243
 10
10.9384069896
 20
-21.4705497515
 10
10.9360556279
 20
-21.4496336506
 10
10.9337901701
 20
-21.4255962085
 10
10.9316081951
 20
-21.3984823382
 10
10.9295419823
 20
-21.3686965963
 10
10.9275932826
 20
-21.3361975891
 10
10.925760345
 20
-21.3010267103
 10
10.9240701962
 20
-21.263712697
 10
10.922525131
 20
-21.2242264943
 10
10.9211228547
 20
-21.1825971571
 10
10.9198835093
 20
-21.1394405875
  0
LINE
  5
2A2
100
AcDbEntity
  8
0
100
AcDbLine
 62
7
  6
CONTINUOUS
 10
2.4039919708
 20
-1.8403225799
 11
2.4038692565
 21
-1.8384052733
  0
LINE
  5
2A3
100
AcDbEntity
  8
0
100
AcDbLine
 62
7
  6
CONTINUOUS
 10
0.813006
 20
-2.16
 11
0.813006
 21
-2.14
  0
LINE
  5
2A4
100
AcDbEntity
  8
0
100
AcDbLine
 62
7
  6
CONTINUOUS
 10
0.813006
 20
-2.14
 11
0.8138206999
 21
-2.1183176588
  0
LWPOLYLINE
  5
2A5
100
AcDbEntity
  8
0
100
AcDbPolyline
 62
7
  6
CONTINUOUS
 90
16
 70
0
 10
0.813006
 20
-2.1399997401
 10
0.8145896725
 20
-2.1097797967
 10
0.8191737864
 20
-2.0803648853
 10
0.8267583403
 20
-2.0517550074
 10
0.8374625391
 20
-2.0236263991
 10
0.8511671722
 20
-1.9963028263
 10
0.8675146136
 20
-1.9707555857
 10
0.8866367577
 20
-1.947034109
 10
0.9084016994
 20
-1.9250889668
 10
0.9320561145
 20
-1.9057431656
 10
0.9576890568
 20
-1.8891190035
 10
0.9852114603
 20
-1.8750941837
 10
1.0136028261
 20
-1.8641248208
 10
1.0425229865
 20
-1.856362953
 10
1.0723121018
 20
-1.8516565419
 10
1.1029701675
 20
-1.8500055867
  0
LINE
  5
2A6
100
AcDbEntity
  8
0
100
AcDbLine
 62
7
  6
CONTINUOUS
 10
0.8138206999
 20
-2.1183176588
 11
0.8162515298
 21
-2.0967738982
  0
LWPOLYLINE
  5
2A7
100
AcDbEntity
  8
0
100
AcDbPolyline
 62
7
  6
CONTINUOUS
 90
12
 70
0
 10
0.1457337019
 20
-2.5574176343
 10
0.1381815483
 20
-2.6141237167
 10
0.1256122944
 20
-2.669780382
 10
0.1077227818
 20
-2.7250389515
 10
0.0848161669
 20
-2.7792481027
 10
0.0578019216
 20
-2.830453876
 10
0.0267196628
 20
-2.8782029054
 10
-0.008470226
 20
-2.9229485651
 10
-0.0469771209
 20
-2.9640970123
 10
-0.0887931589
 20
-3.0016445691
 10
-0.1339261961
 20
-3.0355949198
 10
-0.1816091862
 20
-3.0653652691
  0
LINE
  5
2A8
100
AcDbEntity
  8
0
100
AcDbLine
 62
7
  6
CONTINUOUS
 10
0.8162515298
 20
-2.0967738982
 11
0.8202786909
 21
-2.0754801588
  0
LWPOLYLINE
  5
2A9
100
AcDbEntity
  8
0
100
AcDbPolyline
 62
7
  6
CONTINUOUS
 90
7
 70
0
 10
0.8258768171
 20
-2.0545647727
 10
0.8330257636
 20
-2.0341192042
 10
0.8417030584
 20
-2.0142186191
 10
0.8518673285
 20
-1.9949893862
 10
0.8634300788
 20
-1.9765909303
 10
0.8762972689
 20
-1.9591582951
 10
0.8904020774
 20
-1.9427704029
  0
LWPOLYLINE
  5
2AA
100
AcDbEntity
  8
0
100
AcDbPolyline
 62
7
  6
CONTINUOUS
 90
7
 70
0
 10
-1.9084175794
 20
-2.3725278277
 10
-1.9248061906
 20
-2.3866458727
 10
-1.9422445872
 20
-2.3995161382
 10
-1.9606500137
 20
-2.4110713105
 10
-1.9798860041
 20
-2.4212394644
 10
-1.9998008774
 20
-2.4299445516
 10
-2.0202703577
 20
-2.4371238282
  0
LWPOLYLINE
  5
2AB
100
AcDbEntity
  8
0
100
AcDbPolyline
 62
7
  6
CONTINUOUS
 90
7
 70
0
 10
0.9056829646
 20
-1.9274801821
 10
0.9220710775
 20
-1.9133614085
 10
0.9395092142
 20
-1.9004902311
 10
0.9579146308
 20
-1.8889340655
 10
0.9771507175
 20
-1.8787649738
 10
0.9970657464
 20
-1.8700590223
 10
1.0175355403
 20
-1.8628789027
  0
LWPOLYLINE
  5
2AC
100
AcDbEntity
  8
0
100
AcDbPolyline
 62
7
  6
CONTINUOUS
 90
22
 70
0
 10
-0.827329397
 20
-1.9370916908
 10
-0.7718010477
 20
-1.9084225739
 10
-0.7140724457
 20
-1.885321374
 10
-0.6542552856
 20
-1.8678160994
 10
-0.5932211346
 20
-1.8561542687
 10
-0.5318340116
 20
-1.85036903
 10
-0.4704592225
 20
-1.8504110859
 10
-0.4092352416
 20
-1.8562753162
 10
-0.3484491543
 20
-1.8679942387
 10
-0.2887856084
 20
-1.8855336461
 10
-0.2310406154
 20
-1.9087129291
 10
-0.1759815682
 20
-1.9371788523
 10
-0.1243117873
 20
-1.9704588101
 10
-0.0762659721
 20
-2.0082537003
 10
-0.0320291107
 20
-2.0503563655
 10
0.0082453806
 20
-2.0966449648
 10
0.044189081
 20
-2.1468594411
 10
0.07548747
 20
-2.2007968695
 10
0.1015753126
 20
-2.2577369416
 10
0.121980909
 20
-2.3166697361
 10
0.1365607047
 20
-2.3769186805
 10
0.1453360968
 20
-2.438117283
  0
LWPOLYLINE
  5
2AD
100
AcDbEntity
  8
0
100
AcDbPolyline
 62
7
  6
CONTINUOUS
 90
11
 70
0
 10
-0.7769908745
 20
-1.9108828449
 10
-0.7241910745
 20
-1.8889786218
 10
-0.6701337442
 20
-1.871856669
 10
-0.6147912428
 20
-1.8596266705
 10
-0.558191213
 20
-1.8521789488
 10
-0.5016203397
 20
-1.8496621104
 10
-0.4451063548
 20
-1.8521761312
 10
-0.3886215415
 20
-1.8596210381
 10
-0.3333694196
 20
-1.8718455162
 10
-0.2792972365
 20
-1.8890032587
 10
-0.2264577638
 20
-1.9109405704
  0
LWPOLYLINE
  5
2AE
100
AcDbEntity
  8
0
100
AcDbPolyline
 62
7
  6
CONTINUOUS
 90
6
 70
0
 10
0.7531910808
 20
2.3095835803
 10
0.682443988
 20
2.3564586613
 10
0.6089267314
 20
2.3985457848
 10
0.5329184698
 20
2.4357488756
 10
0.4548586655
 20
2.4678712904
 10
0.375045405
 20
2.4947768477
  0
LINE
  5
2AF
100
AcDbEntity
  8
0
100
AcDbLine
 62
7
  6
CONTINUOUS
 10
0.8215299144
 20
2.2574751495
 11
0.7539575142
 21
2.3089166198
  0
LWPOLYLINE
  5
2B0
100
AcDbEntity
  8
0
100
AcDbPolyline
 62
7
  6
CONTINUOUS
 90
6
 70
0
 10
1.100885801
 20
1.9414308756
 10
1.0535608402
 20
2.0116231031
 10
1.0016613487
 20
2.078677475
 10
0.9454192579
 20
2.1422352779
 10
0.8851137536
 20
2.202052358
 10
0.8209124787
 20
2.2579789535
  0
LWPOLYLINE
  5
2B1
100
AcDbEntity
  8
RACCORDO
100
AcDbPolyline
 62
253
  6
CONTINUOUS
 90
16
 70
0
 10
-10.9509810786
 20
21.5260158439
 10
-10.9483840825
 20
21.521652508
 10
-10.9458309564
 20
21.5139433142
 10
-10.9433217003
 20
21.5028882624
 10
-10.9408431136
 20
21.4883973324
 10
-10.9384083969
 20
21.4705605444
 10
-10.9360571518
 20
21.4496479593
 10
-10.9337918431
 20
21.4256152786
 10
-10.9316100061
 20
21.3985068009
 10
-10.9295438484
 20
21.3687254826
 10
-10.9275950825
 20
21.3362295532
 10
-10.9257619958
 20
21.3010607831
 10
-10.9240716582
 20
21.2637474397
 10
-10.9225263543
 20
21.2242598903
 10
-10.9211237994
 20
21.1826277675
 10
-10.9198842104
 20
21.1394682369
  0
LINE
  5
2B2
100
AcDbEntity
  8
0
100
AcDbLine
 62
7
  6
CONTINUOUS
 10
1.1435224195
 20
1.8683493543
 11
1.1006841063
 21
1.9417246869
  0
LINE
  5
2B3
100
AcDbEntity
  8
0
100
AcDbLine
 62
7
  6
CONTINUOUS
 10
1.3444440151
 20
1.4795395913
 11
1.1435224195
 21
1.8683493543
  0
LINE
  5
2B4
100
AcDbEntity
  8
0
100
AcDbLine
 62
7
  6
CONTINUOUS
 10
1.5300978514
 20
1.0849286593
 11
1.3440949643
 21
1.4802875631
  0
LINE
  5
2B5
100
AcDbEntity
  8
0
100
AcDbLine
 62
7
  6
CONTINUOUS
 10
1.7012571176
 20
0.6828405351
 11
1.5300978514
 21
1.0849286593
  0
LINE
  5
2B6
100
AcDbEntity
  8
0
100
AcDbLine
 62
7
  6
CONTINUOUS
 10
1.8573427769
 20
0.2744971887
 11
1.7012571176
 21
0.6828405351
  0
LWPOLYLINE
  5
2B7
100
AcDbEntity
  8
0
100
AcDbPolyline
 62
7
  6
CONTINUOUS
 90
4
 70
0
 10
0.8202715047
 20
-2.224529763
 10
0.8162438002
 20
-2.2032253904
 10
0.8138176266
 20
-2.1816780246
 10
0.813006
 20
-2.16
  0
LWPOLYLINE
  5
2B8
100
AcDbEntity
  8
0
100
AcDbPolyline
 62
7
  6
CONTINUOUS
 90
6
 70
0
 10
2.4038692565
 20
-1.8384052733
 10
2.3260954739
 20
-1.4075062132
 10
2.2325832734
 20
-0.9808642519
 10
2.123332275
 20
-0.5584797848
 10
1.9981112166
 20
-0.1396847718
 10
1.8571505275
 20
0.274851957
  0
LWPOLYLINE
  5
2B9
100
AcDbEntity
  8
0
100
AcDbPolyline
 62
7
  6
CONTINUOUS
 90
19
 70
0
 10
3.0498846332
 20
-2.1112388919
 10
3.0522279384
 20
-2.1393114631
 10
3.051947042
 20
-2.1671498984
 10
3.0490419439
 20
-2.1947541998
 10
3.0434555799
 20
-2.2224119875
 10
3.0352450058
 20
-2.2498356451
 10
3.0245813972
 20
-2.2761623202
 10
3.0113662139
 20
-2.3013402524
 10
2.9956979742
 20
-2.3254212059
 10
2.9780434419
 20
-2.3476976158
 10
2.9583894215
 20
-2.3680780194
 10
2.9367490818
 20
-2.3866538813
 10
2.9136287378
 20
-2.4029920268
 10
2.8889132756
 20
-2.4170657338
 10
2.8627177841
 20
-2.428901724
 10
2.8358938932
 20
-2.4381469879
 10
2.8087254798
 20
-2.4446838552
 10
2.7809286586
 20
-2.4486299939
 10
2.7525034243
 20
-2.4499854022
  0
LWPOLYLINE
  5
2BA
100
AcDbEntity
  8
0
100
AcDbPolyline
 62
7
  6
CONTINUOUS
 90
16
 70
0
 10
3.0498847121
 20
-2.111241116
 10
3.052344286
 20
-2.144517415
 10
3.0510815074
 20
-2.1780587802
 10
3.0460373498
 20
-2.2114486146
 10
3.0372011724
 20
-2.2442722304
 10
3.0246329721
 20
-2.276051088
 10
3.0084631385
 20
-2.3062660286
 10
2.9889290294
 20
-2.334510915
 10
2.9663463546
 20
-2.3603223153
 10
2.9410919017
 20
-2.3832606553
 10
2.9134508026
 20
-2.4031050221
 10
2.8836403023
 20
-2.4197301544
 10
2.8521171987
 20
-2.4329226526
 10
2.819423878
 20
-2.4424256969
 10
2.7860569553
 20
-2.4481107474
 10
2.7524053875
 20
-2.4499999999
  0
LINE
  5
2BB
100
AcDbEntity
  8
0
100
AcDbLine
 62
7
  6
CONTINUOUS
 10
2.4022004043
 20
-1.8457196598
 11
2.4031415711
 21
-1.8440481761
  0
LWPOLYLINE
  5
2BC
100
AcDbEntity
  8
0
100
AcDbPolyline
 62
7
  6
CONTINUOUS
 90
7
 70
0
 10
2.3994569886
 20
-1.8483766798
 10
2.4009283508
 20
-1.8471765297
 10
2.4022048509
 20
-1.8456726404
 10
2.4031507639
 20
-1.8440273376
 10
2.4037208483
 20
-1.8422947297
 10
2.4039603458
 20
-1.8404207083
 10
2.4038692565
 20
-1.8384052733
  0
LINE
  5
2BD
100
AcDbEntity
  8
0
100
AcDbLine
 62
7
  6
CONTINUOUS
 10
2.399458515
 20
-1.8483756864
 11
2.4009575508
 21
-1.8471800113
  0
LINE
  5
2BE
100
AcDbEntity
  8
0
100
AcDbLine
 62
7
  6
CONTINUOUS
 10
2.397758283
 20
-1.8492626921
 11
2.3993618892
 21
-1.8484260958
  0
LWPOLYLINE
  5
2BF
100
AcDbEntity
  8
0
100
AcDbPolyline
 62
7
  6
CONTINUOUS
 90
12
 70
0
 10
-0.2320419717
 20
-3.0909615459
 10
-0.2850246946
 20
-3.112377826
 10
-0.3391907577
 20
-3.1290135383
 10
-0.3944743726
 20
-3.1407169307
 10
-0.4509413089
 20
-3.1476397602
 10
-0.5074223112
 20
-3.1496367231
 10
-0.5639719936
 20
-3.1466052316
 10
-0.620535727
 20
-3.1386478756
 10
-0.6757804007
 20
-3.1259271207
 10
-0.729656408
 20
-3.108332014
 10
-0.7822133545
 20
-3.0859735079
 10
-0.8322669599
 20
-3.0593469284
  0
LINE
  5
2C0
100
AcDbEntity
  8
0
100
AcDbLine
 62
7
  6
CONTINUOUS
 10
-0.2933900671
 20
2.5164688425
 11
-0.3750301496
 21
2.4947707547
  0
LWPOLYLINE
  5
2C1
100
AcDbEntity
  8
0
100
AcDbPolyline
 62
7
  6
CONTINUOUS
 90
3
 70
0
 10
-0.1263118303
 20
2.5438346497
 10
-0.2101033446
 20
2.5328540045
 10
-0.2934782318
 20
2.5164120397
  0
LINE
  5
2C2
100
AcDbEntity
  8
0
100
AcDbLine
 62
7
  6
CONTINUOUS
 10
-0.0420320429
 20
2.5493211343
 11
-0.1261453861
 21
2.543850917
  0
LWPOLYLINE
  5
2C3
100
AcDbEntity
  8
0
100
AcDbPolyline
 62
7
  6
CONTINUOUS
 90
3
 70
0
 10
0.1263424534
 20
2.5438028492
 10
0.0422686265
 20
2.5492659644
 10
-0.0422298915
 20
2.5492809665
  0
LINE
  5
2C4
100
AcDbEntity
  8
0
100
AcDbLine
 62
7
  6
CONTINUOUS
 10
0.2103629697
 20
2.5328316947
 11
0.1263209298
 21
2.5438049548
  0
LWPOLYLINE
  5
2C5
100
AcDbEntity
  8
0
100
AcDbPolyline
 62
7
  6
CONTINUOUS
 90
3
 70
0
 10
0.3751743052
 20
2.4947380309
 10
0.2934593871
 20
2.5164155935
 10
0.2101132897
 20
2.5328332782
  0
LWPOLYLINE
  5
2C6
100
AcDbEntity
  8
0
100
AcDbPolyline
 62
7
  6
CONTINUOUS
 90
14
 70
0
 10
0.5164465525
 20
3.0785611534
 10
0.6276703388
 20
3.0433321647
 10
0.7364131947
 20
3.0014715664
 10
0.8423196993
 20
2.9530825397
 10
0.9452808204
 20
2.8981648473
 10
1.0449198457
 20
2.836844763
 10
1.1407136578
 20
2.7694460004
 10
1.2323069524
 20
2.6961747683
 10
1.3191142335
 20
2.6174323758
 10
1.4007576422
 20
2.5336641346
 10
1.4771153845
 20
2.4450440367
 10
1.5478537842
 20
2.3518975352
 10
1.6126431587
 20
2.254686248
 10
1.6713020427
 20
2.1537429211
  0
LWPOLYLINE
  5
2C7
100
AcDbEntity
  8
0
100
AcDbPolyline
 62
7
  6
CONTINUOUS
 90
13
 70
0
 10
0.6199627141
 20
3.0460410419
 10
0.7210526401
 20
3.0078509218
 10
0.8198787795
 20
2.9639893182
 10
0.916278643
 20
2.9144577077
 10
1.0095577922
 20
2.8595807662
 10
1.0998231126
 20
2.7992368101
 10
1.1869677254
 20
2.7335475221
 10
1.2699765741
 20
2.6632026312
 10
1.3488021708
 20
2.5880985456
 10
1.4234920648
 20
2.5083388557
 10
1.4931737854
 20
2.4249240682
 10
1.5575565469
 20
2.3381876861
 10
1.6169312361
 20
2.2477962045
  0
LWPOLYLINE
  5
2C8
100
AcDbEntity
  8
0
100
AcDbPolyline
 62
7
  6
CONTINUOUS
 90
3
 70
0
 10
1.6712979025
 20
2.1537496203
 10
1.9009147391
 20
1.7075107614
 10
2.1116387485
 20
1.2536788864
  0
LINE
  5
2C9
100
AcDbEntity
  8
0
100
AcDbLine
 62
7
  6
CONTINUOUS
 10
2.1112283871
 20
1.2545995777
 11
2.3034758467
 21
0.7922401809
  0
LINE
  5
2CA
100
AcDbEntity
  8
0
100
AcDbLine
 62
7
  6
CONTINUOUS
 10
2.3034818015
 20
0.7922258595
 11
2.4768288892
 21
0.3222256827
  0
LWPOLYLINE
  5
2CB
100
AcDbEntity
  8
0
100
AcDbPolyline
 62
7
  6
CONTINUOUS
 90
4
 70
0
 10
2.4767026623
 20
0.3223325801
 10
2.6310440014
 20
-0.1551806696
 10
2.7656196752
 20
-0.637566758
 10
2.8801385932
 20
-1.123919211
  0
LINE
  5
2CC
100
AcDbEntity
  8
0
100
AcDbLine
 62
7
  6
CONTINUOUS
 10
2.8802748886
 20
-1.1245909333
 11
2.9751191638
 21
-1.6162402484
  0
LINE
  5
2CD
100
AcDbEntity
  8
0
100
AcDbLine
 62
7
  6
CONTINUOUS
 10
2.9748933654
 20
-1.6151434336
 11
3.0498846332
 21
-2.1112388919
  0
LINE
  5
2CE
100
AcDbEntity
  8
0
100
AcDbLine
 62
253
  6
CONTINUOUS
 10
-10.9509810786
 20
-21.5260158439
 11
-11.037406726
 21
-21.6124414913
  0
LINE
  5
2CF
100
AcDbEntity
  8
0
100
AcDbLine
 62
253
  6
CONTINUOUS
 10
-10.4516663112
 20
-22.0253306113
 11
-10.5380919586
 21
-22.1117562587
  0
LWPOLYLINE
  5
2D0
100
AcDbEntity
  8
0
100
AcDbPolyline
 62
7
  6
CONTINUOUS
 90
3
 70
0
 43
0.3500000006
 10
22.8196049881
 20
1.0357133102
 10
23.0338917389
 20
0.9642866592
 10
23.3196051407
 20
0.8214288254
  0
LINE
  5
2D1
100
AcDbEntity
  8
0
100
AcDbLine
 62
253
  6
CONTINUOUS
 10
-11.037406726
 20
21.6124414913
 11
-10.9509810786
 21
21.5260158439
  0
LINE
  5
2D2
100
AcDbEntity
  8
0
100
AcDbLine
 62
253
  6
CONTINUOUS
 10
-10.5380919586
 20
22.1117562587
 11
-10.4516663112
 21
22.0253306113
  0
LINE
  5
2D3
100
AcDbEntity
  8
RACCORDO
100
AcDbLine
 62
253
  6
CONTINUOUS
 10
10.4516663102
 20
-22.0253306103
 11
10.4515203372
 21
-22.0179297522
  0
LINE
  5
2D4
100
AcDbEntity
  8
RACCORDO
100
AcDbLine
 62
253
  6
CONTINUOUS
 10
10.9198835093
 20
-21.1394405875
 11
10.9178982602
 21
-21.0484592098
  0
LINE
  5
2D5
100
AcDbEntity
  8
RACCORDO
100
AcDbLine
 62
253
  6
CONTINUOUS
 10
10.9178982602
 20
-21.0484592098
 11
10.9166086347
 21
-20.9538546172
  0
LINE
  5
2D6
100
AcDbEntity
  8
RACCORDO
100
AcDbLine
 62
253
  6
CONTINUOUS
 10
10.9166086347
 20
-20.9538546172
 11
10.9160278026
 21
-20.8563725241
  0
LINE
  5
2D7
100
AcDbEntity
  8
RACCORDO
100
AcDbLine
 62
253
  6
CONTINUOUS
 10
10.4421594271
 20
-11.6020504417
 11
10.4380674507
 21
-2.3208549767
  0
LINE
  5
2D8
100
AcDbEntity
  8
RACCORDO
100
AcDbLine
 62
253
  6
CONTINUOUS
 10
10.4380674507
 20
-2.3208549767
 11
10.439431441
 21
6.9620236805
  0
LINE
  5
2D9
100
AcDbEntity
  8
RACCORDO
100
AcDbLine
 62
253
  6
CONTINUOUS
 10
10.439431441
 20
6.9620236805
 11
10.4462513927
 21
16.2407063394
  0
LINE
  5
2DA
100
AcDbEntity
  8
RACCORDO
100
AcDbLine
 62
253
  6
CONTINUOUS
 10
10.4515203372
 20
-22.0179297522
 11
10.4421594271
 21
-11.6020504417
  0
LINE
  5
2DB
100
AcDbEntity
  8
RACCORDO
100
AcDbLine
 62
253
  6
CONTINUOUS
 10
10.4462513927
 20
16.2407063394
 11
10.4514405545
 21
22.0046284256
  0
LWPOLYLINE
  5
2DC
100
AcDbEntity
  8
RACCORDO
100
AcDbPolyline
 62
253
  6
CONTINUOUS
 90
3
 70
0
 10
10.4514405545
 20
22.0046284256
 10
10.451520414
 20
22.0179295934
 10
10.4516663102
 20
22.0253306103
  0
LINE
  5
2DD
100
AcDbEntity
  8
RACCORDO
100
AcDbLine
 62
253
  6
CONTINUOUS
 10
10.9160278027
 20
20.8563725242
 11
10.91660878
 21
20.9538684119
  0
LINE
  5
2DE
100
AcDbEntity
  8
RACCORDO
100
AcDbLine
 62
253
  6
CONTINUOUS
 10
10.91660878
 20
20.9538684119
 11
10.9178986346
 21
21.0484818972
  0
LWPOLYLINE
  5
2DF
100
AcDbEntity
  8
RACCORDO
100
AcDbPolyline
 62
253
  6
CONTINUOUS
 90
17
 70
0
 10
10.9178986346
 20
21.0484818972
 10
10.9198842093
 20
21.1394682348
 10
10.9211237983
 20
21.1826277654
 10
10.9225263532
 20
21.2242598882
 10
10.9240716571
 20
21.2637474377
 10
10.9257619947
 20
21.3010607812
 10
10.9275950814
 20
21.3362295514
 10
10.9295438473
 20
21.3687254808
 10
10.9316100051
 20
21.3985067993
 10
10.9337918421
 20
21.425615277
 10
10.9360571508
 20
21.4496479577
 10
10.9384083958
 20
21.4705605431
 10
10.9408431126
 20
21.4883973314
 10
10.9433216993
 20
21.5028882617
 10
10.9458309554
 20
21.5139433135
 10
10.9483840815
 20
21.5216525072
 10
10.9509810776
 20
21.5260158429
  0
LWPOLYLINE
  5
2E0
100
AcDbEntity
  8
0
100
AcDbPolyline
 62
7
  6
CONTINUOUS
 90
10
 70
0
 43
0.3500000006
 10
22.6053205032
 20
0.9642866592
 10
22.7481760712
 20
1.0357133102
 10
22.8196049881
 20
1.0357133102
 10
22.962462822
 20
0.8928577423
 10
22.962462822
 20
0.8214288254
 10
22.891033905
 20
0.7499999084
 10
22.8196049881
 20
0.7499999084
 10
22.6767471542
 20
0.8214288254
 10
22.6053205032
 20
0.8928577423
 10
22.6053205032
 20
0.9642866592
  0
LWPOLYLINE
  5
2E1
100
AcDbEntity
  8
RACCORDO
100
AcDbPolyline
 62
253
  6
CONTINUOUS
 90
10
 70
0
 10
10.9160278026
 20
-20.8563725241
 10
10.9067976153
 20
-16.2235199973
 10
10.8998749744
 20
-11.5897193248
 10
10.89525988
 20
-6.9549705067
 10
10.8929523316
 20
-2.3186416566
 10
10.8929523297
 20
2.3186353392
 10
10.8952598757
 20
6.9549648211
 10
10.8998749701
 20
11.5897149026
 10
10.9067976124
 20
16.2235174703
 10
10.9160278027
 20
20.8563725242
  0
LINE
  5
2E2
100
AcDbEntity
  8
0
100
AcDbLine
 62
7
  6
CONTINUOUS
 10
11.037406726
 20
-21.6124414913
 11
11.037406726
 21
21.6124414913
  0
LWPOLYLINE
  5
2E3
100
AcDbEntity
  8
0
100
AcDbPolyline
 62
7
  6
CONTINUOUS
 90
10
 70
0
 43
0.3500000006
 10
1.2857142735
 20
36.6433807526
 10
1.3571429071
 20
36.5005229187
 10
1.3571429071
 20
36.4290962677
 10
1.2142857814
 20
36.2862384338
 10
1.1428571477
 20
36.2862384338
 10
1.0714285848
 20
36.3576696167
 10
1.0714285848
 20
36.4290962677
 10
1.1428571477
 20
36.5719541016
 10
1.2142857814
 20
36.6433807526
 10
1.2857142735
 20
36.6433807526
  0
LWPOLYLINE
  5
2E4
100
AcDbEntity
  8
RACCORDO
100
AcDbPolyline
 62
253
  6
CONTINUOUS
 90
14
 70
0
 10
-10.5467846201
 20
20.8766973721
 10
-10.592725089
 20
20.8759631155
 10
-10.637025639
 20
20.8750463318
 10
-10.6792735183
 20
20.8739555626
 10
-10.7190750999
 20
20.8727009709
 10
-10.7560595491
 20
20.8712942457
 10
-10.7898822788
 20
20.8697484935
 10
-10.8202281598
 20
20.8680781164
 10
-10.8468144571
 20
20.8662986774
 10
-10.8693934638
 20
20.8644267555
 10
-10.8877548096
 20
20.8624797917
 10
-10.9017274202
 20
20.8604759261
 10
-10.9111811117
 20
20.8584338287
 10
-10.9160278032
 20
20.856372526
  0
LINE
  5
2E5
100
AcDbEntity
  8
RACCORDO
100
AcDbLine
 62
253
  6
CONTINUOUS
 10
-10.4517073416
 20
20.8775927037
 11
-10.5467846201
 21
20.8766973721
  0
LINE
  5
2E6
100
AcDbEntity
  8
RACCORDO
100
AcDbLine
 62
253
  6
CONTINUOUS
 10
-10.4517073418
 20
20.8775926593
 11
10.4517073402
 21
20.8775926575
  0
LWPOLYLINE
  5
2E7
100
AcDbEntity
  8
RACCORDO
100
AcDbPolyline
 62
253
  6
CONTINUOUS
 90
15
 70
0
 10
10.451706519
 20
20.8775921973
 10
10.5467830054
 20
20.8766968906
 10
10.5927231331
 20
20.8759626544
 10
10.6370233933
 20
20.875045896
 10
10.6792710439
 20
20.8739551567
 10
10.7190724672
 20
20.8727005986
 10
10.7560568367
 20
20.8712939102
 10
10.7898795719
 20
20.8697481975
 10
10.8202255493
 20
20.8680778619
 10
10.846812038
 20
20.8662984657
 10
10.8693913338
 20
20.8644265874
 10
10.8877530674
 20
20.8624796671
 10
10.9017261639
 20
20.8604758442
 10
10.9111804372
 20
20.858433788
 10
10.9160278026
 20
20.8563725242
  0
LWPOLYLINE
  5
2E8
100
AcDbEntity
  8
0
100
AcDbPolyline
 62
7
  6
CONTINUOUS
 90
3
 70
0
 43
0.3500000006
 10
22.4624626694
 20
-0.5357137985
 10
22.4624626694
 20
-2.0357142563
 10
20.1053197403
 20
-1.3928574028
  0
LWPOLYLINE
  5
2E9
100
AcDbEntity
  8
0
100
AcDbPolyline
 62
7
  6
CONTINUOUS
 90
3
 70
0
 43
0.3500000006
 10
22.4624626694
 20
-2.8928567276
 10
22.4624626694
 20
-4.3928571854
 10
20.1053197403
 20
-3.7500003319
  0
LWPOLYLINE
  5
2EA
100
AcDbEntity
  8
0
100
AcDbPolyline
 62
7
  6
CONTINUOUS
 90
7
 70
0
 43
0.3500000006
 10
23.1053206558
 20
3.5357140732
 10
23.1053206558
 20
2.0357136154
 10
20.9624622116
 20
3.5357140732
 10
20.533890976
 20
3.5357140732
 10
20.1053197403
 20
3.1071428375
 10
20.1053197403
 20
2.4642848511
 10
20.7481777267
 20
2.0357136154
  0
LWPOLYLINE
  5
2EB
100
AcDbEntity
  8
RACCORDO
100
AcDbPolyline
 62
253
  6
CONTINUOUS
 90
16
 70
0
 10
-10.4516663112
 20
22.0253306113
 10
-10.5037691396
 20
22.0224620484
 10
-10.5553030207
 20
22.0141731198
 10
-10.6057052936
 20
22.0005543489
 10
-10.6544256724
 20
21.9817544441
 10
-10.7009322056
 20
21.9579786923
 10
-10.7447170915
 20
21.9294867333
 10
-10.785302291
 20
21.8965896872
 10
-10.8222447221
 20
21.8596467532
 10
-10.8551410596
 20
21.8190613204
 10
-10.8836321688
 20
21.7752765396
 10
-10.9074070294
 20
21.7287704675
 10
-10.9262061134
 20
21.6800508596
 10
-10.9398242133
 20
21.6296496393
 10
-10.9481126857
 20
21.5781170921
 10
-10.9509810786
 20
21.5260158439
  0
LINE
  5
2EC
100
AcDbEntity
  8
RACCORDO
100
AcDbLine
 62
253
  6
CONTINUOUS
 10
3.0797294973
 20
22.0075952798
 11
10.4516663102
 21
22.0253306103
  0
LINE
  5
2ED
100
AcDbEntity
  8
0
100
AcDbLine
 62
7
  6
CONTINUOUS
 10
10.5380919586
 20
22.1117562587
 11
-10.5380919586
 21
22.1117562587
  0
LINE
  5
2EE
100
AcDbEntity
  8
RACCORDO
100
AcDbLine
 62
253
  6
CONTINUOUS
 10
-4.3632819094
 20
22.0092957697
 11
3.0797294973
 21
22.0075952798
  0
LINE
  5
2EF
100
AcDbEntity
  8
RACCORDO
100
AcDbLine
 62
253
  6
CONTINUOUS
 10
-10.4516663112
 20
22.0253306113
 11
-4.3632819094
 21
22.0092957697
  0
LWPOLYLINE
  5
2F0
100
AcDbEntity
  8
RACCORDO
100
AcDbPolyline
 62
253
  6
CONTINUOUS
 90
16
 70
0
 10
10.4516663102
 20
22.0253306103
 10
10.503768433
 20
22.0224621237
 10
10.5553017012
 20
22.0141734028
 10
10.6057034712
 20
22.0005549446
 10
10.6544234529
 20
21.9817554362
 10
10.7009297184
 20
21.957980132
 10
10.7447145091
 20
21.9294886124
 10
10.7852997796
 20
21.8965919497
 10
10.8222424173
 20
21.859649312
 10
10.8551390799
 20
21.8190640414
 10
10.8836305994
 20
21.7752792507
 10
10.9074059035
 20
21.7287729852
 10
10.9262054118
 20
21.6800530035
 10
10.9398238701
 20
21.6296512337
 10
10.9481125909
 20
21.5781179655
 10
10.9509810776
 20
21.5260158429
  0
LWPOLYLINE
  5
2F1
100
AcDbEntity
  8
0
100
AcDbPolyline
 62
7
  6
CONTINUOUS
 90
7
 70
0
 43
0.3500000006
 10
-0.2142857063
 20
36.1433806
 10
-1.7142856507
 20
36.1433806
 10
-0.2142857063
 20
38.2862390442
 10
-0.2142857063
 20
38.7148080139
 10
-0.6428571367
 20
39.1433815155
 10
-1.2857142735
 20
39.1433815155
 10
-1.7142856507
 20
38.5005235291
  0
LWPOLYLINE
  5
2F2
100
AcDbEntity
  8
0
100
AcDbPolyline
 62
7
  6
CONTINUOUS
 90
7
 70
0
 43
0.3500000006
 10
-2.5714285469
 20
36.1433806
 10
-4.0714284382
 20
36.1433806
 10
-2.5714285469
 20
38.2862390442
 10
-2.5714285469
 20
38.7148080139
 10
-3.0000000658
 20
39.1433815155
 10
-3.6428572025
 20
39.1433815155
 10
-4.0714284382
 20
38.5005235291
  0
LWPOLYLINE
  5
2F3
100
AcDbEntity
  8
0
100
AcDbPolyline
 62
7
  6
CONTINUOUS
 90
3
 70
0
 43
0.3500000006
 10
-45.6289135895
 20
36.4290962677
 10
-45.7003447723
 20
36.2148117828
 10
-45.8432026062
 20
35.9290961151
  0
LINE
  5
2F4
100
AcDbEntity
  8
RACCORDO
100
AcDbLine
 62
7
  6
CONTINUOUS
 10
-35.0102264717
 20
-22.1117562587
 11
-37.0298235497
 21
-22.0059136608
  0
LINE
  5
2F5
100
AcDbEntity
  8
0
100
AcDbLine
 62
7
  6
CONTINUOUS
 10
-35.0102264717
 20
-22.1117562587
 11
-36.6593260823
 21
-22.0253306103
  0
LWPOLYLINE
  5
2F6
100
AcDbEntity
  8
RACCORDO
100
AcDbPolyline
 62
253
  6
CONTINUOUS
 90
22
 70
0
 10
-36.6593260824
 20
-22.0253306103
 10
-36.7437129621
 20
-22.0179297522
 10
-36.8273482035
 20
-22.0046288375
 10
-36.9098200789
 20
-21.9854972854
 10
-36.9907232465
 20
-21.9606338102
 10
-37.0696601166
 20
-21.9301646573
 10
-37.1462423476
 20
-21.8942417477
 10
-37.2200972801
 20
-21.8530429444
 10
-37.2908592222
 20
-21.8067756796
 10
-37.3581710943
 20
-21.7556751002
 10
-37.4217022363
 20
-21.6999983713
 10
-37.4811451256
 20
-21.6400220376
 10
-37.5362063529
 20
-21.5760447725
 10
-37.5866180538
 20
-21.508384764
 10
-37.6321361133
 20
-21.4373780217
 10
-37.672537138
 20
-21.3633764989
 10
-37.7076232696
 20
-21.2867528886
 10
-37.7372296484
 20
-21.2078804478
 10
-37.7612175193
 20
-21.1271292234
 10
-37.7794692629
 20
-21.0448900836
 10
-37.7918934475
 20
-20.9615744365
 10
-37.7984286074
 20
-20.8775926584
  0
LINE
  5
2F7
100
AcDbEntity
  8
RACCORDO
100
AcDbLine
 62
253
  6
CONTINUOUS
 10
-37.7984286087
 20
-20.8775927014
 11
-37.7927409279
 21
-20.8772422581
  0
LINE
  5
2F8
100
AcDbEntity
  8
RACCORDO
100
AcDbLine
 62
253
  6
CONTINUOUS
 10
-37.7927409279
 20
-20.8772422581
 11
-37.7676915717
 21
-20.8759631133
  0
LINE
  5
2F9
100
AcDbEntity
  8
RACCORDO
100
AcDbLine
 62
253
  6
CONTINUOUS
 10
-37.7676915717
 20
-20.8759631133
 11
-37.467684216
 21
-20.8624797898
  0
LINE
  5
2FA
100
AcDbEntity
  8
RACCORDO
100
AcDbLine
 62
253
  6
CONTINUOUS
 10
-37.467684216
 20
-20.8624797898
 11
-37.326274299
 21
-20.8563725241
  0
LINE
  5
2FB
100
AcDbEntity
  8
RACCORDO
100
AcDbLine
 62
253
  6
CONTINUOUS
 10
-38.1653823092
 20
-20.8701689506
 11
-37.7984286134
 21
-20.877592659
  0
LINE
  5
2FC
100
AcDbEntity
  8
0
100
AcDbLine
 62
253
  6
CONTINUOUS
 10
-35.0102264717
 20
-21.6124414913
 11
-36.6593260824
 21
-21.5260158429
  0
LWPOLYLINE
  5
2FD
100
AcDbEntity
  8
RACCORDO
100
AcDbPolyline
 62
253
  6
CONTINUOUS
 90
22
 70
0
 10
-36.6593260824
 20
-21.5260158429
 10
-36.708887938
 20
-21.5216510913
 10
-36.7576113544
 20
-21.5139400941
 10
-36.8054963315
 20
-21.5028828515
 10
-36.8527943723
 20
-21.4883894243
 10
-36.8992539738
 20
-21.4705497515
 10
-36.9441206271
 20
-21.4496336506
 10
-36.9873481378
 20
-21.4255962085
 10
-37.0289827003
 20
-21.3984823382
 10
-37.0684083891
 20
-21.3686965963
 10
-37.1055917953
 20
-21.3361975891
 10
-37.1405663277
 20
-21.3010267103
 10
-37.1728162876
 20
-21.263712697
 10
-37.2022978877
 20
-21.2242264943
 10
-37.2290549152
 20
-21.1825971571
 10
-37.2527030327
 20
-21.1394405875
 10
-37.2731978927
 20
-21.0947135149
 10
-37.2905838427
 20
-21.0484592098
 10
-37.3046095878
 20
-21.0014233868
 10
-37.315191363
 20
-20.9538546172
 10
-37.3224129334
 20
-20.9055043297
 10
-37.326274299
 20
-20.8563725241
  0
LWPOLYLINE
  5
2FE
100
AcDbEntity
  8
RACCORDO
100
AcDbPolyline
 62
253
  6
CONTINUOUS
 90
16
 70
0
 10
-36.6593260818
 20
22.0253306103
 10
-36.6619063062
 20
22.0224621237
 10
-36.664172656
 20
22.0141734028
 10
-36.6661003872
 20
22.0005549446
 10
-36.6676684528
 20
21.9817554362
 10
-36.6688597324
 20
21.957980132
 10
-36.6696612191
 20
21.9294886124
 10
-36.6700641623
 20
21.8965919497
 10
-36.6700641626
 20
21.859649312
 10
-36.66966122
 20
21.8190640414
 10
-36.6688597339
 20
21.7752792507
 10
-36.6676684549
 20
21.7287729852
 10
-36.6661003895
 20
21.6800530035
 10
-36.664172658
 20
21.6296512337
 10
-36.6619063073
 20
21.5781179655
 10
-36.6593260818
 20
21.5260158429
  0
LWPOLYLINE
  5
2FF
100
AcDbEntity
  8
RACCORDO
100
AcDbPolyline
 62
253
  6
CONTINUOUS
 90
16
 70
0
 10
-36.6593260824
 20
-22.0253306103
 10
-36.6619063423
 20
-22.0224620551
 10
-36.6641727163
 20
-22.0141731476
 10
-36.6661004607
 20
-22.0005544084
 10
-36.6676685298
 20
-21.9817545437
 10
-36.6688598036
 20
-21.9579788371
 10
-36.6696612759
 20
-21.9294869224
 10
-36.6700641984
 20
-21.8965899146
 10
-36.670064175
 20
-21.8596470098
 10
-36.6696612084
 20
-21.8190615926
 10
-36.6688597015
 20
-21.77527681
 10
-36.667668408
 20
-21.7287707174
 10
-36.6661003367
 20
-21.6800510715
 10
-36.6641726099
 20
-21.6296497963
 10
-36.6619062767
 20
-21.5781171775
 10
-36.6593260824
 20
-21.5260158429
  0
LWPOLYLINE
  5
300
100
AcDbEntity
  8
0
100
AcDbPolyline
 62
7
  6
CONTINUOUS
 90
2
 70
0
 43
0.3500000006
 10
-47.7003453827
 20
36.1433806
 10
-47.7003453827
 20
37.6433810577
  0
LINE
  5
301
100
AcDbEntity
  8
0
100
AcDbLine
 62
7
  6
CONTINUOUS
 10
-34.0102264717
 20
-13.2689805518
 11
-35.0102264717
 21
-13.3213883311
  0
LWPOLYLINE
  5
302
100
AcDbEntity
  8
0
100
AcDbPolyline
 62
7
  6
CONTINUOUS
 90
4
 70
0
 43
0.3500000006
 10
-44.6289132843
 20
38.5005235291
 10
-44.6289132843
 20
39.1433815155
 10
-43.1289173584
 20
39.1433815155
 10
-43.9860598297
 20
36.1433806
  0
LINE
  5
303
100
AcDbEntity
  8
0
100
AcDbLine
 62
7
  6
CONTINUOUS
 10
-34.0102264717
 20
-9.7310194482
 11
-35.0102264717
 21
-9.6786116689
  0
LWPOLYLINE
  5
304
100
AcDbEntity
  8
0
100
AcDbPolyline
 62
7
  6
CONTINUOUS
 90
6
 70
0
 10
-38.1653823046
 20
20.8701690381
 10
-38.3288847775
 20
17.4618001712
 10
-38.4661751358
 20
13.9703724365
 10
-38.5729638547
 20
10.4778787858
 10
-38.6492397404
 20
6.9845855945
 10
-38.6978225552
 20
3.150068317
  0
LWPOLYLINE
  5
305
100
AcDbEntity
  8
RACCORDO
100
AcDbPolyline
 62
253
  6
CONTINUOUS
 90
22
 70
0
 10
-37.7984286069
 20
20.8775926568
 10
-37.7918936491
 20
20.9615726594
 10
-37.7794698104
 20
21.0448871287
 10
-37.761218435
 20
21.1271256883
 10
-37.7372307565
 20
21.2078771503
 10
-37.7076243233
 20
21.286750364
 10
-37.672538113
 20
21.363374559
 10
-37.6321371898
 20
21.4373761979
 10
-37.586619319
 20
21.5083829142
 10
-37.5362077701
 20
21.5760429757
 10
-37.4811465738
 20
21.6400204412
 10
-37.4217036417
 20
21.6999970232
 10
-37.3581724204
 20
21.7556739957
 10
-37.29086038
 20
21.8067748469
 10
-37.2200982287
 20
21.8530423607
 10
-37.146243274
 20
21.8942412669
 10
-37.0696615231
 20
21.9301640524
 10
-36.9907253812
 20
21.9606330674
 10
-36.9098225315
 20
21.9854966221
 10
-36.8273503058
 20
22.0046284256
 10
-36.7437142475
 20
22.0179295934
 10
-36.6593260818
 20
22.0253306103
  0
LWPOLYLINE
  5
306
100
AcDbEntity
  8
RACCORDO
100
AcDbPolyline
 62
253
  6
CONTINUOUS
 90
22
 70
0
 10
-37.3262742987
 20
20.8563725242
 10
-37.3224117573
 20
20.9055117994
 10
-37.3151885911
 20
20.9538684119
 10
-37.3046048
 20
21.0014423617
 10
-37.2905766996
 20
21.0484818972
 10
-37.2731879742
 20
21.0947387699
 10
-37.2526896774
 20
21.1394682348
 10
-37.2290369086
 20
21.1826277654
 10
-37.2022745682
 20
21.2242598882
 10
-37.172788412
 20
21.2637474377
 10
-37.1405348503
 20
21.3010607812
 10
-37.1055574727
 20
21.3362295514
 10
-37.0683728034
 20
21.3687254808
 10
-37.0289481648
 20
21.3985067993
 10
-36.9873162346
 20
21.425615277
 10
-36.9440915699
 20
21.4496479577
 10
-36.8992271414
 20
21.4705605431
 10
-36.8527699785
 20
21.4883973314
 10
-36.8054757266
 20
21.5028882617
 10
-36.7575962674
 20
21.5139433135
 10
-36.7088797191
 20
21.5216525072
 10
-36.6593260818
 20
21.5260158429
  0
LWPOLYLINE
  5
307
100
AcDbEntity
  8
0
100
AcDbPolyline
 62
7
  6
CONTINUOUS
 90
4
 70
0
 10
-38.6975379653
 20
-2.45
 10
-38.697744795
 20
-2.4491854737
 10
-38.6979562256
 20
-2.4467547891
 10
-38.6981712433
 20
-2.4427277277
  0
LWPOLYLINE
  5
308
100
AcDbEntity
  8
0
100
AcDbPolyline
 62
7
  6
CONTINUOUS
 90
4
 70
0
 10
-38.6975373252
 20
-2.4500099309
 10
-38.6978275587
 20
-2.4484216697
 10
-38.6981210704
 20
-2.4438338301
 10
-38.6984183741
 20
-2.4362464113
  0
LWPOLYLINE
  5
309
100
AcDbEntity
  8
RACCORDO
100
AcDbPolyline
 62
253
  6
CONTINUOUS
 90
10
 70
0
 10
-37.7984286134
 20
-20.877592659
 10
-37.9743494568
 20
-16.2407094163
 10
-38.1063757023
 20
-11.6020504417
 10
-38.1944371929
 20
-6.9620306049
 10
-38.2384836044
 20
-2.3208549767
 10
-38.2384836409
 20
2.3208472824
 10
-38.1944372915
 20
6.9620236805
 10
-38.10637583
 20
11.6020450567
 10
-37.9743495588
 20
16.2407063394
 10
-37.7984286135
 20
20.8775926575
  0
LWPOLYLINE
  5
30A
100
AcDbEntity
  8
RACCORDO
100
AcDbPolyline
 62
253
  6
CONTINUOUS
 90
10
 70
0
 10
-37.326274299
 20
-20.8563725241
 10
-37.5023967654
 20
-16.2235199973
 10
-37.6344886221
 20
-11.5897193248
 10
-37.722549869
 20
-6.9549705067
 10
-37.7665805154
 20
-2.3186416566
 10
-37.7665805519
 20
2.3186353392
 10
-37.7225499513
 20
6.9549648211
 10
-37.6344887043
 20
11.5897149026
 10
-37.5023968201
 20
16.2235174703
 10
-37.3262742987
 20
20.8563725242
  0
LINE
  5
30B
100
AcDbEntity
  8
0
100
AcDbLine
 62
7
  6
CONTINUOUS
 10
-38.6983886486
 20
-2.4371296237
 11
-38.6987233225
 21
-2.4255404963
  0
LINE
  5
30C
100
AcDbEntity
  8
0
100
AcDbLine
 62
7
  6
CONTINUOUS
 10
-38.6986076282
 20
-2.4299806127
 11
-38.699032679
 21
-2.4118349992
  0
LINE
  5
30D
100
AcDbEntity
  8
0
100
AcDbLine
 62
7
  6
CONTINUOUS
 10
-38.6990475178
 20
-2.4111389296
 11
-38.6996924838
 21
-2.3726037328
  0
LWPOLYLINE
  5
30E
100
AcDbEntity
  8
0
100
AcDbPolyline
 62
7
  6
CONTINUOUS
 90
6
 70
0
 10
-38.6949361005
 20
-3.497425927
 10
-38.6491232668
 20
-6.9912513843
 10
-38.5727891555
 20
-10.4845431777
 10
-38.465942236
 20
-13.9770348719
 10
-38.3285937039
 20
-17.4684600916
 10
-38.1653823046
 20
-20.8701690383
  0
LINE
  5
30F
100
AcDbEntity
  8
0
100
AcDbLine
 62
7
  6
CONTINUOUS
 10
-38.6996372479
 20
-2.3763630694
 11
-38.7007461073
 21
-2.2777895819
  0
LINE
  5
310
100
AcDbEntity
  8
0
100
AcDbLine
 62
7
  6
CONTINUOUS
 10
-38.7026307072
 20
-2.4501861103
 11
-38.6949361005
 21
-3.497425927
  0
LINE
  5
311
100
AcDbEntity
  8
0
100
AcDbLine
 62
7
  6
CONTINUOUS
 10
-38.7006738646
 20
-2.2858522322
 11
-38.7018321838
 21
-2.1097797967
  0
LINE
  5
312
100
AcDbEntity
  8
0
100
AcDbLine
 62
7
  6
CONTINUOUS
 10
-38.681333561
 20
-1.8403225799
 11
-38.6931357081
 21
-0.1396847718
  0
LINE
  5
313
100
AcDbEntity
  8
0
100
AcDbLine
 62
7
  6
CONTINUOUS
 10
-38.6978237887
 20
3.1499096318
 11
-38.693098775
 21
2.3518975352
  0
LINE
  5
314
100
AcDbEntity
  8
0
100
AcDbLine
 62
7
  6
CONTINUOUS
 10
-38.7102264578
 20
-0.0033334542
 11
-38.7054025034
 21
-1.8500177225
  0
LINE
  5
315
100
AcDbEntity
  8
0
100
AcDbLine
 62
7
  6
CONTINUOUS
 10
-38.6931364304
 20
-0.1394989463
 11
-38.6992811109
 21
1.2895300638
  0
LINE
  5
316
100
AcDbEntity
  8
0
100
AcDbLine
 62
7
  6
CONTINUOUS
 10
-38.6933730431
 20
2.4249240682
 11
-38.6647403913
 21
-2.144517415
  0
LINE
  5
317
100
AcDbEntity
  8
0
100
AcDbLine
 62
7
  6
CONTINUOUS
 10
-38.6647708475
 20
-2.1393114631
 11
-38.6645457047
 21
-2.2114486146
  0
LINE
  5
318
100
AcDbEntity
  8
0
100
AcDbLine
 62
7
  6
CONTINUOUS
 10
-38.6987531668
 20
1.0849286593
 11
-38.7020985235
 21
2.5499553085
  0
LINE
  5
319
100
AcDbEntity
  8
0
100
AcDbLine
 62
7
  6
CONTINUOUS
 10
-38.7017924534
 20
-2.1183176588
 11
-38.7021606932
 21
-1.9707555857
  0
LINE
  5
31A
100
AcDbEntity
  8
0
100
AcDbLine
 62
7
  6
CONTINUOUS
 10
-38.6645581088
 20
-2.1947541998
 11
-38.664614867
 21
-2.2498356451
  0
LINE
  5
31B
100
AcDbEntity
  8
0
100
AcDbLine
 62
7
  6
CONTINUOUS
 10
-38.7042681463
 20
1.8683628727
 11
-38.7102264578
 21
-0.0033334542
  0
LINE
  5
31C
100
AcDbEntity
  8
0
100
AcDbLine
 62
7
  6
CONTINUOUS
 10
-38.7021621037
 20
-1.9765909303
 11
-38.7019797233
 21
-1.9057431656
  0
LINE
  5
31D
100
AcDbEntity
  8
0
100
AcDbLine
 62
7
  6
CONTINUOUS
 10
-38.6813403471
 20
-1.8457196598
 11
-38.6813302641
 21
-1.8440481761
  0
LINE
  5
31E
100
AcDbEntity
  8
SUPERFICI
100
AcDbLine
 62
7
  6
CONTINUOUS
 10
-38.6978225552
 20
3.150068317
 11
-38.7020982406
 21
2.5499996835
  0
LINE
  5
31F
100
AcDbEntity
  8
0
100
AcDbLine
 62
7
  6
CONTINUOUS
 10
-38.7020224038
 20
-1.9133614085
 11
-38.7018517678
 21
-1.8891190035
  0
LINE
  5
320
100
AcDbEntity
  8
0
100
AcDbLine
 62
7
  6
CONTINUOUS
 10
-38.6645950138
 20
-2.2442722304
 11
-38.6649886433
 21
-2.3062660286
  0
LINE
  5
321
100
AcDbEntity
  8
0
100
AcDbLine
 62
7
  6
CONTINUOUS
 10
-38.6813859991
 20
-1.8483766798
 11
-38.6813302577
 21
-1.8440393821
  0
LINE
  5
322
100
AcDbEntity
  8
0
100
AcDbLine
 62
7
  6
CONTINUOUS
 10
-38.6649420638
 20
-2.3013402524
 11
-38.665527706
 21
-2.3476976158
  0
LINE
  5
323
100
AcDbEntity
  8
0
100
AcDbLine
 62
7
  6
CONTINUOUS
 10
-38.7018507794
 20
-1.8889340655
 11
-38.7016127677
 21
-1.8700590223
  0
LWPOLYLINE
  5
324
100
AcDbEntity
  8
0
100
AcDbPolyline
 62
7
  6
CONTINUOUS
 90
5
 70
0
 10
-38.7016894732
 20
-1.8750941837
 10
-38.7014984936
 20
-1.8641248208
 10
-38.7012807747
 20
-1.856362953
 10
-38.7010337051
 20
-1.8516565419
 10
-38.7010073765
 20
-1.8514996036
  0
LINE
  5
325
100
AcDbEntity
  8
0
100
AcDbLine
 62
7
  6
CONTINUOUS
 10
-38.6653267769
 20
-2.334510915
 11
-38.6659067796
 21
-2.3680780194
  0
LINE
  5
326
100
AcDbEntity
  8
0
100
AcDbLine
 62
7
  6
CONTINUOUS
 10
-38.6657509502
 20
-2.3603223153
 11
-38.6663418545
 21
-2.3866538813
  0
LINE
  5
327
100
AcDbEntity
  8
0
100
AcDbLine
 62
7
  6
CONTINUOUS
 10
-38.6662529708
 20
-2.3832606553
 11
-38.6668257919
 21
-2.4031050221
  0
LWPOLYLINE
  5
328
100
AcDbEntity
  8
0
100
AcDbPolyline
 62
7
  6
CONTINUOUS
 90
3
 70
0
 10
-38.6814177588
 20
-1.8492626921
 10
-38.6813859724
 20
-1.8483756864
 10
-38.6813595856
 20
-1.8471800113
  0
LINE
  5
329
100
AcDbEntity
  8
0
100
AcDbLine
 62
7
  6
CONTINUOUS
 10
-38.666822068
 20
-2.4029920268
 11
-38.6674636032
 21
-2.4197301544
  0
LWPOLYLINE
  5
32A
100
AcDbEntity
  8
0
100
AcDbPolyline
 62
7
  6
CONTINUOUS
 90
4
 70
0
 10
-38.7013125633
 20
-1.8572664896
 10
-38.701140417
 20
-1.8532383918
 10
-38.7009547549
 20
-1.8508118602
 10
-38.7007564399
 20
-1.85
  0
LWPOLYLINE
  5
32B
100
AcDbEntity
  8
0
100
AcDbPolyline
 62
7
  6
CONTINUOUS
 90
5
 70
0
 10
-38.6673498144
 20
-2.4170657338
 10
-38.6681554865
 20
-2.4329226526
 10
-38.6688887644
 20
-2.4424256969
 10
-38.6696516614
 20
-2.4481107474
 10
-38.6704346359
 20
-2.4499999999
  0
LINE
  5
32C
100
AcDbEntity
  8
0
100
AcDbLine
 62
7
  6
CONTINUOUS
 10
-38.6814900416
 20
-1.8499923698
 11
-38.6813859991
 21
-1.8483766798
  0
LWPOLYLINE
  5
32D
100
AcDbEntity
  8
0
100
AcDbPolyline
 62
7
  6
CONTINUOUS
 90
5
 70
0
 10
-38.667921358
 20
-2.428901724
 10
-38.6685174473
 20
-2.4381469879
 10
-38.6691317527
 20
-2.4446838552
 10
-38.6697701978
 20
-2.4486299939
 10
-38.6704324239
 20
-2.4499854022
  0
LINE
  5
32E
100
AcDbEntity
  8
0
100
AcDbLine
 62
7
  6
CONTINUOUS
 10
-38.6814900418
 20
-1.8499923698
 11
-38.6814534812
 21
-1.849808313
  0
LINE
  5
32F
100
AcDbEntity
  8
0
100
AcDbLine
 62
7
  6
CONTINUOUS
 10
-38.6704347246
 20
-2.4499854043
 11
-38.6963997059
 21
-2.4500089013
  0
LINE
  5
330
100
AcDbEntity
  8
0
100
AcDbLine
 62
7
  6
CONTINUOUS
 10
-38.7007564142
 20
-1.8500055865
 11
-38.6814900416
 21
-1.8499923698
  0
LINE
  5
331
100
AcDbEntity
  8
0
100
AcDbLine
 62
7
  6
CONTINUOUS
 10
-35.0102264717
 20
-22.1117562587
 11
-35.0102264717
 21
22.1117562587
  0
LINE
  5
332
100
AcDbEntity
  8
0
100
AcDbLine
 62
253
  6
CONTINUOUS
 10
-34.3892920892
 20
13.288846539
 11
-34.3892920892
 21
9.711153461
  0
LINE
  5
333
100
AcDbEntity
  8
0
100
AcDbLine
 62
253
  6
CONTINUOUS
 10
-34.3892920892
 20
-9.711153461
 11
-34.3892920892
 21
-13.288846539
  0
LINE
  5
334
100
AcDbEntity
  8
0
100
AcDbLine
 62
7
  6
CONTINUOUS
 10
-34.0102264717
 20
13.2689805518
 11
-34.0102264717
 21
9.7310194482
  0
LINE
  5
335
100
AcDbEntity
  8
0
100
AcDbLine
 62
7
  6
CONTINUOUS
 10
-34.0102264717
 20
-9.7310194482
 11
-34.0102264717
 21
-13.2689805518
  0
LWPOLYLINE
  5
336
100
AcDbEntity
  8
0
100
AcDbPolyline
 62
7
  6
CONTINUOUS
 90
10
 70
0
 43
0.3500000006
 10
-45.7003447723
 20
36.6433807526
 10
-45.6289135895
 20
36.5005229187
 10
-45.6289135895
 20
36.4290962677
 10
-45.7717714233
 20
36.2862384338
 10
-45.8432026062
 20
36.2862384338
 10
-45.9146292572
 20
36.3576696167
 10
-45.9146292572
 20
36.4290962677
 10
-45.8432026062
 20
36.5719541016
 10
-45.7717714233
 20
36.6433807526
 10
-45.7003447723
 20
36.6433807526
  0
LINE
  5
337
100
AcDbEntity
  8
0
100
AcDbLine
 62
7
  6
CONTINUOUS
 10
-34.0102264717
 20
9.7310194482
 11
-35.0102264717
 21
9.6786116689
  0
LINE
  5
338
100
AcDbEntity
  8
0
100
AcDbLine
 62
7
  6
CONTINUOUS
 10
-34.0102264717
 20
13.2689805518
 11
-35.0102264717
 21
13.3213883311
  0
LINE
  5
339
100
AcDbEntity
  8
RACCORDO
100
AcDbLine
 62
253
  6
CONTINUOUS
 10
-37.7485532696
 20
20.875045896
 11
-37.3262742987
 21
20.8563725242
  0
LWPOLYLINE
  5
33A
100
AcDbEntity
  8
RACCORDO
100
AcDbPolyline
 62
253
  6
CONTINUOUS
 90
4
 70
0
 10
-37.7984168205
 20
20.8775921973
 10
-37.7927294159
 20
20.8772417637
 10
-37.7824522095
 20
20.8766968906
 10
-37.7485532696
 20
20.875045896
  0
LINE
  5
33B
100
AcDbEntity
  8
0
100
AcDbLine
 62
253
  6
CONTINUOUS
 10
-36.6593260818
 20
21.5260158429
 11
-35.0102264717
 21
21.6124414913
  0
LINE
  5
33C
100
AcDbEntity
  8
RACCORDO
100
AcDbLine
 62
7
  6
CONTINUOUS
 10
-37.0298234925
 20
22.0059136638
 11
-35.0102264717
 21
22.1117562587
  0
LINE
  5
33D
100
AcDbEntity
  8
0
100
AcDbLine
 62
7
  6
CONTINUOUS
 10
-36.6593260817
 20
22.0253306103
 11
-35.0102264717
 21
22.1117562587
  0
LINE
  5
33E
100
AcDbEntity
  8
RACCORDO
100
AcDbLine
 62
253
  6
CONTINUOUS
 10
-38.1653823091
 20
20.8701689517
 11
-37.7984286135
 21
20.8775926575
  0
LWPOLYLINE
  5
33F
100
AcDbEntity
  8
0
100
AcDbPolyline
 62
7
  6
CONTINUOUS
 90
3
 70
0
 43
0.3500000006
 10
-47.2003452301
 20
36.7862385864
 10
-48.7003456879
 20
36.7862385864
 10
-48.0574877014
 20
39.1433815155
  0
ARC
  5
340
100
AcDbEntity
  8
RACCORDO
100
AcDbCircle
 62
7
  6
CONTINUOUS
 10
-36.9670166891
 20
-20.8075584137
 40
1.2
100
AcDbArc
 50
182.9907948857
 51
267.0
  0
ARC
  5
341
100
AcDbEntity
  8
RACCORDO
100
AcDbCircle
 62
7
  6
CONTINUOUS
 10
-36.9670166913
 20
20.8075584136
 40
1.2
100
AcDbArc
 50
93.0
 51
177.0092051148
  0
ELLIPSE
  5
342
100
AcDbEntity
  8
0
100
AcDbEllipse
 62
7
  6
CONTINUOUS
 10
10.536720553
 20
-21.6110700857
 30
0.0
 11
-0.3545231217
 21
0.3545231217
 31
0.0
 40
0.9972646886
 41
2.3575640181
 42
3.9256212891
  0
ELLIPSE
  5
343
100
AcDbEntity
  8
0
100
AcDbEllipse
 62
7
  6
CONTINUOUS
 10
10.536720553
 20
21.6110700857
 30
0.0
 11
0.3545231217
 21
0.3545231217
 31
0.0
 40
0.9972646886
 41
-0.7840286355
 42
0.7840286355
  0
ELLIPSE
  5
344
100
AcDbEntity
  8
0
100
AcDbEllipse
 62
7
  6
CONTINUOUS
 10
-10.536720553
 20
21.6110700857
 30
0.0
 11
0.3545231217
 21
-0.3545231217
 31
0.0
 40
0.9972646886
 41
2.3575640181
 42
3.9256212891
  0
ELLIPSE
  5
345
100
AcDbEntity
  8
0
100
AcDbEllipse
 62
7
  6
CONTINUOUS
 10
-10.536720553
 20
-21.6110700857
 30
0.0
 11
0.3545231217
 21
0.3545231217
 31
0.0
 40
0.9972646886
 41
-3.9256212891
 42
-2.3575640181
  0
ENDSEC
  0
SECTION
  2
OBJECTS
  0
DICTIONARY
  5
C
100
AcDbDictionary
280
0
281
1
  3
ACAD_GROUP
350
D
  3
ACAD_MLINESTYLE
350
17
  3
ACAD_LAYOUT
350
1A
  3
ACAD_PLOTSETTINGS
350
19
  3
ACAD_PLOTSTYLENAME
350
E
  0
DICTIONARY
  5
D
102
{ACAD_REACTORS
330
C
102
}
100
AcDbDictionary
280
0
281
1
  0
ACDBDICTIONARYWDFLT
  5
E
102
{ACAD_REACTORS
330
C
102
}
100
AcDbDictionary
281
1
  3
Normal
350
F
100
AcDbDictionaryWithDefault
340
F
  0
DICTIONARY
  5
17
102
{ACAD_REACTORS
330
C
102
}
100
AcDbDictionary
280
0
281
1
  3
Standard
350
18
  0
DICTIONARY
  5
19
102
{ACAD_REACTORS
330
C
102
}
100
AcDbDictionary
281
1
  0
DICTIONARY
  5
1A
102
{ACAD_REACTORS
330
C
102
}
100
AcDbDictionary
281
1
  3
Model
350
346
  3
Layout1
350
347
  0
ACDBPLACEHOLDER
  5
F
102
{ACAD_REACTORS
330
E
102
}
  0
MLINESTYLE
  5
18
102
{ACAD_REACTORS
330
17
102
}
100
AcDbMlineStyle
  2
STANDARD
 70
0
  3

 62
256
 51
90.0
 52
90.0
 71
2
 49
0.5
 62
256
  6
BYLAYER
 49
-0.5
 62
256
  6
BYLAYER
  0
LAYOUT
  5
346
102
{ACAD_REACTORS
330
1A
102
}
100
AcDbPlotSettings
  1

  2
none_device
  4
ISO_A4_(297.00_x_210.00_MM)
  6

 40
0.0
 41
0.0
 42
0.0
 43
0.0
 44
297.0
 45
210.0
 46
0.0
 47
0.0
 48
0.0
 49
0.0
140
0.0
141
0.0
142
1.0
143
1.0
 70
1024
 72
1
 73
0
 74
0
  7

 75
0
147
1.0
148
0.0
149
0.0
100
AcDbLayout
  1
Model
 70
0
 71
0
 10
0.0
 20
0.0
 11
297.0
 21
210.0
 12
0.0
 22
0.0
 32
0.0
 14
0.0
 24
0.0
 34
0.0
 15
0.0
 25
0.0
 35
0.0
146
0.0
 13
0.0
 23
0.0
 33
0.0
 16
1.0
 26
0.0
 36
0.0
 17
0.0
 27
1.0
 37
0.0
 76
0
330
214
345
0
346
0
  0
LAYOUT
  5
347
102
{ACAD_REACTORS
330
1A
102
}
100
AcDbPlotSettings
  1

  2
none_device
  4
ISO_A4_(297.00_x_210.00_MM)
  6

 40
0.0
 41
0.0
 42
0.0
 43
0.0
 44
297.0
 45
210.0
 46
0.0
 47
0.0
 48
0.0
 49
0.0
140
0.0
141
0.0
142
1.0
143
1.0
 70
0
 72
1
 73
0
 74
0
  7

 75
0
147
1.0
148
0.0
149
0.0
100
AcDbLayout
  1
Layout1
 70
0
 71
1
 10
0.0
 20
0.0
 11
297.0
 21
210.0
 12
0.0
 22
0.0
 32
0.0
 14
0.0
 24
0.0
 34
0.0
 15
0.0
 25
0.0
 35
0.0
146
0.0
 13
0.0
 23
0.0
 33
0.0
 16
1.0
 26
0.0
 36
0.0
 17
0.0
 27
1.0
 37
0.0
 76
0
330
215
345
0
346
0
  0
ENDSEC
  0
EOF
