  0
SECTION
  2
HEADER
  9
$ACADVER
  1
AC1015
  9
$DWGCODEPAGE
  3
ANSI_1252
  9
$EXTMAX
 10
297.0
 20
210.0
 30
0.0
  9
$EXTMIN
 10
0.0
 20
0.0
 30
0.0
  9
$LIMMIN
 10
0.0
 20
0.0
  9
$LIMMAX
 10
297.0
 20
210.0
  9
$VIEWCTR
 10
148.5
 20
105.0
  9
$VIEWSIZE
 40
210.0
  9
$CLAYER
  8
0
  9
$LTSCALE
 40
16.335
  9
$CELTYPE
  6
BYLAYER
  9
$DIMSCALE
 40
1.0
  9
$DIMASZ
 40
3.0
  9
$DIMEXO
 40
1.85625
  9
$DIMDLI
 40
11.286
  9
$DIMEXE
 40
5.346
  9
$DIMCEN
 40
2.673
  9
$DIMLFAC
 40
1.0
  9
$DIMBLK
  1
_FILLED
  9
$DIMTXT
 40
3.0
  9
$DIMTOL
 70
1
  9
$DIMLIM
 70
0
  9
$DIMTFAC
 40
1.0
  9
$DIMTP
 40
0.01
  9
$DIMTM
 40
0.01
  9
$PDMODE
 70
3
  9
$PDSIZE
 40
3.0
  9
$HANDSEED
  5
419
  9
$TILEMODE
 70
1
  9
$MEASUREMENT
 70
1
  9
$INSUNITS
 70
4
  0
ENDSEC
  0
SECTION
  2
CLASSES
  0
CLASS
  1
ACDBDICTIONARYWDFLT
  2
AcDbDictionaryWithDefault
  3
AutoCAD 2000
 90
0
280
0
281
0
  0
CLASS
  1
ACDBPLACEHOLDER
  2
AcDbPlaceHolder
  3
AutoCAD 2000
 90
0
280
0
281
0
  0
CLASS
  1
LAYOUT
  2
AcDbLayout
  3
AutoCAD 2000
 90
0
280
0
281
0
  0
ENDSEC
  0
SECTION
  2
TABLES
  0
TABLE
  2
VPORT
  5
8
100
AcDbSymbolTable
 70
2
  0
VPORT
  5
1F4
100
AcDbSymbolTableRecord
100
AcDbViewportTableRecord
  2
*ACTIVE
 70
0
 10
0.0
 20
0.0
 11
1.0
 21
1.0
 12
148.5
 22
105.0
 13
0.0
 23
0.0
 14
1.0
 24
1.0
 15
0.0
 25
0.0
 16
0.0
 26
0.0
 36
1.0
 17
0.0
 27
0.0
 37
0.0
 40
210.0
 41
1.4142857143
 42
50.0
 43
0.0
 44
0.0
 50
0.0
 51
0.0
 71
0
 72
100
 73
1
 74
1
 75
0
 76
0
 77
0
 78
0
  0
ENDTAB
  0
TABLE
  2
LTYPE
  5
5
100
AcDbSymbolTable
 70
6
  0
LTYPE
  5
14
100
AcDbSymbolTableRecord
100
AcDbLinetypeTableRecord
  2
BYBLOCK
 70
0
  3

 72
65
 73
0
 40
0.0
  0
LTYPE
  5
15
100
AcDbSymbolTableRecord
100
AcDbLinetypeTableRecord
  2
BYLAYER
 70
0
  3

 72
65
 73
0
 40
0.0
  0
LTYPE
  5
16
100
AcDbSymbolTableRecord
100
AcDbLinetypeTableRecord
  2
CONTINUOUS
 70
64
  3
Solid line
 72
65
 73
0
 40
0.0
  0
LTYPE
  5
1F5
100
AcDbSymbolTableRecord
100
AcDbLinetypeTableRecord
  2
CENTER
 70
64
  3
____ _ ____ _ ____ _ ____ _ ____ _ ____ _ ____
 72
65
 73
4
 40
0.6
 49
0.375
 74
0
 49
-0.075
 74
0
 49
0.075
 74
0
 49
-0.075
 74
0
  0
LTYPE
  5
1F6
100
AcDbSymbolTableRecord
100
AcDbLinetypeTableRecord
  2
HIDDEN
 70
64
  3
- - - - - - - - - - - - - - - - - - - -
 72
65
 73
2
 40
0.2
 49
0.1
 74
0
 49
-0.1
 74
0
  0
LTYPE
  5
1F7
100
AcDbSymbolTableRecord
100
AcDbLinetypeTableRecord
  2
PHANTOM
 70
64
  3
_____ _ _ _____ _ _ _____ _ _ _____
 72
65
 73
6
 40
0.8
 49
0.45
 74
0
 49
-0.05
 74
0
 49
0.1
 74
0
 49
-0.05
 74
0
 49
0.1
 74
0
 49
-0.05
 74
0
  0
LTYPE
  5
1F8
100
AcDbSymbolTableRecord
100
AcDbLinetypeTableRecord
  2
DOT
 70
64
  3
. . . . . . . . . . . . . . . . . . . .
 72
65
 73
2
 40
0.2
 49
0.1
 74
0
 49
-0.1
 74
0
  0
LTYPE
  5
1F9
100
AcDbSymbolTableRecord
100
AcDbLinetypeTableRecord
  2
DASHED
 70
64
  3
- - - - - - - - - - - - - - - - - - - -
 72
65
 73
2
 40
0.2
 49
0.1
 74
0
 49
-0.1
 74
0
  0
ENDTAB
  0
TABLE
  2
LAYER
  5
2
100
AcDbSymbolTable
 70
36
  0
LAYER
  5
10
100
AcDbSymbolTableRecord
100
AcDbLayerTableRecord
  2
0
 70
0
 62
7
  6
CONTINUOUS
370
-3
390
F
  0
LAYER
  5
1FA
100
AcDbSymbolTableRecord
100
AcDbLayerTableRecord
  2
DEFAULT_1
 70
0
 62
7
  6
CENTER
370
-3
390
F
  0
LAYER
  5
1FB
100
AcDbSymbolTableRecord
100
AcDbLayerTableRecord
  2
DEFAULT_2
 70
0
 62
7
  6
HIDDEN
370
-3
390
F
  0
LAYER
  5
1FC
100
AcDbSymbolTableRecord
100
AcDbLayerTableRecord
  2
DEFAULT_3
 70
0
 62
7
  6
PHANTOM
370
-3
390
F
  0
LAYER
  5
1FD
100
AcDbSymbolTableRecord
100
AcDbLayerTableRecord
  2
ASSI
 70
0
 62
7
  6
CONTINUOUS
370
-3
390
F
  0
LAYER
  5
1FE
100
AcDbSymbolTableRecord
100
AcDbLayerTableRecord
  2
COORDINATE
 70
0
 62
7
  6
CONTINUOUS
370
-3
390
F
  0
LAYER
  5
1FF
100
AcDbSymbolTableRecord
100
AcDbLayerTableRecord
  2
COPY_PUBLISH
 70
0
 62
7
  6
CONTINUOUS
370
-3
390
F
  0
LAYER
  5
200
100
AcDbSymbolTableRecord
100
AcDbLayerTableRecord
  2
COSMETIC
 70
0
 62
7
  6
CONTINUOUS
370
-3
390
F
  0
LAYER
  5
201
100
AcDbSymbolTableRecord
100
AcDbLayerTableRecord
  2
COSMETICI
 70
0
 62
7
  6
CONTINUOUS
370
-3
390
F
  0
LAYER
  5
202
100
AcDbSymbolTableRecord
100
AcDbLayerTableRecord
  2
CURVE
 70
0
 62
7
  6
CONTINUOUS
370
-3
390
F
  0
LAYER
  5
203
100
AcDbSymbolTableRecord
100
AcDbLayerTableRecord
  2
DRAFT
 70
0
 62
7
  6
CONTINUOUS
370
-3
390
F
  0
LAYER
  5
204
100
AcDbSymbolTableRecord
100
AcDbLayerTableRecord
  2
IMPORT_IGES
 70
0
 62
7
  6
CONTINUOUS
370
-3
390
F
  0
LAYER
  5
205
100
AcDbSymbolTableRecord
100
AcDbLayerTableRecord
  2
INTFCLR_11
 70
0
 62
7
  6
CONTINUOUS
370
-3
390
F
  0
LAYER
  5
206
100
AcDbSymbolTableRecord
100
AcDbLayerTableRecord
  2
INTF_1
 70
0
 62
7
  6
CONTINUOUS
370
-3
390
F
  0
LAYER
  5
207
100
AcDbSymbolTableRecord
100
AcDbLayerTableRecord
  2
INTF_3
 70
0
 62
7
  6
CONTINUOUS
370
-3
390
F
  0
LAYER
  5
208
100
AcDbSymbolTableRecord
100
AcDbLayerTableRecord
  2
NOTE
 70
0
 62
7
  6
CONTINUOUS
370
-3
390
F
  0
LAYER
  5
209
100
AcDbSymbolTableRecord
100
AcDbLayerTableRecord
  2
PIANI
 70
0
 62
7
  6
CONTINUOUS
370
-3
390
F
  0
LAYER
  5
20A
100
AcDbSymbolTableRecord
100
AcDbLayerTableRecord
  2
PUNTI
 70
0
 62
7
  6
CONTINUOUS
370
-3
390
F
  0
LAYER
  5
20B
100
AcDbSymbolTableRecord
100
AcDbLayerTableRecord
  2
RACCORDO
 70
0
 62
7
  6
CONTINUOUS
370
-3
390
F
  0
LAYER
  5
20C
100
AcDbSymbolTableRecord
100
AcDbLayerTableRecord
  2
SIMBOLI
 70
0
 62
7
  6
CONTINUOUS
370
-3
390
F
  0
LAYER
  5
20D
100
AcDbSymbolTableRecord
100
AcDbLayerTableRecord
  2
SMUSSO
 70
0
 62
7
  6
CONTINUOUS
370
-3
390
F
  0
LAYER
  5
20E
100
AcDbSymbolTableRecord
100
AcDbLayerTableRecord
  2
SNAPLINE
 70
0
 62
7
  6
CONTINUOUS
370
-3
390
F
  0
LAYER
  5
20F
100
AcDbSymbolTableRecord
100
AcDbLayerTableRecord
  2
SUPERFICI
 70
0
 62
7
  6
CONTINUOUS
370
-3
390
F
  0
LAYER
  5
210
100
AcDbSymbolTableRecord
100
AcDbLayerTableRecord
  2
TRASH
 70
0
 62
7
  6
CONTINUOUS
370
-3
390
F
  0
LAYER
  5
211
100
AcDbSymbolTableRecord
100
AcDbLayerTableRecord
  2
___SHELL
 70
0
 62
7
  6
CONTINUOUS
370
-3
390
F
  0
ENDTAB
  0
TABLE
  2
STYLE
  5
3
100
AcDbSymbolTable
 70
1
  0
STYLE
  5
11
100
AcDbSymbolTableRecord
100
AcDbTextStyleTableRecord
  2
STANDARD
 70
0
 40
0.0
 41
0.8
 50
0.0
 71
0
 42
0.2
  3
txt
  4

  0
STYLE
  5
212
100
AcDbSymbolTableRecord
100
AcDbTextStyleTableRecord
  2
TEXTSTYLE_1
 70
0
 40
0.0
 41
0.8
 50
0.0
 71
0
 42
0.2
  3
gdt
  4

  0
ENDTAB
  0
TABLE
  2
VIEW
  5
6
100
AcDbSymbolTable
 70
0
  0
ENDTAB
  0
TABLE
  2
UCS
  5
7
100
AcDbSymbolTable
 70
0
  0
ENDTAB
  0
TABLE
  2
APPID
  5
9
100
AcDbSymbolTable
 70
1
  0
APPID
  5
213
100
AcDbSymbolTableRecord
100
AcDbRegAppTableRecord
  2
ACAD
 70
0
  0
ENDTAB
  0
TABLE
  2
BLOCK_RECORD
  5
1
100
AcDbSymbolTable
 70
0
  0
BLOCK_RECORD
  5
214
100
AcDbSymbolTableRecord
100
AcDbBlockTableRecord
  2
*Model_Space
  0
BLOCK_RECORD
  5
215
100
AcDbSymbolTableRecord
100
AcDbBlockTableRecord
  2
*Paper_Space
  0
BLOCK_RECORD
  5
216
100
AcDbSymbolTableRecord
100
AcDbBlockTableRecord
  2
_FILLED
  0
BLOCK_RECORD
  5
217
100
AcDbSymbolTableRecord
100
AcDbBlockTableRecord
  2
*D0
  0
BLOCK_RECORD
  5
218
100
AcDbSymbolTableRecord
100
AcDbBlockTableRecord
  2
*D1
  0
BLOCK_RECORD
  5
219
100
AcDbSymbolTableRecord
100
AcDbBlockTableRecord
  2
*D2
  0
ENDTAB
  0
TABLE
  2
DIMSTYLE
  5
A
100
AcDbSymbolTable
 70
1
100
AcDbDimStyleTable
 71
0
  0
DIMSTYLE
105
21A
100
AcDbSymbolTableRecord
100
AcDbDimStyleTableRecord
  2
STANDARD
 70
0
  3

  4

 40
1.0
 41
3.0
 42
0.0625
 43
0.38
 44
0.18
 45
0.0
 46
0.0
 47
0.01
 48
0.01
140
3.0
141
0.09
142
0.0
143
25.4
144
1.0
145
0.0
146
1.0
147
0.09
 71
1.0
 72
0.0
 73
0
 74
0
 75
0
 76
0
 77
1
 78
8
170
0
171
2
172
0
173
0
174
0
175
0
176
0
177
0
178
0
270
2
271
2
272
2
273
2
274
2
275
0
280
0
281
0
282
0
283
1
284
8
285
0
286
0
287
3
288
0
340
11
341
216
342
216
343
216
344
216
  0
DIMSTYLE
105
21B
100
AcDbSymbolTableRecord
100
AcDbDimStyleTableRecord
  2
DIMSTYLE_1
 70
0
  3

  4

 40
1.0
 41
3.0
 42
0.0625
 43
0.38
 44
0.18
 45
0.0
 46
0.0
 47
0.0
 48
0.0
140
3.0
141
0.09
142
0.0
143
25.4
144
1.0
145
0.0
146
1.0
147
0.09
 71
0.0
 72
0.0
 73
0
 74
0
 75
0
 76
0
 77
1
 78
8
170
0
171
2
172
0
173
0
174
0
175
0
176
0
177
0
178
0
270
2
271
1
272
1
273
2
274
2
275
0
280
0
281
0
282
0
283
1
284
8
285
0
286
0
287
3
288
0
340
11
341
216
342
216
343
216
344
216
  0
ENDTAB
  0
ENDSEC
  0
SECTION
  2
BLOCKS
  0
BLOCK
  5
20
100
AcDbEntity
  8
0
100
AcDbBlockBegin
  2
*Model_Space
 70
0
 10
0.0
 20
0.0
 30
0.0
  3
*Model_Space
  1

  0
ENDBLK
  5
21
100
AcDbEntity
  8
0
100
AcDbBlockEnd
  0
BLOCK
  5
1C
100
AcDbEntity
  8
0
100
AcDbBlockBegin
  2
*Paper_Space
 70
0
 10
0.0
 20
0.0
 30
0.0
  3
*Paper_Space
  1

  0
ENDBLK
  5
1D
100
AcDbEntity
  8
0
100
AcDbBlockEnd
  0
BLOCK
  5
21C
100
AcDbEntity
  8
0
100
AcDbBlockBegin
  2
_FILLED
 70
64
 10
0.0
 20
0.0
  3
_FILLED
  1

  0
SOLID
  5
21D
100
AcDbEntity
  8
0
  6
BYBLOCK
 62
0
100
AcDbTrace
 10
0.0
 20
0.0
 11
-1.0
 21
0.3166666667
 12
-1.0
 22
-0.3166666667
 13
-1.0
 23
-0.3166666667
  0
ENDBLK
  5
21E
100
AcDbEntity
  8
0
  6
BYBLOCK
 62
0
100
AcDbBlockEnd
  0
BLOCK
  5
21F
100
AcDbEntity
  8
0
100
AcDbBlockBegin
 62
7
  6
CONTINUOUS
  2
*D0
 70
65
 10
0.0
 20
0.0
  3
*D0
  1

  0
LINE
  5
220
100
AcDbEntity
  8
0
100
AcDbLine
 62
7
  6
CONTINUOUS
 10
11.037406726
 20
-22.4305789785
 11
11.037406726
 21
36.8933816869
  0
LINE
  5
221
100
AcDbEntity
  8
0
100
AcDbLine
 62
7
  6
CONTINUOUS
 10
-11.037406726
 20
22.1124414913
 11
-11.037406726
 21
36.8933816869
  0
LINE
  5
222
100
AcDbEntity
  8
0
100
AcDbLine
 62
7
  6
CONTINUOUS
 10
11.037406726
 20
35.3933816869
 11
-0.0
 21
35.3933816869
  0
LINE
  5
223
100
AcDbEntity
  8
0
100
AcDbLine
 62
7
  6
CONTINUOUS
 10
-11.037406726
 20
35.3933816869
 11
-0.0
 21
35.3933816869
  0
INSERT
  5
224
100
AcDbEntity
  8
0
100
AcDbBlockReference
 62
7
  6
CONTINUOUS
  2
_FILLED
 10
11.037406726
 20
35.3933816869
 41
3.0
 42
3.0
 43
3.0
  0
INSERT
  5
225
100
AcDbEntity
  8
0
100
AcDbBlockReference
 62
7
  6
CONTINUOUS
  2
_FILLED
 10
-11.037406726
 20
35.3933816869
 41
3.0
 42
3.0
 43
3.0
 50
180.0
  0
ENDBLK
  5
226
100
AcDbEntity
  8
0
  6
BYBLOCK
 62
0
100
AcDbBlockEnd
  0
BLOCK
  5
227
100
AcDbEntity
  8
0
100
AcDbBlockBegin
 62
7
  6
CONTINUOUS
  2
*D1
 70
65
 10
0.0
 20
0.0
  3
*D1
  1

  0
LINE
  5
228
100
AcDbEntity
  8
0
100
AcDbLine
 62
7
  6
CONTINUOUS
 10
11.0380919586
 20
22.1117562587
 11
25.3553195672
 21
22.1117562587
  0
LINE
  5
229
100
AcDbEntity
  8
0
100
AcDbLine
 62
7
  6
CONTINUOUS
 10
11.0380919586
 20
-22.1117562587
 11
25.3553195672
 21
-22.1117562587
  0
LINE
  5
22A
100
AcDbEntity
  8
0
100
AcDbLine
 62
7
  6
CONTINUOUS
 10
23.8553195672
 20
22.1117562587
 11
23.8553195672
 21
-0.0
  0
LINE
  5
22B
100
AcDbEntity
  8
0
100
AcDbLine
 62
7
  6
CONTINUOUS
 10
23.8553195672
 20
-22.1117562587
 11
23.8553195672
 21
-0.0
  0
INSERT
  5
22C
100
AcDbEntity
  8
0
100
AcDbBlockReference
 62
7
  6
CONTINUOUS
  2
_FILLED
 10
23.8553195672
 20
22.1117562587
 41
3.0
 42
3.0
 43
3.0
 50
90.0
  0
INSERT
  5
22D
100
AcDbEntity
  8
0
100
AcDbBlockReference
 62
7
  6
CONTINUOUS
  2
_FILLED
 10
23.8553195672
 20
-22.1117562587
 41
3.0
 42
3.0
 43
3.0
 50
270.0
  0
ENDBLK
  5
22E
100
AcDbEntity
  8
0
  6
BYBLOCK
 62
0
100
AcDbBlockEnd
  0
BLOCK
  5
22F
100
AcDbEntity
  8
0
100
AcDbBlockBegin
 62
7
  6
CONTINUOUS
  2
*D2
 70
65
 10
0.0
 20
0.0
  3
*D2
  1

  0
LINE
  5
230
100
AcDbEntity
  8
0
100
AcDbLine
 62
7
  6
CONTINUOUS
 10
-34.0102264717
 20
13.7689805518
 11
-34.0102264717
 21
36.8933816869
  0
LINE
  5
231
100
AcDbEntity
  8
0
100
AcDbLine
 62
7
  6
CONTINUOUS
 10
-38.6973090451
 20
2.5657118087
 11
-38.6973090451
 21
36.8933816869
  0
LINE
  5
232
100
AcDbEntity
  8
0
100
AcDbLine
 62
7
  6
CONTINUOUS
 10
-34.0102264717
 20
35.3933816869
 11
-30.0102264717
 21
35.3933816869
  0
LINE
  5
233
100
AcDbEntity
  8
0
100
AcDbLine
 62
7
  6
CONTINUOUS
 10
-30.0102264717
 20
35.3933816869
 11
-36.3537677584
 21
35.3933816869
  0
LINE
  5
234
100
AcDbEntity
  8
0
100
AcDbLine
 62
7
  6
CONTINUOUS
 10
-38.6973090451
 20
35.3933816869
 11
-50.1454631056
 21
35.3933816869
  0
LINE
  5
235
100
AcDbEntity
  8
0
100
AcDbLine
 62
7
  6
CONTINUOUS
 10
-50.1454631056
 20
35.3933816869
 11
-36.3537677584
 21
35.3933816869
  0
INSERT
  5
236
100
AcDbEntity
  8
0
100
AcDbBlockReference
 62
7
  6
CONTINUOUS
  2
_FILLED
 10
-34.0102264717
 20
35.3933816869
 41
3.0
 42
3.0
 43
3.0
 50
180.0
  0
INSERT
  5
237
100
AcDbEntity
  8
0
100
AcDbBlockReference
 62
7
  6
CONTINUOUS
  2
_FILLED
 10
-38.6973090451
 20
35.3933816869
 41
3.0
 42
3.0
 43
3.0
  0
ENDBLK
  5
238
100
AcDbEntity
  8
0
  6
BYBLOCK
 62
0
100
AcDbBlockEnd
  0
ENDSEC
  0
SECTION
  2
ENTITIES
  0
DIMENSION
  5
239
100
AcDbEntity
  8
0
100
AcDbDimension
 62
7
  6
CONTINUOUS
  2
*D0
 10
-11.037406726
 20
35.3933816869
 11
-4.0714285714
 21
36.1433816869
 70
160
 71
2
 42
22.074813452
  3
DIMSTYLE_1
100
AcDbAlignedDimension
 13
11.037406726
 23
-22.4305789785
 14
-11.037406726
 24
22.1124414913
 50
180.0
100
AcDbRotatedDimension
  0
DIMENSION
  5
23A
100
AcDbEntity
  8
0
100
AcDbDimension
 62
7
  6
CONTINUOUS
  2
*D1
 10
23.8553195672
 20
-22.1117562587
 11
23.1053195672
 21
-4.3928571429
 70
160
 71
2
 42
44.2235125174
  3
DIMSTYLE_1
100
AcDbAlignedDimension
 13
11.0380919586
 23
22.1117562587
 14
11.0380919586
 24
-22.1117562587
 50
270.0
100
AcDbRotatedDimension
  0
DIMENSION
  5
23B
100
AcDbEntity
  8
0
100
AcDbDimension
 62
7
  6
CONTINUOUS
  2
*D2
 10
-38.6973090451
 20
35.3933816869
 11
-50.1454631056
 21
36.1433816869
 70
160
 71
3
 42
4.6870825733
  3
DIMSTYLE_1
100
AcDbAlignedDimension
 13
-34.0102264717
 23
13.7689805518
 14
-38.6973090451
 24
2.5657118087
 50
180.0
100
AcDbRotatedDimension
  0
LWPOLYLINE
  5
23C
100
AcDbEntity
  8
0
100
AcDbPolyline
 62
7
  6
CONTINUOUS
 90
3
 70
0
 43
0.3500000006
 10
2.3571427875
 20
38.2862390442
 10
3.2142856836
 20
39.1433815155
 10
3.2142856836
 20
36.1433806
  0
LWPOLYLINE
  5
23D
100
AcDbEntity
  8
RACCORDO
100
AcDbPolyline
 62
253
  6
CONTINUOUS
 90
16
 70
0
 10
10.4516663102
 20
-22.0253306103
 10
10.5037690666
 20
-22.0224620551
 10
10.5553028853
 20
-22.0141731476
 10
10.6057051072
 20
-22.0005544084
 10
10.6544254459
 20
-21.9817545437
 10
10.7009319522
 20
-21.9579788371
 10
10.7447168289
 20
-21.9294869224
 10
10.7853020361
 20
-21.8965899146
 10
10.8222444888
 20
-21.8596470098
 10
10.8551408595
 20
-21.8190615926
 10
10.8836320105
 20
-21.77527681
 10
10.907406916
 20
-21.7287707174
 10
10.9262060426
 20
-21.6800510715
 10
10.9398241783
 20
-21.6296497963
 10
10.9481126754
 20
-21.5781171775
 10
10.9509810776
 20
-21.5260158429
  0
LWPOLYLINE
  5
23E
100
AcDbEntity
  8
RACCORDO
100
AcDbPolyline
 62
253
  6
CONTINUOUS
 90
14
 70
0
 10
10.5467846174
 20
-20.8766973698
 10
10.5927250858
 20
-20.8759631133
 10
10.6370256354
 20
-20.8750463295
 10
10.6792735144
 20
-20.8739555604
 10
10.7190750957
 20
-20.8727009687
 10
10.7560595448
 20
-20.8712942435
 10
10.7898822745
 20
-20.8697484914
 10
10.8202281557
 20
-20.8680781143
 10
10.8468144532
 20
-20.8662986753
 10
10.8693934603
 20
-20.8644267535
 10
10.8877548066
 20
-20.8624797898
 10
10.9017274179
 20
-20.8604759241
 10
10.9111811102
 20
-20.8584338268
 10
10.9160278026
 20
-20.8563725241
  0
LINE
  5
23F
100
AcDbEntity
  8
RACCORDO
100
AcDbLine
 62
253
  6
CONTINUOUS
 10
10.45170734
 20
-20.8775927014
 11
10.5467846174
 21
-20.8766973698
  0
LINE
  5
240
100
AcDbEntity
  8
RACCORDO
100
AcDbLine
 62
253
  6
CONTINUOUS
 10
-10.4516663112
 20
-22.0253306113
 11
-7.0709563508
 21
-22.0147968665
  0
LINE
  5
241
100
AcDbEntity
  8
RACCORDO
100
AcDbLine
 62
253
  6
CONTINUOUS
 10
-7.0709563508
 20
-22.0147968665
 11
-3.6871602833
 21
-22.0083287978
  0
LINE
  5
242
100
AcDbEntity
  8
RACCORDO
100
AcDbLine
 62
253
  6
CONTINUOUS
 10
-10.4517073418
 20
-20.8775926608
 11
-5.0383196122
 21
-20.8718913483
  0
LINE
  5
243
100
AcDbEntity
  8
RACCORDO
100
AcDbLine
 62
253
  6
CONTINUOUS
 10
-3.6871602833
 20
-22.0083287978
 11
-0.3017398533
 21
-22.0059300251
  0
LINE
  5
244
100
AcDbEntity
  8
0
100
AcDbLine
 62
7
  6
CONTINUOUS
 10
-10.5380919586
 20
-22.1117562587
 11
10.5380919586
 21
-22.1117562587
  0
LINE
  5
245
100
AcDbEntity
  8
RACCORDO
100
AcDbLine
 62
253
  6
CONTINUOUS
 10
-5.0383196122
 20
-20.8718913483
 11
0.3802736877
 21
-20.8701786604
  0
LINE
  5
246
100
AcDbEntity
  8
RACCORDO
100
AcDbLine
 62
253
  6
CONTINUOUS
 10
0.3802736877
 20
-20.8701786604
 11
5.1443072636
 21
-20.8719616466
  0
LINE
  5
247
100
AcDbEntity
  8
RACCORDO
100
AcDbLine
 62
253
  6
CONTINUOUS
 10
-0.3017398533
 20
-22.0059300251
 11
3.0778248258
 21
-22.0075931727
  0
LINE
  5
248
100
AcDbEntity
  8
RACCORDO
100
AcDbLine
 62
253
  6
CONTINUOUS
 10
5.1443072636
 20
-20.8719616466
 11
10.4517073401
 21
-20.877592659
  0
LINE
  5
249
100
AcDbEntity
  8
RACCORDO
100
AcDbLine
 62
253
  6
CONTINUOUS
 10
3.0778248258
 20
-22.0075931727
 11
5.8412638358
 21
-22.0119754398
  0
LINE
  5
24A
100
AcDbEntity
  8
RACCORDO
100
AcDbLine
 62
253
  6
CONTINUOUS
 10
5.8412638358
 20
-22.0119754398
 11
8.8290977026
 21
-22.0197905108
  0
LINE
  5
24B
100
AcDbEntity
  8
RACCORDO
100
AcDbLine
 62
253
  6
CONTINUOUS
 10
8.8290977026
 20
-22.0197905108
 11
10.4516663102
 21
-22.0253306103
  0
LWPOLYLINE
  5
24C
100
AcDbEntity
  8
RACCORDO
100
AcDbPolyline
 62
253
  6
CONTINUOUS
 90
15
 70
0
 10
-10.4517064338
 20
-20.8775921467
 10
-10.5467828481
 20
-20.8766968422
 10
-10.5927229449
 20
-20.8759626079
 10
-10.637023179
 20
-20.875045852
 10
-10.6792708092
 20
-20.8739551156
 10
-10.7190722186
 20
-20.8727005609
 10
-10.7560565814
 20
-20.8712938762
 10
-10.7898793179
 20
-20.8697481676
 10
-10.820225305
 20
-20.8680778363
 10
-10.8468118121
 20
-20.8662984446
 10
-10.8693911354
 20
-20.864426571
 10
-10.8877529054
 20
-20.8624796554
 10
-10.9017260474
 20
-20.8604758371
 10
-10.911180375
 20
-20.8584337854
 10
-10.9160278031
 20
-20.856372526
  0
LWPOLYLINE
  5
24D
100
AcDbEntity
  8
RACCORDO
100
AcDbPolyline
 62
253
  6
CONTINUOUS
 90
16
 70
0
 10
-10.4516663112
 20
-22.0253306113
 10
-10.5037684339
 20
-22.0224621246
 10
-10.5553017021
 20
-22.0141734038
 10
-10.6057034721
 20
-22.0005549456
 10
-10.6544234538
 20
-21.9817554372
 10
-10.7009297193
 20
-21.957980133
 10
-10.74471451
 20
-21.9294886134
 10
-10.7852997805
 20
-21.8965919507
 10
-10.8222424182
 20
-21.859649313
 10
-10.8551390808
 20
-21.8190640424
 10
-10.8836306004
 20
-21.7752792517
 10
-10.9074059045
 20
-21.7287729862
 10
-10.9262054128
 20
-21.6800530045
 10
-10.939823871
 20
-21.6296512346
 10
-10.9481125919
 20
-21.5781179665
 10
-10.9509810786
 20
-21.5260158439
  0
LINE
  5
24E
100
AcDbEntity
  8
RACCORDO
100
AcDbLine
 62
253
  6
CONTINUOUS
 10
-10.9198842104
 20
21.1394682369
 11
-10.9178986357
 21
21.048481899
  0
LINE
  5
24F
100
AcDbEntity
  8
RACCORDO
100
AcDbLine
 62
253
  6
CONTINUOUS
 10
-10.9178986357
 20
21.048481899
 11
-10.916608781
 21
20.9538684136
  0
LINE
  5
250
100
AcDbEntity
  8
RACCORDO
100
AcDbLine
 62
253
  6
CONTINUOUS
 10
-10.916608781
 20
20.9538684136
 11
-10.9160278032
 21
20.856372526
  0
LWPOLYLINE
  5
251
100
AcDbEntity
  8
RACCORDO
100
AcDbPolyline
 62
253
  6
CONTINUOUS
 90
9
 70
0
 10
-10.9160278032
 20
20.856372526
 10
-10.9067976127
 20
16.2235174718
 10
-10.8998749702
 20
11.5897149038
 10
-10.8952598757
 20
6.9549648218
 10
-10.8929523297
 20
2.3186353394
 10
-10.8929523316
 20
-2.3186416569
 10
-10.89525988
 20
-6.9549705075
 10
-10.8998749746
 20
-11.589719326
 10
-10.9067976156
 20
-16.2235199988
  0
LINE
  5
252
100
AcDbEntity
  8
RACCORDO
100
AcDbLine
 62
253
  6
CONTINUOUS
 10
-10.4421594243
 20
11.6020450577
 11
-10.4380674491
 21
2.3208472824
  0
LINE
  5
253
100
AcDbEntity
  8
0
100
AcDbLine
 62
7
  6
CONTINUOUS
 10
-11.037406726
 20
21.6124414913
 11
-11.037406726
 21
-21.6124414913
  0
LINE
  5
254
100
AcDbEntity
  8
RACCORDO
100
AcDbLine
 62
253
  6
CONTINUOUS
 10
-10.4380674491
 20
2.3208472824
 11
-10.4394314443
 21
-6.9620306059
  0
LINE
  5
255
100
AcDbEntity
  8
RACCORDO
100
AcDbLine
 62
253
  6
CONTINUOUS
 10
-10.4394314443
 20
-6.9620306059
 11
-10.4462513957
 21
-16.2407094179
  0
LINE
  5
256
100
AcDbEntity
  8
RACCORDO
100
AcDbLine
 62
253
  6
CONTINUOUS
 10
-10.4462513957
 20
-16.2407094179
 11
-10.4512042609
 21
-21.8942417473
  0
LINE
  5
257
100
AcDbEntity
  8
RACCORDO
100
AcDbLine
 62
253
  6
CONTINUOUS
 10
-10.4515204152
 20
22.0179295951
 11
-10.4421594243
 21
11.6020450577
  0
LINE
  5
258
100
AcDbEntity
  8
RACCORDO
100
AcDbLine
 62
253
  6
CONTINUOUS
 10
-10.9067976156
 20
-16.2235199988
 11
-10.9162301691
 21
-20.9055043316
  0
LWPOLYLINE
  5
259
100
AcDbEntity
  8
RACCORDO
100
AcDbPolyline
 62
253
  6
CONTINUOUS
 90
3
 70
0
 10
-10.4512042609
 20
-21.8942417473
 10
-10.4515203381
 20
-22.0179297525
 10
-10.4516663112
 20
-22.0253306113
  0
LINE
  5
25A
100
AcDbEntity
  8
RACCORDO
100
AcDbLine
 62
253
  6
CONTINUOUS
 10
-10.9162301691
 20
-20.9055043316
 11
-10.9171632032
 21
-21.0014233887
  0
LWPOLYLINE
  5
25B
100
AcDbEntity
  8
RACCORDO
100
AcDbPolyline
 62
253
  6
CONTINUOUS
 90
18
 70
0
 10
-10.9171632032
 20
-21.0014233887
 10
-10.9188094204
 20
-21.0947135168
 10
-10.9198835105
 20
-21.1394405895
 10
-10.9211228558
 20
-21.1825971591
 10
-10.9225251322
 20
-21.2242264963
 10
-10.9240701974
 20
-21.2637126991
 10
-10.9257603461
 20
-21.3010267123
 10
-10.9275932837
 20
-21.336197591
 10
-10.9295419835
 20
-21.3686965981
 10
-10.9316081962
 20
-21.3984823398
 10
-10.9337901712
 20
-21.4255962099
 10
-10.936055629
 20
-21.4496336519
 10
-10.9384069907
 20
-21.4705497529
 10
-10.9408418352
 20
-21.4883894257
 10
-10.9433206205
 20
-21.502882853
 10
-10.9458301658
 20
-21.5139400955
 10
-10.9483836518
 20
-21.5216510925
 10
-10.9509810786
 20
-21.5260158439
  0
LINE
  5
25C
100
AcDbEntity
  8
RACCORDO
100
AcDbLine
 62
253
  6
CONTINUOUS
 10
-10.4516663112
 20
22.0253306113
 11
-10.4515204152
 21
22.0179295951
  0
LWPOLYLINE
  5
25D
100
AcDbEntity
  8
0
100
AcDbPolyline
 62
7
  6
CONTINUOUS
 90
3
 70
0
 43
0.3500000006
 10
1.3571429071
 20
36.4290962677
 10
1.2857142735
 20
36.2148117828
 10
1.1428571477
 20
35.9290961151
  0
LINE
  5
25E
100
AcDbEntity
  8
0
100
AcDbLine
 62
253
  6
CONTINUOUS
 10
10.4516663102
 20
22.0253306103
 11
10.5380919586
 21
22.1117562587
  0
LINE
  5
25F
100
AcDbEntity
  8
0
100
AcDbLine
 62
253
  6
CONTINUOUS
 10
10.5380919586
 20
-22.1117562587
 11
10.4516663102
 21
-22.0253306103
  0
LINE
  5
260
100
AcDbEntity
  8
0
100
AcDbLine
 62
253
  6
CONTINUOUS
 10
10.9509810776
 20
21.5260158429
 11
11.037406726
 21
21.6124414913
  0
LINE
  5
261
100
AcDbEntity
  8
0
100
AcDbLine
 62
253
  6
CONTINUOUS
 10
11.037406726
 20
-21.6124414913
 11
10.9509810776
 21
-21.5260158429
  0
LWPOLYLINE
  5
262
100
AcDbEntity
  8
0
100
AcDbPolyline
 62
7
  6
CONTINUOUS
 90
23
 70
0
 10
-3.8993546443
 20
0.6040959377
 10
-3.8974960636
 20
0.622951358
 10
-3.8944242569
 20
0.6415662618
 10
-3.8901169499
 20
0.6600176491
 10
-3.8845964127
 20
0.6782285213
 10
-3.8779294589
 20
0.6959678818
 10
-3.8700976469
 20
0.7132329525
 10
-3.8611194104
 20
0.7300265126
 10
-3.8511168761
 20
0.7461259012
 10
-3.8400810613
 20
0.7615171002
 10
-3.8280209385
 20
0.7762141284
 10
-3.8150855677
 20
0.7900363792
 10
-3.8012639527
 20
0.8029738602
 10
-3.7865670787
 20
0.8150365639
 10
-3.7711769791
 20
0.8260738617
 10
-3.755080894
 20
0.8360740891
 10
-3.7382915734
 20
0.8450489099
 10
-3.7210293187
 20
0.8528826874
 10
-3.7032920702
 20
0.8595625101
 10
-3.6850818803
 20
0.8651012884
 10
-3.6666252233
 20
0.8694221176
 10
-3.64799759
 20
0.8724993625
 10
-3.6291234863
 20
0.8743586569
  0
LWPOLYLINE
  5
263
100
AcDbEntity
  8
0
100
AcDbPolyline
 62
7
  6
CONTINUOUS
 90
19
 70
0
 10
-3.8967533305
 20
0.6282336569
 10
-3.8927248503
 20
0.6495306379
 10
-3.8871249415
 20
0.6704489998
 10
-3.8799738691
 20
0.6908970226
 10
-3.8712944777
 20
0.7107989549
 10
-3.8611284064
 20
0.7300284025
 10
-3.8495642542
 20
0.7484262065
 10
-3.8366961869
 20
0.7658574038
 10
-3.8225912443
 20
0.7822432342
 10
-3.8073110881
 20
0.797530957
 10
-3.7909243195
 20
0.8116470966
 10
-3.7734881101
 20
0.824515593
 10
-3.7550851944
 20
0.8360692984
 10
-3.7358516125
 20
0.8462365971
 10
-3.7159392948
 20
0.8549412609
 10
-3.695472462
 20
0.862120514
 10
-3.6745381534
 20
0.8677326986
 10
-3.6532339137
 20
0.8717610344
 10
-3.6316848022
 20
0.8741879169
  0
LINE
  5
264
100
AcDbEntity
  8
0
100
AcDbLine
 62
7
  6
CONTINUOUS
 10
-2.7016019745
 20
0.6154412703
 11
-2.7
 21
0.585
  0
LINE
  5
265
100
AcDbEntity
  8
0
100
AcDbLine
 62
7
  6
CONTINUOUS
 10
-3.8991883014
 20
0.5433213136
 11
-3.9
 21
0.565
  0
LINE
  5
266
100
AcDbEntity
  8
0
100
AcDbLine
 62
7
  6
CONTINUOUS
 10
-3.9
 20
0.565
 11
-3.9
 21
0.585
  0
LINE
  5
267
100
AcDbEntity
  8
0
100
AcDbLine
 62
7
  6
CONTINUOUS
 10
-2.7
 20
0.585
 11
-2.7
 21
0.565
  0
LINE
  5
268
100
AcDbEntity
  8
0
100
AcDbLine
 62
7
  6
CONTINUOUS
 10
-2.7
 20
0.565
 11
-2.7006452629
 21
0.5459050172
  0
LWPOLYLINE
  5
269
100
AcDbEntity
  8
0
100
AcDbPolyline
 62
7
  6
CONTINUOUS
 90
3
 70
0
 10
-3.9
 20
0.585
 10
-3.8991850033
 20
0.6066862677
 10
-3.8967533305
 20
0.6282336569
  0
LINE
  5
26A
100
AcDbEntity
  8
0
100
AcDbLine
 62
7
  6
CONTINUOUS
 10
-2.7
 20
0.565
 11
-2.7015022062
 21
0.5355641027
  0
LWPOLYLINE
  5
26B
100
AcDbEntity
  8
0
100
AcDbPolyline
 62
7
  6
CONTINUOUS
 90
7
 70
0
 10
-2.8495588976
 20
-1.9598214675
 10
-2.8479351509
 20
-1.9382540515
 10
-2.8446894384
 20
-1.9168305804
 10
-2.8398417875
 20
-1.8956522946
 10
-2.8334340951
 20
-1.8748645607
 10
-2.8255155915
 20
-1.8546292161
 10
-2.8161256587
 20
-1.8350795754
  0
LWPOLYLINE
  5
26C
100
AcDbEntity
  8
0
100
AcDbPolyline
 62
7
  6
CONTINUOUS
 90
5
 70
0
 10
-2.7006452629
 20
0.5459050172
 10
-2.7025036769
 20
0.5270504444
 10
-2.7055752412
 20
0.5084362822
 10
-2.7098821809
 20
0.4899855694
 10
-2.715402268
 20
0.4717752685
  0
LWPOLYLINE
  5
26D
100
AcDbEntity
  8
0
100
AcDbPolyline
 62
7
  6
CONTINUOUS
 90
14
 70
0
 10
-2.7015022062
 20
0.5355641027
 10
-2.7060136142
 20
0.5062737395
 10
-2.7135411972
 20
0.477418947
 10
-2.7240648536
 20
0.4493340853
 10
-2.7375107677
 20
0.42235321
 10
-2.7537659291
 20
0.3967941532
 10
-2.7726650464
 20
0.3729955404
 10
-2.7940313458
 20
0.351230082
 10
-2.8176604987
 20
0.3317624217
 10
-2.84339136
 20
0.3148158371
 10
-2.8708964747
 20
0.3006149996
 10
-2.8996853831
 20
0.2894224982
 10
-2.929335371
 20
0.2814114366
 10
-2.9595461348
 20
0.2766032343
  0
LWPOLYLINE
  5
26E
100
AcDbEntity
  8
0
100
AcDbPolyline
 62
7
  6
CONTINUOUS
 90
4
 70
0
 10
-1.1576814011
 20
2.3159266085
 10
-1.1472235226
 20
2.3418575006
 10
-1.1377316337
 20
2.3681460688
 10
-1.1293642966
 20
2.394337956
  0
LWPOLYLINE
  5
26F
100
AcDbEntity
  8
0
100
AcDbPolyline
 62
7
  6
CONTINUOUS
 90
8
 70
0
 10
-2.722068821
 20
0.4540362658
 10
-2.7299002605
 20
0.4367713055
 10
-2.7388781602
 20
0.4199776444
 10
-2.7488805681
 20
0.4038779376
 10
-2.7599164893
 20
0.3884861502
 10
-2.7719769113
 20
0.3737883176
 10
-2.7849128559
 20
0.3599652001
 10
-2.7987353944
 20
0.3470267621
  0
LINE
  5
270
100
AcDbEntity
  8
0
100
AcDbLine
 62
7
  6
CONTINUOUS
 10
-1.1814213704
 20
2.2652908635
 11
-1.1690867251
 21
2.2903909922
  0
LWPOLYLINE
  5
271
100
AcDbEntity
  8
0
100
AcDbPolyline
 62
7
  6
CONTINUOUS
 90
3
 70
0
 10
-1.2088325214
 20
2.2165439871
 10
-1.1946702141
 20
2.2406648552
 10
-1.1814213704
 20
2.2652908635
  0
LINE
  5
272
100
AcDbEntity
  8
0
100
AcDbLine
 62
7
  6
CONTINUOUS
 10
-1.70649292
 20
1.6178394116
 11
-1.6216012762
 21
1.7456546014
  0
LWPOLYLINE
  5
273
100
AcDbEntity
  8
0
100
AcDbPolyline
 62
7
  6
CONTINUOUS
 90
4
 70
0
 10
-1.256805493
 20
2.1475650021
 10
-1.2399081332
 20
2.1699414239
 10
-1.2239118853
 20
2.1929570699
 10
-1.2090348168
 20
2.2162275596
  0
LINE
  5
274
100
AcDbEntity
  8
0
100
AcDbLine
 62
7
  6
CONTINUOUS
 10
-1.6262016041
 20
1.7392438209
 11
-1.5331751037
 21
1.8593806813
  0
LINE
  5
275
100
AcDbEntity
  8
0
100
AcDbLine
 62
7
  6
CONTINUOUS
 10
-1.5374068638
 20
1.8539629387
 11
-1.4369426689
 21
1.9661625778
  0
LWPOLYLINE
  5
276
100
AcDbEntity
  8
0
100
AcDbPolyline
 62
7
  6
CONTINUOUS
 90
10
 70
0
 10
-1.3333332156
 20
2.0657118072
 10
-1.286905177
 20
2.1128604611
 10
-1.245445959
 20
2.1630709312
 10
-1.2089555969
 20
2.2163432127
 10
-1.1772252592
 20
2.2731518682
 10
-1.1504638309
 20
2.3330223203
 10
-1.1292979174
 20
2.394530855
 10
-1.1139363979
 20
2.4572028974
 10
-1.1041704229
 20
2.5215130086
 10
-1.1
 20
2.5874611797
  0
LINE
  5
277
100
AcDbEntity
  8
0
100
AcDbLine
 62
7
  6
CONTINUOUS
 10
-1.4397841076
 20
1.9627856027
 11
-1.3333332156
 21
2.0657118072
  0
LWPOLYLINE
  5
278
100
AcDbEntity
  8
0
100
AcDbPolyline
 62
7
  6
CONTINUOUS
 90
4
 70
0
 10
-1.3333333563
 20
2.0657119644
 10
-1.3128037476
 20
2.0849468832
 10
-1.2932372867
 20
2.1050189726
 10
-1.2745842844
 20
2.125902523
  0
LWPOLYLINE
  5
279
100
AcDbEntity
  8
0
100
AcDbPolyline
 62
7
  6
CONTINUOUS
 90
11
 70
0
 10
-2.8134334472
 20
0.3349630392
 10
-2.8288248112
 20
0.3239248979
 10
-2.8449223005
 20
0.3139240528
 10
-2.8617130928
 20
0.3049487889
 10
-2.8789765323
 20
0.2971148287
 10
-2.896714697
 20
0.2904351853
 10
-2.9149255025
 20
0.2848968447
 10
-2.9333820508
 20
0.2805764883
 10
-2.952008709
 20
0.2774996761
 10
-2.9708811065
 20
0.2756408469
 10
-2.9899992415
 20
0.275
  0
LWPOLYLINE
  5
27A
100
AcDbEntity
  8
0
100
AcDbPolyline
 62
7
  6
CONTINUOUS
 90
2
 70
0
 43
0.3500000006
 10
23.1053206558
 20
-3.3928568802
 10
21.6053201981
 20
-3.3928568802
  0
LINE
  5
27B
100
AcDbEntity
  8
0
100
AcDbLine
 62
7
  6
CONTINUOUS
 10
0.0100000299
 20
-3.3249999995
 11
-0.0100000301
 21
-3.3249999995
  0
LINE
  5
27C
100
AcDbEntity
  8
0
100
AcDbLine
 62
7
  6
CONTINUOUS
 10
-0.0099999807
 20
-2.1249999997
 11
0.0099999805
 21
-2.1249999997
  0
LINE
  5
27D
100
AcDbEntity
  8
0
100
AcDbLine
 62
7
  6
CONTINUOUS
 10
0.0099999805
 20
-2.125
 11
0.0350113013
 21
-2.1260782877
  0
LINE
  5
27E
100
AcDbEntity
  8
0
100
AcDbLine
 62
7
  6
CONTINUOUS
 10
-0.0100000301
 20
-3.325
 11
-0.0350543815
 21
-3.323917495
  0
LWPOLYLINE
  5
27F
100
AcDbEntity
  8
0
100
AcDbPolyline
 62
7
  6
CONTINUOUS
 90
16
 70
0
 10
-0.010000417
 20
-3.3249999995
 10
-0.0407247945
 20
-3.3233752318
 10
-0.0706216413
 20
-3.3186360346
 10
-0.0996909565
 20
-3.3107824078
 10
-0.1283273493
 20
-3.2996227505
 10
-0.156136209
 20
-3.2853486614
 10
-0.1819337053
 20
-3.2685349408
 10
-0.205535787
 20
-3.2491061289
 10
-0.2271265064
 20
-3.2271376833
 10
-0.2460741903
 20
-3.2034307821
 10
-0.2622791434
 20
-3.1779297135
 10
-0.2758410634
 20
-3.1506901872
 10
-0.2864273666
 20
-3.1226805165
 10
-0.2939271925
 20
-3.0942234729
 10
-0.2984514035
 20
-3.0649962843
 10
-0.3
 20
-3.0349989498
  0
LWPOLYLINE
  5
280
100
AcDbEntity
  8
0
100
AcDbPolyline
 62
7
  6
CONTINUOUS
 90
16
 70
0
 10
0.0100003788
 20
-2.1249999997
 10
0.0408048087
 20
-2.1266406689
 10
0.0707644699
 20
-2.1314003048
 10
0.0998793615
 20
-2.1392789072
 10
0.1285436657
 20
-2.1504736346
 10
0.1563631988
 20
-2.1647873265
 10
0.1821554113
 20
-2.1816285052
 10
0.2057305403
 20
-2.2010658332
 10
0.2272783498
 20
-2.223030646
 10
0.2461855816
 20
-2.2467254769
 10
0.262357091
 20
-2.2722040869
 10
0.2758880251
 20
-2.2994127133
 10
0.2864505642
 20
-2.327392606
 10
0.2939354357
 20
-2.355824182
 10
0.2984519142
 20
-2.3850270239
 10
0.3
 20
-2.4150011312
  0
LWPOLYLINE
  5
281
100
AcDbEntity
  8
0
100
AcDbPolyline
 62
7
  6
CONTINUOUS
 90
7
 70
0
 10
-2.5563354509
 20
-2.2745592786
 10
-2.5779019321
 20
-2.2729365014
 10
-2.5993248453
 20
-2.2696918477
 10
-2.6205028982
 20
-2.2648452435
 10
-2.6412910383
 20
-2.25843843
 10
-2.6615274883
 20
-2.2505204942
 10
-2.6810787641
 20
-2.2411307482
  0
LWPOLYLINE
  5
282
100
AcDbEntity
  8
0
100
AcDbPolyline
 62
7
  6
CONTINUOUS
 90
7
 70
0
 10
2.534825526
 20
-2.2745590224
 10
2.5132597088
 20
-2.2729357816
 10
2.4918376394
 20
-2.2696907879
 10
2.470660586
 20
-2.264844014
 10
2.4498734296
 20
-2.2584371814
 10
2.4296379584
 20
-2.2505193787
 10
2.4100876371
 20
-2.2411299089
  0
LINE
  5
283
100
AcDbEntity
  8
0
100
AcDbLine
 62
7
  6
CONTINUOUS
 10
0.0350113013
 20
-2.1260782877
 11
0.0591473627
 21
-2.1291866326
  0
LINE
  5
284
100
AcDbEntity
  8
0
100
AcDbLine
 62
7
  6
CONTINUOUS
 10
-0.0350543815
 20
-3.323917495
 11
-0.0592526714
 21
-3.3207941419
  0
LWPOLYLINE
  5
285
100
AcDbEntity
  8
0
100
AcDbPolyline
 62
7
  6
CONTINUOUS
 90
3
 70
0
 10
0.0591473627
 20
-2.1291866326
 10
0.082273689
 20
-2.1341397808
 10
0.1041803877
 20
-2.1407234094
  0
LWPOLYLINE
  5
286
100
AcDbEntity
  8
0
100
AcDbPolyline
 62
7
  6
CONTINUOUS
 90
3
 70
0
 10
-0.0592526714
 20
-3.3207941419
 10
-0.0824573197
 20
-3.3158118249
 10
-0.1044727824
 20
-3.3091757707
  0
LWPOLYLINE
  5
287
100
AcDbEntity
  8
0
100
AcDbPolyline
 62
7
  6
CONTINUOUS
 90
13
 70
0
 10
0.1248789689
 20
-2.1487597978
 10
0.1445600386
 20
-2.1581589017
 10
0.1630943613
 20
-2.1687398525
 10
0.1804126985
 20
-2.1803561531
 10
0.1967469988
 20
-2.1931139028
 10
0.2120750196
 20
-2.2069737298
 10
0.2263066286
 20
-2.2218217194
 10
0.2395314281
 20
-2.2377500063
 10
0.2517311087
 20
-2.2547999243
 10
0.2627473908
 20
-2.2728236833
 10
0.2724459076
 20
-2.2916379681
 10
0.2807621771
 20
-2.3111406467
 10
0.2876458089
 20
-2.3312594828
  0
LWPOLYLINE
  5
288
100
AcDbEntity
  8
0
100
AcDbPolyline
 62
7
  6
CONTINUOUS
 90
13
 70
0
 10
-0.1252886287
 20
-3.3010647526
 10
-0.1450432998
 20
-3.29159097
 10
-0.1635917382
 20
-3.2809541824
 10
-0.180891519
 20
-3.2692969256
 10
-0.1971922559
 20
-3.2565083803
 10
-0.2124744557
 20
-3.2426331329
 10
-0.2266498404
 20
-3.2277892003
 10
-0.2398196775
 20
-3.2118743462
 10
-0.2519655932
 20
-3.1948463877
 10
-0.2629281119
 20
-3.1768564899
 10
-0.2725791691
 20
-3.1580801182
 10
-0.2808560269
 20
-3.1386154473
 10
-0.2877067918
 20
-3.1185376305
  0
LWPOLYLINE
  5
289
100
AcDbEntity
  8
0
100
AcDbPolyline
 62
7
  6
CONTINUOUS
 90
4
 70
0
 10
-2.6998539522
 20
-2.2302979233
 10
-2.7177722273
 20
-2.2180794078
 10
-2.7347322209
 20
-2.2045524377
 10
-2.750645
 20
-2.189788
  0
LWPOLYLINE
  5
28A
100
AcDbEntity
  8
0
100
AcDbPolyline
 62
7
  6
CONTINUOUS
 90
4
 70
0
 10
-1.9670502895
 20
-1.2866069427
 10
-1.949131946
 20
-1.2988254842
 10
-1.9321718604
 20
-1.3123525016
 10
-1.916259
 20
-1.327117
  0
LINE
  5
28B
100
AcDbEntity
  8
0
100
AcDbLine
 62
7
  6
CONTINUOUS
 10
-2.750645
 20
-2.189788
 11
-2.764788
 21
-2.175645
  0
LINE
  5
28C
100
AcDbEntity
  8
0
100
AcDbLine
 62
7
  6
CONTINUOUS
 10
-1.916259
 20
-1.327117
 11
-1.902117
 21
-1.341259
  0
LWPOLYLINE
  5
28D
100
AcDbEntity
  8
0
100
AcDbPolyline
 62
7
  6
CONTINUOUS
 90
3
 70
0
 10
-2.764788
 20
-2.175645
 10
-2.7795457835
 20
-2.1597404788
 10
-2.7930657254
 20
-2.1427921973
  0
LWPOLYLINE
  5
28E
100
AcDbEntity
  8
0
100
AcDbPolyline
 62
7
  6
CONTINUOUS
 90
3
 70
0
 10
-1.902117
 20
-1.341259
 10
-1.8873588487
 20
-1.3571639481
 10
-1.8738387699
 20
-1.374112483
  0
LINE
  5
28F
100
AcDbEntity
  8
0
100
AcDbLine
 62
7
  6
CONTINUOUS
 10
-2.7647885947
 20
-2.1756444053
 11
-2.7851048432
 21
-2.1530393875
  0
LINE
  5
290
100
AcDbEntity
  8
0
100
AcDbLine
 62
7
  6
CONTINUOUS
 10
-1.9021165124
 20
-1.3412594876
 11
-1.8818022427
 21
-1.3638615524
  0
LWPOLYLINE
  5
291
100
AcDbEntity
  8
0
100
AcDbPolyline
 62
7
  6
CONTINUOUS
 90
15
 70
0
 10
-2.7851048432
 20
-2.1530393875
 10
-2.802704969
 20
-2.1289172281
 10
-2.8175889884
 20
-2.1032779258
 10
-2.8298893117
 20
-2.0758095844
 10
-2.8394735538
 20
-2.046824096
 10
-2.8459445351
 20
-2.0172571415
 10
-2.8491877275
 20
-1.9870723045
 10
-2.8493176699
 20
-1.9563059964
 10
-2.84628078
 20
-1.926003141
 10
-2.8399354928
 20
-1.8961596372
 10
-2.8304233625
 20
-1.8667795819
 10
-2.8181154821
 20
-1.8389201996
 10
-2.8031355408
 20
-1.8129338987
 10
-2.7853598234
 20
-1.7884682699
 10
-2.7647883128
 20
-1.7655233128
  0
LWPOLYLINE
  5
292
100
AcDbEntity
  8
0
100
AcDbPolyline
 62
7
  6
CONTINUOUS
 90
15
 70
0
 10
-1.8818022427
 20
-1.3638615524
 10
-1.8642033913
 20
-1.3879811804
 10
-1.8493199694
 20
-1.4136183704
 10
-1.8370194368
 20
-1.4410849353
 10
-1.8274343507
 20
-1.470069059
 10
-1.8209623663
 20
-1.4996352963
 10
-1.8177179955
 20
-1.5298201652
 10
-1.8175867333
 20
-1.5605871438
 10
-1.8206227078
 20
-1.5908912281
 10
-1.8269677438
 20
-1.6207368439
 10
-1.8364800096
 20
-1.6501195622
 10
-1.8487881447
 20
-1.6779810981
 10
-1.8637683569
 20
-1.7039686903
 10
-1.881544421
 20
-1.7284350996
 10
-1.9021163253
 20
-1.7513803253
  0
LINE
  5
293
100
AcDbEntity
  8
0
100
AcDbLine
 62
7
  6
CONTINUOUS
 10
-2.7930657254
 20
-2.1427921973
 11
-2.8052773697
 21
-2.124888365
  0
LINE
  5
294
100
AcDbEntity
  8
0
100
AcDbLine
 62
7
  6
CONTINUOUS
 10
-1.8738387699
 20
-1.374112483
 11
-1.8616271829
 21
-1.3920163407
  0
LWPOLYLINE
  5
295
100
AcDbEntity
  8
0
100
AcDbPolyline
 62
7
  6
CONTINUOUS
 90
7
 70
0
 10
-2.8161025964
 20
-2.106132479
 10
-2.8254868983
 20
-2.0866019312
 10
-2.8334054541
 20
-2.0663798479
 10
-2.8398177768
 20
-2.0455995914
 10
-2.8446719736
 20
-2.0244274797
 10
-2.8479248636
 20
-2.0030078495
 10
-2.8495555253
 20
-1.9814418204
  0
LWPOLYLINE
  5
296
100
AcDbEntity
  8
0
100
AcDbPolyline
 62
7
  6
CONTINUOUS
 90
7
 70
0
 10
-1.8508022242
 20
-1.4107718607
 10
-1.8414182618
 20
-1.430301722
 10
-1.8334999149
 20
-1.450523132
 10
-1.8270876505
 20
-1.4713028436
 10
-1.8222334288
 20
-1.4924744046
 10
-1.8189804429
 20
-1.5138934754
 10
-1.8173496145
 20
-1.5354587983
  0
LINE
  5
297
100
AcDbEntity
  8
0
100
AcDbLine
 62
7
  6
CONTINUOUS
 10
-0.5008115957
 20
3.0566776411
 11
-0.5
 21
3.035
  0
LINE
  5
298
100
AcDbEntity
  8
0
100
AcDbLine
 62
7
  6
CONTINUOUS
 10
-1.1
 20
2.5874611797
 11
-1.1
 21
3.035
  0
LINE
  5
299
100
AcDbEntity
  8
0
100
AcDbLine
 62
7
  6
CONTINUOUS
 10
-0.5
 20
3.035
 11
-0.5
 21
2.5874609963
  0
LINE
  5
29A
100
AcDbEntity
  8
0
100
AcDbLine
 62
7
  6
CONTINUOUS
 10
-0.3
 20
-3.035
 11
-0.3
 21
-2.415
  0
LWPOLYLINE
  5
29B
100
AcDbEntity
  8
0
100
AcDbPolyline
 62
7
  6
CONTINUOUS
 90
3
 70
0
 10
-0.5
 20
2.5874609963
 10
-0.5008061361
 20
2.5418204322
 10
-0.5031986022
 20
2.4963470964
  0
LWPOLYLINE
  5
29C
100
AcDbEntity
  8
0
100
AcDbPolyline
 62
7
  6
CONTINUOUS
 90
21
 70
0
 10
-1.1
 20
3.035
 10
-1.0991854796
 20
3.0566799561
 10
-1.0967550732
 20
3.0782221058
 10
-1.0927284088
 20
3.0995150204
 10
-1.0871306092
 20
3.1204305988
 10
-1.0799816895
 20
3.1408770902
 10
-1.0713042916
 20
3.1607785763
 10
-1.0611399505
 20
3.1800083996
 10
-1.0495770471
 20
3.1984074186
 10
-1.0367095182
 20
3.2158407177
 10
-1.0226040554
 20
3.2322294537
 10
-1.0073222715
 20
3.2475205278
 10
-0.9909332423
 20
3.261639933
 10
-0.9734942656
 20
3.2745114854
 10
-0.9550880646
 20
3.2860678395
 10
-0.9358513426
 20
3.2962369236
 10
-0.9159357545
 20
3.3049427471
 10
-0.8954656079
 20
3.3121225962
 10
-0.874529505
 20
3.3177345559
 10
-0.8532258081
 20
3.3217621391
 10
-0.8316793438
 20
3.3241882752
  0
LWPOLYLINE
  5
29D
100
AcDbEntity
  8
0
100
AcDbPolyline
 62
7
  6
CONTINUOUS
 90
3
 70
0
 10
-0.3
 20
-2.4150021717
 10
-0.2985008102
 20
-2.3852550198
 10
-0.2940380054
 20
-2.3562224399
  0
LWPOLYLINE
  5
29E
100
AcDbEntity
  8
0
100
AcDbPolyline
 62
7
  6
CONTINUOUS
 90
7
 70
0
 10
-1.8173459608
 20
-1.5570783853
 10
-1.818969329
 20
-1.5786453021
 10
-1.8222146526
 20
-1.6000686638
 10
-1.8270619582
 20
-1.6212470674
 10
-1.8334693575
 20
-1.6420350357
 10
-1.841387593
 20
-1.6622706212
 10
-1.8507773272
 20
-1.6818206022
  0
LINE
  5
29F
100
AcDbEntity
  8
0
100
AcDbLine
 62
7
  6
CONTINUOUS
 10
-0.5031940907
 20
2.4963905433
 11
-0.507178708
 21
2.451028575
  0
LWPOLYLINE
  5
2A0
100
AcDbEntity
  8
0
100
AcDbPolyline
 62
7
  6
CONTINUOUS
 90
23
 70
0
 10
-1.0993549174
 20
3.0540929669
 10
-1.0974968663
 20
3.0729457191
 10
-1.0944258465
 20
3.0915582568
 10
-1.0901196855
 20
3.1100074973
 10
-1.0846005545
 20
3.1282165239
 10
-1.077934968
 20
3.1459545864
 10
-1.0701045266
 20
3.1632189737
 10
-1.0611276275
 20
3.1800123976
 10
-1.0511259802
 20
3.1961122425
 10
-1.0400905355
 20
3.2115046223
 10
-1.0280303399
 20
3.2262034239
 10
-1.0150942467
 20
3.2400276913
 10
-1.0012710762
 20
3.252967504
 10
-0.9865720053
 20
3.2650327832
 10
-0.9711794232
 20
3.2760723357
 10
-0.955080426
 20
3.286074392
 10
-0.9382879152
 20
3.2950507221
 10
-0.921022989
 20
3.3028854425
 10
-0.9032835115
 20
3.3095654142
 10
-0.8850716171
 20
3.3151037763
 10
-0.8666148113
 20
3.3194240627
 10
-0.8479889292
 20
3.3225007844
 10
-0.8291181353
 20
3.3243594302
  0
LWPOLYLINE
  5
2A1
100
AcDbEntity
  8
0
100
AcDbPolyline
 62
7
  6
CONTINUOUS
 90
23
 70
0
 10
0.50064516
 20
3.0540936672
 10
0.502503325
 20
3.0729470004
 10
0.5055744949
 20
3.0915599997
 10
0.5098808567
 20
3.1100095714
 10
0.5154002229
 20
3.128218809
 10
0.5220660309
 20
3.1459569939
 10
0.5298966628
 20
3.1632214059
 10
0.5388737355
 20
3.1800147653
 10
0.5488755386
 20
3.1961145151
 10
0.55991111
 20
3.2115067764
 10
0.5719714102
 20
3.2262054285
 10
0.5849076126
 20
3.2400295512
 10
0.598730897
 20
3.2529692367
 10
0.6134300818
 20
3.2650343936
 10
0.6288227986
 20
3.276073827
 10
0.6449219474
 20
3.286075772
 10
0.6617146263
 20
3.2950519942
 10
0.6789797643
 20
3.3028865961
 10
0.6967195105
 20
3.3095664416
 10
0.7149317139
 20
3.3151046675
 10
0.7333888541
 20
3.3194247848
 10
0.7520150906
 20
3.3225012977
 10
0.7708862626
 20
3.3243597027
  0
LWPOLYLINE
  5
2A2
100
AcDbEntity
  8
0
100
AcDbPolyline
 62
7
  6
CONTINUOUS
 90
4
 70
0
 10
-1.1056476012
 20
2.5039178342
 10
-1.102544624
 20
2.5316295061
 10
-1.1006447713
 20
2.5594730607
 10
-1.1
 20
2.5874611797
  0
LINE
  5
2A3
100
AcDbEntity
  8
0
100
AcDbLine
 62
7
  6
CONTINUOUS
 10
-0.5071773981
 20
2.4510409901
 11
-0.5127513237
 21
2.4058468891
  0
LWPOLYLINE
  5
2A4
100
AcDbEntity
  8
0
100
AcDbPolyline
 62
7
  6
CONTINUOUS
 90
9
 70
0
 10
-1.384300722
 20
0.7839636921
 10
-1.392539552
 20
0.7211620846
 10
-1.3976990805
 20
0.6560085732
 10
-1.3999940155
 20
0.5884743519
 10
-1.3992096528
 20
0.5185882216
 10
-1.3940632143
 20
0.4457277244
 10
-1.3847131978
 20
0.3694677301
 10
-1.3710010946
 20
0.2902333609
 10
-1.3511686067
 20
0.2086775341
  0
LINE
  5
2A5
100
AcDbEntity
  8
0
100
AcDbLine
 62
7
  6
CONTINUOUS
 10
-0.5127449705
 20
2.4058712838
 11
-0.5198846707
 21
2.3609576578
  0
LINE
  5
2A6
100
AcDbEntity
  8
0
100
AcDbLine
 62
7
  6
CONTINUOUS
 10
-0.5199115782
 20
2.3608200198
 11
-0.5286317593
 21
2.3161260595
  0
LWPOLYLINE
  5
2A7
100
AcDbEntity
  8
0
100
AcDbPolyline
 62
7
  6
CONTINUOUS
 90
6
 70
0
 10
-0.5285955552
 20
2.3162957651
 10
-0.5388763333
 20
2.2719169428
 10
-0.550713609
 20
2.2279013799
 10
-0.5640855281
 20
2.1843297
 10
-0.5789719042
 20
2.1412646148
 10
-0.5953583208
 20
2.0987498479
  0
LWPOLYLINE
  5
2A8
100
AcDbEntity
  8
0
100
AcDbPolyline
 62
7
  6
CONTINUOUS
 90
4
 70
0
 10
-1.1292283422
 20
2.3947635278
 10
-1.1217377763
 20
2.4216827659
 10
-1.1152841836
 20
2.4488855152
 10
-1.1099066518
 20
2.4763221772
  0
LWPOLYLINE
  5
2A9
100
AcDbEntity
  8
0
100
AcDbPolyline
 62
7
  6
CONTINUOUS
 90
3
 70
0
 10
-0.5954101818
 20
2.0986308548
 10
-0.6132668743
 20
2.0567411084
 10
-0.6325850411
 20
2.0155048721
  0
LWPOLYLINE
  5
2AA
100
AcDbEntity
  8
0
100
AcDbPolyline
 62
7
  6
CONTINUOUS
 90
4
 70
0
 10
-0.6325486124
 20
2.015571654
 10
-0.6533068059
 20
1.9750105628
 10
-0.6754744055
 20
1.9352021809
 10
-0.6990229301
 20
1.8961947497
  0
LINE
  5
2AB
100
AcDbEntity
  8
0
100
AcDbLine
 62
7
  6
CONTINUOUS
 10
-0.6990522342
 20
1.8961536086
 11
-0.7239708557
 21
1.8579725669
  0
LWPOLYLINE
  5
2AC
100
AcDbEntity
  8
0
100
AcDbPolyline
 62
7
  6
CONTINUOUS
 90
4
 70
0
 10
-2.8052931366
 20
-1.8163064218
 10
-2.7930754994
 20
-1.7983904722
 10
-2.779550036
 20
-1.781432986
 10
-2.7647877661
 20
-1.7655227661
  0
LWPOLYLINE
  5
2AD
100
AcDbEntity
  8
0
100
AcDbPolyline
 62
7
  6
CONTINUOUS
 90
4
 70
0
 10
-1.8616098474
 20
-1.7005943481
 10
-1.8738277511
 20
-1.7185111353
 10
-1.887353729
 20
-1.7354695689
 10
-1.9021167661
 20
-1.7513807661
  0
LWPOLYLINE
  5
2AE
100
AcDbEntity
  8
0
100
AcDbPolyline
 62
7
  6
CONTINUOUS
 90
11
 70
0
 10
-1.1351257208
 20
1.3944126351
 10
-1.1696562478
 20
1.3443189227
 10
-1.2019313352
 20
1.2927373592
 10
-1.2319953397
 20
1.2397135217
 10
-1.2596152594
 20
1.1858158815
 10
-1.2847105529
 20
1.131237442
 10
-1.3073617802
 20
1.0757851994
 10
-1.327577592
 20
1.0194486145
 10
-1.3453626291
 20
0.9624770709
 10
-1.3607122653
 20
0.9046211838
 10
-1.3736212494
 20
0.8451222611
  0
LINE
  5
2AF
100
AcDbEntity
  8
0
100
AcDbLine
 62
7
  6
CONTINUOUS
 10
-0.7239235615
 20
1.8580362702
 11
-0.7501469274
 21
1.8207743172
  0
LINE
  5
2B0
100
AcDbEntity
  8
0
100
AcDbLine
 62
7
  6
CONTINUOUS
 10
-0.750177618
 20
1.8207322944
 11
-0.7776772666
 21
1.7844362464
  0
LWPOLYLINE
  5
2B1
100
AcDbEntity
  8
0
100
AcDbPolyline
 62
7
  6
CONTINUOUS
 90
3
 70
0
 10
-0.7776600709
 20
1.7844540089
 10
-0.8064285618
 20
1.7491196571
 10
-0.8364178282
 20
1.7148155771
  0
LWPOLYLINE
  5
2B2
100
AcDbEntity
  8
0
100
AcDbPolyline
 62
7
  6
CONTINUOUS
 90
4
 70
0
 10
-0.836435106
 20
1.7147964997
 10
-0.8675521518
 20
1.6816261802
 10
-0.8998514643
 20
1.6495266686
 10
-0.9773329
 20
1.5774864896
  0
LWPOLYLINE
  5
2B3
100
AcDbEntity
  8
0
100
AcDbPolyline
 62
7
  6
CONTINUOUS
 90
4
 70
0
 10
-0.9773329
 20
1.5774864896
 10
-1.0194876889
 20
1.5346010009
 10
-1.0597974111
 20
1.4898415
 10
-1.0983840925
 20
1.4430640739
  0
LINE
  5
2B4
100
AcDbEntity
  8
0
100
AcDbLine
 62
7
  6
CONTINUOUS
 10
-2.7647877661
 20
-1.7655227661
 11
-2.3263807661
 21
-1.3271167661
  0
LINE
  5
2B5
100
AcDbEntity
  8
0
100
AcDbLine
 62
7
  6
CONTINUOUS
 10
-1.9021167661
 20
-1.7513807661
 11
-2.3405232766
 21
-2.1897882766
  0
LWPOLYLINE
  5
2B6
100
AcDbEntity
  8
0
100
AcDbPolyline
 62
7
  6
CONTINUOUS
 90
23
 70
0
 10
-0.933333038
 20
1.6184979661
 10
-1.0121488867
 20
1.542269704
 10
-1.0849250845
 20
1.4599038129
 10
-1.1512170639
 20
1.3716947463
 10
-1.2104518682
 20
1.2782543033
 10
-1.2622519348
 20
1.1803548472
 10
-1.3063409999
 20
1.0784227494
 10
-1.3420495794
 20
0.9735512161
 10
-1.3691942387
 20
0.8667392684
 10
-1.3879308472
 20
0.7581591925
 10
-1.3981267383
 20
0.648355769
 10
-1.3996042567
 20
0.5384445088
 10
-1.3924304383
 20
0.4292915897
 10
-1.3768280493
 20
0.3215128974
 10
-1.3528969999
 20
0.2151140929
 10
-1.3205341583
 20
0.1101236866
 10
-1.2796485293
 20
0.007022296
 10
-1.2301709015
 20
-0.0935164496
 10
-1.1718433046
 20
-0.1911079671
 10
-1.1042452177
 20
-0.2854644684
 10
-1.0279069175
 20
-0.3752476633
 10
-0.9443866171
 20
-0.4584419567
 10
-0.8548260527
 20
-0.5338137318
  0
LWPOLYLINE
  5
2B7
100
AcDbEntity
  8
0
100
AcDbPolyline
 62
7
  6
CONTINUOUS
 90
4
 70
0
 10
-2.3263807661
 20
-1.3271167661
 10
-2.3104753058
 20
-1.3123581796
 10
-2.2935266876
 20
-1.2988381012
 10
-2.2756231827
 20
-1.2866268318
  0
LWPOLYLINE
  5
2B8
100
AcDbEntity
  8
0
100
AcDbPolyline
 62
7
  6
CONTINUOUS
 90
4
 70
0
 10
-2.3405227661
 20
-2.1897877661
 10
-2.3564282433
 20
-2.2045464322
 10
-2.3733770061
 20
-2.2180666726
 10
-2.3912807987
 20
-2.2302781565
  0
LWPOLYLINE
  5
2B9
100
AcDbEntity
  8
0
100
AcDbPolyline
 62
7
  6
CONTINUOUS
 90
16
 70
0
 10
-2.3263802487
 20
-1.3271162487
 10
-2.303778457
 20
-1.3068021097
 10
-2.2796589208
 20
-1.2892033485
 10
-2.2540216303
 20
-1.2743199668
 10
-2.2265546988
 20
-1.2620193547
 10
-2.1975699904
 20
-1.252434125
 10
-2.1680031283
 20
-1.2459621145
 10
-2.1378176026
 20
-1.2427178991
 10
-2.1070499159
 20
-1.2425869071
 10
-2.0767452252
 20
-1.2456232547
 10
-2.0468990063
 20
-1.2519689545
 10
-2.0175157929
 20
-1.2614819972
 10
-1.9896543452
 20
-1.2737904674
 10
-1.9636675941
 20
-1.2887703935
 10
-1.9392026322
 20
-1.3065457481
 10
-1.916259469
 20
-1.327116531
  0
LWPOLYLINE
  5
2BA
100
AcDbEntity
  8
0
100
AcDbPolyline
 62
7
  6
CONTINUOUS
 90
16
 70
0
 10
-2.3405232766
 20
-2.1897882766
 10
-2.3631273357
 20
-2.2101042624
 10
-2.3872492486
 20
-2.227704316
 10
-2.412889004
 20
-2.2425884393
 10
-2.4403587022
 20
-2.2548892073
 10
-2.4693462155
 20
-2.2644740482
 10
-2.4989151975
 20
-2.2709452441
 10
-2.5291020312
 20
-2.2741880053
 10
-2.5598703204
 20
-2.2743171262
 10
-2.5901745679
 20
-2.2712792667
 10
-2.620018876
 20
-2.264932591
 10
-2.6493991491
 20
-2.2554189389
 10
-2.6772576135
 20
-2.2431104843
 10
-2.7032416909
 20
-2.2281312857
 10
-2.7277039871
 20
-2.2103572863
 10
-2.7506445142
 20
-2.1897884858
  0
LWPOLYLINE
  5
2BB
100
AcDbEntity
  8
0
100
AcDbPolyline
 62
7
  6
CONTINUOUS
 90
7
 70
0
 10
-2.2568686202
 20
-1.2758024691
 10
-2.2373401507
 20
-1.2664191217
 10
-2.2171200727
 20
-1.2585011053
 10
-2.1963415915
 20
-1.2520888963
 10
-2.1751713045
 20
-1.2472345344
 10
-2.1537533106
 20
-1.2439812177
 10
-2.1321889839
 20
-1.2423499241
  0
LINE
  5
2BC
100
AcDbEntity
  8
0
100
AcDbLine
 62
7
  6
CONTINUOUS
 10
3.6316818713
 20
0.275811862
 11
3.6099990841
 21
0.275
  0
LWPOLYLINE
  5
2BD
100
AcDbEntity
  8
0
100
AcDbPolyline
 62
7
  6
CONTINUOUS
 90
2
 70
0
 43
0.3500000006
 10
23.1053206558
 20
-1.0357139511
 10
21.6053201981
 20
-1.0357139511
  0
LINE
  5
2BE
100
AcDbEntity
  8
0
100
AcDbLine
 62
7
  6
CONTINUOUS
 10
-2.9899992415
 20
0.275
 11
-3.6099990896
 21
0.274999066
  0
LINE
  5
2BF
100
AcDbEntity
  8
0
100
AcDbLine
 62
7
  6
CONTINUOUS
 10
3.6099990841
 20
0.275
 11
2.9899992437
 21
0.2750008591
  0
LWPOLYLINE
  5
2C0
100
AcDbEntity
  8
0
100
AcDbPolyline
 62
7
  6
CONTINUOUS
 90
21
 70
0
 10
-3.6099990896
 20
0.274999066
 10
-3.6316785331
 20
0.2758143791
 10
-3.653219048
 20
0.2782443953
 10
-3.6745094893
 20
0.2822702754
 10
-3.6954215517
 20
0.2878665999
 10
-3.715864284
 20
0.2950133086
 10
-3.7357632386
 20
0.303688329
 10
-3.7549919165
 20
0.3138505328
 10
-3.7733905675
 20
0.3254114802
 10
-3.7908242222
 20
0.3382773055
 10
-3.8072137746
 20
0.3523813744
 10
-3.8225061397
 20
0.3676622859
 10
-3.8366274018
 20
0.3840511103
 10
-3.8495013049
 20
0.4014906673
 10
-3.8610600966
 20
0.4198981985
 10
-3.8712312933
 20
0.4391366215
 10
-3.8799389695
 20
0.4590544587
 10
-3.8871204546
 20
0.4795275362
 10
-3.8927335848
 20
0.5004665204
 10
-3.8967618532
 20
0.5217726758
 10
-3.8991883014
 20
0.5433213136
  0
LWPOLYLINE
  5
2C1
100
AcDbEntity
  8
0
100
AcDbPolyline
 62
7
  6
CONTINUOUS
 90
7
 70
0
 10
-2.1105703261
 20
-1.242345654
 10
-2.0890039034
 20
-1.2439682922
 10
-2.0675804793
 20
-1.2472128975
 10
-2.0464016431
 20
-1.2520595973
 10
-2.0256129857
 20
-1.2584665419
 10
-2.0053765164
 20
-1.26638449
 10
-1.9858254054
 20
-1.2757741652
  0
LWPOLYLINE
  5
2C2
100
AcDbEntity
  8
0
100
AcDbPolyline
 62
7
  6
CONTINUOUS
 90
7
 70
0
 10
2.1320788359
 20
-1.2423459897
 10
2.1536444243
 20
-1.2439692324
 10
2.175066731
 20
-1.2472142863
 10
2.1962442059
 20
-1.2520612064
 10
2.2170315211
 20
-1.2584681582
 10
2.2372666222
 20
-1.266385877
 10
2.2568163455
 20
-1.2757750801
  0
LWPOLYLINE
  5
2C3
100
AcDbEntity
  8
0
100
AcDbPolyline
 62
7
  6
CONTINUOUS
 90
23
 70
0
 10
-3.6290902514
 20
0.2756443343
 10
-3.6479412798
 20
0.2775022723
 10
-3.6665521764
 20
0.280572879
 10
-3.6849997685
 20
0.2848782368
 10
-3.7032072319
 20
0.2903962618
 10
-3.7209440939
 20
0.2970607045
 10
-3.7382076858
 20
0.3048899159
 10
-3.7550006835
 20
0.3138655438
 10
-3.7711006341
 20
0.3238662839
 10
-3.7864937962
 20
0.3349012331
 10
-3.8011939212
 20
0.3469612937
 10
-3.8150197983
 20
0.3598978695
 10
-3.827961611
 20
0.3737223195
 10
-3.8400291867
 20
0.3884232846
 10
-3.8510707818
 20
0.4038180916
 10
-3.8610745381
 20
0.4199197917
 10
-3.870052324
 20
0.4367153342
 10
-3.8778879869
 20
0.4539828945
 10
-3.8845681921
 20
0.471724717
 10
-3.8901062822
 20
0.4899385582
 10
-3.8944261198
 20
0.5083958621
 10
-3.8975023276
 20
0.5270204437
 10
-3.8993602872
 20
0.5458884894
  0
LINE
  5
2C4
100
AcDbEntity
  8
0
100
AcDbLine
 62
7
  6
CONTINUOUS
 10
-0.5808013089
 20
-1.3386352051
 11
-0.7250779152
 21
-1.2890359243
  0
LINE
  5
2C5
100
AcDbEntity
  8
0
100
AcDbLine
 62
7
  6
CONTINUOUS
 10
-0.7207592308
 20
-1.2905499663
 11
-0.8560063129
 21
-1.2326675725
  0
LWPOLYLINE
  5
2C6
100
AcDbEntity
  8
0
100
AcDbPolyline
 62
7
  6
CONTINUOUS
 90
8
 70
0
 10
-2.8790548831
 20
0.85293888
 10
-2.8617908646
 20
0.8451093655
 10
-2.8449975121
 20
0.8361333873
 10
-2.8288973768
 20
0.8261323964
 10
-2.8135042695
 20
0.8150973075
 10
-2.7988043874
 20
0.8030372052
 10
-2.7849788634
 20
0.7901007952
 10
-2.7720375714
 20
0.7762767915
  0
LWPOLYLINE
  5
2C7
100
AcDbEntity
  8
0
100
AcDbPolyline
 62
7
  6
CONTINUOUS
 90
5
 70
0
 10
-0.853609835
 20
-1.2338014451
 10
-0.9864389515
 20
-1.1648027815
 10
-1.1121606894
 20
-1.0871408624
 10
-1.2312848791
 20
-1.0009507814
 10
-1.3438037182
 20
-0.906068537
  0
LWPOLYLINE
  5
2C8
100
AcDbEntity
  8
0
100
AcDbPolyline
 62
7
  6
CONTINUOUS
 90
16
 70
0
 10
-0.7597417526
 20
-0.60101168
 10
-0.659966905
 20
-0.6596968017
 10
-0.5562259532
 20
-0.7097210625
 10
-0.4490304553
 20
-0.7510043956
 10
-0.3389242546
 20
-0.7833545332
 10
-0.226609377
 20
-0.8065241065
 10
-0.1129327589
 20
-0.8204167315
 10
0.0013731766
 20
-0.8249991251
 10
0.1154644068
 20
-0.8202416712
 10
0.2286823121
 20
-0.8062110584
 10
0.3405713683
 20
-0.7829390707
 10
0.450451414
 20
-0.7505013944
 10
0.5575491747
 20
-0.7091335876
 10
0.6612381552
 20
-0.6590222559
 10
0.7609758992
 20
-0.6002307584
 10
0.8560541439
 20
-0.532876583
  0
LWPOLYLINE
  5
2C9
100
AcDbEntity
  8
0
100
AcDbPolyline
 62
7
  6
CONTINUOUS
 90
18
 70
0
 10
-0.7663701823
 20
-0.596446559
 10
-0.6708261627
 20
-0.6536539775
 10
-0.5716944273
 20
-0.7029168208
 10
-0.4689264717
 20
-0.7439654175
 10
-0.3625708342
 20
-0.7770694266
 10
-0.2548821984
 20
-0.8015939098
 10
-0.1460947666
 20
-0.8173612594
 10
-0.0359744325
 20
-0.8245490773
 10
0.0739265634
 20
-0.8230552429
 10
0.1839123405
 20
-0.8127000878
 10
0.2936786701
 20
-0.793663282
 10
0.4007607968
 20
-0.7663817166
 10
0.5048867867
 20
-0.7307526318
 10
0.6063285053
 20
-0.6868787975
 10
0.7034369271
 20
-0.6355054037
 10
0.7962110845
 20
-0.5764379281
 10
0.8846519455
 20
-0.5098709062
 10
0.9671134263
 20
-0.437133116
  0
LWPOLYLINE
  5
2CA
100
AcDbEntity
  8
0
100
AcDbPolyline
 62
7
  6
CONTINUOUS
 90
4
 70
0
 10
-0.9768893364
 20
-1.1702043075
 10
-1.0941587979
 20
-1.0990615724
 10
-1.2056474702
 20
-1.02063296
 10
-1.3111572393
 20
-0.9352418336
  0
LWPOLYLINE
  5
2CB
100
AcDbEntity
  8
0
100
AcDbPolyline
 62
7
  6
CONTINUOUS
 90
4
 70
0
 10
2.391313169
 20
-2.2302973815
 10
2.3733953215
 20
-2.2180790855
 10
2.3564355386
 20
-2.2045522358
 10
2.3405227661
 20
-2.1897877661
  0
LWPOLYLINE
  5
2CC
100
AcDbEntity
  8
0
100
AcDbPolyline
 62
7
  6
CONTINUOUS
 90
4
 70
0
 10
2.2755903889
 20
-1.2866073361
 10
2.2935080922
 20
-1.2988254771
 10
2.3104678718
 20
-1.3123522547
 10
2.3263807661
 20
-1.3271167661
  0
LINE
  5
2CD
100
AcDbEntity
  8
0
100
AcDbLine
 62
7
  6
CONTINUOUS
 10
-0.8562174087
 20
-0.5327385009
 11
-0.7597417526
 21
-0.60101168
  0
LINE
  5
2CE
100
AcDbEntity
  8
0
100
AcDbLine
 62
7
  6
CONTINUOUS
 10
-1.3111572393
 20
-0.9352418336
 11
-1.4099385103
 21
-0.8435961641
  0
LWPOLYLINE
  5
2CF
100
AcDbEntity
  8
0
100
AcDbPolyline
 62
7
  6
CONTINUOUS
 90
20
 70
0
 10
-1.3438037182
 20
-0.906068537
 10
-1.4497251123
 20
-0.8026581582
 10
-1.5471860631
 20
-0.6924806569
 10
-1.6359667842
 20
-0.5754025572
 10
-1.7162872977
 20
-0.4515573531
 10
-1.7869443788
 20
-0.3231065061
 10
-1.8477751508
 20
-0.1898975038
 10
-1.8989427477
 20
-0.0520828612
 10
-1.939732975
 20
0.0877184274
 10
-1.9699188199
 20
0.2291743327
 10
-1.9897274685
 20
0.3726168979
 10
-1.9991259989
 20
0.5164232439
 10
-1.9980004569
 20
0.6609393733
 10
-1.9864648181
 20
0.8058193027
 10
-1.9648280172
 20
0.9484021801
 10
-1.933092796
 20
1.0882120384
 10
-1.891256284
 20
1.2257248656
 10
-1.8396189676
 20
1.3597077446
 10
-1.7779564651
 20
1.4905385474
 10
-1.70649292
 20
1.6178394116
  0
LINE
  5
2D0
100
AcDbEntity
  8
0
100
AcDbLine
 62
7
  6
CONTINUOUS
 10
2.3405227661
 20
-2.1897877661
 11
1.9021167661
 21
-1.7513807661
  0
LWPOLYLINE
  5
2D1
100
AcDbEntity
  8
0
100
AcDbPolyline
 62
7
  6
CONTINUOUS
 90
20
 70
0
 10
-1.4099385103
 20
-0.8435961641
 10
-1.5019481243
 20
-0.7458239742
 10
-1.5878212267
 20
-0.6410912246
 10
-1.6672040092
 20
-0.5294674503
 10
-1.7392835635
 20
-0.412033818
 10
-1.8036232219
 20
-0.2892401962
 10
-1.8595925363
 20
-0.161466748
 10
-1.9065442956
 20
-0.0295221056
 10
-1.9440919577
 20
0.1054501753
 10
-1.9724137133
 20
0.2440635065
 10
-1.9910814745
 20
0.3859275566
 10
-1.999465034
 20
0.529738111
 10
-1.9975226264
 20
0.6742677323
 10
-1.9852184949
 20
0.817818208
 10
-1.9625714269
 20
0.9600761288
 10
-1.9298206639
 20
1.1001139633
 10
-1.8872970939
 20
1.2369481426
 10
-1.8347728048
 20
1.3709497049
 10
-1.7725587185
 20
1.5010011491
 10
-1.7014958676
 20
1.6259010713
  0
LWPOLYLINE
  5
2D2
100
AcDbEntity
  8
0
100
AcDbPolyline
 62
7
  6
CONTINUOUS
 90
4
 70
0
 10
1.9021167661
 20
-1.7513807661
 10
1.8873593622
 20
-1.7354766569
 10
1.873839884
 20
-1.7185290466
 10
1.861628736
 20
-1.7006261533
  0
LWPOLYLINE
  5
2D3
100
AcDbEntity
  8
0
100
AcDbPolyline
 62
7
  6
CONTINUOUS
 90
16
 70
0
 10
1.902116275
 20
-1.751380275
 10
1.8818009328
 20
-1.7287765823
 10
1.8642013734
 20
-1.7046555037
 10
1.8493176082
 20
-1.6790170397
 10
1.8370171735
 20
-1.6515493362
 10
1.8274325497
 20
-1.6225642478
 10
1.8209611629
 20
-1.592997339
 10
1.8177175335
 20
-1.5628121252
 10
1.8175871479
 20
-1.5320450938
 10
1.8206238779
 20
-1.5017412692
 10
1.826969553
 20
-1.4718962677
 10
1.8364823368
 20
-1.4425144769
 10
1.8487906002
 20
-1.4146540791
 10
1.8637704614
 20
-1.3886678031
 10
1.8815457847
 20
-1.3642029235
 10
1.9021165584
 20
-1.3412594416
  0
LWPOLYLINE
  5
2D4
100
AcDbEntity
  8
0
100
AcDbPolyline
 62
7
  6
CONTINUOUS
 90
11
 70
0
 10
-2.7599706457
 20
0.76157648
 10
-2.7489296111
 20
0.7461824244
 10
-2.7389262985
 20
0.7300816315
 10
-2.7299488844
 20
0.7132870949
 10
-2.7221134121
 20
0.6960203587
 10
-2.7154331419
 20
0.6782792295
 10
-2.7098948192
 20
0.6600659017
 10
-2.7055747152
 20
0.6416085016
 10
-2.7024982548
 20
0.6229830719
 10
-2.7006400161
 20
0.6041135712
 10
-2.7
 20
0.585
  0
LWPOLYLINE
  5
2D5
100
AcDbEntity
  8
RACCORDO
100
AcDbPolyline
 62
253
  6
CONTINUOUS
 90
16
 70
0
 10
10.9509810776
 20
-21.5260158429
 10
10.9483836508
 20
-21.5216510913
 10
10.9458301647
 20
-21.5139400941
 10
10.9433206194
 20
-21.5028828515
 10
10.9408418341
 20
-21.4883894243
 10
10.9384069896
 20
-21.4705497515
 10
10.9360556279
 20
-21.4496336506
 10
10.9337901701
 20
-21.4255962085
 10
10.9316081951
 20
-21.3984823382
 10
10.9295419823
 20
-21.3686965963
 10
10.9275932826
 20
-21.3361975891
 10
10.925760345
 20
-21.3010267103
 10
10.9240701962
 20
-21.263712697
 10
10.922525131
 20
-21.2242264943
 10
10.9211228547
 20
-21.1825971571
 10
10.9198835093
 20
-21.1394405875
  0
LWPOLYLINE
  5
2D6
100
AcDbEntity
  8
0
100
AcDbPolyline
 62
7
  6
CONTINUOUS
 90
8
 70
0
 10
-1.325024353
 20
0.1241272217
 10
-1.2927596684
 20
0.0372554429
 10
-1.2531903103
 20
-0.0492658143
 10
-1.2060617734
 20
-0.1353958869
 10
-1.1516284712
 20
-0.2211754413
 10
-1.0894695231
 20
-0.3040544819
 10
-1.0187682419
 20
-0.3843830427
 10
-0.9403411969
 20
-0.4618110851
  0
LINE
  5
2D7
100
AcDbEntity
  8
0
100
AcDbLine
 62
7
  6
CONTINUOUS
 10
0.2930295167
 20
-2.3518276337
 11
0.2968908135
 21
-2.3727064179
  0
LINE
  5
2D8
100
AcDbEntity
  8
0
100
AcDbLine
 62
7
  6
CONTINUOUS
 10
-0.2930643193
 20
-3.0980150186
 11
-0.2969064646
 21
-3.0771861585
  0
LWPOLYLINE
  5
2D9
100
AcDbEntity
  8
0
100
AcDbPolyline
 62
7
  6
CONTINUOUS
 90
3
 70
0
 10
0.2968908135
 20
-2.3727064179
 10
0.2992199032
 20
-2.3938026856
 10
0.3
 20
-2.415
  0
LWPOLYLINE
  5
2DA
100
AcDbEntity
  8
0
100
AcDbPolyline
 62
7
  6
CONTINUOUS
 90
3
 70
0
 10
-0.2969064646
 20
-3.0771861585
 10
-0.2992238622
 20
-3.0561426638
 10
-0.3
 20
-3.035
  0
LINE
  5
2DB
100
AcDbEntity
  8
0
100
AcDbLine
 62
7
  6
CONTINUOUS
 10
1.3980336738
 20
0.6501861495
 11
1.3871457073
 21
0.7639269828
  0
LWPOLYLINE
  5
2DC
100
AcDbEntity
  8
0
100
AcDbPolyline
 62
7
  6
CONTINUOUS
 90
10
 70
0
 10
1.1
 20
2.5874611797
 10
1.104185772
 20
2.5214430842
 10
1.1139670561
 20
2.4570812326
 10
1.129343845
 20
2.3943756337
 10
1.1505300461
 20
2.3328526582
 10
1.1773117223
 20
2.2729859493
 10
1.2090470938
 20
2.2161964269
 10
1.2455222172
 20
2.1629577371
 10
1.2869509825
 20
2.1127962484
 10
1.3333333546
 20
2.065711966
  0
LINE
  5
2DD
100
AcDbEntity
  8
0
100
AcDbLine
 62
7
  6
CONTINUOUS
 10
1.0991884735
 20
3.0566766955
 11
1.1
 21
3.035
  0
LWPOLYLINE
  5
2DE
100
AcDbEntity
  8
0
100
AcDbPolyline
 62
7
  6
CONTINUOUS
 90
4
 70
0
 10
1.1
 20
2.5874611797
 10
1.1006488674
 20
2.5593747387
 10
1.1025606512
 20
2.5314444642
 10
1.1056830347
 20
2.5036522299
  0
LINE
  5
2DF
100
AcDbEntity
  8
0
100
AcDbLine
 62
7
  6
CONTINUOUS
 10
1.399657889
 20
0.5403920054
 11
1.3976037574
 21
0.6548614574
  0
LINE
  5
2E0
100
AcDbEntity
  8
0
100
AcDbLine
 62
7
  6
CONTINUOUS
 10
0.3
 20
-2.415
 11
0.3
 21
-3.0349980775
  0
LINE
  5
2E1
100
AcDbEntity
  8
0
100
AcDbLine
 62
7
  6
CONTINUOUS
 10
0.5
 20
2.587461
 11
0.5
 21
3.035
  0
LINE
  5
2E2
100
AcDbEntity
  8
0
100
AcDbLine
 62
7
  6
CONTINUOUS
 10
1.1
 20
3.035
 11
1.1
 21
2.5874611797
  0
LINE
  5
2E3
100
AcDbEntity
  8
0
100
AcDbLine
 62
7
  6
CONTINUOUS
 10
0.3
 20
-3.035
 11
0.2992189787
 21
-3.0561921731
  0
LWPOLYLINE
  5
2E4
100
AcDbEntity
  8
0
100
AcDbPolyline
 62
7
  6
CONTINUOUS
 90
21
 70
0
 10
0.5
 20
3.035
 10
0.5008145706
 20
3.0566806544
 10
0.50324511
 20
3.0782233537
 10
0.507271964
 20
3.0995166746
 10
0.5128699748
 20
3.1204324962
 10
0.5200191041
 20
3.1408791089
 10
0.5286967144
 20
3.1607806651
 10
0.5388612489
 20
3.1800104762
 10
0.5504242986
 20
3.1984093911
 10
0.5632919611
 20
3.2158425737
 10
0.5773975483
 20
3.2322311842
 10
0.5926794439
 20
3.2475221176
 10
0.609068612
 20
3.261641409
 10
0.6265077442
 20
3.2745128618
 10
0.6449140971
 20
3.2860691036
 10
0.6641510039
 20
3.296238071
 10
0.6840668453
 20
3.3049437772
 10
0.7045373225
 20
3.3121234989
 10
0.7254738207
 20
3.317735308
 10
0.7467779643
 20
3.3217627012
 10
0.7683249241
 20
3.3241885926
  0
LWPOLYLINE
  5
2E5
100
AcDbEntity
  8
0
100
AcDbPolyline
 62
7
  6
CONTINUOUS
 90
16
 70
0
 10
0.3
 20
-3.0349980775
 10
0.2985014926
 20
-3.0647312317
 10
0.2940430871
 20
-3.0937497634
 10
0.2866247832
 20
-3.1220536734
 10
0.2761497171
 20
-3.1499691156
 10
0.2627147507
 20
-3.1771699366
 10
0.2466104718
 20
-3.2026776778
 10
0.2277106577
 20
-3.2264516103
 10
0.2061415286
 20
-3.2485324651
 10
0.1825723371
 20
-3.2680639751
 10
0.1568741018
 20
-3.2849460651
 10
0.129175803
 20
-3.2992788128
 10
0.1005336364
 20
-3.3105061827
 10
0.0712996678
 20
-3.3184428308
 10
0.0411218327
 20
-3.323274103
 10
0.010000132
 20
-3.3249999995
  0
LINE
  5
2E6
100
AcDbEntity
  8
0
100
AcDbLine
 62
7
  6
CONTINUOUS
 10
1.392643339
 20
0.4313264427
 11
1.3995981967
 21
0.5445679292
  0
LWPOLYLINE
  5
2E7
100
AcDbEntity
  8
0
100
AcDbPolyline
 62
7
  6
CONTINUOUS
 90
7
 70
0
 10
1.8173457634
 20
-1.5355670486
 10
1.8189687794
 20
-1.5139995587
 10
1.8222138538
 20
-1.492575461
 10
1.8270610585
 20
-1.4713961819
 10
1.8334684901
 20
-1.4506073697
 10
1.8413869022
 20
-1.4303709389
 10
1.8507769555
 20
-1.4108201141
  0
LWPOLYLINE
  5
2E8
100
AcDbEntity
  8
0
100
AcDbPolyline
 62
7
  6
CONTINUOUS
 90
3
 70
0
 10
0.2992189787
 20
-3.0561921731
 10
0.2968911059
 20
-3.0772676121
 10
0.2930391504
 20
-3.0981098208
  0
LINE
  5
2E9
100
AcDbEntity
  8
0
100
AcDbLine
 62
7
  6
CONTINUOUS
 10
1.3772066588
 20
0.3235613615
 11
1.3930323959
 21
0.4351230831
  0
LINE
  5
2EA
100
AcDbEntity
  8
0
100
AcDbLine
 62
7
  6
CONTINUOUS
 10
1.3534393483
 20
0.2171419933
 11
1.3777519902
 21
0.3266137203
  0
LINE
  5
2EB
100
AcDbEntity
  8
0
100
AcDbLine
 62
7
  6
CONTINUOUS
 10
-0.2940025823
 20
-2.3563833801
 11
-0.2865561271
 21
-2.3277567275
  0
LINE
  5
2EC
100
AcDbEntity
  8
0
100
AcDbLine
 62
7
  6
CONTINUOUS
 10
1.3212440115
 20
0.1121448302
 11
1.3539113123
 21
0.2189530321
  0
LWPOLYLINE
  5
2ED
100
AcDbEntity
  8
0
100
AcDbPolyline
 62
7
  6
CONTINUOUS
 90
13
 70
0
 10
0.2876799838
 20
-3.1186219684
 10
0.2808405724
 20
-3.1386692421
 10
0.2725817069
 20
-3.1580992268
 10
0.2629464163
 20
-3.1768470736
 10
0.2519935342
 20
-3.1948143857
 10
0.2398479051
 20
-3.2118273628
 10
0.2266857708
 20
-3.2277209212
 10
0.2125307349
 20
-3.2425461518
 10
0.1972588833
 20
-3.256431355
 10
0.1809323514
 20
-3.2692692454
 10
0.1636022334
 20
-3.2809721712
 10
0.1450653842
 20
-3.2916124033
 10
0.1253603473
 20
-3.3010573372
  0
LINE
  5
2EE
100
AcDbEntity
  8
0
100
AcDbLine
 62
7
  6
CONTINUOUS
 10
-0.2865139222
 20
-2.3275944778
 11
-0.2760344882
 21
-2.2995527966
  0
LINE
  5
2EF
100
AcDbEntity
  8
0
100
AcDbLine
 62
7
  6
CONTINUOUS
 10
1.2805258708
 20
0.0090016664
 11
1.3218767629
 21
0.1139572926
  0
LWPOLYLINE
  5
2F0
100
AcDbEntity
  8
0
100
AcDbPolyline
 62
7
  6
CONTINUOUS
 90
8
 70
0
 10
2.7220695308
 20
0.695965443
 10
2.7299010974
 20
0.7132304052
 10
2.7388791078
 20
0.7300239975
 10
2.7488815989
 20
0.7461236052
 10
2.7599175668
 20
0.7615152647
 10
2.771978008
 20
0.7762129392
 10
2.7849139599
 20
0.7900359044
 10
2.79873649
 20
0.8029742037
  0
LWPOLYLINE
  5
2F1
100
AcDbEntity
  8
0
100
AcDbPolyline
 62
7
  6
CONTINUOUS
 90
3
 70
0
 10
-0.2761247207
 20
-2.2999739869
 10
-0.2626742391
 20
-2.2727581139
 10
-0.2465506218
 20
-2.2472378481
  0
LWPOLYLINE
  5
2F2
100
AcDbEntity
  8
0
100
AcDbPolyline
 62
7
  6
CONTINUOUS
 90
4
 70
0
 10
1.8616098062
 20
-1.3920457475
 10
1.8738279415
 20
-1.3741286333
 10
1.8873540302
 20
-1.3571700916
 10
1.902117
 20
-1.341259
  0
LINE
  5
2F3
100
AcDbEntity
  8
0
100
AcDbLine
 62
7
  6
CONTINUOUS
 10
-0.2464077235
 20
-2.2470366598
 11
-0.2275222683
 21
-2.2232235975
  0
LWPOLYLINE
  5
2F4
100
AcDbEntity
  8
0
100
AcDbPolyline
 62
7
  6
CONTINUOUS
 90
5
 70
0
 10
1.0291636239
 20
-0.373859209
 10
1.1054618433
 20
-0.2838904654
 10
1.1729737789
 20
-0.1893897196
 10
1.2311891658
 20
-0.091655942
 10
1.281445072
 20
0.0115175734
  0
LWPOLYLINE
  5
2F5
100
AcDbEntity
  8
0
100
AcDbPolyline
 62
7
  6
CONTINUOUS
 90
5
 70
0
 10
0.9671134263
 20
-0.437133116
 10
1.0434597787
 20
-0.358213241
 10
1.1138268232
 20
-0.2731226094
 10
1.1769758635
 20
-0.1832239637
 10
1.2328194162
 20
-0.0882571991
  0
LWPOLYLINE
  5
2F6
100
AcDbEntity
  8
0
100
AcDbPolyline
 62
7
  6
CONTINUOUS
 90
3
 70
0
 10
-0.2276241579
 20
-2.2234530115
 10
-0.206024556
 20
-2.2013637838
 10
-0.1824314278
 20
-2.1818317376
  0
LINE
  5
2F7
100
AcDbEntity
  8
0
100
AcDbLine
 62
7
  6
CONTINUOUS
 10
1.902117
 20
-1.341259
 11
1.916259
 21
-1.327117
  0
LINE
  5
2F8
100
AcDbEntity
  8
0
100
AcDbLine
 62
7
  6
CONTINUOUS
 10
0.9456378203
 20
-0.4572838202
 11
1.0291636239
 21
-0.373859209
  0
LWPOLYLINE
  5
2F9
100
AcDbEntity
  8
0
100
AcDbPolyline
 62
7
  6
CONTINUOUS
 90
3
 70
0
 10
1.916259
 20
-1.327117
 10
1.9321656983
 20
-1.3123573305
 10
1.9491157229
 20
-1.298836353
  0
LINE
  5
2FA
100
AcDbEntity
  8
0
100
AcDbLine
 62
7
  6
CONTINUOUS
 10
1.9162594995
 20
-1.3271165005
 11
1.9388589901
 21
-1.3068038631
  0
LINE
  5
2FB
100
AcDbEntity
  8
0
100
AcDbLine
 62
7
  6
CONTINUOUS
 10
0.8560541439
 20
-0.532876583
 11
0.9456378203
 21
-0.4572838202
  0
LWPOLYLINE
  5
2FC
100
AcDbEntity
  8
0
100
AcDbPolyline
 62
7
  6
CONTINUOUS
 90
15
 70
0
 10
1.9388589901
 20
-1.3068038631
 10
1.9629765167
 20
-1.2892060985
 10
1.9886120701
 20
-1.274323207
 10
2.0160774551
 20
-1.2620224662
 10
2.045060844
 20
-1.2524365975
 10
2.0746267838
 20
-1.2459637653
 10
2.1048118251
 20
-1.2427185307
 10
2.135579406
 20
-1.2425863293
 10
2.1658844201
 20
-1.2456216377
 10
2.1957314824
 20
-1.2519664555
 10
2.2251159832
 20
-1.2614787787
 10
2.2529789961
 20
-1.2737870782
 10
2.2789675565
 20
-1.2887675104
 10
2.303434652
 20
-1.3065439158
 10
2.3263802926
 20
-1.3271162926
  0
LWPOLYLINE
  5
2FD
100
AcDbEntity
  8
0
100
AcDbPolyline
 62
7
  6
CONTINUOUS
 90
11
 70
0
 10
2.8134345225
 20
0.8150377937
 10
2.8288258814
 20
0.8260758199
 10
2.8449233748
 20
0.8360765746
 10
2.8617141867
 20
0.8450517661
 10
2.8789777067
 20
0.8528856641
 10
2.8967160232
 20
0.8595652651
 10
2.9149270415
 20
0.8651035736
 10
2.933383879
 20
0.8694238725
 10
2.9520109076
 20
0.8725005899
 10
2.970883752
 20
0.8743592988
 10
2.9900024101
 20
0.875
  0
LINE
  5
2FE
100
AcDbEntity
  8
0
100
AcDbLine
 62
7
  6
CONTINUOUS
 10
1.9491157229
 20
-1.298836353
 11
1.9670207268
 21
-1.2866244038
  0
LINE
  5
2FF
100
AcDbEntity
  8
0
100
AcDbLine
 62
7
  6
CONTINUOUS
 10
-0.1824382192
 20
-2.18183736
 11
-0.1566358882
 21
-2.1648165554
  0
LWPOLYLINE
  5
300
100
AcDbEntity
  8
0
100
AcDbPolyline
 62
7
  6
CONTINUOUS
 90
6
 70
0
 10
-0.1567145664
 20
-2.1649612311
 10
-0.1290041776
 20
-2.1506479084
 10
-0.100370494
 20
-2.1394402727
 10
-0.0711702602
 20
-2.1315211595
 10
-0.0410467329
 20
-2.1267077351
 10
-0.009999913
 20
-2.1249999997
  0
LWPOLYLINE
  5
301
100
AcDbEntity
  8
0
100
AcDbPolyline
 62
7
  6
CONTINUOUS
 90
7
 70
0
 10
-2.4100359285
 20
-2.2411028196
 10
-2.4295651398
 20
-2.2504864381
 10
-2.4497857314
 20
-2.2584045249
 10
-2.4705641877
 20
-2.2648165833
 10
-2.4917341541
 20
-2.2696707456
 10
-2.5131519547
 20
-2.2729239255
 10
-2.5347164791
 20
-2.2745551289
  0
LWPOLYLINE
  5
302
100
AcDbEntity
  8
0
100
AcDbPolyline
 62
7
  6
CONTINUOUS
 90
7
 70
0
 10
1.9857768735
 20
-1.2757995774
 10
2.0053068795
 20
-1.2664160455
 10
2.0255281984
 20
-1.2584981809
 10
2.046307591
 20
-1.2520863983
 10
2.067478491
 20
-1.2472326533
 10
2.0888966881
 20
-1.243980079
 10
2.1104607741
 20
-1.2423495506
  0
LWPOLYLINE
  5
303
100
AcDbEntity
  8
0
100
AcDbPolyline
 62
7
  6
CONTINUOUS
 90
11
 70
0
 10
0.8586622941
 20
-1.2313633438
 10
0.7241678144
 20
-1.2891638439
 10
0.5841816727
 20
-1.3375736015
 10
0.4417320249
 20
-1.3754596666
 10
0.2968051579
 20
-1.4026957194
 10
0.149414991
 20
-1.419408063
 10
0.0019658411
 20
-1.4251594008
 10
-0.1455980209
 20
-1.4196537582
 10
-0.2932206011
 20
-1.4031871095
 10
-0.4383299978
 20
-1.376210094
 10
-0.5808013089
 20
-1.3386352051
  0
LWPOLYLINE
  5
304
100
AcDbEntity
  8
0
100
AcDbPolyline
 62
7
  6
CONTINUOUS
 90
11
 70
0
 10
0.7311104194
 20
-1.2866696194
 10
0.600056016
 20
-1.3328740837
 10
0.4656158283
 20
-1.3699141907
 10
0.329297671
 20
-1.3975498209
 10
0.1949569664
 20
-1.4154590524
 10
0.0667232787
 20
-1.4240152891
 10
-0.0582232641
 20
-1.4243080342
 10
-0.1864493409
 20
-1.4163371879
 10
-0.320987338
 20
-1.3989568692
 10
-0.4578971848
 20
-1.3717170691
 10
-0.5931021986
 20
-1.3349984675
  0
LINE
  5
305
100
AcDbEntity
  8
0
100
AcDbLine
 62
7
  6
CONTINUOUS
 10
-2.9595461348
 20
0.2766032343
 11
-2.9899992415
 21
0.275
  0
LINE
  5
306
100
AcDbEntity
  8
0
100
AcDbLine
 62
7
  6
CONTINUOUS
 10
2.9595486713
 20
0.8733970319
 11
2.9900024101
 21
0.875
  0
LINE
  5
307
100
AcDbEntity
  8
0
100
AcDbLine
 62
7
  6
CONTINUOUS
 10
-3.6316848022
 20
0.8741879169
 11
-3.6100029103
 21
0.875
  0
LINE
  5
308
100
AcDbEntity
  8
0
100
AcDbLine
 62
7
  6
CONTINUOUS
 10
2.9900024101
 20
0.875
 11
3.6100028974
 21
0.875
  0
LINE
  5
309
100
AcDbEntity
  8
0
100
AcDbLine
 62
7
  6
CONTINUOUS
 10
-3.6100029103
 20
0.875
 11
-2.9900024031
 21
0.8750027297
  0
LWPOLYLINE
  5
30A
100
AcDbEntity
  8
0
100
AcDbPolyline
 62
7
  6
CONTINUOUS
 90
6
 70
0
 10
2.9899992437
 20
0.2750008591
 10
2.9709081565
 20
0.2756454203
 10
2.9520570947
 20
0.2775028883
 10
2.9334460602
 20
0.2805732637
 10
2.9149981921
 20
0.2848786945
 10
2.8967903548
 20
0.2903970339
  0
LWPOLYLINE
  5
30B
100
AcDbEntity
  8
0
100
AcDbPolyline
 62
7
  6
CONTINUOUS
 90
6
 70
0
 10
-2.9900024031
 20
0.8750027297
 10
-2.9709109945
 20
0.8743567487
 10
-2.9520596455
 20
0.8724982376
 10
-2.9334483579
 20
0.8694271958
 10
-2.9150002698
 20
0.8651215994
 10
-2.8967922466
 20
0.859603471
  0
LWPOLYLINE
  5
30C
100
AcDbEntity
  8
0
100
AcDbPolyline
 62
7
  6
CONTINUOUS
 90
21
 70
0
 10
3.6100028974
 20
0.875
 10
3.63168154
 20
0.8741853924
 10
3.6532214177
 20
0.8717552418
 10
3.6745113825
 20
0.8677292879
 10
3.6954231535
 20
0.8621329056
 10
3.7158657281
 20
0.8549861274
 10
3.7357645675
 20
0.846311032
 10
3.7549931968
 20
0.8361487278
 10
3.7733918798
 20
0.8245876256
 10
3.7908255693
 20
0.8117216193
 10
3.8072151648
 20
0.7976173347
 10
3.8225075753
 20
0.7823361714
 10
3.8366288211
 20
0.7659471158
 10
3.8495026544
 20
0.748507346
 10
3.8610613456
 20
0.7300996169
 10
3.8712323915
 20
0.7108610752
 10
3.8799398738
 20
0.690943228
 10
3.8871211343
 20
0.670470268
 10
3.8927340244
 20
0.6495315717
 10
3.8967620734
 20
0.6282258866
 10
3.8991883627
 20
0.6066778876
  0
LWPOLYLINE
  5
30D
100
AcDbEntity
  8
0
100
AcDbPolyline
 62
7
  6
CONTINUOUS
 90
15
 70
0
 10
2.9899992449
 20
0.275
 10
2.9605534391
 20
0.2765032643
 10
2.9312552578
 20
0.2810173969
 10
2.9023945463
 20
0.2885489262
 10
2.8743059692
 20
0.2990770894
 10
2.8473233435
 20
0.3125276534
 10
2.8217636427
 20
0.3287876608
 10
2.7979653836
 20
0.3476916607
 10
2.7762016116
 20
0.3690624499
 10
2.7567371675
 20
0.3926947019
 10
2.7397950882
 20
0.4184264752
 10
2.7255995412
 20
0.4459303561
 10
2.7144127164
 20
0.4747152007
 10
2.7064066618
 20
0.5043582277
 10
2.701601907
 20
0.5345593872
  0
LWPOLYLINE
  5
30E
100
AcDbEntity
  8
0
100
AcDbPolyline
 62
7
  6
CONTINUOUS
 90
15
 70
0
 10
-2.9900023995
 20
0.875
 10
-2.9605546894
 20
0.8734968654
 10
-2.9312548636
 20
0.8689825245
 10
-2.9023927927
 20
0.8614505186
 10
-2.8743032001
 20
0.8509217046
 10
-2.8473199109
 20
0.8374704069
 10
-2.8217598099
 20
0.8212096107
 10
-2.7979611839
 20
0.8023046261
 10
-2.7761972973
 20
0.7809328453
 10
-2.7567334105
 20
0.7573002066
 10
-2.7397927532
 20
0.7315695257
 10
-2.7255987185
 20
0.7040678093
 10
-2.7144126918
 20
0.6752847236
 10
-2.7064067911
 20
0.645642391
 10
-2.7016019745
 20
0.6154412703
  0
LWPOLYLINE
  5
30F
100
AcDbEntity
  8
0
100
AcDbPolyline
 62
7
  6
CONTINUOUS
 90
23
 70
0
 10
3.6290934386
 20
0.8743549629
 10
3.6479439316
 20
0.8724971885
 10
3.6665543782
 20
0.8694266776
 10
3.6850016092
 20
0.8651213296
 10
3.7032087968
 20
0.8596032465
 10
3.7209454566
 20
0.8529387335
 10
3.7382089319
 20
0.8451094619
 10
3.7550018864
 20
0.8361337615
 10
3.7711018196
 20
0.8261329247
 10
3.7864949883
 20
0.8150978438
 10
3.8011951456
 20
0.8030376271
 10
3.8150210382
 20
0.7901008914
 10
3.8279628393
 20
0.7762762729
 10
3.8400303866
 20
0.7615751354
 10
3.8510719249
 20
0.7461801871
 10
3.8610755887
 20
0.7300783712
 10
3.8700532539
 20
0.7132827437
 10
3.8778887782
 20
0.6960151811
 10
3.8845688162
 20
0.6782734523
 10
3.8901067212
 20
0.660059787
 10
3.8944263996
 20
0.6416027531
 10
3.8975024883
 20
0.6229785393
 10
3.8993603548
 20
0.6041109552
  0
LWPOLYLINE
  5
310
100
AcDbEntity
  8
0
100
AcDbPolyline
 62
7
  6
CONTINUOUS
 90
8
 70
0
 10
2.8790531393
 20
0.2970618406
 10
2.8617892222
 20
0.3048914483
 10
2.8449959334
 20
0.3138675241
 10
2.8288958471
 20
0.3238686264
 10
2.8135027719
 20
0.3349038487
 10
2.7988029072
 20
0.3469640979
 10
2.7849774151
 20
0.3599006523
 10
2.7720361762
 20
0.3737248033
  0
LWPOLYLINE
  5
311
100
AcDbEntity
  8
0
100
AcDbPolyline
 62
7
  6
CONTINUOUS
 90
7
 70
0
 10
0.9333332954
 20
1.6184982436
 10
0.8999070105
 20
1.6494677086
 10
0.8675875933
 20
1.6815882371
 10
0.836414017
 20
1.714820331
 10
0.8064250073
 20
1.7491244665
 10
0.777657157
 20
1.7844583195
 10
0.7501452829
 20
1.8207771697
  0
LINE
  5
312
100
AcDbEntity
  8
0
100
AcDbLine
 62
7
  6
CONTINUOUS
 10
2.3263807661
 20
-1.3271167661
 11
2.7647883502
 21
-1.7655233502
  0
LWPOLYLINE
  5
313
100
AcDbEntity
  8
0
100
AcDbPolyline
 62
7
  6
CONTINUOUS
 90
4
 70
0
 10
2.7647877661
 20
-1.7655227661
 10
2.7795442898
 20
-1.7814257716
 10
2.7930632008
 20
-1.7983723496
 10
2.8052740795
 20
-1.8162743645
  0
LWPOLYLINE
  5
314
100
AcDbEntity
  8
0
100
AcDbPolyline
 62
7
  6
CONTINUOUS
 90
16
 70
0
 10
2.7647883502
 20
-1.7655233502
 10
2.7851059354
 20
-1.7881303139
 10
2.8027069583
 20
-1.8122541409
 10
2.8175914352
 20
-1.8378948317
 10
2.8298916688
 20
-1.8653642774
 10
2.8394753816
 20
-1.8943505875
 10
2.8459457171
 20
-1.923918091
 10
2.8491881853
 20
-1.9541031961
 10
2.8493172871
 20
-1.9848694984
 10
2.8462796487
 20
-2.0151721102
 10
2.8399336442
 20
-2.0450151896
 10
2.8304208888
 20
-2.0743945835
 10
2.818112866
 20
-2.1022529392
 10
2.8031333954
 20
-2.1282378073
 10
2.7853586314
 20
-2.1527016415
 10
2.764788557
 20
-2.175644443
  0
LINE
  5
315
100
AcDbEntity
  8
0
100
AcDbLine
 62
7
  6
CONTINUOUS
 10
1.4370690143
 20
1.9660359125
 11
1.5373526313
 21
1.8540333483
  0
LWPOLYLINE
  5
316
100
AcDbEntity
  8
0
100
AcDbPolyline
 62
7
  6
CONTINUOUS
 90
4
 70
0
 10
1.2747686609
 20
2.12568728
 10
1.2933719286
 20
2.1048760657
 10
1.3128785957
 20
2.0848742662
 10
1.3333333546
 20
2.065711966
  0
LWPOLYLINE
  5
317
100
AcDbEntity
  8
0
100
AcDbPolyline
 62
7
  6
CONTINUOUS
 90
3
 70
0
 10
1.0847718146
 20
1.4600828478
 10
1.0120738481
 20
1.5423440527
 10
0.9333330431
 20
1.6184979614
  0
LINE
  5
318
100
AcDbEntity
  8
0
100
AcDbLine
 62
7
  6
CONTINUOUS
 10
1.5334087216
 20
1.8591082468
 11
1.6261363745
 21
1.7393328301
  0
LWPOLYLINE
  5
319
100
AcDbEntity
  8
0
100
AcDbPolyline
 62
7
  6
CONTINUOUS
 90
3
 70
0
 10
0.7501475379
 20
1.820774082
 10
0.7239398119
 20
1.8580190725
 10
0.6990212735
 20
1.8962040321
  0
LWPOLYLINE
  5
31A
100
AcDbEntity
  8
0
100
AcDbPolyline
 62
7
  6
CONTINUOUS
 90
25
 70
0
 10
1.6219213174
 20
1.7452088621
 10
1.7064319504
 20
1.6179298333
 10
1.7779105474
 20
1.4906193642
 10
1.839585499
 20
1.3597864495
 10
1.8912267266
 20
1.2258228346
 10
1.9330645471
 20
1.0883367647
 10
1.9648028843
 20
0.948538018
 10
1.9864438751
 20
0.8059210641
 10
1.9979855114
 20
0.6609914124
 10
1.9991254688
 20
0.5164754045
 10
1.9897474086
 20
0.3727595128
 10
1.9699676484
 20
0.229457246
 10
1.939832811
 20
0.0881355054
 10
1.8991052069
 20
-0.0515807269
 10
1.8480223529
 20
-0.1893164468
 10
1.7873436571
 20
-0.3223797137
 10
1.7169438319
 20
-0.450539399
 10
1.6369479105
 20
-0.5740266285
 10
1.5484907963
 20
-0.6908428349
 10
1.4513210897
 20
-0.800936795
 10
1.3456899544
 20
-0.9043597141
 10
1.2334861982
 20
-0.9992666629
 10
1.1147572849
 20
-1.0854397934
 10
0.9894556482
 20
-1.1630969262
 10
0.8593276358
 20
-1.2310466344
  0
LWPOLYLINE
  5
31B
100
AcDbEntity
  8
0
100
AcDbPolyline
 62
7
  6
CONTINUOUS
 90
4
 70
0
 10
1.2090990758
 20
2.2161117106
 10
1.2241718755
 20
2.1925671923
 10
1.2401516543
 20
2.1696025033
 10
1.2570261788
 20
2.1472821247
  0
LINE
  5
31C
100
AcDbEntity
  8
0
100
AcDbLine
 62
7
  6
CONTINUOUS
 10
0.699026134
 20
1.896190579
 11
0.6754806704
 21
1.9351924788
  0
LWPOLYLINE
  5
31D
100
AcDbEntity
  8
RACCORDO
100
AcDbPolyline
 62
253
  6
CONTINUOUS
 90
16
 70
0
 10
-10.9509810786
 20
21.5260158439
 10
-10.9483840825
 20
21.521652508
 10
-10.9458309564
 20
21.5139433142
 10
-10.9433217003
 20
21.5028882624
 10
-10.9408431136
 20
21.4883973324
 10
-10.9384083969
 20
21.4705605444
 10
-10.9360571518
 20
21.4496479593
 10
-10.9337918431
 20
21.4256152786
 10
-10.9316100061
 20
21.3985068009
 10
-10.9295438484
 20
21.3687254826
 10
-10.9275950825
 20
21.3362295532
 10
-10.9257619958
 20
21.3010607831
 10
-10.9240716582
 20
21.2637474397
 10
-10.9225263543
 20
21.2242598903
 10
-10.9211237994
 20
21.1826277675
 10
-10.9198842104
 20
21.1394682369
  0
LWPOLYLINE
  5
31E
100
AcDbEntity
  8
0
100
AcDbPolyline
 62
7
  6
CONTINUOUS
 90
24
 70
0
 10
1.7018821373
 20
1.6252576741
 10
1.7729718662
 20
1.5001915584
 10
1.8351545979
 20
1.3700693247
 10
1.8876200681
 20
1.2360489725
 10
1.9300985816
 20
1.0991061617
 10
1.9628116089
 20
0.9588557642
 10
1.9854025569
 20
0.8162972373
 10
1.9976154864
 20
0.6723815225
 10
1.9994130478
 20
0.5275281276
 10
1.9908480041
 20
0.3834925979
 10
1.9719960344
 20
0.2415653432
 10
1.9434887699
 20
0.1029629521
 10
1.9057653372
 20
-0.0318842137
 10
1.8587660427
 20
-0.1634831033
 10
1.8029305739
 20
-0.2907228853
 10
1.7388725722
 20
-0.4128375456
 10
1.6671622266
 20
-0.529552903
 10
1.5882151122
 20
-0.6405387056
 10
1.5028345417
 20
-0.7447782129
 10
1.4113893391
 20
-0.8421440008
 10
1.313289918
 20
-0.9334132775
 10
1.2085261966
 20
-1.0184919671
 10
1.0977466569
 20
-1.0967252593
 10
0.9811423882
 20
-1.1677889281
  0
LINE
  5
31F
100
AcDbEntity
  8
0
100
AcDbLine
 62
7
  6
CONTINUOUS
 10
0.6754831808
 20
1.9351881508
 11
0.653330559
 21
1.9749742159
  0
LWPOLYLINE
  5
320
100
AcDbEntity
  8
0
100
AcDbPolyline
 62
7
  6
CONTINUOUS
 90
4
 70
0
 10
1.2613424564
 20
1.1822133887
 10
1.2095715776
 20
1.2797352732
 10
1.1507841907
 20
1.3723173882
 10
1.0853171012
 20
1.4593173461
  0
LINE
  5
321
100
AcDbEntity
  8
0
100
AcDbLine
 62
7
  6
CONTINUOUS
 10
0.6533160412
 20
1.9749942218
 11
0.6325610007
 21
2.0155467149
  0
LWPOLYLINE
  5
322
100
AcDbEntity
  8
0
100
AcDbPolyline
 62
7
  6
CONTINUOUS
 90
4
 70
0
 10
1.1693178941
 20
2.2898972172
 10
1.1816683228
 20
2.2648113326
 10
1.1949305887
 20
2.2402043896
 10
1.2090058032
 20
2.2162703152
  0
LWPOLYLINE
  5
323
100
AcDbEntity
  8
0
100
AcDbPolyline
 62
7
  6
CONTINUOUS
 90
7
 70
0
 10
1.8508040641
 20
-1.6818716351
 10
1.8414202065
 20
-1.6623427317
 10
1.8335017527
 20
-1.642122077
 10
1.8270892085
 20
-1.6213428869
 10
1.8222345911
 20
-1.6001716364
 10
1.8189811398
 20
-1.5787526162
 10
1.8173498422
 20
-1.5571870731
  0
LWPOLYLINE
  5
324
100
AcDbEntity
  8
0
100
AcDbPolyline
 62
7
  6
CONTINUOUS
 90
7
 70
0
 10
2.8160987953
 20
-1.8350283086
 10
2.8254829146
 20
-1.8545569382
 10
2.8334016912
 20
-1.8747774468
 10
2.8398145763
 20
-1.8955565701
 10
2.8446695684
 20
-1.9167279519
 10
2.8479234028
 20
-1.9381473328
 10
2.8495550428
 20
-1.9597136123
  0
LINE
  5
325
100
AcDbEntity
  8
0
100
AcDbLine
 62
7
  6
CONTINUOUS
 10
0.6325583891
 20
2.0155594375
 11
0.6132428637
 21
2.0567946397
  0
LINE
  5
326
100
AcDbEntity
  8
0
100
AcDbLine
 62
7
  6
CONTINUOUS
 10
1.305917641
 20
1.0795353607
 11
1.2618641313
 21
1.1812012661
  0
LINE
  5
327
100
AcDbEntity
  8
0
100
AcDbLine
 62
7
  6
CONTINUOUS
 10
0.6132408013
 20
2.0567992519
 11
0.5953785675
 21
2.0987000772
  0
LINE
  5
328
100
AcDbEntity
  8
0
100
AcDbLine
 62
7
  6
CONTINUOUS
 10
1.1474160099
 20
2.3413541666
 11
1.1578948017
 21
2.3154240551
  0
LINE
  5
329
100
AcDbEntity
  8
0
100
AcDbLine
 62
7
  6
CONTINUOUS
 10
0.5953896145
 20
2.0986820263
 11
0.5789930143
 21
2.1412193907
  0
LINE
  5
32A
100
AcDbEntity
  8
0
100
AcDbLine
 62
7
  6
CONTINUOUS
 10
0.5789956348
 20
2.1412013002
 11
0.5641110473
 21
2.1842549865
  0
LINE
  5
32B
100
AcDbEntity
  8
0
100
AcDbLine
 62
7
  6
CONTINUOUS
 10
1.3416267827
 20
0.9749185904
 11
1.305086316
 21
1.0816789033
  0
LWPOLYLINE
  5
32C
100
AcDbEntity
  8
0
100
AcDbPolyline
 62
7
  6
CONTINUOUS
 90
3
 70
0
 10
1.1293693584
 20
2.3942904474
 10
1.1378997237
 20
2.3676515423
 10
1.1474160099
 20
2.3413541666
  0
LWPOLYLINE
  5
32D
100
AcDbEntity
  8
0
100
AcDbPolyline
 62
7
  6
CONTINUOUS
 90
3
 70
0
 10
0.5641123669
 20
2.1842509416
 10
0.5507528203
 20
2.2277786741
 10
0.5389092298
 20
2.2718005905
  0
LINE
  5
32E
100
AcDbEntity
  8
0
100
AcDbLine
 62
7
  6
CONTINUOUS
 10
1.3688286591
 20
0.8683463472
 11
1.3406119452
 21
0.9781793326
  0
LINE
  5
32F
100
AcDbEntity
  8
0
100
AcDbLine
 62
7
  6
CONTINUOUS
 10
0.538908188
 20
2.2717916548
 11
0.5286238364
 21
2.3161625163
  0
LWPOLYLINE
  5
330
100
AcDbEntity
  8
0
100
AcDbPolyline
 62
7
  6
CONTINUOUS
 90
4
 70
0
 10
1.1099663623
 20
2.4759887765
 10
1.1153691006
 20
2.4484996321
 10
1.1218498555
 20
2.4212487012
 10
1.1293310979
 20
2.3944276157
  0
LWPOLYLINE
  5
331
100
AcDbEntity
  8
0
100
AcDbPolyline
 62
7
  6
CONTINUOUS
 90
7
 70
0
 10
0.5286254593
 20
2.3161549111
 10
0.5199074952
 20
2.360842401
 10
0.5127493532
 20
2.4058622927
 10
0.5071769414
 20
2.4510505072
 10
0.5031988963
 20
2.4963523511
 10
0.5008065824
 20
2.5418225158
 10
0.5
 20
2.587461
  0
LINE
  5
332
100
AcDbEntity
  8
0
100
AcDbLine
 62
7
  6
CONTINUOUS
 10
1.3876912426
 20
0.7599038784
 11
1.3681106528
 21
0.8716671544
  0
LINE
  5
333
100
AcDbEntity
  8
0
100
AcDbLine
 62
7
  6
CONTINUOUS
 10
2.701601907
 20
0.5345593872
 11
2.7
 21
0.565
  0
LINE
  5
334
100
AcDbEntity
  8
0
100
AcDbLine
 62
7
  6
CONTINUOUS
 10
3.8991883627
 20
0.6066778876
 11
3.9
 21
0.585
  0
LINE
  5
335
100
AcDbEntity
  8
0
100
AcDbLine
 62
7
  6
CONTINUOUS
 10
2.7
 20
0.565
 11
2.7
 21
0.585
  0
LINE
  5
336
100
AcDbEntity
  8
0
100
AcDbLine
 62
7
  6
CONTINUOUS
 10
3.9
 20
0.585
 11
3.9
 21
0.565
  0
LINE
  5
337
100
AcDbEntity
  8
0
100
AcDbLine
 62
7
  6
CONTINUOUS
 10
2.7
 20
0.585
 11
2.7006453179
 21
0.6040954809
  0
LINE
  5
338
100
AcDbEntity
  8
0
100
AcDbLine
 62
7
  6
CONTINUOUS
 10
3.9
 20
0.565
 11
3.8991849463
 21
0.5433129575
  0
LWPOLYLINE
  5
339
100
AcDbEntity
  8
0
100
AcDbPolyline
 62
7
  6
CONTINUOUS
 90
15
 70
0
 10
2.7
 20
0.585
 10
2.7015023998
 20
0.6144378246
 10
2.7060143507
 20
0.6437298488
 10
2.7135427702
 20
0.6725860211
 10
2.7240674486
 20
0.700671877
 10
2.7375144773
 20
0.7276533542
 10
2.7537708614
 20
0.753212776
 10
2.7726715454
 20
0.7770118156
 10
2.7940395177
 20
0.7987774104
 10
2.8176695692
 20
0.8182442729
 10
2.8433993882
 20
0.8351888676
 10
2.8709020556
 20
0.849387525
 10
2.8996889034
 20
0.8605786579
 10
2.9293380372
 20
0.8685891306
 10
2.9595486713
 20
0.8733970319
  0
LWPOLYLINE
  5
33A
100
AcDbEntity
  8
0
100
AcDbPolyline
 62
7
  6
CONTINUOUS
 90
7
 70
0
 10
2.8495593351
 20
-1.9813346397
 10
2.8479363851
 20
-2.0029030288
 10
2.8446912812
 20
-2.0243278042
 10
2.8398439691
 20
-2.0455076868
 10
2.8334363588
 20
-2.0662970464
 10
2.8255176507
 20
-2.0865340851
 10
2.8161272281
 20
-2.1060854367
  0
LWPOLYLINE
  5
33B
100
AcDbEntity
  8
0
100
AcDbPolyline
 62
7
  6
CONTINUOUS
 90
5
 70
0
 10
2.7006453179
 20
0.6040954809
 10
2.7025038122
 20
0.6229504664
 10
2.7055754821
 20
0.6415649559
 10
2.7098825668
 20
0.6600159061
 10
2.715402824
 20
0.6782263591
  0
LWPOLYLINE
  5
33C
100
AcDbEntity
  8
0
100
AcDbPolyline
 62
7
  6
CONTINUOUS
 90
23
 70
0
 10
3.8993545719
 20
0.5459034495
 10
3.8974958927
 20
0.5270475287
 10
3.8944239614
 20
0.5084322368
 10
3.890116486
 20
0.4899805812
 10
3.8845957541
 20
0.4717695531
 10
3.8779286327
 20
0.4540301268
 10
3.8700966941
 20
0.4367650926
 10
3.861118358
 20
0.4199716593
 10
3.8511157622
 20
0.4038724293
 10
3.8400799346
 20
0.3884814165
 10
3.8280198371
 20
0.3737846065
 10
3.8150845082
 20
0.3599625607
 10
3.8012629603
 20
0.3470252637
 10
3.7865661702
 20
0.334962731
 10
3.7711761241
 20
0.3239255704
 10
3.7550800672
 20
0.3139254348
 10
3.7382907444
 20
0.304950672
 10
3.7210283941
 20
0.2971169328
 10
3.703290944
 20
0.2904371135
 10
3.6850804592
 20
0.2848983191
 10
3.6666233872
 20
0.2805775134
 10
3.6479952104
 20
0.2775003516
 10
3.6291204433
 20
0.2756411803
  0
LINE
  5
33D
100
AcDbEntity
  8
0
100
AcDbLine
 62
7
  6
CONTINUOUS
 10
3.8991849463
 20
0.5433129575
 11
3.8967531262
 21
0.5217649699
  0
LWPOLYLINE
  5
33E
100
AcDbEntity
  8
0
100
AcDbPolyline
 62
7
  6
CONTINUOUS
 90
19
 70
0
 10
3.8967531262
 20
0.5217649699
 10
3.8927244439
 20
0.5004675685
 10
3.8871243208
 20
0.4795489844
 10
3.8799730548
 20
0.4591009047
 10
3.8712934981
 20
0.4391990117
 10
3.8611273103
 20
0.419969698
 10
3.8495631097
 20
0.4015721135
 10
3.8366950282
 20
0.3841411457
 10
3.8225901158
 20
0.3677555509
 10
3.8073100428
 20
0.352468071
 10
3.7909233474
 20
0.3383521265
 10
3.7734871917
 20
0.3254837834
 10
3.7550843167
 20
0.3139302008
 10
3.7358506932
 20
0.3037629659
 10
3.7159382452
 20
0.2950583295
 10
3.6954711958
 20
0.287879094
 10
3.6745365141
 20
0.2822669238
 10
3.6532317127
 20
0.2782386307
 10
3.6316818713
 20
0.275811862
  0
LWPOLYLINE
  5
33F
100
AcDbEntity
  8
0
100
AcDbPolyline
 62
7
  6
CONTINUOUS
 90
4
 70
0
 10
2.8052941461
 20
-2.1248599301
 10
2.7930760632
 20
-2.1427767253
 10
2.7795503083
 20
-2.1597346817
 10
2.764788
 20
-2.175645
  0
LINE
  5
340
100
AcDbEntity
  8
0
100
AcDbLine
 62
7
  6
CONTINUOUS
 10
2.764788
 20
-2.175645
 11
2.750645
 21
-2.189788
  0
LWPOLYLINE
  5
341
100
AcDbEntity
  8
0
100
AcDbPolyline
 62
7
  6
CONTINUOUS
 90
3
 70
0
 10
2.750645
 20
-2.189788
 10
2.7347384076
 20
-2.2045475902
 10
2.7177884784
 20
-2.2180685239
  0
LINE
  5
342
100
AcDbEntity
  8
0
100
AcDbLine
 62
7
  6
CONTINUOUS
 10
2.7506444645
 20
-2.1897885355
 11
2.7280415631
 21
-2.2101036878
  0
LWPOLYLINE
  5
343
100
AcDbEntity
  8
0
100
AcDbPolyline
 62
7
  6
CONTINUOUS
 90
15
 70
0
 10
2.7280415631
 20
-2.2101036878
 10
2.7039206622
 20
-2.2277031832
 10
2.67828175
 20
-2.2425870219
 10
2.6508126729
 20
-2.2548878456
 10
2.6218255575
 20
-2.264473011
 10
2.5922568207
 20
-2.2709445901
 10
2.5620700773
 20
-2.2741877465
 10
2.5313017034
 20
-2.2743173126
 10
2.5009972765
 20
-2.2712798636
 10
2.4711528119
 20
-2.2649336142
 10
2.4417723052
 20
-2.2554203447
 10
2.4139133243
 20
-2.2431119812
 10
2.3879284045
 20
-2.2281324982
 10
2.3634650386
 20
-2.2103579178
 10
2.340523238
 20
-2.189788238
  0
LINE
  5
344
100
AcDbEntity
  8
0
100
AcDbLine
 62
7
  6
CONTINUOUS
 10
2.7177884784
 20
-2.2180685239
 11
2.6998835157
 21
-2.2302804673
  0
LWPOLYLINE
  5
345
100
AcDbEntity
  8
0
100
AcDbPolyline
 62
7
  6
CONTINUOUS
 90
7
 70
0
 10
2.6811272316
 20
-2.2411053713
 10
2.6615969497
 20
-2.2504890086
 10
2.6413754974
 20
-2.2584068946
 10
2.6205964352
 20
-2.2648185715
 10
2.5994261233
 20
-2.2696722239
 10
2.578008272
 20
-2.2729248156
 10
2.5564439967
 20
-2.2745554221
  0
LWPOLYLINE
  5
346
100
AcDbEntity
  8
0
100
AcDbPolyline
 62
7
  6
CONTINUOUS
 90
5
 70
0
 10
0.1045835124
 20
-3.3091412085
 10
0.0825802237
 20
-3.3157694713
 10
0.0593593146
 20
-3.3207634829
 10
0.0351178241
 20
-3.3239065518
 10
0.0100000299
 20
-3.325
  0
LINE
  5
347
100
AcDbEntity
  8
0
100
AcDbLine
 62
7
  6
CONTINUOUS
 10
0.7683249241
 20
3.3241885926
 11
0.7900023694
 21
3.325
  0
LINE
  5
348
100
AcDbEntity
  8
0
100
AcDbLine
 62
7
  6
CONTINUOUS
 10
-0.8316793438
 20
3.3241882752
 11
-0.8100024294
 21
3.325
  0
LINE
  5
349
100
AcDbEntity
  8
0
100
AcDbLine
 62
7
  6
CONTINUOUS
 10
-0.8100024294
 20
3.325
 11
-0.790002359
 21
3.3250000824
  0
LINE
  5
34A
100
AcDbEntity
  8
0
100
AcDbLine
 62
7
  6
CONTINUOUS
 10
0.7900023694
 20
3.325
 11
0.8100024187
 21
3.3249999166
  0
LWPOLYLINE
  5
34B
100
AcDbEntity
  8
0
100
AcDbPolyline
 62
7
  6
CONTINUOUS
 90
3
 70
0
 10
-0.790002359
 20
3.3250000824
 10
-0.7683215011
 20
3.3241855881
 10
-0.7467786229
 20
3.3217551824
  0
LINE
  5
34C
100
AcDbEntity
  8
0
100
AcDbLine
 62
7
  6
CONTINUOUS
 10
0.8100024187
 20
3.3249999166
 11
0.8316824739
 21
3.3241852888
  0
LWPOLYLINE
  5
34D
100
AcDbEntity
  8
0
100
AcDbPolyline
 62
7
  6
CONTINUOUS
 90
23
 70
0
 10
-0.7709086622
 20
3.3243550333
 10
-0.7520552921
 20
3.3224969876
 10
-0.7334422496
 20
3.3194259452
 10
-0.7149926279
 20
3.3151197203
 10
-0.696783335
 20
3.309600498
 10
-0.6790450938
 20
3.3029348346
 10
-0.6617806277
 20
3.2951043416
 10
-0.6449872153
 20
3.2861274068
 10
-0.6288874134
 20
3.2761257509
 10
-0.6134951055
 20
3.2650903369
 10
-0.5987964101
 20
3.2530302011
 10
-0.5849722371
 20
3.2400941752
 10
-0.5720324988
 20
3.2262710863
 10
-0.5599672849
 20
3.2115721065
 10
-0.5489277707
 20
3.1961795852
 10
-0.538925718
 20
3.1800806249
 10
-0.5299493666
 20
3.1632881224
 10
-0.5221146094
 20
3.1460231192
 10
-0.5154345724
 20
3.1282834687
 10
-0.5098961306
 20
3.1100713171
 10
-0.5055758006
 20
3.0916141463
 10
-0.502499088
 20
3.0729877834
 10
-0.5006404878
 20
3.0541164014
  0
LWPOLYLINE
  5
34E
100
AcDbEntity
  8
0
100
AcDbPolyline
 62
7
  6
CONTINUOUS
 90
23
 70
0
 10
0.8290954955
 20
3.3243546959
 10
0.8479483237
 20
3.3224964959
 10
0.8665609033
 20
3.3194253168
 10
0.8850101463
 20
3.3151189829
 10
0.9032191411
 20
3.30959967
 10
0.9209571535
 20
3.302933905
 10
0.9382214745
 20
3.2951032957
 10
0.9550148144
 20
3.2861262343
 10
0.9711145689
 20
3.276124425
 10
0.9865068563
 20
3.2650888209
 10
1.0012055606
 20
3.2530284685
 10
1.0150297265
 20
3.2400922123
 10
1.0279694402
 20
3.226268865
 10
1.0400346183
 20
3.2115696132
 10
1.0510740517
 20
3.196176862
 10
1.0610759676
 20
3.1800777047
 10
1.0700521414
 20
3.1632850472
 10
1.0778866859
 20
3.1460200133
 10
1.0845664551
 20
3.1282804642
 10
1.0901045971
 20
3.110068538
 10
1.0944246666
 20
3.0916117747
 10
1.0975011822
 20
3.0729860209
 10
1.0993596266
 20
3.0541154295
  0
LINE
  5
34F
100
AcDbEntity
  8
0
100
AcDbLine
 62
7
  6
CONTINUOUS
 10
0.8316824739
 20
3.3241852888
 11
0.8532246736
 21
3.3217546839
  0
LWPOLYLINE
  5
350
100
AcDbEntity
  8
0
100
AcDbPolyline
 62
7
  6
CONTINUOUS
 90
19
 70
0
 10
-0.7467786229
 20
3.3217551824
 10
-0.7254851564
 20
3.3177284478
 10
-0.704569228
 20
3.3121305531
 10
-0.6841225516
 20
3.3049815461
 10
-0.6642209677
 20
3.2963040716
 10
-0.6449911449
 20
3.2861396889
 10
-0.6265922182
 20
3.2745768008
 10
-0.6091590133
 20
3.2617093032
 10
-0.59277037
 20
3.2476038911
 10
-0.5774793983
 20
3.2323221908
 10
-0.563360057
 20
3.2159332282
 10
-0.5504885379
 20
3.1984943007
 10
-0.5389321999
 20
3.1800881382
 10
-0.5287630915
 20
3.160851383
 10
-0.5200572169
 20
3.1409356739
 10
-0.512877311
 20
3.1204653201
 10
-0.5072652988
 20
3.0995288832
 10
-0.5032376928
 20
3.07822471
 10
-0.5008115957
 20
3.0566776411
  0
LWPOLYLINE
  5
351
100
AcDbEntity
  8
0
100
AcDbPolyline
 62
7
  6
CONTINUOUS
 90
19
 70
0
 10
0.8532246736
 20
3.3217546839
 10
0.8745175946
 20
3.3177278188
 10
0.8954331286
 20
3.3121298264
 10
0.9158795425
 20
3.3049807259
 10
0.9357809512
 20
3.2963031485
 10
0.9550106903
 20
3.2861386277
 10
0.9734096047
 20
3.2745755563
 10
0.9908427924
 20
3.2617078647
 10
1.0072314188
 20
3.2476022333
 10
1.0225223813
 20
3.2323202727
 10
1.0366416683
 20
3.2159310646
 10
1.0495130946
 20
3.1984919111
 10
1.0610693041
 20
3.1800855476
 10
1.0712382113
 20
3.1608486982
 10
1.0799438366
 20
3.1409330059
 10
1.0871234735
 20
3.1204627752
 10
1.092735206
 20
3.0995266521
 10
1.0967625576
 20
3.0782230201
 10
1.0991884735
 20
3.0566766955
  0
LINE
  5
352
100
AcDbEntity
  8
0
100
AcDbLine
 62
7
  6
CONTINUOUS
 10
1.3333332139
 20
2.0657118087
 11
1.4397516646
 21
1.9628263954
  0
LWPOLYLINE
  5
353
100
AcDbEntity
  8
0
100
AcDbPolyline
 62
7
  6
CONTINUOUS
 90
11
 70
0
 10
2.7599693183
 20
0.3884252595
 10
2.7489283751
 20
0.4038194252
 10
2.7389251845
 20
0.4199202963
 10
2.7299479161
 20
0.4367148763
 10
2.7221126024
 20
0.4539815815
 10
2.7154325145
 20
0.4717225962
 10
2.7098943869
 20
0.4899357351
 10
2.7055744475
 20
0.5083928593
 10
2.7024981068
 20
0.5270179223
 10
2.7006399574
 20
0.5458869694
 10
2.7
 20
0.565
  0
LINE
  5
354
100
AcDbEntity
  8
0
100
AcDbLine
 62
253
  6
CONTINUOUS
 10
-10.9509810786
 20
-21.5260158439
 11
-11.037406726
 21
-21.6124414913
  0
LINE
  5
355
100
AcDbEntity
  8
0
100
AcDbLine
 62
253
  6
CONTINUOUS
 10
-10.4516663112
 20
-22.0253306113
 11
-10.5380919586
 21
-22.1117562587
  0
LWPOLYLINE
  5
356
100
AcDbEntity
  8
0
100
AcDbPolyline
 62
7
  6
CONTINUOUS
 90
3
 70
0
 43
0.3500000006
 10
22.8196049881
 20
1.0357133102
 10
23.0338917389
 20
0.9642866592
 10
23.3196051407
 20
0.8214288254
  0
LINE
  5
357
100
AcDbEntity
  8
0
100
AcDbLine
 62
253
  6
CONTINUOUS
 10
-11.037406726
 20
21.6124414913
 11
-10.9509810786
 21
21.5260158439
  0
LINE
  5
358
100
AcDbEntity
  8
0
100
AcDbLine
 62
253
  6
CONTINUOUS
 10
-10.5380919586
 20
22.1117562587
 11
-10.4516663112
 21
22.0253306113
  0
LINE
  5
359
100
AcDbEntity
  8
RACCORDO
100
AcDbLine
 62
253
  6
CONTINUOUS
 10
10.4516663102
 20
-22.0253306103
 11
10.4515203372
 21
-22.0179297522
  0
LINE
  5
35A
100
AcDbEntity
  8
RACCORDO
100
AcDbLine
 62
253
  6
CONTINUOUS
 10
10.9198835093
 20
-21.1394405875
 11
10.9178982602
 21
-21.0484592098
  0
LINE
  5
35B
100
AcDbEntity
  8
RACCORDO
100
AcDbLine
 62
253
  6
CONTINUOUS
 10
10.9178982602
 20
-21.0484592098
 11
10.9166086347
 21
-20.9538546172
  0
LINE
  5
35C
100
AcDbEntity
  8
RACCORDO
100
AcDbLine
 62
253
  6
CONTINUOUS
 10
10.9166086347
 20
-20.9538546172
 11
10.9160278026
 21
-20.8563725241
  0
LINE
  5
35D
100
AcDbEntity
  8
RACCORDO
100
AcDbLine
 62
253
  6
CONTINUOUS
 10
10.4421594271
 20
-11.6020504417
 11
10.4380674507
 21
-2.3208549767
  0
LINE
  5
35E
100
AcDbEntity
  8
RACCORDO
100
AcDbLine
 62
253
  6
CONTINUOUS
 10
10.4380674507
 20
-2.3208549767
 11
10.439431441
 21
6.9620236805
  0
LINE
  5
35F
100
AcDbEntity
  8
RACCORDO
100
AcDbLine
 62
253
  6
CONTINUOUS
 10
10.439431441
 20
6.9620236805
 11
10.4462513927
 21
16.2407063394
  0
LINE
  5
360
100
AcDbEntity
  8
RACCORDO
100
AcDbLine
 62
253
  6
CONTINUOUS
 10
10.4515203372
 20
-22.0179297522
 11
10.4421594271
 21
-11.6020504417
  0
LINE
  5
361
100
AcDbEntity
  8
RACCORDO
100
AcDbLine
 62
253
  6
CONTINUOUS
 10
10.4462513927
 20
16.2407063394
 11
10.4514405545
 21
22.0046284256
  0
LWPOLYLINE
  5
362
100
AcDbEntity
  8
RACCORDO
100
AcDbPolyline
 62
253
  6
CONTINUOUS
 90
3
 70
0
 10
10.4514405545
 20
22.0046284256
 10
10.451520414
 20
22.0179295934
 10
10.4516663102
 20
22.0253306103
  0
LINE
  5
363
100
AcDbEntity
  8
RACCORDO
100
AcDbLine
 62
253
  6
CONTINUOUS
 10
10.9160278027
 20
20.8563725242
 11
10.91660878
 21
20.9538684119
  0
LINE
  5
364
100
AcDbEntity
  8
RACCORDO
100
AcDbLine
 62
253
  6
CONTINUOUS
 10
10.91660878
 20
20.9538684119
 11
10.9178986346
 21
21.0484818972
  0
LWPOLYLINE
  5
365
100
AcDbEntity
  8
RACCORDO
100
AcDbPolyline
 62
253
  6
CONTINUOUS
 90
17
 70
0
 10
10.9178986346
 20
21.0484818972
 10
10.9198842093
 20
21.1394682348
 10
10.9211237983
 20
21.1826277654
 10
10.9225263532
 20
21.2242598882
 10
10.9240716571
 20
21.2637474377
 10
10.9257619947
 20
21.3010607812
 10
10.9275950814
 20
21.3362295514
 10
10.9295438473
 20
21.3687254808
 10
10.9316100051
 20
21.3985067993
 10
10.9337918421
 20
21.425615277
 10
10.9360571508
 20
21.4496479577
 10
10.9384083958
 20
21.4705605431
 10
10.9408431126
 20
21.4883973314
 10
10.9433216993
 20
21.5028882617
 10
10.9458309554
 20
21.5139433135
 10
10.9483840815
 20
21.5216525072
 10
10.9509810776
 20
21.5260158429
  0
LWPOLYLINE
  5
366
100
AcDbEntity
  8
0
100
AcDbPolyline
 62
7
  6
CONTINUOUS
 90
10
 70
0
 43
0.3500000006
 10
22.6053205032
 20
0.9642866592
 10
22.7481760712
 20
1.0357133102
 10
22.8196049881
 20
1.0357133102
 10
22.962462822
 20
0.8928577423
 10
22.962462822
 20
0.8214288254
 10
22.891033905
 20
0.7499999084
 10
22.8196049881
 20
0.7499999084
 10
22.6767471542
 20
0.8214288254
 10
22.6053205032
 20
0.8928577423
 10
22.6053205032
 20
0.9642866592
  0
LWPOLYLINE
  5
367
100
AcDbEntity
  8
RACCORDO
100
AcDbPolyline
 62
253
  6
CONTINUOUS
 90
10
 70
0
 10
10.9160278026
 20
-20.8563725241
 10
10.9067976153
 20
-16.2235199973
 10
10.8998749744
 20
-11.5897193248
 10
10.89525988
 20
-6.9549705067
 10
10.8929523316
 20
-2.3186416566
 10
10.8929523297
 20
2.3186353392
 10
10.8952598757
 20
6.9549648211
 10
10.8998749701
 20
11.5897149026
 10
10.9067976124
 20
16.2235174703
 10
10.9160278027
 20
20.8563725242
  0
LINE
  5
368
100
AcDbEntity
  8
0
100
AcDbLine
 62
7
  6
CONTINUOUS
 10
11.037406726
 20
-21.6124414913
 11
11.037406726
 21
21.6124414913
  0
LWPOLYLINE
  5
369
100
AcDbEntity
  8
0
100
AcDbPolyline
 62
7
  6
CONTINUOUS
 90
10
 70
0
 43
0.3500000006
 10
1.2857142735
 20
36.6433807526
 10
1.3571429071
 20
36.5005229187
 10
1.3571429071
 20
36.4290962677
 10
1.2142857814
 20
36.2862384338
 10
1.1428571477
 20
36.2862384338
 10
1.0714285848
 20
36.3576696167
 10
1.0714285848
 20
36.4290962677
 10
1.1428571477
 20
36.5719541016
 10
1.2142857814
 20
36.6433807526
 10
1.2857142735
 20
36.6433807526
  0
LWPOLYLINE
  5
36A
100
AcDbEntity
  8
RACCORDO
100
AcDbPolyline
 62
253
  6
CONTINUOUS
 90
14
 70
0
 10
-10.5467846201
 20
20.8766973721
 10
-10.592725089
 20
20.8759631155
 10
-10.637025639
 20
20.8750463318
 10
-10.6792735183
 20
20.8739555626
 10
-10.7190750999
 20
20.8727009709
 10
-10.7560595491
 20
20.8712942457
 10
-10.7898822788
 20
20.8697484935
 10
-10.8202281598
 20
20.8680781164
 10
-10.8468144571
 20
20.8662986774
 10
-10.8693934638
 20
20.8644267555
 10
-10.8877548096
 20
20.8624797917
 10
-10.9017274202
 20
20.8604759261
 10
-10.9111811117
 20
20.8584338287
 10
-10.9160278032
 20
20.856372526
  0
LINE
  5
36B
100
AcDbEntity
  8
RACCORDO
100
AcDbLine
 62
253
  6
CONTINUOUS
 10
-10.4517073416
 20
20.8775927037
 11
-10.5467846201
 21
20.8766973721
  0
LINE
  5
36C
100
AcDbEntity
  8
RACCORDO
100
AcDbLine
 62
253
  6
CONTINUOUS
 10
-10.4517073418
 20
20.8775926593
 11
10.4517073402
 21
20.8775926575
  0
LWPOLYLINE
  5
36D
100
AcDbEntity
  8
RACCORDO
100
AcDbPolyline
 62
253
  6
CONTINUOUS
 90
15
 70
0
 10
10.451706519
 20
20.8775921973
 10
10.5467830054
 20
20.8766968906
 10
10.5927231331
 20
20.8759626544
 10
10.6370233933
 20
20.875045896
 10
10.6792710439
 20
20.8739551567
 10
10.7190724672
 20
20.8727005986
 10
10.7560568367
 20
20.8712939102
 10
10.7898795719
 20
20.8697481975
 10
10.8202255493
 20
20.8680778619
 10
10.846812038
 20
20.8662984657
 10
10.8693913338
 20
20.8644265874
 10
10.8877530674
 20
20.8624796671
 10
10.9017261639
 20
20.8604758442
 10
10.9111804372
 20
20.858433788
 10
10.9160278026
 20
20.8563725242
  0
LWPOLYLINE
  5
36E
100
AcDbEntity
  8
0
100
AcDbPolyline
 62
7
  6
CONTINUOUS
 90
3
 70
0
 43
0.3500000006
 10
22.4624626694
 20
-0.5357137985
 10
22.4624626694
 20
-2.0357142563
 10
20.1053197403
 20
-1.3928574028
  0
LWPOLYLINE
  5
36F
100
AcDbEntity
  8
0
100
AcDbPolyline
 62
7
  6
CONTINUOUS
 90
3
 70
0
 43
0.3500000006
 10
22.4624626694
 20
-2.8928567276
 10
22.4624626694
 20
-4.3928571854
 10
20.1053197403
 20
-3.7500003319
  0
LWPOLYLINE
  5
370
100
AcDbEntity
  8
0
100
AcDbPolyline
 62
7
  6
CONTINUOUS
 90
7
 70
0
 43
0.3500000006
 10
23.1053206558
 20
3.5357140732
 10
23.1053206558
 20
2.0357136154
 10
20.9624622116
 20
3.5357140732
 10
20.533890976
 20
3.5357140732
 10
20.1053197403
 20
3.1071428375
 10
20.1053197403
 20
2.4642848511
 10
20.7481777267
 20
2.0357136154
  0
LWPOLYLINE
  5
371
100
AcDbEntity
  8
RACCORDO
100
AcDbPolyline
 62
253
  6
CONTINUOUS
 90
16
 70
0
 10
-10.4516663112
 20
22.0253306113
 10
-10.5037691396
 20
22.0224620484
 10
-10.5553030207
 20
22.0141731198
 10
-10.6057052936
 20
22.0005543489
 10
-10.6544256724
 20
21.9817544441
 10
-10.7009322056
 20
21.9579786923
 10
-10.7447170915
 20
21.9294867333
 10
-10.785302291
 20
21.8965896872
 10
-10.8222447221
 20
21.8596467532
 10
-10.8551410596
 20
21.8190613204
 10
-10.8836321688
 20
21.7752765396
 10
-10.9074070294
 20
21.7287704675
 10
-10.9262061134
 20
21.6800508596
 10
-10.9398242133
 20
21.6296496393
 10
-10.9481126857
 20
21.5781170921
 10
-10.9509810786
 20
21.5260158439
  0
LINE
  5
372
100
AcDbEntity
  8
RACCORDO
100
AcDbLine
 62
253
  6
CONTINUOUS
 10
3.0797294973
 20
22.0075952798
 11
10.4516663102
 21
22.0253306103
  0
LINE
  5
373
100
AcDbEntity
  8
0
100
AcDbLine
 62
7
  6
CONTINUOUS
 10
10.5380919586
 20
22.1117562587
 11
-10.5380919586
 21
22.1117562587
  0
LINE
  5
374
100
AcDbEntity
  8
RACCORDO
100
AcDbLine
 62
253
  6
CONTINUOUS
 10
-4.3632819094
 20
22.0092957697
 11
3.0797294973
 21
22.0075952798
  0
LINE
  5
375
100
AcDbEntity
  8
RACCORDO
100
AcDbLine
 62
253
  6
CONTINUOUS
 10
-10.4516663112
 20
22.0253306113
 11
-4.3632819094
 21
22.0092957697
  0
LWPOLYLINE
  5
376
100
AcDbEntity
  8
RACCORDO
100
AcDbPolyline
 62
253
  6
CONTINUOUS
 90
16
 70
0
 10
10.4516663102
 20
22.0253306103
 10
10.503768433
 20
22.0224621237
 10
10.5553017012
 20
22.0141734028
 10
10.6057034712
 20
22.0005549446
 10
10.6544234529
 20
21.9817554362
 10
10.7009297184
 20
21.957980132
 10
10.7447145091
 20
21.9294886124
 10
10.7852997796
 20
21.8965919497
 10
10.8222424173
 20
21.859649312
 10
10.8551390799
 20
21.8190640414
 10
10.8836305994
 20
21.7752792507
 10
10.9074059035
 20
21.7287729852
 10
10.9262054118
 20
21.6800530035
 10
10.9398238701
 20
21.6296512337
 10
10.9481125909
 20
21.5781179655
 10
10.9509810776
 20
21.5260158429
  0
LWPOLYLINE
  5
377
100
AcDbEntity
  8
0
100
AcDbPolyline
 62
7
  6
CONTINUOUS
 90
7
 70
0
 43
0.3500000006
 10
-0.2142857063
 20
36.1433806
 10
-1.7142856507
 20
36.1433806
 10
-0.2142857063
 20
38.2862390442
 10
-0.2142857063
 20
38.7148080139
 10
-0.6428571367
 20
39.1433815155
 10
-1.2857142735
 20
39.1433815155
 10
-1.7142856507
 20
38.5005235291
  0
LWPOLYLINE
  5
378
100
AcDbEntity
  8
0
100
AcDbPolyline
 62
7
  6
CONTINUOUS
 90
7
 70
0
 43
0.3500000006
 10
-2.5714285469
 20
36.1433806
 10
-4.0714284382
 20
36.1433806
 10
-2.5714285469
 20
38.2862390442
 10
-2.5714285469
 20
38.7148080139
 10
-3.0000000658
 20
39.1433815155
 10
-3.6428572025
 20
39.1433815155
 10
-4.0714284382
 20
38.5005235291
  0
LWPOLYLINE
  5
379
100
AcDbEntity
  8
0
100
AcDbPolyline
 62
7
  6
CONTINUOUS
 90
3
 70
0
 43
0.3500000006
 10
-47.0740332184
 20
36.4290962677
 10
-47.1454644012
 20
36.2148117828
 10
-47.2883222351
 20
35.9290961151
  0
LINE
  5
37A
100
AcDbEntity
  8
RACCORDO
100
AcDbLine
 62
7
  6
CONTINUOUS
 10
-35.0102264717
 20
-22.1117562587
 11
-37.0298235497
 21
-22.0059136608
  0
LINE
  5
37B
100
AcDbEntity
  8
0
100
AcDbLine
 62
7
  6
CONTINUOUS
 10
-35.0102264717
 20
-22.1117562587
 11
-36.6593260823
 21
-22.0253306103
  0
LWPOLYLINE
  5
37C
100
AcDbEntity
  8
RACCORDO
100
AcDbPolyline
 62
253
  6
CONTINUOUS
 90
22
 70
0
 10
-36.6593260824
 20
-22.0253306103
 10
-36.7437129621
 20
-22.0179297522
 10
-36.8273482035
 20
-22.0046288375
 10
-36.9098200789
 20
-21.9854972854
 10
-36.9907232465
 20
-21.9606338102
 10
-37.0696601166
 20
-21.9301646573
 10
-37.1462423476
 20
-21.8942417477
 10
-37.2200972801
 20
-21.8530429444
 10
-37.2908592222
 20
-21.8067756796
 10
-37.3581710943
 20
-21.7556751002
 10
-37.4217022363
 20
-21.6999983713
 10
-37.4811451256
 20
-21.6400220376
 10
-37.5362063529
 20
-21.5760447725
 10
-37.5866180538
 20
-21.508384764
 10
-37.6321361133
 20
-21.4373780217
 10
-37.672537138
 20
-21.3633764989
 10
-37.7076232696
 20
-21.2867528886
 10
-37.7372296484
 20
-21.2078804478
 10
-37.7612175193
 20
-21.1271292234
 10
-37.7794692629
 20
-21.0448900836
 10
-37.7918934475
 20
-20.9615744365
 10
-37.7984286074
 20
-20.8775926584
  0
LINE
  5
37D
100
AcDbEntity
  8
RACCORDO
100
AcDbLine
 62
253
  6
CONTINUOUS
 10
-37.7984286087
 20
-20.8775927014
 11
-37.7927409279
 21
-20.8772422581
  0
LINE
  5
37E
100
AcDbEntity
  8
RACCORDO
100
AcDbLine
 62
253
  6
CONTINUOUS
 10
-37.7927409279
 20
-20.8772422581
 11
-37.7676915717
 21
-20.8759631133
  0
LINE
  5
37F
100
AcDbEntity
  8
RACCORDO
100
AcDbLine
 62
253
  6
CONTINUOUS
 10
-37.7676915717
 20
-20.8759631133
 11
-37.467684216
 21
-20.8624797898
  0
LINE
  5
380
100
AcDbEntity
  8
RACCORDO
100
AcDbLine
 62
253
  6
CONTINUOUS
 10
-37.467684216
 20
-20.8624797898
 11
-37.326274299
 21
-20.8563725241
  0
LINE
  5
381
100
AcDbEntity
  8
RACCORDO
100
AcDbLine
 62
253
  6
CONTINUOUS
 10
-38.1653823092
 20
-20.8701689506
 11
-37.7984286134
 21
-20.877592659
  0
LINE
  5
382
100
AcDbEntity
  8
0
100
AcDbLine
 62
253
  6
CONTINUOUS
 10
-35.0102264717
 20
-21.6124414913
 11
-36.6593260824
 21
-21.5260158429
  0
LWPOLYLINE
  5
383
100
AcDbEntity
  8
RACCORDO
100
AcDbPolyline
 62
253
  6
CONTINUOUS
 90
22
 70
0
 10
-36.6593260824
 20
-21.5260158429
 10
-36.708887938
 20
-21.5216510913
 10
-36.7576113544
 20
-21.5139400941
 10
-36.8054963315
 20
-21.5028828515
 10
-36.8527943723
 20
-21.4883894243
 10
-36.8992539738
 20
-21.4705497515
 10
-36.9441206271
 20
-21.4496336506
 10
-36.9873481378
 20
-21.4255962085
 10
-37.0289827003
 20
-21.3984823382
 10
-37.0684083891
 20
-21.3686965963
 10
-37.1055917953
 20
-21.3361975891
 10
-37.1405663277
 20
-21.3010267103
 10
-37.1728162876
 20
-21.263712697
 10
-37.2022978877
 20
-21.2242264943
 10
-37.2290549152
 20
-21.1825971571
 10
-37.2527030327
 20
-21.1394405875
 10
-37.2731978927
 20
-21.0947135149
 10
-37.2905838427
 20
-21.0484592098
 10
-37.3046095878
 20
-21.0014233868
 10
-37.315191363
 20
-20.9538546172
 10
-37.3224129334
 20
-20.9055043297
 10
-37.326274299
 20
-20.8563725241
  0
LWPOLYLINE
  5
384
100
AcDbEntity
  8
RACCORDO
100
AcDbPolyline
 62
253
  6
CONTINUOUS
 90
16
 70
0
 10
-36.6593260818
 20
22.0253306103
 10
-36.6619063062
 20
22.0224621237
 10
-36.664172656
 20
22.0141734028
 10
-36.6661003872
 20
22.0005549446
 10
-36.6676684528
 20
21.9817554362
 10
-36.6688597324
 20
21.957980132
 10
-36.6696612191
 20
21.9294886124
 10
-36.6700641623
 20
21.8965919497
 10
-36.6700641626
 20
21.859649312
 10
-36.66966122
 20
21.8190640414
 10
-36.6688597339
 20
21.7752792507
 10
-36.6676684549
 20
21.7287729852
 10
-36.6661003895
 20
21.6800530035
 10
-36.664172658
 20
21.6296512337
 10
-36.6619063073
 20
21.5781179655
 10
-36.6593260818
 20
21.5260158429
  0
LWPOLYLINE
  5
385
100
AcDbEntity
  8
RACCORDO
100
AcDbPolyline
 62
253
  6
CONTINUOUS
 90
16
 70
0
 10
-36.6593260824
 20
-22.0253306103
 10
-36.6619063423
 20
-22.0224620551
 10
-36.6641727163
 20
-22.0141731476
 10
-36.6661004607
 20
-22.0005544084
 10
-36.6676685298
 20
-21.9817545437
 10
-36.6688598036
 20
-21.9579788371
 10
-36.6696612759
 20
-21.9294869224
 10
-36.6700641984
 20
-21.8965899146
 10
-36.670064175
 20
-21.8596470098
 10
-36.6696612084
 20
-21.8190615926
 10
-36.6688597015
 20
-21.77527681
 10
-36.667668408
 20
-21.7287707174
 10
-36.6661003367
 20
-21.6800510715
 10
-36.6641726099
 20
-21.6296497963
 10
-36.6619062767
 20
-21.5781171775
 10
-36.6593260824
 20
-21.5260158429
  0
LWPOLYLINE
  5
386
100
AcDbEntity
  8
0
100
AcDbPolyline
 62
7
  6
CONTINUOUS
 90
2
 70
0
 43
0.3500000006
 10
-49.1454650116
 20
36.1433806
 10
-49.1454650116
 20
37.6433810577
  0
LINE
  5
387
100
AcDbEntity
  8
0
100
AcDbLine
 62
7
  6
CONTINUOUS
 10
-34.0102264717
 20
-13.2689805518
 11
-35.0102264717
 21
-13.3213883311
  0
LWPOLYLINE
  5
388
100
AcDbEntity
  8
0
100
AcDbPolyline
 62
7
  6
CONTINUOUS
 90
4
 70
0
 43
0.3500000006
 10
-46.0740329132
 20
38.5005235291
 10
-46.0740329132
 20
39.1433815155
 10
-44.5740324554
 20
39.1433815155
 10
-45.4311794586
 20
36.1433806
  0
LINE
  5
389
100
AcDbEntity
  8
0
100
AcDbLine
 62
7
  6
CONTINUOUS
 10
-34.0102264717
 20
-9.7310194482
 11
-35.0102264717
 21
-9.6786116689
  0
LWPOLYLINE
  5
38A
100
AcDbEntity
  8
0
100
AcDbPolyline
 62
7
  6
CONTINUOUS
 90
7
 70
0
 10
-38.1653823046
 20
20.8701690381
 10
-38.3288847775
 20
17.4618001712
 10
-38.4661751358
 20
13.9703724365
 10
-38.5729638547
 20
10.4778787858
 10
-38.6492397404
 20
6.9845855945
 10
-38.694994338
 20
3.4907592982
 10
-38.6957169082
 20
3.3250090696
  0
LWPOLYLINE
  5
38B
100
AcDbEntity
  8
RACCORDO
100
AcDbPolyline
 62
253
  6
CONTINUOUS
 90
22
 70
0
 10
-37.7984286069
 20
20.8775926568
 10
-37.7918936491
 20
20.9615726594
 10
-37.7794698104
 20
21.0448871287
 10
-37.761218435
 20
21.1271256883
 10
-37.7372307565
 20
21.2078771503
 10
-37.7076243233
 20
21.286750364
 10
-37.672538113
 20
21.363374559
 10
-37.6321371898
 20
21.4373761979
 10
-37.586619319
 20
21.5083829142
 10
-37.5362077701
 20
21.5760429757
 10
-37.4811465738
 20
21.6400204412
 10
-37.4217036417
 20
21.6999970232
 10
-37.3581724204
 20
21.7556739957
 10
-37.29086038
 20
21.8067748469
 10
-37.2200982287
 20
21.8530423607
 10
-37.146243274
 20
21.8942412669
 10
-37.0696615231
 20
21.9301640524
 10
-36.9907253812
 20
21.9606330674
 10
-36.9098225315
 20
21.9854966221
 10
-36.8273503058
 20
22.0046284256
 10
-36.7437142475
 20
22.0179295934
 10
-36.6593260818
 20
22.0253306103
  0
LWPOLYLINE
  5
38C
100
AcDbEntity
  8
RACCORDO
100
AcDbPolyline
 62
253
  6
CONTINUOUS
 90
22
 70
0
 10
-37.3262742987
 20
20.8563725242
 10
-37.3224117573
 20
20.9055117994
 10
-37.3151885911
 20
20.9538684119
 10
-37.3046048
 20
21.0014423617
 10
-37.2905766996
 20
21.0484818972
 10
-37.2731879742
 20
21.0947387699
 10
-37.2526896774
 20
21.1394682348
 10
-37.2290369086
 20
21.1826277654
 10
-37.2022745682
 20
21.2242598882
 10
-37.172788412
 20
21.2637474377
 10
-37.1405348503
 20
21.3010607812
 10
-37.1055574727
 20
21.3362295514
 10
-37.0683728034
 20
21.3687254808
 10
-37.0289481648
 20
21.3985067993
 10
-36.9873162346
 20
21.425615277
 10
-36.9440915699
 20
21.4496479577
 10
-36.8992271414
 20
21.4705605431
 10
-36.8527699785
 20
21.4883973314
 10
-36.8054757266
 20
21.5028882617
 10
-36.7575962674
 20
21.5139433135
 10
-36.7088797191
 20
21.5216525072
 10
-36.6593260818
 20
21.5260158429
  0
LINE
  5
38D
100
AcDbEntity
  8
0
100
AcDbLine
 62
7
  6
CONTINUOUS
 10
-38.6876637803
 20
-1.2520612064
 11
-38.6870891889
 21
-1.2614787787
  0
LWPOLYLINE
  5
38E
100
AcDbEntity
  8
0
100
AcDbPolyline
 62
7
  6
CONTINUOUS
 90
3
 70
0
 10
-38.6934727354
 20
3.3241852888
 10
-38.6933385796
 20
3.3217546839
 10
-38.693215575
 20
3.3177278188
  0
LINE
  5
38F
100
AcDbEntity
  8
0
100
AcDbLine
 62
7
  6
CONTINUOUS
 10
-38.6746840573
 20
0.2970618406
 11
-38.6751019264
 21
0.3048914483
  0
LINE
  5
390
100
AcDbEntity
  8
0
100
AcDbLine
 62
7
  6
CONTINUOUS
 10
-38.6872519919
 20
-1.2584681582
 11
-38.6868422412
 21
-1.266385877
  0
LINE
  5
391
100
AcDbEntity
  8
0
100
AcDbLine
 62
7
  6
CONTINUOUS
 10
-38.6490957235
 20
0.8361337615
 11
-38.6485981201
 21
0.8261329247
  0
LINE
  5
392
100
AcDbEntity
  8
0
100
AcDbLine
 62
7
  6
CONTINUOUS
 10
-38.6785156452
 20
-2.254067262
 11
-38.6791255282
 21
-2.242248086
  0
LINE
  5
393
100
AcDbEntity
  8
0
100
AcDbLine
 62
7
  6
CONTINUOUS
 10
-38.6870891889
 20
-1.2614787787
 11
-38.686437387
 21
-1.2757750801
  0
LINE
  5
394
100
AcDbEntity
  8
0
100
AcDbLine
 62
7
  6
CONTINUOUS
 10
-38.6485981201
 20
0.8261329247
 11
-38.6479894305
 21
0.8117216193
  0
LINE
  5
395
100
AcDbEntity
  8
0
100
AcDbLine
 62
7
  6
CONTINUOUS
 10
-38.6791255282
 20
-2.242248086
 11
-38.6796728901
 21
-2.2289158347
  0
LWPOLYLINE
  5
396
100
AcDbEntity
  8
RACCORDO
100
AcDbPolyline
 62
253
  6
CONTINUOUS
 90
10
 70
0
 10
-37.7984286134
 20
-20.877592659
 10
-37.9743494568
 20
-16.2407094163
 10
-38.1063757023
 20
-11.6020504417
 10
-38.1944371929
 20
-6.9620306049
 10
-38.2384836044
 20
-2.3208549767
 10
-38.2384836409
 20
2.3208472824
 10
-38.1944372915
 20
6.9620236805
 10
-38.10637583
 20
11.6020450567
 10
-37.9743495588
 20
16.2407063394
 10
-37.7984286135
 20
20.8775926575
  0
LWPOLYLINE
  5
397
100
AcDbEntity
  8
RACCORDO
100
AcDbPolyline
 62
253
  6
CONTINUOUS
 90
10
 70
0
 10
-37.326274299
 20
-20.8563725241
 10
-37.5023967654
 20
-16.2235199973
 10
-37.6344886221
 20
-11.5897193248
 10
-37.722549869
 20
-6.9549705067
 10
-37.7665805154
 20
-2.3186416566
 10
-37.7665805519
 20
2.3186353392
 10
-37.7225499513
 20
6.9549648211
 10
-37.6344887043
 20
11.5897149026
 10
-37.5023968201
 20
16.2235174703
 10
-37.3262742987
 20
20.8563725242
  0
LINE
  5
398
100
AcDbEntity
  8
0
100
AcDbLine
 62
7
  6
CONTINUOUS
 10
-38.6755047613
 20
0.3138675241
 11
-38.6760557251
 21
0.3287876608
  0
LINE
  5
399
100
AcDbEntity
  8
0
100
AcDbLine
 62
7
  6
CONTINUOUS
 10
-38.6865175525
 20
-1.2737870782
 11
-38.6859669068
 21
-1.2887675104
  0
LINE
  5
39A
100
AcDbEntity
  8
0
100
AcDbLine
 62
7
  6
CONTINUOUS
 10
-38.6481229837
 20
0.8150978438
 11
-38.6474848534
 21
0.7976173347
  0
LINE
  5
39B
100
AcDbEntity
  8
0
100
AcDbLine
 62
7
  6
CONTINUOUS
 10
-38.6796728901
 20
-2.2289158347
 11
-38.6802293886
 21
-2.2124254535
  0
LINE
  5
39C
100
AcDbEntity
  8
0
100
AcDbLine
 62
7
  6
CONTINUOUS
 10
-38.6758874024
 20
0.3238686264
 11
-38.6766116654
 21
0.3476916607
  0
LINE
  5
39D
100
AcDbEntity
  8
0
100
AcDbLine
 62
7
  6
CONTINUOUS
 10
-38.6476700444
 20
0.8030376271
 11
-38.6468487146
 21
0.7762762729
  0
LINE
  5
39E
100
AcDbEntity
  8
0
100
AcDbLine
 62
7
  6
CONTINUOUS
 10
-38.6860394995
 20
-1.2866073361
 11
-38.6852733865
 21
-1.3123522547
  0
LINE
  5
39F
100
AcDbEntity
  8
0
100
AcDbLine
 62
7
  6
CONTINUOUS
 10
-38.6802293886
 20
-2.2124254535
 11
-38.6808707206
 21
-2.189788238
  0
LINE
  5
3A0
100
AcDbEntity
  8
0
100
AcDbLine
 62
7
  6
CONTINUOUS
 10
-38.67624972
 20
0.3349038487
 11
-38.6769109712
 21
0.3599006523
  0
LINE
  5
3A1
100
AcDbEntity
  8
0
100
AcDbLine
 62
7
  6
CONTINUOUS
 10
-38.6854308604
 20
-1.3065439158
 11
-38.6728885251
 21
-1.7983723496
  0
LINE
  5
3A2
100
AcDbEntity
  8
0
100
AcDbLine
 62
7
  6
CONTINUOUS
 10
-38.6470155854
 20
0.7823361714
 11
-38.6461934761
 21
0.748507346
  0
LINE
  5
3A3
100
AcDbEntity
  8
0
100
AcDbLine
 62
7
  6
CONTINUOUS
 10
-38.6766116654
 20
0.3476916607
 11
-38.6772058746
 21
0.3737248033
  0
LINE
  5
3A4
100
AcDbEntity
  8
0
100
AcDbLine
 62
7
  6
CONTINUOUS
 10
-38.6808707206
 20
-2.189788238
 11
-38.6909496484
 21
-1.7513807661
  0
LINE
  5
3A5
100
AcDbEntity
  8
0
100
AcDbLine
 62
7
  6
CONTINUOUS
 10
-38.6932604051
 20
3.3194253168
 11
-38.6931045511
 21
3.3121298264
  0
LINE
  5
3A6
100
AcDbEntity
  8
0
100
AcDbLine
 62
7
  6
CONTINUOUS
 10
-38.6464807545
 20
0.7615751354
 11
-38.6458456921
 21
0.7300996169
  0
LINE
  5
3A7
100
AcDbEntity
  8
0
100
AcDbLine
 62
7
  6
CONTINUOUS
 10
-38.6731232905
 20
-1.7881303139
 11
-38.6721239022
 21
-1.8378948317
  0
LINE
  5
3A8
100
AcDbEntity
  8
0
100
AcDbLine
 62
7
  6
CONTINUOUS
 10
-38.6909496585
 20
-1.751380275
 11
-38.6917598358
 21
-1.7046555037
  0
LINE
  5
3A9
100
AcDbEntity
  8
0
100
AcDbLine
 62
7
  6
CONTINUOUS
 10
-38.6771113546
 20
0.3690624499
 11
-38.6779218144
 21
0.4184264752
  0
LINE
  5
3AA
100
AcDbEntity
  8
0
100
AcDbLine
 62
7
  6
CONTINUOUS
 10
-38.6931586877
 20
3.3151189829
 11
-38.6930061386
 21
3.3049807259
  0
LWPOLYLINE
  5
3AB
100
AcDbEntity
  8
0
100
AcDbPolyline
 62
7
  6
CONTINUOUS
 90
6
 70
0
 10
-38.6964066254
 20
-3.325
 10
-38.6491232668
 20
-6.9912513843
 10
-38.5727891555
 20
-10.4845431777
 10
-38.465942236
 20
-13.9770348719
 10
-38.3285937039
 20
-17.4684600916
 10
-38.1653823046
 20
-20.8701690383
  0
LINE
  5
3AC
100
AcDbEntity
  8
0
100
AcDbLine
 62
7
  6
CONTINUOUS
 10
-38.6458452542
 20
0.7300783712
 11
-38.6452887916
 21
0.690943228
  0
LINE
  5
3AD
100
AcDbEntity
  8
0
100
AcDbLine
 62
7
  6
CONTINUOUS
 10
-38.6721727738
 20
-1.8350283086
 11
-38.6713357422
 21
-1.8943505875
  0
LINE
  5
3AE
100
AcDbEntity
  8
0
100
AcDbLine
 62
7
  6
CONTINUOUS
 10
-38.6915470295
 20
-1.7185290466
 11
-38.6925045236
 21
-1.642122077
  0
LINE
  5
3AF
100
AcDbEntity
  8
0
100
AcDbLine
 62
7
  6
CONTINUOUS
 10
-38.693065896
 20
3.30959967
 11
-38.6929209455
 21
3.2963031485
  0
LINE
  5
3B0
100
AcDbEntity
  8
0
100
AcDbLine
 62
7
  6
CONTINUOUS
 10
-38.6777223539
 20
0.4038194252
 11
-38.6782963751
 21
0.4539815815
  0
LINE
  5
3B1
100
AcDbEntity
  8
0
100
AcDbLine
 62
7
  6
CONTINUOUS
 10
-38.6453482548
 20
0.6960151811
 11
-38.6449313347
 21
0.6495315717
  0
LINE
  5
3B2
100
AcDbEntity
  8
0
100
AcDbLine
 62
7
  6
CONTINUOUS
 10
-38.6713218724
 20
-1.8955565701
 11
-38.6707804923
 21
-1.9597136123
  0
LINE
  5
3B3
100
AcDbEntity
  8
0
100
AcDbLine
 62
7
  6
CONTINUOUS
 10
-38.6924108463
 20
-1.6515493362
 11
-38.6930940734
 21
-1.5571870731
  0
LINE
  5
3B4
100
AcDbEntity
  8
0
100
AcDbLine
 62
7
  6
CONTINUOUS
 10
-38.7076876077
 20
-1.4251607464
 11
-38.6964137796
 21
-3.323274103
  0
LINE
  5
3B5
100
AcDbEntity
  8
0
100
AcDbLine
 62
7
  6
CONTINUOUS
 10
-38.6964137796
 20
-3.323274103
 11
-38.6964062003
 21
-3.3249999995
  0
LINE
  5
3B6
100
AcDbEntity
  8
0
100
AcDbLine
 62
7
  6
CONTINUOUS
 10
-38.6782241082
 20
0.4459303561
 11
-38.6786154297
 21
0.5083928593
  0
LINE
  5
3B7
100
AcDbEntity
  8
0
100
AcDbLine
 62
7
  6
CONTINUOUS
 10
-38.6977623245
 20
2.1629577371
 11
-38.693462512
 21
1.3597864495
  0
LINE
  5
3B8
100
AcDbEntity
  8
0
100
AcDbLine
 62
7
  6
CONTINUOUS
 10
-38.6929209455
 20
3.2963031485
 11
-38.6927530451
 21
3.2617078647
  0
LINE
  5
3B9
100
AcDbEntity
  8
0
100
AcDbLine
 62
7
  6
CONTINUOUS
 10
-38.6450019495
 20
0.660059787
 11
-38.6447819155
 21
0.6066778876
  0
LINE
  5
3BA
100
AcDbEntity
  8
0
100
AcDbLine
 62
7
  6
CONTINUOUS
 10
-38.6708164472
 20
-1.9541031961
 11
-38.6705812165
 21
-2.0243278042
  0
LINE
  5
3BB
100
AcDbEntity
  8
0
100
AcDbLine
 62
7
  6
CONTINUOUS
 10
-38.7012777544
 20
0.8683463472
 11
-38.7036650144
 21
1.7844583195
  0
LINE
  5
3BC
100
AcDbEntity
  8
0
100
AcDbLine
 62
7
  6
CONTINUOUS
 10
-38.6930665142
 20
-1.5628121252
 11
-38.6932654783
 21
-1.4718962677
  0
LINE
  5
3BD
100
AcDbEntity
  8
0
100
AcDbLine
 62
7
  6
CONTINUOUS
 10
-38.6977803641
 20
2.3328526582
 11
-38.6977237714
 21
2.1472821247
  0
LINE
  5
3BE
100
AcDbEntity
  8
0
100
AcDbLine
 62
7
  6
CONTINUOUS
 10
-38.6934971624
 20
1.3700693247
 11
-38.6927442267
 21
0.565061235
  0
LINE
  5
3BF
100
AcDbEntity
  8
0
100
AcDbLine
 62
7
  6
CONTINUOUS
 10
-38.6786012654
 20
0.5043582277
 11
-38.6786408189
 21
0.585
  0
LINE
  5
3C0
100
AcDbEntity
  8
0
100
AcDbLine
 62
7
  6
CONTINUOUS
 10
-38.6927619627
 20
3.2650888209
 11
-38.6927581033
 21
3.196176862
  0
LINE
  5
3C1
100
AcDbEntity
  8
0
100
AcDbLine
 62
7
  6
CONTINUOUS
 10
-38.6448136923
 20
0.6229785393
 11
-38.6448616841
 21
0.5459034495
  0
LINE
  5
3C2
100
AcDbEntity
  8
0
100
AcDbLine
 62
7
  6
CONTINUOUS
 10
-38.7036650144
 20
1.7844583195
 11
-38.7030656841
 21
2.1412013002
  0
LINE
  5
3C3
100
AcDbEntity
  8
0
100
AcDbLine
 62
7
  6
CONTINUOUS
 10
-38.7027485358
 20
0.1121448302
 11
-38.7012786724
 21
0.8716671544
  0
LINE
  5
3C4
100
AcDbEntity
  8
0
100
AcDbLine
 62
7
  6
CONTINUOUS
 10
-38.6932658663
 20
-1.4713961819
 11
-38.6931104014
 21
-1.4108201141
  0
LWPOLYLINE
  5
3C5
100
AcDbEntity
  8
0
100
AcDbPolyline
 62
7
  6
CONTINUOUS
 90
3
 70
0
 10
-38.7031934738
 20
1.6099612773
 10
-38.7102264578
 20
-0.0033334542
 10
-38.7093756904
 20
-0.8249995559
  0
LINE
  5
3C6
100
AcDbEntity
  8
0
100
AcDbLine
 62
7
  6
CONTINUOUS
 10
-38.6705882749
 20
-2.0151721102
 11
-38.6707297321
 21
-2.0865340851
  0
LINE
  5
3C7
100
AcDbEntity
  8
0
100
AcDbLine
 62
7
  6
CONTINUOUS
 10
-38.6926196265
 20
0.6609914124
 11
-38.6948060346
 21
-0.0515807269
  0
LINE
  5
3C8
100
AcDbEntity
  8
0
100
AcDbLine
 62
7
  6
CONTINUOUS
 10
-38.6786408189
 20
0.585
 11
-38.6784127967
 21
0.6437298488
  0
LINE
  5
3C9
100
AcDbEntity
  8
0
100
AcDbLine
 62
7
  6
CONTINUOUS
 10
-38.6967023898
 20
2.5874611797
 11
-38.6977888098
 21
2.3263778244
  0
LINE
  5
3CA
100
AcDbEntity
  8
0
100
AcDbLine
 62
7
  6
CONTINUOUS
 10
-38.6927535816
 20
3.1984919111
 11
-38.6934062447
 21
3.0566766955
  0
LINE
  5
3CB
100
AcDbEntity
  8
0
100
AcDbLine
 62
7
  6
CONTINUOUS
 10
-38.6448143276
 20
0.565
 11
-38.6450740816
 21
0.5084322368
  0
LINE
  5
3CC
100
AcDbEntity
  8
0
100
AcDbLine
 62
7
  6
CONTINUOUS
 10
-38.6932973015
 20
3.0729860209
 11
-38.6968766455
 21
2.5593747387
  0
LINE
  5
3CD
100
AcDbEntity
  8
0
100
AcDbLine
 62
7
  6
CONTINUOUS
 10
-38.7078149219
 20
-0.6590222559
 11
-38.702740876
 21
0.1139572926
  0
LINE
  5
3CE
100
AcDbEntity
  8
0
100
AcDbLine
 62
7
  6
CONTINUOUS
 10
-38.6706737142
 20
-2.0743945835
 11
-38.6710503935
 21
-2.1282378073
  0
LINE
  5
3CF
100
AcDbEntity
  8
0
100
AcDbLine
 62
7
  6
CONTINUOUS
 10
-38.6931283228
 20
-1.4146540791
 11
-38.6927110064
 21
-1.3571700916
  0
LINE
  5
3D0
100
AcDbEntity
  8
0
100
AcDbLine
 62
7
  6
CONTINUOUS
 10
-38.69470057
 20
-0.0318842137
 11
-38.7008283702
 21
-0.8421440008
  0
LINE
  5
3D1
100
AcDbEntity
  8
0
100
AcDbLine
 62
7
  6
CONTINUOUS
 10
-38.7093756462
 20
-0.8250208745
 11
-38.7076068278
 21
-0.6355054037
  0
LINE
  5
3D2
100
AcDbEntity
  8
0
100
AcDbLine
 62
7
  6
CONTINUOUS
 10
-38.6784263452
 20
0.6415649559
 11
-38.6778992731
 21
0.700671877
  0
LINE
  5
3D3
100
AcDbEntity
  8
0
100
AcDbLine
 62
7
  6
CONTINUOUS
 10
-38.6449797869
 20
0.5217649699
 11
-38.6454447011
 21
0.4717695531
  0
LINE
  5
3D4
100
AcDbEntity
  8
0
100
AcDbLine
 62
7
  6
CONTINUOUS
 10
-38.7004235357
 20
-0.800936795
 11
-38.7076876101
 21
-1.4251600524
  0
LINE
  5
3D5
100
AcDbEntity
  8
0
100
AcDbLine
 62
7
  6
CONTINUOUS
 10
-38.6710164226
 20
-2.1248599301
 11
-38.6714453486
 21
-2.1597346817
  0
LINE
  5
3D6
100
AcDbEntity
  8
0
100
AcDbLine
 62
7
  6
CONTINUOUS
 10
-38.6927807164
 20
-1.3642029235
 11
-38.6920360048
 21
-1.3068038631
  0
LINE
  5
3D7
100
AcDbEntity
  8
0
100
AcDbLine
 62
7
  6
CONTINUOUS
 10
-38.6453516528
 20
0.4795489844
 11
-38.6459641247
 21
0.4367650926
  0
LINE
  5
3D8
100
AcDbEntity
  8
0
100
AcDbLine
 62
7
  6
CONTINUOUS
 10
-38.6779538956
 20
0.695965443
 11
-38.6772376963
 21
0.7461236052
  0
LINE
  5
3D9
100
AcDbEntity
  8
0
100
AcDbLine
 62
7
  6
CONTINUOUS
 10
-38.6713449013
 20
-2.1527016415
 11
-38.6719658289
 21
-2.189788
  0
LINE
  5
3DA
100
AcDbEntity
  8
0
100
AcDbLine
 62
7
  6
CONTINUOUS
 10
-38.6923416667
 20
-1.327117
 11
-38.6916908117
 21
-1.2892060985
  0
LINE
  5
3DB
100
AcDbEntity
  8
0
100
AcDbLine
 62
7
  6
CONTINUOUS
 10
-38.6775378264
 20
0.7276533542
 11
-38.676618249
 21
0.7770118156
  0
LINE
  5
3DC
100
AcDbEntity
  8
0
100
AcDbLine
 62
7
  6
CONTINUOUS
 10
-38.6918914398
 20
-1.298836353
 11
-38.6916311838
 21
-1.2866244038
  0
LINE
  5
3DD
100
AcDbEntity
  8
0
100
AcDbLine
 62
7
  6
CONTINUOUS
 10
-38.6719658386
 20
-2.1897885355
 11
-38.6725782087
 21
-2.2180685239
  0
LINE
  5
3DE
100
AcDbEntity
  8
0
100
AcDbLine
 62
7
  6
CONTINUOUS
 10
-38.6459219179
 20
0.4391990117
 11
-38.6466777514
 21
0.4015721135
  0
LINE
  5
3DF
100
AcDbEntity
  8
0
100
AcDbLine
 62
7
  6
CONTINUOUS
 10
-38.6769492364
 20
0.7615152647
 11
-38.6760675924
 21
0.7987774104
  0
LINE
  5
3E0
100
AcDbEntity
  8
0
100
AcDbLine
 62
7
  6
CONTINUOUS
 10
-38.6466243737
 20
0.4038724293
 11
-38.6474111359
 21
0.3737846065
  0
LINE
  5
3E1
100
AcDbEntity
  8
0
100
AcDbLine
 62
7
  6
CONTINUOUS
 10
-38.6723836468
 20
-2.2101036878
 11
-38.6729248436
 21
-2.2302804673
  0
LINE
  5
3E2
100
AcDbEntity
  8
0
100
AcDbLine
 62
7
  6
CONTINUOUS
 10
-38.6763022975
 20
0.7900359044
 11
-38.675462057
 21
0.8182442729
  0
LINE
  5
3E3
100
AcDbEntity
  8
0
100
AcDbLine
 62
7
  6
CONTINUOUS
 10
-38.6471172936
 20
0.3841411457
 11
-38.6478461794
 21
0.3599625607
  0
LINE
  5
3E4
100
AcDbEntity
  8
0
100
AcDbLine
 62
7
  6
CONTINUOUS
 10
-38.6728459948
 20
-2.2277031832
 11
-38.6733523059
 21
-2.2425870219
  0
LINE
  5
3E5
100
AcDbEntity
  8
0
100
AcDbLine
 62
7
  6
CONTINUOUS
 10
-38.6475941742
 20
0.3677555509
 11
-38.6483073898
 21
0.3470252637
  0
LINE
  5
3E6
100
AcDbEntity
  8
0
100
AcDbLine
 62
7
  6
CONTINUOUS
 10
-38.6755704328
 20
0.8150377937
 11
-38.6748049543
 21
0.8351888676
  0
LINE
  5
3E7
100
AcDbEntity
  8
0
100
AcDbLine
 62
7
  6
CONTINUOUS
 10
-38.6481060331
 20
0.352468071
 11
-38.648794189
 21
0.334962731
  0
LINE
  5
3E8
100
AcDbEntity
  8
0
100
AcDbLine
 62
7
  6
CONTINUOUS
 10
-38.6751769654
 20
0.8260758199
 11
-38.6747661505
 21
0.8360765746
  0
LWPOLYLINE
  5
3E9
100
AcDbEntity
  8
0
100
AcDbPolyline
 62
7
  6
CONTINUOUS
 90
3
 70
0
 10
-38.6486502505
 20
0.3383521265
 10
-38.6492245525
 20
0.3254837834
 10
-38.6498258853
 20
0.3139302008
  0
LWPOLYLINE
  5
3EA
100
AcDbEntity
  8
0
100
AcDbPolyline
 62
7
  6
CONTINUOUS
 90
5
 70
0
 10
-38.6732955135
 20
-2.2411053713
 10
-38.6739082092
 20
-2.2548878456
 10
-38.6745064249
 20
-2.264473011
 10
-38.6751275662
 20
-2.2709445901
 10
-38.6757727965
 20
-2.2741877465
  0
LWPOLYLINE
  5
3EB
100
AcDbEntity
  8
0
100
AcDbPolyline
 62
7
  6
CONTINUOUS
 90
6
 70
0
 10
-38.6747661505
 20
0.8360765746
 10
-38.6741038469
 20
0.849387525
 10
-38.6733704301
 20
0.8605786579
 10
-38.6726147697
 20
0.8685891306
 10
-38.6718441658
 20
0.8733970319
 10
-38.671066454
 20
0.875
  0
LWPOLYLINE
  5
3EC
100
AcDbEntity
  8
0
100
AcDbPolyline
 62
7
  6
CONTINUOUS
 90
6
 70
0
 10
-38.6736884164
 20
-2.2504890086
 10
-38.6741015588
 20
-2.2584068946
 10
-38.6745319472
 20
-2.2648185715
 10
-38.6749759873
 20
-2.2696722239
 10
-38.6754305717
 20
-2.2729248156
 10
-38.6757982872
 20
-2.274220008
  0
LINE
  5
3ED
100
AcDbEntity
  8
0
100
AcDbLine
 62
7
  6
CONTINUOUS
 10
-38.6743380621
 20
0.8450517661
 11
-38.673898141
 21
0.8528856641
  0
LINE
  5
3EE
100
AcDbEntity
  8
0
100
AcDbLine
 62
7
  6
CONTINUOUS
 10
-38.649826042
 20
0.3139254348
 11
-38.6503706901
 21
0.304950672
  0
LWPOLYLINE
  5
3EF
100
AcDbEntity
  8
0
100
AcDbPolyline
 62
7
  6
CONTINUOUS
 90
7
 70
0
 10
-38.6503706901
 20
0.304950672
 10
-38.6510903249
 20
0.2950583295
 10
-38.6517439642
 20
0.287879094
 10
-38.6524074555
 20
0.2822669238
 10
-38.6530776269
 20
0.2782386307
 10
-38.6537504507
 20
0.275811862
 10
-38.6537919411
 20
0.2757617265
  0
LWPOLYLINE
  5
3F0
100
AcDbEntity
  8
0
100
AcDbPolyline
 62
7
  6
CONTINUOUS
 90
6
 70
0
 10
-38.6734462191
 20
0.8595652651
 10
-38.6729821608
 20
0.8651035736
 10
-38.6725116439
 20
0.8694238725
 10
-38.6720365526
 20
0.8725005899
 10
-38.6715548572
 20
0.8743592988
 10
-38.671066454
 20
0.875
  0
LWPOLYLINE
  5
3F1
100
AcDbEntity
  8
0
100
AcDbPolyline
 62
7
  6
CONTINUOUS
 90
7
 70
0
 10
-38.650926958
 20
0.2971169328
 10
-38.6514947576
 20
0.2904371135
 10
-38.6520738724
 20
0.2848983191
 10
-38.6526569752
 20
0.2805775134
 10
-38.6532416151
 20
0.2775003516
 10
-38.6538300976
 20
0.2756411803
 10
-38.6544223192
 20
0.275
  0
LWPOLYLINE
  5
3F2
100
AcDbEntity
  8
0
100
AcDbPolyline
 62
7
  6
CONTINUOUS
 90
3
 70
0
 10
-38.6890812667
 20
-1.2421443612
 10
-38.6888801697
 20
-1.2423459897
 10
-38.6888233297
 20
-1.2425767718
  0
LWPOLYLINE
  5
3F3
100
AcDbEntity
  8
0
100
AcDbPolyline
 62
7
  6
CONTINUOUS
 90
4
 70
0
 10
-38.6890809234
 20
-1.2422573725
 10
-38.6888156216
 20
-1.2425863293
 10
-38.6882494348
 20
-1.2456216377
 10
-38.687673713
 20
-1.2519664555
  0
LWPOLYLINE
  5
3F4
100
AcDbEntity
  8
0
100
AcDbPolyline
 62
7
  6
CONTINUOUS
 90
6
 70
0
 10
-38.6719160079
 20
0.2750008591
 10
-38.6724020592
 20
0.2756454203
 10
-38.672878107
 20
0.2775028883
 10
-38.6733442504
 20
0.2805732637
 10
-38.6738024758
 20
0.2848786945
 10
-38.6742509332
 20
0.2903970339
  0
LWPOLYLINE
  5
3F5
100
AcDbEntity
  8
0
100
AcDbPolyline
 62
7
  6
CONTINUOUS
 90
6
 70
0
 10
-38.6719160084
 20
0.275
 10
-38.6726639915
 20
0.2765032643
 10
-38.6733988152
 20
0.2810173969
 10
-38.674113319
 20
0.2885489262
 10
-38.6747993383
 20
0.2990770894
 10
-38.6754491573
 20
0.3125276534
  0
LWPOLYLINE
  5
3F6
100
AcDbEntity
  8
0
100
AcDbPolyline
 62
7
  6
CONTINUOUS
 90
7
 70
0
 10
-38.6529094842
 20
0.8741853924
 10
-38.652244022
 20
0.8717552418
 10
-38.6515858447
 20
0.8677292879
 10
-38.6509390145
 20
0.8621329056
 10
-38.6503064639
 20
0.8549861274
 10
-38.6496907217
 20
0.846311032
 10
-38.6490959585
 20
0.8361487278
  0
LWPOLYLINE
  5
3F7
100
AcDbEntity
  8
0
100
AcDbPolyline
 62
7
  6
CONTINUOUS
 90
4
 70
0
 10
-38.6936172894
 20
3.3249999166
 10
-38.6934895991
 20
3.3243546959
 10
-38.6933706053
 20
3.3224964959
 10
-38.6932604051
 20
3.3194253168
  0
LINE
  5
3F8
100
AcDbEntity
  8
0
100
AcDbLine
 62
7
  6
CONTINUOUS
 10
-38.6936172887
 20
3.325
 11
-38.6934821478
 21
3.3242383377
  0
LWPOLYLINE
  5
3F9
100
AcDbEntity
  8
0
100
AcDbPolyline
 62
7
  6
CONTINUOUS
 90
3
 70
0
 10
-38.6884803769
 20
-1.2439692324
 10
-38.6880742415
 20
-1.2472142863
 10
-38.6876637803
 20
-1.2520612064
  0
LINE
  5
3FA
100
AcDbEntity
  8
0
100
AcDbLine
 62
7
  6
CONTINUOUS
 10
-38.6757727965
 20
-2.2741877465
 11
-38.6761362968
 21
-2.2746477995
  0
LINE
  5
3FB
100
AcDbEntity
  8
0
100
AcDbLine
 62
7
  6
CONTINUOUS
 10
-38.6892719249
 20
-1.2423495506
 11
-38.6890812667
 21
-1.2421443612
  0
LWPOLYLINE
  5
3FC
100
AcDbEntity
  8
0
100
AcDbPolyline
 62
7
  6
CONTINUOUS
 90
7
 70
0
 10
-38.6535786923
 20
0.875
 10
-38.6529894383
 20
0.8743549629
 10
-38.6524071389
 20
0.8724971885
 10
-38.6518318915
 20
0.8694266776
 10
-38.6512614085
 20
0.8651213296
 10
-38.6506981118
 20
0.8596032465
 10
-38.6501492559
 20
0.8529387335
  0
LINE
  5
3FD
100
AcDbEntity
  8
0
100
AcDbLine
 62
7
  6
CONTINUOUS
 10
-38.6535786923
 20
0.875
 11
-38.6529528243
 21
0.874238149
  0
LINE
  5
3FE
100
AcDbEntity
  8
0
100
AcDbLine
 62
7
  6
CONTINUOUS
 10
-35.0102264717
 20
-22.1117562587
 11
-35.0102264717
 21
22.1117562587
  0
LINE
  5
3FF
100
AcDbEntity
  8
0
100
AcDbLine
 62
253
  6
CONTINUOUS
 10
-34.3892920892
 20
13.288846539
 11
-34.3892920892
 21
9.711153461
  0
LINE
  5
400
100
AcDbEntity
  8
0
100
AcDbLine
 62
253
  6
CONTINUOUS
 10
-34.3892920892
 20
-9.711153461
 11
-34.3892920892
 21
-13.288846539
  0
LINE
  5
401
100
AcDbEntity
  8
0
100
AcDbLine
 62
7
  6
CONTINUOUS
 10
-34.0102264717
 20
13.2689805518
 11
-34.0102264717
 21
9.7310194482
  0
LINE
  5
402
100
AcDbEntity
  8
0
100
AcDbLine
 62
7
  6
CONTINUOUS
 10
-34.0102264717
 20
-9.7310194482
 11
-34.0102264717
 21
-13.2689805518
  0
LINE
  5
403
100
AcDbEntity
  8
0
100
AcDbLine
 62
7
  6
CONTINUOUS
 10
-38.675893514
 20
-2.2745554221
 11
-38.6761356559
 21
-2.274760582
  0
LINE
  5
404
100
AcDbEntity
  8
0
100
AcDbLine
 62
7
  6
CONTINUOUS
 10
-38.671066454
 20
0.875
 11
-38.6535786923
 21
0.875
  0
LINE
  5
405
100
AcDbEntity
  8
0
100
AcDbLine
 62
7
  6
CONTINUOUS
 10
-38.6544223198
 20
0.274999066
 11
-38.6719160079
 21
0.2750008591
  0
LINE
  5
406
100
AcDbEntity
  8
0
100
AcDbLine
 62
7
  6
CONTINUOUS
 10
-38.6937533322
 20
3.325
 11
-38.6936172894
 21
3.3249999166
  0
LWPOLYLINE
  5
407
100
AcDbEntity
  8
0
100
AcDbPolyline
 62
7
  6
CONTINUOUS
 90
10
 70
0
 43
0.3500000006
 10
-47.1454644012
 20
36.6433807526
 10
-47.0740332184
 20
36.5005229187
 10
-47.0740332184
 20
36.4290962677
 10
-47.2168910522
 20
36.2862384338
 10
-47.2883222351
 20
36.2862384338
 10
-47.3597488861
 20
36.3576696167
 10
-47.3597488861
 20
36.4290962677
 10
-47.2883222351
 20
36.5719541016
 10
-47.2168910522
 20
36.6433807526
 10
-47.1454644012
 20
36.6433807526
  0
LINE
  5
408
100
AcDbEntity
  8
0
100
AcDbLine
 62
7
  6
CONTINUOUS
 10
-34.0102264717
 20
9.7310194482
 11
-35.0102264717
 21
9.6786116689
  0
LINE
  5
409
100
AcDbEntity
  8
0
100
AcDbLine
 62
7
  6
CONTINUOUS
 10
-34.0102264717
 20
13.2689805518
 11
-35.0102264717
 21
13.3213883311
  0
LINE
  5
40A
100
AcDbEntity
  8
RACCORDO
100
AcDbLine
 62
253
  6
CONTINUOUS
 10
-37.7485532696
 20
20.875045896
 11
-37.3262742987
 21
20.8563725242
  0
LWPOLYLINE
  5
40B
100
AcDbEntity
  8
RACCORDO
100
AcDbPolyline
 62
253
  6
CONTINUOUS
 90
4
 70
0
 10
-37.7984168205
 20
20.8775921973
 10
-37.7927294159
 20
20.8772417637
 10
-37.7824522095
 20
20.8766968906
 10
-37.7485532696
 20
20.875045896
  0
LINE
  5
40C
100
AcDbEntity
  8
0
100
AcDbLine
 62
253
  6
CONTINUOUS
 10
-36.6593260818
 20
21.5260158429
 11
-35.0102264717
 21
21.6124414913
  0
LINE
  5
40D
100
AcDbEntity
  8
RACCORDO
100
AcDbLine
 62
7
  6
CONTINUOUS
 10
-37.0298234925
 20
22.0059136638
 11
-35.0102264717
 21
22.1117562587
  0
LINE
  5
40E
100
AcDbEntity
  8
0
100
AcDbLine
 62
7
  6
CONTINUOUS
 10
-36.6593260817
 20
22.0253306103
 11
-35.0102264717
 21
22.1117562587
  0
LINE
  5
40F
100
AcDbEntity
  8
RACCORDO
100
AcDbLine
 62
253
  6
CONTINUOUS
 10
-38.1653823091
 20
20.8701689517
 11
-37.7984286135
 21
20.8775926575
  0
LWPOLYLINE
  5
410
100
AcDbEntity
  8
0
100
AcDbPolyline
 62
7
  6
CONTINUOUS
 90
3
 70
0
 43
0.3500000006
 10
-48.645464859
 20
36.7862385864
 10
-50.1454653168
 20
36.7862385864
 10
-49.5026073303
 20
39.1433815155
  0
ARC
  5
411
100
AcDbEntity
  8
RACCORDO
100
AcDbCircle
 62
7
  6
CONTINUOUS
 10
-36.9670166891
 20
-20.8075584137
 40
1.2
100
AcDbArc
 50
182.9907948857
 51
267.0
  0
ARC
  5
412
100
AcDbEntity
  8
RACCORDO
100
AcDbCircle
 62
7
  6
CONTINUOUS
 10
-36.9670166913
 20
20.8075584136
 40
1.2
100
AcDbArc
 50
93.0
 51
177.0092051148
  0
ELLIPSE
  5
413
100
AcDbEntity
  8
0
100
AcDbEllipse
 62
7
  6
CONTINUOUS
 10
10.536720553
 20
-21.6110700857
 30
0.0
 11
-0.3545231217
 21
0.3545231217
 31
0.0
 40
0.9972646886
 41
2.3575640181
 42
3.9256212891
  0
ELLIPSE
  5
414
100
AcDbEntity
  8
0
100
AcDbEllipse
 62
7
  6
CONTINUOUS
 10
10.536720553
 20
21.6110700857
 30
0.0
 11
0.3545231217
 21
0.3545231217
 31
0.0
 40
0.9972646886
 41
-0.7840286355
 42
0.7840286355
  0
ELLIPSE
  5
415
100
AcDbEntity
  8
0
100
AcDbEllipse
 62
7
  6
CONTINUOUS
 10
-10.536720553
 20
21.6110700857
 30
0.0
 11
0.3545231217
 21
-0.3545231217
 31
0.0
 40
0.9972646886
 41
2.3575640181
 42
3.9256212891
  0
ELLIPSE
  5
416
100
AcDbEntity
  8
0
100
AcDbEllipse
 62
7
  6
CONTINUOUS
 10
-10.536720553
 20
-21.6110700857
 30
0.0
 11
0.3545231217
 21
0.3545231217
 31
0.0
 40
0.9972646886
 41
-3.9256212891
 42
-2.3575640181
  0
ENDSEC
  0
SECTION
  2
OBJECTS
  0
DICTIONARY
  5
C
100
AcDbDictionary
280
0
281
1
  3
ACAD_GROUP
350
D
  3
ACAD_MLINESTYLE
350
17
  3
ACAD_LAYOUT
350
1A
  3
ACAD_PLOTSETTINGS
350
19
  3
ACAD_PLOTSTYLENAME
350
E
  0
DICTIONARY
  5
D
102
{ACAD_REACTORS
330
C
102
}
100
AcDbDictionary
280
0
281
1
  0
ACDBDICTIONARYWDFLT
  5
E
102
{ACAD_REACTORS
330
C
102
}
100
AcDbDictionary
281
1
  3
Normal
350
F
100
AcDbDictionaryWithDefault
340
F
  0
DICTIONARY
  5
17
102
{ACAD_REACTORS
330
C
102
}
100
AcDbDictionary
280
0
281
1
  3
Standard
350
18
  0
DICTIONARY
  5
19
102
{ACAD_REACTORS
330
C
102
}
100
AcDbDictionary
281
1
  0
DICTIONARY
  5
1A
102
{ACAD_REACTORS
330
C
102
}
100
AcDbDictionary
281
1
  3
Model
350
417
  3
Layout1
350
418
  0
ACDBPLACEHOLDER
  5
F
102
{ACAD_REACTORS
330
E
102
}
  0
MLINESTYLE
  5
18
102
{ACAD_REACTORS
330
17
102
}
100
AcDbMlineStyle
  2
STANDARD
 70
0
  3

 62
256
 51
90.0
 52
90.0
 71
2
 49
0.5
 62
256
  6
BYLAYER
 49
-0.5
 62
256
  6
BYLAYER
  0
LAYOUT
  5
417
102
{ACAD_REACTORS
330
1A
102
}
100
AcDbPlotSettings
  1

  2
none_device
  4
ISO_A4_(297.00_x_210.00_MM)
  6

 40
0.0
 41
0.0
 42
0.0
 43
0.0
 44
297.0
 45
210.0
 46
0.0
 47
0.0
 48
0.0
 49
0.0
140
0.0
141
0.0
142
1.0
143
1.0
 70
1024
 72
1
 73
0
 74
0
  7

 75
0
147
1.0
148
0.0
149
0.0
100
AcDbLayout
  1
Model
 70
0
 71
0
 10
0.0
 20
0.0
 11
297.0
 21
210.0
 12
0.0
 22
0.0
 32
0.0
 14
0.0
 24
0.0
 34
0.0
 15
0.0
 25
0.0
 35
0.0
146
0.0
 13
0.0
 23
0.0
 33
0.0
 16
1.0
 26
0.0
 36
0.0
 17
0.0
 27
1.0
 37
0.0
 76
0
330
214
345
0
346
0
  0
LAYOUT
  5
418
102
{ACAD_REACTORS
330
1A
102
}
100
AcDbPlotSettings
  1

  2
none_device
  4
ISO_A4_(297.00_x_210.00_MM)
  6

 40
0.0
 41
0.0
 42
0.0
 43
0.0
 44
297.0
 45
210.0
 46
0.0
 47
0.0
 48
0.0
 49
0.0
140
0.0
141
0.0
142
1.0
143
1.0
 70
0
 72
1
 73
0
 74
0
  7

 75
0
147
1.0
148
0.0
149
0.0
100
AcDbLayout
  1
Layout1
 70
0
 71
1
 10
0.0
 20
0.0
 11
297.0
 21
210.0
 12
0.0
 22
0.0
 32
0.0
 14
0.0
 24
0.0
 34
0.0
 15
0.0
 25
0.0
 35
0.0
146
0.0
 13
0.0
 23
0.0
 33
0.0
 16
1.0
 26
0.0
 36
0.0
 17
0.0
 27
1.0
 37
0.0
 76
0
330
215
345
0
346
0
  0
ENDSEC
  0
EOF
