  0
SECTION
  2
HEADER
  9
$ACADVER
  1
AC1015
  9
$DWGCODEPAGE
  3
ANSI_1252
  9
$EXTMAX
 10
297.0
 20
210.0
 30
0.0
  9
$EXTMIN
 10
0.0
 20
0.0
 30
0.0
  9
$LIMMIN
 10
0.0
 20
0.0
  9
$LIMMAX
 10
297.0
 20
210.0
  9
$VIEWCTR
 10
148.5
 20
105.0
  9
$VIEWSIZE
 40
210.0
  9
$CLAYER
  8
0
  9
$LTSCALE
 40
16.335
  9
$CELTYPE
  6
BYLAYER
  9
$DIMSCALE
 40
1.0
  9
$DIMASZ
 40
3.0
  9
$DIMEXO
 40
1.85625
  9
$DIMDLI
 40
11.286
  9
$DIMEXE
 40
5.346
  9
$DIMCEN
 40
2.673
  9
$DIMLFAC
 40
1.0
  9
$DIMBLK
  1
_FILLED
  9
$DIMTXT
 40
3.0
  9
$DIMTOL
 70
1
  9
$DIMLIM
 70
0
  9
$DIMTFAC
 40
1.0
  9
$DIMTP
 40
0.01
  9
$DIMTM
 40
0.01
  9
$PDMODE
 70
3
  9
$PDSIZE
 40
3.0
  9
$HANDSEED
  5
404
  9
$TILEMODE
 70
1
  9
$MEASUREMENT
 70
1
  9
$INSUNITS
 70
4
  0
ENDSEC
  0
SECTION
  2
CLASSES
  0
CLASS
  1
ACDBDICTIONARYWDFLT
  2
AcDbDictionaryWithDefault
  3
AutoCAD 2000
 90
0
280
0
281
0
  0
CLASS
  1
ACDBPLACEHOLDER
  2
AcDbPlaceHolder
  3
AutoCAD 2000
 90
0
280
0
281
0
  0
CLASS
  1
LAYOUT
  2
AcDbLayout
  3
AutoCAD 2000
 90
0
280
0
281
0
  0
ENDSEC
  0
SECTION
  2
TABLES
  0
TABLE
  2
VPORT
  5
8
100
AcDbSymbolTable
 70
2
  0
VPORT
  5
1F4
100
AcDbSymbolTableRecord
100
AcDbViewportTableRecord
  2
*ACTIVE
 70
0
 10
0.0
 20
0.0
 11
1.0
 21
1.0
 12
148.5
 22
105.0
 13
0.0
 23
0.0
 14
1.0
 24
1.0
 15
0.0
 25
0.0
 16
0.0
 26
0.0
 36
1.0
 17
0.0
 27
0.0
 37
0.0
 40
210.0
 41
1.4142857143
 42
50.0
 43
0.0
 44
0.0
 50
0.0
 51
0.0
 71
0
 72
100
 73
1
 74
1
 75
0
 76
0
 77
0
 78
0
  0
ENDTAB
  0
TABLE
  2
LTYPE
  5
5
100
AcDbSymbolTable
 70
6
  0
LTYPE
  5
14
100
AcDbSymbolTableRecord
100
AcDbLinetypeTableRecord
  2
BYBLOCK
 70
0
  3

 72
65
 73
0
 40
0.0
  0
LTYPE
  5
15
100
AcDbSymbolTableRecord
100
AcDbLinetypeTableRecord
  2
BYLAYER
 70
0
  3

 72
65
 73
0
 40
0.0
  0
LTYPE
  5
16
100
AcDbSymbolTableRecord
100
AcDbLinetypeTableRecord
  2
CONTINUOUS
 70
64
  3
Solid line
 72
65
 73
0
 40
0.0
  0
LTYPE
  5
1F5
100
AcDbSymbolTableRecord
100
AcDbLinetypeTableRecord
  2
CENTER
 70
64
  3
____ _ ____ _ ____ _ ____ _ ____ _ ____ _ ____
 72
65
 73
4
 40
0.6
 49
0.375
 74
0
 49
-0.075
 74
0
 49
0.075
 74
0
 49
-0.075
 74
0
  0
LTYPE
  5
1F6
100
AcDbSymbolTableRecord
100
AcDbLinetypeTableRecord
  2
HIDDEN
 70
64
  3
- - - - - - - - - - - - - - - - - - - -
 72
65
 73
2
 40
0.2
 49
0.1
 74
0
 49
-0.1
 74
0
  0
LTYPE
  5
1F7
100
AcDbSymbolTableRecord
100
AcDbLinetypeTableRecord
  2
PHANTOM
 70
64
  3
_____ _ _ _____ _ _ _____ _ _ _____
 72
65
 73
6
 40
0.8
 49
0.45
 74
0
 49
-0.05
 74
0
 49
0.1
 74
0
 49
-0.05
 74
0
 49
0.1
 74
0
 49
-0.05
 74
0
  0
LTYPE
  5
1F8
100
AcDbSymbolTableRecord
100
AcDbLinetypeTableRecord
  2
DOT
 70
64
  3
. . . . . . . . . . . . . . . . . . . .
 72
65
 73
2
 40
0.2
 49
0.1
 74
0
 49
-0.1
 74
0
  0
LTYPE
  5
1F9
100
AcDbSymbolTableRecord
100
AcDbLinetypeTableRecord
  2
DASHED
 70
64
  3
- - - - - - - - - - - - - - - - - - - -
 72
65
 73
2
 40
0.2
 49
0.1
 74
0
 49
-0.1
 74
0
  0
ENDTAB
  0
TABLE
  2
LAYER
  5
2
100
AcDbSymbolTable
 70
36
  0
LAYER
  5
10
100
AcDbSymbolTableRecord
100
AcDbLayerTableRecord
  2
0
 70
0
 62
7
  6
CONTINUOUS
370
-3
390
F
  0
LAYER
  5
1FA
100
AcDbSymbolTableRecord
100
AcDbLayerTableRecord
  2
DEFAULT_1
 70
0
 62
7
  6
CENTER
370
-3
390
F
  0
LAYER
  5
1FB
100
AcDbSymbolTableRecord
100
AcDbLayerTableRecord
  2
DEFAULT_2
 70
0
 62
7
  6
HIDDEN
370
-3
390
F
  0
LAYER
  5
1FC
100
AcDbSymbolTableRecord
100
AcDbLayerTableRecord
  2
DEFAULT_3
 70
0
 62
7
  6
PHANTOM
370
-3
390
F
  0
LAYER
  5
1FD
100
AcDbSymbolTableRecord
100
AcDbLayerTableRecord
  2
ASSI
 70
0
 62
7
  6
CONTINUOUS
370
-3
390
F
  0
LAYER
  5
1FE
100
AcDbSymbolTableRecord
100
AcDbLayerTableRecord
  2
COORDINATE
 70
0
 62
7
  6
CONTINUOUS
370
-3
390
F
  0
LAYER
  5
1FF
100
AcDbSymbolTableRecord
100
AcDbLayerTableRecord
  2
COPY_PUBLISH
 70
0
 62
7
  6
CONTINUOUS
370
-3
390
F
  0
LAYER
  5
200
100
AcDbSymbolTableRecord
100
AcDbLayerTableRecord
  2
COSMETIC
 70
0
 62
7
  6
CONTINUOUS
370
-3
390
F
  0
LAYER
  5
201
100
AcDbSymbolTableRecord
100
AcDbLayerTableRecord
  2
COSMETICI
 70
0
 62
7
  6
CONTINUOUS
370
-3
390
F
  0
LAYER
  5
202
100
AcDbSymbolTableRecord
100
AcDbLayerTableRecord
  2
CURVE
 70
0
 62
7
  6
CONTINUOUS
370
-3
390
F
  0
LAYER
  5
203
100
AcDbSymbolTableRecord
100
AcDbLayerTableRecord
  2
DRAFT
 70
0
 62
7
  6
CONTINUOUS
370
-3
390
F
  0
LAYER
  5
204
100
AcDbSymbolTableRecord
100
AcDbLayerTableRecord
  2
IMPORT_IGES
 70
0
 62
7
  6
CONTINUOUS
370
-3
390
F
  0
LAYER
  5
205
100
AcDbSymbolTableRecord
100
AcDbLayerTableRecord
  2
INTFCLR_11
 70
0
 62
7
  6
CONTINUOUS
370
-3
390
F
  0
LAYER
  5
206
100
AcDbSymbolTableRecord
100
AcDbLayerTableRecord
  2
INTF_1
 70
0
 62
7
  6
CONTINUOUS
370
-3
390
F
  0
LAYER
  5
207
100
AcDbSymbolTableRecord
100
AcDbLayerTableRecord
  2
INTF_3
 70
0
 62
7
  6
CONTINUOUS
370
-3
390
F
  0
LAYER
  5
208
100
AcDbSymbolTableRecord
100
AcDbLayerTableRecord
  2
NOTE
 70
0
 62
7
  6
CONTINUOUS
370
-3
390
F
  0
LAYER
  5
209
100
AcDbSymbolTableRecord
100
AcDbLayerTableRecord
  2
PIANI
 70
0
 62
7
  6
CONTINUOUS
370
-3
390
F
  0
LAYER
  5
20A
100
AcDbSymbolTableRecord
100
AcDbLayerTableRecord
  2
PUNTI
 70
0
 62
7
  6
CONTINUOUS
370
-3
390
F
  0
LAYER
  5
20B
100
AcDbSymbolTableRecord
100
AcDbLayerTableRecord
  2
RACCORDO
 70
0
 62
7
  6
CONTINUOUS
370
-3
390
F
  0
LAYER
  5
20C
100
AcDbSymbolTableRecord
100
AcDbLayerTableRecord
  2
SIMBOLI
 70
0
 62
7
  6
CONTINUOUS
370
-3
390
F
  0
LAYER
  5
20D
100
AcDbSymbolTableRecord
100
AcDbLayerTableRecord
  2
SMUSSO
 70
0
 62
7
  6
CONTINUOUS
370
-3
390
F
  0
LAYER
  5
20E
100
AcDbSymbolTableRecord
100
AcDbLayerTableRecord
  2
SNAPLINE
 70
0
 62
7
  6
CONTINUOUS
370
-3
390
F
  0
LAYER
  5
20F
100
AcDbSymbolTableRecord
100
AcDbLayerTableRecord
  2
SUPERFICI
 70
0
 62
7
  6
CONTINUOUS
370
-3
390
F
  0
LAYER
  5
210
100
AcDbSymbolTableRecord
100
AcDbLayerTableRecord
  2
TRASH
 70
0
 62
7
  6
CONTINUOUS
370
-3
390
F
  0
LAYER
  5
211
100
AcDbSymbolTableRecord
100
AcDbLayerTableRecord
  2
___SHELL
 70
0
 62
7
  6
CONTINUOUS
370
-3
390
F
  0
ENDTAB
  0
TABLE
  2
STYLE
  5
3
100
AcDbSymbolTable
 70
1
  0
STYLE
  5
11
100
AcDbSymbolTableRecord
100
AcDbTextStyleTableRecord
  2
STANDARD
 70
0
 40
0.0
 41
0.8
 50
0.0
 71
0
 42
0.2
  3
txt
  4

  0
STYLE
  5
212
100
AcDbSymbolTableRecord
100
AcDbTextStyleTableRecord
  2
TEXTSTYLE_1
 70
0
 40
0.0
 41
0.8
 50
0.0
 71
0
 42
0.2
  3
gdt
  4

  0
ENDTAB
  0
TABLE
  2
VIEW
  5
6
100
AcDbSymbolTable
 70
0
  0
ENDTAB
  0
TABLE
  2
UCS
  5
7
100
AcDbSymbolTable
 70
0
  0
ENDTAB
  0
TABLE
  2
APPID
  5
9
100
AcDbSymbolTable
 70
1
  0
APPID
  5
213
100
AcDbSymbolTableRecord
100
AcDbRegAppTableRecord
  2
ACAD
 70
0
  0
ENDTAB
  0
TABLE
  2
BLOCK_RECORD
  5
1
100
AcDbSymbolTable
 70
0
  0
BLOCK_RECORD
  5
214
100
AcDbSymbolTableRecord
100
AcDbBlockTableRecord
  2
*Model_Space
  0
BLOCK_RECORD
  5
215
100
AcDbSymbolTableRecord
100
AcDbBlockTableRecord
  2
*Paper_Space
  0
BLOCK_RECORD
  5
216
100
AcDbSymbolTableRecord
100
AcDbBlockTableRecord
  2
_FILLED
  0
BLOCK_RECORD
  5
217
100
AcDbSymbolTableRecord
100
AcDbBlockTableRecord
  2
*D0
  0
BLOCK_RECORD
  5
218
100
AcDbSymbolTableRecord
100
AcDbBlockTableRecord
  2
*D1
  0
BLOCK_RECORD
  5
219
100
AcDbSymbolTableRecord
100
AcDbBlockTableRecord
  2
*D2
  0
ENDTAB
  0
TABLE
  2
DIMSTYLE
  5
A
100
AcDbSymbolTable
 70
1
100
AcDbDimStyleTable
 71
0
  0
DIMSTYLE
105
21A
100
AcDbSymbolTableRecord
100
AcDbDimStyleTableRecord
  2
STANDARD
 70
0
  3

  4

 40
1.0
 41
3.0
 42
0.0625
 43
0.38
 44
0.18
 45
0.0
 46
0.0
 47
0.01
 48
0.01
140
3.0
141
0.09
142
0.0
143
25.4
144
1.0
145
0.0
146
1.0
147
0.09
 71
1.0
 72
0.0
 73
0
 74
0
 75
0
 76
0
 77
1
 78
8
170
0
171
2
172
0
173
0
174
0
175
0
176
0
177
0
178
0
270
2
271
2
272
2
273
2
274
2
275
0
280
0
281
0
282
0
283
1
284
8
285
0
286
0
287
3
288
0
340
11
341
216
342
216
343
216
344
216
  0
DIMSTYLE
105
21B
100
AcDbSymbolTableRecord
100
AcDbDimStyleTableRecord
  2
DIMSTYLE_1
 70
0
  3

  4

 40
1.0
 41
3.0
 42
0.0625
 43
0.38
 44
0.18
 45
0.0
 46
0.0
 47
0.0
 48
0.0
140
3.0
141
0.09
142
0.0
143
25.4
144
1.0
145
0.0
146
1.0
147
0.09
 71
0.0
 72
0.0
 73
0
 74
0
 75
0
 76
0
 77
1
 78
8
170
0
171
2
172
0
173
0
174
0
175
0
176
0
177
0
178
0
270
2
271
1
272
1
273
2
274
2
275
0
280
0
281
0
282
0
283
1
284
8
285
0
286
0
287
3
288
0
340
11
341
216
342
216
343
216
344
216
  0
DIMSTYLE
105
21C
100
AcDbSymbolTableRecord
100
AcDbDimStyleTableRecord
  2
DIMSTYLE_2
 70
0
  3

  4

 40
1.0
 41
3.0
 42
0.0625
 43
0.38
 44
0.18
 45
0.0
 46
0.0
 47
0.0
 48
0.0
140
3.0
141
0.09
142
0.0
143
25.4
144
1.0
145
0.0
146
1.0
147
0.09
 71
0.0
 72
0.0
 73
0
 74
0
 75
0
 76
0
 77
1
 78
8
170
0
171
2
172
0
173
0
174
0
175
0
176
0
177
0
178
0
270
2
271
2
272
2
273
2
274
2
275
0
280
0
281
0
282
0
283
1
284
8
285
0
286
0
287
3
288
0
340
11
341
216
342
216
343
216
344
216
  0
ENDTAB
  0
ENDSEC
  0
SECTION
  2
BLOCKS
  0
BLOCK
  5
20
100
AcDbEntity
  8
0
100
AcDbBlockBegin
  2
*Model_Space
 70
0
 10
0.0
 20
0.0
 30
0.0
  3
*Model_Space
  1

  0
ENDBLK
  5
21
100
AcDbEntity
  8
0
100
AcDbBlockEnd
  0
BLOCK
  5
1C
100
AcDbEntity
  8
0
100
AcDbBlockBegin
  2
*Paper_Space
 70
0
 10
0.0
 20
0.0
 30
0.0
  3
*Paper_Space
  1

  0
ENDBLK
  5
1D
100
AcDbEntity
  8
0
100
AcDbBlockEnd
  0
BLOCK
  5
21D
100
AcDbEntity
  8
0
100
AcDbBlockBegin
  2
_FILLED
 70
64
 10
0.0
 20
0.0
  3
_FILLED
  1

  0
SOLID
  5
21E
100
AcDbEntity
  8
0
  6
BYBLOCK
 62
0
100
AcDbTrace
 10
0.0
 20
0.0
 11
-1.0
 21
0.3166666667
 12
-1.0
 22
-0.3166666667
 13
-1.0
 23
-0.3166666667
  0
ENDBLK
  5
21F
100
AcDbEntity
  8
0
  6
BYBLOCK
 62
0
100
AcDbBlockEnd
  0
BLOCK
  5
220
100
AcDbEntity
  8
0
100
AcDbBlockBegin
 62
7
  6
CONTINUOUS
  2
*D0
 70
65
 10
0.0
 20
0.0
  3
*D0
  1

  0
LINE
  5
221
100
AcDbEntity
  8
0
100
AcDbLine
 62
7
  6
CONTINUOUS
 10
-11.037406726
 20
22.4305789785
 11
-11.037406726
 21
36.8933816869
  0
LINE
  5
222
100
AcDbEntity
  8
0
100
AcDbLine
 62
7
  6
CONTINUOUS
 10
11.037406726
 20
22.1124414913
 11
11.037406726
 21
36.8933816869
  0
LINE
  5
223
100
AcDbEntity
  8
0
100
AcDbLine
 62
7
  6
CONTINUOUS
 10
-11.037406726
 20
35.3933816869
 11
-0.0
 21
35.3933816869
  0
LINE
  5
224
100
AcDbEntity
  8
0
100
AcDbLine
 62
7
  6
CONTINUOUS
 10
11.037406726
 20
35.3933816869
 11
-0.0
 21
35.3933816869
  0
INSERT
  5
225
100
AcDbEntity
  8
0
100
AcDbBlockReference
 62
7
  6
CONTINUOUS
  2
_FILLED
 10
-11.037406726
 20
35.3933816869
 41
3.0
 42
3.0
 43
3.0
 50
180.0
  0
INSERT
  5
226
100
AcDbEntity
  8
0
100
AcDbBlockReference
 62
7
  6
CONTINUOUS
  2
_FILLED
 10
11.037406726
 20
35.3933816869
 41
3.0
 42
3.0
 43
3.0
  0
ENDBLK
  5
227
100
AcDbEntity
  8
0
  6
BYBLOCK
 62
0
100
AcDbBlockEnd
  0
BLOCK
  5
228
100
AcDbEntity
  8
0
100
AcDbBlockBegin
 62
7
  6
CONTINUOUS
  2
*D1
 70
65
 10
0.0
 20
0.0
  3
*D1
  1

  0
LINE
  5
229
100
AcDbEntity
  8
0
100
AcDbLine
 62
7
  6
CONTINUOUS
 10
11.0380919586
 20
-22.1117562587
 11
25.3553195672
 21
-22.1117562587
  0
LINE
  5
22A
100
AcDbEntity
  8
0
100
AcDbLine
 62
7
  6
CONTINUOUS
 10
11.0380919586
 20
22.1117562587
 11
25.3553195672
 21
22.1117562587
  0
LINE
  5
22B
100
AcDbEntity
  8
0
100
AcDbLine
 62
7
  6
CONTINUOUS
 10
23.8553195672
 20
-22.1117562587
 11
23.8553195672
 21
-0.0
  0
LINE
  5
22C
100
AcDbEntity
  8
0
100
AcDbLine
 62
7
  6
CONTINUOUS
 10
23.8553195672
 20
22.1117562587
 11
23.8553195672
 21
-0.0
  0
INSERT
  5
22D
100
AcDbEntity
  8
0
100
AcDbBlockReference
 62
7
  6
CONTINUOUS
  2
_FILLED
 10
23.8553195672
 20
-22.1117562587
 41
3.0
 42
3.0
 43
3.0
 50
270.0
  0
INSERT
  5
22E
100
AcDbEntity
  8
0
100
AcDbBlockReference
 62
7
  6
CONTINUOUS
  2
_FILLED
 10
23.8553195672
 20
22.1117562587
 41
3.0
 42
3.0
 43
3.0
 50
90.0
  0
ENDBLK
  5
22F
100
AcDbEntity
  8
0
  6
BYBLOCK
 62
0
100
AcDbBlockEnd
  0
BLOCK
  5
230
100
AcDbEntity
  8
0
100
AcDbBlockBegin
 62
7
  6
CONTINUOUS
  2
*D2
 70
65
 10
0.0
 20
0.0
  3
*D2
  1

  0
LINE
  5
231
100
AcDbEntity
  8
0
100
AcDbLine
 62
7
  6
CONTINUOUS
 10
-34.0102264717
 20
10.2310194482
 11
-34.0102264717
 21
36.8933816869
  0
LINE
  5
232
100
AcDbEntity
  8
0
100
AcDbLine
 62
7
  6
CONTINUOUS
 10
-38.7089551891
 20
1.5
 11
-38.7089551891
 21
36.8933816869
  0
LINE
  5
233
100
AcDbEntity
  8
0
100
AcDbLine
 62
7
  6
CONTINUOUS
 10
-34.0102264717
 20
35.3933816869
 11
-30.0102264717
 21
35.3933816869
  0
LINE
  5
234
100
AcDbEntity
  8
0
100
AcDbLine
 62
7
  6
CONTINUOUS
 10
-30.0102264717
 20
35.3933816869
 11
-36.3595908304
 21
35.3933816869
  0
LINE
  5
235
100
AcDbEntity
  8
0
100
AcDbLine
 62
7
  6
CONTINUOUS
 10
-38.7089551891
 20
35.3933816869
 11
-51.5581853943
 21
35.3933816869
  0
LINE
  5
236
100
AcDbEntity
  8
0
100
AcDbLine
 62
7
  6
CONTINUOUS
 10
-51.5581853943
 20
35.3933816869
 11
-36.3595908304
 21
35.3933816869
  0
INSERT
  5
237
100
AcDbEntity
  8
0
100
AcDbBlockReference
 62
7
  6
CONTINUOUS
  2
_FILLED
 10
-34.0102264717
 20
35.3933816869
 41
3.0
 42
3.0
 43
3.0
 50
180.0
  0
INSERT
  5
238
100
AcDbEntity
  8
0
100
AcDbBlockReference
 62
7
  6
CONTINUOUS
  2
_FILLED
 10
-38.7089551891
 20
35.3933816869
 41
3.0
 42
3.0
 43
3.0
  0
ENDBLK
  5
239
100
AcDbEntity
  8
0
  6
BYBLOCK
 62
0
100
AcDbBlockEnd
  0
ENDSEC
  0
SECTION
  2
ENTITIES
  0
DIMENSION
  5
23A
100
AcDbEntity
  8
0
100
AcDbDimension
 62
7
  6
CONTINUOUS
  2
*D0
 10
11.037406726
 20
35.3933816869
 11
-4.0714285714
 21
36.1433816869
 70
160
 71
2
 42
22.074813452
  3
DIMSTYLE_1
100
AcDbAlignedDimension
 13
-11.037406726
 23
22.4305789785
 14
11.037406726
 24
22.1124414913
100
AcDbRotatedDimension
  0
DIMENSION
  5
23B
100
AcDbEntity
  8
0
100
AcDbDimension
 62
7
  6
CONTINUOUS
  2
*D1
 10
23.8553195672
 20
22.1117562587
 11
23.1053195672
 21
-4.3928571429
 70
160
 71
2
 42
44.2235125174
  3
DIMSTYLE_1
100
AcDbAlignedDimension
 13
11.0380919586
 23
-22.1117562587
 14
11.0380919586
 24
22.1117562587
 50
90.0
100
AcDbRotatedDimension
  0
DIMENSION
  5
23C
100
AcDbEntity
  8
0
100
AcDbDimension
 62
7
  6
CONTINUOUS
  2
*D2
 10
-38.7089551891
 20
35.3933816869
 11
-51.5581853943
 21
36.1433816869
 70
160
 71
3
 42
4.6987287174
  3
DIMSTYLE_2
100
AcDbAlignedDimension
 13
-34.0102264717
 23
10.2310194482
 14
-38.7089551891
 24
1.5
 50
180.0
100
AcDbRotatedDimension
  0
LWPOLYLINE
  5
23D
100
AcDbEntity
  8
0
100
AcDbPolyline
 62
7
  6
CONTINUOUS
 90
3
 70
0
 43
0.3500000006
 10
2.3571427875
 20
38.2862390442
 10
3.2142856836
 20
39.1433815155
 10
3.2142856836
 20
36.1433806
  0
LWPOLYLINE
  5
23E
100
AcDbEntity
  8
RACCORDO
100
AcDbPolyline
 62
253
  6
CONTINUOUS
 90
16
 70
0
 10
10.4516663102
 20
-22.0253306103
 10
10.5037690666
 20
-22.0224620551
 10
10.5553028853
 20
-22.0141731476
 10
10.6057051072
 20
-22.0005544084
 10
10.6544254459
 20
-21.9817545437
 10
10.7009319522
 20
-21.9579788371
 10
10.7447168289
 20
-21.9294869224
 10
10.7853020361
 20
-21.8965899146
 10
10.8222444888
 20
-21.8596470098
 10
10.8551408595
 20
-21.8190615926
 10
10.8836320105
 20
-21.77527681
 10
10.907406916
 20
-21.7287707174
 10
10.9262060426
 20
-21.6800510715
 10
10.9398241783
 20
-21.6296497963
 10
10.9481126754
 20
-21.5781171775
 10
10.9509810776
 20
-21.5260158429
  0
LWPOLYLINE
  5
23F
100
AcDbEntity
  8
RACCORDO
100
AcDbPolyline
 62
253
  6
CONTINUOUS
 90
14
 70
0
 10
10.5467846174
 20
-20.8766973698
 10
10.5927250858
 20
-20.8759631133
 10
10.6370256354
 20
-20.8750463295
 10
10.6792735144
 20
-20.8739555604
 10
10.7190750957
 20
-20.8727009687
 10
10.7560595448
 20
-20.8712942435
 10
10.7898822745
 20
-20.8697484914
 10
10.8202281557
 20
-20.8680781143
 10
10.8468144532
 20
-20.8662986753
 10
10.8693934603
 20
-20.8644267535
 10
10.8877548066
 20
-20.8624797898
 10
10.9017274179
 20
-20.8604759241
 10
10.9111811102
 20
-20.8584338268
 10
10.9160278026
 20
-20.8563725241
  0
LINE
  5
240
100
AcDbEntity
  8
RACCORDO
100
AcDbLine
 62
253
  6
CONTINUOUS
 10
10.45170734
 20
-20.8775927014
 11
10.5467846174
 21
-20.8766973698
  0
LINE
  5
241
100
AcDbEntity
  8
RACCORDO
100
AcDbLine
 62
253
  6
CONTINUOUS
 10
-10.4516663112
 20
-22.0253306113
 11
-7.0709563508
 21
-22.0147968665
  0
LINE
  5
242
100
AcDbEntity
  8
RACCORDO
100
AcDbLine
 62
253
  6
CONTINUOUS
 10
-7.0709563508
 20
-22.0147968665
 11
-3.6871602833
 21
-22.0083287978
  0
LINE
  5
243
100
AcDbEntity
  8
RACCORDO
100
AcDbLine
 62
253
  6
CONTINUOUS
 10
-10.4517073418
 20
-20.8775926608
 11
-5.0383196122
 21
-20.8718913483
  0
LINE
  5
244
100
AcDbEntity
  8
RACCORDO
100
AcDbLine
 62
253
  6
CONTINUOUS
 10
-3.6871602833
 20
-22.0083287978
 11
-0.3017398533
 21
-22.0059300251
  0
LINE
  5
245
100
AcDbEntity
  8
0
100
AcDbLine
 62
7
  6
CONTINUOUS
 10
-10.5380919586
 20
-22.1117562587
 11
10.5380919586
 21
-22.1117562587
  0
LINE
  5
246
100
AcDbEntity
  8
RACCORDO
100
AcDbLine
 62
253
  6
CONTINUOUS
 10
-5.0383196122
 20
-20.8718913483
 11
0.3802736877
 21
-20.8701786604
  0
LINE
  5
247
100
AcDbEntity
  8
RACCORDO
100
AcDbLine
 62
253
  6
CONTINUOUS
 10
0.3802736877
 20
-20.8701786604
 11
5.1443072636
 21
-20.8719616466
  0
LINE
  5
248
100
AcDbEntity
  8
RACCORDO
100
AcDbLine
 62
253
  6
CONTINUOUS
 10
-0.3017398533
 20
-22.0059300251
 11
3.0778248258
 21
-22.0075931727
  0
LINE
  5
249
100
AcDbEntity
  8
RACCORDO
100
AcDbLine
 62
253
  6
CONTINUOUS
 10
5.1443072636
 20
-20.8719616466
 11
10.4517073401
 21
-20.877592659
  0
LINE
  5
24A
100
AcDbEntity
  8
RACCORDO
100
AcDbLine
 62
253
  6
CONTINUOUS
 10
3.0778248258
 20
-22.0075931727
 11
5.8412638358
 21
-22.0119754398
  0
LINE
  5
24B
100
AcDbEntity
  8
RACCORDO
100
AcDbLine
 62
253
  6
CONTINUOUS
 10
5.8412638358
 20
-22.0119754398
 11
8.8290977026
 21
-22.0197905108
  0
LINE
  5
24C
100
AcDbEntity
  8
RACCORDO
100
AcDbLine
 62
253
  6
CONTINUOUS
 10
8.8290977026
 20
-22.0197905108
 11
10.4516663102
 21
-22.0253306103
  0
LWPOLYLINE
  5
24D
100
AcDbEntity
  8
RACCORDO
100
AcDbPolyline
 62
253
  6
CONTINUOUS
 90
15
 70
0
 10
-10.4517064338
 20
-20.8775921467
 10
-10.5467828481
 20
-20.8766968422
 10
-10.5927229449
 20
-20.8759626079
 10
-10.637023179
 20
-20.875045852
 10
-10.6792708092
 20
-20.8739551156
 10
-10.7190722186
 20
-20.8727005609
 10
-10.7560565814
 20
-20.8712938762
 10
-10.7898793179
 20
-20.8697481676
 10
-10.820225305
 20
-20.8680778363
 10
-10.8468118121
 20
-20.8662984446
 10
-10.8693911354
 20
-20.864426571
 10
-10.8877529054
 20
-20.8624796554
 10
-10.9017260474
 20
-20.8604758371
 10
-10.911180375
 20
-20.8584337854
 10
-10.9160278031
 20
-20.856372526
  0
LWPOLYLINE
  5
24E
100
AcDbEntity
  8
RACCORDO
100
AcDbPolyline
 62
253
  6
CONTINUOUS
 90
16
 70
0
 10
-10.4516663112
 20
-22.0253306113
 10
-10.5037684339
 20
-22.0224621246
 10
-10.5553017021
 20
-22.0141734038
 10
-10.6057034721
 20
-22.0005549456
 10
-10.6544234538
 20
-21.9817554372
 10
-10.7009297193
 20
-21.957980133
 10
-10.74471451
 20
-21.9294886134
 10
-10.7852997805
 20
-21.8965919507
 10
-10.8222424182
 20
-21.859649313
 10
-10.8551390808
 20
-21.8190640424
 10
-10.8836306004
 20
-21.7752792517
 10
-10.9074059045
 20
-21.7287729862
 10
-10.9262054128
 20
-21.6800530045
 10
-10.939823871
 20
-21.6296512346
 10
-10.9481125919
 20
-21.5781179665
 10
-10.9509810786
 20
-21.5260158439
  0
LINE
  5
24F
100
AcDbEntity
  8
RACCORDO
100
AcDbLine
 62
253
  6
CONTINUOUS
 10
-10.9198842104
 20
21.1394682369
 11
-10.9178986357
 21
21.048481899
  0
LINE
  5
250
100
AcDbEntity
  8
RACCORDO
100
AcDbLine
 62
253
  6
CONTINUOUS
 10
-10.9178986357
 20
21.048481899
 11
-10.916608781
 21
20.9538684136
  0
LINE
  5
251
100
AcDbEntity
  8
RACCORDO
100
AcDbLine
 62
253
  6
CONTINUOUS
 10
-10.916608781
 20
20.9538684136
 11
-10.9160278032
 21
20.856372526
  0
LWPOLYLINE
  5
252
100
AcDbEntity
  8
RACCORDO
100
AcDbPolyline
 62
253
  6
CONTINUOUS
 90
9
 70
0
 10
-10.9160278032
 20
20.856372526
 10
-10.9067976127
 20
16.2235174718
 10
-10.8998749702
 20
11.5897149038
 10
-10.8952598757
 20
6.9549648218
 10
-10.8929523297
 20
2.3186353394
 10
-10.8929523316
 20
-2.3186416569
 10
-10.89525988
 20
-6.9549705075
 10
-10.8998749746
 20
-11.589719326
 10
-10.9067976156
 20
-16.2235199988
  0
LINE
  5
253
100
AcDbEntity
  8
RACCORDO
100
AcDbLine
 62
253
  6
CONTINUOUS
 10
-10.4421594243
 20
11.6020450577
 11
-10.4380674491
 21
2.3208472824
  0
LINE
  5
254
100
AcDbEntity
  8
0
100
AcDbLine
 62
7
  6
CONTINUOUS
 10
-11.037406726
 20
21.6124414913
 11
-11.037406726
 21
-21.6124414913
  0
LINE
  5
255
100
AcDbEntity
  8
RACCORDO
100
AcDbLine
 62
253
  6
CONTINUOUS
 10
-10.4380674491
 20
2.3208472824
 11
-10.4394314443
 21
-6.9620306059
  0
LINE
  5
256
100
AcDbEntity
  8
RACCORDO
100
AcDbLine
 62
253
  6
CONTINUOUS
 10
-10.4394314443
 20
-6.9620306059
 11
-10.4462513957
 21
-16.2407094179
  0
LINE
  5
257
100
AcDbEntity
  8
RACCORDO
100
AcDbLine
 62
253
  6
CONTINUOUS
 10
-10.4462513957
 20
-16.2407094179
 11
-10.4512042609
 21
-21.8942417473
  0
LINE
  5
258
100
AcDbEntity
  8
RACCORDO
100
AcDbLine
 62
253
  6
CONTINUOUS
 10
-10.4515204152
 20
22.0179295951
 11
-10.4421594243
 21
11.6020450577
  0
LINE
  5
259
100
AcDbEntity
  8
RACCORDO
100
AcDbLine
 62
253
  6
CONTINUOUS
 10
-10.9067976156
 20
-16.2235199988
 11
-10.9162301691
 21
-20.9055043316
  0
LWPOLYLINE
  5
25A
100
AcDbEntity
  8
RACCORDO
100
AcDbPolyline
 62
253
  6
CONTINUOUS
 90
3
 70
0
 10
-10.4512042609
 20
-21.8942417473
 10
-10.4515203381
 20
-22.0179297525
 10
-10.4516663112
 20
-22.0253306113
  0
LINE
  5
25B
100
AcDbEntity
  8
RACCORDO
100
AcDbLine
 62
253
  6
CONTINUOUS
 10
-10.9162301691
 20
-20.9055043316
 11
-10.9171632032
 21
-21.0014233887
  0
LWPOLYLINE
  5
25C
100
AcDbEntity
  8
RACCORDO
100
AcDbPolyline
 62
253
  6
CONTINUOUS
 90
18
 70
0
 10
-10.9171632032
 20
-21.0014233887
 10
-10.9188094204
 20
-21.0947135168
 10
-10.9198835105
 20
-21.1394405895
 10
-10.9211228558
 20
-21.1825971591
 10
-10.9225251322
 20
-21.2242264963
 10
-10.9240701974
 20
-21.2637126991
 10
-10.9257603461
 20
-21.3010267123
 10
-10.9275932837
 20
-21.336197591
 10
-10.9295419835
 20
-21.3686965981
 10
-10.9316081962
 20
-21.3984823398
 10
-10.9337901712
 20
-21.4255962099
 10
-10.936055629
 20
-21.4496336519
 10
-10.9384069907
 20
-21.4705497529
 10
-10.9408418352
 20
-21.4883894257
 10
-10.9433206205
 20
-21.502882853
 10
-10.9458301658
 20
-21.5139400955
 10
-10.9483836518
 20
-21.5216510925
 10
-10.9509810786
 20
-21.5260158439
  0
LINE
  5
25D
100
AcDbEntity
  8
RACCORDO
100
AcDbLine
 62
253
  6
CONTINUOUS
 10
-10.4516663112
 20
22.0253306113
 11
-10.4515204152
 21
22.0179295951
  0
LWPOLYLINE
  5
25E
100
AcDbEntity
  8
0
100
AcDbPolyline
 62
7
  6
CONTINUOUS
 90
3
 70
0
 43
0.3500000006
 10
1.3571429071
 20
36.4290962677
 10
1.2857142735
 20
36.2148117828
 10
1.1428571477
 20
35.9290961151
  0
LINE
  5
25F
100
AcDbEntity
  8
0
100
AcDbLine
 62
253
  6
CONTINUOUS
 10
10.4516663102
 20
22.0253306103
 11
10.5380919586
 21
22.1117562587
  0
LINE
  5
260
100
AcDbEntity
  8
0
100
AcDbLine
 62
253
  6
CONTINUOUS
 10
10.5380919586
 20
-22.1117562587
 11
10.4516663102
 21
-22.0253306103
  0
LINE
  5
261
100
AcDbEntity
  8
0
100
AcDbLine
 62
253
  6
CONTINUOUS
 10
10.9509810776
 20
21.5260158429
 11
11.037406726
 21
21.6124414913
  0
LINE
  5
262
100
AcDbEntity
  8
0
100
AcDbLine
 62
253
  6
CONTINUOUS
 10
11.037406726
 20
-21.6124414913
 11
10.9509810776
 21
-21.5260158429
  0
LWPOLYLINE
  5
263
100
AcDbEntity
  8
0
100
AcDbPolyline
 62
7
  6
CONTINUOUS
 90
16
 70
0
 10
-4.519427
 20
-0.2
 10
-4.5170489238
 20
-0.2424646321
 10
-4.5105475898
 20
-0.2835920529
 10
-4.4999229831
 20
-0.3233822691
 10
-4.48500025
 20
-0.3622156221
 10
-4.465954185
 20
-0.3997117826
 10
-4.4433092362
 20
-0.4347297492
 10
-4.4168689684
 20
-0.4672616358
 10
-4.3868297193
 20
-0.4973153335
 10
-4.3543051109
 20
-0.5237735012
 10
-4.3192870727
 20
-0.5464407819
 10
-4.2817835877
 20
-0.5655125274
 10
-4.2429323954
 20
-0.5804574558
 10
-4.2031127354
 20
-0.5910984685
 10
-4.1619453226
 20
-0.5976126521
 10
-4.1194301312
 20
-0.6
  0
LINE
  5
264
100
AcDbEntity
  8
0
100
AcDbLine
 62
7
  6
CONTINUOUS
 10
-4.519427
 20
-0.2
 11
-4.5183035081
 21
-0.2299197483
  0
LINE
  5
265
100
AcDbEntity
  8
0
100
AcDbLine
 62
7
  6
CONTINUOUS
 10
-5.119427
 20
-0.2
 11
-5.119427
 21
0.2
  0
LINE
  5
266
100
AcDbEntity
  8
0
100
AcDbLine
 62
7
  6
CONTINUOUS
 10
-4.519427
 20
0.2
 11
-4.519427
 21
-0.2
  0
LWPOLYLINE
  5
267
100
AcDbEntity
  8
0
100
AcDbPolyline
 62
7
  6
CONTINUOUS
 90
25
 70
0
 10
-5.119427
 20
0.2
 10
-5.117281766
 20
0.2654192006
 10
-5.110864547
 20
0.3305579483
 10
-5.100203075
 20
0.3951365953
 10
-5.0853336297
 20
0.4588788827
 10
-5.0663288555
 20
0.5215131811
 10
-5.0432719535
 20
0.5827669031
 10
-5.0162535746
 20
0.6423756
 10
-4.9853972795
 20
0.7000895791
 10
-4.9508372454
 20
0.755659071
 10
-4.912714118
 20
0.8088426033
 10
-4.8711980496
 20
0.8594195435
 10
-4.8264683919
 20
0.9071721644
 10
-4.7787109162
 20
0.9518900103
 10
-4.7281355111
 20
0.9933901223
 10
-4.674957551
 20
1.0314961253
 10
-4.6194002086
 20
1.0660372161
 10
-4.5617055824
 20
1.0968742312
 10
-4.5021164831
 20
1.1238770262
 10
-4.4408833241
 20
1.1469210825
 10
-4.3782724896
 20
1.1659154596
 10
-4.3145500677
 20
1.1807787663
 10
-4.2499856209
 20
1.19143757
 10
-4.1848569894
 20
1.1978541337
 10
-4.1194426634
 20
1.1999999999
  0
LWPOLYLINE
  5
268
100
AcDbEntity
  8
0
100
AcDbPolyline
 62
7
  6
CONTINUOUS
 90
19
 70
0
 10
-5.119427
 20
0.2
 10
-5.1154255899
 20
0.2880155593
 10
-5.1041086951
 20
0.3741309574
 10
-5.0854762635
 20
0.4583462211
 10
-5.0592824098
 20
0.5412828904
 10
-5.0257728116
 20
0.6223194747
 10
-4.9856847262
 20
0.6995914472
 10
-4.9388609318
 20
0.7730095989
 10
-4.8854583015
 20
0.8426631658
 10
-4.8266852557
 20
0.9069552742
 10
-4.7624129145
 20
0.9657589038
 10
-4.6927697791
 20
1.0192010723
 10
-4.6193504268
 20
1.0660659469
 10
-4.5420668362
 20
1.106196363
 10
-4.4610067361
 20
1.139749455
 10
-4.3780284736
 20
1.1659808263
 10
-4.293751493
 20
1.1846423278
 10
-4.2075562431
 20
1.1959820608
 10
-4.1194426634
 20
1.1999999999
  0
LWPOLYLINE
  5
269
100
AcDbEntity
  8
0
100
AcDbPolyline
 62
7
  6
CONTINUOUS
 90
3
 70
0
 10
-4.5149672957
 20
0.2595376834
 10
-4.5183084102
 20
0.2298512596
 10
-4.519427
 20
0.2
  0
LINE
  5
26A
100
AcDbEntity
  8
0
100
AcDbLine
 62
7
  6
CONTINUOUS
 10
-4.5094256429
 20
0.2888879233
 11
-4.5149672957
 21
0.2595376834
  0
LWPOLYLINE
  5
26B
100
AcDbEntity
  8
0
100
AcDbPolyline
 62
7
  6
CONTINUOUS
 90
7
 70
0
 10
-4.5016319064
 20
-0.3179823003
 10
-4.4917411278
 20
-0.3462282753
 10
-4.4797628874
 20
-0.3736607688
 10
-4.4657524151
 20
-0.400137785
 10
-4.4497946395
 20
-0.4255076075
 10
-4.4319941377
 20
-0.4496032431
 10
-4.4124571476
 20
-0.4722749963
  0
LWPOLYLINE
  5
26C
100
AcDbEntity
  8
0
100
AcDbPolyline
 62
7
  6
CONTINUOUS
 90
3
 70
0
 10
-4.5183035081
 20
-0.2299197483
 10
-4.5149478107
 20
-0.2596696501
 10
-4.5093821601
 20
-0.2890783957
  0
LINE
  5
26D
100
AcDbEntity
  8
0
100
AcDbLine
 62
7
  6
CONTINUOUS
 10
-3.7302413669
 20
-0.8682857341
 11
-3.729427
 21
-0.89
  0
LINE
  5
26E
100
AcDbEntity
  8
0
100
AcDbLine
 62
7
  6
CONTINUOUS
 10
-3.0286125943
 20
-0.9317149108
 11
-3.029427
 21
-0.91
  0
LINE
  5
26F
100
AcDbEntity
  8
0
100
AcDbLine
 62
7
  6
CONTINUOUS
 10
-1.9302414433
 20
-0.8682845089
 11
-1.929427
 21
-0.89
  0
LINE
  5
270
100
AcDbEntity
  8
0
100
AcDbLine
 62
7
  6
CONTINUOUS
 10
-3.729427
 20
-0.89
 11
-3.729427
 21
-0.91
  0
LINE
  5
271
100
AcDbEntity
  8
0
100
AcDbLine
 62
7
  6
CONTINUOUS
 10
-3.029427
 20
-0.91
 11
-3.029427
 21
-0.89
  0
LINE
  5
272
100
AcDbEntity
  8
0
100
AcDbLine
 62
7
  6
CONTINUOUS
 10
-1.929427
 20
-0.89
 11
-1.929427
 21
-0.91
  0
LWPOLYLINE
  5
273
100
AcDbEntity
  8
0
100
AcDbPolyline
 62
7
  6
CONTINUOUS
 90
3
 70
0
 10
-3.729427
 20
-0.91
 10
-3.730239194
 20
-0.931648981
 10
-3.7326639617
 20
-0.9531692614
  0
LINE
  5
274
100
AcDbEntity
  8
0
100
AcDbLine
 62
7
  6
CONTINUOUS
 10
-3.029427
 20
-0.89
 11
-3.0286148481
 21
-0.8683515753
  0
LWPOLYLINE
  5
275
100
AcDbEntity
  8
0
100
AcDbPolyline
 62
7
  6
CONTINUOUS
 90
3
 70
0
 10
-1.929427
 20
-0.91
 10
-1.9302390566
 20
-0.9316471553
 10
-1.9326633857
 20
-0.9531654263
  0
LWPOLYLINE
  5
276
100
AcDbEntity
  8
0
100
AcDbPolyline
 62
7
  6
CONTINUOUS
 90
16
 70
0
 10
-3.7300724791
 20
-0.9290972474
 10
-3.731931287
 20
-0.9479538149
 10
-3.7350034227
 20
-0.966569702
 10
-3.7393111778
 20
-0.985021904
 10
-3.7448322564
 20
-1.0032334239
 10
-3.7514997755
 20
-1.020973272
 10
-3.7593321619
 20
-1.0382386622
 10
-3.7683109811
 20
-1.0550323794
 10
-3.7783140569
 20
-1.0711317906
 10
-3.7893503475
 20
-1.0865228654
 10
-3.8014108845
 20
-1.1012196336
 10
-3.8143466035
 20
-1.1150415526
 10
-3.828168476
 20
-1.1279786306
 10
-3.842865519
 20
-1.1400408595
 10
-3.8582557375
 20
-1.151077673
 10
-3.8743518623
 20
-1.1610774168
  0
LWPOLYLINE
  5
277
100
AcDbEntity
  8
0
100
AcDbPolyline
 62
7
  6
CONTINUOUS
 90
16
 70
0
 10
-3.0287816727
 20
-0.8709045915
 10
-3.0269231996
 20
-0.8520497081
 10
-3.0238515798
 20
-0.8334353493
 10
-3.0195445606
 20
-0.8149845593
 10
-3.0140243912
 20
-0.7967742929
 10
-3.0073578239
 20
-0.7790354149
 10
-2.9995264513
 20
-0.7617706902
 10
-2.9905486744
 20
-0.7449773531
 10
-2.9805464576
 20
-0.728877974
 10
-2.9695108035
 20
-0.7134865104
 10
-2.9574507015
 20
-0.6987890043
 10
-2.9445150969
 20
-0.6849661531
 10
-2.9306929248
 20
-0.6720279081
 10
-2.9159952417
 20
-0.6599643181
 10
-2.9006041761
 20
-0.6489262267
 10
-2.8845069135
 20
-0.6389253296
  0
LWPOLYLINE
  5
278
100
AcDbEntity
  8
0
100
AcDbPolyline
 62
7
  6
CONTINUOUS
 90
16
 70
0
 10
-1.9300722491
 20
-0.929094676
 10
-1.9319305975
 20
-0.9479489268
 10
-1.9350020446
 20
-0.9665627521
 10
-1.9393088057
 20
-0.9850130848
 10
-1.9448286634
 20
-1.0032229913
 10
-1.9514949677
 20
-1.0209616706
 10
-1.9593261158
 20
-1.038226385
 10
-1.9683037063
 20
-1.0550198719
 10
-1.9783058912
 20
-1.0711195436
 10
-1.9893416849
 20
-1.0865114755
 10
-2.0014020674
 20
-1.1012095921
 10
-2.0143381391
 20
-1.115033081
 10
-2.0281610184
 20
-1.1279720078
 10
-2.0428595808
 20
-1.140036307
 10
-2.0582515625
 20
-1.1510749693
 10
-2.0743498133
 20
-1.1610762605
  0
LINE
  5
279
100
AcDbEntity
  8
0
100
AcDbLine
 62
7
  6
CONTINUOUS
 10
-3.0286148481
 20
-0.8683515753
 11
-3.0261902579
 21
-0.8468322001
  0
LWPOLYLINE
  5
27A
100
AcDbEntity
  8
0
100
AcDbPolyline
 62
7
  6
CONTINUOUS
 90
13
 70
0
 10
-3.7326639617
 20
-0.9531692614
 10
-3.736683665
 20
-0.9744495537
 10
-3.742276051
 20
-0.995364572
 10
-3.7494225972
 20
-1.0158191443
 10
-3.7580985388
 20
-1.0357283447
 10
-3.7682610226
 20
-1.0549633454
 10
-3.7798226078
 20
-1.073367334
 10
-3.7926882093
 20
-1.0908039866
 10
-3.8067899653
 20
-1.1071938726
 10
-3.8220664194
 20
-1.1224849795
 10
-3.8384493089
 20
-1.1366044913
 10
-3.8558814191
 20
-1.1494764264
 10
-3.8742801694
 20
-1.1610337151
  0
LWPOLYLINE
  5
27B
100
AcDbEntity
  8
0
100
AcDbPolyline
 62
7
  6
CONTINUOUS
 90
13
 70
0
 10
-3.0261902579
 20
-0.8468322001
 10
-3.0221709436
 20
-0.8255531273
 10
-3.0165792962
 20
-0.8046398085
 10
-3.0094338709
 20
-0.7841871499
 10
-3.0007592008
 20
-0.7642794251
 10
-2.990597985
 20
-0.7450453363
 10
-2.9790376613
 20
-0.726641876
 10
-2.9661732091
 20
-0.7092053057
 10
-2.9520724309
 20
-0.6928151688
 10
-2.936796686
 20
-0.6775234998
 10
-2.9204141224
 20
-0.6634030582
 10
-2.9029817956
 20
-0.6505298174
 10
-2.8845823348
 20
-0.6389711081
  0
LWPOLYLINE
  5
27C
100
AcDbEntity
  8
0
100
AcDbPolyline
 62
7
  6
CONTINUOUS
 90
7
 70
0
 10
-4.4127715506
 20
0.4719366939
 10
-4.432278315
 20
0.449246995
 10
-4.4500372523
 20
0.4251485741
 10
-4.4659473989
 20
0.3997959281
 10
-4.4799159294
 20
0.3733427717
 10
-4.4918554632
 20
0.3459406241
 10
-4.5017081176
 20
0.3177388199
  0
LWPOLYLINE
  5
27D
100
AcDbEntity
  8
0
100
AcDbPolyline
 62
7
  6
CONTINUOUS
 90
11
 70
0
 10
0.0076362341
 20
2.4026814047
 10
0.0582723515
 20
2.4375134414
 10
0.1120688311
 20
2.4708985786
 10
0.1685615572
 20
2.50218433
 10
0.227289311
 20
2.5309657303
 10
0.2877596232
 20
2.5569424925
 10
0.3497980698
 20
2.5799823155
 10
0.4130477699
 20
2.5998793735
 10
0.4767329701
 20
2.6163818537
 10
0.5405209322
 20
2.6295030656
 10
0.6044605555
 20
2.6393508033
  0
LWPOLYLINE
  5
27E
100
AcDbEntity
  8
0
100
AcDbPolyline
 62
7
  6
CONTINUOUS
 90
6
 70
0
 10
0.0503147412
 20
2.432258293
 10
0.0951599579
 20
2.4607106789
 10
0.1419548268
 20
2.4878956858
 10
0.1903856749
 20
2.5133067072
 10
0.2406239815
 20
2.5369389513
 10
0.2924982534
 20
2.5587972089
  0
LWPOLYLINE
  5
27F
100
AcDbEntity
  8
0
100
AcDbPolyline
 62
7
  6
CONTINUOUS
 90
7
 70
0
 10
-4.2373659785
 20
0.5822183758
 10
-4.2656013246
 20
0.5723354103
 10
-4.293024787
 20
0.5603662334
 10
-4.3194951176
 20
0.5463656632
 10
-4.3448609736
 20
0.5304179122
 10
-4.3689554636
 20
0.5126268399
 10
-4.391628811
 20
0.4930981248
  0
LWPOLYLINE
  5
280
100
AcDbEntity
  8
0
100
AcDbPolyline
 62
7
  6
CONTINUOUS
 90
7
 70
0
 10
0.3451803586
 20
2.5783892499
 10
0.3986963658
 20
2.5956023308
 10
0.4530201904
 20
2.6105491968
 10
0.5072454734
 20
2.6230758528
 10
0.5610700923
 20
2.6331309692
 10
0.614796158
 20
2.6407658795
 10
0.6684236644
 20
2.6459805854
  0
LWPOLYLINE
  5
281
100
AcDbEntity
  8
0
100
AcDbPolyline
 62
7
  6
CONTINUOUS
 90
3
 70
0
 10
3.3353162315
 20
-2.0425916772
 10
3.3814172418
 20
-2.0342472099
 10
3.426856635
 20
-2.0228401518
  0
LWPOLYLINE
  5
282
100
AcDbEntity
  8
0
100
AcDbPolyline
 62
7
  6
CONTINUOUS
 90
16
 70
0
 10
3.288760171
 20
-2.047836051
 10
3.3547436417
 20
-2.0393164303
 10
3.4185550962
 20
-2.0250991362
 10
3.4801945819
 20
-2.0051841794
 10
3.5401263331
 20
-1.979333209
 10
3.5978862025
 20
-1.9477845926
 10
3.652081701
 20
-1.9112534155
 10
3.7027132683
 20
-1.8695161093
 10
3.7497806215
 20
-1.8227962469
 10
3.7918902474
 20
-1.7724796215
 10
3.8288183662
 20
-1.7185648851
 10
3.8607889392
 20
-1.6610533752
 10
3.8870800908
 20
-1.601334909
 10
3.9074512431
 20
-1.5398727516
 10
3.9221431023
 20
-1.4762036162
 10
3.9311557086
 20
-1.4103274899
  0
LINE
  5
283
100
AcDbEntity
  8
0
100
AcDbLine
 62
7
  6
CONTINUOUS
 10
3.2887601714
 20
-2.0478360563
 11
3.3353162315
 21
-2.0425916772
  0
LINE
  5
284
100
AcDbEntity
  8
0
100
AcDbLine
 62
7
  6
CONTINUOUS
 10
3.3359091755
 20
-2.6459806664
 11
3.039873456
 21
-2.666711602
  0
LINE
  5
285
100
AcDbEntity
  8
0
100
AcDbLine
 62
7
  6
CONTINUOUS
 10
3.0031918128
 20
-2.0678328066
 11
3.288760171
 21
-2.047836051
  0
LWPOLYLINE
  5
286
100
AcDbEntity
  8
0
100
AcDbPolyline
 62
7
  6
CONTINUOUS
 90
3
 70
0
 10
3.0397349897
 20
-2.6667150188
 10
2.7434393165
 20
-2.682265363
 10
2.4470232127
 20
-2.6926315809
  0
LWPOLYLINE
  5
287
100
AcDbEntity
  8
0
100
AcDbPolyline
 62
7
  6
CONTINUOUS
 90
3
 70
0
 10
2.4312981928
 20
-2.0928351289
 10
2.7172355714
 20
-2.0828359771
 10
3.0030565485
 20
-2.0678362687
  0
LWPOLYLINE
  5
288
100
AcDbEntity
  8
0
100
AcDbPolyline
 62
7
  6
CONTINUOUS
 90
3
 70
0
 10
2.4470077397
 20
-2.6926319866
 10
2.1503625628
 20
-2.697815117
 10
1.8536905084
 20
-2.6978126621
  0
LWPOLYLINE
  5
289
100
AcDbEntity
  8
0
100
AcDbPolyline
 62
7
  6
CONTINUOUS
 90
2
 70
0
 43
0.3500000006
 10
23.1053206558
 20
-3.3928568802
 10
21.6053201981
 20
-3.3928568802
  0
LWPOLYLINE
  5
28A
100
AcDbEntity
  8
0
100
AcDbPolyline
 62
7
  6
CONTINUOUS
 90
3
 70
0
 10
1.8589458728
 20
-2.0978328535
 10
2.1451298653
 20
-2.0978351104
 10
2.4312874193
 20
-2.0928354114
  0
LWPOLYLINE
  5
28B
100
AcDbEntity
  8
0
100
AcDbPolyline
 62
7
  6
CONTINUOUS
 90
3
 70
0
 10
1.8536586944
 20
-2.6978099739
 10
1.5570629749
 20
-2.6926250822
 10
1.260701676
 20
-2.6822589351
  0
LWPOLYLINE
  5
28C
100
AcDbEntity
  8
0
100
AcDbPolyline
 62
7
  6
CONTINUOUS
 90
3
 70
0
 10
1.2869126019
 20
-2.082829763
 10
1.5727972111
 20
-2.0928288722
 10
1.85890846
 20
-2.0978301728
  0
LINE
  5
28D
100
AcDbEntity
  8
0
100
AcDbLine
 62
7
  6
CONTINUOUS
 10
1.2605951338
 20
-2.6822546009
 11
0.9643475728
 21
-2.6667046807
  0
LINE
  5
28E
100
AcDbEntity
  8
0
100
AcDbLine
 62
7
  6
CONTINUOUS
 10
1.0010383824
 20
-2.0678264482
 11
1.2868154385
 21
-2.0828258187
  0
LINE
  5
28F
100
AcDbEntity
  8
0
100
AcDbLine
 62
7
  6
CONTINUOUS
 10
0.9644882401
 20
-2.6667107702
 11
0.668423746
 21
-2.6459805814
  0
LINE
  5
290
100
AcDbEntity
  8
0
100
AcDbLine
 62
7
  6
CONTINUOUS
 10
0.7155727951
 20
-2.0478359245
 11
1.001170807
 21
-2.0678321158
  0
LWPOLYLINE
  5
291
100
AcDbEntity
  8
0
100
AcDbPolyline
 62
7
  6
CONTINUOUS
 90
7
 70
0
 10
0.668423746
 20
-2.6459805814
 10
0.6148743315
 20
-2.6407770492
 10
0.5612287868
 20
-2.6331601411
 10
0.5074871177
 20
-2.6231298556
 10
0.4533496582
 20
-2.6106345704
 10
0.399116086
 20
-2.595725904
 10
0.3456854256
 20
-2.5785587169
  0
LINE
  5
292
100
AcDbEntity
  8
0
100
AcDbLine
 62
7
  6
CONTINUOUS
 10
0.6684237501
 20
-2.6459805287
 11
0.6059358659
 21
-2.6395079136
  0
LWPOLYLINE
  5
293
100
AcDbEntity
  8
0
100
AcDbPolyline
 62
7
  6
CONTINUOUS
 90
26
 70
0
 10
0.6045783322
 20
-2.6393672977
 10
0.5407599153
 20
-2.6295494815
 10
0.4770914404
 20
-2.6164689032
 10
0.4135318898
 20
-2.6000189173
 10
0.3503949582
 20
-2.5801815733
 10
0.2884236474
 20
-2.5571982358
 10
0.2279775861
 20
-2.5312724246
 10
0.1692586314
 20
-2.5025441785
 10
0.1127717003
 20
-2.4713155788
 10
0.0589761287
 20
-2.4379850302
 10
0.0074922146
 20
-2.4025016994
 10
-0.0424474117
 20
-2.364398634
 10
-0.0903887239
 20
-2.3240389822
 10
-0.1366586373
 20
-2.2811294738
 10
-0.1828598292
 20
-2.2337892672
 10
-0.2293856299
 20
-2.1807629135
 10
-0.2750291967
 20
-2.1224601952
 10
-0.3187607474
 20
-2.0594032498
 10
-0.3600302556
 20
-1.9916083927
 10
-0.3982122671
 20
-1.9191555516
 10
-0.4322448837
 20
-1.8431265513
 10
-0.4617198541
 20
-1.7639048504
 10
-0.4862720838
 20
-1.6820506817
 10
-0.505327575
 20
-1.5992121752
 10
-0.5187736157
 20
-1.516245619
 10
-0.5267779925
 20
-1.4330855246
  0
LWPOLYLINE
  5
294
100
AcDbEntity
  8
0
100
AcDbPolyline
 62
7
  6
CONTINUOUS
 90
3
 70
0
 10
0.6172350947
 20
-2.0329957535
 10
0.6661374634
 20
-2.042162532
 10
0.7155727951
 20
-2.0478359245
  0
LWPOLYLINE
  5
295
100
AcDbEntity
  8
0
100
AcDbPolyline
 62
7
  6
CONTINUOUS
 90
6
 70
0
 10
0.2930830548
 20
-2.559021651
 10
0.2412836118
 20
-2.5372260628
 10
0.1911100158
 20
-2.5136608873
 10
0.1427318631
 20
-2.4883231917
 10
0.0959795713
 20
-2.4612159097
 10
0.0511672908
 20
-2.4328367789
  0
LWPOLYLINE
  5
296
100
AcDbEntity
  8
0
100
AcDbPolyline
 62
7
  6
CONTINUOUS
 90
5
 70
0
 10
0.0085129566
 20
-2.4033271319
 10
-0.0322013582
 20
-2.3725456382
 10
-0.0713152974
 20
-2.3405660406
 10
-0.1088597046
 20
-2.307471249
 10
-0.1448037327
 20
-2.2731783542
  0
LWPOLYLINE
  5
297
100
AcDbEntity
  8
0
100
AcDbPolyline
 62
7
  6
CONTINUOUS
 90
7
 70
0
 10
-4.3912891626
 20
-0.4934136145
 10
-4.3685954455
 20
-0.5129138787
 10
-4.344495866
 20
-0.5306645631
 10
-4.3191448737
 20
-0.5465654156
 10
-4.2926966145
 20
-0.5605240998
 10
-4.2653022414
 20
-0.5724541595
 10
-4.2371104246
 20
-0.582298263
  0
LWPOLYLINE
  5
298
100
AcDbEntity
  8
0
100
AcDbPolyline
 62
7
  6
CONTINUOUS
 90
7
 70
0
 10
-3.768352114
 20
-0.7449204209
 10
-3.7582312158
 20
-0.7640630125
 10
-3.7495190116
 20
-0.7839757701
 10
-3.7423322559
 20
-0.8044443493
 10
-3.7367113685
 20
-0.8253878739
 10
-3.7326744694
 20
-0.8467108049
 10
-3.7302413669
 20
-0.8682857341
  0
LWPOLYLINE
  5
299
100
AcDbEntity
  8
0
100
AcDbPolyline
 62
7
  6
CONTINUOUS
 90
7
 70
0
 10
-2.9905028172
 20
-1.0550779711
 10
-3.0006251415
 20
-1.0359319607
 10
-3.0093362584
 20
-1.0160209332
 10
-3.0165221908
 20
-0.9955542413
 10
-3.0221426594
 20
-0.9746121215
 10
-3.0261794593
 20
-0.9532898248
 10
-3.0286125943
 20
-0.9317149108
  0
LWPOLYLINE
  5
29A
100
AcDbEntity
  8
0
100
AcDbPolyline
 62
7
  6
CONTINUOUS
 90
7
 70
0
 10
-1.9683518626
 20
-0.7449208555
 10
-1.9582278652
 20
-0.7640701865
 10
-1.9495172564
 20
-0.7839803407
 10
-1.9423317329
 20
-0.8044459819
 10
-1.9367114426
 20
-0.8253873592
 10
-1.9326746383
 20
-0.8467094303
 10
-1.9302414433
 20
-0.8682845089
  0
LWPOLYLINE
  5
29B
100
AcDbEntity
  8
0
100
AcDbPolyline
 62
7
  6
CONTINUOUS
 90
7
 70
0
 10
-2.9994798378
 20
-1.0382836085
 10
-3.007314935
 20
-1.0210171256
 10
-3.0139948472
 20
-1.00327633
 10
-3.0195328421
 20
-0.985063413
 10
-3.0238526776
 20
-0.9666065086
 10
-3.0269289408
 20
-0.9479816612
 10
-3.028787048
 20
-0.9291128252
  0
LWPOLYLINE
  5
29C
100
AcDbEntity
  8
0
100
AcDbPolyline
 62
7
  6
CONTINUOUS
 90
7
 70
0
 10
-1.9593750822
 20
-0.7617145197
 10
-1.9515401002
 20
-0.7789804397
 10
-1.9448601277
 20
-0.7967207771
 10
-1.9393219577
 20
-0.8149333695
 10
-1.9350019255
 20
-0.8333903729
 10
-1.9319254769
 20
-0.8520158388
 10
-1.9300671682
 20
-0.8708857147
  0
LWPOLYLINE
  5
29D
100
AcDbEntity
  8
0
100
AcDbPolyline
 62
7
  6
CONTINUOUS
 90
7
 70
0
 10
-3.7593740606
 20
-0.7617166596
 10
-3.7515382475
 20
-0.7789847466
 10
-3.7448580581
 20
-0.7967269013
 10
-3.7393201169
 20
-0.814940903
 10
-3.7350004373
 20
-0.8333980815
 10
-3.7319243587
 20
-0.8520222128
 10
-3.7300665459
 20
-0.8708895193
  0
LWPOLYLINE
  5
29E
100
AcDbEntity
  8
0
100
AcDbPolyline
 62
7
  6
CONTINUOUS
 90
19
 70
0
 10
0.0723427387
 20
-1.3996954808
 10
0.0776325328
 20
-1.4491370967
 10
0.086413291
 20
-1.4980726273
 10
0.0986482434
 20
-1.5462536321
 10
0.1142702809
 20
-1.5934453061
 10
0.1332049911
 20
-1.6394166449
 10
0.1553650277
 20
-1.683932595
 10
0.1806254111
 20
-1.7267676229
 10
0.2088583974
 20
-1.7677041082
 10
0.2399260194
 20
-1.8065217439
 10
0.2736635879
 20
-1.8430303343
 10
0.3099071128
 20
-1.8770549653
 10
0.3484841814
 20
-1.908422525
 10
0.3891935292
 20
-1.9369792747
 10
0.4318286955
 20
-1.9625784004
 10
0.4761784343
 20
-1.9850810903
 10
0.5220162823
 20
-2.0043818428
 10
0.5691129456
 20
-2.0203833579
 10
0.6172350947
 20
-2.0329957535
  0
LINE
  5
29F
100
AcDbEntity
  8
0
100
AcDbLine
 62
7
  6
CONTINUOUS
 10
-0.5296149228
 20
-1.2081709195
 11
-0.529427
 21
-1.2099843817
  0
LWPOLYLINE
  5
2A0
100
AcDbEntity
  8
0
100
AcDbPolyline
 62
7
  6
CONTINUOUS
 90
3
 70
0
 10
0.0671328345
 20
-0.9479738847
 10
0.0696699517
 20
-0.9738115513
 10
0.070573
 20
-1.0
  0
LWPOLYLINE
  5
2A1
100
AcDbEntity
  8
0
100
AcDbPolyline
 62
7
  6
CONTINUOUS
 90
4
 70
0
 10
-0.529427
 20
-1.2099843817
 10
-0.5295784976
 20
-1.2082487372
 10
-0.5300287314
 20
-1.2065669006
 10
-0.5307636283
 20
-1.2049901951
  0
LINE
  5
2A2
100
AcDbEntity
  8
0
100
AcDbLine
 62
7
  6
CONTINUOUS
 10
0.0681548652
 20
-0.9562688838
 11
0.070573
 21
-1.0
  0
LWPOLYLINE
  5
2A3
100
AcDbEntity
  8
0
100
AcDbPolyline
 62
7
  6
CONTINUOUS
 90
19
 70
0
 10
0.070573
 20
-1.35
 10
0.0730840105
 20
-1.4084705538
 10
0.0802377221
 20
-1.4658045624
 10
0.0920341345
 20
-1.5220020256
 10
0.1086127104
 20
-1.5774394406
 10
0.1298339852
 20
-1.6317403088
 10
0.1552795672
 20
-1.6837751373
 10
0.1850438399
 20
-1.7334989805
 10
0.2190324134
 20
-1.7809567848
 10
0.2565437342
 20
-1.8251538998
 10
0.2976538034
 20
-1.8660156899
 10
0.3422866058
 20
-1.9036167931
 10
0.389512563
 20
-1.937186472
 10
0.4393881801
 20
-1.9666369777
 10
0.4918569302
 20
-1.9920560629
 10
0.5458196896
 20
-2.012936246
 10
0.600910077
 20
-2.0291083689
 10
0.6574944502
 20
-2.0407415946
 10
0.7155727951
 20
-2.0478359245
  0
LINE
  5
2A4
100
AcDbEntity
  8
0
100
AcDbLine
 62
7
  6
CONTINUOUS
 10
-1.2286125371
 20
-0.9317158092
 11
-1.229427
 21
-0.91
  0
LINE
  5
2A5
100
AcDbEntity
  8
0
100
AcDbLine
 62
7
  6
CONTINUOUS
 10
0.070573
 20
-1.35
 11
0.0723427387
 21
-1.3996954808
  0
LINE
  5
2A6
100
AcDbEntity
  8
0
100
AcDbLine
 62
7
  6
CONTINUOUS
 10
-0.5267779925
 20
-1.4330855246
 11
-0.529427
 21
-1.35
  0
LINE
  5
2A7
100
AcDbEntity
  8
0
100
AcDbLine
 62
7
  6
CONTINUOUS
 10
-1.229427
 20
-0.91
 11
-1.229427
 21
-0.89
  0
LINE
  5
2A8
100
AcDbEntity
  8
0
100
AcDbLine
 62
7
  6
CONTINUOUS
 10
-0.529427
 20
-1.35
 11
-0.529427
 21
-1.2099843817
  0
LINE
  5
2A9
100
AcDbEntity
  8
0
100
AcDbLine
 62
7
  6
CONTINUOUS
 10
-0.529427
 20
1.2099943284
 11
-0.529427
 21
1.3499999987
  0
LINE
  5
2AA
100
AcDbEntity
  8
0
100
AcDbLine
 62
7
  6
CONTINUOUS
 10
0.070573
 20
1.3500000009
 11
0.070573
 21
1.0
  0
LINE
  5
2AB
100
AcDbEntity
  8
0
100
AcDbLine
 62
7
  6
CONTINUOUS
 10
0.070573
 20
-1.0
 11
0.070573
 21
-1.35
  0
LWPOLYLINE
  5
2AC
100
AcDbEntity
  8
0
100
AcDbPolyline
 62
7
  6
CONTINUOUS
 90
19
 70
0
 10
-0.529427
 20
1.3499999987
 10
-0.5284210111
 20
1.4045382556
 10
-0.5249407036
 20
1.4593974568
 10
-0.5189860769
 20
1.5145776012
 10
-0.510528654
 20
1.5704053793
 10
-0.4995969096
 20
1.6265540979
 10
-0.4862762705
 20
1.6820436825
 10
-0.4704465652
 20
1.736851075
 10
-0.4522279613
 20
1.7909993335
 10
-0.4320663938
 20
1.8435775601
 10
-0.409933102
 20
1.894396319
 10
-0.3858568431
 20
1.9436450489
 10
-0.3603698299
 20
1.9909811663
 10
-0.3335999311
 20
2.0361980271
 10
-0.3054192762
 20
2.0795022792
 10
-0.2759764711
 20
2.1211712767
 10
-0.2453544734
 20
2.1612084421
 10
-0.213470325
 20
2.1996103552
 10
-0.1802237585
 20
2.2366441061
  0
LWPOLYLINE
  5
2AD
100
AcDbEntity
  8
0
100
AcDbPolyline
 62
7
  6
CONTINUOUS
 90
17
 70
0
 10
-0.5294270633
 20
1.3499999987
 10
-0.5268143493
 20
1.4325058566
 10
-0.518906658
 20
1.5151989058
 10
-0.505599213
 20
1.5978138291
 10
-0.48670379
 20
1.680424345
 10
-0.462307569
 20
1.7621711782
 10
-0.4329620528
 20
1.8413867116
 10
-0.3990171053
 20
1.9174915448
 10
-0.360871348
 20
1.9900963207
 10
-0.3195940711
 20
2.0580972397
 10
-0.2758122879
 20
2.1213943782
 10
-0.2301076503
 20
2.1799073249
 10
-0.183546027
 20
2.2330686696
 10
-0.1373445559
 20
2.2804749736
 10
-0.09108558
 20
2.3234251887
 10
-0.0431478512
 20
2.3638290524
 10
0.0067921391
 20
2.4019812355
  0
LWPOLYLINE
  5
2AE
100
AcDbEntity
  8
0
100
AcDbPolyline
 62
7
  6
CONTINUOUS
 90
6
 70
0
 10
0.070573
 20
1.0
 10
0.0696760786
 20
0.9737400671
 10
0.0671217343
 20
0.947809761
 10
0.0629099673
 20
0.922209082
 10
0.0570131801
 20
0.8968318525
 10
0.0494589699
 20
0.8717842504
  0
LWPOLYLINE
  5
2AF
100
AcDbEntity
  8
0
100
AcDbPolyline
 62
7
  6
CONTINUOUS
 90
3
 70
0
 10
-1.229427
 20
-0.89
 10
-1.2286149656
 20
-0.8683531382
 10
-1.2261907274
 20
-0.8468353264
  0
LWPOLYLINE
  5
2B0
100
AcDbEntity
  8
0
100
AcDbPolyline
 62
7
  6
CONTINUOUS
 90
15
 70
0
 10
0.070573
 20
1.0
 10
0.0684353992
 20
0.9588680356
 10
0.0620892483
 20
0.9181747159
 10
0.0516393569
 20
0.8783977288
 10
0.0371900742
 20
0.8399844411
 10
0.0188497992
 20
0.8032447354
 10
-0.0032511527
 20
0.7684627943
 10
-0.0290471731
 20
0.7358445549
 10
-0.058389312
 20
0.705801129
 10
-0.0909363189
 20
0.6788727686
 10
-0.1264127375
 20
0.6553968058
 10
-0.164385169
 20
0.6356795353
 10
-0.2041887807
 20
0.6201108984
 10
-0.2452511318
 20
0.6089499216
 10
-0.2871460617
 20
0.6022402399
  0
LINE
  5
2B1
100
AcDbEntity
  8
0
100
AcDbLine
 62
7
  6
CONTINUOUS
 10
-0.5295784986
 20
1.208258678
 11
-0.529427
 21
1.2099943284
  0
LWPOLYLINE
  5
2B2
100
AcDbEntity
  8
0
100
AcDbPolyline
 62
7
  6
CONTINUOUS
 90
16
 70
0
 10
-1.2287818305
 20
-0.8709062606
 10
-1.2269236515
 20
-0.8520528617
 10
-1.2238524625
 20
-0.8334398031
 10
-1.2195460686
 20
-0.8149901702
 10
-1.2140266635
 20
-0.7967808773
 10
-1.2073608297
 20
-0.7790426677
 10
-1.199530178
 20
-0.7617782682
 10
-1.1905530952
 20
-0.7449849519
 10
-1.1805513281
 20
-0.728885282
 10
-1.1695158424
 20
-0.7134931497
 10
-1.1574556693
 20
-0.698794664
 10
-1.1445196535
 20
-0.6849707144
 10
-1.1306966313
 20
-0.6720312167
 10
-1.1159977634
 20
-0.6599662554
 10
-1.1006053812
 20
-0.6489269733
 10
-1.084506595
 20
-0.6389251253
  0
LWPOLYLINE
  5
2B3
100
AcDbEntity
  8
0
100
AcDbPolyline
 62
7
  6
CONTINUOUS
 90
7
 70
0
 10
-0.529427
 20
1.2099943284
 10
-0.5296149148
 20
1.2081808849
 10
-0.5300603428
 20
1.2065163199
 10
-0.5307632842
 20
1.2050006334
 10
-0.5317599252
 20
1.2035976231
 10
-0.5330140795
 20
1.2023434913
 10
-0.5344171877
 20
1.2013468452
  0
LWPOLYLINE
  5
2B4
100
AcDbEntity
  8
0
100
AcDbPolyline
 62
7
  6
CONTINUOUS
 90
3
 70
0
 10
0.0776234282
 20
1.4490797408
 10
0.0723408504
 20
1.3996765914
 10
0.0705729496
 20
1.3500000009
  0
LWPOLYLINE
  5
2B5
100
AcDbEntity
  8
0
100
AcDbPolyline
 62
7
  6
CONTINUOUS
 90
13
 70
0
 10
-1.9326633857
 20
-0.9531654263
 10
-1.9366823094
 20
-0.9744435835
 10
-1.9422734604
 20
-0.9953561488
 10
-1.9494183322
 20
-1.0158082682
 10
-1.9580924963
 20
-1.0357157907
 10
-1.9682533306
 20
-1.054950007
 10
-1.979813426
 20
-1.0733538406
 10
-1.9926778163
 20
-1.0907909726
 10
-2.0067787593
 20
-1.1071818109
 10
-2.0220549336
 20
-1.1224742737
 10
-2.0384380912
 20
-1.1365955006
 10
-2.0558711491
 20
-1.1494694924
 10
-2.0742714656
 20
-1.1610288444
  0
LWPOLYLINE
  5
2B6
100
AcDbEntity
  8
0
100
AcDbPolyline
 62
7
  6
CONTINUOUS
 90
13
 70
0
 10
-1.2261907274
 20
-0.8468353264
 10
-1.2221719995
 20
-0.825557777
 10
-1.2165812156
 20
-0.8046460494
 10
-1.2094368971
 20
-0.7841948672
 10
-1.2007633578
 20
-0.7642880619
 10
-1.1906031407
 20
-0.7450542778
 10
-1.1790436538
 20
-0.7266506842
 10
-1.1661798174
 20
-0.7092135796
 10
-1.1520793468
 20
-0.6928226112
 10
-1.1368035153
 20
-0.6775298694
 10
-1.1204205201
 20
-0.6634081906
 10
-1.1029873672
 20
-0.6505335688
 10
-1.0845867215
 20
-0.6389735324
  0
LWPOLYLINE
  5
2B7
100
AcDbEntity
  8
0
100
AcDbPolyline
 62
7
  6
CONTINUOUS
 90
8
 70
0
 10
0.0403301289
 20
0.8473848083
 10
0.0295991513
 20
0.8236423652
 10
0.0172935429
 20
0.8005480826
 10
0.0035786128
 20
0.778393977
 10
-0.0115577698
 20
0.7571909186
 10
-0.0281034737
 20
0.7369280377
 10
-0.0458567975
 20
0.7178647416
 10
-0.0648295426
 20
0.7000221223
  0
LINE
  5
2B8
100
AcDbEntity
  8
0
100
AcDbLine
 62
7
  6
CONTINUOUS
 10
-0.5317614906
 20
1.2035746372
 11
-0.5307638907
 21
1.2049995823
  0
LWPOLYLINE
  5
2B9
100
AcDbEntity
  8
0
100
AcDbPolyline
 62
7
  6
CONTINUOUS
 90
4
 70
0
 10
-0.1456646047
 20
2.2723391362
 10
-0.1097430339
 20
2.306666005
 10
-0.0722092881
 20
2.3398034788
 10
-0.0330926127
 20
2.3718371396
  0
LWPOLYLINE
  5
2BA
100
AcDbEntity
  8
0
100
AcDbPolyline
 62
7
  6
CONTINUOUS
 90
11
 70
0
 10
-0.0850099066
 20
0.6833790883
 10
-0.1061607827
 20
0.6681317716
 10
-0.1282950347
 20
0.6542896518
 10
-0.1513997974
 20
0.6418432497
 10
-0.1751993692
 20
0.630960259
 10
-0.1996985006
 20
0.6216532202
 10
-0.2248924394
 20
0.613909593
 10
-0.25049123
 20
0.6078594502
 10
-0.27639822
 20
0.6035461492
 10
-0.30271006
 20
0.6009263325
 10
-0.3294267486
 20
0.6
  0
LINE
  5
2BB
100
AcDbEntity
  8
0
100
AcDbLine
 62
7
  6
CONTINUOUS
 10
-0.5344163402
 20
1.2013473343
 11
-0.532991289
 21
1.2023449071
  0
LWPOLYLINE
  5
2BC
100
AcDbEntity
  8
0
100
AcDbPolyline
 62
7
  6
CONTINUOUS
 90
7
 70
0
 10
-2.8845069135
 20
-0.6389253296
 10
-2.8653514974
 20
-0.6287984725
 10
-2.8454437179
 20
-0.62008918
 10
-2.8249806438
 20
-0.6129045922
 10
-2.8040410015
 20
-0.6072846661
 10
-2.7827192784
 20
-0.6032478096
 10
-2.7611432986
 20
-0.6008144669
  0
LWPOLYLINE
  5
2BD
100
AcDbEntity
  8
0
100
AcDbPolyline
 62
7
  6
CONTINUOUS
 90
7
 70
0
 10
-2.0743498133
 20
-1.1610762605
 10
-2.0935030981
 20
-1.1712018822
 10
-2.1134116808
 20
-1.1799114028
 10
-2.1338755832
 20
-1.1870960851
 10
-2.1548157109
 20
-1.1927159163
 10
-2.1761373696
 20
-1.1967525529
 10
-2.1977127795
 20
-1.1991856732
  0
LWPOLYLINE
  5
2BE
100
AcDbEntity
  8
0
100
AcDbPolyline
 62
7
  6
CONTINUOUS
 90
7
 70
0
 10
-1.084506595
 20
-0.6389251253
 10
-1.0653547023
 20
-0.6287999098
 10
-1.0454456811
 20
-0.6200899009
 10
-1.0249812295
 20
-0.6129047923
 10
-1.0040406043
 20
-0.6072846393
 10
-0.9827186153
 20
-0.6032477737
 10
-0.961143056
 20
-0.6008144767
  0
LWPOLYLINE
  5
2BF
100
AcDbEntity
  8
0
100
AcDbPolyline
 62
7
  6
CONTINUOUS
 90
7
 70
0
 10
-3.8743518623
 20
-1.1610774168
 10
-3.8935101589
 20
-1.1712051332
 10
-3.9134169642
 20
-1.1799134087
 10
-3.9338788109
 20
-1.1870971108
 10
-3.9548172969
 20
-1.1927163724
 10
-3.9761381725
 20
-1.1967527687
 10
-3.9977136485
 20
-1.19918578
  0
LINE
  5
2C0
100
AcDbEntity
  8
0
100
AcDbLine
 62
7
  6
CONTINUOUS
 10
-0.5359937416
 20
1.2006121753
 11
-0.5344168028
 21
1.2013471186
  0
LWPOLYLINE
  5
2C1
100
AcDbEntity
  8
0
100
AcDbPolyline
 62
7
  6
CONTINUOUS
 90
7
 70
0
 10
-2.8677162608
 20
-0.6299499318
 10
-2.8504527805
 20
-0.6221157915
 10
-2.8327143641
 20
-0.6154358992
 10
-2.8145031147
 20
-0.6098972655
 10
-2.7960459147
 20
-0.6055766793
 10
-2.7774183913
 20
-0.6024997373
 10
-2.7585449151
 20
-0.600640844
  0
LWPOLYLINE
  5
2C2
100
AcDbEntity
  8
0
100
AcDbPolyline
 62
7
  6
CONTINUOUS
 90
7
 70
0
 10
-3.8911411517
 20
-1.170051746
 10
-3.9084034044
 20
-1.1778850591
 10
-3.9261406667
 20
-1.1845644688
 10
-3.944350884
 20
-1.1901028639
 10
-3.9628077065
 20
-1.1944233074
 10
-3.9814356839
 20
-1.1975001544
 10
-4.000310262
 20
-1.1993590517
  0
LWPOLYLINE
  5
2C3
100
AcDbEntity
  8
0
100
AcDbPolyline
 62
7
  6
CONTINUOUS
 90
7
 70
0
 10
-1.067714292
 20
-0.6299489567
 10
-1.0504494705
 20
-0.6221143467
 10
-1.0327099861
 20
-0.61543441
 10
-1.0144979815
 20
-0.6098960323
 10
-0.9960408859
 20
-0.6055757487
 10
-0.977414509
 20
-0.6024990711
 10
-0.9585430407
 20
-0.6006404881
  0
LWPOLYLINE
  5
2C4
100
AcDbEntity
  8
0
100
AcDbPolyline
 62
7
  6
CONTINUOUS
 90
7
 70
0
 10
-2.0911414775
 20
-1.1700519153
 10
-2.1084057351
 20
-1.1778861272
 10
-2.1261447021
 20
-1.1845658319
 10
-2.1443562577
 20
-1.1901040946
 10
-2.1628132288
 20
-1.1944243034
 10
-2.1814398903
 20
-1.1975009216
 10
-2.2003119644
 20
-1.199359487
  0
LWPOLYLINE
  5
2C5
100
AcDbEntity
  8
0
100
AcDbPolyline
 62
7
  6
CONTINUOUS
 90
7
 70
0
 10
2.4218351287
 20
0.6120972832
 10
2.4730335337
 20
0.628047456
 10
2.525537179
 20
0.6397112467
 10
2.5786120281
 20
0.6469858027
 10
2.6315395159
 20
0.6499126523
 10
2.6840126978
 20
0.6485727329
 10
2.7360220649
 20
0.6430005536
  0
LINE
  5
2C6
100
AcDbEntity
  8
0
100
AcDbLine
 62
7
  6
CONTINUOUS
 10
-2.1977127795
 20
-1.1991856732
 11
-2.2194294498
 21
-1.2
  0
LINE
  5
2C7
100
AcDbEntity
  8
0
100
AcDbLine
 62
7
  6
CONTINUOUS
 10
-0.961143056
 20
-0.6008144767
 11
-0.9394264805
 21
-0.6
  0
LINE
  5
2C8
100
AcDbEntity
  8
0
100
AcDbLine
 62
7
  6
CONTINUOUS
 10
-2.7611432986
 20
-0.6008144669
 11
-2.7394254847
 21
-0.6
  0
LINE
  5
2C9
100
AcDbEntity
  8
0
100
AcDbLine
 62
7
  6
CONTINUOUS
 10
-3.9977136485
 20
-1.19918578
 11
-4.0194314384
 21
-1.2
  0
LINE
  5
2CA
100
AcDbEntity
  8
0
100
AcDbLine
 62
7
  6
CONTINUOUS
 10
-4.0194314398
 20
-1.2000007713
 11
-4.119442662
 21
-1.1999992189
  0
LINE
  5
2CB
100
AcDbEntity
  8
0
100
AcDbLine
 62
7
  6
CONTINUOUS
 10
-2.2194294521
 20
-1.2000023436
 11
-2.7394300075
 21
-1.1999974272
  0
LINE
  5
2CC
100
AcDbEntity
  8
0
100
AcDbLine
 62
7
  6
CONTINUOUS
 10
-0.5394116764
 20
-1.2000004825
 11
-0.939428032
 21
-1.1999993548
  0
LWPOLYLINE
  5
2CD
100
AcDbEntity
  8
0
100
AcDbPolyline
 62
7
  6
CONTINUOUS
 90
2
 70
0
 43
0.3500000006
 10
23.1053206558
 20
-1.0357139511
 10
21.6053201981
 20
-1.0357139511
  0
LINE
  5
2CE
100
AcDbEntity
  8
0
100
AcDbLine
 62
7
  6
CONTINUOUS
 10
-4.1194301319
 20
-0.5999996087
 11
-4.0194247852
 21
-0.6000003865
  0
LINE
  5
2CF
100
AcDbEntity
  8
0
100
AcDbLine
 62
7
  6
CONTINUOUS
 10
-2.7394254863
 20
-0.5999987108
 11
-2.2194257767
 21
-0.6000011743
  0
LINE
  5
2D0
100
AcDbEntity
  8
0
100
AcDbLine
 62
7
  6
CONTINUOUS
 10
-0.9394264807
 20
-0.5999995513
 11
-0.3294267578
 21
-0.6000002907
  0
LINE
  5
2D1
100
AcDbEntity
  8
0
100
AcDbLine
 62
7
  6
CONTINUOUS
 10
-4.1194426635
 20
-1.1999999999
 11
-4.1848661315
 21
-1.1978535246
  0
LWPOLYLINE
  5
2D2
100
AcDbEntity
  8
0
100
AcDbPolyline
 62
7
  6
CONTINUOUS
 90
4
 70
0
 10
-0.3294267578
 20
-0.6000002907
 10
-0.3024378544
 20
-0.6009550121
 10
-0.275899845
 20
-0.6036171204
 10
-0.2498127307
 20
-0.6079866159
  0
LWPOLYLINE
  5
2D3
100
AcDbEntity
  8
0
100
AcDbPolyline
 62
7
  6
CONTINUOUS
 90
15
 70
0
 10
-2.7394300107
 20
-1.2
 10
-2.7610728361
 20
-1.199188059
 10
-2.7825869157
 20
-1.1967644771
 10
-2.8038612202
 20
-1.1927468461
 10
-2.8247703014
 20
-1.1871574928
 10
-2.8452196069
 20
-1.1800147959
 10
-2.86512543
 20
-1.1713428548
 10
-2.8843590027
 20
-1.1611840572
 10
-2.9027630327
 20
-1.1496256948
 10
-2.920201162
 20
-1.1367626026
 10
-2.9365936452
 20
-1.1226623243
 10
-2.9518882377
 20
-1.1073860557
 10
-2.9660118389
 20
-1.0910022174
 10
-2.9788883612
 20
-1.0735678811
 10
-2.9904501524
 20
-1.0551656579
  0
LWPOLYLINE
  5
2D4
100
AcDbEntity
  8
0
100
AcDbPolyline
 62
7
  6
CONTINUOUS
 90
15
 70
0
 10
-0.939428032
 20
-1.1999993548
 10
-0.961073189
 20
-1.1991880156
 10
-0.9825895812
 20
-1.1967640421
 10
-1.0038660302
 20
-1.1927457244
 10
-1.0247770261
 20
-1.1871554202
 10
-1.0452278277
 20
-1.1800115824
 10
-1.0651345173
 20
-1.1713384849
 10
-1.0843683985
 20
-1.1611786356
 10
-1.1027722956
 20
-1.1496193908
 10
-1.1202098583
 20
-1.1367556611
 10
-1.1366014226
 20
-1.1226551013
 10
-1.1518948372
 20
-1.1073789749
 10
-1.1660171347
 20
-1.0909956081
 10
-1.1788922802
 20
-1.0735620765
 10
-1.1904527598
 20
-1.0551610038
  0
LWPOLYLINE
  5
2D5
100
AcDbEntity
  8
0
100
AcDbPolyline
 62
7
  6
CONTINUOUS
 90
15
 70
0
 10
-4.0194247852
 20
-0.6000003865
 10
-3.9977847809
 20
-0.600811653
 10
-3.9762734062
 20
-0.6032345382
 10
-3.9550015379
 20
-0.6072511341
 10
-3.9340945633
 20
-0.6128391607
 10
-3.9136468414
 20
-0.6199803338
 10
-3.8937418436
 20
-0.6286507621
 10
-3.8745083602
 20
-0.6388082322
 10
-3.856103836
 20
-0.6503655441
 10
-3.8386647362
 20
-0.663227905
 10
-3.8222709282
 20
-0.6773278622
 10
-3.8069747386
 20
-0.6926043047
 10
-3.7928494154
 20
-0.7089887199
 10
-3.7799710891
 20
-0.7264240754
 10
-3.7684075764
 20
-0.744827759
  0
LWPOLYLINE
  5
2D6
100
AcDbEntity
  8
0
100
AcDbPolyline
 62
7
  6
CONTINUOUS
 90
15
 70
0
 10
-2.2194257767
 20
-0.6000011743
 10
-2.1977808504
 20
-0.6008119741
 10
-2.1762649095
 20
-0.6032358695
 10
-2.1549890716
 20
-0.6072540135
 10
-2.1340788804
 20
-0.6128439919
 10
-2.1136289175
 20
-0.6199873447
 10
-2.0937227988
 20
-0.6286599203
 10
-2.074489162
 20
-0.63881931
 10
-2.0560853027
 20
-0.6503781604
 10
-2.038647607
 20
-0.6632415727
 10
-2.0222558027
 20
-0.6773419034
 10
-2.006962032
 20
-0.6926179459
 10
-1.9928392432
 20
-0.7090014233
 10
-1.9799634508
 20
-0.7264353621
 10
-1.9684023097
 20
-0.7448370875
  0
LWPOLYLINE
  5
2D7
100
AcDbEntity
  8
0
100
AcDbPolyline
 62
7
  6
CONTINUOUS
 90
15
 70
0
 10
-0.3294267579
 20
-0.6
 10
-0.2935713103
 20
-0.6016281798
 10
-0.2567738153
 20
-0.6066436669
 10
-0.2197755431
 20
-0.6153060764
 10
-0.1823305751
 20
-0.6280442025
 10
-0.1448704267
 20
-0.6451213611
 10
-0.1085697532
 20
-0.6665055989
 10
-0.0741679177
 20
-0.6920253825
 10
-0.0423424527
 20
-0.7214650186
 10
-0.0137269025
 20
-0.7543805534
 10
0.0113611669
 20
-0.7905348578
 10
0.0325045665
 20
-0.8296275282
 10
0.0490850519
 20
-0.8706453963
 10
0.0609597829
 20
-0.9129525822
 10
0.0681548652
 20
-0.9562688838
  0
LWPOLYLINE
  5
2D8
100
AcDbEntity
  8
0
100
AcDbPolyline
 62
7
  6
CONTINUOUS
 90
19
 70
0
 10
-4.119442662
 20
-1.1999992189
 10
-4.2075572743
 20
-1.1959816029
 10
-4.2937535894
 20
-1.1846418562
 10
-4.3780316678
 20
-1.1659800042
 10
-4.4610111418
 20
-1.1397478817
 10
-4.542072486
 20
-1.1061937016
 10
-4.6193571099
 20
-1.0660620519
 10
-4.692777258
 20
-1.0191957659
 10
-4.7624209784
 20
-0.9657520405
 10
-4.82669353
 20
-0.9069469963
 10
-4.8854663132
 20
-0.8426535618
 10
-4.9388683061
 20
-0.7729988111
 10
-4.9856912201
 20
-0.6995800671
 10
-5.0257780907
 20
-0.6223081836
 10
-5.059286231
 20
-0.5412722798
 10
-5.0854787874
 20
-0.4583370619
 10
-5.1041102171
 20
-0.3741240804
 10
-5.1154262705
 20
-0.2880117353
 10
-5.119427
 20
-0.2
  0
LINE
  5
2D9
100
AcDbEntity
  8
0
100
AcDbLine
 62
7
  6
CONTINUOUS
 10
-0.537675766
 20
-1.2001519834
 11
-0.5394116763
 21
-1.2000004825
  0
LWPOLYLINE
  5
2DA
100
AcDbEntity
  8
0
100
AcDbPolyline
 62
7
  6
CONTINUOUS
 90
24
 70
0
 10
-4.1848661315
 20
-1.1978535246
 10
-4.2500052643
 20
-1.191434968
 10
-4.3145813508
 20
-1.1807725421
 10
-4.3783169962
 20
-1.1659035626
 10
-4.4409418472
 20
-1.1469012549
 10
-4.5021878127
 20
-1.1238474767
 10
-4.5617885002
 20
-1.0968332894
 10
-4.6194931723
 20
-1.0659835087
 10
-4.6750568874
 20
-1.0314297493
 10
-4.7282370886
 20
-0.993312175
 10
-4.7788112809
 20
-0.9518019953
 10
-4.8265640184
 20
-0.9070765427
 10
-4.8712854801
 20
-0.8593198706
 10
-4.9127909152
 20
-0.8087425761
 10
-4.9509022916
 20
-0.7555617331
 10
-4.9854496615
 20
-0.6999987343
 10
-5.0162932055
 20
-0.6422950968
 10
-5.0433003481
 20
-0.5826983625
 10
-5.066347702
 20
-0.5214579084
 10
-5.0853446489
 20
-0.4588380511
 10
-5.1002085481
 20
-0.3951090848
 10
-5.1108666761
 20
-0.3305414969
 10
-5.117282222
 20
-0.2654119255
 10
-5.119427
 20
-0.2
  0
LWPOLYLINE
  5
2DB
100
AcDbEntity
  8
0
100
AcDbPolyline
 62
7
  6
CONTINUOUS
 90
16
 70
0
 10
-2.7585216182
 20
-1.199354848
 10
-2.7773730907
 20
-1.1974968619
 10
-2.7959844294
 20
-1.1944260423
 10
-2.8144325
 20
-1.1901202582
 10
-2.8326404391
 20
-1.1846016417
 10
-2.8503776559
 20
-1.1779365876
 10
-2.8676414718
 20
-1.1701067389
 10
-2.8844345707
 20
-1.1611304534
 10
-2.9005344089
 20
-1.1511291982
 10
-2.9159271853
 20
-1.1400938915
 10
-2.9306267085
 20
-1.1280336152
 10
-2.9444518513
 20
-1.1150970823
 10
-2.9573927504
 20
-1.1012730038
 10
-2.9694592775
 20
-1.0865726684
 10
-2.9804999082
 20
-1.0711786553
 10
-2.9905028172
 20
-1.0550779711
  0
LWPOLYLINE
  5
2DC
100
AcDbEntity
  8
0
100
AcDbPolyline
 62
7
  6
CONTINUOUS
 90
16
 70
0
 10
-0.9585212181
 20
-1.1993544581
 10
-0.977374125
 20
-1.1974965226
 10
-0.9959867531
 20
-1.1944255484
 10
-1.0144360058
 20
-1.1901193369
 10
-1.03264498
 20
-1.1846000869
 10
-1.0503829668
 20
-1.1779343955
 10
-1.0676472547
 20
-1.1701039014
 10
-1.0844405569
 20
-1.161126966
 10
-1.1005403017
 20
-1.1511252704
 10
-1.1159326192
 20
-1.1400897682
 10
-1.1306313821
 20
-1.128029506
 10
-1.1444556335
 20
-1.1150933044
 10
-1.1573954684
 20
-1.101269969
 10
-1.1694607948
 20
-1.0865706941
 10
-1.1805003765
 20
-1.0711778843
 10
-1.1905024392
 20
-1.0550786256
  0
LWPOLYLINE
  5
2DD
100
AcDbEntity
  8
0
100
AcDbPolyline
 62
7
  6
CONTINUOUS
 90
16
 70
0
 10
-4.0003356121
 20
-0.6006450528
 10
-3.981486252
 20
-0.6025024263
 10
-3.9628767074
 20
-0.6055725081
 10
-3.9444301554
 20
-0.6098773752
 10
-3.9262234234
 20
-0.6153949521
 10
-3.908486991
 20
-0.6220590102
 10
-3.8912234996
 20
-0.62988788
 10
-3.8744303163
 20
-0.6388632321
 10
-3.8583300134
 20
-0.648863848
 10
-3.8429363371
 20
-0.6598988627
 10
-3.828235552
 20
-0.6719591417
 10
-3.8144090108
 20
-0.6848960614
 10
-3.801466563
 20
-0.6987210077
 10
-3.7893983704
 20
-0.7134225946
 10
-3.7783562556
 20
-0.7288180404
 10
-3.768352114
 20
-0.7449204209
  0
LWPOLYLINE
  5
2DE
100
AcDbEntity
  8
0
100
AcDbPolyline
 62
7
  6
CONTINUOUS
 90
16
 70
0
 10
-2.2003337948
 20
-0.6006457192
 10
-2.1814819332
 20
-0.6025032784
 10
-2.1628701934
 20
-0.6055738523
 10
-2.1444216911
 20
-0.6098796259
 10
-2.1262133134
 20
-0.615398415
 10
-2.1084757195
 20
-0.6220636664
 10
-2.0912116024
 20
-0.6298937175
 10
-2.0744182739
 20
-0.6388702314
 10
-2.0583183238
 20
-0.6488716433
 10
-2.0429255968
 20
-0.6599070257
 10
-2.0282262541
 20
-0.6719673063
 10
-2.0144013616
 20
-0.6849037029
 10
-2.0014608197
 20
-0.698727455
 10
-1.989394734
 20
-0.7134273228
 10
-1.9783544793
 20
-0.7288208056
 10
-1.9683518626
 20
-0.7449208555
  0
LWPOLYLINE
  5
2DF
100
AcDbEntity
  8
0
100
AcDbPolyline
 62
7
  6
CONTINUOUS
 90
7
 70
0
 10
-0.5394116764
 20
-1.2000004825
 10
-0.5375979116
 20
-1.2001884607
 10
-0.5359330947
 20
-1.2006339255
 10
-0.5344172257
 20
-1.2013368766
 10
-0.5330141164
 20
-1.2023335148
 10
-0.531759955
 20
-1.2035876395
 10
-0.5307633061
 20
-1.2049906486
  0
LWPOLYLINE
  5
2E0
100
AcDbEntity
  8
0
100
AcDbPolyline
 62
7
  6
CONTINUOUS
 90
3
 70
0
 10
-4.1789358391
 20
-0.5955446068
 10
-4.1492649144
 20
-0.5988823974
 10
-4.1194301312
 20
-0.6
  0
LINE
  5
2E1
100
AcDbEntity
  8
0
100
AcDbLine
 62
7
  6
CONTINUOUS
 10
-4.2082718415
 20
-0.5900084584
 11
-4.1789358391
 21
-0.5955446068
  0
LWPOLYLINE
  5
2E2
100
AcDbEntity
  8
0
100
AcDbPolyline
 62
7
  6
CONTINUOUS
 90
3
 70
0
 10
-0.2240984432
 20
-0.6141031766
 10
-0.198835053
 20
-0.6219271246
 10
-0.1742567691
 20
-0.6313394251
  0
LWPOLYLINE
  5
2E3
100
AcDbEntity
  8
0
100
AcDbPolyline
 62
7
  6
CONTINUOUS
 90
15
 70
0
 10
-0.1503271249
 20
-0.6423712403
 10
-0.1270825889
 20
-0.654991408
 10
-0.1048667729
 20
-0.6689874074
 10
-0.0837274394
 20
-0.6843590078
 10
-0.0636168273
 20
-0.7011064396
 10
-0.044735262
 20
-0.7190178749
 10
-0.0270865631
 20
-0.7381106985
 10
-0.0106669117
 20
-0.7583675252
 10
0.0043348246
 20
-0.7795243716
 10
0.0179012323
 20
-0.8015803131
 10
0.0300497247
 20
-0.824536274
 10
0.0406436752
 20
-0.8481310443
 10
0.0496640505
 20
-0.8723735628
 10
0.057129884
 20
-0.8972548904
 10
0.0629616483
 20
-0.9224870006
  0
LINE
  5
2E4
100
AcDbEntity
  8
0
100
AcDbLine
 62
7
  6
CONTINUOUS
 10
-0.5329912671
 20
-1.2023349787
 11
-0.5344163146
 21
-1.2013374023
  0
LWPOLYLINE
  5
2E5
100
AcDbEntity
  8
0
100
AcDbPolyline
 62
7
  6
CONTINUOUS
 90
19
 70
0
 10
-0.1793944897
 20
-2.2375123695
 10
-0.212682957
 20
-2.2005048548
 10
-0.244618152
 20
-2.1621242494
 10
-0.2752942376
 20
-2.1221008847
 10
-0.3047925669
 20
-2.0804406685
 10
-0.333031787
 20
-2.0371376907
 10
-0.3598620021
 20
-1.9919045552
 10
-0.385411607
 20
-1.944528562
 10
-0.4095522085
 20
-1.8952224073
 10
-0.4317487297
 20
-1.8443367899
 10
-0.451973734
 20
-1.7916827287
 10
-0.4702546617
 20
-1.7374492021
 10
-0.4861387521
 20
-1.6825538496
 10
-0.499503875
 20
-1.6269736149
 10
-0.5104721645
 20
-1.5707315544
 10
-0.5189572572
 20
-1.5148144801
 10
-0.5249303659
 20
-1.4595513308
 10
-0.52842028
 20
-1.4046131705
 10
-0.529427
 20
-1.35
  0
LINE
  5
2E6
100
AcDbEntity
  8
0
100
AcDbLine
 62
7
  6
CONTINUOUS
 10
-0.5307638824
 20
-1.20498965
 11
-0.531761476
 21
-1.203564708
  0
LWPOLYLINE
  5
2E7
100
AcDbEntity
  8
RACCORDO
100
AcDbPolyline
 62
253
  6
CONTINUOUS
 90
16
 70
0
 10
10.9509810776
 20
-21.5260158429
 10
10.9483836508
 20
-21.5216510913
 10
10.9458301647
 20
-21.5139400941
 10
10.9433206194
 20
-21.5028828515
 10
10.9408418341
 20
-21.4883894243
 10
10.9384069896
 20
-21.4705497515
 10
10.9360556279
 20
-21.4496336506
 10
10.9337901701
 20
-21.4255962085
 10
10.9316081951
 20
-21.3984823382
 10
10.9295419823
 20
-21.3686965963
 10
10.9275932826
 20
-21.3361975891
 10
10.925760345
 20
-21.3010267103
 10
10.9240701962
 20
-21.263712697
 10
10.922525131
 20
-21.2242264943
 10
10.9211228547
 20
-21.1825971571
 10
10.9198835093
 20
-21.1394405875
  0
LWPOLYLINE
  5
2E8
100
AcDbEntity
  8
0
100
AcDbPolyline
 62
7
  6
CONTINUOUS
 90
7
 70
0
 10
-1.1905024392
 20
-1.0550786256
 10
-1.2006267194
 20
-1.0359285387
 10
-1.2093370086
 20
-1.0160189539
 10
-1.2165223141
 20
-0.9955538821
 10
-1.2221425099
 20
-0.9746129011
 10
-1.226179312
 20
-0.9532909694
 10
-1.2286125371
 20
-0.9317158092
  0
LWPOLYLINE
  5
2E9
100
AcDbEntity
  8
0
100
AcDbPolyline
 62
7
  6
CONTINUOUS
 90
7
 70
0
 10
-1.1994787603
 20
-1.0382858315
 10
-1.2073134302
 20
-1.0210206475
 10
-1.2139932956
 20
-1.0032809229
 10
-1.2195315124
 20
-0.9850688078
 10
-1.2238516351
 20
-0.9666118986
 10
-1.2269281826
 20
-0.9479860605
 10
-1.2287866374
 20
-0.9291154277
  0
LWPOLYLINE
  5
2EA
100
AcDbEntity
  8
0
100
AcDbPolyline
 62
7
  6
CONTINUOUS
 90
8
 70
0
 10
1.9905485635
 20
-0.0
 10
1.9925802691
 20
0.0511619878
 10
1.9986911284
 20
0.1026457159
 10
2.0090139237
 20
0.1538745972
 10
2.0238779621
 20
0.2054195119
 10
2.0433176885
 20
0.256547514
 10
2.0669483529
 20
0.3057431656
 10
2.0942021396
 20
0.3521526763
  0
LWPOLYLINE
  5
2EB
100
AcDbEntity
  8
0
100
AcDbPolyline
 62
7
  6
CONTINUOUS
 90
34
 70
0
 10
1.9905485635
 20
-0.0
 10
1.9934269417
 20
0.0613047829
 10
2.0019074009
 20
0.1213193263
 10
2.0159899291
 20
0.1800436226
 10
2.0359398796
 20
0.2381252651
 10
2.0614918502
 20
0.2949166457
 10
2.0918496893
 20
0.3484749579
 10
2.1269878616
 20
0.3984668987
 10
2.1669318179
 20
0.445225764
 10
2.2109618878
 20
0.4878086505
 10
2.2594454877
 20
0.5263129354
 10
2.3120150862
 20
0.5606412411
 10
2.3668486153
 20
0.5895585384
 10
2.4237053758
 20
0.6127670315
 10
2.482825981
 20
0.6305645276
 10
2.5431103738
 20
0.6426094076
 10
2.6049329812
 20
0.6488098495
 10
2.6679193079
 20
0.6492576915
 10
2.7298459754
 20
0.6438868083
 10
2.7903418929
 20
0.6325552897
 10
2.8497781813
 20
0.6154050644
 10
2.9070448486
 20
0.5927957655
 10
2.9623803457
 20
0.5644907631
 10
3.0155462916
 20
0.5307267015
 10
3.0647175061
 20
0.4925731213
 10
3.1095830568
 20
0.4500310989
 10
3.1504540134
 20
0.4030995615
 10
3.1864382433
 20
0.3528448192
 10
3.2175122199
 20
0.2990171725
 10
3.243699596
 20
0.2418663141
 10
3.2641790181
 20
0.1832076365
 10
3.2786767323
 20
0.1236462638
 10
3.287466574
 20
0.0625770547
 10
3.2905485635
 20
-0.0
  0
LWPOLYLINE
  5
2EC
100
AcDbEntity
  8
0
100
AcDbPolyline
 62
7
  6
CONTINUOUS
 90
7
 70
0
 10
2.1248929094
 20
0.3957277973
 10
2.159017224
 20
0.4366040083
 10
2.1964378825
 20
0.4746229711
 10
2.236834556
 20
0.5094284838
 10
2.2798538519
 20
0.5407425148
 10
2.3251201599
 20
0.5683348848
 10
2.3724751152
 20
0.5921378056
  0
LWPOLYLINE
  5
2ED
100
AcDbEntity
  8
0
100
AcDbPolyline
 62
7
  6
CONTINUOUS
 90
3
 70
0
 10
-0.5359330634
 20
1.2006438874
 10
-0.5375978929
 20
1.2001984154
 10
-0.5394116763
 20
1.2000104292
  0
LWPOLYLINE
  5
2EE
100
AcDbEntity
  8
0
100
AcDbPolyline
 62
7
  6
CONTINUOUS
 90
19
 70
0
 10
0.666141581
 20
2.0421632525
 10
0.6172372663
 20
2.0329963835
 10
0.5691072317
 20
2.0203816933
 10
0.5219961184
 20
2.0043740166
 10
0.4761391029
 20
1.9850626165
 10
0.4317693558
 20
1.9625456401
 10
0.3891152628
 20
1.9369291735
 10
0.3483868796
 20
1.9083500454
 10
0.3097898785
 20
1.8769525455
 10
0.2735255889
 20
1.8428891347
 10
0.2397697773
 20
1.8063373929
 10
0.2086906257
 20
1.7674784638
 10
0.180441643
 20
1.7264848283
 10
0.155172462
 20
1.6835837201
 10
0.1330358665
 20
1.6390440672
 10
0.1141568037
 20
1.5931328303
 10
0.0985905322
 20
1.5460495005
 10
0.0863890545
 20
1.4979608033
 10
0.0776234282
 20
1.4490797408
  0
LWPOLYLINE
  5
2EF
100
AcDbEntity
  8
0
100
AcDbPolyline
 62
7
  6
CONTINUOUS
 90
19
 70
0
 10
0.7155727488
 20
2.0478359659
 10
0.657469539
 20
2.0407346126
 10
0.6008672497
 20
2.0290952733
 10
0.545765895
 20
2.0129179467
 10
0.4918008373
 20
1.9920332496
 10
0.4393367377
 20
1.9666105604
 10
0.3894675604
 20
1.9371580207
 10
0.3422486228
 20
1.9035871524
 10
0.2976246291
 20
1.86598643
 10
0.256523626
 20
1.8251294263
 10
0.2190222139
 20
1.7809453499
 10
0.1850438064
 20
1.7335049898
 10
0.1552866691
 20
1.6837942937
 10
0.1298433463
 20
1.6317650582
 10
0.1086213001
 20
1.5774654859
 10
0.0920411724
 20
1.5220261371
 10
0.0802431777
 20
1.4658238666
 10
0.0730871033
 20
1.4084818212
 10
0.0705729496
 20
1.3500000009
  0
LINE
  5
2F0
100
AcDbEntity
  8
0
100
AcDbLine
 62
7
  6
CONTINUOUS
 10
0.7155727484
 20
2.0478359713
 11
0.666141581
 21
2.0421632525
  0
LWPOLYLINE
  5
2F1
100
AcDbEntity
  8
0
100
AcDbPolyline
 62
7
  6
CONTINUOUS
 90
3
 70
0
 10
-4.1493386253
 20
0.5988771036
 10
-4.1790768312
 20
0.5955237685
 10
-4.2084736848
 20
0.5899624026
  0
LINE
  5
2F2
100
AcDbEntity
  8
0
100
AcDbLine
 62
7
  6
CONTINUOUS
 10
-0.5394116763
 20
1.2000104292
 11
-0.5376757804
 21
1.2001619276
  0
LINE
  5
2F3
100
AcDbEntity
  8
0
100
AcDbLine
 62
7
  6
CONTINUOUS
 10
1.0010365726
 20
2.0678263474
 11
0.7155727488
 21
2.0478359659
  0
LWPOLYLINE
  5
2F4
100
AcDbEntity
  8
0
100
AcDbPolyline
 62
7
  6
CONTINUOUS
 90
16
 70
0
 10
-4.1194301527
 20
0.5999888951
 10
-4.1619326119
 20
0.5976078141
 10
-4.2030894877
 20
0.5911003136
 10
-4.2429008057
 20
0.5804663999
 10
-4.2817457459
 20
0.5655296118
 10
-4.3192451738
 20
0.5464664226
 10
-4.3542616656
 20
0.5238062382
 10
-4.386787702
 20
0.4973534116
 10
-4.4168308896
 20
0.4673035949
 10
-4.4432765306
 20
0.4347731382
 10
-4.4659289472
 20
0.3997537651
 10
-4.4849839148
 20
0.3622537471
 10
-4.4999139285
 20
0.3234142506
 10
-4.5105431752
 20
0.2836156599
 10
-4.5170475274
 20
0.2424775786
 10
-4.519427
 20
0.2
  0
LINE
  5
2F5
100
AcDbEntity
  8
0
100
AcDbLine
 62
7
  6
CONTINUOUS
 10
-0.2871460617
 20
0.6022402399
 11
-0.3294267486
 21
0.6
  0
LINE
  5
2F6
100
AcDbEntity
  8
0
100
AcDbLine
 62
7
  6
CONTINUOUS
 10
1.2869128025
 20
2.0828298143
 11
1.0011708354
 21
2.0678321657
  0
LINE
  5
2F7
100
AcDbEntity
  8
0
100
AcDbLine
 62
7
  6
CONTINUOUS
 10
-4.1194301323
 20
0.6
 11
-4.1493386253
 21
0.5988771036
  0
LINE
  5
2F8
100
AcDbEntity
  8
0
100
AcDbLine
 62
7
  6
CONTINUOUS
 10
1.5728038512
 20
2.0928290253
 11
1.28687859
 21
2.0828280186
  0
LINE
  5
2F9
100
AcDbEntity
  8
0
100
AcDbLine
 62
7
  6
CONTINUOUS
 10
1.8589411788
 20
2.0978328626
 11
1.5728100239
 21
2.0928292412
  0
LINE
  5
2FA
100
AcDbEntity
  8
0
100
AcDbLine
 62
7
  6
CONTINUOUS
 10
-0.3294267486
 20
0.6
 11
-4.1194301527
 21
0.5999888951
  0
LINE
  5
2FB
100
AcDbEntity
  8
0
100
AcDbLine
 62
7
  6
CONTINUOUS
 10
-4.1194426634
 20
1.1999999999
 11
-0.5394116763
 21
1.2000104292
  0
LWPOLYLINE
  5
2FC
100
AcDbEntity
  8
0
100
AcDbPolyline
 62
7
  6
CONTINUOUS
 90
3
 70
0
 10
2.4313000589
 20
2.092835113
 10
2.1451621763
 20
2.097832931
 10
1.8589094482
 20
2.0978301813
  0
LINE
  5
2FD
100
AcDbEntity
  8
0
100
AcDbLine
 62
7
  6
CONTINUOUS
 10
2.7173344723
 20
2.0828338786
 11
2.4312915677
 21
2.0928352613
  0
LINE
  5
2FE
100
AcDbEntity
  8
0
100
AcDbLine
 62
7
  6
CONTINUOUS
 10
3.003190354
 20
2.0678329001
 11
2.7173344723
 21
2.0828338786
  0
LINE
  5
2FF
100
AcDbEntity
  8
0
100
AcDbLine
 62
7
  6
CONTINUOUS
 10
3.2887602591
 20
2.0478365471
 11
3.0030575819
 21
2.0678365304
  0
LWPOLYLINE
  5
300
100
AcDbEntity
  8
0
100
AcDbPolyline
 62
7
  6
CONTINUOUS
 90
12
 70
0
 10
2.7876216384
 20
0.6331742941
 10
2.8383567196
 20
0.6191517009
 10
2.8875443336
 20
0.601183892
 10
2.9346657472
 20
0.5796029363
 10
2.9795797325
 20
0.5545851733
 10
3.0221450655
 20
0.5262479305
 10
3.0622790858
 20
0.494664298
 10
3.099823166
 20
0.4599717795
 10
3.1346346461
 20
0.4223160446
 10
3.1664290522
 20
0.3820036616
 10
3.1950036756
 20
0.3392350968
 10
3.2202104786
 20
0.2940572249
  0
LWPOLYLINE
  5
301
100
AcDbEntity
  8
0
100
AcDbPolyline
 62
7
  6
CONTINUOUS
 90
8
 70
0
 10
2.096574622
 20
-0.3557883373
 10
2.0687040995
 20
-0.3090089283
 10
2.0445993036
 20
-0.2594066155
 10
2.0246884466
 20
-0.2077793494
 10
2.0094150698
 20
-0.1554896029
 10
1.9988014074
 20
-0.1033403942
 10
1.9925791746
 20
-0.0514120475
 10
1.9905485635
 20
-0.0
  0
LWPOLYLINE
  5
302
100
AcDbEntity
  8
RACCORDO
100
AcDbPolyline
 62
253
  6
CONTINUOUS
 90
16
 70
0
 10
-10.9509810786
 20
21.5260158439
 10
-10.9483840825
 20
21.521652508
 10
-10.9458309564
 20
21.5139433142
 10
-10.9433217003
 20
21.5028882624
 10
-10.9408431136
 20
21.4883973324
 10
-10.9384083969
 20
21.4705605444
 10
-10.9360571518
 20
21.4496479593
 10
-10.9337918431
 20
21.4256152786
 10
-10.9316100061
 20
21.3985068009
 10
-10.9295438484
 20
21.3687254826
 10
-10.9275950825
 20
21.3362295532
 10
-10.9257619958
 20
21.3010607831
 10
-10.9240716582
 20
21.2637474397
 10
-10.9225263543
 20
21.2242598903
 10
-10.9211237994
 20
21.1826277675
 10
-10.9198842104
 20
21.1394682369
  0
LWPOLYLINE
  5
303
100
AcDbEntity
  8
0
100
AcDbPolyline
 62
7
  6
CONTINUOUS
 90
29
 70
0
 10
3.2905485635
 20
-0.0
 10
3.2882163224
 20
-0.0548397746
 10
3.2811474638
 20
-0.1102513754
 10
3.2690722586
 20
-0.1657106794
 10
3.2515894941
 20
-0.2216154658
 10
3.2286280075
 20
-0.2768792436
 10
3.2004424855
 20
-0.3301806679
 10
3.1673795087
 20
-0.380728725
 10
3.129488496
 20
-0.428290936
 10
3.0869887767
 20
-0.4724320924
 10
3.0400550106
 20
-0.5127342221
 10
2.9890595733
 20
-0.5486735625
 10
2.9347778574
 20
-0.5795894466
 10
2.8775290869
 20
-0.6052557971
 10
2.8180344294
 20
-0.6253043668
 10
2.7579083759
 20
-0.6392864084
 10
2.6982340578
 20
-0.6473791309
 10
2.6394682797
 20
-0.6499849419
 10
2.5823360172
 20
-0.6474260334
 10
2.5273535645
 20
-0.6401164163
 10
2.4744838555
 20
-0.6284438567
 10
2.4233883913
 20
-0.6126123311
 10
2.3744580522
 20
-0.5929780503
 10
2.3278938965
 20
-0.5698373776
 10
2.2832557742
 20
-0.5430223205
 10
2.2405573478
 20
-0.5124105814
 10
2.2002666386
 20
-0.4782084444
 10
2.1626493185
 20
-0.4405639737
 10
2.1279906805
 20
-0.3996925404
  0
LWPOLYLINE
  5
304
100
AcDbEntity
  8
0
100
AcDbPolyline
 62
7
  6
CONTINUOUS
 90
34
 70
0
 10
3.2905485635
 20
-0.0
 10
3.2876706546
 20
-0.0613031598
 10
3.2791905154
 20
-0.1213167403
 10
3.2651081266
 20
-0.1800407507
 10
3.2451579685
 20
-0.2381231002
 10
3.2196054832
 20
-0.2949158963
 10
3.1892470834
 20
-0.348475442
 10
3.1541080985
 20
-0.3984681518
 10
3.1141630782
 20
-0.445227618
 10
3.0701322735
 20
-0.4878109043
 10
3.0216481623
 20
-0.5263153888
 10
2.9690781271
 20
-0.5606436909
 10
2.9142448151
 20
-0.5895607304
 10
2.8573891068
 20
-0.6127684377
 10
2.7982700482
 20
-0.6305648685
 10
2.737987593
 20
-0.642609126
 10
2.6761676201
 20
-0.6488096604
 10
2.6131842163
 20
-0.6492580033
 10
2.5512597159
 20
-0.6438878806
 10
2.4907650026
 20
-0.6325575308
 10
2.4313292576
 20
-0.6154086986
 10
2.3740623248
 20
-0.5928003714
 10
2.3187255205
 20
-0.5644955155
 10
2.2655576124
 20
-0.530731153
 10
2.2163846651
 20
-0.4925773602
 10
2.1715182574
 20
-0.4500353737
 10
2.1306469251
 20
-0.4031039563
 10
2.0946621953
 20
-0.3528494814
 10
2.0635875403
 20
-0.2990226489
 10
2.0373995762
 20
-0.2418727663
 10
2.0169195496
 20
-0.183214124
 10
2.0024212281
 20
-0.1236514913
 10
1.9936308952
 20
-0.0625801141
 10
1.9905485635
 20
-0.0
  0
LWPOLYLINE
  5
305
100
AcDbEntity
  8
0
100
AcDbPolyline
 62
7
  6
CONTINUOUS
 90
3
 70
0
 10
3.9168551866
 20
-1.502897955
 10
3.9255543907
 20
-1.4568520089
 10
3.9311557086
 20
-1.4103274899
  0
LINE
  5
306
100
AcDbEntity
  8
0
100
AcDbLine
 62
7
  6
CONTINUOUS
 10
3.9050973565
 20
-1.5482582513
 11
3.9168551866
 21
-1.502897955
  0
LWPOLYLINE
  5
307
100
AcDbEntity
  8
0
100
AcDbPolyline
 62
7
  6
CONTINUOUS
 90
7
 70
0
 10
3.7431660922
 20
-1.8301065716
 10
3.7741428958
 20
-1.7949567466
 10
3.8026957892
 20
-1.7578099013
 10
3.8287025176
 20
-1.7188363337
 10
3.8520462695
 20
-1.6782107086
 10
3.8726164178
 20
-1.6361108068
 10
3.8903267863
 20
-1.5927281887
  0
LWPOLYLINE
  5
308
100
AcDbEntity
  8
0
100
AcDbPolyline
 62
7
  6
CONTINUOUS
 90
7
 70
0
 10
3.4714299154
 20
-2.0084146647
 10
3.5149397588
 20
-1.9910419679
 10
3.5571903826
 20
-1.9708002642
 10
3.5979895021
 20
-1.9477740001
 10
3.6371585326
 20
-1.9220721139
 10
3.6745222296
 20
-1.8938095598
 10
3.7099093964
 20
-1.8631068473
  0
LINE
  5
309
100
AcDbEntity
  8
0
100
AcDbLine
 62
7
  6
CONTINUOUS
 10
0.6044605555
 20
2.6393508033
 11
0.6684236644
 21
2.6459805854
  0
LINE
  5
30A
100
AcDbEntity
  8
0
100
AcDbLine
 62
7
  6
CONTINUOUS
 10
0.6684236713
 20
2.6459804967
 11
0.9643494919
 21
2.6667047337
  0
LINE
  5
30B
100
AcDbEntity
  8
0
100
AcDbLine
 62
7
  6
CONTINUOUS
 10
0.9644878567
 20
2.6667107403
 11
1.2607010693
 21
2.682258883
  0
LINE
  5
30C
100
AcDbEntity
  8
0
100
AcDbLine
 62
7
  6
CONTINUOUS
 10
1.2605986998
 20
2.6822547039
 11
1.5570701487
 21
2.6926251581
  0
LINE
  5
30D
100
AcDbEntity
  8
0
100
AcDbLine
 62
7
  6
CONTINUOUS
 10
1.5570780777
 20
2.6926254355
 11
1.853695866
 21
2.6978126703
  0
LWPOLYLINE
  5
30E
100
AcDbEntity
  8
0
100
AcDbPolyline
 62
7
  6
CONTINUOUS
 90
3
 70
0
 10
1.8536578745
 20
2.6978099175
 10
2.1503992956
 20
2.6978128417
 10
2.4470224977
 20
2.6926315568
  0
LWPOLYLINE
  5
30F
100
AcDbEntity
  8
0
100
AcDbPolyline
 62
7
  6
CONTINUOUS
 90
3
 70
0
 10
2.4470175218
 20
2.6926316437
 10
2.7435455891
 20
2.6822630051
 10
3.0398754925
 20
2.6667114164
  0
LINE
  5
310
100
AcDbEntity
  8
0
100
AcDbLine
 62
7
  6
CONTINUOUS
 10
3.0397347217
 20
2.666715003
 11
3.3359092524
 21
2.6459805816
  0
LWPOLYLINE
  5
311
100
AcDbEntity
  8
0
100
AcDbPolyline
 62
7
  6
CONTINUOUS
 90
25
 70
0
 10
3.3359092366
 20
2.6459803844
 10
3.411606167
 20
2.6377746969
 10
3.4866921972
 20
2.6251541893
 10
3.5609094915
 20
2.6081624829
 10
3.6340024115
 20
2.586850471
 10
3.7057228697
 20
2.5612985283
 10
3.7758243708
 20
2.531594618
 10
3.8440639238
 20
2.4978336135
 10
3.910211537
 20
2.4601379222
 10
3.97404023
 20
2.4186368908
 10
4.0353272417
 20
2.373466165
 10
4.0938671913
 20
2.3247864631
 10
4.1494591375
 20
2.2727647115
 10
4.2019075273
 20
2.2175732081
 10
4.2510379879
 20
2.159406204
 10
4.2966813809
 20
2.0984636006
 10
4.3386749054
 20
2.034949682
 10
4.3768810422
 20
1.9690858661
 10
4.4111685474
 20
1.9010977552
 10
4.441413002
 20
1.831214161
 10
4.4675171225
 20
1.7596781761
 10
4.4893904811
 20
1.6867368679
 10
4.5069504827
 20
1.6126385451
 10
4.5201443916
 20
1.5376384462
 10
4.5289267646
 20
1.4619940859
  0
LWPOLYLINE
  5
312
100
AcDbEntity
  8
0
100
AcDbPolyline
 62
7
  6
CONTINUOUS
 90
19
 70
0
 10
3.3359092524
 20
2.6459805816
 10
3.4375910168
 20
2.6338143026
 10
3.5368817452
 20
2.614128081
 10
3.6337814997
 20
2.58692194
 10
3.728859242
 20
2.5519424555
 10
3.8215461273
 20
2.5094430898
 10
3.9101355853
 20
2.4601841917
 10
3.9945514287
 20
2.40403601
 10
4.0748701362
 20
2.3411283172
 10
4.1496142696
 20
2.2726107413
 10
4.2186767115
 20
2.1983766143
 10
4.2821649625
 20
2.1185326014
 10
4.3389235952
 20
2.0345483218
 10
4.388824099
 20
1.9463447973
 10
4.4319953595
 20
1.854000978
 10
4.4676680708
 20
1.7592233685
 10
4.4955858926
 20
1.6625807877
 10
4.5160054288
 20
1.5635043694
 10
4.5289267646
 20
1.4619940859
  0
LWPOLYLINE
  5
313
100
AcDbEntity
  8
0
100
AcDbPolyline
 62
7
  6
CONTINUOUS
 90
3
 70
0
 10
3.3814105487
 20
2.0342491898
 10
3.3353130106
 20
2.0425926742
 10
3.2887602591
 20
2.0478365471
  0
LINE
  5
314
100
AcDbEntity
  8
0
100
AcDbLine
 62
7
  6
CONTINUOUS
 10
3.4268467333
 20
2.0228435096
 11
3.3814105487
 21
2.0342491898
  0
LWPOLYLINE
  5
315
100
AcDbEntity
  8
0
100
AcDbPolyline
 62
7
  6
CONTINUOUS
 90
7
 70
0
 10
3.7098947117
 20
1.8631211297
 10
3.6745065605
 20
1.893822898
 10
3.63714248
 20
1.9220840719
 10
3.5979735829
 20
1.947784308
 10
3.5571752448
 20
1.97080871
 10
3.5149258493
 20
1.9910486051
 10
3.4714176153
 20
2.0084196258
  0
LWPOLYLINE
  5
316
100
AcDbEntity
  8
0
100
AcDbPolyline
 62
7
  6
CONTINUOUS
 90
7
 70
0
 10
3.8903251062
 20
1.5927338825
 10
3.8726130828
 20
1.6361192499
 10
3.8520409607
 20
1.6782217674
 10
3.8286951335
 20
1.7188492478
 10
3.8026864024
 20
1.7578238801
 10
3.774131581
 20
1.7949712681
 10
3.7431529446
 20
1.8301212265
  0
LWPOLYLINE
  5
317
100
AcDbEntity
  8
0
100
AcDbPolyline
 62
7
  6
CONTINUOUS
 90
6
 70
0
 10
3.2419094591
 20
0.2465891182
 10
3.2597749568
 20
0.1975428264
 10
3.2734975519
 20
0.1479419376
 10
3.2830731904
 20
0.0983915445
 10
3.2887051208
 20
0.0489936041
 10
3.2905485635
 20
-0.0
  0
LWPOLYLINE
  5
318
100
AcDbEntity
  8
0
100
AcDbPolyline
 62
7
  6
CONTINUOUS
 90
3
 70
0
 10
3.9255547886
 20
1.456853035
 10
3.9168553407
 20
1.5028999011
 10
3.9050968732
 20
1.5482616391
  0
LWPOLYLINE
  5
319
100
AcDbEntity
  8
0
100
AcDbPolyline
 62
7
  6
CONTINUOUS
 90
16
 70
0
 10
3.9311394735
 20
1.4103260941
 10
3.9221331419
 20
1.4762064695
 10
3.9074458142
 20
1.5398787203
 10
3.8870774502
 20
1.6013428596
 10
3.8607866135
 20
1.6610619259
 10
3.8288146124
 20
1.7185729022
 10
3.7918855117
 20
1.7724867163
 10
3.7497761821
 20
1.8228020748
 10
3.7027095717
 20
1.8695202813
 10
3.6520788882
 20
1.9112561539
 10
3.597884489
 20
1.9477863055
 10
3.5401258599
 20
1.9793341184
 10
3.4801949619
 20
2.0051845601
 10
3.418555766
 20
2.0250992806
 10
3.3547442142
 20
2.0393166132
 10
3.2887602591
 20
2.0478365471
  0
LINE
  5
31A
100
AcDbEntity
  8
0
100
AcDbLine
 62
7
  6
CONTINUOUS
 10
3.9311562022
 20
1.4103275407
 11
3.9255547886
 21
1.456853035
  0
LWPOLYLINE
  5
31B
100
AcDbEntity
  8
0
100
AcDbPolyline
 62
7
  6
CONTINUOUS
 90
25
 70
0
 10
4.5289269718
 20
-1.4619941059
 10
4.5201440985
 20
-1.5376421075
 10
4.5069491197
 20
-1.6126464126
 10
4.4893872282
 20
-1.6867498006
 10
4.4675109617
 20
-1.7596971904
 10
4.4414029639
 20
-1.8312397681
 10
4.4111537921
 20
-1.9011297694
 10
4.3768609338
 20
-1.9691234341
 10
4.338649084
 20
-2.0349917179
 10
4.2966496961
 20
-2.0985089568
 10
4.2510005518
 20
-2.1594535644
 10
4.2018648435
 20
-2.2176211223
 10
4.1494120849
 20
-2.2728116948
 10
4.09381688
 20
-2.3248311482
 10
4.0352749558
 20
-2.3735073836
 10
3.9739875905
 20
-2.4186736072
 10
3.9101601618
 20
-2.4601694972
 10
3.844015223
 20
-2.4978597675
 10
3.7757798575
 20
-2.5316152667
 10
3.705683784
 20
-2.5613139963
 10
3.6339696467
 20
-2.5868613143
 10
3.56088398
 20
-2.6081693313
 10
3.4866747024
 20
-2.6251578641
 10
3.4115971897
 20
-2.6377761444
 10
3.3359091701
 20
-2.6459805984
  0
LWPOLYLINE
  5
31C
100
AcDbEntity
  8
0
100
AcDbPolyline
 62
7
  6
CONTINUOUS
 90
19
 70
0
 10
4.5289323196
 20
-1.4619945684
 10
4.5160077155
 20
-1.5635084612
 10
4.4955853347
 20
-1.6625878668
 10
4.4676650923
 20
-1.7592328129
 10
4.4319904144
 20
-1.8540122006
 10
4.3888176111
 20
-1.9463571761
 10
4.3389158979
 20
-2.0345611307
 10
4.2821563371
 20
-2.1185448972
 10
4.2186674914
 20
-2.198387671
 10
4.1496048545
 20
-2.2726203804
 10
4.0748609685
 20
-2.3411364468
 10
3.994542908
 20
-2.4040424518
 10
3.9101280504
 20
-2.460189056
 10
3.8215400979
 20
-2.5094465197
 10
3.7288550568
 20
-2.5519445613
 10
3.6337788918
 20
-2.5869230234
 10
3.536880246
 20
-2.6141285073
 10
3.4375903595
 20
-2.6338143734
 10
3.3359091701
 20
-2.6459805984
  0
LINE
  5
31D
100
AcDbEntity
  8
0
100
AcDbLine
 62
253
  6
CONTINUOUS
 10
-10.9509810786
 20
-21.5260158439
 11
-11.037406726
 21
-21.6124414913
  0
LINE
  5
31E
100
AcDbEntity
  8
0
100
AcDbLine
 62
253
  6
CONTINUOUS
 10
-10.4516663112
 20
-22.0253306113
 11
-10.5380919586
 21
-22.1117562587
  0
LWPOLYLINE
  5
31F
100
AcDbEntity
  8
0
100
AcDbPolyline
 62
7
  6
CONTINUOUS
 90
3
 70
0
 43
0.3500000006
 10
22.8196049881
 20
1.0357133102
 10
23.0338917389
 20
0.9642866592
 10
23.3196051407
 20
0.8214288254
  0
LINE
  5
320
100
AcDbEntity
  8
0
100
AcDbLine
 62
253
  6
CONTINUOUS
 10
-11.037406726
 20
21.6124414913
 11
-10.9509810786
 21
21.5260158439
  0
LINE
  5
321
100
AcDbEntity
  8
0
100
AcDbLine
 62
253
  6
CONTINUOUS
 10
-10.5380919586
 20
22.1117562587
 11
-10.4516663112
 21
22.0253306113
  0
LINE
  5
322
100
AcDbEntity
  8
RACCORDO
100
AcDbLine
 62
253
  6
CONTINUOUS
 10
10.4516663102
 20
-22.0253306103
 11
10.4515203372
 21
-22.0179297522
  0
LINE
  5
323
100
AcDbEntity
  8
RACCORDO
100
AcDbLine
 62
253
  6
CONTINUOUS
 10
10.9198835093
 20
-21.1394405875
 11
10.9178982602
 21
-21.0484592098
  0
LINE
  5
324
100
AcDbEntity
  8
RACCORDO
100
AcDbLine
 62
253
  6
CONTINUOUS
 10
10.9178982602
 20
-21.0484592098
 11
10.9166086347
 21
-20.9538546172
  0
LINE
  5
325
100
AcDbEntity
  8
RACCORDO
100
AcDbLine
 62
253
  6
CONTINUOUS
 10
10.9166086347
 20
-20.9538546172
 11
10.9160278026
 21
-20.8563725241
  0
LINE
  5
326
100
AcDbEntity
  8
RACCORDO
100
AcDbLine
 62
253
  6
CONTINUOUS
 10
10.4421594271
 20
-11.6020504417
 11
10.4380674507
 21
-2.3208549767
  0
LINE
  5
327
100
AcDbEntity
  8
RACCORDO
100
AcDbLine
 62
253
  6
CONTINUOUS
 10
10.4380674507
 20
-2.3208549767
 11
10.439431441
 21
6.9620236805
  0
LINE
  5
328
100
AcDbEntity
  8
RACCORDO
100
AcDbLine
 62
253
  6
CONTINUOUS
 10
10.439431441
 20
6.9620236805
 11
10.4462513927
 21
16.2407063394
  0
LINE
  5
329
100
AcDbEntity
  8
RACCORDO
100
AcDbLine
 62
253
  6
CONTINUOUS
 10
10.4515203372
 20
-22.0179297522
 11
10.4421594271
 21
-11.6020504417
  0
LINE
  5
32A
100
AcDbEntity
  8
RACCORDO
100
AcDbLine
 62
253
  6
CONTINUOUS
 10
10.4462513927
 20
16.2407063394
 11
10.4514405545
 21
22.0046284256
  0
LWPOLYLINE
  5
32B
100
AcDbEntity
  8
RACCORDO
100
AcDbPolyline
 62
253
  6
CONTINUOUS
 90
3
 70
0
 10
10.4514405545
 20
22.0046284256
 10
10.451520414
 20
22.0179295934
 10
10.4516663102
 20
22.0253306103
  0
LINE
  5
32C
100
AcDbEntity
  8
RACCORDO
100
AcDbLine
 62
253
  6
CONTINUOUS
 10
10.9160278027
 20
20.8563725242
 11
10.91660878
 21
20.9538684119
  0
LINE
  5
32D
100
AcDbEntity
  8
RACCORDO
100
AcDbLine
 62
253
  6
CONTINUOUS
 10
10.91660878
 20
20.9538684119
 11
10.9178986346
 21
21.0484818972
  0
LWPOLYLINE
  5
32E
100
AcDbEntity
  8
RACCORDO
100
AcDbPolyline
 62
253
  6
CONTINUOUS
 90
17
 70
0
 10
10.9178986346
 20
21.0484818972
 10
10.9198842093
 20
21.1394682348
 10
10.9211237983
 20
21.1826277654
 10
10.9225263532
 20
21.2242598882
 10
10.9240716571
 20
21.2637474377
 10
10.9257619947
 20
21.3010607812
 10
10.9275950814
 20
21.3362295514
 10
10.9295438473
 20
21.3687254808
 10
10.9316100051
 20
21.3985067993
 10
10.9337918421
 20
21.425615277
 10
10.9360571508
 20
21.4496479577
 10
10.9384083958
 20
21.4705605431
 10
10.9408431126
 20
21.4883973314
 10
10.9433216993
 20
21.5028882617
 10
10.9458309554
 20
21.5139433135
 10
10.9483840815
 20
21.5216525072
 10
10.9509810776
 20
21.5260158429
  0
LWPOLYLINE
  5
32F
100
AcDbEntity
  8
0
100
AcDbPolyline
 62
7
  6
CONTINUOUS
 90
10
 70
0
 43
0.3500000006
 10
22.6053205032
 20
0.9642866592
 10
22.7481760712
 20
1.0357133102
 10
22.8196049881
 20
1.0357133102
 10
22.962462822
 20
0.8928577423
 10
22.962462822
 20
0.8214288254
 10
22.891033905
 20
0.7499999084
 10
22.8196049881
 20
0.7499999084
 10
22.6767471542
 20
0.8214288254
 10
22.6053205032
 20
0.8928577423
 10
22.6053205032
 20
0.9642866592
  0
LWPOLYLINE
  5
330
100
AcDbEntity
  8
RACCORDO
100
AcDbPolyline
 62
253
  6
CONTINUOUS
 90
10
 70
0
 10
10.9160278026
 20
-20.8563725241
 10
10.9067976153
 20
-16.2235199973
 10
10.8998749744
 20
-11.5897193248
 10
10.89525988
 20
-6.9549705067
 10
10.8929523316
 20
-2.3186416566
 10
10.8929523297
 20
2.3186353392
 10
10.8952598757
 20
6.9549648211
 10
10.8998749701
 20
11.5897149026
 10
10.9067976124
 20
16.2235174703
 10
10.9160278027
 20
20.8563725242
  0
LINE
  5
331
100
AcDbEntity
  8
0
100
AcDbLine
 62
7
  6
CONTINUOUS
 10
11.037406726
 20
-21.6124414913
 11
11.037406726
 21
21.6124414913
  0
LWPOLYLINE
  5
332
100
AcDbEntity
  8
0
100
AcDbPolyline
 62
7
  6
CONTINUOUS
 90
10
 70
0
 43
0.3500000006
 10
1.2857142735
 20
36.6433807526
 10
1.3571429071
 20
36.5005229187
 10
1.3571429071
 20
36.4290962677
 10
1.2142857814
 20
36.2862384338
 10
1.1428571477
 20
36.2862384338
 10
1.0714285848
 20
36.3576696167
 10
1.0714285848
 20
36.4290962677
 10
1.1428571477
 20
36.5719541016
 10
1.2142857814
 20
36.6433807526
 10
1.2857142735
 20
36.6433807526
  0
LWPOLYLINE
  5
333
100
AcDbEntity
  8
RACCORDO
100
AcDbPolyline
 62
253
  6
CONTINUOUS
 90
14
 70
0
 10
-10.5467846201
 20
20.8766973721
 10
-10.592725089
 20
20.8759631155
 10
-10.637025639
 20
20.8750463318
 10
-10.6792735183
 20
20.8739555626
 10
-10.7190750999
 20
20.8727009709
 10
-10.7560595491
 20
20.8712942457
 10
-10.7898822788
 20
20.8697484935
 10
-10.8202281598
 20
20.8680781164
 10
-10.8468144571
 20
20.8662986774
 10
-10.8693934638
 20
20.8644267555
 10
-10.8877548096
 20
20.8624797917
 10
-10.9017274202
 20
20.8604759261
 10
-10.9111811117
 20
20.8584338287
 10
-10.9160278032
 20
20.856372526
  0
LINE
  5
334
100
AcDbEntity
  8
RACCORDO
100
AcDbLine
 62
253
  6
CONTINUOUS
 10
-10.4517073416
 20
20.8775927037
 11
-10.5467846201
 21
20.8766973721
  0
LINE
  5
335
100
AcDbEntity
  8
RACCORDO
100
AcDbLine
 62
253
  6
CONTINUOUS
 10
-10.4517073418
 20
20.8775926593
 11
10.4517073402
 21
20.8775926575
  0
LWPOLYLINE
  5
336
100
AcDbEntity
  8
RACCORDO
100
AcDbPolyline
 62
253
  6
CONTINUOUS
 90
15
 70
0
 10
10.451706519
 20
20.8775921973
 10
10.5467830054
 20
20.8766968906
 10
10.5927231331
 20
20.8759626544
 10
10.6370233933
 20
20.875045896
 10
10.6792710439
 20
20.8739551567
 10
10.7190724672
 20
20.8727005986
 10
10.7560568367
 20
20.8712939102
 10
10.7898795719
 20
20.8697481975
 10
10.8202255493
 20
20.8680778619
 10
10.846812038
 20
20.8662984657
 10
10.8693913338
 20
20.8644265874
 10
10.8877530674
 20
20.8624796671
 10
10.9017261639
 20
20.8604758442
 10
10.9111804372
 20
20.858433788
 10
10.9160278026
 20
20.8563725242
  0
LWPOLYLINE
  5
337
100
AcDbEntity
  8
0
100
AcDbPolyline
 62
7
  6
CONTINUOUS
 90
3
 70
0
 43
0.3500000006
 10
22.4624626694
 20
-0.5357137985
 10
22.4624626694
 20
-2.0357142563
 10
20.1053197403
 20
-1.3928574028
  0
LWPOLYLINE
  5
338
100
AcDbEntity
  8
0
100
AcDbPolyline
 62
7
  6
CONTINUOUS
 90
3
 70
0
 43
0.3500000006
 10
22.4624626694
 20
-2.8928567276
 10
22.4624626694
 20
-4.3928571854
 10
20.1053197403
 20
-3.7500003319
  0
LWPOLYLINE
  5
339
100
AcDbEntity
  8
0
100
AcDbPolyline
 62
7
  6
CONTINUOUS
 90
7
 70
0
 43
0.3500000006
 10
23.1053206558
 20
3.5357140732
 10
23.1053206558
 20
2.0357136154
 10
20.9624622116
 20
3.5357140732
 10
20.533890976
 20
3.5357140732
 10
20.1053197403
 20
3.1071428375
 10
20.1053197403
 20
2.4642848511
 10
20.7481777267
 20
2.0357136154
  0
LWPOLYLINE
  5
33A
100
AcDbEntity
  8
RACCORDO
100
AcDbPolyline
 62
253
  6
CONTINUOUS
 90
16
 70
0
 10
-10.4516663112
 20
22.0253306113
 10
-10.5037691396
 20
22.0224620484
 10
-10.5553030207
 20
22.0141731198
 10
-10.6057052936
 20
22.0005543489
 10
-10.6544256724
 20
21.9817544441
 10
-10.7009322056
 20
21.9579786923
 10
-10.7447170915
 20
21.9294867333
 10
-10.785302291
 20
21.8965896872
 10
-10.8222447221
 20
21.8596467532
 10
-10.8551410596
 20
21.8190613204
 10
-10.8836321688
 20
21.7752765396
 10
-10.9074070294
 20
21.7287704675
 10
-10.9262061134
 20
21.6800508596
 10
-10.9398242133
 20
21.6296496393
 10
-10.9481126857
 20
21.5781170921
 10
-10.9509810786
 20
21.5260158439
  0
LINE
  5
33B
100
AcDbEntity
  8
RACCORDO
100
AcDbLine
 62
253
  6
CONTINUOUS
 10
3.0797294973
 20
22.0075952798
 11
10.4516663102
 21
22.0253306103
  0
LINE
  5
33C
100
AcDbEntity
  8
0
100
AcDbLine
 62
7
  6
CONTINUOUS
 10
10.5380919586
 20
22.1117562587
 11
-10.5380919586
 21
22.1117562587
  0
LINE
  5
33D
100
AcDbEntity
  8
RACCORDO
100
AcDbLine
 62
253
  6
CONTINUOUS
 10
-4.3632819094
 20
22.0092957697
 11
3.0797294973
 21
22.0075952798
  0
LINE
  5
33E
100
AcDbEntity
  8
RACCORDO
100
AcDbLine
 62
253
  6
CONTINUOUS
 10
-10.4516663112
 20
22.0253306113
 11
-4.3632819094
 21
22.0092957697
  0
LWPOLYLINE
  5
33F
100
AcDbEntity
  8
RACCORDO
100
AcDbPolyline
 62
253
  6
CONTINUOUS
 90
16
 70
0
 10
10.4516663102
 20
22.0253306103
 10
10.503768433
 20
22.0224621237
 10
10.5553017012
 20
22.0141734028
 10
10.6057034712
 20
22.0005549446
 10
10.6544234529
 20
21.9817554362
 10
10.7009297184
 20
21.957980132
 10
10.7447145091
 20
21.9294886124
 10
10.7852997796
 20
21.8965919497
 10
10.8222424173
 20
21.859649312
 10
10.8551390799
 20
21.8190640414
 10
10.8836305994
 20
21.7752792507
 10
10.9074059035
 20
21.7287729852
 10
10.9262054118
 20
21.6800530035
 10
10.9398238701
 20
21.6296512337
 10
10.9481125909
 20
21.5781179655
 10
10.9509810776
 20
21.5260158429
  0
LWPOLYLINE
  5
340
100
AcDbEntity
  8
0
100
AcDbPolyline
 62
7
  6
CONTINUOUS
 90
7
 70
0
 43
0.3500000006
 10
-0.2142857063
 20
36.1433806
 10
-1.7142856507
 20
36.1433806
 10
-0.2142857063
 20
38.2862390442
 10
-0.2142857063
 20
38.7148080139
 10
-0.6428571367
 20
39.1433815155
 10
-1.2857142735
 20
39.1433815155
 10
-1.7142856507
 20
38.5005235291
  0
LWPOLYLINE
  5
341
100
AcDbEntity
  8
0
100
AcDbPolyline
 62
7
  6
CONTINUOUS
 90
7
 70
0
 43
0.3500000006
 10
-2.5714285469
 20
36.1433806
 10
-4.0714284382
 20
36.1433806
 10
-2.5714285469
 20
38.2862390442
 10
-2.5714285469
 20
38.7148080139
 10
-3.0000000658
 20
39.1433815155
 10
-3.6428572025
 20
39.1433815155
 10
-4.0714284382
 20
38.5005235291
  0
LWPOLYLINE
  5
342
100
AcDbEntity
  8
0
100
AcDbPolyline
 62
7
  6
CONTINUOUS
 90
3
 70
0
 43
0.3500000006
 10
-48.4867545776
 20
36.4290962677
 10
-48.5581857605
 20
36.2148117828
 10
-48.7010435944
 20
35.9290961151
  0
LINE
  5
343
100
AcDbEntity
  8
RACCORDO
100
AcDbLine
 62
7
  6
CONTINUOUS
 10
-35.0102264717
 20
-22.1117562587
 11
-37.0298235497
 21
-22.0059136608
  0
LINE
  5
344
100
AcDbEntity
  8
0
100
AcDbLine
 62
7
  6
CONTINUOUS
 10
-35.0102264717
 20
-22.1117562587
 11
-36.6593260823
 21
-22.0253306103
  0
LWPOLYLINE
  5
345
100
AcDbEntity
  8
RACCORDO
100
AcDbPolyline
 62
253
  6
CONTINUOUS
 90
22
 70
0
 10
-36.6593260824
 20
-22.0253306103
 10
-36.7437129621
 20
-22.0179297522
 10
-36.8273482035
 20
-22.0046288375
 10
-36.9098200789
 20
-21.9854972854
 10
-36.9907232465
 20
-21.9606338102
 10
-37.0696601166
 20
-21.9301646573
 10
-37.1462423476
 20
-21.8942417477
 10
-37.2200972801
 20
-21.8530429444
 10
-37.2908592222
 20
-21.8067756796
 10
-37.3581710943
 20
-21.7556751002
 10
-37.4217022363
 20
-21.6999983713
 10
-37.4811451256
 20
-21.6400220376
 10
-37.5362063529
 20
-21.5760447725
 10
-37.5866180538
 20
-21.508384764
 10
-37.6321361133
 20
-21.4373780217
 10
-37.672537138
 20
-21.3633764989
 10
-37.7076232696
 20
-21.2867528886
 10
-37.7372296484
 20
-21.2078804478
 10
-37.7612175193
 20
-21.1271292234
 10
-37.7794692629
 20
-21.0448900836
 10
-37.7918934475
 20
-20.9615744365
 10
-37.7984286074
 20
-20.8775926584
  0
LINE
  5
346
100
AcDbEntity
  8
RACCORDO
100
AcDbLine
 62
253
  6
CONTINUOUS
 10
-37.7984286087
 20
-20.8775927014
 11
-37.7927409279
 21
-20.8772422581
  0
LINE
  5
347
100
AcDbEntity
  8
RACCORDO
100
AcDbLine
 62
253
  6
CONTINUOUS
 10
-37.7927409279
 20
-20.8772422581
 11
-37.7676915717
 21
-20.8759631133
  0
LINE
  5
348
100
AcDbEntity
  8
RACCORDO
100
AcDbLine
 62
253
  6
CONTINUOUS
 10
-37.7676915717
 20
-20.8759631133
 11
-37.467684216
 21
-20.8624797898
  0
LINE
  5
349
100
AcDbEntity
  8
RACCORDO
100
AcDbLine
 62
253
  6
CONTINUOUS
 10
-37.467684216
 20
-20.8624797898
 11
-37.326274299
 21
-20.8563725241
  0
LINE
  5
34A
100
AcDbEntity
  8
RACCORDO
100
AcDbLine
 62
253
  6
CONTINUOUS
 10
-38.1653823092
 20
-20.8701689506
 11
-37.7984286134
 21
-20.877592659
  0
LINE
  5
34B
100
AcDbEntity
  8
0
100
AcDbLine
 62
253
  6
CONTINUOUS
 10
-35.0102264717
 20
-21.6124414913
 11
-36.6593260824
 21
-21.5260158429
  0
LWPOLYLINE
  5
34C
100
AcDbEntity
  8
RACCORDO
100
AcDbPolyline
 62
253
  6
CONTINUOUS
 90
22
 70
0
 10
-36.6593260824
 20
-21.5260158429
 10
-36.708887938
 20
-21.5216510913
 10
-36.7576113544
 20
-21.5139400941
 10
-36.8054963315
 20
-21.5028828515
 10
-36.8527943723
 20
-21.4883894243
 10
-36.8992539738
 20
-21.4705497515
 10
-36.9441206271
 20
-21.4496336506
 10
-36.9873481378
 20
-21.4255962085
 10
-37.0289827003
 20
-21.3984823382
 10
-37.0684083891
 20
-21.3686965963
 10
-37.1055917953
 20
-21.3361975891
 10
-37.1405663277
 20
-21.3010267103
 10
-37.1728162876
 20
-21.263712697
 10
-37.2022978877
 20
-21.2242264943
 10
-37.2290549152
 20
-21.1825971571
 10
-37.2527030327
 20
-21.1394405875
 10
-37.2731978927
 20
-21.0947135149
 10
-37.2905838427
 20
-21.0484592098
 10
-37.3046095878
 20
-21.0014233868
 10
-37.315191363
 20
-20.9538546172
 10
-37.3224129334
 20
-20.9055043297
 10
-37.326274299
 20
-20.8563725241
  0
LWPOLYLINE
  5
34D
100
AcDbEntity
  8
0
100
AcDbPolyline
 62
7
  6
CONTINUOUS
 90
2
 70
0
 43
0.3500000006
 10
-50.5581863708
 20
36.1433806
 10
-50.5581863708
 20
37.6433810577
  0
LWPOLYLINE
  5
34E
100
AcDbEntity
  8
RACCORDO
100
AcDbPolyline
 62
253
  6
CONTINUOUS
 90
16
 70
0
 10
-36.6593260818
 20
22.0253306103
 10
-36.6619063062
 20
22.0224621237
 10
-36.664172656
 20
22.0141734028
 10
-36.6661003872
 20
22.0005549446
 10
-36.6676684528
 20
21.9817554362
 10
-36.6688597324
 20
21.957980132
 10
-36.6696612191
 20
21.9294886124
 10
-36.6700641623
 20
21.8965919497
 10
-36.6700641626
 20
21.859649312
 10
-36.66966122
 20
21.8190640414
 10
-36.6688597339
 20
21.7752792507
 10
-36.6676684549
 20
21.7287729852
 10
-36.6661003895
 20
21.6800530035
 10
-36.664172658
 20
21.6296512337
 10
-36.6619063073
 20
21.5781179655
 10
-36.6593260818
 20
21.5260158429
  0
LWPOLYLINE
  5
34F
100
AcDbEntity
  8
RACCORDO
100
AcDbPolyline
 62
253
  6
CONTINUOUS
 90
16
 70
0
 10
-36.6593260824
 20
-22.0253306103
 10
-36.6619063423
 20
-22.0224620551
 10
-36.6641727163
 20
-22.0141731476
 10
-36.6661004607
 20
-22.0005544084
 10
-36.6676685298
 20
-21.9817545437
 10
-36.6688598036
 20
-21.9579788371
 10
-36.6696612759
 20
-21.9294869224
 10
-36.6700641984
 20
-21.8965899146
 10
-36.670064175
 20
-21.8596470098
 10
-36.6696612084
 20
-21.8190615926
 10
-36.6688597015
 20
-21.77527681
 10
-36.667668408
 20
-21.7287707174
 10
-36.6661003367
 20
-21.6800510715
 10
-36.6641726099
 20
-21.6296497963
 10
-36.6619062767
 20
-21.5781171775
 10
-36.6593260824
 20
-21.5260158429
  0
LWPOLYLINE
  5
350
100
AcDbEntity
  8
0
100
AcDbPolyline
 62
7
  6
CONTINUOUS
 90
4
 70
0
 43
0.3500000006
 10
-47.4867588043
 20
38.5005235291
 10
-47.4867588043
 20
39.1433815155
 10
-45.9867583466
 20
39.1433815155
 10
-46.8439008179
 20
36.1433806
  0
LINE
  5
351
100
AcDbEntity
  8
0
100
AcDbLine
 62
7
  6
CONTINUOUS
 10
-34.0102264717
 20
-13.2689805518
 11
-35.0102264717
 21
-13.3213883311
  0
LINE
  5
352
100
AcDbEntity
  8
0
100
AcDbLine
 62
7
  6
CONTINUOUS
 10
-34.0102264717
 20
-9.7310194482
 11
-35.0102264717
 21
-9.6786116689
  0
LINE
  5
353
100
AcDbEntity
  8
0
100
AcDbLine
 62
7
  6
CONTINUOUS
 10
-38.697374724
 20
-2.6667099921
 11
-38.6995715305
 21
-2.6459805814
  0
LWPOLYLINE
  5
354
100
AcDbEntity
  8
0
100
AcDbPolyline
 62
7
  6
CONTINUOUS
 90
6
 70
0
 10
-38.1653823046
 20
20.8701690381
 10
-38.3288847775
 20
17.4618001712
 10
-38.4661751358
 20
13.9703724365
 10
-38.5729638547
 20
10.4778787858
 10
-38.6492397404
 20
6.9845855945
 10
-38.694994338
 20
3.4907592982
  0
LWPOLYLINE
  5
355
100
AcDbEntity
  8
RACCORDO
100
AcDbPolyline
 62
253
  6
CONTINUOUS
 90
22
 70
0
 10
-37.7984286069
 20
20.8775926568
 10
-37.7918936491
 20
20.9615726594
 10
-37.7794698104
 20
21.0448871287
 10
-37.761218435
 20
21.1271256883
 10
-37.7372307565
 20
21.2078771503
 10
-37.7076243233
 20
21.286750364
 10
-37.672538113
 20
21.363374559
 10
-37.6321371898
 20
21.4373761979
 10
-37.586619319
 20
21.5083829142
 10
-37.5362077701
 20
21.5760429757
 10
-37.4811465738
 20
21.6400204412
 10
-37.4217036417
 20
21.6999970232
 10
-37.3581724204
 20
21.7556739957
 10
-37.29086038
 20
21.8067748469
 10
-37.2200982287
 20
21.8530423607
 10
-37.146243274
 20
21.8942412669
 10
-37.0696615231
 20
21.9301640524
 10
-36.9907253812
 20
21.9606330674
 10
-36.9098225315
 20
21.9854966221
 10
-36.8273503058
 20
22.0046284256
 10
-36.7437142475
 20
22.0179295934
 10
-36.6593260818
 20
22.0253306103
  0
LWPOLYLINE
  5
356
100
AcDbEntity
  8
RACCORDO
100
AcDbPolyline
 62
253
  6
CONTINUOUS
 90
22
 70
0
 10
-37.3262742987
 20
20.8563725242
 10
-37.3224117573
 20
20.9055117994
 10
-37.3151885911
 20
20.9538684119
 10
-37.3046048
 20
21.0014423617
 10
-37.2905766996
 20
21.0484818972
 10
-37.2731879742
 20
21.0947387699
 10
-37.2526896774
 20
21.1394682348
 10
-37.2290369086
 20
21.1826277654
 10
-37.2022745682
 20
21.2242598882
 10
-37.172788412
 20
21.2637474377
 10
-37.1405348503
 20
21.3010607812
 10
-37.1055574727
 20
21.3362295514
 10
-37.0683728034
 20
21.3687254808
 10
-37.0289481648
 20
21.3985067993
 10
-36.9873162346
 20
21.425615277
 10
-36.9440915699
 20
21.4496479577
 10
-36.8992271414
 20
21.4705605431
 10
-36.8527699785
 20
21.4883973314
 10
-36.8054757266
 20
21.5028882617
 10
-36.7575962674
 20
21.5139433135
 10
-36.7088797191
 20
21.5216525072
 10
-36.6593260818
 20
21.5260158429
  0
LINE
  5
357
100
AcDbEntity
  8
0
100
AcDbLine
 62
7
  6
CONTINUOUS
 10
-38.699571531
 20
2.6459805854
 11
-38.6973747329
 21
2.6667099104
  0
LWPOLYLINE
  5
358
100
AcDbEntity
  8
0
100
AcDbPolyline
 62
7
  6
CONTINUOUS
 90
3
 70
0
 10
-38.6973757021
 20
2.6667047337
 10
-38.6944642937
 20
2.6822547039
 10
-38.6908367216
 20
2.6926254355
  0
LINE
  5
359
100
AcDbEntity
  8
0
100
AcDbLine
 62
7
  6
CONTINUOUS
 10
-38.697739903
 20
2.0828270192
 11
-38.7006058491
 21
2.0678321657
  0
LINE
  5
35A
100
AcDbEntity
  8
0
100
AcDbLine
 62
7
  6
CONTINUOUS
 10
-38.6942001233
 20
2.0928289175
 11
-38.6977393688
 21
2.0828298143
  0
LWPOLYLINE
  5
35B
100
AcDbEntity
  8
0
100
AcDbPolyline
 62
7
  6
CONTINUOUS
 90
4
 70
0
 10
-38.7006058496
 20
-2.0678321158
 10
-38.6977393712
 20
-2.082829763
 10
-38.6942001298
 20
-2.0928288722
 10
-38.689986034
 20
-2.0978301728
  0
LINE
  5
35C
100
AcDbEntity
  8
0
100
AcDbLine
 62
7
  6
CONTINUOUS
 10
-38.6944638306
 20
-2.6822560374
 11
-38.6973757185
 21
-2.6667046807
  0
LINE
  5
35D
100
AcDbEntity
  8
0
100
AcDbLine
 62
7
  6
CONTINUOUS
 10
-38.7028000757
 20
-2.0478359692
 11
-38.7006058996
 21
-2.0678316603
  0
LWPOLYLINE
  5
35E
100
AcDbEntity
  8
0
100
AcDbPolyline
 62
7
  6
CONTINUOUS
 90
3
 70
0
 10
-38.6765132682
 20
0.6331742941
 10
-38.6750428839
 20
0.6154050644
 10
-38.6736674328
 20
0.5927957655
  0
LWPOLYLINE
  5
35F
100
AcDbEntity
  8
0
100
AcDbPolyline
 62
7
  6
CONTINUOUS
 90
4
 70
0
 10
-38.6455930789
 20
2.586850471
 10
-38.6428359345
 20
2.5519424555
 10
-38.6401157053
 20
2.5094430898
 10
-38.6374943782
 20
2.4601841917
  0
LWPOLYLINE
  5
360
100
AcDbEntity
  8
0
100
AcDbPolyline
 62
7
  6
CONTINUOUS
 90
3
 70
0
 10
-38.6435104988
 20
2.5612985283
 10
-38.6414600321
 20
2.531594618
 10
-38.6394507841
 20
2.4978336135
  0
LWPOLYLINE
  5
361
100
AcDbEntity
  8
0
100
AcDbPolyline
 62
7
  6
CONTINUOUS
 90
3
 70
0
 10
-38.6753149576
 20
0.6191517009
 10
-38.6741380769
 20
0.601183892
 10
-38.67299676
 20
0.5796029363
  0
LINE
  5
362
100
AcDbEntity
  8
0
100
AcDbLine
 62
7
  6
CONTINUOUS
 10
-38.6995715305
 20
-2.6459805814
 11
-38.6998986372
 21
-2.6407770492
  0
LWPOLYLINE
  5
363
100
AcDbEntity
  8
0
100
AcDbPolyline
 62
7
  6
CONTINUOUS
 90
3
 70
0
 10
-38.6513820841
 20
1.97080871
 10
-38.6525588996
 20
1.9910486051
 10
-38.6537708322
 20
2.0084196258
  0
LINE
  5
364
100
AcDbEntity
  8
0
100
AcDbLine
 62
7
  6
CONTINUOUS
 10
-38.7031556434
 20
-2.0411344607
 11
-38.7028000759
 21
-2.0478359245
  0
LINE
  5
365
100
AcDbEntity
  8
0
100
AcDbLine
 62
7
  6
CONTINUOUS
 10
-38.6374920612
 20
2.4601379222
 11
-38.634982059
 21
2.40403601
  0
LINE
  5
366
100
AcDbEntity
  8
0
100
AcDbLine
 62
7
  6
CONTINUOUS
 10
-38.6736674328
 20
0.5927957655
 11
-38.6718963284
 21
0.5545851733
  0
LWPOLYLINE
  5
367
100
AcDbEntity
  8
0
100
AcDbPolyline
 62
7
  6
CONTINUOUS
 90
7
 70
0
 10
-38.6487449986
 20
1.9112561539
 10
-38.6502494521
 20
1.9477863055
 10
-38.6518572276
 20
1.9793341184
 10
-38.6535264175
 20
2.0051845601
 10
-38.6552424704
 20
2.0250992806
 10
-38.6570157123
 20
2.0393166132
 10
-38.658843251
 20
2.0478365471
  0
LINE
  5
368
100
AcDbEntity
  8
0
100
AcDbLine
 62
7
  6
CONTINUOUS
 10
-38.6856897424
 20
-0.5929780503
 11
-38.6868487275
 21
-0.5644955155
  0
LINE
  5
369
100
AcDbEntity
  8
0
100
AcDbLine
 62
7
  6
CONTINUOUS
 10
-38.6998986372
 20
-2.6407770492
 11
-38.7003372523
 21
-2.6295494815
  0
LINE
  5
36A
100
AcDbEntity
  8
0
100
AcDbLine
 62
7
  6
CONTINUOUS
 10
-38.6355932278
 20
2.4186368908
 11
-38.6325814592
 21
2.3411283172
  0
LWPOLYLINE
  5
36B
100
AcDbEntity
  8
RACCORDO
100
AcDbPolyline
 62
253
  6
CONTINUOUS
 90
10
 70
0
 10
-37.7984286134
 20
-20.877592659
 10
-37.9743494568
 20
-16.2407094163
 10
-38.1063757023
 20
-11.6020504417
 10
-38.1944371929
 20
-6.9620306049
 10
-38.2384836044
 20
-2.3208549767
 10
-38.2384836409
 20
2.3208472824
 10
-38.1944372915
 20
6.9620236805
 10
-38.10637583
 20
11.6020450567
 10
-37.9743495588
 20
16.2407063394
 10
-37.7984286135
 20
20.8775926575
  0
LWPOLYLINE
  5
36C
100
AcDbEntity
  8
RACCORDO
100
AcDbPolyline
 62
253
  6
CONTINUOUS
 90
10
 70
0
 10
-37.326274299
 20
-20.8563725241
 10
-37.5023967654
 20
-16.2235199973
 10
-37.6344886221
 20
-11.5897193248
 10
-37.722549869
 20
-6.9549705067
 10
-37.7665805154
 20
-2.3186416566
 10
-37.7665805519
 20
2.3186353392
 10
-37.7225499513
 20
6.9549648211
 10
-37.6344887043
 20
11.5897149026
 10
-37.5023968201
 20
16.2235174703
 10
-37.3262742987
 20
20.8563725242
  0
LINE
  5
36D
100
AcDbEntity
  8
0
100
AcDbLine
 62
7
  6
CONTINUOUS
 10
-38.6723195224
 20
0.5644907631
 11
-38.6708420529
 21
0.5262479305
  0
LINE
  5
36E
100
AcDbEntity
  8
0
100
AcDbLine
 62
7
  6
CONTINUOUS
 10
-38.6473484606
 20
1.8695202813
 11
-38.6491588945
 21
1.9220840719
  0
LINE
  5
36F
100
AcDbEntity
  8
0
100
AcDbLine
 62
7
  6
CONTINUOUS
 10
-38.6337636037
 20
2.373466165
 11
-38.6303438014
 21
2.2726107413
  0
LINE
  5
370
100
AcDbEntity
  8
0
100
AcDbLine
 62
7
  6
CONTINUOUS
 10
-38.6866589756
 20
-0.5698373776
 11
-38.6879363235
 21
-0.530731153
  0
LINE
  5
371
100
AcDbEntity
  8
0
100
AcDbLine
 62
7
  6
CONTINUOUS
 10
-38.6710065293
 20
0.5307267015
 11
-38.6697765861
 21
0.4925731213
  0
LINE
  5
372
100
AcDbEntity
  8
0
100
AcDbLine
 62
7
  6
CONTINUOUS
 10
-38.7035393929
 20
-2.0291083689
 11
-38.7031764882
 21
-2.0407415946
  0
LINE
  5
373
100
AcDbEntity
  8
0
100
AcDbLine
 62
7
  6
CONTINUOUS
 10
-38.7002175991
 20
-2.6331601411
 11
-38.7006992545
 21
-2.6164689032
  0
LINE
  5
374
100
AcDbEntity
  8
0
100
AcDbLine
 62
7
  6
CONTINUOUS
 10
-38.6460618686
 20
1.8228020748
 11
-38.6481247598
 21
1.893822898
  0
LINE
  5
375
100
AcDbEntity
  8
0
100
AcDbLine
 62
7
  6
CONTINUOUS
 10
-38.687575871
 20
-0.5430223205
 11
-38.6889267221
 21
-0.4925773602
  0
LINE
  5
376
100
AcDbEntity
  8
0
100
AcDbLine
 62
7
  6
CONTINUOUS
 10
-38.6303484429
 20
2.2727647115
 11
-38.6273180005
 21
2.159406204
  0
LINE
  5
377
100
AcDbEntity
  8
0
100
AcDbLine
 62
7
  6
CONTINUOUS
 10
-38.6698379396
 20
0.494664298
 11
-38.6680027967
 21
0.4223160446
  0
LINE
  5
378
100
AcDbEntity
  8
0
100
AcDbLine
 62
7
  6
CONTINUOUS
 10
-38.7038905636
 20
-2.012936246
 11
-38.7034347746
 21
-2.0329957535
  0
LINE
  5
379
100
AcDbEntity
  8
0
100
AcDbLine
 62
7
  6
CONTINUOUS
 10
-38.70052815
 20
-2.6231298556
 11
-38.7010479238
 21
-2.6000189173
  0
LINE
  5
37A
100
AcDbEntity
  8
0
100
AcDbLine
 62
7
  6
CONTINUOUS
 10
-38.6446398967
 20
1.7578238801
 11
-38.64624106
 21
1.8301212265
  0
LINE
  5
37B
100
AcDbEntity
  8
0
100
AcDbLine
 62
7
  6
CONTINUOUS
 10
-38.6884416212
 20
-0.5124105814
 11
-38.689992694
 21
-0.4405639737
  0
LINE
  5
37C
100
AcDbEntity
  8
0
100
AcDbLine
 62
7
  6
CONTINUOUS
 10
-38.6282813807
 20
2.1983766143
 11
-38.6247311901
 21
2.0345483218
  0
LINE
  5
37D
100
AcDbEntity
  8
0
100
AcDbLine
 62
7
  6
CONTINUOUS
 10
-38.6686417628
 20
0.4500310989
 11
-38.6666691541
 21
0.3528448192
  0
LINE
  5
37E
100
AcDbEntity
  8
0
100
AcDbLine
 62
7
  6
CONTINUOUS
 10
-38.7008314738
 20
-2.6106345704
 11
-38.7013818079
 21
-2.5801815733
  0
LINE
  5
37F
100
AcDbEntity
  8
0
100
AcDbLine
 62
7
  6
CONTINUOUS
 10
-38.7043333097
 20
-1.9850810903
 11
-38.7037422441
 21
-2.0203833579
  0
LINE
  5
380
100
AcDbEntity
  8
0
100
AcDbLine
 62
7
  6
CONTINUOUS
 10
-38.6671862017
 20
0.3820036616
 11
-38.665790904
 21
0.2940572249
  0
LINE
  5
381
100
AcDbEntity
  8
0
100
AcDbLine
 62
7
  6
CONTINUOUS
 10
-38.6431422187
 20
1.6610619259
 11
-38.6449269345
 21
1.7724867163
  0
LINE
  5
382
100
AcDbEntity
  8
0
100
AcDbLine
 62
7
  6
CONTINUOUS
 10
-38.6898179283
 20
-0.4500353737
 11
-38.6913162309
 21
-0.3528494814
  0
LINE
  5
383
100
AcDbEntity
  8
0
100
AcDbLine
 62
7
  6
CONTINUOUS
 10
-38.6247384431
 20
2.034949682
 11
-38.6220962304
 21
1.854000978
  0
LWPOLYLINE
  5
384
100
AcDbEntity
  8
0
100
AcDbPolyline
 62
7
  6
CONTINUOUS
 90
3
 70
0
 10
-38.7094964299
 20
0.6078594502
 10
-38.7094446203
 20
0.6035461492
 10
-38.7094080051
 20
0.6019782497
  0
LINE
  5
385
100
AcDbEntity
  8
0
100
AcDbLine
 62
7
  6
CONTINUOUS
 10
-38.6226686209
 20
1.9010977552
 11
-38.6211546444
 21
1.7592233685
  0
LINE
  5
386
100
AcDbEntity
  8
0
100
AcDbLine
 62
7
  6
CONTINUOUS
 10
-38.7013818079
 20
-2.5801815733
 11
-38.7022757181
 21
-2.5025441785
  0
LINE
  5
387
100
AcDbEntity
  8
0
100
AcDbLine
 62
7
  6
CONTINUOUS
 10
-38.6424354485
 20
1.5927338825
 11
-38.643360397
 21
1.6782217674
  0
LINE
  5
388
100
AcDbEntity
  8
0
100
AcDbLine
 62
7
  6
CONTINUOUS
 10
-38.7051968078
 20
-1.9036167931
 11
-38.7042339408
 21
-1.9920560629
  0
LINE
  5
389
100
AcDbEntity
  8
0
100
AcDbLine
 62
7
  6
CONTINUOUS
 10
-38.6658615512
 20
0.2990171725
 11
-38.6646369925
 21
0.1832076365
  0
LWPOLYLINE
  5
38A
100
AcDbEntity
  8
0
100
AcDbPolyline
 62
7
  6
CONTINUOUS
 90
7
 70
0
 10
-38.7012072786
 20
-2.6463279433
 10
-38.6949361005
 20
-3.497425927
 10
-38.6491232668
 20
-6.9912513843
 10
-38.5727891555
 20
-10.4845431777
 10
-38.465942236
 20
-13.9770348719
 10
-38.3285937039
 20
-17.4684600916
 10
-38.1653823046
 20
-20.8701690383
  0
LINE
  5
38B
100
AcDbEntity
  8
0
100
AcDbLine
 62
7
  6
CONTINUOUS
 10
-38.6912793245
 20
-0.3557883373
 11
-38.6926492833
 21
-0.2077793494
  0
LINE
  5
38C
100
AcDbEntity
  8
0
100
AcDbLine
 62
7
  6
CONTINUOUS
 10
-38.704911775
 20
-2.0478457176
 11
-38.7021726152
 21
-2.5136608873
  0
LINE
  5
38D
100
AcDbEntity
  8
0
100
AcDbLine
 62
7
  6
CONTINUOUS
 10
-38.7095729621
 20
0.6216532202
 11
-38.7094964299
 21
0.6078594502
  0
LINE
  5
38E
100
AcDbEntity
  8
0
100
AcDbLine
 62
7
  6
CONTINUOUS
 10
-38.7073784265
 20
-1.5007864676
 11
-38.7051556118
 21
-1.908422525
  0
LINE
  5
38F
100
AcDbEntity
  8
0
100
AcDbLine
 62
7
  6
CONTINUOUS
 10
-38.6418096861
 20
1.4762064695
 11
-38.6425097981
 21
1.6013428596
  0
LINE
  5
390
100
AcDbEntity
  8
0
100
AcDbLine
 62
7
  6
CONTINUOUS
 10
-38.6647530806
 20
0.1975428264
 11
-38.663988207
 21
0.0489936041
  0
LINE
  5
391
100
AcDbEntity
  8
0
100
AcDbLine
 62
7
  6
CONTINUOUS
 10
-38.6211585032
 20
1.7596781761
 11
-38.6200226482
 21
1.5376384462
  0
LINE
  5
392
100
AcDbEntity
  8
0
100
AcDbLine
 62
7
  6
CONTINUOUS
 10
-38.6924095588
 20
-0.2418727663
 11
-38.6932510949
 21
-0.0514120475
  0
LINE
  5
393
100
AcDbEntity
  8
0
100
AcDbLine
 62
7
  6
CONTINUOUS
 10
-38.7102232075
 20
0.0000445355
 11
-38.707383245
 21
-1.4992293562
  0
LINE
  5
394
100
AcDbEntity
  8
0
100
AcDbLine
 62
7
  6
CONTINUOUS
 10
-38.6200855221
 20
1.5635043694
 11
-38.6199567506
 21
-1.4619945684
  0
LINE
  5
395
100
AcDbEntity
  8
0
100
AcDbLine
 62
7
  6
CONTINUOUS
 10
-38.7094793454
 20
0.7731108764
 11
-38.7102232075
 21
0.0000445355
  0
LINE
  5
396
100
AcDbEntity
  8
0
100
AcDbLine
 62
7
  6
CONTINUOUS
 10
-38.6640211076
 20
0.0625770547
 11
-38.6640155645
 21
-0.0613031598
  0
LINE
  5
397
100
AcDbEntity
  8
0
100
AcDbLine
 62
7
  6
CONTINUOUS
 10
-38.6932315221
 20
-0.0625801141
 11
-38.6930767484
 21
0.1213193263
  0
LINE
  5
398
100
AcDbEntity
  8
0
100
AcDbLine
 62
7
  6
CONTINUOUS
 10
-38.6421138144
 20
-1.5482582513
 11
-38.6418895891
 21
1.5028999011
  0
LINE
  5
399
100
AcDbEntity
  8
0
100
AcDbLine
 62
7
  6
CONTINUOUS
 10
-38.6199569592
 20
-1.4619941059
 11
-38.6206256085
 21
-1.6867498006
  0
LINE
  5
39A
100
AcDbEntity
  8
0
100
AcDbLine
 62
7
  6
CONTINUOUS
 10
-38.664001124
 20
-0.0548397746
 11
-38.6646124697
 21
-0.1800407507
  0
LINE
  5
39B
100
AcDbEntity
  8
0
100
AcDbLine
 62
7
  6
CONTINUOUS
 10
-38.6931369512
 20
0.1026457159
 11
-38.6922972473
 21
0.256547514
  0
LINE
  5
39C
100
AcDbEntity
  8
0
100
AcDbLine
 62
7
  6
CONTINUOUS
 10
-38.694994338
 20
3.4907592982
 11
-38.7012093467
 21
2.646327548
  0
LINE
  5
39D
100
AcDbEntity
  8
0
100
AcDbLine
 62
7
  6
CONTINUOUS
 10
-38.7051970598
 20
1.9035871524
 11
-38.7095442671
 21
0.7369280377
  0
LINE
  5
39E
100
AcDbEntity
  8
0
100
AcDbLine
 62
7
  6
CONTINUOUS
 10
-38.7049150444
 20
2.0478457389
 11
-38.701998816
 21
2.5309657303
  0
LINE
  5
39F
100
AcDbEntity
  8
0
100
AcDbLine
 62
7
  6
CONTINUOUS
 10
-38.6204855159
 20
-1.6625878668
 11
-38.6220963672
 21
-1.8540122006
  0
LINE
  5
3A0
100
AcDbEntity
  8
0
100
AcDbLine
 62
7
  6
CONTINUOUS
 10
-38.6431421766
 20
-1.6610533752
 11
-38.6420668143
 21
-1.5398727516
  0
LINE
  5
3A1
100
AcDbEntity
  8
0
100
AcDbLine
 62
7
  6
CONTINUOUS
 10
-38.7045684661
 20
1.9666105604
 11
-38.7054132178
 21
1.8769525455
  0
LINE
  5
3A2
100
AcDbEntity
  8
0
100
AcDbLine
 62
7
  6
CONTINUOUS
 10
-38.692437208
 20
0.2381252651
 11
-38.6913251026
 21
0.3521526763
  0
LINE
  5
3A3
100
AcDbEntity
  8
0
100
AcDbLine
 62
7
  6
CONTINUOUS
 10
-38.6645078144
 20
-0.1657106794
 11
-38.6658069387
 21
-0.2949158963
  0
LINE
  5
3A4
100
AcDbEntity
  8
0
100
AcDbLine
 62
7
  6
CONTINUOUS
 10
-38.7021760183
 20
2.5133067072
 11
-38.7014085822
 21
2.5783892499
  0
LINE
  5
3A5
100
AcDbEntity
  8
0
100
AcDbLine
 62
7
  6
CONTINUOUS
 10
-38.6439549108
 20
-1.7185648851
 11
-38.6428518509
 21
-1.6361108068
  0
LINE
  5
3A6
100
AcDbEntity
  8
0
100
AcDbLine
 62
7
  6
CONTINUOUS
 10
-38.6218412848
 20
-1.8312397681
 11
-38.6236370726
 21
-1.9691234341
  0
LINE
  5
3A7
100
AcDbEntity
  8
0
100
AcDbLine
 62
7
  6
CONTINUOUS
 10
-38.7038909061
 20
2.0129179467
 11
-38.7046165499
 21
1.9625456401
  0
LINE
  5
3A8
100
AcDbEntity
  8
0
100
AcDbLine
 62
7
  6
CONTINUOUS
 10
-38.6913703683
 20
0.3484749579
 11
-38.6899083197
 21
0.445225764
  0
LINE
  5
3A9
100
AcDbEntity
  8
0
100
AcDbLine
 62
7
  6
CONTINUOUS
 10
-38.6655708782
 20
-0.2768792436
 11
-38.6675033466
 21
-0.3984681518
  0
LINE
  5
3AA
100
AcDbEntity
  8
0
100
AcDbLine
 62
7
  6
CONTINUOUS
 10
-38.7014085822
 20
2.5783892499
 11
-38.700833303
 21
2.6105491968
  0
LINE
  5
3AB
100
AcDbEntity
  8
0
100
AcDbLine
 62
7
  6
CONTINUOUS
 10
-38.6232975641
 20
-1.9463571761
 11
-38.6263969591
 21
-2.1185448972
  0
LINE
  5
3AC
100
AcDbEntity
  8
0
100
AcDbLine
 62
7
  6
CONTINUOUS
 10
-38.6454022048
 20
-1.7949567466
 11
-38.6439549108
 21
-1.7185648851
  0
LINE
  5
3AD
100
AcDbEntity
  8
0
100
AcDbLine
 62
7
  6
CONTINUOUS
 10
-38.6900640957
 20
0.4366040083
 11
-38.6885165231
 21
0.5094284838
  0
LINE
  5
3AE
100
AcDbEntity
  8
0
100
AcDbLine
 62
7
  6
CONTINUOUS
 10
-38.6462407054
 20
-1.8301065716
 11
-38.6449268118
 21
-1.7724796215
  0
LINE
  5
3AF
100
AcDbEntity
  8
0
100
AcDbLine
 62
7
  6
CONTINUOUS
 10
-38.7010505239
 20
2.5998793735
 11
-38.7005295486
 21
2.6230758528
  0
LINE
  5
3B0
100
AcDbEntity
  8
0
100
AcDbLine
 62
7
  6
CONTINUOUS
 10
-38.7034347603
 20
2.0329963835
 11
-38.7037422803
 21
2.0203816933
  0
LINE
  5
3B1
100
AcDbEntity
  8
0
100
AcDbLine
 62
7
  6
CONTINUOUS
 10
-38.667161704
 20
-0.380728725
 11
-38.6692148396
 21
-0.4724320924
  0
LINE
  5
3B2
100
AcDbEntity
  8
0
100
AcDbLine
 62
7
  6
CONTINUOUS
 10
-38.6259688165
 20
-2.0985089568
 11
-38.6287821753
 21
-2.2176211223
  0
LINE
  5
3B3
100
AcDbEntity
  8
0
100
AcDbLine
 62
7
  6
CONTINUOUS
 10
-38.6890351376
 20
0.4878086505
 11
-38.6876452825
 21
0.5407425148
  0
LINE
  5
3B4
100
AcDbEntity
  8
0
100
AcDbLine
 62
7
  6
CONTINUOUS
 10
-38.6685251996
 20
-0.445227618
 11
-38.6703952175
 21
-0.5127342221
  0
LINE
  5
3B5
100
AcDbEntity
  8
0
100
AcDbLine
 62
7
  6
CONTINUOUS
 10
-38.7007012804
 20
2.6163818537
 11
-38.7002185498
 21
2.6331309692
  0
LINE
  5
3B6
100
AcDbEntity
  8
0
100
AcDbLine
 62
7
  6
CONTINUOUS
 10
-38.6481243301
 20
-1.8938095598
 11
-38.6460617524
 21
-1.8227962469
  0
LINE
  5
3B7
100
AcDbEntity
  8
0
100
AcDbLine
 62
7
  6
CONTINUOUS
 10
-38.6282816536
 20
-2.198387671
 11
-38.6320138206
 21
-2.3248311482
  0
LINE
  5
3B8
100
AcDbEntity
  8
0
100
AcDbLine
 62
7
  6
CONTINUOUS
 10
-38.6880603252
 20
0.5263129354
 11
-38.6867164106
 21
0.5683348848
  0
LINE
  5
3B9
100
AcDbEntity
  8
0
100
AcDbLine
 62
7
  6
CONTINUOUS
 10
-38.6696403315
 20
-0.4878109043
 11
-38.6716625323
 21
-0.5486735625
  0
LINE
  5
3BA
100
AcDbEntity
  8
0
100
AcDbLine
 62
7
  6
CONTINUOUS
 10
-38.6303440815
 20
-2.2726203804
 11
-38.633765165
 21
-2.3735073836
  0
LINE
  5
3BB
100
AcDbEntity
  8
0
100
AcDbLine
 62
7
  6
CONTINUOUS
 10
-38.6491584523
 20
-1.9220721139
 11
-38.6473483628
 21
-1.8695161093
  0
LINE
  5
3BC
100
AcDbEntity
  8
0
100
AcDbLine
 62
7
  6
CONTINUOUS
 10
-38.6708548027
 20
-0.5263153888
 11
-38.6721550401
 21
-0.5606436909
  0
LWPOLYLINE
  5
3BD
100
AcDbEntity
  8
0
100
AcDbPolyline
 62
7
  6
CONTINUOUS
 90
3
 70
0
 10
-38.7003386672
 20
2.6295030656
 10
-38.6999619639
 20
2.6393508033
 10
-38.699571531
 20
2.6459805854
  0
LINE
  5
3BE
100
AcDbEntity
  8
0
100
AcDbLine
 62
7
  6
CONTINUOUS
 10
-38.6325817316
 20
-2.3411364468
 11
-38.6355947954
 21
-2.4186736072
  0
LINE
  5
3BF
100
AcDbEntity
  8
0
100
AcDbLine
 62
7
  6
CONTINUOUS
 10
-38.6869869163
 20
0.5606412411
 11
-38.6857313232
 21
0.5921378056
  0
LINE
  5
3C0
100
AcDbEntity
  8
0
100
AcDbLine
 62
7
  6
CONTINUOUS
 10
-38.6349823116
 20
-2.4040424518
 11
-38.6374946003
 21
-2.460189056
  0
LWPOLYLINE
  5
3C1
100
AcDbEntity
  8
0
100
AcDbPolyline
 62
7
  6
CONTINUOUS
 90
7
 70
0
 10
-38.6716625323
 20
-0.5486735625
 10
-38.6734929954
 20
-0.5895607304
 10
-38.6748612165
 20
-0.6127684377
 10
-38.6762630453
 20
-0.6305648685
 10
-38.6776705763
 20
-0.642609126
 10
-38.6790912447
 20
-0.6488096604
 10
-38.6799322747
 20
-0.6497742357
  0
LINE
  5
3C2
100
AcDbEntity
  8
0
100
AcDbLine
 62
7
  6
CONTINUOUS
 10
-38.685849153
 20
0.5895585384
 11
-38.6846504486
 21
0.6127670315
  0
LWPOLYLINE
  5
3C3
100
AcDbEntity
  8
0
100
AcDbPolyline
 62
7
  6
CONTINUOUS
 90
4
 70
0
 10
-38.702800076
 20
2.0478359659
 10
-38.7031766635
 20
2.0407346126
 10
-38.7035396788
 20
2.0290952733
 10
-38.7040420271
 20
2.0043740166
  0
LWPOLYLINE
  5
3C4
100
AcDbEntity
  8
0
100
AcDbPolyline
 62
7
  6
CONTINUOUS
 90
4
 70
0
 10
-38.637493585
 20
-2.4601694972
 10
-38.6401158807
 20
-2.5094465197
 10
-38.6428360544
 20
-2.5519445613
 10
-38.6455996154
 20
-2.5869230234
  0
LWPOLYLINE
  5
3C5
100
AcDbEntity
  8
0
100
AcDbPolyline
 62
7
  6
CONTINUOUS
 90
6
 70
0
 10
-38.6729940158
 20
-0.5795894466
 10
-38.6743788519
 20
-0.6052557971
 10
-38.6757969844
 20
-0.6253043668
 10
-38.6772078901
 20
-0.6392864084
 10
-38.6785863535
 20
-0.6473791309
 10
-38.6796646851
 20
-0.6494673379
  0
LWPOLYLINE
  5
3C6
100
AcDbEntity
  8
0
100
AcDbPolyline
 62
7
  6
CONTINUOUS
 90
3
 70
0
 10
-38.6394522209
 20
-2.4978597675
 10
-38.6414613372
 20
-2.5316152667
 10
-38.6435116367
 20
-2.5613139963
  0
LWPOLYLINE
  5
3C7
100
AcDbEntity
  8
0
100
AcDbPolyline
 62
7
  6
CONTINUOUS
 90
3
 70
0
 10
-38.6537704922
 20
-2.0084146647
 10
-38.6525585147
 20
-1.9910419679
 10
-38.6513816653
 20
-1.9708002642
  0
LWPOLYLINE
  5
3C8
100
AcDbEntity
  8
0
100
AcDbPolyline
 62
7
  6
CONTINUOUS
 90
5
 70
0
 10
-38.6846901972
 20
0.6120972832
 10
-38.6833832583
 20
0.6305645276
 10
-38.6820693169
 20
0.6426094076
 10
-38.6806991368
 20
0.6488098495
 10
-38.6804034567
 20
0.6491669005
  0
LWPOLYLINE
  5
3C9
100
AcDbEntity
  8
0
100
AcDbPolyline
 62
7
  6
CONTINUOUS
 90
5
 70
0
 10
-38.6835948085
 20
0.628047456
 10
-38.6824547215
 20
0.6397112467
 10
-38.6812851916
 20
0.6469858027
 10
-38.6801019776
 20
0.6499126523
 10
-38.6799004947
 20
0.6499844453
  0
LWPOLYLINE
  5
3CA
100
AcDbEntity
  8
0
100
AcDbPolyline
 62
7
  6
CONTINUOUS
 90
4
 70
0
 10
-38.6455940254
 20
-2.5868613143
 10
-38.6483873232
 20
-2.6141285073
 10
-38.6512114191
 20
-2.6338143734
 10
-38.6540670953
 20
-2.6459805984
  0
LINE
  5
3CB
100
AcDbEntity
  8
0
100
AcDbLine
 62
7
  6
CONTINUOUS
 10
-38.7006059166
 20
2.0678315512
 11
-38.702800076
 21
2.0478359659
  0
LWPOLYLINE
  5
3CC
100
AcDbEntity
  8
0
100
AcDbPolyline
 62
7
  6
CONTINUOUS
 90
4
 70
0
 10
-38.6476994416
 20
-2.6081693313
 10
-38.6498189763
 20
-2.6251578641
 10
-38.6519442721
 20
-2.6377761444
 10
-38.6540670953
 20
-2.6459805984
  0
LWPOLYLINE
  5
3CD
100
AcDbEntity
  8
0
100
AcDbPolyline
 62
7
  6
CONTINUOUS
 90
7
 70
0
 10
-38.658843256
 20
-2.047836051
 10
-38.6570157296
 20
-2.0393164303
 10
-38.6552424907
 20
-2.0250991362
 10
-38.6535264306
 20
-2.0051841794
 10
-38.6518572177
 20
-1.979333209
 10
-38.6502494076
 20
-1.9477845926
 10
-38.6487449238
 20
-1.9112534155
  0
LWPOLYLINE
  5
3CE
100
AcDbEntity
  8
0
100
AcDbPolyline
 62
7
  6
CONTINUOUS
 90
4
 70
0
 10
-38.658843256
 20
-2.0478360563
 10
-38.6575538059
 20
-2.0425916772
 10
-38.6562744041
 20
-2.0342472099
 10
-38.6550112314
 20
-2.0228401518
  0
LINE
  5
3CF
100
AcDbEntity
  8
0
100
AcDbLine
 62
7
  6
CONTINUOUS
 10
-38.6664074681
 20
-2.0678328066
 11
-38.658843256
 21
-2.047836051
  0
LINE
  5
3D0
100
AcDbEntity
  8
0
100
AcDbLine
 62
7
  6
CONTINUOUS
 10
-38.6540670947
 20
-2.6459806664
 11
-38.6619727858
 21
-2.666711602
  0
LINE
  5
3D1
100
AcDbEntity
  8
0
100
AcDbLine
 62
7
  6
CONTINUOUS
 10
-38.6899854392
 20
2.0978328626
 11
-38.694199956
 21
2.0928292412
  0
LWPOLYLINE
  5
3D2
100
AcDbEntity
  8
0
100
AcDbPolyline
 62
7
  6
CONTINUOUS
 90
4
 70
0
 10
-38.6843058892
 20
-2.6984553567
 10
-38.686492764
 20
-2.6978126621
 10
-38.6908367851
 20
-2.6926253539
 10
-38.694464333
 20
-2.6822546009
  0
LINE
  5
3D3
100
AcDbEntity
  8
0
100
AcDbLine
 62
7
  6
CONTINUOUS
 10
-38.6799322747
 20
-0.6497742357
 11
-38.6801180821
 21
-0.649609459
  0
LINE
  5
3D4
100
AcDbEntity
  8
0
100
AcDbLine
 62
7
  6
CONTINUOUS
 10
-38.6799004947
 20
0.6499844453
 11
-38.6795481364
 21
0.6494812285
  0
LWPOLYLINE
  5
3D5
100
AcDbEntity
  8
0
100
AcDbPolyline
 62
7
  6
CONTINUOUS
 90
5
 70
0
 10
-38.6799317933
 20
-0.6499845972
 10
-38.681202343
 20
-0.6474260334
 10
-38.6824148445
 20
-0.6401164163
 10
-38.6835634802
 20
-0.6284438567
 10
-38.6846572501
 20
-0.6126123311
  0
LINE
  5
3D6
100
AcDbEntity
  8
0
100
AcDbLine
 62
7
  6
CONTINUOUS
 10
-38.6619764791
 20
2.666715003
 11
-38.654067093
 21
2.6459805816
  0
LWPOLYLINE
  5
3D7
100
AcDbEntity
  8
0
100
AcDbPolyline
 62
7
  6
CONTINUOUS
 90
3
 70
0
 10
-38.6588432546
 20
2.0478360471
 10
-38.6664075035
 20
2.0678329001
 10
-38.6733066111
 20
2.0828338786
  0
LWPOLYLINE
  5
3D8
100
AcDbEntity
  8
0
100
AcDbPolyline
 62
7
  6
CONTINUOUS
 90
4
 70
0
 10
-38.6540670948
 20
2.6459803844
 10
-38.6519440204
 20
2.6377746969
 10
-38.6498184801
 20
2.6251541893
 10
-38.6476987111
 20
2.6081624829
  0
LWPOLYLINE
  5
3D9
100
AcDbEntity
  8
0
100
AcDbPolyline
 62
7
  6
CONTINUOUS
 90
5
 70
0
 10
-38.6805143947
 20
-0.6492580033
 10
-38.6818898431
 20
-0.6438878806
 10
-38.6832113812
 20
-0.6325575308
 10
-38.6844882315
 20
-0.6154086986
 10
-38.6856982339
 20
-0.5928003714
  0
LWPOLYLINE
  5
3DA
100
AcDbEntity
  8
0
100
AcDbPolyline
 62
7
  6
CONTINUOUS
 90
4
 70
0
 10
-38.654067093
 20
2.6459805816
 10
-38.6512114003
 20
2.6338143026
 10
-38.6483872807
 20
2.614128081
 10
-38.6455995415
 20
2.58692194
  0
LINE
  5
3DB
100
AcDbEntity
  8
0
100
AcDbLine
 62
7
  6
CONTINUOUS
 10
-38.6789119971
 20
0.6485727329
 11
-38.6777159419
 21
0.6430005536
  0
LWPOLYLINE
  5
3DC
100
AcDbEntity
  8
0
100
AcDbPolyline
 62
7
  6
CONTINUOUS
 90
4
 70
0
 10
-38.6550115044
 20
2.0228435096
 10
-38.6562745875
 20
2.0342491898
 10
-38.6575538927
 20
2.0425926742
 10
-38.658843251
 20
2.0478365471
  0
LWPOLYLINE
  5
3DD
100
AcDbEntity
  8
0
100
AcDbPolyline
 62
7
  6
CONTINUOUS
 90
3
 70
0
 10
-38.6619764721
 20
-2.6667150188
 10
-38.6691735153
 20
-2.682265363
 10
-38.6756583456
 20
-2.6926315809
  0
LWPOLYLINE
  5
3DE
100
AcDbEntity
  8
0
100
AcDbPolyline
 62
7
  6
CONTINUOUS
 90
3
 70
0
 10
-38.6792826863
 20
-2.0924264534
 10
-38.6733090211
 20
-2.0828359771
 10
-38.6664110334
 20
-2.0678362687
  0
LINE
  5
3DF
100
AcDbEntity
  8
0
100
AcDbLine
 62
7
  6
CONTINUOUS
 10
-38.689985363
 20
-2.0978328535
 11
-38.6873702684
 21
-2.0984525293
  0
LWPOLYLINE
  5
3E0
100
AcDbEntity
  8
0
100
AcDbPolyline
 62
7
  6
CONTINUOUS
 90
4
 70
0
 10
-38.6799007152
 20
0.6497739905
 10
-38.6792789266
 20
0.6492576915
 10
-38.6778588185
 20
0.6438868083
 10
-38.6764493215
 20
0.6325552897
  0
LINE
  5
3E1
100
AcDbEntity
  8
0
100
AcDbLine
 62
7
  6
CONTINUOUS
 10
-38.6795375513
 20
2.0928355582
 11
-38.6850976212
 21
2.0978352042
  0
LINE
  5
3E2
100
AcDbEntity
  8
0
100
AcDbLine
 62
7
  6
CONTINUOUS
 10
-38.6756583606
 20
2.6926315568
 11
-38.6691735279
 21
2.6822653448
  0
LINE
  5
3E3
100
AcDbEntity
  8
0
100
AcDbLine
 62
7
  6
CONTINUOUS
 10
-38.6733089829
 20
2.0828360682
 11
-38.6791187547
 21
2.0921633211
  0
LINE
  5
3E4
100
AcDbEntity
  8
0
100
AcDbLine
 62
7
  6
CONTINUOUS
 10
-38.6691709156
 20
2.6822630051
 11
-38.6619727345
 21
2.6667114164
  0
LINE
  5
3E5
100
AcDbEntity
  8
0
100
AcDbLine
 62
7
  6
CONTINUOUS
 10
-35.0102264717
 20
-22.1117562587
 11
-35.0102264717
 21
22.1117562587
  0
LINE
  5
3E6
100
AcDbEntity
  8
0
100
AcDbLine
 62
253
  6
CONTINUOUS
 10
-34.3892920892
 20
13.288846539
 11
-34.3892920892
 21
9.711153461
  0
LINE
  5
3E7
100
AcDbEntity
  8
0
100
AcDbLine
 62
253
  6
CONTINUOUS
 10
-34.3892920892
 20
-9.711153461
 11
-34.3892920892
 21
-13.288846539
  0
LINE
  5
3E8
100
AcDbEntity
  8
0
100
AcDbLine
 62
7
  6
CONTINUOUS
 10
-34.0102264717
 20
13.2689805518
 11
-34.0102264717
 21
9.7310194482
  0
LINE
  5
3E9
100
AcDbEntity
  8
0
100
AcDbLine
 62
7
  6
CONTINUOUS
 10
-34.0102264717
 20
-9.7310194482
 11
-34.0102264717
 21
-13.2689805518
  0
LWPOLYLINE
  5
3EA
100
AcDbEntity
  8
0
100
AcDbPolyline
 62
7
  6
CONTINUOUS
 90
3
 70
0
 10
-38.6756586654
 20
-2.6926319866
 10
-38.6814330459
 20
-2.697815117
 10
-38.6843058892
 20
-2.6984553567
  0
LWPOLYLINE
  5
3EB
100
AcDbEntity
  8
0
100
AcDbPolyline
 62
7
  6
CONTINUOUS
 90
3
 70
0
 10
-38.6873702684
 20
-2.0984525293
 10
-38.685097531
 20
-2.0978351104
 10
-38.6795374619
 20
-2.0928354114
  0
LINE
  5
3EC
100
AcDbEntity
  8
0
100
AcDbLine
 62
7
  6
CONTINUOUS
 10
-38.6814329479
 20
2.6978150306
 11
-38.6756585664
 21
2.6926318178
  0
LINE
  5
3ED
100
AcDbEntity
  8
0
100
AcDbLine
 62
7
  6
CONTINUOUS
 10
-38.6843059965
 20
2.69845256
 11
-38.6814324546
 21
2.6978128417
  0
LINE
  5
3EE
100
AcDbEntity
  8
0
100
AcDbLine
 62
7
  6
CONTINUOUS
 10
-38.6850970143
 20
2.097832931
 11
-38.6873703656
 21
2.0984498784
  0
LINE
  5
3EF
100
AcDbEntity
  8
0
100
AcDbLine
 62
7
  6
CONTINUOUS
 10
-38.6873703656
 20
2.0984498784
 11
-38.6899860183
 21
2.0978301813
  0
LWPOLYLINE
  5
3F0
100
AcDbEntity
  8
0
100
AcDbPolyline
 62
7
  6
CONTINUOUS
 90
10
 70
0
 43
0.3500000006
 10
-48.5581857605
 20
36.6433807526
 10
-48.4867545776
 20
36.5005229187
 10
-48.4867545776
 20
36.4290962677
 10
-48.6296124115
 20
36.2862384338
 10
-48.7010435944
 20
36.2862384338
 10
-48.7724702454
 20
36.3576696167
 10
-48.7724702454
 20
36.4290962677
 10
-48.7010435944
 20
36.5719541016
 10
-48.6296124115
 20
36.6433807526
 10
-48.5581857605
 20
36.6433807526
  0
LINE
  5
3F1
100
AcDbEntity
  8
0
100
AcDbLine
 62
7
  6
CONTINUOUS
 10
-34.0102264717
 20
9.7310194482
 11
-35.0102264717
 21
9.6786116689
  0
LINE
  5
3F2
100
AcDbEntity
  8
0
100
AcDbLine
 62
7
  6
CONTINUOUS
 10
-34.0102264717
 20
13.2689805518
 11
-35.0102264717
 21
13.3213883311
  0
LINE
  5
3F3
100
AcDbEntity
  8
RACCORDO
100
AcDbLine
 62
253
  6
CONTINUOUS
 10
-37.7485532696
 20
20.875045896
 11
-37.3262742987
 21
20.8563725242
  0
LWPOLYLINE
  5
3F4
100
AcDbEntity
  8
RACCORDO
100
AcDbPolyline
 62
253
  6
CONTINUOUS
 90
4
 70
0
 10
-37.7984168205
 20
20.8775921973
 10
-37.7927294159
 20
20.8772417637
 10
-37.7824522095
 20
20.8766968906
 10
-37.7485532696
 20
20.875045896
  0
LINE
  5
3F5
100
AcDbEntity
  8
0
100
AcDbLine
 62
253
  6
CONTINUOUS
 10
-36.6593260818
 20
21.5260158429
 11
-35.0102264717
 21
21.6124414913
  0
LINE
  5
3F6
100
AcDbEntity
  8
RACCORDO
100
AcDbLine
 62
7
  6
CONTINUOUS
 10
-37.0298234925
 20
22.0059136638
 11
-35.0102264717
 21
22.1117562587
  0
LINE
  5
3F7
100
AcDbEntity
  8
0
100
AcDbLine
 62
7
  6
CONTINUOUS
 10
-36.6593260817
 20
22.0253306103
 11
-35.0102264717
 21
22.1117562587
  0
LINE
  5
3F8
100
AcDbEntity
  8
RACCORDO
100
AcDbLine
 62
253
  6
CONTINUOUS
 10
-38.1653823091
 20
20.8701689517
 11
-37.7984286135
 21
20.8775926575
  0
LWPOLYLINE
  5
3F9
100
AcDbEntity
  8
0
100
AcDbPolyline
 62
7
  6
CONTINUOUS
 90
3
 70
0
 43
0.3500000006
 10
-50.0581862183
 20
36.7862385864
 10
-51.558186676
 20
36.7862385864
 10
-50.9153286896
 20
39.1433815155
  0
ARC
  5
3FA
100
AcDbEntity
  8
0
100
AcDbCircle
 62
7
  6
CONTINUOUS
 10
-12.376576
 20
-0.0
 40
16.9686018818
100
AcDbArc
 50
355.0573372838
 51
4.9426627092
  0
ARC
  5
3FB
100
AcDbEntity
  8
0
100
AcDbCircle
 62
7
  6
CONTINUOUS
 10
-12.377685
 20
-0.0
 40
16.3697075362
100
AcDbArc
 50
355.0575710739
 51
4.9424289546
  0
ARC
  5
3FC
100
AcDbEntity
  8
RACCORDO
100
AcDbCircle
 62
7
  6
CONTINUOUS
 10
-36.9670166891
 20
-20.8075584137
 40
1.2
100
AcDbArc
 50
182.9907948857
 51
267.0
  0
ARC
  5
3FD
100
AcDbEntity
  8
RACCORDO
100
AcDbCircle
 62
7
  6
CONTINUOUS
 10
-36.9670166913
 20
20.8075584136
 40
1.2
100
AcDbArc
 50
93.0
 51
177.0092051148
  0
ELLIPSE
  5
3FE
100
AcDbEntity
  8
0
100
AcDbEllipse
 62
7
  6
CONTINUOUS
 10
10.536720553
 20
-21.6110700857
 30
0.0
 11
-0.3545231217
 21
0.3545231217
 31
0.0
 40
0.9972646886
 41
2.3575640181
 42
3.9256212891
  0
ELLIPSE
  5
3FF
100
AcDbEntity
  8
0
100
AcDbEllipse
 62
7
  6
CONTINUOUS
 10
10.536720553
 20
21.6110700857
 30
0.0
 11
0.3545231217
 21
0.3545231217
 31
0.0
 40
0.9972646886
 41
-0.7840286355
 42
0.7840286355
  0
ELLIPSE
  5
400
100
AcDbEntity
  8
0
100
AcDbEllipse
 62
7
  6
CONTINUOUS
 10
-10.536720553
 20
21.6110700857
 30
0.0
 11
0.3545231217
 21
-0.3545231217
 31
0.0
 40
0.9972646886
 41
2.3575640181
 42
3.9256212891
  0
ELLIPSE
  5
401
100
AcDbEntity
  8
0
100
AcDbEllipse
 62
7
  6
CONTINUOUS
 10
-10.536720553
 20
-21.6110700857
 30
0.0
 11
0.3545231217
 21
0.3545231217
 31
0.0
 40
0.9972646886
 41
-3.9256212891
 42
-2.3575640181
  0
ENDSEC
  0
SECTION
  2
OBJECTS
  0
DICTIONARY
  5
C
100
AcDbDictionary
280
0
281
1
  3
ACAD_GROUP
350
D
  3
ACAD_MLINESTYLE
350
17
  3
ACAD_LAYOUT
350
1A
  3
ACAD_PLOTSETTINGS
350
19
  3
ACAD_PLOTSTYLENAME
350
E
  0
DICTIONARY
  5
D
102
{ACAD_REACTORS
330
C
102
}
100
AcDbDictionary
280
0
281
1
  0
ACDBDICTIONARYWDFLT
  5
E
102
{ACAD_REACTORS
330
C
102
}
100
AcDbDictionary
281
1
  3
Normal
350
F
100
AcDbDictionaryWithDefault
340
F
  0
DICTIONARY
  5
17
102
{ACAD_REACTORS
330
C
102
}
100
AcDbDictionary
280
0
281
1
  3
Standard
350
18
  0
DICTIONARY
  5
19
102
{ACAD_REACTORS
330
C
102
}
100
AcDbDictionary
281
1
  0
DICTIONARY
  5
1A
102
{ACAD_REACTORS
330
C
102
}
100
AcDbDictionary
281
1
  3
Model
350
402
  3
Layout1
350
403
  0
ACDBPLACEHOLDER
  5
F
102
{ACAD_REACTORS
330
E
102
}
  0
MLINESTYLE
  5
18
102
{ACAD_REACTORS
330
17
102
}
100
AcDbMlineStyle
  2
STANDARD
 70
0
  3

 62
256
 51
90.0
 52
90.0
 71
2
 49
0.5
 62
256
  6
BYLAYER
 49
-0.5
 62
256
  6
BYLAYER
  0
LAYOUT
  5
402
102
{ACAD_REACTORS
330
1A
102
}
100
AcDbPlotSettings
  1

  2
none_device
  4
ISO_A4_(297.00_x_210.00_MM)
  6

 40
0.0
 41
0.0
 42
0.0
 43
0.0
 44
297.0
 45
210.0
 46
0.0
 47
0.0
 48
0.0
 49
0.0
140
0.0
141
0.0
142
1.0
143
1.0
 70
1024
 72
1
 73
0
 74
0
  7

 75
0
147
1.0
148
0.0
149
0.0
100
AcDbLayout
  1
Model
 70
0
 71
0
 10
0.0
 20
0.0
 11
297.0
 21
210.0
 12
0.0
 22
0.0
 32
0.0
 14
0.0
 24
0.0
 34
0.0
 15
0.0
 25
0.0
 35
0.0
146
0.0
 13
0.0
 23
0.0
 33
0.0
 16
1.0
 26
0.0
 36
0.0
 17
0.0
 27
1.0
 37
0.0
 76
0
330
214
345
0
346
0
  0
LAYOUT
  5
403
102
{ACAD_REACTORS
330
1A
102
}
100
AcDbPlotSettings
  1

  2
none_device
  4
ISO_A4_(297.00_x_210.00_MM)
  6

 40
0.0
 41
0.0
 42
0.0
 43
0.0
 44
297.0
 45
210.0
 46
0.0
 47
0.0
 48
0.0
 49
0.0
140
0.0
141
0.0
142
1.0
143
1.0
 70
0
 72
1
 73
0
 74
0
  7

 75
0
147
1.0
148
0.0
149
0.0
100
AcDbLayout
  1
Layout1
 70
0
 71
1
 10
0.0
 20
0.0
 11
297.0
 21
210.0
 12
0.0
 22
0.0
 32
0.0
 14
0.0
 24
0.0
 34
0.0
 15
0.0
 25
0.0
 35
0.0
146
0.0
 13
0.0
 23
0.0
 33
0.0
 16
1.0
 26
0.0
 36
0.0
 17
0.0
 27
1.0
 37
0.0
 76
0
330
215
345
0
346
0
  0
ENDSEC
  0
EOF
