  0
SECTION
  2
HEADER
  9
$ACADVER
  1
AC1024
  9
$DWGCODEPAGE
  3
ANSI_1252
  9
$EXTMAX
 10
297.0
 20
210.0
 30
0.0
  9
$EXTMIN
 10
0.0
 20
0.0
 30
0.0
  9
$LIMMIN
 10
0.0
 20
0.0
  9
$LIMMAX
 10
297.0
 20
210.0
  9
$VIEWCTR
 10
148.5
 20
105.0
  9
$VIEWSIZE
 40
210.0
  9
$CLAYER
  8
0
  9
$LTSCALE
 40
16.335
  9
$CELTYPE
  6
BYLAYER
  9
$DIMSCALE
 40
1.0
  9
$DIMASZ
 40
3.0
  9
$DIMEXO
 40
0.5
  9
$DIMDLI
 40
11.286
  9
$DIMEXE
 40
1.5
  9
$DIMCEN
 40
2.673
  9
$DIMLFAC
 40
1.0
  9
$DIMBLK
  1
_FILLED
  9
$DIMALT
 70
0
  9
$DIMALTF
 40
0.0393700787
  9
$DIMTXT
 40
3.0
  9
$DIMTOL
 70
1
  9
$DIMLIM
 70
0
  9
$DIMTFAC
 40
1.0
  9
$DIMTP
 40
0.01
  9
$DIMTM
 40
0.01
  9
$DIMGAP
 40
0.625
  9
$DIMDSEP
 70
44
  9
$AUNITS
 70
0
  9
$PDMODE
 70
3
  9
$PDSIZE
 40
3.0
  9
$HANDSEED
  5
2F0
  9
$TILEMODE
 70
1
  9
$MEASUREMENT
 70
1
  9
$INSUNITS
 70
4
  0
ENDSEC
  0
SECTION
  2
CLASSES
  0
CLASS
  1
ACDBDICTIONARYWDFLT
  2
AcDbDictionaryWithDefault
  3
AutoCAD 2000
 90
0
 91
1
280
0
281
0
  0
CLASS
  1
ACDBPLACEHOLDER
  2
AcDbPlaceHolder
  3
AutoCAD 2000
 90
0
 91
1
280
0
281
0
  0
CLASS
  1
LAYOUT
  2
AcDbLayout
  3
AutoCAD 2000
 90
0
 91
0
280
0
281
0
  0
ENDSEC
  0
SECTION
  2
TABLES
  0
TABLE
  2
VPORT
  5
8
100
AcDbSymbolTable
 70
2
  0
VPORT
  5
1F4
100
AcDbSymbolTableRecord
100
AcDbViewportTableRecord
  2
*ACTIVE
 70
0
 10
0.0
 20
0.0
 11
1.0
 21
1.0
 12
148.5
 22
105.0
 13
0.0
 23
0.0
 14
1.0
 24
1.0
 15
0.0
 25
0.0
 16
0.0
 26
0.0
 36
1.0
 17
0.0
 27
0.0
 37
0.0
 40
210.0
 41
1.4142857143
 42
50.0
 43
0.0
 44
0.0
 50
0.0
 51
0.0
 71
0
 72
100
 73
1
 74
1
 75
0
 76
0
 77
0
 78
0
  0
ENDTAB
  0
TABLE
  2
LTYPE
  5
5
100
AcDbSymbolTable
 70
6
  0
LTYPE
  5
14
100
AcDbSymbolTableRecord
100
AcDbLinetypeTableRecord
  2
BYBLOCK
 70
0
  3

 72
65
 73
0
 40
0.0
  0
LTYPE
  5
15
100
AcDbSymbolTableRecord
100
AcDbLinetypeTableRecord
  2
BYLAYER
 70
0
  3

 72
65
 73
0
 40
0.0
  0
LTYPE
  5
16
100
AcDbSymbolTableRecord
100
AcDbLinetypeTableRecord
  2
CONTINUOUS
 70
64
  3
Solid line
 72
65
 73
0
 40
0.0
  0
LTYPE
  5
1F5
100
AcDbSymbolTableRecord
100
AcDbLinetypeTableRecord
  2
CENTER
 70
64
  3
____ _ ____ _ ____ _ ____ _ ____ _ ____ _ ____
 72
65
 73
4
 40
0.6
 49
0.375
 74
0
 49
-0.075
 74
0
 49
0.075
 74
0
 49
-0.075
 74
0
  0
LTYPE
  5
1F6
100
AcDbSymbolTableRecord
100
AcDbLinetypeTableRecord
  2
HIDDEN
 70
64
  3
- - - - - - - - - - - - - - - - - - - -
 72
65
 73
2
 40
0.2
 49
0.1
 74
0
 49
-0.1
 74
0
  0
LTYPE
  5
1F7
100
AcDbSymbolTableRecord
100
AcDbLinetypeTableRecord
  2
PHANTOM
 70
64
  3
_____ _ _ _____ _ _ _____ _ _ _____
 72
65
 73
6
 40
0.8
 49
0.45
 74
0
 49
-0.05
 74
0
 49
0.1
 74
0
 49
-0.05
 74
0
 49
0.1
 74
0
 49
-0.05
 74
0
  0
LTYPE
  5
1F8
100
AcDbSymbolTableRecord
100
AcDbLinetypeTableRecord
  2
DOT
 70
64
  3
. . . . . . . . . . . . . . . . . . . .
 72
65
 73
2
 40
0.2
 49
0.1
 74
0
 49
-0.1
 74
0
  0
LTYPE
  5
1F9
100
AcDbSymbolTableRecord
100
AcDbLinetypeTableRecord
  2
DASHED
 70
64
  3
- - - - - - - - - - - - - - - - - - - -
 72
65
 73
2
 40
0.2
 49
0.1
 74
0
 49
-0.1
 74
0
  0
ENDTAB
  0
TABLE
  2
LAYER
  5
2
100
AcDbSymbolTable
 70
36
  0
LAYER
  5
10
100
AcDbSymbolTableRecord
100
AcDbLayerTableRecord
  2
0
 70
0
 62
7
  6
CONTINUOUS
370
-3
390
F
  0
LAYER
  5
1FA
100
AcDbSymbolTableRecord
100
AcDbLayerTableRecord
  2
DEFAULT_1
 70
0
 62
7
  6
CENTER
370
-3
390
F
  0
LAYER
  5
1FB
100
AcDbSymbolTableRecord
100
AcDbLayerTableRecord
  2
DEFAULT_2
 70
0
 62
7
  6
HIDDEN
370
-3
390
F
  0
LAYER
  5
1FC
100
AcDbSymbolTableRecord
100
AcDbLayerTableRecord
  2
DEFAULT_3
 70
0
 62
7
  6
PHANTOM
370
-3
390
F
  0
LAYER
  5
1FD
100
AcDbSymbolTableRecord
100
AcDbLayerTableRecord
  2
ASSI
 70
0
 62
7
  6
CONTINUOUS
370
-3
390
F
  0
LAYER
  5
1FE
100
AcDbSymbolTableRecord
100
AcDbLayerTableRecord
  2
COORDINATE
 70
0
 62
7
  6
CONTINUOUS
370
-3
390
F
  0
LAYER
  5
1FF
100
AcDbSymbolTableRecord
100
AcDbLayerTableRecord
  2
COPY_PUBLISH
 70
0
 62
7
  6
CONTINUOUS
370
-3
390
F
  0
LAYER
  5
200
100
AcDbSymbolTableRecord
100
AcDbLayerTableRecord
  2
COSMETIC
 70
0
 62
7
  6
CONTINUOUS
370
-3
390
F
  0
LAYER
  5
201
100
AcDbSymbolTableRecord
100
AcDbLayerTableRecord
  2
COSMETICI
 70
0
 62
7
  6
CONTINUOUS
370
-3
390
F
  0
LAYER
  5
202
100
AcDbSymbolTableRecord
100
AcDbLayerTableRecord
  2
CURVE
 70
0
 62
7
  6
CONTINUOUS
370
-3
390
F
  0
LAYER
  5
203
100
AcDbSymbolTableRecord
100
AcDbLayerTableRecord
  2
DRAFT
 70
0
 62
7
  6
CONTINUOUS
370
-3
390
F
  0
LAYER
  5
204
100
AcDbSymbolTableRecord
100
AcDbLayerTableRecord
  2
IMPORT_IGES
 70
0
 62
7
  6
CONTINUOUS
370
-3
390
F
  0
LAYER
  5
205
100
AcDbSymbolTableRecord
100
AcDbLayerTableRecord
  2
INTFCLR_11
 70
0
 62
7
  6
CONTINUOUS
370
-3
390
F
  0
LAYER
  5
206
100
AcDbSymbolTableRecord
100
AcDbLayerTableRecord
  2
INTF_1
 70
0
 62
7
  6
CONTINUOUS
370
-3
390
F
  0
LAYER
  5
207
100
AcDbSymbolTableRecord
100
AcDbLayerTableRecord
  2
INTF_3
 70
0
 62
7
  6
CONTINUOUS
370
-3
390
F
  0
LAYER
  5
208
100
AcDbSymbolTableRecord
100
AcDbLayerTableRecord
  2
NOTE
 70
0
 62
7
  6
CONTINUOUS
370
-3
390
F
  0
LAYER
  5
209
100
AcDbSymbolTableRecord
100
AcDbLayerTableRecord
  2
PIANI
 70
0
 62
7
  6
CONTINUOUS
370
-3
390
F
  0
LAYER
  5
20A
100
AcDbSymbolTableRecord
100
AcDbLayerTableRecord
  2
PUNTI
 70
0
 62
7
  6
CONTINUOUS
370
-3
390
F
  0
LAYER
  5
20B
100
AcDbSymbolTableRecord
100
AcDbLayerTableRecord
  2
RACCORDO
 70
0
 62
7
  6
CONTINUOUS
370
-3
390
F
  0
LAYER
  5
20C
100
AcDbSymbolTableRecord
100
AcDbLayerTableRecord
  2
SIMBOLI
 70
0
 62
7
  6
CONTINUOUS
370
-3
390
F
  0
LAYER
  5
20D
100
AcDbSymbolTableRecord
100
AcDbLayerTableRecord
  2
SMUSSO
 70
0
 62
7
  6
CONTINUOUS
370
-3
390
F
  0
LAYER
  5
20E
100
AcDbSymbolTableRecord
100
AcDbLayerTableRecord
  2
SNAPLINE
 70
0
 62
7
  6
CONTINUOUS
370
-3
390
F
  0
LAYER
  5
20F
100
AcDbSymbolTableRecord
100
AcDbLayerTableRecord
  2
SUPERFICI
 70
0
 62
7
  6
CONTINUOUS
370
-3
390
F
  0
LAYER
  5
210
100
AcDbSymbolTableRecord
100
AcDbLayerTableRecord
  2
TRASH
 70
0
 62
7
  6
CONTINUOUS
370
-3
390
F
  0
LAYER
  5
211
100
AcDbSymbolTableRecord
100
AcDbLayerTableRecord
  2
___SHELL
 70
0
 62
7
  6
CONTINUOUS
370
-3
390
F
  0
ENDTAB
  0
TABLE
  2
STYLE
  5
3
100
AcDbSymbolTable
 70
1
  0
STYLE
  5
11
100
AcDbSymbolTableRecord
100
AcDbTextStyleTableRecord
  2
STANDARD
 70
0
 40
0.0
 41
0.8
 50
0.0
 71
0
 42
0.2
  3
txt
  4

  0
STYLE
  5
212
100
AcDbSymbolTableRecord
100
AcDbTextStyleTableRecord
  2
TEXTSTYLE_1
 70
0
 40
0.0
 41
0.8
 50
0.0
 71
0
 42
0.2
  3
gdt
  4

  0
ENDTAB
  0
TABLE
  2
VIEW
  5
6
100
AcDbSymbolTable
 70
0
  0
ENDTAB
  0
TABLE
  2
UCS
  5
7
100
AcDbSymbolTable
 70
0
  0
ENDTAB
  0
TABLE
  2
APPID
  5
9
100
AcDbSymbolTable
 70
1
  0
APPID
  5
213
100
AcDbSymbolTableRecord
100
AcDbRegAppTableRecord
  2
ACAD
 70
0
  0
ENDTAB
  0
TABLE
  2
BLOCK_RECORD
  5
1
100
AcDbSymbolTable
 70
0
  0
BLOCK_RECORD
  5
214
100
AcDbSymbolTableRecord
100
AcDbBlockTableRecord
  2
*Model_Space
  0
BLOCK_RECORD
  5
215
100
AcDbSymbolTableRecord
100
AcDbBlockTableRecord
  2
*Paper_Space
  0
BLOCK_RECORD
  5
216
100
AcDbSymbolTableRecord
100
AcDbBlockTableRecord
  2
_FILLED
  0
BLOCK_RECORD
  5
217
100
AcDbSymbolTableRecord
100
AcDbBlockTableRecord
  2
*D0
  0
BLOCK_RECORD
  5
218
100
AcDbSymbolTableRecord
100
AcDbBlockTableRecord
  2
*D1
  0
BLOCK_RECORD
  5
219
100
AcDbSymbolTableRecord
100
AcDbBlockTableRecord
  2
*D2
  0
BLOCK_RECORD
  5
21A
100
AcDbSymbolTableRecord
100
AcDbBlockTableRecord
  2
*D3
  0
ENDTAB
  0
TABLE
  2
DIMSTYLE
  5
A
100
AcDbSymbolTable
 70
1
100
AcDbDimStyleTable
 71
0
  0
DIMSTYLE
105
21B
100
AcDbSymbolTableRecord
100
AcDbDimStyleTableRecord
  2
STANDARD
 70
0
  3

  4

 40
1.0
 41
3.0
 42
0.5
 43
0.38
 44
1.5
 45
0.0
 46
0.0
 47
0.01
 48
0.01
140
3.0
141
0.09
142
0.0
143
25.4
144
1.0
145
0.0
146
1.0
147
0.625
 71
1
 72
0
 73
0
 74
0
 75
0
 76
0
 77
1
 78
8
 79
2
170
0
171
1
172
0
173
0
174
0
175
0
176
0
177
0
178
0
270
2
179
2
271
2
272
2
273
2
274
2
275
0
280
0
281
0
282
0
283
1
284
8
285
0
286
0
287
3
288
0
340
11
278
44
341
216
342
216
343
216
344
216
  0
DIMSTYLE
105
21C
100
AcDbSymbolTableRecord
100
AcDbDimStyleTableRecord
  2
DIMSTYLE_1
 70
0
  3

  4

 40
1.0
 41
3.0
 42
0.5
 43
0.38
 44
1.5
 45
0.0
 46
0.0
 47
0.0
 48
0.0
140
3.0
141
0.09
142
0.0
143
25.4
144
1.0
145
0.0
146
1.0
147
0.75
 71
0
 72
0
 73
0
 74
0
 75
0
 76
0
 77
1
 78
8
 79
2
170
0
171
1
172
0
173
0
174
0
175
0
176
0
177
0
178
0
270
2
179
2
271
1
272
1
273
2
274
2
275
0
280
0
281
0
282
0
283
1
284
8
285
0
286
0
287
3
288
0
340
11
278
44
341
216
342
216
343
216
344
216
  0
DIMSTYLE
105
21D
100
AcDbSymbolTableRecord
100
AcDbDimStyleTableRecord
  2
DIMSTYLE_2
 70
0
  3

  4

 40
1.0
 41
3.0
 42
0.5
 43
0.38
 44
1.5
 45
0.0
 46
0.0
 47
0.0
 48
0.0
140
3.0
141
0.09
142
0.0
143
25.4
144
1.0
145
0.0
146
1.0
147
0.75
 71
0
 72
0
 73
0
 74
0
 75
0
 76
0
 77
1
 78
8
 79
2
170
0
171
1
172
0
173
0
174
0
175
0
176
0
177
0
178
0
270
2
179
2
271
2
272
2
273
2
274
2
275
0
280
0
281
0
282
0
283
1
284
8
285
0
286
0
287
3
288
0
340
11
278
44
341
216
342
216
343
216
344
216
  0
ENDTAB
  0
ENDSEC
  0
SECTION
  2
BLOCKS
  0
BLOCK
  5
20
100
AcDbEntity
  8
0
100
AcDbBlockBegin
  2
*Model_Space
 70
0
 10
0.0
 20
0.0
 30
0.0
  3
*Model_Space
  1

  0
ENDBLK
  5
21
100
AcDbEntity
  8
0
100
AcDbBlockEnd
  0
BLOCK
  5
1C
100
AcDbEntity
  8
0
100
AcDbBlockBegin
  2
*Paper_Space
 70
0
 10
0.0
 20
0.0
 30
0.0
  3
*Paper_Space
  1

  0
ENDBLK
  5
1D
100
AcDbEntity
  8
0
100
AcDbBlockEnd
  0
BLOCK
  5
21E
100
AcDbEntity
  8
0
100
AcDbBlockBegin
  2
_FILLED
 70
64
 10
0.0
 20
0.0
  3
_FILLED
  1

  0
SOLID
  5
21F
100
AcDbEntity
  8
0
  6
BYBLOCK
 62
0
100
AcDbTrace
 10
0.0
 20
0.0
 11
-1.0
 21
0.3166666667
 12
-1.0
 22
-0.3166666667
 13
-1.0
 23
-0.3166666667
  0
ENDBLK
  5
220
100
AcDbEntity
  8
0
  6
BYBLOCK
 62
0
100
AcDbBlockEnd
  0
BLOCK
  5
221
100
AcDbEntity
  8
0
100
AcDbBlockBegin
 62
7
  6
CONTINUOUS
  2
*D0
 70
65
 10
0.0
 20
0.0
  3
*D0
  1

  0
MTEXT
  5
222
100
AcDbEntity
  8
0
100
AcDbMText
 62
7
  6
CONTINUOUS
  7
STANDARD
 71
2
 72
1
 10
78.1636341384
 20
112.1212214941
 30
0.0
 11
1.0
 21
0.0
 31
0.0
 73
2
 44
0.9
  1
{\ftxt;\W0.0001;\H0.0001;\~}{\ftxt;\W2.9285714286;\H3.0; }{\ftxt;\W0.0001;\H0.0001;\~}
 40
3.0
 41
13.1785714286
  0
LINE
  5
223
100
AcDbEntity
  8
0
100
AcDbLine
 62
7
  6
CONTINUOUS
 10
55.8762274124
 20
93.0892691676
 11
55.8762274124
 21
109.8712214941
  0
LINE
  5
224
100
AcDbEntity
  8
0
100
AcDbLine
 62
7
  6
CONTINUOUS
 10
100.4510408644
 20
93.0892691676
 11
100.4510408644
 21
109.8712214941
  0
LINE
  5
225
100
AcDbEntity
  8
0
100
AcDbLine
 62
7
  6
CONTINUOUS
 10
55.8762274124
 20
108.3712214941
 11
78.1636341384
 21
108.3712214941
  0
LINE
  5
226
100
AcDbEntity
  8
0
100
AcDbLine
 62
7
  6
CONTINUOUS
 10
100.4510408644
 20
108.3712214941
 11
78.1636341384
 21
108.3712214941
  0
INSERT
  5
227
100
AcDbEntity
  8
0
100
AcDbBlockReference
 62
7
  6
CONTINUOUS
  2
_FILLED
 10
55.8762274124
 20
108.3712214941
 41
3.0
 42
3.0
 43
3.0
 50
180.0
  0
INSERT
  5
228
100
AcDbEntity
  8
0
100
AcDbBlockReference
 62
7
  6
CONTINUOUS
  2
_FILLED
 10
100.4510408644
 20
108.3712214941
 41
3.0
 42
3.0
 43
3.0
  0
ENDBLK
  5
229
100
AcDbEntity
  8
0
  6
BYBLOCK
 62
0
100
AcDbBlockEnd
  0
BLOCK
  5
22A
100
AcDbEntity
  8
0
100
AcDbBlockBegin
 62
7
  6
CONTINUOUS
  2
*D1
 70
65
 10
0.0
 20
0.0
  3
*D1
  1

  0
MTEXT
  5
22B
100
AcDbEntity
  8
0
100
AcDbMText
 62
7
  6
CONTINUOUS
  7
STANDARD
 71
2
 72
1
 10
111.5302340778
 20
70.9768276762
 30
0.0
 11
0.0
 21
1.0
 31
0.0
 73
2
 44
0.9
  1
{\ftxt;\W0.0001;\H0.0001;\~}{\ftxt;\W2.9285714286;\H3.0; }{\ftxt;\W0.0001;\H0.0001;\~}
 40
3.0
 41
13.1785714286
  0
LINE
  5
22C
100
AcDbEntity
  8
0
100
AcDbLine
 62
7
  6
CONTINUOUS
 10
100.451726097
 20
93.0885839349
 11
116.7802340778
 21
93.0885839349
  0
LINE
  5
22D
100
AcDbEntity
  8
0
100
AcDbLine
 62
7
  6
CONTINUOUS
 10
100.451726097
 20
48.8650714175
 11
116.7802340778
 21
48.8650714175
  0
LINE
  5
22E
100
AcDbEntity
  8
0
100
AcDbLine
 62
7
  6
CONTINUOUS
 10
115.2802340778
 20
93.0885839349
 11
115.2802340778
 21
70.9768276762
  0
LINE
  5
22F
100
AcDbEntity
  8
0
100
AcDbLine
 62
7
  6
CONTINUOUS
 10
115.2802340778
 20
48.8650714175
 11
115.2802340778
 21
70.9768276762
  0
INSERT
  5
230
100
AcDbEntity
  8
0
100
AcDbBlockReference
 62
7
  6
CONTINUOUS
  2
_FILLED
 10
115.2802340778
 20
93.0885839349
 41
3.0
 42
3.0
 43
3.0
 50
90.0
  0
INSERT
  5
231
100
AcDbEntity
  8
0
100
AcDbBlockReference
 62
7
  6
CONTINUOUS
  2
_FILLED
 10
115.2802340778
 20
48.8650714175
 41
3.0
 42
3.0
 43
3.0
 50
270.0
  0
ENDBLK
  5
232
100
AcDbEntity
  8
0
  6
BYBLOCK
 62
0
100
AcDbBlockEnd
  0
BLOCK
  5
233
100
AcDbEntity
  8
0
100
AcDbBlockBegin
 62
7
  6
CONTINUOUS
  2
*D2
 70
65
 10
0.0
 20
0.0
  3
*D2
  1

  0
MTEXT
  5
234
100
AcDbEntity
  8
0
100
AcDbMText
 62
7
  6
CONTINUOUS
  7
STANDARD
 71
3
 72
1
 10
17.4214931524
 20
120.1212214941
 30
0.0
 11
1.0
 21
0.0
 31
0.0
 73
2
 44
0.9
  1
{\ftxt;\W0.0001;\H0.0001;\~}{\ftxt;\W0.7142857143;\H3.0; }{\ftxt;\W0.0001;\H0.0001;\~}
 40
3.0
 41
3.2142857143
  0
LINE
  5
235
100
AcDbEntity
  8
0
100
AcDbLine
 62
7
  6
CONTINUOUS
 10
29.4603178999
 20
84.7300858942
 11
29.4603178999
 21
117.8712214941
  0
LINE
  5
236
100
AcDbEntity
  8
0
100
AcDbLine
 62
7
  6
CONTINUOUS
 10
24.4641196843
 20
69.9768354137
 11
24.4641196843
 21
117.8712214941
  0
LINE
  5
237
100
AcDbEntity
  8
0
100
AcDbLine
 62
7
  6
CONTINUOUS
 10
29.4603178999
 20
116.3712214941
 11
33.4603178999
 21
116.3712214941
  0
LINE
  5
238
100
AcDbEntity
  8
0
100
AcDbLine
 62
7
  6
CONTINUOUS
 10
33.4603178999
 20
116.3712214941
 11
26.9622187921
 21
116.3712214941
  0
LINE
  5
239
100
AcDbEntity
  8
0
100
AcDbLine
 62
7
  6
CONTINUOUS
 10
24.4641196843
 20
116.3712214941
 11
15.2786360095
 21
116.3712214941
  0
LINE
  5
23A
100
AcDbEntity
  8
0
100
AcDbLine
 62
7
  6
CONTINUOUS
 10
15.2786360095
 20
116.3712214941
 11
26.9622187921
 21
116.3712214941
  0
INSERT
  5
23B
100
AcDbEntity
  8
0
100
AcDbBlockReference
 62
7
  6
CONTINUOUS
  2
_FILLED
 10
29.4603178999
 20
116.3712214941
 41
3.0
 42
3.0
 43
3.0
 50
180.0
  0
INSERT
  5
23C
100
AcDbEntity
  8
0
100
AcDbBlockReference
 62
7
  6
CONTINUOUS
  2
_FILLED
 10
24.4641196843
 20
116.3712214941
 41
3.0
 42
3.0
 43
3.0
  0
ENDBLK
  5
23D
100
AcDbEntity
  8
0
  6
BYBLOCK
 62
0
100
AcDbBlockEnd
  0
BLOCK
  5
23E
100
AcDbEntity
  8
0
100
AcDbBlockBegin
 62
7
  6
CONTINUOUS
  2
*D3
 70
65
 10
0.0
 20
0.0
  3
*D3
  1

  0
MTEXT
  5
23F
100
AcDbEntity
  8
0
100
AcDbMText
 62
7
  6
CONTINUOUS
  7
STANDARD
 71
3
 72
1
 10
18.538673211
 20
112.1212214941
 30
0.0
 11
1.0
 21
0.0
 31
0.0
 73
2
 44
0.9
  1
{\ftxt;\W0.0001;\H0.0001;\~}{\ftxt;\W2.0714285714;\H3.0; }{\ftxt;\W0.0001;\H0.0001;\~}
 40
3.0
 41
9.3214285714
  0
LINE
  5
240
100
AcDbEntity
  8
0
100
AcDbLine
 62
7
  6
CONTINUOUS
 10
28.1603178999
 20
93.0892691676
 11
28.1603178999
 21
109.8712214941
  0
LINE
  5
241
100
AcDbEntity
  8
0
100
AcDbLine
 62
7
  6
CONTINUOUS
 10
24.4613083023
 20
71.4768276762
 11
24.4613083023
 21
109.8712214941
  0
LINE
  5
242
100
AcDbEntity
  8
0
100
AcDbLine
 62
7
  6
CONTINUOUS
 10
28.1603178999
 20
108.3712214941
 11
32.1603178999
 21
108.3712214941
  0
LINE
  5
243
100
AcDbEntity
  8
0
100
AcDbLine
 62
7
  6
CONTINUOUS
 10
32.1603178999
 20
108.3712214941
 11
26.3108131011
 21
108.3712214941
  0
LINE
  5
244
100
AcDbEntity
  8
0
100
AcDbLine
 62
7
  6
CONTINUOUS
 10
24.4613083023
 20
108.3712214941
 11
12.3243874967
 21
108.3712214941
  0
LINE
  5
245
100
AcDbEntity
  8
0
100
AcDbLine
 62
7
  6
CONTINUOUS
 10
12.3243874967
 20
108.3712214941
 11
26.3108131011
 21
108.3712214941
  0
INSERT
  5
246
100
AcDbEntity
  8
0
100
AcDbBlockReference
 62
7
  6
CONTINUOUS
  2
_FILLED
 10
28.1603178999
 20
108.3712214941
 41
3.0
 42
3.0
 43
3.0
 50
180.0
  0
INSERT
  5
247
100
AcDbEntity
  8
0
100
AcDbBlockReference
 62
7
  6
CONTINUOUS
  2
_FILLED
 10
24.4613083023
 20
108.3712214941
 41
3.0
 42
3.0
 43
3.0
  0
ENDBLK
  5
248
100
AcDbEntity
  8
0
  6
BYBLOCK
 62
0
100
AcDbBlockEnd
  0
ENDSEC
  0
SECTION
  2
ENTITIES
  0
DIMENSION
  5
249
100
AcDbEntity
  8
0
100
AcDbDimension
 62
7
  6
CONTINUOUS
  2
*D0
 10
100.4510408644
 20
108.3712214941
 11
77.7350617905
 21
108.3712214941
 70
160
 71
2
 72
2
 41
0.9
 42
44.574813452
  1
{\ftxt;\W0.0001;\H0.0001;\~}{\ftxt;\W2.9285714286;\H3.0; }{\ftxt;\W0.0001;\H0.0001;\~}
  3
DIMSTYLE_1
100
AcDbAlignedDimension
 13
55.8762274124
 23
92.5892691676
 14
100.4510408644
 24
92.5892691676
100
AcDbRotatedDimension
  0
DIMENSION
  5
24A
100
AcDbEntity
  8
0
100
AcDbDimension
 62
7
  6
CONTINUOUS
  2
*D1
 10
115.2802340778
 20
48.8650714175
 11
115.2802340778
 21
70.5482573448
 70
160
 71
2
 72
2
 41
0.9
 42
44.2235125174
  1
{\ftxt;\W0.0001;\H0.0001;\~}{\ftxt;\W2.9285714286;\H3.0; }{\ftxt;\W0.0001;\H0.0001;\~}
  3
DIMSTYLE_1
100
AcDbAlignedDimension
 13
99.951726097
 23
93.0885839349
 14
99.951726097
 24
48.8650714175
 50
270.0
100
AcDbRotatedDimension
  0
DIMENSION
  5
24B
100
AcDbEntity
  8
0
100
AcDbDimension
 62
7
  6
CONTINUOUS
  2
*D2
 10
24.4641196843
 20
116.3712214941
 11
15.9214932346
 21
116.3712214941
 70
160
 71
3
 72
2
 41
0.9
 42
4.9961982156
  1
{\ftxt;\W0.0001;\H0.0001;\~}{\ftxt;\W0.7142857143;\H3.0; }{\ftxt;\W0.0001;\H0.0001;\~}
  3
DIMSTYLE_2
100
AcDbAlignedDimension
 13
29.4603178999
 23
84.2300858942
 14
24.4641196843
 24
69.4768354137
 50
180.0
100
AcDbRotatedDimension
  0
DIMENSION
  5
24C
100
AcDbEntity
  8
0
100
AcDbDimension
 62
7
  6
CONTINUOUS
  2
*D3
 10
24.4613083023
 20
108.3712214941
 11
15.0029587841
 21
108.3712214941
 70
160
 71
3
 72
2
 41
0.9
 42
3.6990095976
  1
{\ftxt;\W0.0001;\H0.0001;\~}{\ftxt;\W2.0714285714;\H3.0; }{\ftxt;\W0.0001;\H0.0001;\~}
  3
DIMSTYLE_2
100
AcDbAlignedDimension
 13
28.1603178999
 23
92.5892691676
 14
24.4613083023
 24
70.9768276762
 50
180.0
100
AcDbRotatedDimension
  0
LWPOLYLINE
  5
24D
100
AcDbEntity
  8
0
100
AcDbPolyline
 62
7
  6
CONTINUOUS
 90
10
 70
0
 43
0.3500000006
 10
81.2707761841
 20
112.1212203369
 10
80.6279227295
 20
111.4783668823
 10
80.199344696
 20
110.6212198792
 10
80.199344696
 20
109.5497883911
 10
80.6279227295
 20
109.1212194214
 10
81.2707761841
 20
109.1212194214
 10
81.6993451538
 20
109.5497883911
 10
81.6993451538
 20
110.4069353943
 10
81.2707761841
 20
110.835504364
 10
80.3422070618
 20
110.835504364
  0
LWPOLYLINE
  5
24E
100
AcDbEntity
  8
RACCORDO
100
AcDbPolyline
 62
250
  6
CONTINUOUS
 90
16
 70
0
 10
99.8659779052
 20
48.9508196093
 10
99.9180806876
 20
48.9536881672
 10
99.9696145286
 20
48.9619770822
 10
100.0200167685
 20
48.9755958326
 10
100.0687371211
 20
48.9943957114
 10
100.1152436363
 20
49.0181714336
 10
100.1590285156
 20
49.0466633635
 10
100.1996137193
 20
49.0795603839
 10
100.2365561635
 20
49.1165032977
 10
100.2694525221
 20
49.1570887191
 10
100.2979436581
 20
49.2008734998
 10
100.3217185479
 20
49.2473795839
 10
100.3405176602
 20
49.2960992162
 10
100.3541357841
 20
49.3465004732
 10
100.3624242734
 20
49.3980330691
 10
100.3652926726
 20
49.4501343767
  0
LWPOLYLINE
  5
24F
100
AcDbEntity
  8
RACCORDO
100
AcDbPolyline
 62
250
  6
CONTINUOUS
 90
16
 70
0
 10
56.4612903891
 20
48.9508196269
 10
56.4091882664
 20
48.9536881136
 10
56.3576549982
 20
48.9619768344
 10
56.3072532282
 20
48.9755952926
 10
56.2585332465
 20
48.994394801
 10
56.212026981
 20
49.0181701052
 10
56.1682421903
 20
49.0466616248
 10
56.1276569198
 20
49.0795582875
 10
56.0907142821
 20
49.1165009252
 10
56.0578176195
 20
49.1570861958
 10
56.0293261
 20
49.2008709865
 10
56.0055507958
 20
49.247377252
 10
55.9867512875
 20
49.2960972337
 10
55.9731328293
 20
49.3464990036
 10
55.9648441085
 20
49.3980322717
 10
55.9619756218
 20
49.4501343943
  0
LINE
  5
250
100
AcDbEntity
  8
RACCORDO
100
AcDbLine
 62
250
  6
CONTINUOUS
 10
56.4689309859
 20
92.8718961419
 11
56.4711734657
 21
92.7844937474
  0
LINE
  5
251
100
AcDbEntity
  8
RACCORDO
100
AcDbLine
 62
250
  6
CONTINUOUS
 10
55.9929524774
 20
92.1171747741
 11
55.9949320071
 21
92.0261373601
  0
LINE
  5
252
100
AcDbEntity
  8
RACCORDO
100
AcDbLine
 62
250
  6
CONTINUOUS
 10
56.4711734657
 20
92.7844937474
 11
56.4731671926
 21
92.6777615935
  0
LINE
  5
253
100
AcDbEntity
  8
RACCORDO
100
AcDbLine
 62
250
  6
CONTINUOUS
 10
55.9949320071
 20
92.0261373601
 11
55.9962175093
 21
91.931452386
  0
LINE
  5
254
100
AcDbEntity
  8
RACCORDO
100
AcDbLine
 62
250
  6
CONTINUOUS
 10
56.4731671926
 20
92.6777615935
 11
56.475653315
 21
92.4861521016
  0
LINE
  5
255
100
AcDbEntity
  8
RACCORDO
100
AcDbLine
 62
250
  6
CONTINUOUS
 10
56.475653315
 20
92.4861521016
 11
56.4778353988
 21
92.1854989456
  0
LINE
  5
256
100
AcDbEntity
  8
RACCORDO
100
AcDbLine
 62
250
  6
CONTINUOUS
 10
55.9962175093
 20
91.931452386
 11
55.9967957109
 21
91.8338664129
  0
LWPOLYLINE
  5
257
100
AcDbEntity
  8
RACCORDO
100
AcDbPolyline
 62
250
  6
CONTINUOUS
 90
9
 70
0
 10
55.9967957109
 20
91.8338664129
 10
56.0059237852
 20
87.2005234445
 10
56.0127698409
 20
82.5664030817
 10
56.0173338777
 20
77.9315053244
 10
56.0196158957
 20
73.295311823
 10
56.0196158949
 20
68.6583409271
 10
56.0173338759
 20
64.0221476859
 10
56.0127698391
 20
59.3872504491
 10
56.005923784
 20
54.753130867
  0
LWPOLYLINE
  5
258
100
AcDbEntity
  8
RACCORDO
100
AcDbPolyline
 62
250
  6
CONTINUOUS
 90
8
 70
0
 10
56.4857802739
 20
87.2175846792
 10
56.4911964811
 20
82.5786436966
 10
56.4948072866
 20
77.9385192562
 10
56.4966126889
 20
73.2975121788
 10
56.4966126879
 20
68.6561392284
 10
56.4948072844
 20
64.0151325458
 10
56.4911964789
 20
59.3750088947
 10
56.4857802724
 20
54.7360690955
  0
LINE
  5
259
100
AcDbEntity
  8
RACCORDO
100
AcDbLine
 62
250
  6
CONTINUOUS
 10
56.4778353988
 20
92.1854989456
 11
56.4857802739
 21
87.2175846792
  0
LINE
  5
25A
100
AcDbEntity
  8
0
100
AcDbLine
 62
7
  6
CONTINUOUS
 10
55.8762274124
 20
92.5892691676
 11
55.8762274124
 21
49.3643861849
  0
LINE
  5
25B
100
AcDbEntity
  8
RACCORDO
100
AcDbLine
 62
250
  6
CONTINUOUS
 10
56.4857802724
 20
54.7360690955
 11
56.4783773672
 21
49.931271595
  0
LINE
  5
25C
100
AcDbEntity
  8
RACCORDO
100
AcDbLine
 62
250
  6
CONTINUOUS
 10
56.005923784
 20
54.753130867
 11
55.9965945343
 21
50.0706099743
  0
LINE
  5
25D
100
AcDbEntity
  8
RACCORDO
100
AcDbLine
 62
250
  6
CONTINUOUS
 10
56.4783773672
 20
49.931271595
 11
56.4769207622
 21
49.6125616475
  0
LINE
  5
25E
100
AcDbEntity
  8
RACCORDO
100
AcDbLine
 62
250
  6
CONTINUOUS
 10
56.4769207622
 20
49.6125616475
 11
56.474906287
 21
49.3998324093
  0
LINE
  5
25F
100
AcDbEntity
  8
RACCORDO
100
AcDbLine
 62
250
  6
CONTINUOUS
 10
55.9965945343
 20
50.0706099743
 11
55.9956650886
 21
49.9746107645
  0
LINE
  5
260
100
AcDbEntity
  8
RACCORDO
100
AcDbLine
 62
250
  6
CONTINUOUS
 10
56.474906287
 20
49.3998324093
 11
56.4731674633
 21
49.2758923581
  0
LWPOLYLINE
  5
261
100
AcDbEntity
  8
RACCORDO
100
AcDbPolyline
 62
250
  6
CONTINUOUS
 90
18
 70
0
 10
55.9956650886
 20
49.9746107645
 10
55.9940239958
 20
49.8812581165
 10
55.9929531888
 20
49.8365087523
 10
55.9917176439
 20
49.7933371664
 10
55.9903196872
 20
49.7516994201
 10
55.9887795827
 20
49.7122112971
 10
55.9870950646
 20
49.6749026352
 10
55.9852683988
 20
49.6397435964
 10
55.9833266467
 20
49.6072604513
 10
55.9812681021
 20
49.5774949507
 10
55.9790944711
 20
49.5504053437
 10
55.9768379335
 20
49.526392647
 10
55.9744961198
 20
49.5055016154
 10
55.9720713994
 20
49.4876874942
 10
55.9696030605
 20
49.4732170362
 10
55.9671041994
 20
49.462179159
 10
55.9645617198
 20
49.454484945
 10
55.9619756218
 20
49.4501343943
  0
LINE
  5
262
100
AcDbEntity
  8
RACCORDO
100
AcDbLine
 62
250
  6
CONTINUOUS
 10
56.4731674633
 20
49.2758923581
 11
56.4711736931
 21
49.1691606477
  0
LWPOLYLINE
  5
263
100
AcDbEntity
  8
RACCORDO
100
AcDbPolyline
 62
250
  6
CONTINUOUS
 90
8
 70
0
 10
56.4711736931
 20
49.1691606477
 10
56.4689310986
 20
49.0817586031
 10
56.4677455556
 20
49.0458695829
 10
56.4665003199
 20
49.0154332059
 10
56.4652406068
 20
48.9905985244
 10
56.4639719039
 20
48.9714906735
 10
56.4626600424
 20
48.9582081348
 10
56.4612903891
 20
48.9508196269
  0
LWPOLYLINE
  5
264
100
AcDbEntity
  8
RACCORDO
100
AcDbPolyline
 62
250
  6
CONTINUOUS
 90
14
 70
0
 10
99.946554664
 20
50.0994939587
 10
99.9940232125
 20
50.1001806093
 10
100.0399003112
 20
50.1010588637
 10
100.0837376689
 20
50.1021201399
 10
100.1251069261
 20
50.1033540676
 10
100.1636038405
 20
50.1047485894
 10
100.1988522369
 20
50.1062900785
 10
100.2305076835
 20
50.1079634724
 10
100.258260857
 20
50.1097524192
 10
100.2818405655
 20
50.1116394382
 10
100.3010163983
 20
50.1136060902
 10
100.3156009775
 20
50.115633158
 10
100.325451789
 20
50.117700834
 10
100.330472575
 20
50.1197889137
  0
LINE
  5
265
100
AcDbEntity
  8
RACCORDO
100
AcDbLine
 62
250
  6
CONTINUOUS
 10
99.8487096037
 20
50.0987203693
 11
99.946554664
 21
50.0994939587
  0
LINE
  5
266
100
AcDbEntity
  8
RACCORDO
100
AcDbLine
 62
250
  6
CONTINUOUS
 10
56.461290388
 20
48.9508196258
 11
63.2284515714
 21
48.9613968027
  0
LINE
  5
267
100
AcDbEntity
  8
RACCORDO
100
AcDbLine
 62
250
  6
CONTINUOUS
 10
63.2284515714
 20
48.9613968027
 11
69.9713576768
 21
48.9680502671
  0
LINE
  5
268
100
AcDbEntity
  8
RACCORDO
100
AcDbLine
 62
250
  6
CONTINUOUS
 10
56.4785586664
 20
50.0987204298
 11
69.9794398012
 21
50.1055267765
  0
LINE
  5
269
100
AcDbEntity
  8
RACCORDO
100
AcDbLine
 62
250
  6
CONTINUOUS
 10
69.9713576768
 20
48.9680502671
 11
76.7771089994
 21
48.9708317893
  0
LINE
  5
26A
100
AcDbEntity
  8
0
100
AcDbLine
 62
7
  6
CONTINUOUS
 10
56.3755421798
 20
48.8650714175
 11
99.951726097
 21
48.8650714175
  0
LINE
  5
26B
100
AcDbEntity
  8
RACCORDO
100
AcDbLine
 62
250
  6
CONTINUOUS
 10
76.7771089994
 20
48.9708317893
 11
83.8459179747
 21
48.9695361402
  0
LINE
  5
26C
100
AcDbEntity
  8
RACCORDO
100
AcDbLine
 62
250
  6
CONTINUOUS
 10
69.9794398012
 20
50.1055267765
 11
88.8399256329
 21
50.1047456859
  0
LINE
  5
26D
100
AcDbEntity
  8
RACCORDO
100
AcDbLine
 62
250
  6
CONTINUOUS
 10
88.8399256329
 20
50.1047456859
 11
99.8487096038
 21
50.0987204034
  0
LINE
  5
26E
100
AcDbEntity
  8
RACCORDO
100
AcDbLine
 62
250
  6
CONTINUOUS
 10
83.8459179747
 20
48.9695361402
 11
88.8441219363
 21
48.9660781041
  0
LINE
  5
26F
100
AcDbEntity
  8
RACCORDO
100
AcDbLine
 62
250
  6
CONTINUOUS
 10
88.8441219363
 20
48.9660781041
 11
94.1751510957
 21
48.959895244
  0
LINE
  5
270
100
AcDbEntity
  8
RACCORDO
100
AcDbLine
 62
250
  6
CONTINUOUS
 10
94.1751510957
 20
48.959895244
 11
99.8659779052
 21
48.9508196093
  0
LWPOLYLINE
  5
271
100
AcDbEntity
  8
RACCORDO
100
AcDbPolyline
 62
250
  6
CONTINUOUS
 90
15
 70
0
 10
56.4785591075
 20
50.0987209416
 10
56.3807150109
 20
50.0994945033
 10
56.3332468898
 20
50.1001811316
 10
56.2873701638
 20
50.1010593586
 10
56.2435331112
 20
50.1021206025
 10
56.2021640798
 20
50.1033544938
 10
56.1636673015
 20
50.1047489755
 10
56.1284189423
 20
50.1062904218
 10
56.0967634268
 20
50.1079637704
 10
56.0690100726
 20
50.1097526706
 10
56.0454300678
 20
50.1116396424
 10
56.0262538212
 20
50.1136062474
 10
56.011668711
 20
50.1156332693
 10
56.0018172535
 20
50.1177009012
 10
55.9967957109
 20
50.1197889396
  0
LWPOLYLINE
  5
272
100
AcDbEntity
  8
RACCORDO
100
AcDbPolyline
 62
250
  6
CONTINUOUS
 90
7
 70
0
 10
56.4612903891
 20
93.0028357256
 10
56.4626600071
 20
92.9954470459
 10
56.4639718403
 20
92.9821642312
 10
56.4652405219
 20
92.9630561011
 10
56.4665002272
 20
92.9382213131
 10
56.4677454604
 20
92.9077850525
 10
56.4689309859
 20
92.8718961419
  0
LWPOLYLINE
  5
273
100
AcDbEntity
  8
0
100
AcDbPolyline
 62
7
  6
CONTINUOUS
 90
3
 70
0
 43
0.3500000006
 10
79.1993443909
 20
109.4069350891
 10
79.1279222717
 20
109.1926506042
 10
78.985059906
 20
108.9069349365
  0
LWPOLYLINE
  5
274
100
AcDbEntity
  8
RACCORDO
100
AcDbPolyline
 62
250
  6
CONTINUOUS
 90
16
 70
0
 10
55.9619756217
 20
92.5035209582
 10
55.9645612942
 20
92.4991718037
 10
55.9671034179
 20
92.4914793751
 10
55.9696019927
 20
92.4804436723
 10
55.9720701344
 20
92.4659756958
 10
55.9744947273
 20
92.4481644452
 10
55.9768364244
 20
92.4272769189
 10
55.9790928133
 20
92.4032689615
 10
55.9812663064
 20
92.3761847286
 10
55.9833247938
 20
92.3464236848
 10
55.9852666054
 20
92.3139437463
 10
55.9870934113
 20
92.2787869969
 10
55.9887781114
 20
92.2414791534
 10
55.9903184525
 20
92.2019897644
 10
55.9917166879
 20
92.1603492813
 10
55.9929524774
 20
92.1171747741
  0
LWPOLYLINE
  5
275
100
AcDbEntity
  8
0
100
AcDbPolyline
 62
7
  6
CONTINUOUS
 90
2
 70
0
 43
0.3500000006
 10
74.7707787323
 20
109.1212194214
 10
74.7707787323
 20
110.6212198792
  0
LWPOLYLINE
  5
276
100
AcDbEntity
  8
0
100
AcDbPolyline
 62
7
  6
CONTINUOUS
 90
2
 70
0
 43
0.3500000006
 10
114.53023526
 20
67.5839729919
 10
113.0302348022
 20
67.5839729919
  0
LWPOLYLINE
  5
277
100
AcDbEntity
  8
0
100
AcDbPolyline
 62
7
  6
CONTINUOUS
 90
43
 70
0
 10
77.1869804645
 20
69.407980297
 10
77.1941454781
 20
69.3399516053
 10
77.2060649941
 20
69.2727498441
 10
77.2228674708
 20
69.2059634704
 10
77.2444244509
 20
69.1400040273
 10
77.2703505616
 20
69.0761061408
 10
77.3007362191
 20
69.0143665943
 10
77.3354910085
 20
68.9546885986
 10
77.3739583112
 20
68.8980164168
 10
77.4160504565
 20
68.8445271698
 10
77.4618551163
 20
68.7940437272
 10
77.5109786848
 20
68.7469789725
 10
77.5634459612
 20
68.7032692822
 10
77.6192321472
 20
68.6629782703
 10
77.67786924
 20
68.626709675
 10
77.7397350504
 20
68.5944051695
 10
77.8044517677
 20
68.5661230718
 10
77.8704179568
 20
68.5426420847
 10
77.9380324426
 20
68.5242691148
 10
78.0068963991
 20
68.510697248
 10
78.074211914
 20
68.5017844554
 10
78.1380304485
 20
68.4974773774
 10
78.2003005398
 20
68.4978293693
 10
78.2640698893
 20
68.5028584755
 10
78.3313656517
 20
68.5125785894
 10
78.4001606709
 20
68.526975822
 10
78.4674211821
 20
68.5460265453
 10
78.5325702852
 20
68.5699754728
 10
78.5961848796
 20
68.5985778981
 10
78.6569619007
 20
68.6310760619
 10
78.7145950785
 20
68.6673912933
 10
78.7693906834
 20
68.7076022717
 10
78.8209644617
 20
68.7511872612
 10
78.869332168
 20
68.7981117807
 10
78.9144780486
 20
68.8484103205
 10
78.9559705886
 20
68.901664601
 10
78.9938856707
 20
68.9580571024
 10
79.0281474133
 20
69.0174053536
 10
79.0580966551
 20
69.0787436457
 10
79.083632675
 20
69.1421129485
 10
79.1048561954
 20
69.2074722975
 10
79.1214102197
 20
69.2737330775
 10
79.1331757495
 20
69.3405324162
  0
LINE
  5
278
100
AcDbEntity
  8
0
100
AcDbLine
 62
7
  6
CONTINUOUS
 10
77.1845699532
 20
69.4768359195
 11
77.1869804645
 21
69.407980297
  0
LWPOLYLINE
  5
279
100
AcDbEntity
  8
0
100
AcDbPolyline
 62
7
  6
CONTINUOUS
 90
2
 70
0
 43
0.3500000006
 10
77.1279216614
 20
109.1212194214
 10
77.1279216614
 20
110.6212198792
  0
LINE
  5
27A
100
AcDbEntity
  8
0
100
AcDbLine
 62
7
  6
CONTINUOUS
 10
77.1845699532
 20
72.4768180842
 11
77.1845699532
 21
69.4768359195
  0
LINE
  5
27B
100
AcDbEntity
  8
DRAFT
100
AcDbLine
 62
7
  6
CONTINUOUS
 10
77.1845699524
 20
69.4768359206
 11
77.1845699532
 21
72.4768180664
  0
LWPOLYLINE
  5
27C
100
AcDbEntity
  8
DRAFT
100
AcDbPolyline
 62
7
  6
CONTINUOUS
 90
40
 70
0
 10
77.1845699532
 20
72.4768180664
 10
77.1880260579
 20
72.5570657515
 10
77.197627682
 20
72.6356482043
 10
77.2133748258
 20
72.7125654267
 10
77.2354558862
 20
72.7882554398
 10
77.2636824679
 20
72.8622802251
 10
77.2974893833
 20
72.9333257288
 10
77.3370151596
 20
73.0013874257
 10
77.3821212719
 20
73.0664698507
 10
77.4318269545
 20
73.1272725455
 10
77.4860889921
 20
73.1836236192
 10
77.5449506019
 20
73.2356949777
 10
77.6075606652
 20
73.282701862
 10
77.6741704996
 20
73.3246781961
 10
77.7445287884
 20
73.3615900705
 10
77.817030461
 20
73.3925509787
 10
77.8915502509
 20
73.4173725084
 10
77.9682134235
 20
73.4362430837
 10
78.0457907055
 20
73.448841454
 10
78.1244887738
 20
73.4550584389
 10
78.2041009492
 20
73.4550032228
 10
78.2827779248
 20
73.448682101
 10
78.3603146216
 20
73.4359844261
 10
78.4369161163
 20
73.4170208413
 10
78.5113483358
 20
73.3921295773
 10
78.5837243065
 20
73.3611293702
 10
78.6539310008
 20
73.324201472
 10
78.7203952647
 20
73.2822278879
 10
78.7828685625
 20
73.2352537355
 10
78.8415994307
 20
73.1832338827
 10
78.895760325
 20
73.126914963
 10
78.945413541
 20
73.0660999115
 10
78.990496785
 20
73.0009857778
 10
79.0299956287
 20
72.9329103713
 10
79.0637567144
 20
72.8618799393
 10
79.0919334022
 20
72.7878882247
 10
79.1139713415
 20
72.7122542861
 10
79.1296857493
 20
72.6354178099
 10
79.1392614102
 20
72.5569391069
 10
79.1426983245
 20
72.4768181756
  0
LWPOLYLINE
  5
27D
100
AcDbEntity
  8
0
100
AcDbPolyline
 62
7
  6
CONTINUOUS
 90
3
 70
0
 10
77.1940781599
 20
72.6130839448
 10
77.1869941131
 20
72.545415665
 10
77.1845699532
 20
72.4768180842
  0
LINE
  5
27E
100
AcDbEntity
  8
0
100
AcDbLine
 62
250
  6
CONTINUOUS
 10
55.9619756218
 20
49.4501343943
 11
55.8762274124
 21
49.3643861849
  0
LINE
  5
27F
100
AcDbEntity
  8
0
100
AcDbLine
 62
250
  6
CONTINUOUS
 10
99.8659779053
 20
93.0028357433
 11
99.951726097
 21
93.0885839349
  0
LINE
  5
280
100
AcDbEntity
  8
0
100
AcDbLine
 62
250
  6
CONTINUOUS
 10
56.461290388
 20
48.9508196258
 11
56.3755421798
 21
48.8650714175
  0
LWPOLYLINE
  5
281
100
AcDbEntity
  8
0
100
AcDbPolyline
 62
7
  6
CONTINUOUS
 90
2
 70
0
 43
0.3500000006
 10
114.53023526
 20
69.9411113892
 10
113.0302348022
 20
69.9411113892
  0
LINE
  5
282
100
AcDbEntity
  8
0
100
AcDbLine
 62
250
  6
CONTINUOUS
 10
55.8762274124
 20
92.5892691676
 11
55.9619756217
 21
92.5035209582
  0
LINE
  5
283
100
AcDbEntity
  8
0
100
AcDbLine
 62
250
  6
CONTINUOUS
 10
99.951726097
 20
48.8650714175
 11
99.8659779052
 21
48.9508196093
  0
LINE
  5
284
100
AcDbEntity
  8
0
100
AcDbLine
 62
250
  6
CONTINUOUS
 10
56.3755421798
 20
93.0885839349
 11
56.461290388
 21
93.0028357267
  0
LWPOLYLINE
  5
285
100
AcDbEntity
  8
0
100
AcDbPolyline
 62
7
  6
CONTINUOUS
 90
43
 70
0
 10
79.1402796663
 20
72.5458981787
 10
79.1330728359
 20
72.614139806
 10
79.1210778322
 20
72.6815430493
 10
79.1041609142
 20
72.748520927
 10
79.0824558218
 20
72.8146604206
 10
79.0563637766
 20
72.8787224779
 10
79.0257977399
 20
72.9406152769
 10
78.9908447489
 20
73.0004306454
 10
78.9521671391
 20
73.0572050107
 10
78.9098546125
 20
73.1107512284
 10
78.8638174657
 20
73.1612564524
 10
78.8144489266
 20
73.2083185598
 10
78.7617499413
 20
73.2519971437
 10
78.7057195626
 20
73.2922326204
 10
78.6467481784
 20
73.3284441027
 10
78.5843579145
 20
73.360725061
 10
78.5190266448
 20
73.3889820335
 10
78.4525783789
 20
73.4123537361
 10
78.384694256
 20
73.4304754146
 10
78.315693138
 20
73.4437118308
 10
78.2483556204
 20
73.4522959755
 10
78.1846482389
 20
73.4563034563
 10
78.1226044593
 20
73.4556586698
 10
78.0591052713
 20
73.4503677888
 10
77.992129872
 20
73.4404317498
 10
77.923699066
 20
73.4258496117
 10
77.8567562547
 20
73.4066247303
 10
77.7918127182
 20
73.3824832234
 10
77.7283571772
 20
73.3536989659
 10
77.6677991935
 20
73.3210969495
 10
77.6105153068
 20
73.2847977422
 10
77.5561289771
 20
73.2446807678
 10
77.5049201463
 20
73.2012093037
 10
77.4568318043
 20
73.1544043835
 10
77.4119209603
 20
73.1042449643
 10
77.3706385838
 20
73.0511312103
 10
77.3329209958
 20
72.9948774267
 10
77.298831874
 20
72.935669299
 10
77.2690132231
 20
72.8744640632
 10
77.2435492377
 20
72.8112248591
 10
77.2223557218
 20
72.7459885416
 10
77.2058220939
 20
72.679822924
 10
77.1940781599
 20
72.6130839448
  0
LINE
  5
286
100
AcDbEntity
  8
0
100
AcDbLine
 62
7
  6
CONTINUOUS
 10
79.1426983236
 20
72.476818167
 11
79.1402796663
 21
72.5458981787
  0
LINE
  5
287
100
AcDbEntity
  8
DRAFT
100
AcDbLine
 62
7
  6
CONTINUOUS
 10
79.1426983245
 20
72.4768181756
 11
79.1426983236
 21
69.4768354137
  0
LINE
  5
288
100
AcDbEntity
  8
0
100
AcDbLine
 62
7
  6
CONTINUOUS
 10
79.1426983236
 20
69.4768353884
 11
79.1426983236
 21
72.476818167
  0
LWPOLYLINE
  5
289
100
AcDbEntity
  8
DRAFT
100
AcDbPolyline
 62
7
  6
CONTINUOUS
 90
40
 70
0
 10
79.1426983236
 20
69.4768354137
 10
79.1393620653
 20
69.3973126879
 10
79.129901562
 20
69.3192974183
 10
79.1143168134
 20
69.2427896034
 10
79.0924408971
 20
69.1673296815
 10
79.064440734
 20
69.0933772122
 10
79.0308170879
 20
69.022310873
 10
78.9914370358
 20
68.9541484129
 10
78.9464334983
 20
68.8888720734
 10
78.8967060056
 20
68.8278072638
 10
78.8422068561
 20
68.7710763202
 10
78.7829837495
 20
68.7185568919
 10
78.7200793188
 20
68.6712073528
 10
78.6533268685
 20
68.6290804991
 10
78.5828930934
 20
68.5921235195
 10
78.5103207125
 20
68.5611363744
 10
78.4356731599
 20
68.5362856471
 10
78.3588870027
 20
68.5174047424
 10
78.2813146599
 20
68.5047938522
 10
78.2028665626
 20
68.4985588163
 10
78.1236322819
 20
68.4985937906
 10
78.045232947
 20
68.5048814416
 10
77.9677762609
 20
68.5175176676
 10
77.8911545229
 20
68.5364065745
 10
77.8166657562
 20
68.561243141
 10
77.7442343756
 20
68.5921873691
 10
77.6739359675
 20
68.6290792687
 10
77.6072953112
 20
68.671133829
 10
77.5444755936
 20
68.7183982488
 10
77.4853136272
 20
68.7708253445
 10
77.4308446292
 20
68.8274885288
 10
77.3811045717
 20
68.8885224798
 10
77.3360574807
 20
68.9537925341
 10
77.2966306538
 20
69.0219680876
 10
77.2629620714
 20
69.0930700495
 10
77.2349137507
 20
69.16707752
 10
77.212999044
 20
69.2425971743
 10
77.1973890679
 20
69.3191645701
 10
77.1879127042
 20
69.3972441518
 10
77.1845699524
 20
69.4768359206
  0
LWPOLYLINE
  5
28A
100
AcDbEntity
  8
0
100
AcDbPolyline
 62
7
  6
CONTINUOUS
 90
3
 70
0
 10
79.1331757495
 20
69.3405324162
 10
79.140271784
 20
69.4082331864
 10
79.1426983236
 20
69.4768353884
  0
LINE
  5
28B
100
AcDbEntity
  8
0
100
AcDbLine
 62
250
  6
CONTINUOUS
 10
100.3652926727
 20
92.5035209759
 11
100.4510408644
 21
92.5892691676
  0
LINE
  5
28C
100
AcDbEntity
  8
0
100
AcDbLine
 62
250
  6
CONTINUOUS
 10
100.4510408644
 20
49.3643861849
 11
100.3652926726
 21
49.4501343767
  0
LWPOLYLINE
  5
28D
100
AcDbEntity
  8
RACCORDO
100
AcDbPolyline
 62
250
  6
CONTINUOUS
 90
16
 70
0
 10
100.3652926726
 20
49.4501343767
 10
100.3627065746
 20
49.4544849275
 10
100.3601640951
 20
49.4621791414
 10
100.357665234
 20
49.4732170184
 10
100.3551968952
 20
49.4876874762
 10
100.3527721749
 20
49.5055015971
 10
100.3504303612
 20
49.5263926284
 10
100.3481738236
 20
49.5504053248
 10
100.3460001927
 20
49.5774949316
 10
100.3439416481
 20
49.607260432
 10
100.341999896
 20
49.639743577
 10
100.3401732302
 20
49.6749026155
 10
100.3384887122
 20
49.7122112774
 10
100.3369486077
 20
49.7516994003
 10
100.335550651
 20
49.7933371465
 10
100.3343151061
 20
49.8365087325
  0
LWPOLYLINE
  5
28E
100
AcDbEntity
  8
0
100
AcDbPolyline
 62
7
  6
CONTINUOUS
 90
3
 70
0
 43
0.3500000006
 10
114.2445195923
 20
72.0125431824
 10
114.4588040771
 20
71.9411119995
 10
114.7445197449
 20
71.7982586975
  0
LWPOLYLINE
  5
28F
100
AcDbEntity
  8
0
100
AcDbPolyline
 62
7
  6
CONTINUOUS
 90
10
 70
0
 43
0.3500000006
 10
114.0302351074
 20
71.9411119995
 10
114.1730884094
 20
72.0125431824
 10
114.2445195923
 20
72.0125431824
 10
114.3873728943
 20
71.8696808167
 10
114.3873728943
 20
71.7982586975
 10
114.3159507751
 20
71.7268275146
 10
114.2445195923
 20
71.7268275146
 10
114.1016662903
 20
71.7982586975
 10
114.0302351074
 20
71.8696808167
 10
114.0302351074
 20
71.9411119995
  0
LWPOLYLINE
  5
290
100
AcDbEntity
  8
0
100
AcDbPolyline
 62
7
  6
CONTINUOUS
 90
10
 70
0
 43
0.3500000006
 10
79.1279222717
 20
109.621219574
 10
79.1993443909
 20
109.478366272
 10
79.1993443909
 20
109.4069350891
 10
79.0564910889
 20
109.2640817871
 10
78.985059906
 20
109.2640817871
 10
78.9136377869
 20
109.3355039063
 10
78.9136377869
 20
109.4069350891
 10
78.985059906
 20
109.5497883911
 10
79.0564910889
 20
109.621219574
 10
79.1279222717
 20
109.621219574
  0
LWPOLYLINE
  5
291
100
AcDbEntity
  8
RACCORDO
100
AcDbPolyline
 62
250
  6
CONTINUOUS
 90
7
 70
0
 10
99.8659779052
 20
48.9508196093
 10
99.8646082475
 20
48.9582081167
 10
99.8632963815
 20
48.9714906547
 10
99.8620276742
 20
48.9905985048
 10
99.8607679565
 20
49.0154331859
 10
99.8595227164
 20
49.045869563
 10
99.858337169
 20
49.0817585834
  0
LINE
  5
292
100
AcDbEntity
  8
RACCORDO
100
AcDbLine
 62
250
  6
CONTINUOUS
 10
76.7825769018
 20
91.8470289563
 11
99.8487096043
 21
91.8549349481
  0
LINE
  5
293
100
AcDbEntity
  8
RACCORDO
100
AcDbLine
 62
250
  6
CONTINUOUS
 10
56.4785586665
 20
91.8549349218
 11
76.7825769018
 21
91.8470289563
  0
LINE
  5
294
100
AcDbEntity
  8
RACCORDO
100
AcDbLine
 62
250
  6
CONTINUOUS
 10
99.858337169
 20
49.0817585834
 11
99.8560945666
 21
49.169160628
  0
LINE
  5
295
100
AcDbEntity
  8
RACCORDO
100
AcDbLine
 62
250
  6
CONTINUOUS
 10
100.3343151061
 20
49.8365087325
 11
100.3323359047
 21
49.9275413013
  0
LINE
  5
296
100
AcDbEntity
  8
RACCORDO
100
AcDbLine
 62
250
  6
CONTINUOUS
 10
99.8560945666
 20
49.169160628
 11
99.8541007891
 21
49.2758923388
  0
LINE
  5
297
100
AcDbEntity
  8
RACCORDO
100
AcDbLine
 62
250
  6
CONTINUOUS
 10
100.3323359047
 20
49.9275413013
 11
100.3310506328
 21
50.0222172285
  0
LINE
  5
298
100
AcDbEntity
  8
RACCORDO
100
AcDbLine
 62
250
  6
CONTINUOUS
 10
99.8541007891
 20
49.2758923388
 11
99.8516148034
 21
49.4675015262
  0
LINE
  5
299
100
AcDbEntity
  8
RACCORDO
100
AcDbLine
 62
250
  6
CONTINUOUS
 10
99.8516148034
 20
49.4675015262
 11
99.8494328629
 21
49.7681533716
  0
LINE
  5
29A
100
AcDbEntity
  8
RACCORDO
100
AcDbLine
 62
250
  6
CONTINUOUS
 10
100.3310506328
 20
50.0222172285
 11
100.330472575
 21
50.1197889137
  0
LWPOLYLINE
  5
29B
100
AcDbEntity
  8
RACCORDO
100
AcDbPolyline
 62
250
  6
CONTINUOUS
 90
9
 70
0
 10
100.330472575
 20
50.1197889137
 10
100.3213444978
 20
54.7531308452
 10
100.3144984397
 20
59.3872504323
 10
100.3099344008
 20
64.0221476748
 10
100.3076523809
 20
68.6583409232
 10
100.3076523801
 20
73.295311827
 10
100.309934399
 20
77.9315053356
 10
100.314498438
 20
82.5664030986
 10
100.3213444966
 20
87.2005234664
  0
LWPOLYLINE
  5
29C
100
AcDbEntity
  8
RACCORDO
100
AcDbPolyline
 62
250
  6
CONTINUOUS
 90
8
 70
0
 10
99.8360717964
 20
59.3750088778
 10
99.8324609924
 20
64.0151325348
 10
99.8306555895
 20
68.6561392246
 10
99.8306555885
 20
73.297512183
 10
99.8324609902
 20
77.9385192674
 10
99.8360717943
 20
82.5786437137
 10
99.8414879995
 20
87.2175847013
 10
99.8488908582
 20
92.0223810322
  0
LINE
  5
29D
100
AcDbEntity
  8
RACCORDO
100
AcDbLine
 62
250
  6
CONTINUOUS
 10
99.8494328629
 20
49.7681533716
 11
99.8360717964
 21
59.3750088778
  0
LINE
  5
29E
100
AcDbEntity
  8
0
100
AcDbLine
 62
7
  6
CONTINUOUS
 10
100.4510408644
 20
49.3643861849
 11
100.4510408644
 21
92.5892691676
  0
LINE
  5
29F
100
AcDbEntity
  8
RACCORDO
100
AcDbLine
 62
250
  6
CONTINUOUS
 10
100.3213444966
 20
87.2005234664
 11
100.3306738203
 21
91.8830531541
  0
LINE
  5
2A0
100
AcDbEntity
  8
RACCORDO
100
AcDbLine
 62
250
  6
CONTINUOUS
 10
99.8488908582
 20
92.0223810322
 11
99.8503474271
 21
92.3410920208
  0
LINE
  5
2A1
100
AcDbEntity
  8
RACCORDO
100
AcDbLine
 62
250
  6
CONTINUOUS
 10
99.8503474271
 20
92.3410920208
 11
99.8523621678
 21
92.5538212536
  0
LINE
  5
2A2
100
AcDbEntity
  8
RACCORDO
100
AcDbLine
 62
250
  6
CONTINUOUS
 10
100.3306738203
 20
91.8830531541
 11
100.331603465
 21
91.9790641973
  0
LINE
  5
2A3
100
AcDbEntity
  8
RACCORDO
100
AcDbLine
 62
250
  6
CONTINUOUS
 10
99.8523621678
 20
92.5538212536
 11
99.8541010609
 21
92.6777616134
  0
LWPOLYLINE
  5
2A4
100
AcDbEntity
  8
RACCORDO
100
AcDbPolyline
 62
250
  6
CONTINUOUS
 90
18
 70
0
 10
100.331603465
 20
91.9790641973
 10
100.3332448301
 20
92.0724230986
 10
100.3343158176
 20
92.1171747939
 10
100.3355516071
 20
92.1603493011
 10
100.3369498424
 20
92.2019897843
 10
100.3384901835
 20
92.2414791732
 10
100.3401748836
 20
92.2787870166
 10
100.3420016895
 20
92.3139437658
 10
100.343943501
 20
92.3464237041
 10
100.3460019884
 20
92.3761847477
 10
100.3481754815
 20
92.4032689804
 10
100.3504318703
 20
92.4272769374
 10
100.3527735674
 20
92.4481644636
 10
100.3551981602
 20
92.4659757141
 10
100.3576663019
 20
92.4804436905
 10
100.3601648767
 20
92.4914793931
 10
100.3627070003
 20
92.4991718216
 10
100.3652926727
 20
92.5035209759
  0
LINE
  5
2A5
100
AcDbEntity
  8
RACCORDO
100
AcDbLine
 62
250
  6
CONTINUOUS
 10
99.8541010609
 20
92.6777616134
 11
99.8560947949
 21
92.7844937661
  0
LWPOLYLINE
  5
2A6
100
AcDbEntity
  8
RACCORDO
100
AcDbPolyline
 62
250
  6
CONTINUOUS
 90
8
 70
0
 10
99.8560947949
 20
92.7844937661
 10
99.8583372826
 20
92.8718961596
 10
99.8595228121
 20
92.9077850694
 10
99.8607680494
 20
92.9382213295
 10
99.862027759
 20
92.9630561174
 10
99.863296445
 20
92.982164248
 10
99.8646082827
 20
92.9954470633
 10
99.8659779053
 20
93.0028357432
  0
LWPOLYLINE
  5
2A7
100
AcDbEntity
  8
RACCORDO
100
AcDbPolyline
 62
250
  6
CONTINUOUS
 90
16
 70
0
 10
56.4612903891
 20
93.0028357256
 10
56.4091875317
 20
92.9999671597
 10
56.3576536258
 20
92.9916782227
 10
56.3072513327
 20
92.9780594393
 10
56.2585309384
 20
92.9592595187
 10
56.2120243952
 20
92.9354837494
 10
56.1682395064
 20
92.9069917736
 10
56.1276543109
 20
92.8740947134
 10
56.0907118892
 20
92.8371517693
 10
56.0578155653
 20
92.7965663318
 10
56.0293244728
 20
92.7527815532
 10
56.0055496297
 20
92.7062754905
 10
55.9867505618
 20
92.6575558978
 10
55.9731324749
 20
92.6071546979
 10
55.9648440112
 20
92.5556221763
 10
55.9619756217
 20
92.5035209582
  0
LWPOLYLINE
  5
2A8
100
AcDbEntity
  8
RACCORDO
100
AcDbPolyline
 62
250
  6
CONTINUOUS
 90
14
 70
0
 10
56.3807136297
 20
91.8541613609
 10
56.3332450921
 20
91.8534747105
 10
56.2873680033
 20
91.8525964564
 10
56.243530654
 20
91.8515351806
 10
56.2021614036
 20
91.8503012535
 10
56.1636644941
 20
91.8489067322
 10
56.1284161004
 20
91.8473652437
 10
56.0967606542
 20
91.8456918505
 10
56.0690074786
 20
91.8439029043
 10
56.0454277655
 20
91.842015886
 10
56.0262519254
 20
91.8400492346
 10
56.0116673362
 20
91.8380221674
 10
56.001816512
 20
91.835954492
 10
55.9967957109
 20
91.8338664129
  0
LINE
  5
2A9
100
AcDbEntity
  8
RACCORDO
100
AcDbLine
 62
250
  6
CONTINUOUS
 10
56.4785586665
 20
91.85493495
 11
56.3807136297
 21
91.8541613609
  0
LINE
  5
2AA
100
AcDbEntity
  8
RACCORDO
100
AcDbLine
 62
250
  6
CONTINUOUS
 10
91.4624274399
 20
92.9902873786
 11
99.8659779053
 21
93.0028357433
  0
LINE
  5
2AB
100
AcDbEntity
  8
RACCORDO
100
AcDbLine
 62
250
  6
CONTINUOUS
 10
81.4410639787
 20
92.9831759715
 11
91.4624274399
 21
92.9902873786
  0
LINE
  5
2AC
100
AcDbEntity
  8
0
100
AcDbLine
 62
7
  6
CONTINUOUS
 10
99.951726097
 20
93.0885839349
 11
56.3755421798
 21
93.0885839349
  0
LINE
  5
2AD
100
AcDbEntity
  8
RACCORDO
100
AcDbLine
 62
250
  6
CONTINUOUS
 10
72.2268210914
 20
92.9842394519
 11
81.4410639787
 21
92.9831759715
  0
LINE
  5
2AE
100
AcDbEntity
  8
RACCORDO
100
AcDbLine
 62
250
  6
CONTINUOUS
 10
63.2289660521
 20
92.9922578941
 11
72.2268210914
 21
92.9842394519
  0
LINE
  5
2AF
100
AcDbEntity
  8
RACCORDO
100
AcDbLine
 62
250
  6
CONTINUOUS
 10
56.461290388
 20
93.0028357267
 11
63.2289660521
 21
92.9922578941
  0
LWPOLYLINE
  5
2B0
100
AcDbEntity
  8
RACCORDO
100
AcDbPolyline
 62
250
  6
CONTINUOUS
 90
15
 70
0
 10
99.8487091719
 20
91.8549344802
 10
99.9465533334
 20
91.854160916
 10
99.9940214839
 20
91.8534742861
 10
100.0398982359
 20
91.8525960574
 10
100.0837353104
 20
91.8515348115
 10
100.1251043588
 20
91.8503009179
 10
100.1636011484
 20
91.8489064333
 10
100.1988495126
 20
91.847364984
 10
100.2305050263
 20
91.8456916319
 10
100.2582583715
 20
91.843902728
 10
100.2818383598
 20
91.8420157523
 10
100.3010145823
 20
91.8400491433
 10
100.3155996608
 20
91.8380221173
 10
100.325451079
 20
91.8359544813
 10
100.330472575
 20
91.8338664389
  0
LWPOLYLINE
  5
2B1
100
AcDbEntity
  8
RACCORDO
100
AcDbPolyline
 62
250
  6
CONTINUOUS
 90
16
 70
0
 10
99.8659779053
 20
93.0028357432
 10
99.9180800281
 20
92.9999672566
 10
99.9696132963
 20
92.9916785358
 10
100.0200150663
 20
92.9780600775
 10
100.068735048
 20
92.9592605692
 10
100.1152413135
 20
92.935485265
 10
100.1590261042
 20
92.9069937453
 10
100.1996113747
 20
92.8740970827
 10
100.2365540124
 20
92.8371544449
 10
100.269450675
 20
92.7965691743
 10
100.2979421945
 20
92.7527843837
 10
100.3217174986
 20
92.7062781182
 10
100.3405170069
 20
92.6575581365
 10
100.3541354651
 20
92.6071563666
 10
100.362424186
 20
92.5556230985
 10
100.3652926727
 20
92.5035209759
  0
LWPOLYLINE
  5
2B2
100
AcDbEntity
  8
0
100
AcDbPolyline
 62
7
  6
CONTINUOUS
 90
3
 70
0
 43
0.3500000006
 10
113.8873727417
 20
70.4411115417
 10
113.8873727417
 20
68.941111084
 10
111.5302343445
 20
69.5839736023
  0
LWPOLYLINE
  5
2B3
100
AcDbEntity
  8
0
100
AcDbPolyline
 62
7
  6
CONTINUOUS
 90
3
 70
0
 43
0.3500000006
 10
113.8873727417
 20
68.0839731445
 10
113.8873727417
 20
66.5839726868
 10
111.5302343445
 20
67.2268261414
  0
LWPOLYLINE
  5
2B4
100
AcDbEntity
  8
0
100
AcDbPolyline
 62
7
  6
CONTINUOUS
 90
7
 70
0
 43
0.3500000006
 10
114.53023526
 20
74.5125439453
 10
114.53023526
 20
73.0125434875
 10
112.3873813477
 20
74.5125439453
 10
111.9588033142
 20
74.5125439453
 10
111.5302343445
 20
74.0839749756
 10
111.5302343445
 20
73.4411124573
 10
112.1730877991
 20
73.0125434875
  0
LWPOLYLINE
  5
2B5
100
AcDbEntity
  8
0
100
AcDbPolyline
 62
7
  6
CONTINUOUS
 90
3
 70
0
 43
0.3500000006
 10
77.627921814
 20
109.7640819397
 10
76.1279213562
 20
109.7640819397
 10
76.7707748108
 20
112.1212203369
  0
LWPOLYLINE
  5
2B6
100
AcDbEntity
  8
0
100
AcDbPolyline
 62
7
  6
CONTINUOUS
 90
3
 70
0
 43
0.3500000006
 10
75.2707788849
 20
109.7640819397
 10
73.7707784271
 20
109.7640819397
 10
74.4136318817
 20
112.1212203369
  0
LWPOLYLINE
  5
2B7
100
AcDbEntity
  8
0
100
AcDbPolyline
 62
7
  6
CONTINUOUS
 90
5
 70
0
 43
0.3500000006
 10
13.1815298996
 20
110.835504364
 10
13.5386733513
 20
111.0497888489
 10
13.5386733513
 20
111.6926513672
 10
13.1815298996
 20
112.1212203369
 10
12.3243874283
 20
112.1212203369
  0
LWPOLYLINE
  5
2B8
100
AcDbEntity
  8
0
100
AcDbPolyline
 62
7
  6
CONTINUOUS
 90
3
 70
0
 43
0.3500000006
 10
15.1815305099
 20
109.4069350891
 10
15.110101593
 20
109.1926506042
 10
14.9672448921
 20
108.9069349365
  0
LWPOLYLINE
  5
2B9
100
AcDbEntity
  8
RACCORDO
100
AcDbPolyline
 62
250
  6
CONTINUOUS
 90
3
 70
0
 10
26.1933834086
 20
92.9382213295
 10
26.2741358373
 20
92.9630561174
 10
26.3264570713
 20
92.975905932
  0
LINE
  5
2BA
100
AcDbEntity
  8
RACCORDO
100
AcDbLine
 62
250
  6
CONTINUOUS
 10
25.3866581803
 20
50.0987203693
 11
25.390824136
 21
50.0990056214
  0
LINE
  5
2BB
100
AcDbEntity
  8
RACCORDO
100
AcDbLine
 62
250
  6
CONTINUOUS
 10
25.390824136
 20
50.0990056214
 11
25.4135812307
 21
50.1001806093
  0
LINE
  5
2BC
100
AcDbEntity
  8
RACCORDO
100
AcDbLine
 62
250
  6
CONTINUOUS
 10
25.4135812307
 20
50.1001806093
 11
25.6695295378
 21
50.1116394382
  0
LINE
  5
2BD
100
AcDbEntity
  8
RACCORDO
100
AcDbLine
 62
250
  6
CONTINUOUS
 10
25.6695295378
 20
50.1116394382
 11
25.8597378906
 21
50.1197889137
  0
LWPOLYLINE
  5
2BE
100
AcDbEntity
  8
RACCORDO
100
AcDbPolyline
 62
250
  6
CONTINUOUS
 90
3
 70
0
 10
25.005162121
 20
50.1066576058
 10
25.0138745762
 20
50.1064870011
 10
25.3866581771
 20
50.0987204034
  0
LINE
  5
2BF
100
AcDbEntity
  8
0
100
AcDbLine
 62
7
  6
CONTINUOUS
 10
28.1603178999
 20
48.8650714175
 11
26.524144932
 21
48.9508196093
  0
LINE
  5
2C0
100
AcDbEntity
  8
RACCORDO
100
AcDbLine
 62
7
  6
CONTINUOUS
 10
26.5241446175
 20
48.9508196258
 11
26.1407248161
 21
48.9709138061
  0
LINE
  5
2C1
100
AcDbEntity
  8
0
100
AcDbLine
 62
250
  6
CONTINUOUS
 10
28.1603178999
 20
49.3643861849
 11
26.5241449318
 21
49.4501343767
  0
LWPOLYLINE
  5
2C2
100
AcDbEntity
  8
RACCORDO
100
AcDbPolyline
 62
7
  6
CONTINUOUS
 90
4
 70
0
 10
26.5241449318
 20
48.9508196093
 10
26.4399281549
 20
48.9582081167
 10
26.3564553802
 20
48.9714906547
 10
26.3205341443
 20
48.979079816
  0
LWPOLYLINE
  5
2C3
100
AcDbEntity
  8
RACCORDO
100
AcDbPolyline
 62
250
  6
CONTINUOUS
 90
22
 70
0
 10
26.5241449318
 20
49.4501343767
 10
26.4747992434
 20
49.4544849275
 10
26.426285844
 20
49.4621791414
 10
26.3786047335
 20
49.4732170184
 10
26.331506024
 20
49.4876874762
 10
26.2852396035
 20
49.5055015971
 10
26.2405551361
 20
49.5263926284
 10
26.1974978346
 20
49.5504053248
 10
26.1560224862
 20
49.5774949316
 10
26.116743116
 20
49.607260432
 10
26.0796922782
 20
49.639743577
 10
26.0448374187
 20
49.6749026155
 10
26.0126949
 20
49.7122112774
 10
25.9833079557
 20
49.7516994003
 10
25.9566333521
 20
49.7933371465
 10
25.9330577508
 20
49.8365087325
 10
25.9126255433
 20
49.881258097
 10
25.8952923381
 20
49.9275413013
 10
25.8813116215
 20
49.9746107451
 10
25.8707678892
 20
50.0222172285
 10
25.8635766456
 20
50.0706099513
 10
25.8597378906
 20
50.1197889137
  0
LWPOLYLINE
  5
2C4
100
AcDbEntity
  8
RACCORDO
100
AcDbPolyline
 62
250
  6
CONTINUOUS
 90
3
 70
0
 10
26.3205341443
 20
48.979079816
 10
26.274138542
 20
48.9905985048
 10
26.1933858196
 20
49.0154331859
  0
LWPOLYLINE
  5
2C5
100
AcDbEntity
  8
RACCORDO
100
AcDbPolyline
 62
250
  6
CONTINUOUS
 90
18
 70
0
 10
26.1933858196
 20
49.0154331859
 10
26.1145925674
 20
49.045869563
 10
26.0381401616
 20
49.0817585834
 10
25.9644014532
 20
49.1229243487
 10
25.8937440725
 20
49.169160628
 10
25.8265215423
 20
49.2202350278
 10
25.7630656596
 20
49.2758923388
 10
25.7036864563
 20
49.3358571417
 10
25.6486763598
 20
49.3998323909
 10
25.5983048655
 20
49.4675015262
 10
25.5528190844
 20
49.5385288639
 10
25.5124433776
 20
49.612561631
 10
25.4773773205
 20
49.6892277026
 10
25.4477883544
 20
49.7681533716
 10
25.4238166131
 20
49.8489654946
 10
25.4055808371
 20
49.9312715842
 10
25.3931739425
 20
50.0146603356
 10
25.3866585865
 20
50.0987204209
  0
LWPOLYLINE
  5
2C6
100
AcDbEntity
  8
RACCORDO
100
AcDbPolyline
 62
250
  6
CONTINUOUS
 90
16
 70
0
 10
26.5241449336
 20
93.0028357432
 10
26.5215647093
 20
92.9999672566
 10
26.5192983595
 20
92.9916785358
 10
26.5173706283
 20
92.9780600775
 10
26.5158025627
 20
92.9592605692
 10
26.5146112831
 20
92.935485265
 10
26.5138097964
 20
92.9069937453
 10
26.5134068532
 20
92.8740970827
 10
26.5134068529
 20
92.8371544449
 10
26.5138097954
 20
92.7965691743
 10
26.5146112815
 20
92.7527843837
 10
26.5158025605
 20
92.7062781182
 10
26.5173706259
 20
92.6575581365
 10
26.5192983575
 20
92.6071563666
 10
26.5215647081
 20
92.5556230985
 10
26.5241449336
 20
92.5035209759
  0
LWPOLYLINE
  5
2C7
100
AcDbEntity
  8
RACCORDO
100
AcDbPolyline
 62
250
  6
CONTINUOUS
 90
16
 70
0
 10
26.5241449318
 20
48.9508196093
 10
26.5215646721
 20
48.9536881672
 10
26.5192982985
 20
48.9619770822
 10
26.5173705547
 20
48.9755958326
 10
26.5158024865
 20
48.9943957114
 10
26.5146112137
 20
49.0181714336
 10
26.5138097424
 20
49.0466633635
 10
26.5134068209
 20
49.0795603839
 10
26.5134068452
 20
49.1165032977
 10
26.5138098124
 20
49.1570887191
 10
26.5146113196
 20
49.2008734998
 10
26.5158026129
 20
49.2473795839
 10
26.5173706834
 20
49.2960992162
 10
26.5192984088
 20
49.3465004732
 10
26.5215647401
 20
49.3980330691
 10
26.5241449318
 20
49.4501343767
  0
LINE
  5
2C8
100
AcDbEntity
  8
0
100
AcDbLine
 62
7
  6
CONTINUOUS
 10
28.1603178999
 20
57.6554393452
 11
29.4603178999
 21
57.7235694582
  0
LWPOLYLINE
  5
2C9
100
AcDbEntity
  8
0
100
AcDbPolyline
 62
7
  6
CONTINUOUS
 90
4
 70
0
 43
0.3500000006
 10
16.1815308151
 20
111.4783668823
 10
16.1815308151
 20
112.1212203369
 10
17.6815301399
 20
112.1212203369
 10
16.8243876686
 20
109.1212194214
  0
LINE
  5
2CA
100
AcDbEntity
  8
0
100
AcDbLine
 62
7
  6
CONTINUOUS
 10
28.1603178999
 20
61.2982160073
 11
29.4603178999
 21
61.2300858942
  0
LWPOLYLINE
  5
2CB
100
AcDbEntity
  8
RACCORDO
100
AcDbPolyline
 62
250
  6
CONTINUOUS
 90
10
 70
0
 10
25.3866581771
 20
50.0987204034
 10
25.2124412503
 20
54.7360690735
 10
25.0817189327
 20
59.3750088778
 10
24.9945407042
 20
64.0151325348
 10
24.950942059
 20
68.6561392246
 10
24.9509420405
 20
73.297512183
 10
24.9945406542
 20
77.9385192674
 10
25.0817188679
 20
82.5786437137
 10
25.2124411984
 20
87.2175847013
 10
25.3866581771
 20
91.8549349481
  0
LWPOLYLINE
  5
2CC
100
AcDbEntity
  8
RACCORDO
100
AcDbPolyline
 62
250
  6
CONTINUOUS
 90
10
 70
0
 10
25.8597378906
 20
50.1197889137
 10
25.6855638015
 20
54.7531308452
 10
25.5549332318
 20
59.3872504323
 10
25.4678461815
 20
64.0221476748
 10
25.4243026468
 20
68.6583409232
 10
25.4243026316
 20
73.295311827
 10
25.4678461473
 20
77.9315053356
 10
25.5549331978
 20
82.5664030986
 10
25.6855637791
 20
87.2005234664
 10
25.8597378914
 20
91.8338664389
  0
LWPOLYLINE
  5
2CD
100
AcDbEntity
  8
0
100
AcDbPolyline
 62
7
  6
CONTINUOUS
 90
6
 70
0
 10
24.4756090495
 20
67.47931273
 10
24.5214242169
 20
63.9853982737
 10
24.5977622169
 20
60.492017522
 10
24.704614579
 20
56.9994369307
 10
24.8419701069
 20
53.5079228953
 10
25.0051620686
 20
50.1066586086
  0
LINE
  5
2CE
100
AcDbEntity
  8
0
100
AcDbLine
 62
7
  6
CONTINUOUS
 10
24.4756090495
 20
67.47931273
 11
24.4675808456
 21
68.5985778981
  0
LINE
  5
2CF
100
AcDbEntity
  8
0
100
AcDbLine
 62
7
  6
CONTINUOUS
 10
24.4675808456
 20
68.5985778981
 11
24.4618717934
 21
70.3052852674
  0
LINE
  5
2D0
100
AcDbEntity
  8
DRAFT
100
AcDbLine
 62
7
  6
CONTINUOUS
 10
24.4613083023
 20
70.9768276762
 11
24.4679968524
 21
68.4985588163
  0
LINE
  5
2D1
100
AcDbEntity
  8
0
100
AcDbLine
 62
7
  6
CONTINUOUS
 10
24.4618717934
 20
70.3052852674
 11
24.4616206779
 21
71.4768259953
  0
LINE
  5
2D2
100
AcDbEntity
  8
0
100
AcDbLine
 62
7
  6
CONTINUOUS
 10
24.4616206779
 20
71.4768259953
 11
24.466978953
 21
73.2083185598
  0
LINE
  5
2D3
100
AcDbEntity
  8
DRAFT
100
AcDbLine
 62
7
  6
CONTINUOUS
 10
24.4679963756
 20
73.4550032228
 11
24.4613083023
 21
70.9768276762
  0
LWPOLYLINE
  5
2D4
100
AcDbEntity
  8
0
100
AcDbPolyline
 62
7
  6
CONTINUOUS
 90
7
 70
0
 10
25.0051620685
 20
91.8469967433
 10
24.841679026
 20
88.4390725376
 10
24.7043816734
 20
84.9475559872
 10
24.5975875132
 20
81.4549734392
 10
24.5213077403
 20
77.9615912895
 10
24.4755508105
 20
74.4676759942
 10
24.466978953
 20
73.2083185598
  0
LWPOLYLINE
  5
2D5
100
AcDbEntity
  8
RACCORDO
100
AcDbPolyline
 62
250
  6
CONTINUOUS
 90
18
 70
0
 10
25.3866585881
 20
91.8549349306
 10
25.3931737575
 20
91.9389933673
 10
25.4055803326
 20
92.0223810322
 10
25.4238157711
 20
92.1046865975
 10
25.4477873471
 20
92.1854989732
 10
25.4773763845
 20
92.264425397
 10
25.5124425266
 20
92.3410920208
 10
25.5528181253
 20
92.4151248635
 10
25.5983036952
 20
92.4861521237
 10
25.6486750018
 20
92.5538212536
 10
25.703685011
 20
92.6177966331
 10
25.7630641833
 20
92.6777616134
 10
25.8265200767
 20
92.7334191186
 10
25.8937427243
 20
92.7844937661
 10
25.9644002757
 20
92.8307302865
 10
26.0381389793
 20
92.8718961596
 10
26.1145908873
 20
92.9077850694
 10
26.1933834086
 20
92.9382213295
  0
LWPOLYLINE
  5
2D6
100
AcDbEntity
  8
RACCORDO
100
AcDbPolyline
 62
250
  6
CONTINUOUS
 90
22
 70
0
 10
25.8597378914
 20
91.8338664389
 10
25.8635778794
 20
91.8830531541
 10
25.8707707679
 20
91.9314524069
 10
25.881316557
 20
91.9790641973
 10
25.8952996625
 20
92.0261373791
 10
25.9126356686
 20
92.0724230986
 10
25.9330713277
 20
92.1171747939
 10
25.9566515951
 20
92.1603493011
 10
25.9833315155
 20
92.2019897843
 10
26.0127229747
 20
92.2414791732
 10
26.0448689675
 20
92.2787870166
 10
26.0797264992
 20
92.3139437658
 10
26.1167784714
 20
92.3464237041
 10
26.1560567495
 20
92.3761847477
 10
26.1975294682
 20
92.4032689804
 10
26.240583933
 20
92.4272769374
 10
26.2852661742
 20
92.4481644636
 10
26.3315301615
 20
92.4659757141
 10
26.3786251096
 20
92.4804436905
 10
26.4263007568
 20
92.4914793931
 10
26.4748073647
 20
92.4991718216
 10
26.5241449336
 20
92.5035209759
  0
LINE
  5
2D7
100
AcDbEntity
  8
0
100
AcDbLine
 62
7
  6
CONTINUOUS
 10
28.1603178999
 20
48.8650714175
 11
28.1603178999
 21
93.0885839349
  0
LINE
  5
2D8
100
AcDbEntity
  8
0
100
AcDbLine
 62
250
  6
CONTINUOUS
 10
29.0812522824
 20
57.703703471
 11
29.0812522824
 21
61.2499518815
  0
LINE
  5
2D9
100
AcDbEntity
  8
0
100
AcDbLine
 62
250
  6
CONTINUOUS
 10
29.0812522824
 20
80.703703471
 11
29.0812522824
 21
84.2499518815
  0
LINE
  5
2DA
100
AcDbEntity
  8
0
100
AcDbLine
 62
7
  6
CONTINUOUS
 10
29.4603178999
 20
57.7235694582
 11
29.4603178999
 21
61.2300858942
  0
LINE
  5
2DB
100
AcDbEntity
  8
0
100
AcDbLine
 62
7
  6
CONTINUOUS
 10
29.4603178999
 20
80.7235694582
 11
29.4603178999
 21
84.2300858942
  0
LWPOLYLINE
  5
2DC
100
AcDbEntity
  8
0
100
AcDbPolyline
 62
7
  6
CONTINUOUS
 90
10
 70
0
 43
0.3500000006
 10
15.110101593
 20
109.621219574
 10
15.1815305099
 20
109.478366272
 10
15.1815305099
 20
109.4069350891
 10
15.0386726761
 20
109.2640817871
 10
14.9672448921
 20
109.2640817871
 10
14.8958159752
 20
109.3355039063
 10
14.8958159752
 20
109.4069350891
 10
14.9672448921
 20
109.5497883911
 10
15.0386726761
 20
109.621219574
 10
15.110101593
 20
109.621219574
  0
LINE
  5
2DD
100
AcDbEntity
  8
0
100
AcDbLine
 62
7
  6
CONTINUOUS
 10
28.1603178999
 20
80.6554393452
 11
29.4603178999
 21
80.7235694582
  0
LINE
  5
2DE
100
AcDbEntity
  8
0
100
AcDbLine
 62
7
  6
CONTINUOUS
 10
28.1603178999
 20
84.2982160073
 11
29.4603178999
 21
84.2300858942
  0
LWPOLYLINE
  5
2DF
100
AcDbEntity
  8
RACCORDO
100
AcDbPolyline
 62
250
  6
CONTINUOUS
 90
3
 70
0
 10
25.005162121
 20
91.8469977469
 10
25.0058701469
 20
91.8470093006
 10
25.3866581771
 20
91.8549349481
  0
LINE
  5
2E0
100
AcDbEntity
  8
RACCORDO
100
AcDbLine
 62
250
  6
CONTINUOUS
 10
25.4319602557
 20
91.8525960574
 11
25.8597378914
 21
91.8338664389
  0
LWPOLYLINE
  5
2E1
100
AcDbEntity
  8
RACCORDO
100
AcDbPolyline
 62
250
  6
CONTINUOUS
 90
4
 70
0
 10
25.3866700503
 20
91.8549344802
 10
25.3908357879
 20
91.854649238
 10
25.3998391197
 20
91.854160916
 10
25.4319602557
 20
91.8525960574
  0
LWPOLYLINE
  5
2E2
100
AcDbEntity
  8
RACCORDO
100
AcDbPolyline
 62
7
  6
CONTINUOUS
 90
4
 70
0
 10
26.3264570713
 20
92.975905932
 10
26.3564530817
 20
92.982164248
 10
26.4399267578
 20
92.9954470633
 10
26.5241449336
 20
93.0028357432
  0
LINE
  5
2E3
100
AcDbEntity
  8
0
100
AcDbLine
 62
250
  6
CONTINUOUS
 10
26.5241449336
 20
92.5035209759
 11
28.1603178999
 21
92.5892691676
  0
LINE
  5
2E4
100
AcDbEntity
  8
RACCORDO
100
AcDbLine
 62
7
  6
CONTINUOUS
 10
26.5241446172
 20
93.0028357267
 11
26.1407248099
 21
92.982741546
  0
LINE
  5
2E5
100
AcDbEntity
  8
0
100
AcDbLine
 62
7
  6
CONTINUOUS
 10
26.5241449337
 20
93.0028357433
 11
28.1603178999
 21
93.0885839349
  0
LWPOLYLINE
  5
2E6
100
AcDbEntity
  8
0
100
AcDbPolyline
 62
7
  6
CONTINUOUS
 90
6
 70
0
 43
0.3500000006
 10
12.3243874283
 20
109.1212194214
 10
13.3958155174
 20
109.1212194214
 10
13.6101022682
 20
109.3355039063
 10
13.6101022682
 20
110.4069353943
 10
13.1815298996
 20
110.835504364
 10
12.7529586639
 20
110.835504364
  0
LWPOLYLINE
  5
2E7
100
AcDbEntity
  8
0
100
AcDbPolyline
 62
7
  6
CONTINUOUS
 90
8
 70
0
 43
0.3500000006
 10
15.2786358147
 20
117.1212218628
 10
16.1357794189
 20
117.1212218628
 10
16.5643506546
 20
117.5497908325
 10
16.5643506546
 20
118.4069378357
 10
16.1357794189
 20
118.8355068054
 10
15.2786358147
 20
118.8355068054
 10
15.2786358147
 20
120.1212227783
 10
16.5643506546
 20
120.1212227783
  0
ARC
  5
2E8
100
AcDbEntity
  8
RACCORDO
100
AcDbCircle
 62
7
  6
CONTINUOUS
 10
26.2035279574
 20
91.7843861043
 40
1.2
100
AcDbArc
 50
93.0
 51
177.0092051127
  0
ARC
  5
2E9
100
AcDbEntity
  8
RACCORDO
100
AcDbCircle
 62
7
  6
CONTINUOUS
 10
26.2035279636
 20
50.1692692478
 40
1.2
100
AcDbArc
 50
182.9907948877
 51
267.0
  0
ELLIPSE
  5
2EA
100
AcDbEntity
  8
0
100
AcDbEllipse
 62
7
  6
CONTINUOUS
 10
99.9503546914
 20
49.3657575905
 30
0.0
 11
-0.3545231217
 21
0.3545231217
 31
0.0
 40
0.9972646886
 41
2.3575640181
 42
3.9256212891
  0
ELLIPSE
  5
2EB
100
AcDbEntity
  8
0
100
AcDbEllipse
 62
7
  6
CONTINUOUS
 10
99.9503546914
 20
92.5878977619
 30
0.0
 11
0.3545231217
 21
0.3545231217
 31
0.0
 40
0.9972646886
 41
-0.7840286355
 42
0.7840286355
  0
ELLIPSE
  5
2EC
100
AcDbEntity
  8
0
100
AcDbEllipse
 62
7
  6
CONTINUOUS
 10
56.3769135854
 20
92.5878977619
 30
0.0
 11
0.3545231217
 21
-0.3545231217
 31
0.0
 40
0.9972646886
 41
2.3575640181
 42
3.9256212891
  0
ELLIPSE
  5
2ED
100
AcDbEntity
  8
0
100
AcDbEllipse
 62
7
  6
CONTINUOUS
 10
56.3769135854
 20
49.3657575905
 30
0.0
 11
0.3545231217
 21
0.3545231217
 31
0.0
 40
0.9972646886
 41
2.3575640181
 42
3.9256212891
  0
ENDSEC
  0
SECTION
  2
OBJECTS
  0
DICTIONARY
  5
C
100
AcDbDictionary
280
0
281
1
  3
ACAD_GROUP
350
D
  3
ACAD_MLINESTYLE
350
17
  3
ACAD_LAYOUT
350
1A
  3
ACAD_PLOTSETTINGS
350
19
  3
ACAD_PLOTSTYLENAME
350
E
  0
DICTIONARY
  5
D
102
{ACAD_REACTORS
330
C
102
}
100
AcDbDictionary
280
0
281
1
  0
ACDBDICTIONARYWDFLT
  5
E
102
{ACAD_REACTORS
330
C
102
}
100
AcDbDictionary
281
1
  3
Normal
350
F
100
AcDbDictionaryWithDefault
340
F
  0
DICTIONARY
  5
17
102
{ACAD_REACTORS
330
C
102
}
100
AcDbDictionary
280
0
281
1
  3
Standard
350
18
  0
DICTIONARY
  5
19
102
{ACAD_REACTORS
330
C
102
}
100
AcDbDictionary
281
1
  0
DICTIONARY
  5
1A
102
{ACAD_REACTORS
330
C
102
}
100
AcDbDictionary
281
1
  3
Model
350
2EE
  3
Layout1
350
2EF
  0
ACDBPLACEHOLDER
  5
F
102
{ACAD_REACTORS
330
E
102
}
  0
MLINESTYLE
  5
18
102
{ACAD_REACTORS
330
17
102
}
100
AcDbMlineStyle
  2
STANDARD
 70
0
  3

 62
256
 51
90.0
 52
90.0
 71
2
 49
0.5
 62
256
  6
BYLAYER
 49
-0.5
 62
256
  6
BYLAYER
  0
LAYOUT
  5
2EE
102
{ACAD_REACTORS
330
1A
102
}
100
AcDbPlotSettings
  1

  2
none_device
  4
ISO_A4_(297.00_x_210.00_MM)
  6

 40
0.0
 41
0.0
 42
0.0
 43
0.0
 44
297.0
 45
210.0
 46
0.0
 47
0.0
 48
0.0
 49
0.0
140
0.0
141
0.0
142
1.0
143
1.0
 70
1024
 72
1
 73
0
 74
0
  7

 75
0
147
1.0
148
0.0
149
0.0
100
AcDbLayout
  1
Model
 70
0
 71
0
 10
0.0
 20
0.0
 11
297.0
 21
210.0
 12
0.0
 22
0.0
 32
0.0
 14
0.0
 24
0.0
 34
0.0
 15
0.0
 25
0.0
 35
0.0
146
0.0
 13
0.0
 23
0.0
 33
0.0
 16
1.0
 26
0.0
 36
0.0
 17
0.0
 27
1.0
 37
0.0
 76
0
330
214
345
0
346
0
  0
LAYOUT
  5
2EF
102
{ACAD_REACTORS
330
1A
102
}
100
AcDbPlotSettings
  1

  2
none_device
  4
ISO_A4_(297.00_x_210.00_MM)
  6

 40
0.0
 41
0.0
 42
0.0
 43
0.0
 44
297.0
 45
210.0
 46
0.0
 47
0.0
 48
0.0
 49
0.0
140
0.0
141
0.0
142
1.0
143
1.0
 70
0
 72
1
 73
0
 74
0
  7

 75
0
147
1.0
148
0.0
149
0.0
100
AcDbLayout
  1
Layout1
 70
0
 71
1
 10
0.0
 20
0.0
 11
297.0
 21
210.0
 12
0.0
 22
0.0
 32
0.0
 14
0.0
 24
0.0
 34
0.0
 15
0.0
 25
0.0
 35
0.0
146
0.0
 13
0.0
 23
0.0
 33
0.0
 16
1.0
 26
0.0
 36
0.0
 17
0.0
 27
1.0
 37
0.0
 76
0
330
215
345
0
346
0
  0
ENDSEC
  0
EOF
