  0
SECTION
  2
HEADER
  9
$ACADVER
  1
AC1015
  9
$DWGCODEPAGE
  3
ANSI_1252
  9
$EXTMAX
 10
297.0
 20
210.0
 30
0.0
  9
$EXTMIN
 10
0.0
 20
0.0
 30
0.0
  9
$LIMMIN
 10
0.0
 20
0.0
  9
$LIMMAX
 10
297.0
 20
210.0
  9
$VIEWCTR
 10
148.5
 20
105.0
  9
$VIEWSIZE
 40
210.0
  9
$CLAYER
  8
0
  9
$LTSCALE
 40
16.335
  9
$CELTYPE
  6
BYLAYER
  9
$DIMSCALE
 40
1.0
  9
$DIMASZ
 40
3.0
  9
$DIMEXO
 40
1.85625
  9
$DIMDLI
 40
11.286
  9
$DIMEXE
 40
5.346
  9
$DIMCEN
 40
2.673
  9
$DIMLFAC
 40
1.0
  9
$DIMBLK
  1
_FILLED
  9
$DIMTXT
 40
3.0
  9
$DIMTOL
 70
1
  9
$DIMLIM
 70
0
  9
$DIMTFAC
 40
1.0
  9
$DIMTP
 40
0.01
  9
$DIMTM
 40
0.01
  9
$PDMODE
 70
3
  9
$PDSIZE
 40
3.0
  9
$HANDSEED
  5
2E6
  9
$TILEMODE
 70
1
  9
$MEASUREMENT
 70
1
  9
$INSUNITS
 70
4
  0
ENDSEC
  0
SECTION
  2
CLASSES
  0
CLASS
  1
ACDBDICTIONARYWDFLT
  2
AcDbDictionaryWithDefault
  3
AutoCAD 2000
 90
0
280
0
281
0
  0
CLASS
  1
ACDBPLACEHOLDER
  2
AcDbPlaceHolder
  3
AutoCAD 2000
 90
0
280
0
281
0
  0
CLASS
  1
LAYOUT
  2
AcDbLayout
  3
AutoCAD 2000
 90
0
280
0
281
0
  0
ENDSEC
  0
SECTION
  2
TABLES
  0
TABLE
  2
VPORT
  5
8
100
AcDbSymbolTable
 70
2
  0
VPORT
  5
1F4
100
AcDbSymbolTableRecord
100
AcDbViewportTableRecord
  2
*ACTIVE
 70
0
 10
0.0
 20
0.0
 11
1.0
 21
1.0
 12
148.5
 22
105.0
 13
0.0
 23
0.0
 14
1.0
 24
1.0
 15
0.0
 25
0.0
 16
0.0
 26
0.0
 36
1.0
 17
0.0
 27
0.0
 37
0.0
 40
210.0
 41
1.4142857143
 42
50.0
 43
0.0
 44
0.0
 50
0.0
 51
0.0
 71
0
 72
100
 73
1
 74
1
 75
0
 76
0
 77
0
 78
0
  0
ENDTAB
  0
TABLE
  2
LTYPE
  5
5
100
AcDbSymbolTable
 70
6
  0
LTYPE
  5
14
100
AcDbSymbolTableRecord
100
AcDbLinetypeTableRecord
  2
BYBLOCK
 70
0
  3

 72
65
 73
0
 40
0.0
  0
LTYPE
  5
15
100
AcDbSymbolTableRecord
100
AcDbLinetypeTableRecord
  2
BYLAYER
 70
0
  3

 72
65
 73
0
 40
0.0
  0
LTYPE
  5
16
100
AcDbSymbolTableRecord
100
AcDbLinetypeTableRecord
  2
CONTINUOUS
 70
64
  3
Solid line
 72
65
 73
0
 40
0.0
  0
LTYPE
  5
1F5
100
AcDbSymbolTableRecord
100
AcDbLinetypeTableRecord
  2
CENTER
 70
64
  3
____ _ ____ _ ____ _ ____ _ ____ _ ____ _ ____
 72
65
 73
4
 40
0.6
 49
0.375
 74
0
 49
-0.075
 74
0
 49
0.075
 74
0
 49
-0.075
 74
0
  0
LTYPE
  5
1F6
100
AcDbSymbolTableRecord
100
AcDbLinetypeTableRecord
  2
HIDDEN
 70
64
  3
- - - - - - - - - - - - - - - - - - - -
 72
65
 73
2
 40
0.2
 49
0.1
 74
0
 49
-0.1
 74
0
  0
LTYPE
  5
1F7
100
AcDbSymbolTableRecord
100
AcDbLinetypeTableRecord
  2
PHANTOM
 70
64
  3
_____ _ _ _____ _ _ _____ _ _ _____
 72
65
 73
6
 40
0.8
 49
0.45
 74
0
 49
-0.05
 74
0
 49
0.1
 74
0
 49
-0.05
 74
0
 49
0.1
 74
0
 49
-0.05
 74
0
  0
LTYPE
  5
1F8
100
AcDbSymbolTableRecord
100
AcDbLinetypeTableRecord
  2
DOT
 70
64
  3
. . . . . . . . . . . . . . . . . . . .
 72
65
 73
2
 40
0.2
 49
0.1
 74
0
 49
-0.1
 74
0
  0
LTYPE
  5
1F9
100
AcDbSymbolTableRecord
100
AcDbLinetypeTableRecord
  2
DASHED
 70
64
  3
- - - - - - - - - - - - - - - - - - - -
 72
65
 73
2
 40
0.2
 49
0.1
 74
0
 49
-0.1
 74
0
  0
ENDTAB
  0
TABLE
  2
LAYER
  5
2
100
AcDbSymbolTable
 70
36
  0
LAYER
  5
10
100
AcDbSymbolTableRecord
100
AcDbLayerTableRecord
  2
0
 70
0
 62
7
  6
CONTINUOUS
370
-3
390
F
  0
LAYER
  5
1FA
100
AcDbSymbolTableRecord
100
AcDbLayerTableRecord
  2
DEFAULT_1
 70
0
 62
7
  6
CENTER
370
-3
390
F
  0
LAYER
  5
1FB
100
AcDbSymbolTableRecord
100
AcDbLayerTableRecord
  2
DEFAULT_2
 70
0
 62
7
  6
HIDDEN
370
-3
390
F
  0
LAYER
  5
1FC
100
AcDbSymbolTableRecord
100
AcDbLayerTableRecord
  2
DEFAULT_3
 70
0
 62
7
  6
PHANTOM
370
-3
390
F
  0
LAYER
  5
1FD
100
AcDbSymbolTableRecord
100
AcDbLayerTableRecord
  2
ASSI
 70
0
 62
7
  6
CONTINUOUS
370
-3
390
F
  0
LAYER
  5
1FE
100
AcDbSymbolTableRecord
100
AcDbLayerTableRecord
  2
COORDINATE
 70
0
 62
7
  6
CONTINUOUS
370
-3
390
F
  0
LAYER
  5
1FF
100
AcDbSymbolTableRecord
100
AcDbLayerTableRecord
  2
COPY_PUBLISH
 70
0
 62
7
  6
CONTINUOUS
370
-3
390
F
  0
LAYER
  5
200
100
AcDbSymbolTableRecord
100
AcDbLayerTableRecord
  2
COSMETIC
 70
0
 62
7
  6
CONTINUOUS
370
-3
390
F
  0
LAYER
  5
201
100
AcDbSymbolTableRecord
100
AcDbLayerTableRecord
  2
COSMETICI
 70
0
 62
7
  6
CONTINUOUS
370
-3
390
F
  0
LAYER
  5
202
100
AcDbSymbolTableRecord
100
AcDbLayerTableRecord
  2
CURVE
 70
0
 62
7
  6
CONTINUOUS
370
-3
390
F
  0
LAYER
  5
203
100
AcDbSymbolTableRecord
100
AcDbLayerTableRecord
  2
DRAFT
 70
0
 62
7
  6
CONTINUOUS
370
-3
390
F
  0
LAYER
  5
204
100
AcDbSymbolTableRecord
100
AcDbLayerTableRecord
  2
IMPORT_IGES
 70
0
 62
7
  6
CONTINUOUS
370
-3
390
F
  0
LAYER
  5
205
100
AcDbSymbolTableRecord
100
AcDbLayerTableRecord
  2
INTFCLR_11
 70
0
 62
7
  6
CONTINUOUS
370
-3
390
F
  0
LAYER
  5
206
100
AcDbSymbolTableRecord
100
AcDbLayerTableRecord
  2
INTF_1
 70
0
 62
7
  6
CONTINUOUS
370
-3
390
F
  0
LAYER
  5
207
100
AcDbSymbolTableRecord
100
AcDbLayerTableRecord
  2
INTF_3
 70
0
 62
7
  6
CONTINUOUS
370
-3
390
F
  0
LAYER
  5
208
100
AcDbSymbolTableRecord
100
AcDbLayerTableRecord
  2
NOTE
 70
0
 62
7
  6
CONTINUOUS
370
-3
390
F
  0
LAYER
  5
209
100
AcDbSymbolTableRecord
100
AcDbLayerTableRecord
  2
PIANI
 70
0
 62
7
  6
CONTINUOUS
370
-3
390
F
  0
LAYER
  5
20A
100
AcDbSymbolTableRecord
100
AcDbLayerTableRecord
  2
PUNTI
 70
0
 62
7
  6
CONTINUOUS
370
-3
390
F
  0
LAYER
  5
20B
100
AcDbSymbolTableRecord
100
AcDbLayerTableRecord
  2
RACCORDO
 70
0
 62
7
  6
CONTINUOUS
370
-3
390
F
  0
LAYER
  5
20C
100
AcDbSymbolTableRecord
100
AcDbLayerTableRecord
  2
SIMBOLI
 70
0
 62
7
  6
CONTINUOUS
370
-3
390
F
  0
LAYER
  5
20D
100
AcDbSymbolTableRecord
100
AcDbLayerTableRecord
  2
SMUSSO
 70
0
 62
7
  6
CONTINUOUS
370
-3
390
F
  0
LAYER
  5
20E
100
AcDbSymbolTableRecord
100
AcDbLayerTableRecord
  2
SNAPLINE
 70
0
 62
7
  6
CONTINUOUS
370
-3
390
F
  0
LAYER
  5
20F
100
AcDbSymbolTableRecord
100
AcDbLayerTableRecord
  2
SUPERFICI
 70
0
 62
7
  6
CONTINUOUS
370
-3
390
F
  0
LAYER
  5
210
100
AcDbSymbolTableRecord
100
AcDbLayerTableRecord
  2
TRASH
 70
0
 62
7
  6
CONTINUOUS
370
-3
390
F
  0
LAYER
  5
211
100
AcDbSymbolTableRecord
100
AcDbLayerTableRecord
  2
___SHELL
 70
0
 62
7
  6
CONTINUOUS
370
-3
390
F
  0
ENDTAB
  0
TABLE
  2
STYLE
  5
3
100
AcDbSymbolTable
 70
1
  0
STYLE
  5
11
100
AcDbSymbolTableRecord
100
AcDbTextStyleTableRecord
  2
STANDARD
 70
0
 40
0.0
 41
0.8
 50
0.0
 71
0
 42
0.2
  3
txt
  4

  0
STYLE
  5
212
100
AcDbSymbolTableRecord
100
AcDbTextStyleTableRecord
  2
TEXTSTYLE_1
 70
0
 40
0.0
 41
0.8
 50
0.0
 71
0
 42
0.2
  3
gdt
  4

  0
ENDTAB
  0
TABLE
  2
VIEW
  5
6
100
AcDbSymbolTable
 70
0
  0
ENDTAB
  0
TABLE
  2
UCS
  5
7
100
AcDbSymbolTable
 70
0
  0
ENDTAB
  0
TABLE
  2
APPID
  5
9
100
AcDbSymbolTable
 70
1
  0
APPID
  5
213
100
AcDbSymbolTableRecord
100
AcDbRegAppTableRecord
  2
ACAD
 70
0
  0
ENDTAB
  0
TABLE
  2
BLOCK_RECORD
  5
1
100
AcDbSymbolTable
 70
0
  0
BLOCK_RECORD
  5
214
100
AcDbSymbolTableRecord
100
AcDbBlockTableRecord
  2
*Model_Space
  0
BLOCK_RECORD
  5
215
100
AcDbSymbolTableRecord
100
AcDbBlockTableRecord
  2
*Paper_Space
  0
BLOCK_RECORD
  5
216
100
AcDbSymbolTableRecord
100
AcDbBlockTableRecord
  2
_FILLED
  0
BLOCK_RECORD
  5
217
100
AcDbSymbolTableRecord
100
AcDbBlockTableRecord
  2
*D0
  0
BLOCK_RECORD
  5
218
100
AcDbSymbolTableRecord
100
AcDbBlockTableRecord
  2
*D1
  0
BLOCK_RECORD
  5
219
100
AcDbSymbolTableRecord
100
AcDbBlockTableRecord
  2
*D2
  0
ENDTAB
  0
TABLE
  2
DIMSTYLE
  5
A
100
AcDbSymbolTable
 70
1
100
AcDbDimStyleTable
 71
0
  0
DIMSTYLE
105
21A
100
AcDbSymbolTableRecord
100
AcDbDimStyleTableRecord
  2
STANDARD
 70
0
  3

  4

 40
1.0
 41
3.0
 42
0.0625
 43
0.38
 44
0.18
 45
0.0
 46
0.0
 47
0.01
 48
0.01
140
3.0
141
0.09
142
0.0
143
25.4
144
1.0
145
0.0
146
1.0
147
0.09
 71
1.0
 72
0.0
 73
0
 74
0
 75
0
 76
0
 77
1
 78
8
170
0
171
2
172
0
173
0
174
0
175
0
176
0
177
0
178
0
270
2
271
2
272
2
273
2
274
2
275
0
280
0
281
0
282
0
283
1
284
8
285
0
286
0
287
3
288
0
340
11
341
216
342
216
343
216
344
216
  0
DIMSTYLE
105
21B
100
AcDbSymbolTableRecord
100
AcDbDimStyleTableRecord
  2
DIMSTYLE_1
 70
0
  3

  4

 40
1.0
 41
3.0
 42
0.0625
 43
0.38
 44
0.18
 45
0.0
 46
0.0
 47
0.0
 48
0.0
140
3.0
141
0.09
142
0.0
143
25.4
144
1.0
145
0.0
146
1.0
147
0.09
 71
0.0
 72
0.0
 73
0
 74
0
 75
0
 76
0
 77
1
 78
8
170
0
171
2
172
0
173
0
174
0
175
0
176
0
177
0
178
0
270
2
271
1
272
1
273
2
274
2
275
0
280
0
281
0
282
0
283
1
284
8
285
0
286
0
287
3
288
0
340
11
341
216
342
216
343
216
344
216
  0
ENDTAB
  0
ENDSEC
  0
SECTION
  2
BLOCKS
  0
BLOCK
  5
20
100
AcDbEntity
  8
0
100
AcDbBlockBegin
  2
*Model_Space
 70
0
 10
0.0
 20
0.0
 30
0.0
  3
*Model_Space
  1

  0
ENDBLK
  5
21
100
AcDbEntity
  8
0
100
AcDbBlockEnd
  0
BLOCK
  5
1C
100
AcDbEntity
  8
0
100
AcDbBlockBegin
  2
*Paper_Space
 70
0
 10
0.0
 20
0.0
 30
0.0
  3
*Paper_Space
  1

  0
ENDBLK
  5
1D
100
AcDbEntity
  8
0
100
AcDbBlockEnd
  0
BLOCK
  5
21C
100
AcDbEntity
  8
0
100
AcDbBlockBegin
  2
_FILLED
 70
64
 10
0.0
 20
0.0
  3
_FILLED
  1

  0
SOLID
  5
21D
100
AcDbEntity
  8
0
  6
BYBLOCK
 62
0
100
AcDbTrace
 10
0.0
 20
0.0
 11
-1.0
 21
0.3166666667
 12
-1.0
 22
-0.3166666667
 13
-1.0
 23
-0.3166666667
  0
ENDBLK
  5
21E
100
AcDbEntity
  8
0
  6
BYBLOCK
 62
0
100
AcDbBlockEnd
  0
BLOCK
  5
21F
100
AcDbEntity
  8
0
100
AcDbBlockBegin
 62
7
  6
CONTINUOUS
  2
*D0
 70
65
 10
0.0
 20
0.0
  3
*D0
  1

  0
LINE
  5
220
100
AcDbEntity
  8
0
100
AcDbLine
 62
7
  6
CONTINUOUS
 10
-22.287406726
 20
22.4305789785
 11
-22.287406726
 21
36.8943938178
  0
LINE
  5
221
100
AcDbEntity
  8
0
100
AcDbLine
 62
7
  6
CONTINUOUS
 10
22.287406726
 20
22.1124414913
 11
22.287406726
 21
36.8943938178
  0
LINE
  5
222
100
AcDbEntity
  8
0
100
AcDbLine
 62
7
  6
CONTINUOUS
 10
-22.287406726
 20
35.3943938178
 11
0.0
 21
35.3943938178
  0
LINE
  5
223
100
AcDbEntity
  8
0
100
AcDbLine
 62
7
  6
CONTINUOUS
 10
22.287406726
 20
35.3943938178
 11
0.0
 21
35.3943938178
  0
INSERT
  5
224
100
AcDbEntity
  8
0
100
AcDbBlockReference
 62
7
  6
CONTINUOUS
  2
_FILLED
 10
-22.287406726
 20
35.3943938178
 41
3.0
 42
3.0
 43
3.0
 50
180.0
  0
INSERT
  5
225
100
AcDbEntity
  8
0
100
AcDbBlockReference
 62
7
  6
CONTINUOUS
  2
_FILLED
 10
22.287406726
 20
35.3943938178
 41
3.0
 42
3.0
 43
3.0
 50
0.0
  0
ENDBLK
  5
226
100
AcDbEntity
  8
0
  6
BYBLOCK
 62
0
100
AcDbBlockEnd
  0
BLOCK
  5
227
100
AcDbEntity
  8
0
100
AcDbBlockBegin
 62
7
  6
CONTINUOUS
  2
*D1
 70
65
 10
0.0
 20
0.0
  3
*D1
  1

  0
LINE
  5
228
100
AcDbEntity
  8
0
100
AcDbLine
 62
7
  6
CONTINUOUS
 10
23.0867922693
 20
22.1117562587
 11
36.6165999395
 21
22.1117562587
  0
LINE
  5
229
100
AcDbEntity
  8
0
100
AcDbLine
 62
7
  6
CONTINUOUS
 10
23.2448629553
 20
-22.1117562587
 11
36.6165999395
 21
-22.1117562587
  0
LINE
  5
22A
100
AcDbEntity
  8
0
100
AcDbLine
 62
7
  6
CONTINUOUS
 10
35.1165999395
 20
22.1117562587
 11
35.1165999395
 21
-0.0
  0
LINE
  5
22B
100
AcDbEntity
  8
0
100
AcDbLine
 62
7
  6
CONTINUOUS
 10
35.1165999395
 20
-22.1117562587
 11
35.1165999395
 21
-0.0
  0
INSERT
  5
22C
100
AcDbEntity
  8
0
100
AcDbBlockReference
 62
7
  6
CONTINUOUS
  2
_FILLED
 10
35.1165999395
 20
22.1117562587
 41
3.0
 42
3.0
 43
3.0
 50
90.0
  0
INSERT
  5
22D
100
AcDbEntity
  8
0
100
AcDbBlockReference
 62
7
  6
CONTINUOUS
  2
_FILLED
 10
35.1165999395
 20
-22.1117562587
 41
3.0
 42
3.0
 43
3.0
 50
270.0
  0
ENDBLK
  5
22E
100
AcDbEntity
  8
0
  6
BYBLOCK
 62
0
100
AcDbBlockEnd
  0
BLOCK
  5
22F
100
AcDbEntity
  8
0
100
AcDbBlockBegin
 62
7
  6
CONTINUOUS
  2
*D2
 70
65
 10
0.0
 20
0.0
  3
*D2
  1

  0
LINE
  5
230
100
AcDbEntity
  8
0
100
AcDbLine
 62
7
  6
CONTINUOUS
 10
-31.5787751109
 20
13.7689805518
 11
-31.5787751109
 21
36.8943938178
  0
LINE
  5
231
100
AcDbEntity
  8
0
100
AcDbLine
 62
7
  6
CONTINUOUS
 10
-36.2707307797
 20
-1.0018577335
 11
-36.2707307797
 21
36.8943938178
  0
LINE
  5
232
100
AcDbEntity
  8
0
100
AcDbLine
 62
7
  6
CONTINUOUS
 10
-31.5787751109
 20
35.3943938178
 11
-27.5787751109
 21
35.3943938178
  0
LINE
  5
233
100
AcDbEntity
  8
0
100
AcDbLine
 62
7
  6
CONTINUOUS
 10
-27.5787751109
 20
35.3943938178
 11
-33.9247529453
 21
35.3943938178
  0
LINE
  5
234
100
AcDbEntity
  8
0
100
AcDbLine
 62
7
  6
CONTINUOUS
 10
-36.2707307797
 20
35.3943938178
 11
-46.5278684732
 21
35.3943938178
  0
LINE
  5
235
100
AcDbEntity
  8
0
100
AcDbLine
 62
7
  6
CONTINUOUS
 10
-46.5278684732
 20
35.3943938178
 11
-33.9247529453
 21
35.3943938178
  0
INSERT
  5
236
100
AcDbEntity
  8
0
100
AcDbBlockReference
 62
7
  6
CONTINUOUS
  2
_FILLED
 10
-31.5787751109
 20
35.3943938178
 41
3.0
 42
3.0
 43
3.0
 50
180.0
  0
INSERT
  5
237
100
AcDbEntity
  8
0
100
AcDbBlockReference
 62
7
  6
CONTINUOUS
  2
_FILLED
 10
-36.2707307797
 20
35.3943938178
 41
3.0
 42
3.0
 43
3.0
  0
ENDBLK
  5
238
100
AcDbEntity
  8
0
  6
BYBLOCK
 62
0
100
AcDbBlockEnd
  0
ENDSEC
  0
SECTION
  2
ENTITIES
  0
DIMENSION
  5
239
100
AcDbEntity
  8
0
100
AcDbDimension
 62
7
  6
CONTINUOUS
  2
*D0
 10
22.287406726
 20
35.3943938178
 11
-4.3928571429
 21
36.1443938178
 70
160
 71
2
 42
44.574813452
  3
DIMSTYLE_1
100
AcDbAlignedDimension
 13
-22.287406726
 23
22.4305789785
 14
22.287406726
 24
22.1124414913
100
AcDbRotatedDimension
  0
DIMENSION
  5
23A
100
AcDbEntity
  8
0
100
AcDbDimension
 62
7
  6
CONTINUOUS
  2
*D1
 10
35.1165999395
 20
-22.1117562587
 11
34.3665999395
 21
-4.3928571429
 70
160
 71
2
 42
44.2235125174
  3
DIMSTYLE_1
100
AcDbAlignedDimension
 13
23.0867922693
 23
22.1117562587
 14
23.2448629553
 24
-22.1117562587
 50
270.0
100
AcDbRotatedDimension
  0
DIMENSION
  5
23B
100
AcDbEntity
  8
0
100
AcDbDimension
 62
7
  6
CONTINUOUS
  2
*D2
 10
-36.2707307797
 20
35.3943938178
 11
-46.5278684732
 21
36.1443938178
 70
160
 71
3
 42
4.6919556688
  3
DIMSTYLE_1
100
AcDbAlignedDimension
 13
-31.5787751109
 23
13.7689805518
 14
-36.2707307797
 24
-1.0018577335
 50
180.0
100
AcDbRotatedDimension
  0
LWPOLYLINE
  5
23C
100
AcDbEntity
  8
0
100
AcDbPolyline
 62
7
  6
CONTINUOUS
 90
10
 70
0
 43
0.3500000006
 10
3.1071428747
 20
39.1443921204
 10
2.464285738
 20
38.5015386658
 10
2.0357142191
 20
37.6443916626
 10
2.0357142191
 20
36.5729647064
 10
2.464285738
 20
36.1443957367
 10
3.1071428747
 20
36.1443957367
 10
3.5357143936
 20
36.5729647064
 10
3.5357143936
 20
37.4301071777
 10
3.1071428747
 20
37.8586806793
 10
2.1785714865
 20
37.8586806793
  0
LWPOLYLINE
  5
23D
100
AcDbEntity
  8
RACCORDO
100
AcDbPolyline
 62
253
  6
CONTINUOUS
 90
16
 70
0
 10
21.7023437668
 20
-22.0260080669
 10
21.7544465492
 20
-22.023139509
 10
21.8059803902
 20
-22.014850594
 10
21.8563826301
 20
-22.0012318436
 10
21.9051029827
 20
-21.9824319648
 10
21.9516094979
 20
-21.9586562426
 10
21.9953943773
 20
-21.9301643127
 10
22.0359795809
 20
-21.8972672924
 10
22.0729220251
 20
-21.8603243785
 10
22.1058183837
 20
-21.8197389571
 10
22.1343095198
 20
-21.7759541764
 10
22.1580844095
 20
-21.7294480923
 10
22.1768835218
 20
-21.68072846
 10
22.1905016458
 20
-21.630327203
 10
22.198790135
 20
-21.5787946072
 10
22.2016585342
 20
-21.5266932995
  0
LWPOLYLINE
  5
23E
100
AcDbEntity
  8
RACCORDO
100
AcDbPolyline
 62
253
  6
CONTINUOUS
 90
16
 70
0
 10
-21.7023437492
 20
-22.0260080493
 10
-21.754445872
 20
-22.0231395627
 10
-21.8059791402
 20
-22.0148508418
 10
-21.8563809102
 20
-22.0012323836
 10
-21.9051008919
 20
-21.9824328752
 10
-21.9516071574
 20
-21.9586575711
 10
-21.9953919481
 20
-21.9301660514
 10
-22.0359772186
 20
-21.8972693888
 10
-22.0729198563
 20
-21.860326751
 10
-22.1058165189
 20
-21.8197414805
 10
-22.1343080384
 20
-21.7759566898
 10
-22.1580833425
 20
-21.7294504243
 10
-22.1768828509
 20
-21.6807304426
 10
-22.1905013091
 20
-21.6303286727
 10
-22.1987900299
 20
-21.5787954046
 10
-22.2016585166
 20
-21.5266932819
  0
LINE
  5
23F
100
AcDbEntity
  8
RACCORDO
100
AcDbLine
 62
253
  6
CONTINUOUS
 10
-21.6947031525
 20
21.8950684657
 11
-21.6924606727
 21
21.8076660712
  0
LINE
  5
240
100
AcDbEntity
  8
RACCORDO
100
AcDbLine
 62
253
  6
CONTINUOUS
 10
-22.170681661
 20
21.1403470978
 11
-22.1687021312
 21
21.0493096838
  0
LINE
  5
241
100
AcDbEntity
  8
RACCORDO
100
AcDbLine
 62
253
  6
CONTINUOUS
 10
-21.6924606727
 20
21.8076660712
 11
-21.6904669458
 21
21.7009339172
  0
LINE
  5
242
100
AcDbEntity
  8
RACCORDO
100
AcDbLine
 62
253
  6
CONTINUOUS
 10
-22.1687021312
 20
21.0493096838
 11
-22.167416629
 21
20.9546247098
  0
LINE
  5
243
100
AcDbEntity
  8
RACCORDO
100
AcDbLine
 62
253
  6
CONTINUOUS
 10
-21.6904669458
 20
21.7009339172
 11
-21.6879808233
 21
21.5093244253
  0
LINE
  5
244
100
AcDbEntity
  8
RACCORDO
100
AcDbLine
 62
253
  6
CONTINUOUS
 10
-21.6879808233
 20
21.5093244253
 11
-21.6857987396
 21
21.2086712693
  0
LINE
  5
245
100
AcDbEntity
  8
RACCORDO
100
AcDbLine
 62
253
  6
CONTINUOUS
 10
-22.167416629
 20
20.9546247098
 11
-22.1668384275
 21
20.8570387366
  0
LWPOLYLINE
  5
246
100
AcDbEntity
  8
RACCORDO
100
AcDbPolyline
 62
253
  6
CONTINUOUS
 90
9
 70
0
 10
-22.1668384275
 20
20.8570387366
 10
-22.1577103532
 20
16.2236957683
 10
-22.1508642975
 20
11.5895754055
 10
-22.1463002606
 20
6.9546776482
 10
-22.1440182427
 20
2.3184841468
 10
-22.1440182435
 20
-2.3184867491
 10
-22.1463002624
 20
-6.9546799903
 10
-22.1508642993
 20
-11.5895772271
 10
-22.1577103543
 20
-16.2236968092
  0
LWPOLYLINE
  5
247
100
AcDbEntity
  8
RACCORDO
100
AcDbPolyline
 62
253
  6
CONTINUOUS
 90
8
 70
0
 10
-21.6778538644
 20
16.2407570029
 10
-21.6724376572
 20
11.6018160204
 10
-21.6688268518
 20
6.9616915799
 10
-21.6670214495
 20
2.3206845026
 10
-21.6670214504
 20
-2.3206884478
 10
-21.668826854
 20
-6.9616951304
 10
-21.6724376594
 20
-11.6018187816
 10
-21.6778538659
 20
-16.2407585807
  0
LINE
  5
248
100
AcDbEntity
  8
RACCORDO
100
AcDbLine
 62
253
  6
CONTINUOUS
 10
-21.6857987396
 20
21.2086712693
 11
-21.6778538644
 21
16.2407570029
  0
LINE
  5
249
100
AcDbEntity
  8
0
100
AcDbLine
 62
7
  6
CONTINUOUS
 10
-22.287406726
 20
21.6124414913
 11
-22.287406726
 21
-21.6124414913
  0
LINE
  5
24A
100
AcDbEntity
  8
RACCORDO
100
AcDbLine
 62
253
  6
CONTINUOUS
 10
-21.6778538659
 20
-16.2407585807
 11
-21.6852567712
 21
-21.0455560812
  0
LINE
  5
24B
100
AcDbEntity
  8
RACCORDO
100
AcDbLine
 62
253
  6
CONTINUOUS
 10
-22.1577103543
 20
-16.2236968092
 11
-22.1670396041
 21
-20.906217702
  0
LINE
  5
24C
100
AcDbEntity
  8
RACCORDO
100
AcDbLine
 62
253
  6
CONTINUOUS
 10
-21.6852567712
 20
-21.0455560812
 11
-21.6867133762
 21
-21.3642660287
  0
LINE
  5
24D
100
AcDbEntity
  8
RACCORDO
100
AcDbLine
 62
253
  6
CONTINUOUS
 10
-21.6867133762
 20
-21.3642660287
 11
-21.6887278514
 21
-21.576995267
  0
LINE
  5
24E
100
AcDbEntity
  8
RACCORDO
100
AcDbLine
 62
253
  6
CONTINUOUS
 10
-22.1670396041
 20
-20.906217702
 11
-22.1679690498
 21
-21.0022169117
  0
LINE
  5
24F
100
AcDbEntity
  8
RACCORDO
100
AcDbLine
 62
253
  6
CONTINUOUS
 10
-21.6887278514
 20
-21.576995267
 11
-21.6904666751
 21
-21.7009353181
  0
LWPOLYLINE
  5
250
100
AcDbEntity
  8
RACCORDO
100
AcDbPolyline
 62
253
  6
CONTINUOUS
 90
18
 70
0
 10
-22.1679690498
 20
-21.0022169117
 10
-22.1696101426
 20
-21.0955695597
 10
-22.1706809495
 20
-21.1403189239
 10
-22.1719164945
 20
-21.1834905098
 10
-22.1733144512
 20
-21.2251282561
 10
-22.1748545557
 20
-21.2646163791
 10
-22.1765390738
 20
-21.3019250411
 10
-22.1783657396
 20
-21.3370840798
 10
-22.1803074917
 20
-21.369567225
 10
-22.1823660363
 20
-21.3993327255
 10
-22.1845396673
 20
-21.4264223325
 10
-22.1867962049
 20
-21.4504350292
 10
-22.1891380186
 20
-21.4713260608
 10
-22.191562739
 20
-21.489140182
 10
-22.1940310779
 20
-21.5036106401
 10
-22.196529939
 20
-21.5146485172
 10
-22.1990724186
 20
-21.5223427312
 10
-22.2016585166
 20
-21.5266932819
  0
LINE
  5
251
100
AcDbEntity
  8
RACCORDO
100
AcDbLine
 62
253
  6
CONTINUOUS
 10
-21.6904666751
 20
-21.7009353181
 11
-21.6924604453
 21
-21.8076670285
  0
LWPOLYLINE
  5
252
100
AcDbEntity
  8
RACCORDO
100
AcDbPolyline
 62
253
  6
CONTINUOUS
 90
8
 70
0
 10
-21.6924604453
 20
-21.8076670285
 10
-21.6947030398
 20
-21.8950690731
 10
-21.6958885828
 20
-21.9309580933
 10
-21.6971338184
 20
-21.9613944703
 10
-21.6983935316
 20
-21.9862291518
 10
-21.6996622345
 20
-22.0053370027
 10
-21.700974096
 20
-22.0186195414
 10
-21.7023437492
 20
-22.0260080493
  0
LWPOLYLINE
  5
253
100
AcDbEntity
  8
RACCORDO
100
AcDbPolyline
 62
253
  6
CONTINUOUS
 90
14
 70
0
 10
21.7829205257
 20
-20.8773337176
 10
21.8303890742
 20
-20.8766470669
 10
21.8762661728
 20
-20.8757688125
 10
21.9201035305
 20
-20.8747075363
 10
21.9614727877
 20
-20.8734736086
 10
21.9999697021
 20
-20.8720790869
 10
22.0352180986
 20
-20.8705375977
 10
22.0668735452
 20
-20.8688642039
 10
22.0946267186
 20
-20.867075257
 10
22.1182064271
 20
-20.865188238
 10
22.1373822599
 20
-20.863221586
 10
22.1519668391
 20
-20.8611945182
 10
22.1618176507
 20
-20.8591268422
 10
22.1668384366
 20
-20.8570387625
  0
LINE
  5
254
100
AcDbEntity
  8
RACCORDO
100
AcDbLine
 62
253
  6
CONTINUOUS
 10
21.6850754654
 20
-20.8781073069
 11
21.7829205257
 21
-20.8773337176
  0
LINE
  5
255
100
AcDbEntity
  8
RACCORDO
100
AcDbLine
 62
253
  6
CONTINUOUS
 10
-21.7023437504
 20
-22.0260080504
 11
-14.9351825669
 21
-22.0154308735
  0
LINE
  5
256
100
AcDbEntity
  8
RACCORDO
100
AcDbLine
 62
253
  6
CONTINUOUS
 10
-14.9351825669
 20
-22.0154308735
 11
-8.1922764616
 21
-22.0087774091
  0
LINE
  5
257
100
AcDbEntity
  8
RACCORDO
100
AcDbLine
 62
253
  6
CONTINUOUS
 10
-21.685075472
 20
-20.8781072465
 11
-8.1841943372
 21
-20.8713008997
  0
LINE
  5
258
100
AcDbEntity
  8
RACCORDO
100
AcDbLine
 62
253
  6
CONTINUOUS
 10
-8.1922764616
 20
-22.0087774091
 11
-1.386525139
 21
-22.005995887
  0
LINE
  5
259
100
AcDbEntity
  8
0
100
AcDbLine
 62
7
  6
CONTINUOUS
 10
-21.7880919586
 20
-22.1117562587
 11
21.7880919586
 21
-22.1117562587
  0
LINE
  5
25A
100
AcDbEntity
  8
RACCORDO
100
AcDbLine
 62
253
  6
CONTINUOUS
 10
-1.386525139
 20
-22.005995887
 11
5.6822838363
 21
-22.007291536
  0
LINE
  5
25B
100
AcDbEntity
  8
RACCORDO
100
AcDbLine
 62
253
  6
CONTINUOUS
 10
-8.1841943372
 20
-20.8713008997
 11
10.6762914945
 21
-20.8720819903
  0
LINE
  5
25C
100
AcDbEntity
  8
RACCORDO
100
AcDbLine
 62
253
  6
CONTINUOUS
 10
10.6762914945
 20
-20.8720819903
 11
21.6850754654
 21
-20.8781072728
  0
LINE
  5
25D
100
AcDbEntity
  8
RACCORDO
100
AcDbLine
 62
253
  6
CONTINUOUS
 10
5.6822838363
 20
-22.007291536
 11
10.6804877979
 21
-22.0107495721
  0
LINE
  5
25E
100
AcDbEntity
  8
RACCORDO
100
AcDbLine
 62
253
  6
CONTINUOUS
 10
10.6804877979
 20
-22.0107495721
 11
16.0115169574
 21
-22.0169324323
  0
LINE
  5
25F
100
AcDbEntity
  8
RACCORDO
100
AcDbLine
 62
253
  6
CONTINUOUS
 10
16.0115169574
 20
-22.0169324323
 11
21.7023437668
 21
-22.0260080669
  0
LWPOLYLINE
  5
260
100
AcDbEntity
  8
RACCORDO
100
AcDbPolyline
 62
253
  6
CONTINUOUS
 90
15
 70
0
 10
-21.6850750309
 20
-20.8781067346
 10
-21.7829191275
 20
-20.877333173
 10
-21.8303872486
 20
-20.8766465446
 10
-21.8762639746
 20
-20.8757683177
 10
-21.9201010272
 20
-20.8747070737
 10
-21.9614700586
 20
-20.8734731824
 10
-21.9999668369
 20
-20.8720787007
 10
-22.0352151961
 20
-20.8705372545
 10
-22.0668707116
 20
-20.8688639058
 10
-22.0946240658
 20
-20.8670750056
 10
-22.1182040706
 20
-20.8651880339
 10
-22.1373803172
 20
-20.8632214288
 10
-22.1519654274
 20
-20.861194407
 10
-22.1618168849
 20
-20.859126775
 10
-22.1668384274
 20
-20.8570387366
  0
LWPOLYLINE
  5
261
100
AcDbEntity
  8
RACCORDO
100
AcDbPolyline
 62
253
  6
CONTINUOUS
 90
7
 70
0
 10
-21.7023437493
 20
22.0260080494
 10
-21.7009741313
 20
22.0186193697
 10
-21.6996622981
 20
22.0053365549
 10
-21.6983936165
 20
21.9862284249
 10
-21.6971339111
 20
21.9613936369
 10
-21.695888678
 20
21.9309573763
 10
-21.6947031525
 20
21.8950684657
  0
LWPOLYLINE
  5
262
100
AcDbEntity
  8
0
100
AcDbPolyline
 62
7
  6
CONTINUOUS
 90
3
 70
0
 43
0.3500000006
 10
1.035714268
 20
36.4301068726
 10
0.9642857051
 20
36.2158223877
 10
0.8214285793
 20
35.93010672
  0
LWPOLYLINE
  5
263
100
AcDbEntity
  8
RACCORDO
100
AcDbPolyline
 62
253
  6
CONTINUOUS
 90
16
 70
0
 10
-22.2016585167
 20
21.526693282
 10
-22.1990728442
 20
21.5223441275
 10
-22.1965307205
 20
21.5146516989
 10
-22.1940321457
 20
21.5036159961
 10
-22.191564004
 20
21.4891480196
 10
-22.1891394111
 20
21.4713367689
 10
-22.186797714
 20
21.4504492426
 10
-22.1845413251
 20
21.4264412853
 10
-22.1823678319
 20
21.3993570523
 10
-22.1803093446
 20
21.3695960086
 10
-22.178367533
 20
21.33711607
 10
-22.1765407271
 20
21.3019593207
 10
-22.174856027
 20
21.2646514771
 10
-22.1733156859
 20
21.2251620882
 10
-22.1719174505
 20
21.1835216051
 10
-22.170681661
 20
21.1403470978
  0
LWPOLYLINE
  5
264
100
AcDbEntity
  8
0
100
AcDbPolyline
 62
7
  6
CONTINUOUS
 90
2
 70
0
 43
0.3500000006
 10
-3.3928571262
 20
36.1443957367
 10
-3.3928571262
 20
37.6443916626
  0
LINE
  5
265
100
AcDbEntity
  8
0
100
AcDbLine
 62
7
  6
CONTINUOUS
 10
-2.2500127571
 20
-1.5018577335
 11
-2.2500127571
 21
1.5018577335
  0
LWPOLYLINE
  5
266
100
AcDbEntity
  8
0
100
AcDbPolyline
 62
7
  6
CONTINUOUS
 90
49
 70
0
 10
-2.2500127571
 20
1.5018577335
 10
-2.2450867885
 20
1.6468301147
 10
-2.2311469288
 20
1.7895827426
 10
-2.2081589023
 20
1.93034227
 10
-2.1757518502
 20
2.0701027417
 10
-2.1341628408
 20
2.208275203
 10
-2.0842498305
 20
2.342645281
 10
-2.026012757
 20
2.472793845
 10
-1.9592462888
 20
2.599289418
 10
-1.8845050988
 20
2.7213010018
 10
-1.8014118404
 20
2.8390161082
 10
-1.7101174843
 20
2.9521446738
 10
-1.6120042865
 20
3.0590571235
 10
-1.5073396231
 20
3.159176557
 10
-1.3957098882
 20
3.2527534653
 10
-1.2775223715
 20
3.3393525057
 10
-1.1522494251
 20
3.4190368489
 10
-1.0203456865
 20
3.4912769956
 10
-0.8837510848
 20
3.5547618682
 10
-0.7421655912
 20
3.6091141693
 10
-0.5959701578
 20
3.6542649104
 10
-0.4482080874
 20
3.68949427
 10
-0.2996021128
 20
3.714480289
 10
-0.149639278
 20
3.7293606911
 10
0.000449159
 20
3.7342593654
 10
0.1505542261
 20
3.7292970819
 10
0.3005554642
 20
3.714352302
 10
0.4492043835
 20
3.6892929935
 10
0.5969970767
 20
3.6539882283
 10
0.7432275359
 20
3.6087535827
 10
0.8848853777
 20
3.5542806293
 10
1.0216508543
 20
3.4905928543
 10
1.1537610228
 20
3.418111203
 10
1.279124564
 20
3.3382547052
 10
1.3972068025
 20
3.2515975787
 10
1.5086203386
 20
3.1580359421
 10
1.6130549198
 20
3.0579857691
 10
1.7109336081
 20
2.9512188051
 10
1.8019802183
 20
2.8382876239
 10
1.8848790667
 20
2.7207320362
 10
1.9595159137
 20
2.5987886957
 10
2.0262290099
 20
2.4723238673
 10
2.0844160416
 20
2.3422397387
 10
2.1342606139
 20
2.2080215902
 10
2.1757844575
 20
2.0700339951
 10
2.2081475768
 20
1.9303996911
 10
2.2311186489
 20
1.7896778702
 10
2.2450623071
 20
1.6469058221
 10
2.2500127571
 20
1.5018577335
  0
LWPOLYLINE
  5
267
100
AcDbEntity
  8
0
100
AcDbPolyline
 62
7
  6
CONTINUOUS
 90
2
 70
0
 43
0.3500000006
 10
34.3665993576
 20
-3.3928568802
 10
32.8665988998
 20
-3.3928568802
  0
LWPOLYLINE
  5
268
100
AcDbEntity
  8
0
100
AcDbPolyline
 62
7
  6
CONTINUOUS
 90
64
 70
0
 10
-0.9988614219
 20
-1.548625107
 10
-0.9953471916
 20
-1.5967680909
 10
-0.9894563654
 20
-1.6448106824
 10
-0.9811034946
 20
-1.6930876514
 10
-0.9703704981
 20
-1.7412795435
 10
-0.9575069935
 20
-1.7884111019
 10
-0.9424383794
 20
-1.8343387133
 10
-0.9252334248
 20
-1.879215192
 10
-0.9063573173
 20
-1.9225058009
 10
-0.8858866847
 20
-1.9639933223
 10
-0.8637393406
 20
-2.0038962878
 10
-0.8401433122
 20
-2.0423303057
 10
-0.8152016683
 20
-2.0792502043
 10
-0.7888063993
 20
-2.1146979997
 10
-0.7608691885
 20
-2.1489188259
 10
-0.7314479504
 20
-2.1819546242
 10
-0.7004796125
 20
-2.2137571147
 10
-0.667693693
 20
-2.2444352836
 10
-0.6330958927
 20
-2.2740845302
 10
-0.5966748453
 20
-2.3025985752
 10
-0.5581334806
 20
-2.3297822508
 10
-0.5171725502
 20
-2.3557915076
 10
-0.4740856579
 20
-2.3804522541
 10
-0.4294662798
 20
-2.4030737603
 10
-0.3831747956
 20
-2.4235686626
 10
-0.3353510737
 20
-2.4420044636
 10
-0.2870116981
 20
-2.457927542
 10
-0.2382993426
 20
-2.4711696886
 10
-0.1890778498
 20
-2.4818881019
 10
-0.139948312
 20
-2.4901246193
 10
-0.0911116032
 20
-2.4958585731
 10
-0.0423750694
 20
-2.4991088688
 10
0.0062499246
 20
-2.4999804618
 10
0.0547623603
 20
-2.4985131459
 10
0.1031554912
 20
-2.4946683849
 10
0.1514094473
 20
-2.4884346062
 10
0.1997050185
 20
-2.4797902271
 10
0.2478538806
 20
-2.4687610271
 10
0.2952832171
 20
-2.4554099477
 10
0.3420688391
 20
-2.439616273
 10
0.3881297309
 20
-2.4215130843
 10
0.4326602894
 20
-2.4015499517
 10
0.4755076359
 20
-2.3797174511
 10
0.5168249413
 20
-2.3560434246
 10
0.5562685081
 20
-2.3310364792
 10
0.5936261038
 20
-2.3048522119
 10
0.6291144545
 20
-2.2773509277
 10
0.6630339105
 20
-2.2485974836
 10
0.6954282954
 20
-2.2186635683
 10
0.7262581941
 20
-2.1874876816
 10
0.7556983279
 20
-2.1549335648
 10
0.7838093959
 20
-2.121038631
 10
0.8105351134
 20
-2.0857721183
 10
0.8358744777
 20
-2.0488947328
 10
0.8599294497
 20
-2.0103556107
 10
0.882602747
 20
-1.9702093675
 10
0.9035951491
 20
-1.9283734578
 10
0.9229816651
 20
-1.8846243463
 10
0.9406929639
 20
-1.8391846364
 10
0.9562146477
 20
-1.7926373293
 10
0.9694697339
 20
-1.7448236611
 10
0.9805413525
 20
-1.6958930065
 10
0.9891559083
 20
-1.6468860477
 10
0.9952235796
 20
-1.5981437501
  0
LINE
  5
269
100
AcDbEntity
  8
0
100
AcDbLine
 62
7
  6
CONTINUOUS
 10
-0.9999999301
 20
-1.5003737219
 11
-0.9988614219
 21
-1.548625107
  0
LWPOLYLINE
  5
26A
100
AcDbEntity
  8
0
100
AcDbPolyline
 62
7
  6
CONTINUOUS
 90
2
 70
0
 43
0.3500000006
 10
-1.035714268
 20
36.1443957367
 10
-1.035714268
 20
37.6443916626
  0
LINE
  5
26B
100
AcDbEntity
  8
0
100
AcDbLine
 62
7
  6
CONTINUOUS
 10
-1.0
 20
1.5003737219
 11
-1.0
 21
-1.5003737219
  0
LINE
  5
26C
100
AcDbEntity
  8
DRAFT
100
AcDbLine
 62
7
  6
CONTINUOUS
 10
-1.0000000018
 20
-1.4999966644
 11
-1.0000000018
 21
1.4999962107
  0
LWPOLYLINE
  5
26D
100
AcDbEntity
  8
DRAFT
100
AcDbPolyline
 62
7
  6
CONTINUOUS
 90
40
 70
0
 10
-0.9999999993
 20
1.4999962107
 10
-0.9965183704
 20
1.5816636731
 10
-0.986774436
 20
1.6616624414
 10
-0.9707618801
 20
1.7400251219
 10
-0.948282399
 20
1.8172480722
 10
-0.9195101457
 20
1.8928895482
 10
-0.8849939532
 20
1.965563978
 10
-0.8445361446
 20
2.0352881944
 10
-0.7982983275
 20
2.102053255
 10
-0.7473722892
 20
2.1644165332
 10
-0.6917999959
 20
2.2221214192
 10
-0.6315121556
 20
2.2753824496
 10
-0.5674435339
 20
2.3234520756
 10
-0.4993751966
 20
2.3663093234
 10
-0.4275170018
 20
2.4039054022
 10
-0.3534599651
 20
2.4354545448
 10
-0.277200311
 20
2.46075237
 10
-0.1987592769
 20
2.4799429345
 10
-0.1197772915
 20
2.492784332
 10
-0.0404832133
 20
2.4991941831
 10
0.0393190007
 20
2.4992359433
 10
0.1186222388
 20
2.4929120226
 10
0.1976156446
 20
2.4801680385
 10
0.2760772259
 20
2.4610770817
 10
0.3523871232
 20
2.4358582111
 10
0.4265351627
 20
2.4043645182
 10
0.4985137738
 20
2.3668028653
 10
0.566718849
 20
2.3239442223
 10
0.6309526423
 20
2.27581913
 10
0.6914217126
 20
2.2224670446
 10
0.7471417365
 20
2.1646760472
 10
0.7981595882
 20
2.1022457261
 10
0.8444560514
 20
2.0354188034
 10
0.8849576911
 20
1.9656363997
 10
0.9195073581
 20
1.8928993835
 10
0.9482983891
 20
1.8171989606
 10
0.9707870155
 20
1.7399433918
 10
0.9868007821
 20
1.6615819458
 10
0.9965363365
 20
1.5816106016
 10
0.9999999993
 20
1.4999966644
  0
LWPOLYLINE
  5
26E
100
AcDbEntity
  8
0
100
AcDbPolyline
 62
7
  6
CONTINUOUS
 90
3
 70
0
 10
-0.9952235796
 20
1.5981437501
 10
-0.9988379443
 20
1.5493091067
 10
-0.9999999302
 20
1.5003737219
  0
LINE
  5
26F
100
AcDbEntity
  8
0
100
AcDbLine
 62
253
  6
CONTINUOUS
 10
-22.2016585166
 20
-21.5266932819
 11
-22.287406726
 21
-21.6124414913
  0
LINE
  5
270
100
AcDbEntity
  8
0
100
AcDbLine
 62
253
  6
CONTINUOUS
 10
21.7023437669
 20
22.026008067
 11
21.7880919586
 21
22.1117562587
  0
LINE
  5
271
100
AcDbEntity
  8
0
100
AcDbLine
 62
253
  6
CONTINUOUS
 10
-21.7023437504
 20
-22.0260080504
 11
-21.7880919586
 21
-22.1117562587
  0
LINE
  5
272
100
AcDbEntity
  8
DRAFT
100
AcDbLine
 62
253
  6
CONTINUOUS
 10
-0.9999999993
 20
-1.4999966644
 11
-2.2500127571
 21
-1.5018577335
  0
LWPOLYLINE
  5
273
100
AcDbEntity
  8
0
100
AcDbPolyline
 62
7
  6
CONTINUOUS
 90
2
 70
0
 43
0.3500000006
 10
34.3665993576
 20
-1.0357139511
 10
32.8665988998
 20
-1.0357139511
  0
LINE
  5
274
100
AcDbEntity
  8
DRAFT
100
AcDbLine
 62
253
  6
CONTINUOUS
 10
2.25
 20
-0.0
 11
1.0
 21
-0.0
  0
LINE
  5
275
100
AcDbEntity
  8
0
100
AcDbLine
 62
253
  6
CONTINUOUS
 10
1.0
 20
-0.0
 11
-1.0
 21
-0.0
  0
LINE
  5
276
100
AcDbEntity
  8
DRAFT
100
AcDbLine
 62
253
  6
CONTINUOUS
 10
-1.0
 20
-0.0
 11
-2.25
 21
-0.0
  0
LINE
  5
277
100
AcDbEntity
  8
0
100
AcDbLine
 62
253
  6
CONTINUOUS
 10
0.9999999302
 20
-1.5003737219
 11
-0.9999999301
 21
-1.5003737219
  0
LINE
  5
278
100
AcDbEntity
  8
DRAFT
100
AcDbLine
 62
253
  6
CONTINUOUS
 10
2.2500127571
 20
-1.5018577335
 11
0.9999999993
 21
-1.4999962107
  0
LINE
  5
279
100
AcDbEntity
  8
0
100
AcDbLine
 62
253
  6
CONTINUOUS
 10
-22.287406726
 20
21.6124414913
 11
-22.2016585167
 21
21.526693282
  0
LINE
  5
27A
100
AcDbEntity
  8
0
100
AcDbLine
 62
253
  6
CONTINUOUS
 10
21.7880919586
 20
-22.1117562587
 11
21.7023437668
 21
-22.0260080669
  0
LINE
  5
27B
100
AcDbEntity
  8
0
100
AcDbLine
 62
253
  6
CONTINUOUS
 10
-21.7880919586
 20
22.1117562587
 11
-21.7023437503
 21
22.0260080504
  0
LWPOLYLINE
  5
27C
100
AcDbEntity
  8
0
100
AcDbPolyline
 62
7
  6
CONTINUOUS
 90
64
 70
0
 10
0.9988614219
 20
1.548625107
 10
0.9953471916
 20
1.5967680909
 10
0.9894563654
 20
1.6448106824
 10
0.9811034946
 20
1.6930876514
 10
0.9703704981
 20
1.7412795435
 10
0.9575069935
 20
1.7884111019
 10
0.9424383794
 20
1.8343387133
 10
0.9252334248
 20
1.879215192
 10
0.9063573173
 20
1.9225058009
 10
0.8858866847
 20
1.9639933222
 10
0.8637393406
 20
2.0038962878
 10
0.8401433122
 20
2.0423303057
 10
0.8152016683
 20
2.0792502043
 10
0.7888063994
 20
2.1146979996
 10
0.7608691885
 20
2.1489188259
 10
0.7314479504
 20
2.1819546241
 10
0.7004796125
 20
2.2137571147
 10
0.667693693
 20
2.2444352836
 10
0.6330958927
 20
2.2740845302
 10
0.5966748453
 20
2.3025985752
 10
0.5581334806
 20
2.3297822507
 10
0.5171725503
 20
2.3557915076
 10
0.4740856579
 20
2.3804522541
 10
0.4294662798
 20
2.4030737603
 10
0.3831747956
 20
2.4235686626
 10
0.3353510736
 20
2.4420044636
 10
0.2870116981
 20
2.457927542
 10
0.2382993426
 20
2.4711696887
 10
0.1890778498
 20
2.4818881019
 10
0.139948312
 20
2.4901246193
 10
0.0911116031
 20
2.4958585731
 10
0.0423750694
 20
2.4991088688
 10
-0.0062499246
 20
2.4999804618
 10
-0.0547623603
 20
2.4985131459
 10
-0.1031554912
 20
2.4946683849
 10
-0.1514094473
 20
2.4884346062
 10
-0.1997050185
 20
2.4797902271
 10
-0.2478538806
 20
2.4687610271
 10
-0.2952832171
 20
2.4554099477
 10
-0.3420688391
 20
2.439616273
 10
-0.3881297309
 20
2.4215130843
 10
-0.4326602894
 20
2.4015499517
 10
-0.4755076359
 20
2.3797174511
 10
-0.5168249413
 20
2.3560434246
 10
-0.5562685081
 20
2.3310364792
 10
-0.5936261038
 20
2.3048522119
 10
-0.6291144545
 20
2.2773509277
 10
-0.6630339105
 20
2.2485974836
 10
-0.6954282954
 20
2.2186635683
 10
-0.7262581941
 20
2.1874876817
 10
-0.7556983279
 20
2.1549335648
 10
-0.7838093958
 20
2.121038631
 10
-0.8105351134
 20
2.0857721184
 10
-0.8358744777
 20
2.0488947328
 10
-0.8599294497
 20
2.0103556108
 10
-0.882602747
 20
1.9702093675
 10
-0.9035951491
 20
1.9283734578
 10
-0.9229816651
 20
1.8846243463
 10
-0.9406929639
 20
1.8391846364
 10
-0.9562146476
 20
1.7926373293
 10
-0.9694697339
 20
1.7448236612
 10
-0.9805413525
 20
1.6958930065
 10
-0.9891559083
 20
1.6468860477
 10
-0.9952235796
 20
1.5981437501
  0
LINE
  5
27D
100
AcDbEntity
  8
0
100
AcDbLine
 62
7
  6
CONTINUOUS
 10
0.9999999301
 20
1.5003737219
 11
0.9988614219
 21
1.548625107
  0
LINE
  5
27E
100
AcDbEntity
  8
DRAFT
100
AcDbLine
 62
7
  6
CONTINUOUS
 10
1.0000000018
 20
1.4999966644
 11
1.0000000018
 21
-1.4999962107
  0
LINE
  5
27F
100
AcDbEntity
  8
0
100
AcDbLine
 62
7
  6
CONTINUOUS
 10
1.0
 20
-1.5003737219
 11
1.0
 21
1.5003737219
  0
LINE
  5
280
100
AcDbEntity
  8
0
100
AcDbLine
 62
7
  6
CONTINUOUS
 10
2.2500127571
 20
1.5018577335
 11
2.2500127571
 21
-1.5018577335
  0
LWPOLYLINE
  5
281
100
AcDbEntity
  8
0
100
AcDbPolyline
 62
7
  6
CONTINUOUS
 90
49
 70
0
 10
2.2500127571
 20
-1.5018577335
 10
2.2450871766
 20
-1.6468283654
 10
2.2311475018
 20
-1.7895800535
 10
2.2081594567
 20
-1.9303394589
 10
2.1757521986
 20
-2.0701009031
 10
2.1341627763
 20
-2.2082751696
 10
2.0842490901
 20
-2.342647087
 10
2.0260109119
 20
-2.4727974519
 10
1.9592430649
 20
-2.5992948695
 10
1.884500652
 20
-2.721307765
 10
1.8014063736
 20
-2.8390234024
 10
1.7101111584
 20
-2.9521519497
 10
1.6119975729
 20
-3.059063965
 10
1.5073346531
 20
-3.159181758
 10
1.3957071712
 20
-3.2527566172
 10
1.2775177263
 20
-3.3393556855
 10
1.1522384708
 20
-3.4190433631
 10
1.0203241082
 20
-3.491288769
 10
0.8837101421
 20
-3.5547792251
 10
0.7420947103
 20
-3.6091380668
 10
0.5958604495
 20
-3.654295059
 10
0.4480515142
 20
-3.6895258593
 10
0.2993745314
 20
-3.7145057789
 10
0.1493327353
 20
-3.7293743006
 10
-0.0007930842
 20
-3.7342592712
 10
-0.1508610805
 20
-3.7292832359
 10
-0.3007836691
 20
-3.7143265267
 10
-0.4493614051
 20
-3.6892612288
 10
-0.5971062615
 20
-3.6539582305
 10
-0.7432964443
 20
-3.6087303576
 10
-0.8849228783
 20
-3.5542647067
 10
-1.0216674405
 20
-3.4905836877
 10
-1.1537654201
 20
-3.4181087008
 10
-1.2791217025
 20
-3.3382566677
 10
-1.397202015
 20
-3.251600233
 10
-1.5086183971
 20
-3.158036912
 10
-1.613055485
 20
-3.0579851924
 10
-1.7109346695
 20
-2.9512175584
 10
-1.8019814678
 20
-2.8382858597
 10
-1.8848802339
 20
-2.7207302597
 10
-1.9595165988
 20
-2.5987877052
 10
-2.026228953
 20
-2.4723241564
 10
-2.0844154173
 20
-2.3422412623
 10
-2.1342597499
 20
-2.2080243956
 10
-2.1757835215
 20
-2.0700380459
 10
-2.2081466956
 20
-1.9304041586
 10
-2.2311179357
 20
-1.789681665
 10
-2.2450618876
 20
-1.6469081258
 10
-2.2500127571
 20
-1.5018577335
  0
LWPOLYLINE
  5
282
100
AcDbEntity
  8
DRAFT
100
AcDbPolyline
 62
7
  6
CONTINUOUS
 90
40
 70
0
 10
0.9999999993
 20
-1.4999962107
 10
0.9965183704
 20
-1.5816636731
 10
0.986774436
 20
-1.6616624414
 10
0.9707618801
 20
-1.7400251219
 10
0.948282399
 20
-1.8172480722
 10
0.9195101457
 20
-1.8928895482
 10
0.8849939532
 20
-1.965563978
 10
0.8445361446
 20
-2.0352881944
 10
0.7982983275
 20
-2.102053255
 10
0.7473722892
 20
-2.1644165332
 10
0.6917999959
 20
-2.2221214192
 10
0.6315121556
 20
-2.2753824496
 10
0.5674435339
 20
-2.3234520756
 10
0.4993751966
 20
-2.3663093234
 10
0.4275170018
 20
-2.4039054022
 10
0.3534599651
 20
-2.4354545448
 10
0.277200311
 20
-2.46075237
 10
0.1987592769
 20
-2.4799429345
 10
0.1197772915
 20
-2.492784332
 10
0.0404832133
 20
-2.4991941831
 10
-0.0393190007
 20
-2.4992359433
 10
-0.1186222388
 20
-2.4929120226
 10
-0.1976156446
 20
-2.4801680385
 10
-0.2760772259
 20
-2.4610770817
 10
-0.3523871232
 20
-2.4358582111
 10
-0.4265351627
 20
-2.4043645182
 10
-0.4985137738
 20
-2.3668028653
 10
-0.566718849
 20
-2.3239442223
 10
-0.6309526423
 20
-2.27581913
 10
-0.6914217126
 20
-2.2224670446
 10
-0.7471417365
 20
-2.1646760472
 10
-0.7981595882
 20
-2.1022457261
 10
-0.8444560514
 20
-2.0354188034
 10
-0.8849576911
 20
-1.9656363997
 10
-0.9195073581
 20
-1.8928993835
 10
-0.9482983891
 20
-1.8171989606
 10
-0.9707870155
 20
-1.7399433918
 10
-0.9868007821
 20
-1.6615819458
 10
-0.9965363365
 20
-1.5816106016
 10
-0.9999999993
 20
-1.4999966644
  0
LWPOLYLINE
  5
283
100
AcDbEntity
  8
0
100
AcDbPolyline
 62
7
  6
CONTINUOUS
 90
3
 70
0
 10
0.9952235796
 20
-1.5981437501
 10
0.9988379443
 20
-1.5493091067
 10
0.9999999302
 20
-1.5003737219
  0
LINE
  5
284
100
AcDbEntity
  8
0
100
AcDbLine
 62
253
  6
CONTINUOUS
 10
22.2016585343
 20
21.5266932996
 11
22.287406726
 21
21.6124414913
  0
LINE
  5
285
100
AcDbEntity
  8
DRAFT
100
AcDbLine
 62
253
  6
CONTINUOUS
 10
0.9999999993
 20
1.4999966644
 11
2.2500127571
 21
1.5018577335
  0
LINE
  5
286
100
AcDbEntity
  8
0
100
AcDbLine
 62
253
  6
CONTINUOUS
 10
-0.9999999302
 20
1.5003737219
 11
0.9999999301
 21
1.5003737219
  0
LINE
  5
287
100
AcDbEntity
  8
DRAFT
100
AcDbLine
 62
253
  6
CONTINUOUS
 10
-2.2500127571
 20
1.5018577335
 11
-0.9999999993
 21
1.4999962107
  0
LINE
  5
288
100
AcDbEntity
  8
0
100
AcDbLine
 62
253
  6
CONTINUOUS
 10
22.287406726
 20
-21.6124414913
 11
22.2016585342
 21
-21.5266932995
  0
LWPOLYLINE
  5
289
100
AcDbEntity
  8
RACCORDO
100
AcDbPolyline
 62
253
  6
CONTINUOUS
 90
16
 70
0
 10
22.2016585342
 20
-21.5266932995
 10
22.1990724363
 20
-21.5223427488
 10
22.1965299567
 20
-21.5146485349
 10
22.1940310956
 20
-21.5036106578
 10
22.1915627568
 20
-21.4891402001
 10
22.1891380365
 20
-21.4713260792
 10
22.1867962228
 20
-21.4504350478
 10
22.1845396852
 20
-21.4264223514
 10
22.1823660543
 20
-21.3993327446
 10
22.1803075098
 20
-21.3695672443
 10
22.1783657576
 20
-21.3370840993
 10
22.1765390919
 20
-21.3019250607
 10
22.1748545738
 20
-21.2646163989
 10
22.1733144693
 20
-21.2251282759
 10
22.1719165126
 20
-21.1834905297
 10
22.1706809677
 20
-21.1403189438
  0
LWPOLYLINE
  5
28A
100
AcDbEntity
  8
0
100
AcDbPolyline
 62
7
  6
CONTINUOUS
 90
3
 70
0
 43
0.3500000006
 10
34.0808859558
 20
1.0357133102
 10
34.2951704407
 20
0.9642866592
 10
34.5808861084
 20
0.8214288254
  0
LWPOLYLINE
  5
28B
100
AcDbEntity
  8
0
100
AcDbPolyline
 62
7
  6
CONTINUOUS
 90
10
 70
0
 43
0.3500000006
 10
33.866599205
 20
0.9642866592
 10
34.0094570389
 20
1.0357133102
 10
34.0808859558
 20
1.0357133102
 10
34.2237437897
 20
0.8928577423
 10
34.2237437897
 20
0.8214288254
 10
34.1523148727
 20
0.7499999084
 10
34.0808859558
 20
0.7499999084
 10
33.9380281219
 20
0.8214288254
 10
33.866599205
 20
0.8928577423
 10
33.866599205
 20
0.9642866592
  0
LWPOLYLINE
  5
28C
100
AcDbEntity
  8
0
100
AcDbPolyline
 62
7
  6
CONTINUOUS
 90
10
 70
0
 43
0.3500000006
 10
0.9642857051
 20
36.6443958893
 10
1.035714268
 20
36.5015380554
 10
1.035714268
 20
36.4301068726
 10
0.8928571422
 20
36.2872490387
 10
0.8214285793
 20
36.2872490387
 10
0.7500000165
 20
36.3586802216
 10
0.7500000165
 20
36.4301068726
 10
0.8214285793
 20
36.5729647064
 10
0.8928571422
 20
36.6443958893
 10
0.9642857051
 20
36.6443958893
  0
LWPOLYLINE
  5
28D
100
AcDbEntity
  8
RACCORDO
100
AcDbPolyline
 62
253
  6
CONTINUOUS
 90
7
 70
0
 10
21.7023437668
 20
-22.0260080669
 10
21.7009741091
 20
-22.0186195595
 10
21.6996622432
 20
-22.0053370215
 10
21.6983935358
 20
-21.9862291714
 10
21.6971338181
 20
-21.9613944904
 10
21.695888578
 20
-21.9309581132
 10
21.6947030307
 20
-21.8950690928
  0
LINE
  5
28E
100
AcDbEntity
  8
RACCORDO
100
AcDbLine
 62
253
  6
CONTINUOUS
 10
-1.3810572366
 20
20.87020128
 11
21.6850754659
 21
20.8781072719
  0
LINE
  5
28F
100
AcDbEntity
  8
RACCORDO
100
AcDbLine
 62
253
  6
CONTINUOUS
 10
-21.6850754719
 20
20.8781072456
 11
-1.3810572366
 21
20.87020128
  0
LINE
  5
290
100
AcDbEntity
  8
RACCORDO
100
AcDbLine
 62
253
  6
CONTINUOUS
 10
21.6947030307
 20
-21.8950690928
 11
21.6924604282
 21
-21.8076670482
  0
LINE
  5
291
100
AcDbEntity
  8
RACCORDO
100
AcDbLine
 62
253
  6
CONTINUOUS
 10
22.1706809677
 20
-21.1403189438
 11
22.1687017663
 21
-21.0492863749
  0
LINE
  5
292
100
AcDbEntity
  8
RACCORDO
100
AcDbLine
 62
253
  6
CONTINUOUS
 10
21.6924604282
 20
-21.8076670482
 11
21.6904666507
 21
-21.7009353375
  0
LINE
  5
293
100
AcDbEntity
  8
RACCORDO
100
AcDbLine
 62
253
  6
CONTINUOUS
 10
22.1687017663
 20
-21.0492863749
 11
22.1674164944
 21
-20.9546104478
  0
LINE
  5
294
100
AcDbEntity
  8
RACCORDO
100
AcDbLine
 62
253
  6
CONTINUOUS
 10
21.6904666507
 20
-21.7009353375
 11
21.6879806651
 21
-21.5093261501
  0
LINE
  5
295
100
AcDbEntity
  8
RACCORDO
100
AcDbLine
 62
253
  6
CONTINUOUS
 10
21.6879806651
 20
-21.5093261501
 11
21.6857987245
 21
-21.2086743047
  0
LINE
  5
296
100
AcDbEntity
  8
RACCORDO
100
AcDbLine
 62
253
  6
CONTINUOUS
 10
22.1674164944
 20
-20.9546104478
 11
22.1668384366
 21
-20.8570387625
  0
LWPOLYLINE
  5
297
100
AcDbEntity
  8
RACCORDO
100
AcDbPolyline
 62
253
  6
CONTINUOUS
 90
9
 70
0
 10
22.1668384366
 20
-20.8570387625
 10
22.1577103594
 20
-16.223696831
 10
22.1508643014
 20
-11.589577244
 10
22.1463002624
 20
-6.9546800014
 10
22.1440182425
 20
-2.3184867531
 10
22.1440182417
 20
2.3184841508
 10
22.1463002607
 20
6.9546776594
 10
22.1508642996
 20
11.5895754224
 10
22.1577103582
 20
16.2236957902
  0
LWPOLYLINE
  5
298
100
AcDbEntity
  8
RACCORDO
100
AcDbPolyline
 62
253
  6
CONTINUOUS
 90
8
 70
0
 10
21.672437658
 20
-11.6018187984
 10
21.668826854
 20
-6.9616951414
 10
21.6670214512
 20
-2.3206884516
 10
21.6670214502
 20
2.3206845067
 10
21.6688268518
 20
6.9616915912
 10
21.6724376559
 20
11.6018160374
 10
21.6778538611
 20
16.240757025
 10
21.6852567199
 20
21.045553356
  0
LINE
  5
299
100
AcDbEntity
  8
RACCORDO
100
AcDbLine
 62
253
  6
CONTINUOUS
 10
21.6857987245
 20
-21.2086743047
 11
21.672437658
 21
-11.6018187984
  0
LINE
  5
29A
100
AcDbEntity
  8
0
100
AcDbLine
 62
7
  6
CONTINUOUS
 10
22.287406726
 20
-21.6124414913
 11
22.287406726
 21
21.6124414913
  0
LINE
  5
29B
100
AcDbEntity
  8
RACCORDO
100
AcDbLine
 62
253
  6
CONTINUOUS
 10
22.1577103582
 20
16.2236957902
 11
22.1670396819
 21
20.9062254779
  0
LINE
  5
29C
100
AcDbEntity
  8
RACCORDO
100
AcDbLine
 62
253
  6
CONTINUOUS
 10
21.6852567199
 20
21.045553356
 11
21.6867132888
 21
21.3642643446
  0
LINE
  5
29D
100
AcDbEntity
  8
RACCORDO
100
AcDbLine
 62
253
  6
CONTINUOUS
 10
21.6867132888
 20
21.3642643446
 11
21.6887280295
 21
21.5769935773
  0
LINE
  5
29E
100
AcDbEntity
  8
RACCORDO
100
AcDbLine
 62
253
  6
CONTINUOUS
 10
22.1670396819
 20
20.9062254779
 11
22.1679693266
 21
21.002236521
  0
LINE
  5
29F
100
AcDbEntity
  8
RACCORDO
100
AcDbLine
 62
253
  6
CONTINUOUS
 10
21.6887280295
 20
21.5769935773
 11
21.6904669225
 21
21.7009339372
  0
LWPOLYLINE
  5
2A0
100
AcDbEntity
  8
RACCORDO
100
AcDbPolyline
 62
253
  6
CONTINUOUS
 90
18
 70
0
 10
22.1679693266
 20
21.002236521
 10
22.1696106917
 20
21.0955954223
 10
22.1706816792
 20
21.1403471176
 10
22.1719174687
 20
21.1835216249
 10
22.173315704
 20
21.225162108
 10
22.1748560452
 20
21.2646514969
 10
22.1765407453
 20
21.3019593404
 10
22.1783675511
 20
21.3371160895
 10
22.1803093627
 20
21.3695960279
 10
22.18236785
 20
21.3993570714
 10
22.1845413431
 20
21.4264413041
 10
22.186797732
 20
21.4504492612
 10
22.189139429
 20
21.4713367873
 10
22.1915640218
 20
21.4891480379
 10
22.1940321635
 20
21.5036160142
 10
22.1965307383
 20
21.5146517169
 10
22.1990728619
 20
21.5223441453
 10
22.2016585343
 20
21.5266932996
  0
LINE
  5
2A1
100
AcDbEntity
  8
RACCORDO
100
AcDbLine
 62
253
  6
CONTINUOUS
 10
21.6904669225
 20
21.7009339372
 11
21.6924606565
 21
21.8076660899
  0
LWPOLYLINE
  5
2A2
100
AcDbEntity
  8
RACCORDO
100
AcDbPolyline
 62
253
  6
CONTINUOUS
 90
8
 70
0
 10
21.6924606565
 20
21.8076660899
 10
21.6947031442
 20
21.8950684834
 10
21.6958886737
 20
21.9309573932
 10
21.697133911
 20
21.9613936532
 10
21.6983936206
 20
21.9862284412
 10
21.6996623067
 20
22.0053365717
 10
21.7009741444
 20
22.018619387
 10
21.7023437669
 20
22.026008067
  0
LWPOLYLINE
  5
2A3
100
AcDbEntity
  8
RACCORDO
100
AcDbPolyline
 62
253
  6
CONTINUOUS
 90
16
 70
0
 10
-21.7023437493
 20
22.0260080494
 10
-21.7544466067
 20
22.0231394834
 10
-21.8059805126
 20
22.0148505465
 10
-21.8563828057
 20
22.0012317631
 10
-21.9051032
 20
21.9824318425
 10
-21.9516097431
 20
21.9586560732
 10
-21.995394632
 20
21.9301640973
 10
-22.0359798275
 20
21.8972670372
 10
-22.0729222492
 20
21.8603240931
 10
-22.105818573
 20
21.8197386556
 10
-22.1343096656
 20
21.775953877
 10
-22.1580845086
 20
21.7294478142
 10
-22.1768835766
 20
21.6807282216
 10
-22.1905016635
 20
21.6303270217
 10
-22.1987901271
 20
21.5787945001
 10
-22.2016585167
 20
21.526693282
  0
LWPOLYLINE
  5
2A4
100
AcDbEntity
  8
RACCORDO
100
AcDbPolyline
 62
253
  6
CONTINUOUS
 90
14
 70
0
 10
-21.7829205087
 20
20.8773336846
 10
-21.8303890463
 20
20.8766470342
 10
-21.8762661351
 20
20.8757687802
 10
-21.9201034844
 20
20.8747075044
 10
-21.9614727348
 20
20.8734735772
 10
-21.9999696443
 20
20.872079056
 10
-22.035218038
 20
20.8705375674
 10
-22.0668734842
 20
20.8688641742
 10
-22.0946266597
 20
20.8670752281
 10
-22.1182063728
 20
20.8651882097
 10
-22.1373822129
 20
20.8632215584
 10
-22.1519668022
 20
20.8611944912
 10
-22.1618176263
 20
20.8591268158
 10
-22.1668384275
 20
20.8570387366
  0
LINE
  5
2A5
100
AcDbEntity
  8
RACCORDO
100
AcDbLine
 62
253
  6
CONTINUOUS
 10
-21.6850754719
 20
20.8781072737
 11
-21.7829205087
 21
20.8773336846
  0
LINE
  5
2A6
100
AcDbEntity
  8
RACCORDO
100
AcDbLine
 62
253
  6
CONTINUOUS
 10
13.2987933015
 20
22.0134597024
 11
21.7023437669
 21
22.026008067
  0
LINE
  5
2A7
100
AcDbEntity
  8
RACCORDO
100
AcDbLine
 62
253
  6
CONTINUOUS
 10
3.2774298404
 20
22.0063482953
 11
13.2987933015
 21
22.0134597024
  0
LINE
  5
2A8
100
AcDbEntity
  8
0
100
AcDbLine
 62
7
  6
CONTINUOUS
 10
21.7880919586
 20
22.1117562587
 11
-21.7880919586
 21
22.1117562587
  0
LINE
  5
2A9
100
AcDbEntity
  8
RACCORDO
100
AcDbLine
 62
253
  6
CONTINUOUS
 10
-5.936813047
 20
22.0074117757
 11
3.2774298404
 21
22.0063482953
  0
LINE
  5
2AA
100
AcDbEntity
  8
RACCORDO
100
AcDbLine
 62
253
  6
CONTINUOUS
 10
-14.9346680863
 20
22.0154302178
 11
-5.936813047
 21
22.0074117757
  0
LINE
  5
2AB
100
AcDbEntity
  8
RACCORDO
100
AcDbLine
 62
253
  6
CONTINUOUS
 10
-21.7023437503
 20
22.0260080504
 11
-14.9346680863
 21
22.0154302178
  0
LWPOLYLINE
  5
2AC
100
AcDbEntity
  8
RACCORDO
100
AcDbPolyline
 62
253
  6
CONTINUOUS
 90
15
 70
0
 10
21.6850750335
 20
20.878106804
 10
21.782919195
 20
20.8773332398
 10
21.8303873455
 20
20.8766466098
 10
21.8762640976
 20
20.8757683812
 10
21.920101172
 20
20.8747071352
 10
21.9614702204
 20
20.8734732416
 10
21.99996701
 20
20.8720787571
 10
22.0352153742
 20
20.8705373077
 10
22.0668708879
 20
20.8688639556
 10
22.0946242331
 20
20.8670750517
 10
22.1182042215
 20
20.8651880761
 10
22.1373804439
 20
20.863221467
 10
22.1519655224
 20
20.8611944411
 10
22.1618169406
 20
20.8591268051
 10
22.1668384366
 20
20.8570387627
  0
LWPOLYLINE
  5
2AD
100
AcDbEntity
  8
RACCORDO
100
AcDbPolyline
 62
253
  6
CONTINUOUS
 90
16
 70
0
 10
21.7023437669
 20
22.026008067
 10
21.7544458897
 20
22.0231395804
 10
21.8059791579
 20
22.0148508595
 10
21.8563809279
 20
22.0012324013
 10
21.9051009096
 20
21.9824328929
 10
21.9516071751
 20
21.9586575887
 10
21.9953919658
 20
21.9301660691
 10
22.0359772363
 20
21.8972694064
 10
22.072919874
 20
21.8603267687
 10
22.1058165366
 20
21.8197414981
 10
22.1343080561
 20
21.7759567074
 10
22.1580833602
 20
21.7294504419
 10
22.1768828685
 20
21.6807304602
 10
22.1905013267
 20
21.6303286903
 10
22.1987900476
 20
21.5787954222
 10
22.2016585343
 20
21.5266932996
  0
LWPOLYLINE
  5
2AE
100
AcDbEntity
  8
0
100
AcDbPolyline
 62
7
  6
CONTINUOUS
 90
3
 70
0
 43
0.3500000006
 10
33.7237436371
 20
-0.5357137985
 10
33.7237436371
 20
-2.0357142563
 10
31.366600708
 20
-1.3928574028
  0
LWPOLYLINE
  5
2AF
100
AcDbEntity
  8
0
100
AcDbPolyline
 62
7
  6
CONTINUOUS
 90
3
 70
0
 43
0.3500000006
 10
33.7237436371
 20
-2.8928567276
 10
33.7237436371
 20
-4.3928571854
 10
31.366600708
 20
-3.7500003319
  0
LWPOLYLINE
  5
2B0
100
AcDbEntity
  8
0
100
AcDbPolyline
 62
7
  6
CONTINUOUS
 90
7
 70
0
 43
0.3500000006
 10
34.3665993576
 20
3.5357140732
 10
34.3665993576
 20
2.0357136154
 10
32.2237431793
 20
3.5357140732
 10
31.7951719437
 20
3.5357140732
 10
31.366600708
 20
3.1071428375
 10
31.366600708
 20
2.4642848511
 10
32.0094564285
 20
2.0357136154
  0
LWPOLYLINE
  5
2B1
100
AcDbEntity
  8
0
100
AcDbPolyline
 62
7
  6
CONTINUOUS
 90
3
 70
0
 43
0.3500000006
 10
-0.5357142924
 20
36.7872491913
 10
-2.0357142191
 20
36.7872491913
 10
-1.3928570824
 20
39.1443921204
  0
LWPOLYLINE
  5
2B2
100
AcDbEntity
  8
0
100
AcDbPolyline
 62
7
  6
CONTINUOUS
 90
3
 70
0
 43
0.3500000006
 10
-2.8928572569
 20
36.7872491913
 10
-4.3928571482
 20
36.7872491913
 10
-3.7500000114
 20
39.1443921204
  0
LWPOLYLINE
  5
2B3
100
AcDbEntity
  8
0
100
AcDbPolyline
 62
7
  6
CONTINUOUS
 90
3
 70
0
 43
0.3500000006
 10
-43.4564394379
 20
36.4301068726
 10
-43.5278706207
 20
36.2158223877
 10
-43.6707239227
 20
35.93010672
  0
LINE
  5
2B4
100
AcDbEntity
  8
RACCORDO
100
AcDbLine
 62
253
  6
CONTINUOUS
 10
-35.3524348306
 20
-20.8781073069
 11
-35.3482688748
 21
-20.8778220549
  0
LINE
  5
2B5
100
AcDbEntity
  8
RACCORDO
100
AcDbLine
 62
253
  6
CONTINUOUS
 10
-35.3482688748
 20
-20.8778220549
 11
-35.3255117802
 21
-20.8766470669
  0
LINE
  5
2B6
100
AcDbEntity
  8
RACCORDO
100
AcDbLine
 62
253
  6
CONTINUOUS
 10
-35.3255117802
 20
-20.8766470669
 11
-35.069563473
 21
-20.865188238
  0
LINE
  5
2B7
100
AcDbEntity
  8
RACCORDO
100
AcDbLine
 62
253
  6
CONTINUOUS
 10
-35.069563473
 20
-20.865188238
 11
-34.8793551202
 21
-20.8570387625
  0
LWPOLYLINE
  5
2B8
100
AcDbEntity
  8
RACCORDO
100
AcDbPolyline
 62
253
  6
CONTINUOUS
 90
3
 70
0
 10
-35.7339308899
 20
-20.8701700704
 10
-35.7252184346
 20
-20.8703406751
 10
-35.3524348337
 20
-20.8781072728
  0
LINE
  5
2B9
100
AcDbEntity
  8
RACCORDO
100
AcDbLine
 62
7
  6
CONTINUOUS
 10
-34.5983247296
 20
-22.005916148
 11
-34.2149480789
 21
-22.0260080669
  0
LINE
  5
2BA
100
AcDbEntity
  8
0
100
AcDbLine
 62
7
  6
CONTINUOUS
 10
-32.5787751109
 20
-22.1117562587
 11
-34.2149480789
 21
-22.0260080669
  0
LINE
  5
2BB
100
AcDbEntity
  8
0
100
AcDbLine
 62
253
  6
CONTINUOUS
 10
-32.5787751109
 20
-21.6124414913
 11
-34.214948079
 21
-21.5266932995
  0
LWPOLYLINE
  5
2BC
100
AcDbEntity
  8
RACCORDO
100
AcDbPolyline
 62
7
  6
CONTINUOUS
 90
22
 70
0
 10
-34.214948079
 20
-22.0260080669
 10
-34.299164856
 20
-22.0186195595
 10
-34.3826376306
 20
-22.0053370215
 10
-34.4649544688
 20
-21.9862291714
 10
-34.5457071912
 20
-21.9613944904
 10
-34.6245004434
 20
-21.9309581132
 10
-34.7009528493
 20
-21.8950690928
 10
-34.7746915576
 20
-21.8539033275
 10
-34.8453489383
 20
-21.8076670482
 10
-34.9125714685
 20
-21.7565926485
 10
-34.9760273512
 20
-21.7009353375
 10
-35.0354065545
 20
-21.6409705346
 10
-35.0904166511
 20
-21.5769952854
 10
-35.1407881454
 20
-21.5093261501
 10
-35.1862739264
 20
-21.4382988123
 10
-35.2266496333
 20
-21.3642660452
 10
-35.2617156904
 20
-21.2875999737
 10
-35.2913046564
 20
-21.2086743047
 10
-35.3152763977
 20
-21.1278621816
 10
-35.3335121738
 20
-21.045556092
 10
-35.3459190683
 20
-20.9621673407
 10
-35.3524344243
 20
-20.8781072553
  0
LWPOLYLINE
  5
2BD
100
AcDbEntity
  8
RACCORDO
100
AcDbPolyline
 62
253
  6
CONTINUOUS
 90
22
 70
0
 10
-34.214948079
 20
-21.5266932995
 10
-34.2642937674
 20
-21.5223427488
 10
-34.3128071668
 20
-21.5146485349
 10
-34.3604882773
 20
-21.5036106578
 10
-34.4075869868
 20
-21.4891402001
 10
-34.4538534073
 20
-21.4713260792
 10
-34.4985378748
 20
-21.4504350478
 10
-34.5415951762
 20
-21.4264223514
 10
-34.5830705247
 20
-21.3993327446
 10
-34.6223498949
 20
-21.3695672443
 10
-34.6594007326
 20
-21.3370840993
 10
-34.6942555921
 20
-21.3019250607
 10
-34.7263981109
 20
-21.2646163989
 10
-34.7557850552
 20
-21.2251282759
 10
-34.7824596587
 20
-21.1834905297
 10
-34.80603526
 20
-21.1403189438
 10
-34.8264674675
 20
-21.0955695792
 10
-34.8438006727
 20
-21.0492863749
 10
-34.8577813893
 20
-21.0022169311
 10
-34.8683251216
 20
-20.9546104478
 10
-34.8755163653
 20
-20.9062177249
 10
-34.8793551202
 20
-20.8570387625
  0
LWPOLYLINE
  5
2BE
100
AcDbEntity
  8
RACCORDO
100
AcDbPolyline
 62
253
  6
CONTINUOUS
 90
16
 70
0
 10
-34.2149480773
 20
22.026008067
 10
-34.2175283015
 20
22.0231395804
 10
-34.2197946513
 20
22.0148508595
 10
-34.2217223825
 20
22.0012324013
 10
-34.2232904481
 20
21.9824328929
 10
-34.2244817277
 20
21.9586575887
 10
-34.2252832145
 20
21.9301660691
 10
-34.2256861576
 20
21.8972694064
 10
-34.225686158
 20
21.8603267687
 10
-34.2252832154
 20
21.8197414981
 10
-34.2244817293
 20
21.7759567074
 10
-34.2232904503
 20
21.7294504419
 10
-34.2217223849
 20
21.6807304602
 10
-34.2197946534
 20
21.6303286903
 10
-34.2175283028
 20
21.5787954222
 10
-34.2149480773
 20
21.5266932996
  0
LWPOLYLINE
  5
2BF
100
AcDbEntity
  8
RACCORDO
100
AcDbPolyline
 62
253
  6
CONTINUOUS
 90
16
 70
0
 10
-34.214948079
 20
-22.0260080669
 10
-34.2175283387
 20
-22.023139509
 10
-34.2197947123
 20
-22.014850594
 10
-34.2217224561
 20
-22.0012318436
 10
-34.2232905244
 20
-21.9824319648
 10
-34.2244817972
 20
-21.9586562426
 10
-34.2252832684
 20
-21.9301643127
 10
-34.22568619
 20
-21.8972672924
 10
-34.2256861656
 20
-21.8603243785
 10
-34.2252831984
 20
-21.8197389571
 10
-34.2244816913
 20
-21.7759541764
 10
-34.223290398
 20
-21.7294480923
 10
-34.2217223274
 20
-21.68072846
 10
-34.219794602
 20
-21.630327203
 10
-34.2175282707
 20
-21.5787946072
 10
-34.214948079
 20
-21.5266932995
  0
LINE
  5
2C0
100
AcDbEntity
  8
0
100
AcDbLine
 62
7
  6
CONTINUOUS
 10
-31.5787751109
 20
-13.2689805518
 11
-32.5787751109
 21
-13.3213883311
  0
LWPOLYLINE
  5
2C1
100
AcDbEntity
  8
0
100
AcDbPolyline
 62
7
  6
CONTINUOUS
 90
2
 70
0
 43
0.3500000006
 10
-45.5278666992
 20
36.1443957367
 10
-45.5278666992
 20
37.6443916626
  0
LINE
  5
2C2
100
AcDbEntity
  8
0
100
AcDbLine
 62
7
  6
CONTINUOUS
 10
-31.5787751109
 20
-9.7310194482
 11
-32.5787751109
 21
-9.6786116689
  0
LWPOLYLINE
  5
2C3
100
AcDbEntity
  8
0
100
AcDbPolyline
 62
7
  6
CONTINUOUS
 90
4
 70
0
 43
0.3500000006
 10
-42.4564391327
 20
38.5015386658
 10
-42.4564391327
 20
39.1443921204
 10
-40.9564386749
 20
39.1443921204
 10
-41.8135811462
 20
36.1443957367
  0
LWPOLYLINE
  5
2C4
100
AcDbEntity
  8
RACCORDO
100
AcDbPolyline
 62
253
  6
CONTINUOUS
 90
10
 70
0
 10
-35.3524348337
 20
-20.8781072728
 10
-35.5266517606
 20
-16.2407586027
 10
-35.6573740781
 20
-11.6018187984
 10
-35.7445523066
 20
-6.9616951414
 10
-35.7881509518
 20
-2.3206884516
 10
-35.7881509704
 20
2.3206845067
 10
-35.7445523566
 20
6.9616915912
 10
-35.6573741429
 20
11.6018160374
 10
-35.5266518124
 20
16.240757025
 10
-35.3524348337
 20
20.8781072719
  0
LWPOLYLINE
  5
2C5
100
AcDbEntity
  8
RACCORDO
100
AcDbPolyline
 62
253
  6
CONTINUOUS
 90
10
 70
0
 10
-34.8793551202
 20
-20.8570387625
 10
-35.0535292093
 20
-16.223696831
 10
-35.1841597791
 20
-11.589577244
 10
-35.2712468293
 20
-6.9546800014
 10
-35.314790364
 20
-2.3184867531
 10
-35.3147903792
 20
2.3184841508
 10
-35.2712468635
 20
6.9546776594
 10
-35.1841598131
 20
11.5895754224
 10
-35.0535292317
 20
16.2236957902
 10
-34.8793551194
 20
20.8570387627
  0
LWPOLYLINE
  5
2C6
100
AcDbEntity
  8
0
100
AcDbPolyline
 62
7
  6
CONTINUOUS
 90
6
 70
0
 10
-36.2613437419
 20
-3.7342594099
 10
-36.2176687939
 20
-6.9914294026
 10
-36.1413307939
 20
-10.4848101542
 10
-36.0344784318
 20
-13.9773907456
 10
-35.8971229039
 20
-17.4689047809
 10
-35.7339309423
 20
-20.8701690677
  0
LINE
  5
2C7
100
AcDbEntity
  8
0
100
AcDbLine
 62
7
  6
CONTINUOUS
 10
-36.2614844331
 20
-3.7145057789
 11
-36.2613437267
 21
-3.7342593764
  0
LINE
  5
2C8
100
AcDbEntity
  8
0
100
AcDbLine
 62
7
  6
CONTINUOUS
 10
-36.2616207847
 20
-3.654295059
 11
-36.2614844331
 21
-3.7145057789
  0
LINE
  5
2C9
100
AcDbEntity
  8
0
100
AcDbLine
 62
7
  6
CONTINUOUS
 10
-36.2735444924
 20
-0.0
 11
-36.2616207847
 21
-3.654295059
  0
LINE
  5
2CA
100
AcDbEntity
  8
0
100
AcDbLine
 62
7
  6
CONTINUOUS
 10
-36.2735444924
 20
-0.0
 11
-36.2613437468
 21
3.7342594206
  0
LINE
  5
2CB
100
AcDbEntity
  8
0
100
AcDbLine
 62
7
  6
CONTINUOUS
 10
-36.2613437468
 20
3.7342594206
 11
-36.2614870651
 21
3.714352302
  0
LWPOLYLINE
  5
2CC
100
AcDbEntity
  8
0
100
AcDbPolyline
 62
7
  6
CONTINUOUS
 90
6
 70
0
 10
-35.7339309423
 20
20.870169067
 10
-35.8974139849
 20
17.4622448614
 10
-36.0347113375
 20
13.9707283109
 10
-36.1415054976
 20
10.478145763
 10
-36.2177852705
 20
6.9847636133
 10
-36.2613437419
 20
3.7342594099
  0
LWPOLYLINE
  5
2CD
100
AcDbEntity
  8
RACCORDO
100
AcDbPolyline
 62
7
  6
CONTINUOUS
 90
22
 70
0
 10
-35.3524344228
 20
20.8781072544
 10
-35.3459192533
 20
20.962165691
 10
-35.3335126782
 20
21.045553356
 10
-35.3152772398
 20
21.1278589212
 10
-35.2913056638
 20
21.208671297
 10
-35.2617166264
 20
21.2875977207
 10
-35.2266504843
 20
21.3642643446
 10
-35.1862748855
 20
21.4382971873
 10
-35.1407893156
 20
21.5093244475
 10
-35.090418009
 20
21.5769935773
 10
-35.0354079998
 20
21.6409689569
 10
-34.9760288275
 20
21.7009339372
 10
-34.9125729341
 20
21.7565914423
 10
-34.8453502865
 20
21.8076660899
 10
-34.7746927352
 20
21.8539026103
 10
-34.7009540315
 20
21.8950684834
 10
-34.6245021236
 20
21.9309573932
 10
-34.5457096023
 20
21.9613936532
 10
-34.4649571735
 20
21.9862284412
 10
-34.3826399292
 20
22.0053365717
 10
-34.299166253
 20
22.018619387
 10
-34.2149480773
 20
22.026008067
  0
LWPOLYLINE
  5
2CE
100
AcDbEntity
  8
RACCORDO
100
AcDbPolyline
 62
253
  6
CONTINUOUS
 90
22
 70
0
 10
-34.8793551194
 20
20.8570387627
 10
-34.8755151315
 20
20.9062254779
 10
-34.8683222429
 20
20.9546247307
 10
-34.8577764538
 20
21.002236521
 10
-34.8437933483
 20
21.0493097029
 10
-34.8264573422
 20
21.0955954223
 10
-34.8060216832
 20
21.1403471176
 10
-34.7824414157
 20
21.1835216249
 10
-34.7557614954
 20
21.225162108
 10
-34.7263700361
 20
21.2646514969
 10
-34.6942240433
 20
21.3019593404
 10
-34.6593665116
 20
21.3371160895
 10
-34.6223145394
 20
21.3695960279
 10
-34.5830362613
 20
21.3993570714
 10
-34.5415635426
 20
21.4264413041
 10
-34.4985090778
 20
21.4504492612
 10
-34.4538268366
 20
21.4713367873
 10
-34.4075628494
 20
21.4891480379
 10
-34.3604679012
 20
21.5036160142
 10
-34.3127922541
 20
21.5146517169
 10
-34.2642856461
 20
21.5223441453
 10
-34.2149480773
 20
21.5266932996
  0
LINE
  5
2CF
100
AcDbEntity
  8
0
100
AcDbLine
 62
7
  6
CONTINUOUS
 10
-32.5787751109
 20
-22.1117562587
 11
-32.5787751109
 21
22.1117562587
  0
LINE
  5
2D0
100
AcDbEntity
  8
0
100
AcDbLine
 62
253
  6
CONTINUOUS
 10
-31.9578407284
 20
13.288846539
 11
-31.9578407284
 21
9.711153461
  0
LINE
  5
2D1
100
AcDbEntity
  8
0
100
AcDbLine
 62
253
  6
CONTINUOUS
 10
-31.9578407284
 20
-9.711153461
 11
-31.9578407284
 21
-13.288846539
  0
LINE
  5
2D2
100
AcDbEntity
  8
0
100
AcDbLine
 62
7
  6
CONTINUOUS
 10
-31.5787751109
 20
13.2689805518
 11
-31.5787751109
 21
9.7310194482
  0
LINE
  5
2D3
100
AcDbEntity
  8
0
100
AcDbLine
 62
7
  6
CONTINUOUS
 10
-31.5787751109
 20
-9.7310194482
 11
-31.5787751109
 21
-13.2689805518
  0
LWPOLYLINE
  5
2D4
100
AcDbEntity
  8
0
100
AcDbPolyline
 62
7
  6
CONTINUOUS
 90
10
 70
0
 43
0.3500000006
 10
-43.5278706207
 20
36.6443958893
 10
-43.4564394379
 20
36.5015380554
 10
-43.4564394379
 20
36.4301068726
 10
-43.5992972717
 20
36.2872490387
 10
-43.6707239227
 20
36.2872490387
 10
-43.7421551056
 20
36.3586802216
 10
-43.7421551056
 20
36.4301068726
 10
-43.6707239227
 20
36.5729647064
 10
-43.5992972717
 20
36.6443958893
 10
-43.5278706207
 20
36.6443958893
  0
LINE
  5
2D5
100
AcDbEntity
  8
0
100
AcDbLine
 62
7
  6
CONTINUOUS
 10
-31.5787751109
 20
9.7310194482
 11
-32.5787751109
 21
9.6786116689
  0
LINE
  5
2D6
100
AcDbEntity
  8
0
100
AcDbLine
 62
7
  6
CONTINUOUS
 10
-31.5787751109
 20
13.2689805518
 11
-32.5787751109
 21
13.3213883311
  0
LWPOLYLINE
  5
2D7
100
AcDbEntity
  8
RACCORDO
100
AcDbPolyline
 62
253
  6
CONTINUOUS
 90
3
 70
0
 10
-35.7339308899
 20
20.8701700707
 10
-35.7332228639
 20
20.8701816244
 10
-35.3524348337
 20
20.8781072719
  0
LINE
  5
2D8
100
AcDbEntity
  8
RACCORDO
100
AcDbLine
 62
253
  6
CONTINUOUS
 10
-35.3071327551
 20
20.8757683812
 11
-34.8793551194
 21
20.8570387627
  0
LWPOLYLINE
  5
2D9
100
AcDbEntity
  8
RACCORDO
100
AcDbPolyline
 62
253
  6
CONTINUOUS
 90
4
 70
0
 10
-35.3524229605
 20
20.878106804
 10
-35.3482572229
 20
20.8778215617
 10
-35.3392538911
 20
20.8773332398
 10
-35.3071327551
 20
20.8757683812
  0
LINE
  5
2DA
100
AcDbEntity
  8
0
100
AcDbLine
 62
253
  6
CONTINUOUS
 10
-34.2149480773
 20
21.5266932996
 11
-32.5787751109
 21
21.6124414913
  0
LINE
  5
2DB
100
AcDbEntity
  8
RACCORDO
100
AcDbLine
 62
7
  6
CONTINUOUS
 10
-34.5983246953
 20
22.0059161498
 11
-32.5787751109
 21
22.1117562587
  0
LINE
  5
2DC
100
AcDbEntity
  8
0
100
AcDbLine
 62
7
  6
CONTINUOUS
 10
-34.2149480771
 20
22.026008067
 11
-32.5787751109
 21
22.1117562587
  0
LWPOLYLINE
  5
2DD
100
AcDbEntity
  8
0
100
AcDbPolyline
 62
7
  6
CONTINUOUS
 90
3
 70
0
 43
0.3500000006
 10
-45.0278665466
 20
36.7872491913
 10
-46.5278670044
 20
36.7872491913
 10
-45.8850135498
 20
39.1443921204
  0
ARC
  5
2DE
100
AcDbEntity
  8
RACCORDO
100
AcDbCircle
 62
7
  6
CONTINUOUS
 10
-34.5355650472
 20
-20.8075584284
 40
1.2
100
AcDbArc
 50
182.9907948877
 51
267.0
  0
ARC
  5
2DF
100
AcDbEntity
  8
RACCORDO
100
AcDbCircle
 62
7
  6
CONTINUOUS
 10
-34.5355650534
 20
20.8075584281
 40
1.2
100
AcDbArc
 50
93.0
 51
177.0092051127
  0
ELLIPSE
  5
2E0
100
AcDbEntity
  8
0
100
AcDbEllipse
 62
7
  6
CONTINUOUS
 10
21.786720553
 20
-21.6110700857
 30
0.0
 11
-0.3545231217
 21
0.3545231217
 31
0.0
 40
0.9972646886
 41
2.3575640181
 42
3.9256212891
  0
ELLIPSE
  5
2E1
100
AcDbEntity
  8
0
100
AcDbEllipse
 62
7
  6
CONTINUOUS
 10
21.786720553
 20
21.6110700857
 30
0.0
 11
0.3545231217
 21
0.3545231217
 31
0.0
 40
0.9972646886
 41
-0.7840286355
 42
0.7840286355
  0
ELLIPSE
  5
2E2
100
AcDbEntity
  8
0
100
AcDbEllipse
 62
7
  6
CONTINUOUS
 10
-21.786720553
 20
21.6110700857
 30
0.0
 11
0.3545231217
 21
-0.3545231217
 31
0.0
 40
0.9972646886
 41
2.3575640181
 42
3.9256212891
  0
ELLIPSE
  5
2E3
100
AcDbEntity
  8
0
100
AcDbEllipse
 62
7
  6
CONTINUOUS
 10
-21.786720553
 20
-21.6110700857
 30
0.0
 11
0.3545231217
 21
0.3545231217
 31
0.0
 40
0.9972646886
 41
-3.9256212891
 42
-2.3575640181
  0
ENDSEC
  0
SECTION
  2
OBJECTS
  0
DICTIONARY
  5
C
100
AcDbDictionary
280
0
281
1
  3
ACAD_GROUP
350
D
  3
ACAD_MLINESTYLE
350
17
  3
ACAD_LAYOUT
350
1A
  3
ACAD_PLOTSETTINGS
350
19
  3
ACAD_PLOTSTYLENAME
350
E
  0
DICTIONARY
  5
D
102
{ACAD_REACTORS
330
C
102
}
100
AcDbDictionary
280
0
281
1
  0
ACDBDICTIONARYWDFLT
  5
E
102
{ACAD_REACTORS
330
C
102
}
100
AcDbDictionary
281
1
  3
Normal
350
F
100
AcDbDictionaryWithDefault
340
F
  0
DICTIONARY
  5
17
102
{ACAD_REACTORS
330
C
102
}
100
AcDbDictionary
280
0
281
1
  3
Standard
350
18
  0
DICTIONARY
  5
19
102
{ACAD_REACTORS
330
C
102
}
100
AcDbDictionary
281
1
  0
DICTIONARY
  5
1A
102
{ACAD_REACTORS
330
C
102
}
100
AcDbDictionary
281
1
  3
Model
350
2E4
  3
Layout1
350
2E5
  0
ACDBPLACEHOLDER
  5
F
102
{ACAD_REACTORS
330
E
102
}
  0
MLINESTYLE
  5
18
102
{ACAD_REACTORS
330
17
102
}
100
AcDbMlineStyle
  2
STANDARD
 70
0
  3

 62
256
 51
90.0
 52
90.0
 71
2
 49
0.5
 62
256
  6
BYLAYER
 49
-0.5
 62
256
  6
BYLAYER
  0
LAYOUT
  5
2E4
102
{ACAD_REACTORS
330
1A
102
}
100
AcDbPlotSettings
  1

  2
none_device
  4
ISO_A4_(297.00_x_210.00_MM)
  6

 40
0.0
 41
0.0
 42
0.0
 43
0.0
 44
297.0
 45
210.0
 46
0.0
 47
0.0
 48
0.0
 49
0.0
140
0.0
141
0.0
142
1.0
143
1.0
 70
1024
 72
1
 73
0
 74
0
  7

 75
0
147
1.0
148
0.0
149
0.0
100
AcDbLayout
  1
Model
 70
0
 71
0
 10
0.0
 20
0.0
 11
297.0
 21
210.0
 12
0.0
 22
0.0
 32
0.0
 14
0.0
 24
0.0
 34
0.0
 15
0.0
 25
0.0
 35
0.0
146
0.0
 13
0.0
 23
0.0
 33
0.0
 16
1.0
 26
0.0
 36
0.0
 17
0.0
 27
1.0
 37
0.0
 76
0
330
214
345
0
346
0
  0
LAYOUT
  5
2E5
102
{ACAD_REACTORS
330
1A
102
}
100
AcDbPlotSettings
  1

  2
none_device
  4
ISO_A4_(297.00_x_210.00_MM)
  6

 40
0.0
 41
0.0
 42
0.0
 43
0.0
 44
297.0
 45
210.0
 46
0.0
 47
0.0
 48
0.0
 49
0.0
140
0.0
141
0.0
142
1.0
143
1.0
 70
0
 72
1
 73
0
 74
0
  7

 75
0
147
1.0
148
0.0
149
0.0
100
AcDbLayout
  1
Layout1
 70
0
 71
1
 10
0.0
 20
0.0
 11
297.0
 21
210.0
 12
0.0
 22
0.0
 32
0.0
 14
0.0
 24
0.0
 34
0.0
 15
0.0
 25
0.0
 35
0.0
146
0.0
 13
0.0
 23
0.0
 33
0.0
 16
1.0
 26
0.0
 36
0.0
 17
0.0
 27
1.0
 37
0.0
 76
0
330
215
345
0
346
0
  0
ENDSEC
  0
EOF
