  0
SECTION
  2
HEADER
  9
$ACADVER
  1
AC1015
  9
$DWGCODEPAGE
  3
ANSI_1252
  9
$EXTMAX
 10
297.0
 20
210.0
 30
0.0
  9
$EXTMIN
 10
0.0
 20
0.0
 30
0.0
  9
$LIMMIN
 10
0.0
 20
0.0
  9
$LIMMAX
 10
297.0
 20
210.0
  9
$VIEWCTR
 10
148.5
 20
105.0
  9
$VIEWSIZE
 40
210.0
  9
$CLAYER
  8
0
  9
$LTSCALE
 40
16.335
  9
$CELTYPE
  6
BYLAYER
  9
$DIMSCALE
 40
1.0
  9
$DIMASZ
 40
3.0
  9
$DIMEXO
 40
1.85625
  9
$DIMDLI
 40
11.286
  9
$DIMEXE
 40
5.346
  9
$DIMCEN
 40
2.673
  9
$DIMLFAC
 40
1.0
  9
$DIMBLK
  1
_FILLED
  9
$DIMTXT
 40
3.0
  9
$DIMTOL
 70
1
  9
$DIMLIM
 70
0
  9
$DIMTFAC
 40
1.0
  9
$DIMTP
 40
0.01
  9
$DIMTM
 40
0.01
  9
$PDMODE
 70
3
  9
$PDSIZE
 40
3.0
  9
$HANDSEED
  5
331
  9
$TILEMODE
 70
1
  9
$MEASUREMENT
 70
1
  9
$INSUNITS
 70
4
  0
ENDSEC
  0
SECTION
  2
CLASSES
  0
CLASS
  1
ACDBDICTIONARYWDFLT
  2
AcDbDictionaryWithDefault
  3
AutoCAD 2000
 90
0
280
0
281
0
  0
CLASS
  1
ACDBPLACEHOLDER
  2
AcDbPlaceHolder
  3
AutoCAD 2000
 90
0
280
0
281
0
  0
CLASS
  1
LAYOUT
  2
AcDbLayout
  3
AutoCAD 2000
 90
0
280
0
281
0
  0
ENDSEC
  0
SECTION
  2
TABLES
  0
TABLE
  2
VPORT
  5
8
100
AcDbSymbolTable
 70
2
  0
VPORT
  5
1F4
100
AcDbSymbolTableRecord
100
AcDbViewportTableRecord
  2
*ACTIVE
 70
0
 10
0.0
 20
0.0
 11
1.0
 21
1.0
 12
148.5
 22
105.0
 13
0.0
 23
0.0
 14
1.0
 24
1.0
 15
0.0
 25
0.0
 16
0.0
 26
0.0
 36
1.0
 17
0.0
 27
0.0
 37
0.0
 40
210.0
 41
1.4142857143
 42
50.0
 43
0.0
 44
0.0
 50
0.0
 51
0.0
 71
0
 72
100
 73
1
 74
1
 75
0
 76
0
 77
0
 78
0
  0
ENDTAB
  0
TABLE
  2
LTYPE
  5
5
100
AcDbSymbolTable
 70
6
  0
LTYPE
  5
14
100
AcDbSymbolTableRecord
100
AcDbLinetypeTableRecord
  2
BYBLOCK
 70
0
  3

 72
65
 73
0
 40
0.0
  0
LTYPE
  5
15
100
AcDbSymbolTableRecord
100
AcDbLinetypeTableRecord
  2
BYLAYER
 70
0
  3

 72
65
 73
0
 40
0.0
  0
LTYPE
  5
16
100
AcDbSymbolTableRecord
100
AcDbLinetypeTableRecord
  2
CONTINUOUS
 70
64
  3
Solid line
 72
65
 73
0
 40
0.0
  0
LTYPE
  5
1F5
100
AcDbSymbolTableRecord
100
AcDbLinetypeTableRecord
  2
CENTER
 70
64
  3
____ _ ____ _ ____ _ ____ _ ____ _ ____ _ ____
 72
65
 73
4
 40
0.6
 49
0.375
 74
0
 49
-0.075
 74
0
 49
0.075
 74
0
 49
-0.075
 74
0
  0
LTYPE
  5
1F6
100
AcDbSymbolTableRecord
100
AcDbLinetypeTableRecord
  2
HIDDEN
 70
64
  3
- - - - - - - - - - - - - - - - - - - -
 72
65
 73
2
 40
0.2
 49
0.1
 74
0
 49
-0.1
 74
0
  0
LTYPE
  5
1F7
100
AcDbSymbolTableRecord
100
AcDbLinetypeTableRecord
  2
PHANTOM
 70
64
  3
_____ _ _ _____ _ _ _____ _ _ _____
 72
65
 73
6
 40
0.8
 49
0.45
 74
0
 49
-0.05
 74
0
 49
0.1
 74
0
 49
-0.05
 74
0
 49
0.1
 74
0
 49
-0.05
 74
0
  0
LTYPE
  5
1F8
100
AcDbSymbolTableRecord
100
AcDbLinetypeTableRecord
  2
DOT
 70
64
  3
. . . . . . . . . . . . . . . . . . . .
 72
65
 73
2
 40
0.2
 49
0.1
 74
0
 49
-0.1
 74
0
  0
LTYPE
  5
1F9
100
AcDbSymbolTableRecord
100
AcDbLinetypeTableRecord
  2
DASHED
 70
64
  3
- - - - - - - - - - - - - - - - - - - -
 72
65
 73
2
 40
0.2
 49
0.1
 74
0
 49
-0.1
 74
0
  0
ENDTAB
  0
TABLE
  2
LAYER
  5
2
100
AcDbSymbolTable
 70
36
  0
LAYER
  5
10
100
AcDbSymbolTableRecord
100
AcDbLayerTableRecord
  2
0
 70
0
 62
7
  6
CONTINUOUS
370
-3
390
F
  0
LAYER
  5
1FA
100
AcDbSymbolTableRecord
100
AcDbLayerTableRecord
  2
DEFAULT_1
 70
0
 62
7
  6
CENTER
370
-3
390
F
  0
LAYER
  5
1FB
100
AcDbSymbolTableRecord
100
AcDbLayerTableRecord
  2
DEFAULT_2
 70
0
 62
7
  6
HIDDEN
370
-3
390
F
  0
LAYER
  5
1FC
100
AcDbSymbolTableRecord
100
AcDbLayerTableRecord
  2
DEFAULT_3
 70
0
 62
7
  6
PHANTOM
370
-3
390
F
  0
LAYER
  5
1FD
100
AcDbSymbolTableRecord
100
AcDbLayerTableRecord
  2
ASSI
 70
0
 62
7
  6
CONTINUOUS
370
-3
390
F
  0
LAYER
  5
1FE
100
AcDbSymbolTableRecord
100
AcDbLayerTableRecord
  2
COORDINATE
 70
0
 62
7
  6
CONTINUOUS
370
-3
390
F
  0
LAYER
  5
1FF
100
AcDbSymbolTableRecord
100
AcDbLayerTableRecord
  2
COPY_PUBLISH
 70
0
 62
7
  6
CONTINUOUS
370
-3
390
F
  0
LAYER
  5
200
100
AcDbSymbolTableRecord
100
AcDbLayerTableRecord
  2
COSMETIC
 70
0
 62
7
  6
CONTINUOUS
370
-3
390
F
  0
LAYER
  5
201
100
AcDbSymbolTableRecord
100
AcDbLayerTableRecord
  2
COSMETICI
 70
0
 62
7
  6
CONTINUOUS
370
-3
390
F
  0
LAYER
  5
202
100
AcDbSymbolTableRecord
100
AcDbLayerTableRecord
  2
CURVE
 70
0
 62
7
  6
CONTINUOUS
370
-3
390
F
  0
LAYER
  5
203
100
AcDbSymbolTableRecord
100
AcDbLayerTableRecord
  2
DRAFT
 70
0
 62
7
  6
CONTINUOUS
370
-3
390
F
  0
LAYER
  5
204
100
AcDbSymbolTableRecord
100
AcDbLayerTableRecord
  2
IMPORT_IGES
 70
0
 62
7
  6
CONTINUOUS
370
-3
390
F
  0
LAYER
  5
205
100
AcDbSymbolTableRecord
100
AcDbLayerTableRecord
  2
INTFCLR_11
 70
0
 62
7
  6
CONTINUOUS
370
-3
390
F
  0
LAYER
  5
206
100
AcDbSymbolTableRecord
100
AcDbLayerTableRecord
  2
INTF_1
 70
0
 62
7
  6
CONTINUOUS
370
-3
390
F
  0
LAYER
  5
207
100
AcDbSymbolTableRecord
100
AcDbLayerTableRecord
  2
INTF_3
 70
0
 62
7
  6
CONTINUOUS
370
-3
390
F
  0
LAYER
  5
208
100
AcDbSymbolTableRecord
100
AcDbLayerTableRecord
  2
NOTE
 70
0
 62
7
  6
CONTINUOUS
370
-3
390
F
  0
LAYER
  5
209
100
AcDbSymbolTableRecord
100
AcDbLayerTableRecord
  2
PIANI
 70
0
 62
7
  6
CONTINUOUS
370
-3
390
F
  0
LAYER
  5
20A
100
AcDbSymbolTableRecord
100
AcDbLayerTableRecord
  2
PUNTI
 70
0
 62
7
  6
CONTINUOUS
370
-3
390
F
  0
LAYER
  5
20B
100
AcDbSymbolTableRecord
100
AcDbLayerTableRecord
  2
RACCORDO
 70
0
 62
7
  6
CONTINUOUS
370
-3
390
F
  0
LAYER
  5
20C
100
AcDbSymbolTableRecord
100
AcDbLayerTableRecord
  2
SIMBOLI
 70
0
 62
7
  6
CONTINUOUS
370
-3
390
F
  0
LAYER
  5
20D
100
AcDbSymbolTableRecord
100
AcDbLayerTableRecord
  2
SMUSSO
 70
0
 62
7
  6
CONTINUOUS
370
-3
390
F
  0
LAYER
  5
20E
100
AcDbSymbolTableRecord
100
AcDbLayerTableRecord
  2
SNAPLINE
 70
0
 62
7
  6
CONTINUOUS
370
-3
390
F
  0
LAYER
  5
20F
100
AcDbSymbolTableRecord
100
AcDbLayerTableRecord
  2
SUPERFICI
 70
0
 62
7
  6
CONTINUOUS
370
-3
390
F
  0
LAYER
  5
210
100
AcDbSymbolTableRecord
100
AcDbLayerTableRecord
  2
TRASH
 70
0
 62
7
  6
CONTINUOUS
370
-3
390
F
  0
LAYER
  5
211
100
AcDbSymbolTableRecord
100
AcDbLayerTableRecord
  2
___SHELL
 70
0
 62
7
  6
CONTINUOUS
370
-3
390
F
  0
ENDTAB
  0
TABLE
  2
STYLE
  5
3
100
AcDbSymbolTable
 70
1
  0
STYLE
  5
11
100
AcDbSymbolTableRecord
100
AcDbTextStyleTableRecord
  2
STANDARD
 70
0
 40
0.0
 41
0.8
 50
0.0
 71
0
 42
0.2
  3
txt
  4

  0
STYLE
  5
212
100
AcDbSymbolTableRecord
100
AcDbTextStyleTableRecord
  2
TEXTSTYLE_1
 70
0
 40
0.0
 41
0.8
 50
0.0
 71
0
 42
0.2
  3
gdt
  4

  0
ENDTAB
  0
TABLE
  2
VIEW
  5
6
100
AcDbSymbolTable
 70
0
  0
ENDTAB
  0
TABLE
  2
UCS
  5
7
100
AcDbSymbolTable
 70
0
  0
ENDTAB
  0
TABLE
  2
APPID
  5
9
100
AcDbSymbolTable
 70
1
  0
APPID
  5
213
100
AcDbSymbolTableRecord
100
AcDbRegAppTableRecord
  2
ACAD
 70
0
  0
ENDTAB
  0
TABLE
  2
BLOCK_RECORD
  5
1
100
AcDbSymbolTable
 70
0
  0
BLOCK_RECORD
  5
214
100
AcDbSymbolTableRecord
100
AcDbBlockTableRecord
  2
*Model_Space
  0
BLOCK_RECORD
  5
215
100
AcDbSymbolTableRecord
100
AcDbBlockTableRecord
  2
*Paper_Space
  0
BLOCK_RECORD
  5
216
100
AcDbSymbolTableRecord
100
AcDbBlockTableRecord
  2
_FILLED
  0
BLOCK_RECORD
  5
217
100
AcDbSymbolTableRecord
100
AcDbBlockTableRecord
  2
*D0
  0
BLOCK_RECORD
  5
218
100
AcDbSymbolTableRecord
100
AcDbBlockTableRecord
  2
*D1
  0
BLOCK_RECORD
  5
219
100
AcDbSymbolTableRecord
100
AcDbBlockTableRecord
  2
*D2
  0
ENDTAB
  0
TABLE
  2
DIMSTYLE
  5
A
100
AcDbSymbolTable
 70
1
100
AcDbDimStyleTable
 71
0
  0
DIMSTYLE
105
21A
100
AcDbSymbolTableRecord
100
AcDbDimStyleTableRecord
  2
STANDARD
 70
0
  3

  4

 40
1.0
 41
3.0
 42
0.0625
 43
0.38
 44
0.18
 45
0.0
 46
0.0
 47
0.01
 48
0.01
140
3.0
141
0.09
142
0.0
143
25.4
144
1.0
145
0.0
146
1.0
147
0.09
 71
1.0
 72
0.0
 73
0
 74
0
 75
0
 76
0
 77
1
 78
8
170
0
171
2
172
0
173
0
174
0
175
0
176
0
177
0
178
0
270
2
271
2
272
2
273
2
274
2
275
0
280
0
281
0
282
0
283
1
284
8
285
0
286
0
287
3
288
0
340
11
341
216
342
216
343
216
344
216
  0
DIMSTYLE
105
21B
100
AcDbSymbolTableRecord
100
AcDbDimStyleTableRecord
  2
DIMSTYLE_1
 70
0
  3

  4

 40
1.0
 41
3.0
 42
0.0625
 43
0.38
 44
0.18
 45
0.0
 46
0.0
 47
0.0
 48
0.0
140
3.0
141
0.09
142
0.0
143
25.4
144
1.0
145
0.0
146
1.0
147
0.09
 71
0.0
 72
0.0
 73
0
 74
0
 75
0
 76
0
 77
1
 78
8
170
0
171
2
172
0
173
0
174
0
175
0
176
0
177
0
178
0
270
2
271
1
272
1
273
2
274
2
275
0
280
0
281
0
282
0
283
1
284
8
285
0
286
0
287
3
288
0
340
11
341
216
342
216
343
216
344
216
  0
ENDTAB
  0
ENDSEC
  0
SECTION
  2
BLOCKS
  0
BLOCK
  5
20
100
AcDbEntity
  8
0
100
AcDbBlockBegin
  2
*Model_Space
 70
0
 10
0.0
 20
0.0
 30
0.0
  3
*Model_Space
  1

  0
ENDBLK
  5
21
100
AcDbEntity
  8
0
100
AcDbBlockEnd
  0
BLOCK
  5
1C
100
AcDbEntity
  8
0
100
AcDbBlockBegin
  2
*Paper_Space
 70
0
 10
0.0
 20
0.0
 30
0.0
  3
*Paper_Space
  1

  0
ENDBLK
  5
1D
100
AcDbEntity
  8
0
100
AcDbBlockEnd
  0
BLOCK
  5
21C
100
AcDbEntity
  8
0
100
AcDbBlockBegin
  2
_FILLED
 70
64
 10
0.0
 20
0.0
  3
_FILLED
  1

  0
SOLID
  5
21D
100
AcDbEntity
  8
0
  6
BYBLOCK
 62
0
100
AcDbTrace
 10
0.0
 20
0.0
 11
-1.0
 21
0.3166666667
 12
-1.0
 22
-0.3166666667
 13
-1.0
 23
-0.3166666667
  0
ENDBLK
  5
21E
100
AcDbEntity
  8
0
  6
BYBLOCK
 62
0
100
AcDbBlockEnd
  0
BLOCK
  5
21F
100
AcDbEntity
  8
0
100
AcDbBlockBegin
 62
7
  6
CONTINUOUS
  2
*D0
 70
65
 10
0.0
 20
0.0
  3
*D0
  1

  0
LINE
  5
220
100
AcDbEntity
  8
0
100
AcDbLine
 62
7
  6
CONTINUOUS
 10
22.2874076812
 20
23.7346301467
 11
22.2874076812
 21
36.8943938178
  0
LINE
  5
221
100
AcDbEntity
  8
0
100
AcDbLine
 62
7
  6
CONTINUOUS
 10
-22.2874076812
 20
22.1124424466
 11
-22.2874076812
 21
36.8943938178
  0
LINE
  5
222
100
AcDbEntity
  8
0
100
AcDbLine
 62
7
  6
CONTINUOUS
 10
22.2874076812
 20
35.3943938178
 11
0.0
 21
35.3943938178
  0
LINE
  5
223
100
AcDbEntity
  8
0
100
AcDbLine
 62
7
  6
CONTINUOUS
 10
-22.2874076812
 20
35.3943938178
 11
0.0
 21
35.3943938178
  0
INSERT
  5
224
100
AcDbEntity
  8
0
100
AcDbBlockReference
 62
7
  6
CONTINUOUS
  2
_FILLED
 10
22.2874076812
 20
35.3943938178
 41
3.0
 42
3.0
 43
3.0
 50
0.0
  0
INSERT
  5
225
100
AcDbEntity
  8
0
100
AcDbBlockReference
 62
7
  6
CONTINUOUS
  2
_FILLED
 10
-22.2874076812
 20
35.3943938178
 41
3.0
 42
3.0
 43
3.0
 50
180.0
  0
ENDBLK
  5
226
100
AcDbEntity
  8
0
  6
BYBLOCK
 62
0
100
AcDbBlockEnd
  0
BLOCK
  5
227
100
AcDbEntity
  8
0
100
AcDbBlockBegin
 62
7
  6
CONTINUOUS
  2
*D1
 70
65
 10
0.0
 20
0.0
  3
*D1
  1

  0
LINE
  5
228
100
AcDbEntity
  8
0
100
AcDbLine
 62
7
  6
CONTINUOUS
 10
23.086791314
 20
22.1117572139
 11
36.6165999395
 21
22.1117572139
  0
LINE
  5
229
100
AcDbEntity
  8
0
100
AcDbLine
 62
7
  6
CONTINUOUS
 10
23.2448639106
 20
-22.1117572139
 11
36.6165999395
 21
-22.1117572139
  0
LINE
  5
22A
100
AcDbEntity
  8
0
100
AcDbLine
 62
7
  6
CONTINUOUS
 10
35.1165999395
 20
22.1117572139
 11
35.1165999395
 21
-0.0
  0
LINE
  5
22B
100
AcDbEntity
  8
0
100
AcDbLine
 62
7
  6
CONTINUOUS
 10
35.1165999395
 20
-22.1117572139
 11
35.1165999395
 21
-0.0
  0
INSERT
  5
22C
100
AcDbEntity
  8
0
100
AcDbBlockReference
 62
7
  6
CONTINUOUS
  2
_FILLED
 10
35.1165999395
 20
22.1117572139
 41
3.0
 42
3.0
 43
3.0
 50
90.0
  0
INSERT
  5
22D
100
AcDbEntity
  8
0
100
AcDbBlockReference
 62
7
  6
CONTINUOUS
  2
_FILLED
 10
35.1165999395
 20
-22.1117572139
 41
3.0
 42
3.0
 43
3.0
 50
270.0
  0
ENDBLK
  5
22E
100
AcDbEntity
  8
0
  6
BYBLOCK
 62
0
100
AcDbBlockEnd
  0
BLOCK
  5
22F
100
AcDbEntity
  8
0
100
AcDbBlockBegin
 62
7
  6
CONTINUOUS
  2
*D2
 70
65
 10
0.0
 20
0.0
  3
*D2
  1

  0
LINE
  5
230
100
AcDbEntity
  8
0
100
AcDbLine
 62
7
  6
CONTINUOUS
 10
-34.0102082444
 20
10.2310194482
 11
-34.0102082444
 21
36.8943938178
  0
LINE
  5
231
100
AcDbEntity
  8
0
100
AcDbLine
 62
7
  6
CONTINUOUS
 10
-38.6861255544
 20
4.4999999999
 11
-38.6861255544
 21
36.8943938178
  0
LINE
  5
232
100
AcDbEntity
  8
0
100
AcDbLine
 62
7
  6
CONTINUOUS
 10
-34.0102082444
 20
35.3943938178
 11
-30.0102082444
 21
35.3943938178
  0
LINE
  5
233
100
AcDbEntity
  8
0
100
AcDbLine
 62
7
  6
CONTINUOUS
 10
-30.0102082444
 20
35.3943938178
 11
-36.3481668994
 21
35.3943938178
  0
LINE
  5
234
100
AcDbEntity
  8
0
100
AcDbLine
 62
7
  6
CONTINUOUS
 10
-38.6861255544
 20
35.3943938178
 11
-46.5011642749
 21
35.3943938178
  0
LINE
  5
235
100
AcDbEntity
  8
0
100
AcDbLine
 62
7
  6
CONTINUOUS
 10
-46.5011642749
 20
35.3943938178
 11
-36.3481668994
 21
35.3943938178
  0
INSERT
  5
236
100
AcDbEntity
  8
0
100
AcDbBlockReference
 62
7
  6
CONTINUOUS
  2
_FILLED
 10
-34.0102082444
 20
35.3943938178
 41
3.0
 42
3.0
 43
3.0
 50
180.0
  0
INSERT
  5
237
100
AcDbEntity
  8
0
100
AcDbBlockReference
 62
7
  6
CONTINUOUS
  2
_FILLED
 10
-38.6861255544
 20
35.3943938178
 41
3.0
 42
3.0
 43
3.0
  0
ENDBLK
  5
238
100
AcDbEntity
  8
0
  6
BYBLOCK
 62
0
100
AcDbBlockEnd
  0
ENDSEC
  0
SECTION
  2
ENTITIES
  0
DIMENSION
  5
239
100
AcDbEntity
  8
0
100
AcDbDimension
 62
7
  6
CONTINUOUS
  2
*D0
 10
-22.2874076812
 20
35.3943938178
 11
-4.3928571429
 21
36.1443938178
 70
160
 71
2
 42
44.5748153625
  3
DIMSTYLE_1
100
AcDbAlignedDimension
 13
22.2874076812
 23
23.7346301467
 14
-22.2874076812
 24
22.1124424466
 50
180.0
100
AcDbRotatedDimension
  0
DIMENSION
  5
23A
100
AcDbEntity
  8
0
100
AcDbDimension
 62
7
  6
CONTINUOUS
  2
*D1
 10
35.1165999395
 20
-22.1117572139
 11
34.3665999395
 21
-4.3928571429
 70
160
 71
2
 42
44.2235144279
  3
DIMSTYLE_1
100
AcDbAlignedDimension
 13
23.086791314
 23
22.1117572139
 14
23.2448639106
 24
-22.1117572139
 50
270.0
100
AcDbRotatedDimension
  0
DIMENSION
  5
23B
100
AcDbEntity
  8
0
100
AcDbDimension
 62
7
  6
CONTINUOUS
  2
*D2
 10
-38.6861255544
 20
35.3943938178
 11
-46.5011642749
 21
36.1443938178
 70
160
 71
3
 42
4.67591731
  3
DIMSTYLE_1
100
AcDbAlignedDimension
 13
-34.0102082444
 23
10.2310194482
 14
-38.6861255544
 24
4.4999999999
 50
180.0
100
AcDbRotatedDimension
  0
LWPOLYLINE
  5
23C
100
AcDbEntity
  8
0
100
AcDbPolyline
 62
7
  6
CONTINUOUS
 90
10
 70
0
 43
0.3500000006
 10
3.1071428747
 20
39.1443921204
 10
2.464285738
 20
38.5015386658
 10
2.0357142191
 20
37.6443916626
 10
2.0357142191
 20
36.5729647064
 10
2.464285738
 20
36.1443957367
 10
3.1071428747
 20
36.1443957367
 10
3.5357143936
 20
36.5729647064
 10
3.5357143936
 20
37.4301071777
 10
3.1071428747
 20
37.8586806793
 10
2.1785714865
 20
37.8586806793
  0
LWPOLYLINE
  5
23D
100
AcDbEntity
  8
RACCORDO
100
AcDbPolyline
 62
253
  6
CONTINUOUS
 90
16
 70
0
 10
21.7023437668
 20
-22.0260080669
 10
21.7544465492
 20
-22.023139509
 10
21.8059803902
 20
-22.014850594
 10
21.8563826301
 20
-22.0012318436
 10
21.9051029827
 20
-21.9824319648
 10
21.9516094979
 20
-21.9586562426
 10
21.9953943773
 20
-21.9301643127
 10
22.0359795809
 20
-21.8972672924
 10
22.0729220251
 20
-21.8603243785
 10
22.1058183837
 20
-21.8197389571
 10
22.1343095197
 20
-21.7759541764
 10
22.1580844095
 20
-21.7294480923
 10
22.1768835218
 20
-21.68072846
 10
22.1905016458
 20
-21.630327203
 10
22.198790135
 20
-21.5787946072
 10
22.2016585342
 20
-21.5266932995
  0
LWPOLYLINE
  5
23E
100
AcDbEntity
  8
RACCORDO
100
AcDbPolyline
 62
253
  6
CONTINUOUS
 90
16
 70
0
 10
-21.7023437492
 20
-22.0260080493
 10
-21.754445872
 20
-22.0231395627
 10
-21.8059791402
 20
-22.0148508418
 10
-21.8563809102
 20
-22.0012323836
 10
-21.9051008919
 20
-21.9824328752
 10
-21.9516071574
 20
-21.9586575711
 10
-21.9953919481
 20
-21.9301660514
 10
-22.0359772186
 20
-21.8972693888
 10
-22.0729198563
 20
-21.860326751
 10
-22.1058165189
 20
-21.8197414805
 10
-22.1343080384
 20
-21.7759566898
 10
-22.1580833425
 20
-21.7294504243
 10
-22.1768828509
 20
-21.6807304426
 10
-22.1905013091
 20
-21.6303286727
 10
-22.1987900299
 20
-21.5787954046
 10
-22.2016585166
 20
-21.5266932819
  0
LINE
  5
23F
100
AcDbEntity
  8
RACCORDO
100
AcDbLine
 62
253
  6
CONTINUOUS
 10
-21.6947031525
 20
21.8950684657
 11
-21.6924606727
 21
21.8076660712
  0
LINE
  5
240
100
AcDbEntity
  8
RACCORDO
100
AcDbLine
 62
253
  6
CONTINUOUS
 10
-22.170681661
 20
21.1403470978
 11
-22.1687021312
 21
21.0493096838
  0
LINE
  5
241
100
AcDbEntity
  8
RACCORDO
100
AcDbLine
 62
253
  6
CONTINUOUS
 10
-21.6924606727
 20
21.8076660712
 11
-21.6904669458
 21
21.7009339172
  0
LINE
  5
242
100
AcDbEntity
  8
RACCORDO
100
AcDbLine
 62
253
  6
CONTINUOUS
 10
-22.1687021312
 20
21.0493096838
 11
-22.167416629
 21
20.9546247098
  0
LINE
  5
243
100
AcDbEntity
  8
RACCORDO
100
AcDbLine
 62
253
  6
CONTINUOUS
 10
-21.6904669458
 20
21.7009339172
 11
-21.6879808233
 21
21.5093244253
  0
LINE
  5
244
100
AcDbEntity
  8
RACCORDO
100
AcDbLine
 62
253
  6
CONTINUOUS
 10
-21.6879808233
 20
21.5093244253
 11
-21.6857987396
 21
21.2086712693
  0
LINE
  5
245
100
AcDbEntity
  8
RACCORDO
100
AcDbLine
 62
253
  6
CONTINUOUS
 10
-22.167416629
 20
20.9546247098
 11
-22.1668384275
 21
20.8570387366
  0
LWPOLYLINE
  5
246
100
AcDbEntity
  8
RACCORDO
100
AcDbPolyline
 62
253
  6
CONTINUOUS
 90
9
 70
0
 10
-22.1668384275
 20
20.8570387366
 10
-22.1577103532
 20
16.2236957683
 10
-22.1508642975
 20
11.5895754055
 10
-22.1463002606
 20
6.9546776482
 10
-22.1440182427
 20
2.3184841468
 10
-22.1440182435
 20
-2.3184867491
 10
-22.1463002624
 20
-6.9546799903
 10
-22.1508642993
 20
-11.5895772271
 10
-22.1577103543
 20
-16.2236968092
  0
LWPOLYLINE
  5
247
100
AcDbEntity
  8
RACCORDO
100
AcDbPolyline
 62
253
  6
CONTINUOUS
 90
8
 70
0
 10
-21.6778538644
 20
16.2407570029
 10
-21.6724376572
 20
11.6018160204
 10
-21.6688268518
 20
6.9616915799
 10
-21.6670214495
 20
2.3206845026
 10
-21.6670214504
 20
-2.3206884478
 10
-21.668826854
 20
-6.9616951304
 10
-21.6724376594
 20
-11.6018187816
 10
-21.6778538659
 20
-16.2407585807
  0
LINE
  5
248
100
AcDbEntity
  8
RACCORDO
100
AcDbLine
 62
253
  6
CONTINUOUS
 10
-21.6857987396
 20
21.2086712693
 11
-21.6778538644
 21
16.2407570029
  0
LINE
  5
249
100
AcDbEntity
  8
RACCORDO
100
AcDbLine
 62
7
  6
CONTINUOUS
 10
-22.2874076812
 20
21.6124424466
 11
-22.2874076812
 21
-21.6124424466
  0
LINE
  5
24A
100
AcDbEntity
  8
RACCORDO
100
AcDbLine
 62
253
  6
CONTINUOUS
 10
-21.6778538659
 20
-16.2407585807
 11
-21.6852567712
 21
-21.0455560812
  0
LINE
  5
24B
100
AcDbEntity
  8
RACCORDO
100
AcDbLine
 62
253
  6
CONTINUOUS
 10
-22.1577103543
 20
-16.2236968092
 11
-22.1670396041
 21
-20.906217702
  0
LINE
  5
24C
100
AcDbEntity
  8
RACCORDO
100
AcDbLine
 62
253
  6
CONTINUOUS
 10
-21.6852567712
 20
-21.0455560812
 11
-21.6867133762
 21
-21.3642660287
  0
LINE
  5
24D
100
AcDbEntity
  8
RACCORDO
100
AcDbLine
 62
253
  6
CONTINUOUS
 10
-21.6867133762
 20
-21.3642660287
 11
-21.6887278514
 21
-21.576995267
  0
LINE
  5
24E
100
AcDbEntity
  8
RACCORDO
100
AcDbLine
 62
253
  6
CONTINUOUS
 10
-22.1670396041
 20
-20.906217702
 11
-22.1679690498
 21
-21.0022169117
  0
LINE
  5
24F
100
AcDbEntity
  8
RACCORDO
100
AcDbLine
 62
253
  6
CONTINUOUS
 10
-21.6887278514
 20
-21.576995267
 11
-21.6904666751
 21
-21.7009353181
  0
LWPOLYLINE
  5
250
100
AcDbEntity
  8
RACCORDO
100
AcDbPolyline
 62
253
  6
CONTINUOUS
 90
18
 70
0
 10
-22.1679690498
 20
-21.0022169117
 10
-22.1696101426
 20
-21.0955695597
 10
-22.1706809495
 20
-21.1403189239
 10
-22.1719164945
 20
-21.1834905098
 10
-22.1733144512
 20
-21.2251282561
 10
-22.1748545557
 20
-21.2646163791
 10
-22.1765390738
 20
-21.3019250411
 10
-22.1783657396
 20
-21.3370840798
 10
-22.1803074917
 20
-21.369567225
 10
-22.1823660363
 20
-21.3993327255
 10
-22.1845396673
 20
-21.4264223325
 10
-22.1867962049
 20
-21.4504350292
 10
-22.1891380186
 20
-21.4713260608
 10
-22.191562739
 20
-21.489140182
 10
-22.1940310779
 20
-21.5036106401
 10
-22.196529939
 20
-21.5146485172
 10
-22.1990724186
 20
-21.5223427312
 10
-22.2016585166
 20
-21.5266932819
  0
LINE
  5
251
100
AcDbEntity
  8
RACCORDO
100
AcDbLine
 62
253
  6
CONTINUOUS
 10
-21.6904666751
 20
-21.7009353181
 11
-21.6924604453
 21
-21.8076670285
  0
LWPOLYLINE
  5
252
100
AcDbEntity
  8
RACCORDO
100
AcDbPolyline
 62
253
  6
CONTINUOUS
 90
8
 70
0
 10
-21.6924604453
 20
-21.8076670285
 10
-21.6947030398
 20
-21.8950690731
 10
-21.6958885828
 20
-21.9309580933
 10
-21.6971338184
 20
-21.9613944703
 10
-21.6983935316
 20
-21.9862291518
 10
-21.6996622345
 20
-22.0053370027
 10
-21.700974096
 20
-22.0186195414
 10
-21.7023437492
 20
-22.0260080493
  0
LWPOLYLINE
  5
253
100
AcDbEntity
  8
RACCORDO
100
AcDbPolyline
 62
253
  6
CONTINUOUS
 90
14
 70
0
 10
21.7829205257
 20
-20.8773337176
 10
21.8303890742
 20
-20.8766470669
 10
21.8762661728
 20
-20.8757688125
 10
21.9201035305
 20
-20.8747075363
 10
21.9614727877
 20
-20.8734736086
 10
21.9999697021
 20
-20.8720790869
 10
22.0352180986
 20
-20.8705375977
 10
22.0668735452
 20
-20.8688642039
 10
22.0946267186
 20
-20.867075257
 10
22.1182064271
 20
-20.865188238
 10
22.1373822599
 20
-20.863221586
 10
22.1519668391
 20
-20.8611945182
 10
22.1618176507
 20
-20.8591268422
 10
22.1668384366
 20
-20.8570387625
  0
LINE
  5
254
100
AcDbEntity
  8
RACCORDO
100
AcDbLine
 62
253
  6
CONTINUOUS
 10
21.6850754654
 20
-20.8781073069
 11
21.7829205257
 21
-20.8773337176
  0
LINE
  5
255
100
AcDbEntity
  8
RACCORDO
100
AcDbLine
 62
253
  6
CONTINUOUS
 10
-21.7023437504
 20
-22.0260080504
 11
-14.9351825669
 21
-22.0154308735
  0
LINE
  5
256
100
AcDbEntity
  8
RACCORDO
100
AcDbLine
 62
253
  6
CONTINUOUS
 10
-14.9351825669
 20
-22.0154308735
 11
-8.1922764616
 21
-22.0087774091
  0
LINE
  5
257
100
AcDbEntity
  8
RACCORDO
100
AcDbLine
 62
253
  6
CONTINUOUS
 10
-21.685075472
 20
-20.8781072465
 11
-8.1841943372
 21
-20.8713008997
  0
LINE
  5
258
100
AcDbEntity
  8
RACCORDO
100
AcDbLine
 62
253
  6
CONTINUOUS
 10
-8.1922764616
 20
-22.0087774091
 11
-1.386525139
 21
-22.005995887
  0
LINE
  5
259
100
AcDbEntity
  8
RACCORDO
100
AcDbLine
 62
7
  6
CONTINUOUS
 10
-21.7880929139
 20
-22.1117572139
 11
21.7880929139
 21
-22.1117572139
  0
LINE
  5
25A
100
AcDbEntity
  8
RACCORDO
100
AcDbLine
 62
253
  6
CONTINUOUS
 10
-1.386525139
 20
-22.005995887
 11
5.6822838363
 21
-22.007291536
  0
LINE
  5
25B
100
AcDbEntity
  8
RACCORDO
100
AcDbLine
 62
253
  6
CONTINUOUS
 10
-8.1841943372
 20
-20.8713008997
 11
10.6762914945
 21
-20.8720819903
  0
LINE
  5
25C
100
AcDbEntity
  8
RACCORDO
100
AcDbLine
 62
253
  6
CONTINUOUS
 10
10.6762914945
 20
-20.8720819903
 11
21.6850754654
 21
-20.8781072728
  0
LINE
  5
25D
100
AcDbEntity
  8
RACCORDO
100
AcDbLine
 62
253
  6
CONTINUOUS
 10
5.6822838363
 20
-22.007291536
 11
10.6804877979
 21
-22.0107495721
  0
LINE
  5
25E
100
AcDbEntity
  8
RACCORDO
100
AcDbLine
 62
253
  6
CONTINUOUS
 10
10.6804877979
 20
-22.0107495721
 11
16.0115169573
 21
-22.0169324323
  0
LINE
  5
25F
100
AcDbEntity
  8
RACCORDO
100
AcDbLine
 62
253
  6
CONTINUOUS
 10
16.0115169573
 20
-22.0169324323
 11
21.7023437668
 21
-22.0260080669
  0
LWPOLYLINE
  5
260
100
AcDbEntity
  8
RACCORDO
100
AcDbPolyline
 62
253
  6
CONTINUOUS
 90
15
 70
0
 10
-21.6850750309
 20
-20.8781067346
 10
-21.7829191275
 20
-20.877333173
 10
-21.8303872486
 20
-20.8766465446
 10
-21.8762639746
 20
-20.8757683177
 10
-21.9201010272
 20
-20.8747070737
 10
-21.9614700586
 20
-20.8734731824
 10
-21.9999668369
 20
-20.8720787007
 10
-22.0352151961
 20
-20.8705372545
 10
-22.0668707116
 20
-20.8688639058
 10
-22.0946240658
 20
-20.8670750056
 10
-22.1182040706
 20
-20.8651880339
 10
-22.1373803172
 20
-20.8632214288
 10
-22.1519654274
 20
-20.861194407
 10
-22.1618168849
 20
-20.859126775
 10
-22.1668384274
 20
-20.8570387366
  0
LWPOLYLINE
  5
261
100
AcDbEntity
  8
RACCORDO
100
AcDbPolyline
 62
253
  6
CONTINUOUS
 90
7
 70
0
 10
-21.7023437493
 20
22.0260080494
 10
-21.7009741313
 20
22.0186193697
 10
-21.6996622981
 20
22.0053365549
 10
-21.6983936165
 20
21.9862284249
 10
-21.6971339111
 20
21.9613936369
 10
-21.695888678
 20
21.9309573763
 10
-21.6947031525
 20
21.8950684657
  0
LWPOLYLINE
  5
262
100
AcDbEntity
  8
0
100
AcDbPolyline
 62
7
  6
CONTINUOUS
 90
3
 70
0
 43
0.3500000006
 10
1.035714268
 20
36.4301068726
 10
0.9642857051
 20
36.2158223877
 10
0.8214285793
 20
35.93010672
  0
LWPOLYLINE
  5
263
100
AcDbEntity
  8
RACCORDO
100
AcDbPolyline
 62
253
  6
CONTINUOUS
 90
16
 70
0
 10
-22.2016585167
 20
21.526693282
 10
-22.1990728442
 20
21.5223441275
 10
-22.1965307205
 20
21.5146516989
 10
-22.1940321457
 20
21.5036159961
 10
-22.191564004
 20
21.4891480196
 10
-22.1891394111
 20
21.4713367689
 10
-22.186797714
 20
21.4504492426
 10
-22.1845413251
 20
21.4264412853
 10
-22.1823678319
 20
21.3993570523
 10
-22.1803093446
 20
21.3695960086
 10
-22.178367533
 20
21.33711607
 10
-22.1765407271
 20
21.3019593207
 10
-22.174856027
 20
21.2646514771
 10
-22.1733156859
 20
21.2251620882
 10
-22.1719174505
 20
21.1835216051
 10
-22.170681661
 20
21.1403470978
  0
LINE
  5
264
100
AcDbEntity
  8
0
100
AcDbLine
 62
7
  6
CONTINUOUS
 10
-5.1989247026
 20
-0.0905220426
 11
-5.1865419463
 21
-0.2931840453
  0
LINE
  5
265
100
AcDbEntity
  8
0
100
AcDbLine
 62
7
  6
CONTINUOUS
 10
-5.1985080729
 20
0.1037399813
 11
-5.1986471243
 21
-0.0979032504
  0
LINE
  5
266
100
AcDbEntity
  8
0
100
AcDbLine
 62
7
  6
CONTINUOUS
 10
-5.1861111305
 20
0.2977851693
 11
-5.1986642652
 21
0.0973368893
  0
LINE
  5
267
100
AcDbEntity
  8
0
100
AcDbLine
 62
7
  6
CONTINUOUS
 10
-5.1615940243
 20
0.4926639961
 11
-5.1865947268
 21
0.2926181528
  0
LINE
  5
268
100
AcDbEntity
  8
0
100
AcDbLine
 62
7
  6
CONTINUOUS
 10
-5.125096581
 20
0.6873258777
 11
-5.1624529217
 21
0.4877492828
  0
LINE
  5
269
100
AcDbEntity
  8
0
100
AcDbLine
 62
7
  6
CONTINUOUS
 10
-5.0770858219
 20
0.8783819452
 11
-5.1264280047
 21
0.6815059043
  0
LINE
  5
26A
100
AcDbEntity
  8
0
100
AcDbLine
 62
7
  6
CONTINUOUS
 10
-5.0175010589
 20
1.0652307924
 11
-5.0787755891
 21
0.8724204695
  0
LINE
  5
26B
100
AcDbEntity
  8
0
100
AcDbLine
 62
7
  6
CONTINUOUS
 10
-4.9464028903
 20
1.2484737512
 11
-5.0197459202
 21
1.0592290263
  0
LINE
  5
26C
100
AcDbEntity
  8
0
100
AcDbLine
 62
7
  6
CONTINUOUS
 10
-4.864440247
 20
1.4265260826
 11
-4.9494159509
 21
1.2416858311
  0
LINE
  5
26D
100
AcDbEntity
  8
0
100
AcDbLine
 62
7
  6
CONTINUOUS
 10
-4.771333029
 20
1.5996344231
 11
-4.8677659535
 21
1.4198423638
  0
LINE
  5
26E
100
AcDbEntity
  8
0
100
AcDbLine
 62
7
  6
CONTINUOUS
 10
-4.6673612157
 20
1.7675521084
 11
-4.7748619581
 21
1.5935154931
  0
LINE
  5
26F
100
AcDbEntity
  8
0
100
AcDbLine
 62
7
  6
CONTINUOUS
 10
-4.5540138528
 20
1.9279544772
 11
-4.6712770876
 21
1.7616514632
  0
LINE
  5
270
100
AcDbEntity
  8
0
100
AcDbLine
 62
7
  6
CONTINUOUS
 10
-4.6711595794
 20
-1.7618218311
 11
-4.5576459293
 21
-1.9231257832
  0
LINE
  5
271
100
AcDbEntity
  8
0
100
AcDbLine
 62
7
  6
CONTINUOUS
 10
-4.7757783724
 20
-1.591913493
 11
-4.6718614008
 21
-1.7607384722
  0
LINE
  5
272
100
AcDbEntity
  8
0
100
AcDbLine
 62
7
  6
CONTINUOUS
 10
-4.8687265894
 20
-1.4179047419
 11
-4.7747326948
 21
-1.5937312216
  0
LINE
  5
273
100
AcDbEntity
  8
0
100
AcDbLine
 62
7
  6
CONTINUOUS
 10
-4.9504218939
 20
-1.2389381769
 11
-4.8676321522
 21
-1.4201121584
  0
LINE
  5
274
100
AcDbEntity
  8
0
100
AcDbLine
 62
7
  6
CONTINUOUS
 10
-5.0211485656
 20
-1.0547878693
 11
-4.949281404
 21
-1.2420175235
  0
LINE
  5
275
100
AcDbEntity
  8
0
100
AcDbLine
 62
7
  6
CONTINUOUS
 10
-5.0802651669
 20
-0.867127822
 11
-5.0196119808
 21
-1.059625409
  0
LINE
  5
276
100
AcDbEntity
  8
0
100
AcDbLine
 62
7
  6
CONTINUOUS
 10
-5.1276972168
 20
-0.6753530491
 11
-5.0786468017
 21
-0.8728764879
  0
LINE
  5
277
100
AcDbEntity
  8
0
100
AcDbLine
 62
7
  6
CONTINUOUS
 10
-5.1635192856
 20
-0.4800686129
 11
-5.1263136301
 21
-0.6820144265
  0
LINE
  5
278
100
AcDbEntity
  8
0
100
AcDbLine
 62
7
  6
CONTINUOUS
 10
-5.1873134918
 20
-0.2847636126
 11
-5.1623647552
 21
-0.488298459
  0
LWPOLYLINE
  5
279
100
AcDbEntity
  8
0
100
AcDbPolyline
 62
7
  6
CONTINUOUS
 90
2
 70
0
 43
0.3500000006
 10
-3.3928571262
 20
36.1443957367
 10
-3.3928571262
 20
37.6443916626
  0
LINE
  5
27A
100
AcDbEntity
  8
0
100
AcDbLine
 62
7
  6
CONTINUOUS
 10
-4.4315009624
 20
2.0804062463
 11
-4.5577472115
 21
1.9229911162
  0
LINE
  5
27B
100
AcDbEntity
  8
0
100
AcDbLine
 62
7
  6
CONTINUOUS
 10
-4.2996124001
 20
2.2253427381
 11
-4.4349391437
 21
2.076470949
  0
LINE
  5
27C
100
AcDbEntity
  8
0
100
AcDbLine
 62
7
  6
CONTINUOUS
 10
-4.1592069688
 20
2.3617452299
 11
-4.3030651489
 21
2.2218347294
  0
LINE
  5
27D
100
AcDbEntity
  8
0
100
AcDbLine
 62
7
  6
CONTINUOUS
 10
-4.0098310987
 20
2.4898819625
 11
-4.1621789166
 21
2.3590281568
  0
LINE
  5
27E
100
AcDbEntity
  8
0
100
AcDbLine
 62
7
  6
CONTINUOUS
 10
-3.8519382555
 20
2.6094847724
 11
-4.0124549826
 21
2.4878478123
  0
LINE
  5
27F
100
AcDbEntity
  8
0
100
AcDbLine
 62
7
  6
CONTINUOUS
 10
-3.6877478159
 20
2.7187303538
 11
-3.8547267856
 21
2.6075580247
  0
LINE
  5
280
100
AcDbEntity
  8
0
100
AcDbLine
 62
7
  6
CONTINUOUS
 10
-3.5174623464
 20
2.8172994237
 11
-3.6900391027
 21
2.7173050141
  0
LINE
  5
281
100
AcDbEntity
  8
0
100
AcDbLine
 62
7
  6
CONTINUOUS
 10
-3.3408792301
 20
2.9055113762
 11
-3.5193193441
 21
2.8163926216
  0
LINE
  5
282
100
AcDbEntity
  8
0
100
AcDbLine
 62
7
  6
CONTINUOUS
 10
-3.1596100968
 20
2.9825009356
 11
-3.3429916487
 21
2.9046066867
  0
LINE
  5
283
100
AcDbEntity
  8
0
100
AcDbLine
 62
7
  6
CONTINUOUS
 10
-2.9748099788
 20
3.0478541773
 11
-3.1613555652
 21
2.9818223806
  0
LINE
  5
284
100
AcDbEntity
  8
0
100
AcDbLine
 62
7
  6
CONTINUOUS
 10
-2.7823722924
 20
3.1027575643
 11
-2.9733342031
 21
3.0482403955
  0
LWPOLYLINE
  5
285
100
AcDbEntity
  8
0
100
AcDbPolyline
 62
7
  6
CONTINUOUS
 90
4
 70
0
 10
2.1978141225
 20
-3.1938820238
 10
2.3949250014
 20
-3.1755463718
 10
2.5906240322
 20
-3.1450215148
 10
2.7842188314
 20
-3.1023716066
  0
LINE
  5
286
100
AcDbEntity
  8
0
100
AcDbLine
 62
7
  6
CONTINUOUS
 10
1.999977547
 20
-3.2000015593
 11
2.1984183119
 21
-3.193778134
  0
LWPOLYLINE
  5
287
100
AcDbEntity
  8
0
100
AcDbPolyline
 62
7
  6
CONTINUOUS
 90
55
 70
0
 10
2.0000243898
 20
-3.9912681758
 10
2.23306367
 20
-3.9843644977
 10
2.4638304038
 20
-3.9641980465
 10
2.6923245358
 20
-3.9307687925
 10
2.9193100439
 20
-3.8838813876
 10
3.1440228506
 20
-3.8237310799
 10
3.3641708393
 20
-3.7509037161
 10
3.5797073275
 20
-3.6652669246
 10
3.79067897
 20
-3.5669529147
 10
3.9949336976
 20
-3.4569444007
 10
4.192403667
 20
-3.3351180834
 10
4.3831567771
 20
-3.201597081
 10
4.5652446156
 20
-3.0577337489
 10
4.7385766758
 20
-2.9034200447
 10
4.9032435968
 20
-2.7387638597
 10
5.0575687205
 20
-2.5654414842
 10
5.2014437867
 20
-2.3833630591
 10
5.3349772385
 20
-2.1926183618
 10
5.4568174914
 20
-1.9951531837
 10
5.5668420135
 20
-1.7909012273
 10
5.6651735302
 20
-1.5799287988
 10
5.7508283419
 20
-1.3643806426
 10
5.8236752352
 20
-1.1442117885
 10
5.8838455836
 20
-0.9194673028
 10
5.9307495479
 20
-0.6924270242
 10
5.9642541888
 20
-0.4630864653
 10
5.9844925357
 20
-0.231450272
 10
5.991273669
 20
0.0001879957
 10
5.9844678932
 20
0.2318380102
 10
5.9642049039
 20
0.4634899183
 10
5.93068283
 20
0.6928208719
 10
5.883771412
 20
0.9198060309
 10
5.823600819
 20
1.1444700773
 10
5.7507597912
 20
1.3645644673
 10
5.6651195969
 20
1.5800523082
 10
5.5668088078
 20
1.7909703967
 10
5.4568020984
 20
1.9951807627
 10
5.3349742393
 20
2.1926215109
 10
5.2014502667
 20
2.3833545277
 10
5.057580253
 20
2.5654275628
 10
4.9032535469
 20
2.7387512126
 10
4.7385806167
 20
2.9034149622
 10
4.5652432334
 20
3.0577349398
 10
4.383152173
 20
3.2016005876
 10
4.192396527
 20
3.3351226147
 10
3.9949255745
 20
3.4569490843
 10
3.7906721841
 20
3.5669566256
 10
3.5797034316
 20
3.6652687903
 10
3.3641699501
 20
3.7509040402
 10
3.144025226
 20
3.8237303543
 10
2.9193158006
 20
3.883879916
 10
2.6923319316
 20
3.9307674897
 10
2.4638370766
 20
3.964198031
 10
2.2330678774
 20
3.9843666845
 10
2.0000243895
 20
3.9912734797
  0
LINE
  5
288
100
AcDbEntity
  8
0
100
AcDbLine
 62
7
  6
CONTINUOUS
 10
2.0000238186
 20
-3.9999946961
 11
-2.0000238186
 21
-3.9999946961
  0
LINE
  5
289
100
AcDbEntity
  8
0
100
AcDbLine
 62
7
  6
CONTINUOUS
 10
-2.0000243898
 20
-3.9912681758
 11
2.0000243898
 21
-3.9912681758
  0
LWPOLYLINE
  5
28A
100
AcDbEntity
  8
0
100
AcDbPolyline
 62
7
  6
CONTINUOUS
 90
2
 70
0
 43
0.3500000006
 10
34.3665993576
 20
-3.3928568802
 10
32.8665988998
 20
-3.3928568802
  0
LINE
  5
28B
100
AcDbEntity
  8
0
100
AcDbLine
 62
7
  6
CONTINUOUS
 10
-1.9999943885
 20
-3.2000015593
 11
1.9999943888
 21
-3.2000015593
  0
LWPOLYLINE
  5
28C
100
AcDbEntity
  8
0
100
AcDbPolyline
 62
7
  6
CONTINUOUS
 90
55
 70
0
 10
-2.0000238186
 20
-3.9999946961
 10
-2.2335818726
 20
-3.9930746961
 10
-2.4648596983
 20
-3.9728630026
 10
-2.693857275
 20
-3.9393596175
 10
-2.9213396203
 20
-3.8923687302
 10
-3.1465416771
 20
-3.8320861241
 10
-3.3671683259
 20
-3.7590991839
 10
-3.5831728017
 20
-3.673275805
 10
-3.794601868
 20
-3.5747480255
 10
-3.9993007262
 20
-3.4644994458
 10
-4.1972022872
 20
-3.3424062561
 10
-4.3883736793
 20
-3.2085921814
 10
-4.5708614569
 20
-3.0644121356
 10
-4.7445763263
 20
-2.9097550959
 10
-4.9096076565
 20
-2.7447320072
 10
-5.0642700199
 20
-2.5710307539
 10
-5.2084525845
 20
-2.3885616311
 10
-5.3422662799
 20
-2.1974142938
 10
-5.4643583368
 20
-1.9995456909
 10
-5.5746031713
 20
-1.7948943458
 10
-5.6731264674
 20
-1.5835217243
 10
-5.7589523641
 20
-1.3675692133
 10
-5.8319523665
 20
-1.147000263
 10
-5.8922550511
 20
-0.9218514509
 10
-5.9392701606
 20
-0.6943738749
 10
-5.9728674057
 20
-0.4645409644
 10
-5.9931771214
 20
-0.2323793452
 10
-5.9999999781
 20
-0.0002199207
 10
-5.9932058941
 20
0.2319259559
 10
-5.9729249512
 20
0.4640695723
 10
-5.9393480528
 20
0.6939139873
 10
-5.89234164
 20
0.9214560394
 10
-5.8320392259
 20
1.1466988344
 10
-5.7590323136
 20
1.3673548428
 10
-5.6731892069
 20
1.5833780232
 10
-5.5746415202
 20
1.7948143892
 10
-5.4643757186
 20
1.9995145142
 10
-5.3422690583
 20
2.1974117275
 10
-5.2084441831
 20
2.3885727109
 10
-5.0642556454
 20
2.5710480908
 10
-4.9095951145
 20
2.7447477676
 10
-4.7445708236
 20
2.9097618912
 10
-4.5708621876
 20
3.0644114865
 10
-4.3883781734
 20
3.208588743
 10
-4.1972097389
 20
3.3424015492
 10
-3.9993093079
 20
3.4644944982
 10
-3.7946088368
 20
3.5747441647
 10
-3.58317633
 20
3.6732740588
 10
-3.3671683119
 20
3.7590991882
 10
-3.1465378545
 20
3.8320870534
 10
-2.9213318871
 20
3.8923702203
 10
-2.693847747
 20
3.939361296
 10
-2.4648512306
 20
3.972864494
 10
-2.2335765808
 20
3.993075628
 10
-2.0000238186
 20
3.9999946961
  0
LINE
  5
28D
100
AcDbEntity
  8
0
100
AcDbLine
 62
7
  6
CONTINUOUS
 10
-2.1978208968
 20
-3.1938818
 11
-1.9999943881
 21
-3.2000000049
  0
LINE
  5
28E
100
AcDbEntity
  8
0
100
AcDbLine
 62
7
  6
CONTINUOUS
 10
-2.3943484391
 20
-3.175644689
 11
-2.198123018
 21
-3.1938481282
  0
LINE
  5
28F
100
AcDbEntity
  8
0
100
AcDbLine
 62
7
  6
CONTINUOUS
 10
-2.5906411432
 20
-3.1450182863
 11
-2.3949370977
 21
-3.1755452073
  0
LINE
  5
290
100
AcDbEntity
  8
0
100
AcDbLine
 62
7
  6
CONTINUOUS
 10
-2.7842398261
 20
-3.1023655678
 11
-2.5886538065
 21
-3.1453912221
  0
LWPOLYLINE
  5
291
100
AcDbEntity
  8
0
100
AcDbPolyline
 62
7
  6
CONTINUOUS
 90
6
 70
0
 10
-3.6900490491
 20
-2.7172987451
 10
-3.5191459158
 20
-2.8163775104
 10
-3.3418973768
 20
-2.9050189836
 10
-3.1600493054
 20
-2.9823303284
 10
-2.9732905309
 20
-3.0482540074
 10
-2.7819322251
 20
-3.1028476615
  0
LWPOLYLINE
  5
292
100
AcDbEntity
  8
0
100
AcDbPolyline
 62
7
  6
CONTINUOUS
 90
6
 70
0
 10
-4.4348579577
 20
-2.0765710547
 10
-4.3030077512
 20
-2.2218983278
 10
-4.1621440562
 20
-2.3590602174
 10
-4.0124359138
 20
-2.4878608691
 10
-3.8547171823
 20
-2.6075628146
 10
-3.6900376396
 20
-2.7173058495
  0
LINE
  5
293
100
AcDbEntity
  8
0
100
AcDbLine
 62
7
  6
CONTINUOUS
 10
-4.5584697642
 20
-1.9220278764
 11
-4.4358084117
 21
-2.0753502453
  0
LINE
  5
294
100
AcDbEntity
  8
0
100
AcDbLine
 62
253
  6
CONTINUOUS
 10
-2.0000238186
 20
-3.9999946961
 11
-2.0000243898
 21
-3.9912681758
  0
LWPOLYLINE
  5
295
100
AcDbEntity
  8
0
100
AcDbPolyline
 62
7
  6
CONTINUOUS
 90
2
 70
0
 43
0.3500000006
 10
-1.035714268
 20
36.1443957367
 10
-1.035714268
 20
37.6443916626
  0
LINE
  5
296
100
AcDbEntity
  8
0
100
AcDbLine
 62
253
  6
CONTINUOUS
 10
-2.0000238183
 20
3.9999999992
 11
-2.0000243895
 21
3.991273479
  0
LINE
  5
297
100
AcDbEntity
  8
RACCORDO
100
AcDbLine
 62
253
  6
CONTINUOUS
 10
-22.2016585166
 20
-21.5266932819
 11
-22.2874076812
 21
-21.6124424466
  0
LINE
  5
298
100
AcDbEntity
  8
RACCORDO
100
AcDbLine
 62
253
  6
CONTINUOUS
 10
21.7023437669
 20
22.026008067
 11
21.7880929139
 21
22.1117572139
  0
LINE
  5
299
100
AcDbEntity
  8
RACCORDO
100
AcDbLine
 62
253
  6
CONTINUOUS
 10
-21.7023437504
 20
-22.0260080504
 11
-21.7880929139
 21
-22.1117572139
  0
LWPOLYLINE
  5
29A
100
AcDbEntity
  8
0
100
AcDbPolyline
 62
7
  6
CONTINUOUS
 90
2
 70
0
 43
0.3500000006
 10
34.3665993576
 20
-1.0357139511
 10
32.8665988998
 20
-1.0357139511
  0
LINE
  5
29B
100
AcDbEntity
  8
RACCORDO
100
AcDbLine
 62
253
  6
CONTINUOUS
 10
-22.2874076812
 20
21.6124424466
 11
-22.2016585167
 21
21.526693282
  0
LINE
  5
29C
100
AcDbEntity
  8
RACCORDO
100
AcDbLine
 62
253
  6
CONTINUOUS
 10
21.7880929139
 20
-22.1117572139
 11
21.7023437668
 21
-22.0260080669
  0
LINE
  5
29D
100
AcDbEntity
  8
RACCORDO
100
AcDbLine
 62
253
  6
CONTINUOUS
 10
-21.7880929139
 20
22.1117572139
 11
-21.7023437503
 21
22.0260080504
  0
LINE
  5
29E
100
AcDbEntity
  8
0
100
AcDbLine
 62
253
  6
CONTINUOUS
 10
2.0000238186
 20
3.9999946968
 11
2.0000243898
 21
3.9912681765
  0
LINE
  5
29F
100
AcDbEntity
  8
0
100
AcDbLine
 62
253
  6
CONTINUOUS
 10
2.0000238183
 20
-3.9999999992
 11
2.0000243895
 21
-3.991273479
  0
LINE
  5
2A0
100
AcDbEntity
  8
RACCORDO
100
AcDbLine
 62
253
  6
CONTINUOUS
 10
22.2016585343
 20
21.5266932996
 11
22.2874076812
 21
21.6124424466
  0
LINE
  5
2A1
100
AcDbEntity
  8
RACCORDO
100
AcDbLine
 62
253
  6
CONTINUOUS
 10
22.2874076812
 20
-21.6124424466
 11
22.2016585342
 21
-21.5266932995
  0
LINE
  5
2A2
100
AcDbEntity
  8
0
100
AcDbLine
 62
7
  6
CONTINUOUS
 10
5.1989018385
 20
0.0911455932
 11
5.1865890196
 21
0.2926799164
  0
LINE
  5
2A3
100
AcDbEntity
  8
0
100
AcDbLine
 62
7
  6
CONTINUOUS
 10
5.1985203084
 20
-0.1032143604
 11
5.1986625429
 21
0.0974029261
  0
LINE
  5
2A4
100
AcDbEntity
  8
0
100
AcDbLine
 62
7
  6
CONTINUOUS
 10
5.1861526093
 20
-0.2973418473
 11
5.1986495893
 21
-0.0978345161
  0
LINE
  5
2A5
100
AcDbEntity
  8
0
100
AcDbLine
 62
7
  6
CONTINUOUS
 10
5.1616562822
 20
-0.4922735405
 11
5.1865485249
 21
-0.2931126483
  0
LINE
  5
2A6
100
AcDbEntity
  8
0
100
AcDbLine
 62
7
  6
CONTINUOUS
 10
5.1251737617
 20
-0.6869726578
 11
5.162376021
 21
-0.4882238748
  0
LINE
  5
2A7
100
AcDbEntity
  8
0
100
AcDbLine
 62
7
  6
CONTINUOUS
 10
5.0771791745
 20
-0.8780545668
 11
5.1263301186
 21
-0.6819381148
  0
LINE
  5
2A8
100
AcDbEntity
  8
0
100
AcDbLine
 62
7
  6
CONTINUOUS
 10
5.0176168618
 20
-1.0649121541
 11
5.0786678547
 21
-0.872802178
  0
LINE
  5
2A9
100
AcDbEntity
  8
0
100
AcDbLine
 62
7
  6
CONTINUOUS
 10
4.9465423926
 20
-1.248152459
 11
5.0196363618
 21
-1.0595551121
  0
LINE
  5
2AA
100
AcDbEntity
  8
0
100
AcDbLine
 62
7
  6
CONTINUOUS
 10
4.864596715
 20
-1.4262121016
 11
4.9493089708
 21
-1.2419510216
  0
LINE
  5
2AB
100
AcDbEntity
  8
0
100
AcDbLine
 62
7
  6
CONTINUOUS
 10
4.7714973124
 20
-1.5993473548
 11
4.8676627468
 21
-1.4200503739
  0
LINE
  5
2AC
100
AcDbEntity
  8
0
100
AcDbLine
 62
7
  6
CONTINUOUS
 10
4.6675265806
 20
-1.7673019177
 11
4.7747651536
 21
-1.5936761151
  0
LINE
  5
2AD
100
AcDbEntity
  8
0
100
AcDbLine
 62
7
  6
CONTINUOUS
 10
4.5541728317
 20
-1.9277435796
 11
4.6711915182
 21
-1.761774874
  0
LINE
  5
2AE
100
AcDbEntity
  8
0
100
AcDbLine
 62
7
  6
CONTINUOUS
 10
4.4316467548
 20
-2.080235348
 11
4.5576748316
 21
-1.9230874086
  0
LINE
  5
2AF
100
AcDbEntity
  8
0
100
AcDbLine
 62
7
  6
CONTINUOUS
 10
4.2997375383
 20
-2.2252142547
 11
4.4348814817
 21
-2.07654202
  0
LINE
  5
2B0
100
AcDbEntity
  8
0
100
AcDbLine
 62
7
  6
CONTINUOUS
 10
4.1593012497
 20
-2.3616591546
 11
4.3030247989
 21
-2.2218791679
  0
LINE
  5
2B1
100
AcDbEntity
  8
0
100
AcDbLine
 62
7
  6
CONTINUOUS
 10
4.0098799442
 20
-2.4898404101
 11
4.1621553744
 21
-2.3590497639
  0
LINE
  5
2B2
100
AcDbEntity
  8
0
100
AcDbLine
 62
7
  6
CONTINUOUS
 10
3.8519314626
 20
-2.6094877363
 11
4.0124428071
 21
-2.4878566322
  0
LINE
  5
2B3
100
AcDbEntity
  8
0
100
AcDbLine
 62
7
  6
CONTINUOUS
 10
3.6876855705
 20
-2.7187690407
 11
3.8547196731
 21
-2.6075624031
  0
LINE
  5
2B4
100
AcDbEntity
  8
0
100
AcDbLine
 62
7
  6
CONTINUOUS
 10
3.5173436267
 20
-2.8173622977
 11
3.6900349717
 21
-2.7173075826
  0
LINE
  5
2B5
100
AcDbEntity
  8
0
100
AcDbLine
 62
7
  6
CONTINUOUS
 10
3.3407042222
 20
-2.9055896442
 11
3.5193166079
 21
-2.8163943539
  0
LINE
  5
2B6
100
AcDbEntity
  8
0
100
AcDbLine
 62
7
  6
CONTINUOUS
 10
3.159393
 20
-2.9825852468
 11
3.3429872832
 21
-2.9046088739
  0
LINE
  5
2B7
100
AcDbEntity
  8
0
100
AcDbLine
 62
7
  6
CONTINUOUS
 10
2.9730885764
 20
-3.0483183648
 11
3.1613489698
 21
-2.9818249448
  0
LINE
  5
2B8
100
AcDbEntity
  8
0
100
AcDbLine
 62
7
  6
CONTINUOUS
 10
2.7821123353
 20
-3.102819841
 11
2.9748005905
 21
-3.0478571132
  0
LINE
  5
2B9
100
AcDbEntity
  8
0
100
AcDbLine
 62
7
  6
CONTINUOUS
 10
-2.5892982548
 20
3.145270437
 11
-2.7842315483
 21
3.1023684298
  0
LWPOLYLINE
  5
2BA
100
AcDbEntity
  8
0
100
AcDbPolyline
 62
7
  6
CONTINUOUS
 90
3
 70
0
 10
-2.1978210964
 20
3.1938815861
 10
-2.3949365701
 20
3.1755449208
 10
-2.5906378142
 20
3.1450189231
  0
LINE
  5
2BB
100
AcDbEntity
  8
0
100
AcDbLine
 62
7
  6
CONTINUOUS
 10
-1.9999775462
 20
3.2000015593
 11
-2.1985298305
 21
3.1937620691
  0
LWPOLYLINE
  5
2BC
100
AcDbEntity
  8
0
100
AcDbPolyline
 62
7
  6
CONTINUOUS
 90
55
 70
0
 10
-2.0000243898
 20
3.9912681758
 10
-2.2330632686
 20
3.9843645665
 10
-2.4638297554
 20
3.9641981587
 10
-2.6923237948
 20
3.930768923
 10
-2.9193094184
 20
3.883881511
 10
-3.1440224952
 20
3.8237311707
 10
-3.3641707474
 20
3.7509037496
 10
-3.5797074816
 20
3.6652668414
 10
-3.7906793638
 20
3.5669526899
 10
-3.9949341969
 20
3.4569441127
 10
-4.1924040691
 20
3.3351178336
 10
-4.383156948
 20
3.2015969478
 10
-4.5652444983
 20
3.0577338456
 10
-4.7385760929
 20
2.9034207111
 10
-4.9032424913
 20
2.7387652089
 10
-5.057567473
 20
2.5654429837
 10
-5.2014429656
 20
2.3833641484
 10
-5.3349772244
 20
2.1926185084
 10
-5.4568185398
 20
1.9951512935
 10
-5.5668445961
 20
1.7908958244
 10
-5.6651779025
 20
1.579918789
 10
-5.7508339857
 20
1.3643655162
 10
-5.8236814066
 20
1.1441903417
 10
-5.8838517646
 20
0.9194390258
 10
-5.9307551254
 20
0.6923940733
 10
-5.9642583129
 20
0.4630527184
 10
-5.9844945934
 20
0.2314178853
 10
-5.9912736631
 20
-0.0002193644
 10
-5.984465828
 20
-0.2318703675
 10
-5.9642007821
 20
-0.4635236064
 10
-5.9306772661
 20
-0.6928537379
 10
-5.8837652542
 20
-0.9198342045
 10
-5.8235946817
 20
-1.1444914056
 10
-5.7507541982
 20
-1.3645794546
 10
-5.6651153004
 20
-1.5800621471
 10
-5.5668063316
 20
-1.7909755916
 10
-5.4568011915
 20
-1.9951824099
 10
-5.3349744345
 20
-2.1926210902
 10
-5.2014513128
 20
-2.3833531355
 10
-5.0575817716
 20
-2.5654257377
 10
-4.9032549717
 20
-2.7387495233
 10
-4.7385815692
 20
-2.9034139474
 10
-4.5652437716
 20
-3.0577344913
 10
-4.3831524756
 20
-3.2016003693
 10
-4.1923966521
 20
-3.3351225184
 10
-3.9949256543
 20
-3.4569490376
 10
-3.7906724266
 20
-3.5669565331
 10
-3.579703969
 20
-3.6652685797
 10
-3.3641707608
 20
-3.7509037455
 10
-3.1440262996
 20
-3.8237302459
 10
-2.9193171155
 20
-3.8838800278
 10
-2.6923332784
 20
-3.9307672524
 10
-2.4638381838
 20
-3.9641966742
 10
-2.2330685358
 20
-3.9843636388
 10
-2.0000243898
 20
-3.9912681758
  0
LINE
  5
2BD
100
AcDbEntity
  8
0
100
AcDbLine
 62
7
  6
CONTINUOUS
 10
1.999977572
 20
3.2000015593
 11
-1.9999775462
 21
3.2000015593
  0
LINE
  5
2BE
100
AcDbEntity
  8
0
100
AcDbLine
 62
7
  6
CONTINUOUS
 10
2.0000243895
 20
3.9912734797
 11
-2.0000243898
 21
3.9912681758
  0
LINE
  5
2BF
100
AcDbEntity
  8
0
100
AcDbLine
 62
7
  6
CONTINUOUS
 10
-2.0000238186
 20
3.9999946961
 11
2.0000238183
 21
3.9999999999
  0
LWPOLYLINE
  5
2C0
100
AcDbEntity
  8
0
100
AcDbPolyline
 62
7
  6
CONTINUOUS
 90
55
 70
0
 10
2.0000238183
 20
3.9999999999
 10
2.2335812129
 20
3.9930777421
 10
2.4648585895
 20
3.9728643598
 10
2.6938559271
 20
3.939359855
 10
2.9213383064
 20
3.892368618
 10
3.1465406074
 20
3.8320862312
 10
3.3671675217
 20
3.7590994763
 10
3.5831722723
 20
3.6732760121
 10
3.7946016347
 20
3.5747481133
 10
3.9993006566
 20
3.4644994866
 10
4.1972021731
 20
3.3424063451
 10
4.3883733883
 20
3.2085923907
 10
4.57086093
 20
3.0644125747
 10
4.7445753823
 20
2.9097561035
 10
4.9096062363
 20
2.7447336925
 10
5.064268504
 20
2.5710325757
 10
5.2084515431
 20
2.388563016
 10
5.3422660935
 20
2.1974147004
 10
5.4643592558
 20
1.9995440225
 10
5.5746056615
 20
1.794889122
 10
5.6731307794
 20
1.5835118485
 10
5.7589579723
 20
1.3675541852
 10
5.8319585161
 20
1.1469788996
 10
5.8922612164
 20
0.921823252
 10
5.9392757283
 20
0.6943409851
 10
5.9728715292
 20
0.464507234
 10
5.9931791873
 20
0.2323469191
 10
5.999999984
 20
0.0001884712
 10
5.9932038363
 20
-0.2319584046
 10
5.9729208272
 20
-0.4641033479
 10
5.9393424748
 20
-0.6939469435
 10
5.8923354556
 20
-0.9214843223
 10
5.8320330474
 20
-1.1467202978
 10
5.7590266614
 20
-1.3673699911
 10
5.67318483
 20
-1.5833880463
 10
5.574638939
 20
-1.7948197915
 10
5.4643746768
 20
-1.9995163929
 10
5.3422690825
 20
-2.1974115652
 10
5.2084450169
 20
-2.3885716046
 10
5.0642569069
 20
-2.5710465745
 10
4.9095962338
 20
-2.7447464033
 10
4.744571419
 20
-2.9097612128
 10
4.5708623156
 20
-3.0644113809
 10
4.3883780109
 20
-3.2085888696
 10
4.1972093426
 20
-3.3424017948
 10
3.999308813
 20
-3.4644947838
 10
3.7946084475
 20
-3.5747443875
 10
3.5831761816
 20
-3.6732741398
 10
3.3671684103
 20
-3.7590991523
 10
3.1465382166
 20
-3.8320869605
 10
2.9213325189
 20
-3.8923700955
 10
2.6938484935
 20
-3.9393611645
 10
2.4648518832
 20
-3.9728643811
 10
2.2335769846
 20
-3.993075559
 10
2.0000238186
 20
-3.9999946961
  0
LINE
  5
2C1
100
AcDbEntity
  8
0
100
AcDbLine
 62
7
  6
CONTINUOUS
 10
2.1978266432
 20
3.1938814291
 11
1.9999943881
 21
3.2
  0
LINE
  5
2C2
100
AcDbEntity
  8
0
100
AcDbLine
 62
7
  6
CONTINUOUS
 10
2.3942821548
 20
3.1756512425
 11
2.1980925179
 21
3.1938479782
  0
LINE
  5
2C3
100
AcDbEntity
  8
0
100
AcDbLine
 62
7
  6
CONTINUOUS
 10
2.5906492295
 20
3.1450167683
 11
2.3949455375
 21
3.1755441328
  0
LINE
  5
2C4
100
AcDbEntity
  8
0
100
AcDbLine
 62
7
  6
CONTINUOUS
 10
2.7842434089
 20
3.1023647322
 11
2.5885464498
 21
3.1454113326
  0
LINE
  5
2C5
100
AcDbEntity
  8
0
100
AcDbLine
 62
7
  6
CONTINUOUS
 10
2.974819081
 20
3.0478504746
 11
2.781776223
 21
3.1028879731
  0
LINE
  5
2C6
100
AcDbEntity
  8
0
100
AcDbLine
 62
7
  6
CONTINUOUS
 10
3.161359529
 20
2.9818208624
 11
2.9730805954
 21
3.0483213737
  0
LWPOLYLINE
  5
2C7
100
AcDbEntity
  8
0
100
AcDbPolyline
 62
7
  6
CONTINUOUS
 90
4
 70
0
 10
3.6896458947
 20
2.7175497742
 10
3.5187838477
 20
2.8165739778
 10
3.3415844083
 20
2.9051644277
 10
3.1597870025
 20
2.982432231
  0
LWPOLYLINE
  5
2C8
100
AcDbEntity
  8
0
100
AcDbPolyline
 62
7
  6
CONTINUOUS
 90
3
 70
0
 10
4.0124243219
 20
2.4878715877
 10
3.854699828
 20
2.6075761226
 10
3.6900178413
 20
2.7173182156
  0
LINE
  5
2C9
100
AcDbEntity
  8
0
100
AcDbLine
 62
7
  6
CONTINUOUS
 10
4.1624685142
 20
2.3587630427
 11
4.0126967264
 21
2.4875667709
  0
LWPOLYLINE
  5
2CA
100
AcDbEntity
  8
0
100
AcDbPolyline
 62
7
  6
CONTINUOUS
 90
3
 70
0
 10
4.4349059662
 20
2.0765103063
 10
4.303032849
 20
2.2218688225
 10
4.1621470041
 20
2.3590573821
  0
LINE
  5
2CB
100
AcDbEntity
  8
0
100
AcDbLine
 62
7
  6
CONTINUOUS
 10
4.5580270121
 20
1.9226183423
 11
4.4353482506
 21
2.0758906046
  0
LWPOLYLINE
  5
2CC
100
AcDbEntity
  8
0
100
AcDbPolyline
 62
7
  6
CONTINUOUS
 90
4
 70
0
 10
4.8677391515
 20
1.4198963462
 10
4.7748316374
 20
1.5935688313
 10
4.6712437886
 20
1.7617023419
 10
4.5577130233
 20
1.9230366822
  0
LINE
  5
2CD
100
AcDbEntity
  8
0
100
AcDbLine
 62
7
  6
CONTINUOUS
 10
4.9501067778
 20
1.2396855085
 11
4.8683679477
 21
1.4186282802
  0
LINE
  5
2CE
100
AcDbEntity
  8
0
100
AcDbLine
 62
7
  6
CONTINUOUS
 10
5.0208837099
 20
1.0555485622
 11
4.949392446
 21
1.2417403645
  0
LINE
  5
2CF
100
AcDbEntity
  8
0
100
AcDbLine
 62
7
  6
CONTINUOUS
 10
5.0800512487
 20
0.8678905465
 11
5.0197260188
 21
1.0592844826
  0
LINE
  5
2D0
100
AcDbEntity
  8
0
100
AcDbLine
 62
7
  6
CONTINUOUS
 10
5.1275348321
 20
0.6761095788
 11
5.0787598027
 21
0.8724764134
  0
LINE
  5
2D1
100
AcDbEntity
  8
0
100
AcDbLine
 62
7
  6
CONTINUOUS
 10
5.1634091116
 20
0.4808076179
 11
5.1264159887
 21
0.6815620988
  0
LINE
  5
2D2
100
AcDbEntity
  8
0
100
AcDbLine
 62
7
  6
CONTINUOUS
 10
5.1872503909
 20
0.2854635553
 11
5.1624440567
 21
0.4878070606
  0
LWPOLYLINE
  5
2D3
100
AcDbEntity
  8
RACCORDO
100
AcDbPolyline
 62
253
  6
CONTINUOUS
 90
16
 70
0
 10
22.2016585342
 20
-21.5266932995
 10
22.1990724363
 20
-21.5223427488
 10
22.1965299567
 20
-21.5146485349
 10
22.1940310956
 20
-21.5036106578
 10
22.1915627568
 20
-21.4891402001
 10
22.1891380365
 20
-21.4713260792
 10
22.1867962228
 20
-21.4504350478
 10
22.1845396852
 20
-21.4264223514
 10
22.1823660543
 20
-21.3993327446
 10
22.1803075098
 20
-21.3695672443
 10
22.1783657576
 20
-21.3370840993
 10
22.1765390919
 20
-21.3019250607
 10
22.1748545738
 20
-21.2646163989
 10
22.1733144693
 20
-21.2251282759
 10
22.1719165126
 20
-21.1834905297
 10
22.1706809677
 20
-21.1403189438
  0
LWPOLYLINE
  5
2D4
100
AcDbEntity
  8
0
100
AcDbPolyline
 62
7
  6
CONTINUOUS
 90
3
 70
0
 43
0.3500000006
 10
34.0808859558
 20
1.0357133102
 10
34.2951704407
 20
0.9642866592
 10
34.5808861084
 20
0.8214288254
  0
LWPOLYLINE
  5
2D5
100
AcDbEntity
  8
0
100
AcDbPolyline
 62
7
  6
CONTINUOUS
 90
10
 70
0
 43
0.3500000006
 10
33.866599205
 20
0.9642866592
 10
34.0094570389
 20
1.0357133102
 10
34.0808859558
 20
1.0357133102
 10
34.2237437897
 20
0.8928577423
 10
34.2237437897
 20
0.8214288254
 10
34.1523148727
 20
0.7499999084
 10
34.0808859558
 20
0.7499999084
 10
33.9380281219
 20
0.8214288254
 10
33.866599205
 20
0.8928577423
 10
33.866599205
 20
0.9642866592
  0
LWPOLYLINE
  5
2D6
100
AcDbEntity
  8
0
100
AcDbPolyline
 62
7
  6
CONTINUOUS
 90
10
 70
0
 43
0.3500000006
 10
0.9642857051
 20
36.6443958893
 10
1.035714268
 20
36.5015380554
 10
1.035714268
 20
36.4301068726
 10
0.8928571422
 20
36.2872490387
 10
0.8214285793
 20
36.2872490387
 10
0.7500000165
 20
36.3586802216
 10
0.7500000165
 20
36.4301068726
 10
0.8214285793
 20
36.5729647064
 10
0.8928571422
 20
36.6443958893
 10
0.9642857051
 20
36.6443958893
  0
LWPOLYLINE
  5
2D7
100
AcDbEntity
  8
RACCORDO
100
AcDbPolyline
 62
253
  6
CONTINUOUS
 90
7
 70
0
 10
21.7023437668
 20
-22.0260080669
 10
21.7009741091
 20
-22.0186195595
 10
21.6996622432
 20
-22.0053370215
 10
21.6983935358
 20
-21.9862291714
 10
21.6971338181
 20
-21.9613944904
 10
21.695888578
 20
-21.9309581132
 10
21.6947030307
 20
-21.8950690928
  0
LINE
  5
2D8
100
AcDbEntity
  8
RACCORDO
100
AcDbLine
 62
253
  6
CONTINUOUS
 10
-1.3810572367
 20
20.87020128
 11
21.6850754659
 21
20.8781072719
  0
LINE
  5
2D9
100
AcDbEntity
  8
RACCORDO
100
AcDbLine
 62
253
  6
CONTINUOUS
 10
-21.6850754719
 20
20.8781072456
 11
-1.3810572367
 21
20.87020128
  0
LINE
  5
2DA
100
AcDbEntity
  8
RACCORDO
100
AcDbLine
 62
253
  6
CONTINUOUS
 10
21.6947030307
 20
-21.8950690928
 11
21.6924604282
 21
-21.8076670482
  0
LINE
  5
2DB
100
AcDbEntity
  8
RACCORDO
100
AcDbLine
 62
253
  6
CONTINUOUS
 10
22.1706809677
 20
-21.1403189438
 11
22.1687017663
 21
-21.0492863749
  0
LINE
  5
2DC
100
AcDbEntity
  8
RACCORDO
100
AcDbLine
 62
253
  6
CONTINUOUS
 10
21.6924604282
 20
-21.8076670482
 11
21.6904666507
 21
-21.7009353375
  0
LINE
  5
2DD
100
AcDbEntity
  8
RACCORDO
100
AcDbLine
 62
253
  6
CONTINUOUS
 10
22.1687017663
 20
-21.0492863749
 11
22.1674164944
 21
-20.9546104478
  0
LINE
  5
2DE
100
AcDbEntity
  8
RACCORDO
100
AcDbLine
 62
253
  6
CONTINUOUS
 10
21.6904666507
 20
-21.7009353375
 11
21.6879806651
 21
-21.5093261501
  0
LINE
  5
2DF
100
AcDbEntity
  8
RACCORDO
100
AcDbLine
 62
253
  6
CONTINUOUS
 10
21.6879806651
 20
-21.5093261501
 11
21.6857987245
 21
-21.2086743047
  0
LINE
  5
2E0
100
AcDbEntity
  8
RACCORDO
100
AcDbLine
 62
253
  6
CONTINUOUS
 10
22.1674164944
 20
-20.9546104478
 11
22.1668384366
 21
-20.8570387625
  0
LWPOLYLINE
  5
2E1
100
AcDbEntity
  8
RACCORDO
100
AcDbPolyline
 62
253
  6
CONTINUOUS
 90
9
 70
0
 10
22.1668384366
 20
-20.8570387625
 10
22.1577103594
 20
-16.223696831
 10
22.1508643014
 20
-11.589577244
 10
22.1463002624
 20
-6.9546800014
 10
22.1440182425
 20
-2.3184867531
 10
22.1440182417
 20
2.3184841508
 10
22.1463002607
 20
6.9546776594
 10
22.1508642996
 20
11.5895754224
 10
22.1577103582
 20
16.2236957902
  0
LWPOLYLINE
  5
2E2
100
AcDbEntity
  8
RACCORDO
100
AcDbPolyline
 62
253
  6
CONTINUOUS
 90
8
 70
0
 10
21.672437658
 20
-11.6018187984
 10
21.668826854
 20
-6.9616951414
 10
21.6670214512
 20
-2.3206884516
 10
21.6670214502
 20
2.3206845067
 10
21.6688268518
 20
6.9616915912
 10
21.6724376559
 20
11.6018160374
 10
21.6778538611
 20
16.240757025
 10
21.6852567199
 20
21.045553356
  0
LINE
  5
2E3
100
AcDbEntity
  8
RACCORDO
100
AcDbLine
 62
253
  6
CONTINUOUS
 10
21.6857987245
 20
-21.2086743047
 11
21.672437658
 21
-11.6018187984
  0
LINE
  5
2E4
100
AcDbEntity
  8
RACCORDO
100
AcDbLine
 62
7
  6
CONTINUOUS
 10
22.2874076812
 20
-21.6124424466
 11
22.2874076812
 21
21.6124424466
  0
LINE
  5
2E5
100
AcDbEntity
  8
RACCORDO
100
AcDbLine
 62
253
  6
CONTINUOUS
 10
22.1577103582
 20
16.2236957902
 11
22.1670396819
 21
20.9062254779
  0
LINE
  5
2E6
100
AcDbEntity
  8
RACCORDO
100
AcDbLine
 62
253
  6
CONTINUOUS
 10
21.6852567199
 20
21.045553356
 11
21.6867132888
 21
21.3642643446
  0
LINE
  5
2E7
100
AcDbEntity
  8
RACCORDO
100
AcDbLine
 62
253
  6
CONTINUOUS
 10
21.6867132888
 20
21.3642643446
 11
21.6887280295
 21
21.5769935773
  0
LINE
  5
2E8
100
AcDbEntity
  8
RACCORDO
100
AcDbLine
 62
253
  6
CONTINUOUS
 10
22.1670396819
 20
20.9062254779
 11
22.1679693266
 21
21.002236521
  0
LINE
  5
2E9
100
AcDbEntity
  8
RACCORDO
100
AcDbLine
 62
253
  6
CONTINUOUS
 10
21.6887280295
 20
21.5769935773
 11
21.6904669225
 21
21.7009339372
  0
LWPOLYLINE
  5
2EA
100
AcDbEntity
  8
RACCORDO
100
AcDbPolyline
 62
253
  6
CONTINUOUS
 90
18
 70
0
 10
22.1679693266
 20
21.002236521
 10
22.1696106917
 20
21.0955954223
 10
22.1706816792
 20
21.1403471176
 10
22.1719174687
 20
21.1835216249
 10
22.173315704
 20
21.225162108
 10
22.1748560452
 20
21.2646514969
 10
22.1765407453
 20
21.3019593404
 10
22.1783675511
 20
21.3371160895
 10
22.1803093627
 20
21.3695960279
 10
22.18236785
 20
21.3993570714
 10
22.1845413431
 20
21.4264413041
 10
22.186797732
 20
21.4504492612
 10
22.189139429
 20
21.4713367873
 10
22.1915640218
 20
21.4891480379
 10
22.1940321635
 20
21.5036160142
 10
22.1965307383
 20
21.5146517169
 10
22.1990728619
 20
21.5223441453
 10
22.2016585343
 20
21.5266932996
  0
LINE
  5
2EB
100
AcDbEntity
  8
RACCORDO
100
AcDbLine
 62
253
  6
CONTINUOUS
 10
21.6904669225
 20
21.7009339372
 11
21.6924606565
 21
21.8076660899
  0
LWPOLYLINE
  5
2EC
100
AcDbEntity
  8
RACCORDO
100
AcDbPolyline
 62
253
  6
CONTINUOUS
 90
8
 70
0
 10
21.6924606565
 20
21.8076660899
 10
21.6947031442
 20
21.8950684834
 10
21.6958886737
 20
21.9309573932
 10
21.697133911
 20
21.9613936532
 10
21.6983936206
 20
21.9862284412
 10
21.6996623067
 20
22.0053365717
 10
21.7009741444
 20
22.018619387
 10
21.7023437669
 20
22.026008067
  0
LWPOLYLINE
  5
2ED
100
AcDbEntity
  8
RACCORDO
100
AcDbPolyline
 62
253
  6
CONTINUOUS
 90
16
 70
0
 10
-21.7023437493
 20
22.0260080494
 10
-21.7544466067
 20
22.0231394834
 10
-21.8059805126
 20
22.0148505465
 10
-21.8563828057
 20
22.0012317631
 10
-21.9051032
 20
21.9824318425
 10
-21.9516097431
 20
21.9586560732
 10
-21.995394632
 20
21.9301640973
 10
-22.0359798275
 20
21.8972670372
 10
-22.0729222492
 20
21.8603240931
 10
-22.105818573
 20
21.8197386556
 10
-22.1343096656
 20
21.775953877
 10
-22.1580845086
 20
21.7294478142
 10
-22.1768835766
 20
21.6807282216
 10
-22.1905016635
 20
21.6303270217
 10
-22.1987901271
 20
21.5787945001
 10
-22.2016585167
 20
21.526693282
  0
LWPOLYLINE
  5
2EE
100
AcDbEntity
  8
RACCORDO
100
AcDbPolyline
 62
253
  6
CONTINUOUS
 90
14
 70
0
 10
-21.7829205087
 20
20.8773336846
 10
-21.8303890463
 20
20.8766470342
 10
-21.8762661351
 20
20.8757687802
 10
-21.9201034844
 20
20.8747075044
 10
-21.9614727348
 20
20.8734735772
 10
-21.9999696443
 20
20.872079056
 10
-22.035218038
 20
20.8705375674
 10
-22.0668734842
 20
20.8688641742
 10
-22.0946266597
 20
20.8670752281
 10
-22.1182063728
 20
20.8651882097
 10
-22.1373822129
 20
20.8632215584
 10
-22.1519668022
 20
20.8611944912
 10
-22.1618176263
 20
20.8591268158
 10
-22.1668384275
 20
20.8570387366
  0
LINE
  5
2EF
100
AcDbEntity
  8
RACCORDO
100
AcDbLine
 62
253
  6
CONTINUOUS
 10
-21.6850754719
 20
20.8781072737
 11
-21.7829205087
 21
20.8773336846
  0
LINE
  5
2F0
100
AcDbEntity
  8
RACCORDO
100
AcDbLine
 62
253
  6
CONTINUOUS
 10
13.2987933015
 20
22.0134597024
 11
21.7023437669
 21
22.026008067
  0
LINE
  5
2F1
100
AcDbEntity
  8
RACCORDO
100
AcDbLine
 62
253
  6
CONTINUOUS
 10
3.2774298403
 20
22.0063482953
 11
13.2987933015
 21
22.0134597024
  0
LINE
  5
2F2
100
AcDbEntity
  8
RACCORDO
100
AcDbLine
 62
7
  6
CONTINUOUS
 10
21.7880929139
 20
22.1117572139
 11
-21.7880929139
 21
22.1117572139
  0
LINE
  5
2F3
100
AcDbEntity
  8
RACCORDO
100
AcDbLine
 62
253
  6
CONTINUOUS
 10
-5.936813047
 20
22.0074117757
 11
3.2774298403
 21
22.0063482953
  0
LINE
  5
2F4
100
AcDbEntity
  8
RACCORDO
100
AcDbLine
 62
253
  6
CONTINUOUS
 10
-14.9346680863
 20
22.0154302178
 11
-5.936813047
 21
22.0074117757
  0
LINE
  5
2F5
100
AcDbEntity
  8
RACCORDO
100
AcDbLine
 62
253
  6
CONTINUOUS
 10
-21.7023437503
 20
22.0260080504
 11
-14.9346680863
 21
22.0154302178
  0
LWPOLYLINE
  5
2F6
100
AcDbEntity
  8
RACCORDO
100
AcDbPolyline
 62
253
  6
CONTINUOUS
 90
15
 70
0
 10
21.6850750335
 20
20.878106804
 10
21.782919195
 20
20.8773332398
 10
21.8303873455
 20
20.8766466098
 10
21.8762640976
 20
20.8757683812
 10
21.920101172
 20
20.8747071352
 10
21.9614702204
 20
20.8734732416
 10
21.99996701
 20
20.8720787571
 10
22.0352153742
 20
20.8705373077
 10
22.0668708879
 20
20.8688639556
 10
22.0946242331
 20
20.8670750517
 10
22.1182042215
 20
20.8651880761
 10
22.1373804439
 20
20.863221467
 10
22.1519655224
 20
20.8611944411
 10
22.1618169406
 20
20.8591268051
 10
22.1668384366
 20
20.8570387627
  0
LWPOLYLINE
  5
2F7
100
AcDbEntity
  8
RACCORDO
100
AcDbPolyline
 62
253
  6
CONTINUOUS
 90
16
 70
0
 10
21.7023437669
 20
22.026008067
 10
21.7544458897
 20
22.0231395804
 10
21.8059791579
 20
22.0148508595
 10
21.8563809279
 20
22.0012324013
 10
21.9051009096
 20
21.9824328929
 10
21.9516071751
 20
21.9586575887
 10
21.9953919658
 20
21.9301660691
 10
22.0359772363
 20
21.8972694064
 10
22.072919874
 20
21.8603267687
 10
22.1058165366
 20
21.8197414981
 10
22.1343080561
 20
21.7759567074
 10
22.1580833602
 20
21.7294504419
 10
22.1768828685
 20
21.6807304602
 10
22.1905013267
 20
21.6303286903
 10
22.1987900476
 20
21.5787954222
 10
22.2016585343
 20
21.5266932996
  0
LWPOLYLINE
  5
2F8
100
AcDbEntity
  8
0
100
AcDbPolyline
 62
7
  6
CONTINUOUS
 90
3
 70
0
 43
0.3500000006
 10
33.7237436371
 20
-0.5357137985
 10
33.7237436371
 20
-2.0357142563
 10
31.366600708
 20
-1.3928574028
  0
LWPOLYLINE
  5
2F9
100
AcDbEntity
  8
0
100
AcDbPolyline
 62
7
  6
CONTINUOUS
 90
3
 70
0
 43
0.3500000006
 10
33.7237436371
 20
-2.8928567276
 10
33.7237436371
 20
-4.3928571854
 10
31.366600708
 20
-3.7500003319
  0
LWPOLYLINE
  5
2FA
100
AcDbEntity
  8
0
100
AcDbPolyline
 62
7
  6
CONTINUOUS
 90
7
 70
0
 43
0.3500000006
 10
34.3665993576
 20
3.5357140732
 10
34.3665993576
 20
2.0357136154
 10
32.2237431793
 20
3.5357140732
 10
31.7951719437
 20
3.5357140732
 10
31.366600708
 20
3.1071428375
 10
31.366600708
 20
2.4642848511
 10
32.0094564285
 20
2.0357136154
  0
LWPOLYLINE
  5
2FB
100
AcDbEntity
  8
0
100
AcDbPolyline
 62
7
  6
CONTINUOUS
 90
3
 70
0
 43
0.3500000006
 10
-0.5357142924
 20
36.7872491913
 10
-2.0357142191
 20
36.7872491913
 10
-1.3928570824
 20
39.1443921204
  0
LWPOLYLINE
  5
2FC
100
AcDbEntity
  8
0
100
AcDbPolyline
 62
7
  6
CONTINUOUS
 90
3
 70
0
 43
0.3500000006
 10
-2.8928572569
 20
36.7872491913
 10
-4.3928571482
 20
36.7872491913
 10
-3.7500000114
 20
39.1443921204
  0
LINE
  5
2FD
100
AcDbEntity
  8
RACCORDO
100
AcDbLine
 62
7
  6
CONTINUOUS
 10
-35.0102082444
 20
-22.1117572139
 11
-37.0297760904
 21
-22.005916148
  0
LWPOLYLINE
  5
2FE
100
AcDbEntity
  8
RACCORDO
100
AcDbPolyline
 62
7
  6
CONTINUOUS
 90
22
 70
0
 10
-36.6463994398
 20
-22.0260080669
 10
-36.7306162167
 20
-22.0186195595
 10
-36.8140889914
 20
-22.0053370215
 10
-36.8964058296
 20
-21.9862291714
 10
-36.977158552
 20
-21.9613944904
 10
-37.0559518042
 20
-21.9309581132
 10
-37.13240421
 20
-21.8950690928
 10
-37.2061429184
 20
-21.8539033275
 10
-37.2768002991
 20
-21.8076670482
 10
-37.3440228293
 20
-21.7565926485
 10
-37.407478712
 20
-21.7009353375
 10
-37.4668579153
 20
-21.6409705346
 10
-37.5218680118
 20
-21.5769952854
 10
-37.5722395062
 20
-21.5093261501
 10
-37.6177252872
 20
-21.4382988123
 10
-37.658100994
 20
-21.3642660452
 10
-37.6931670511
 20
-21.2875999737
 10
-37.7227560172
 20
-21.2086743047
 10
-37.7467277585
 20
-21.1278621816
 10
-37.7649635345
 20
-21.045556092
 10
-37.7773704291
 20
-20.9621673407
 10
-37.7838857851
 20
-20.8781072553
  0
LWPOLYLINE
  5
2FF
100
AcDbEntity
  8
0
100
AcDbPolyline
 62
7
  6
CONTINUOUS
 90
3
 70
0
 43
0.3500000006
 10
-43.4297377167
 20
36.4301068726
 10
-43.5011643677
 20
36.2158223877
 10
-43.6440222015
 20
35.93010672
  0
LINE
  5
300
100
AcDbEntity
  8
RACCORDO
100
AcDbLine
 62
253
  6
CONTINUOUS
 10
-37.7838861913
 20
-20.8781073069
 11
-37.7797202356
 21
-20.8778220549
  0
LINE
  5
301
100
AcDbEntity
  8
RACCORDO
100
AcDbLine
 62
253
  6
CONTINUOUS
 10
-37.7797202356
 20
-20.8778220549
 11
-37.7569631409
 21
-20.8766470669
  0
LINE
  5
302
100
AcDbEntity
  8
RACCORDO
100
AcDbLine
 62
253
  6
CONTINUOUS
 10
-37.7569631409
 20
-20.8766470669
 11
-37.5010148338
 21
-20.865188238
  0
LINE
  5
303
100
AcDbEntity
  8
RACCORDO
100
AcDbLine
 62
253
  6
CONTINUOUS
 10
-37.5010148338
 20
-20.865188238
 11
-37.310806481
 21
-20.8570387625
  0
LWPOLYLINE
  5
304
100
AcDbEntity
  8
RACCORDO
100
AcDbPolyline
 62
253
  6
CONTINUOUS
 90
3
 70
0
 10
-38.1653822507
 20
-20.8701700704
 10
-38.1566697954
 20
-20.8703406751
 10
-37.7838861945
 20
-20.8781072728
  0
LINE
  5
305
100
AcDbEntity
  8
RACCORDO
100
AcDbLine
 62
253
  6
CONTINUOUS
 10
-35.0102082444
 20
-21.6124424466
 11
-36.6463994398
 21
-21.5266932995
  0
LWPOLYLINE
  5
306
100
AcDbEntity
  8
RACCORDO
100
AcDbPolyline
 62
253
  6
CONTINUOUS
 90
22
 70
0
 10
-36.6463994398
 20
-21.5266932995
 10
-36.6957451282
 20
-21.5223427488
 10
-36.7442585276
 20
-21.5146485349
 10
-36.7919396381
 20
-21.5036106578
 10
-36.8390383476
 20
-21.4891402001
 10
-36.8853047681
 20
-21.4713260792
 10
-36.9299892355
 20
-21.4504350478
 10
-36.973046537
 20
-21.4264223514
 10
-37.0145218854
 20
-21.3993327446
 10
-37.0538012556
 20
-21.3695672443
 10
-37.0908520934
 20
-21.3370840993
 10
-37.1257069529
 20
-21.3019250607
 10
-37.1578494716
 20
-21.2646163989
 10
-37.1872364159
 20
-21.2251282759
 10
-37.2139110195
 20
-21.1834905297
 10
-37.2374866208
 20
-21.1403189438
 10
-37.2579188283
 20
-21.0955695792
 10
-37.2752520335
 20
-21.0492863749
 10
-37.2892327501
 20
-21.0022169311
 10
-37.2997764824
 20
-20.9546104478
 10
-37.306967726
 20
-20.9062177249
 10
-37.310806481
 20
-20.8570387625
  0
LWPOLYLINE
  5
307
100
AcDbEntity
  8
RACCORDO
100
AcDbPolyline
 62
253
  6
CONTINUOUS
 90
16
 70
0
 10
-36.6463994381
 20
22.026008067
 10
-36.6489796623
 20
22.0231395804
 10
-36.6512460121
 20
22.0148508595
 10
-36.6531737433
 20
22.0012324013
 10
-36.6547418089
 20
21.9824328929
 10
-36.6559330885
 20
21.9586575887
 10
-36.6567345753
 20
21.9301660691
 10
-36.6571375184
 20
21.8972694064
 10
-36.6571375188
 20
21.8603267687
 10
-36.6567345762
 20
21.8197414981
 10
-36.6559330901
 20
21.7759567074
 10
-36.6547418111
 20
21.7294504419
 10
-36.6531737457
 20
21.6807304602
 10
-36.6512460142
 20
21.6303286903
 10
-36.6489796636
 20
21.5787954222
 10
-36.6463994381
 20
21.5266932996
  0
LWPOLYLINE
  5
308
100
AcDbEntity
  8
RACCORDO
100
AcDbPolyline
 62
253
  6
CONTINUOUS
 90
16
 70
0
 10
-36.6463994398
 20
-22.0260080669
 10
-36.6489796995
 20
-22.023139509
 10
-36.6512460731
 20
-22.014850594
 10
-36.6531738169
 20
-22.0012318436
 10
-36.6547418852
 20
-21.9824319648
 10
-36.655933158
 20
-21.9586562426
 10
-36.6567346292
 20
-21.9301643127
 10
-36.6571375508
 20
-21.8972672924
 10
-36.6571375264
 20
-21.8603243785
 10
-36.6567345592
 20
-21.8197389571
 10
-36.6559330521
 20
-21.7759541764
 10
-36.6547417587
 20
-21.7294480923
 10
-36.6531736882
 20
-21.68072846
 10
-36.6512459628
 20
-21.630327203
 10
-36.6489796315
 20
-21.5787946072
 10
-36.6463994398
 20
-21.5266932995
  0
LINE
  5
309
100
AcDbEntity
  8
0
100
AcDbLine
 62
7
  6
CONTINUOUS
 10
-34.0102082444
 20
-13.2689805518
 11
-35.0102082444
 21
-13.3213883311
  0
LWPOLYLINE
  5
30A
100
AcDbEntity
  8
0
100
AcDbPolyline
 62
7
  6
CONTINUOUS
 90
2
 70
0
 43
0.3500000006
 10
-45.501164978
 20
36.1443957367
 10
-45.501164978
 20
37.6443916626
  0
LINE
  5
30B
100
AcDbEntity
  8
0
100
AcDbLine
 62
7
  6
CONTINUOUS
 10
-34.0102082444
 20
-9.7310194482
 11
-35.0102082444
 21
-9.6786116689
  0
LWPOLYLINE
  5
30C
100
AcDbEntity
  8
0
100
AcDbPolyline
 62
7
  6
CONTINUOUS
 90
4
 70
0
 43
0.3500000006
 10
-42.4297374115
 20
38.5015386658
 10
-42.4297374115
 20
39.1443921204
 10
-40.9297369537
 20
39.1443921204
 10
-41.786879425
 20
36.1443957367
  0
LWPOLYLINE
  5
30D
100
AcDbEntity
  8
0
100
AcDbPolyline
 62
7
  6
CONTINUOUS
 90
6
 70
0
 10
-38.1653823031
 20
20.870169067
 10
-38.3288653457
 20
17.4622448614
 10
-38.4661626982
 20
13.9707283109
 10
-38.5729568584
 20
10.478145763
 10
-38.6492366313
 20
6.9847636133
 10
-38.690225803
 20
4.000000663
  0
LWPOLYLINE
  5
30E
100
AcDbEntity
  8
RACCORDO
100
AcDbPolyline
 62
7
  6
CONTINUOUS
 90
22
 70
0
 10
-37.7838857836
 20
20.8781072544
 10
-37.7773706141
 20
20.962165691
 10
-37.764964039
 20
21.045553356
 10
-37.7467286005
 20
21.1278589212
 10
-37.7227570245
 20
21.208671297
 10
-37.6931679871
 20
21.2875977207
 10
-37.6581018451
 20
21.3642643446
 10
-37.6177262463
 20
21.4382971873
 10
-37.5722406764
 20
21.5093244475
 10
-37.5218693698
 20
21.5769935773
 10
-37.4668593606
 20
21.6409689569
 10
-37.4074801883
 20
21.7009339372
 10
-37.3440242949
 20
21.7565914423
 10
-37.2768016473
 20
21.8076660899
 10
-37.206144096
 20
21.8539026103
 10
-37.1324053923
 20
21.8950684834
 10
-37.0559534843
 20
21.9309573932
 10
-36.9771609631
 20
21.9613936532
 10
-36.8964085343
 20
21.9862284412
 10
-36.81409129
 20
22.0053365717
 10
-36.7306176138
 20
22.018619387
 10
-36.6463994381
 20
22.026008067
  0
LWPOLYLINE
  5
30F
100
AcDbEntity
  8
RACCORDO
100
AcDbPolyline
 62
253
  6
CONTINUOUS
 90
10
 70
0
 10
-37.7838861945
 20
-20.8781072728
 10
-37.9581031213
 20
-16.2407586027
 10
-38.0888254389
 20
-11.6018187984
 10
-38.1760036674
 20
-6.9616951414
 10
-38.2196023126
 20
-2.3206884516
 10
-38.2196023311
 20
2.3206845067
 10
-38.1760037174
 20
6.9616915912
 10
-38.0888255037
 20
11.6018160374
 10
-37.9581031732
 20
16.240757025
 10
-37.7838861945
 20
20.8781072719
  0
LWPOLYLINE
  5
310
100
AcDbEntity
  8
RACCORDO
100
AcDbPolyline
 62
253
  6
CONTINUOUS
 90
10
 70
0
 10
-37.310806481
 20
-20.8570387625
 10
-37.4849805701
 20
-16.223696831
 10
-37.6156111398
 20
-11.589577244
 10
-37.7026981901
 20
-6.9546800014
 10
-37.7462417248
 20
-2.3184867531
 10
-37.74624174
 20
2.3184841508
 10
-37.7026982243
 20
6.9546776594
 10
-37.6156111739
 20
11.5895754224
 10
-37.4849805925
 20
16.2236957902
 10
-37.3108064802
 20
20.8570387627
  0
LWPOLYLINE
  5
311
100
AcDbEntity
  8
0
100
AcDbPolyline
 62
7
  6
CONTINUOUS
 90
6
 70
0
 10
-38.690225803
 20
-4.000000663
 10
-38.6491201547
 20
-6.9914294026
 10
-38.5727821547
 20
-10.4848101542
 10
-38.4659297926
 20
-13.9773907456
 10
-38.3285742647
 20
-17.4689047809
 10
-38.165382303
 20
-20.8701690677
  0
LINE
  5
312
100
AcDbEntity
  8
0
100
AcDbLine
 62
7
  6
CONTINUOUS
 10
-38.6825361072
 20
3.892368618
 11
-38.6809298965
 21
3.7590994763
  0
LINE
  5
313
100
AcDbEntity
  8
0
100
AcDbLine
 62
7
  6
CONTINUOUS
 10
-38.6809298965
 20
3.7590994763
 11
-38.6775612255
 21
3.2085923907
  0
LINE
  5
314
100
AcDbEntity
  8
0
100
AcDbLine
 62
7
  6
CONTINUOUS
 10
-38.6775612255
 20
3.2085923907
 11
-38.6738798756
 21
1.5835118485
  0
LINE
  5
315
100
AcDbEntity
  8
0
100
AcDbLine
 62
7
  6
CONTINUOUS
 10
-38.6738798756
 20
1.5835118485
 11
-38.6731856942
 21
-0.6939469435
  0
LINE
  5
316
100
AcDbEntity
  8
0
100
AcDbLine
 62
7
  6
CONTINUOUS
 10
-38.6731856942
 20
-0.6939469435
 11
-38.6755515953
 21
-2.5710465745
  0
LINE
  5
317
100
AcDbEntity
  8
0
100
AcDbLine
 62
7
  6
CONTINUOUS
 10
-38.6755515953
 20
-2.5710465745
 11
-38.6794692756
 21
-3.5747443875
  0
LWPOLYLINE
  5
318
100
AcDbEntity
  8
0
100
AcDbPolyline
 62
7
  6
CONTINUOUS
 90
7
 70
0
 10
-38.6794692756
 20
-3.5747443875
 10
-38.6817145498
 20
-3.8320869605
 10
-38.6825361276
 20
-3.8923700955
 10
-38.6833873362
 20
-3.9393611645
 10
-38.684267974
 20
-3.9728643811
 10
-38.685181075
 20
-3.993075559
 10
-38.6861256074
 20
-3.9999946961
  0
LWPOLYLINE
  5
319
100
AcDbEntity
  8
RACCORDO
100
AcDbPolyline
 62
253
  6
CONTINUOUS
 90
22
 70
0
 10
-37.3108064802
 20
20.8570387627
 10
-37.3069664922
 20
20.9062254779
 10
-37.2997736037
 20
20.9546247307
 10
-37.2892278146
 20
21.002236521
 10
-37.2752447091
 20
21.0493097029
 10
-37.257908703
 20
21.0955954223
 10
-37.2374730439
 20
21.1403471176
 10
-37.2138927765
 20
21.1835216249
 10
-37.1872128562
 20
21.225162108
 10
-37.1578213969
 20
21.2646514969
 10
-37.1256754041
 20
21.3019593404
 10
-37.0908178724
 20
21.3371160895
 10
-37.0537659002
 20
21.3695960279
 10
-37.0144876221
 20
21.3993570714
 10
-36.9730149034
 20
21.4264413041
 10
-36.9299604386
 20
21.4504492612
 10
-36.8852781974
 20
21.4713367873
 10
-36.8390142101
 20
21.4891480379
 10
-36.791919262
 20
21.5036160142
 10
-36.7442436149
 20
21.5146517169
 10
-36.6957370069
 20
21.5223441453
 10
-36.6463994381
 20
21.5266932996
  0
LWPOLYLINE
  5
31A
100
AcDbEntity
  8
0
100
AcDbPolyline
 62
7
  6
CONTINUOUS
 90
5
 70
0
 10
-38.6861255544
 20
3.9999999999
 10
-38.6851810339
 20
3.9930777421
 10
-38.6842679403
 20
3.9728643598
 10
-38.683387308
 20
3.939359855
 10
-38.6825361072
 20
3.892368618
  0
LINE
  5
31B
100
AcDbEntity
  8
RACCORDO
100
AcDbLine
 62
7
  6
CONTINUOUS
 10
-35.0102082444
 20
-22.1117572139
 11
-35.0102082444
 21
22.1117572139
  0
LINE
  5
31C
100
AcDbEntity
  8
0
100
AcDbLine
 62
253
  6
CONTINUOUS
 10
-34.389273862
 20
-13.288846539
 11
-34.389273862
 21
-9.711153461
  0
LINE
  5
31D
100
AcDbEntity
  8
0
100
AcDbLine
 62
253
  6
CONTINUOUS
 10
-34.389273862
 20
9.711153461
 11
-34.389273862
 21
13.288846539
  0
LINE
  5
31E
100
AcDbEntity
  8
0
100
AcDbLine
 62
7
  6
CONTINUOUS
 10
-34.0102082444
 20
-13.2689805518
 11
-34.0102082444
 21
-9.7310194482
  0
LINE
  5
31F
100
AcDbEntity
  8
0
100
AcDbLine
 62
7
  6
CONTINUOUS
 10
-34.0102082444
 20
9.7310194482
 11
-34.0102082444
 21
13.2689805518
  0
LWPOLYLINE
  5
320
100
AcDbEntity
  8
0
100
AcDbPolyline
 62
7
  6
CONTINUOUS
 90
10
 70
0
 43
0.3500000006
 10
-43.5011643677
 20
36.6443958893
 10
-43.4297377167
 20
36.5015380554
 10
-43.4297377167
 20
36.4301068726
 10
-43.5725910187
 20
36.2872490387
 10
-43.6440222015
 20
36.2872490387
 10
-43.7154488525
 20
36.3586802216
 10
-43.7154488525
 20
36.4301068726
 10
-43.6440222015
 20
36.5729647064
 10
-43.5725910187
 20
36.6443958893
 10
-43.5011643677
 20
36.6443958893
  0
LINE
  5
321
100
AcDbEntity
  8
0
100
AcDbLine
 62
7
  6
CONTINUOUS
 10
-34.0102082444
 20
9.7310194482
 11
-35.0102082444
 21
9.6786116689
  0
LINE
  5
322
100
AcDbEntity
  8
0
100
AcDbLine
 62
7
  6
CONTINUOUS
 10
-34.0102082444
 20
13.2689805518
 11
-35.0102082444
 21
13.3213883311
  0
LINE
  5
323
100
AcDbEntity
  8
RACCORDO
100
AcDbLine
 62
253
  6
CONTINUOUS
 10
-37.7385841159
 20
20.8757683812
 11
-37.3108064802
 21
20.8570387627
  0
LWPOLYLINE
  5
324
100
AcDbEntity
  8
RACCORDO
100
AcDbPolyline
 62
253
  6
CONTINUOUS
 90
4
 70
0
 10
-37.7838743213
 20
20.878106804
 10
-37.7797085837
 20
20.8778215617
 10
-37.7707052519
 20
20.8773332398
 10
-37.7385841159
 20
20.8757683812
  0
LINE
  5
325
100
AcDbEntity
  8
RACCORDO
100
AcDbLine
 62
253
  6
CONTINUOUS
 10
-36.6463994381
 20
21.5266932996
 11
-35.0102082444
 21
21.6124424466
  0
LINE
  5
326
100
AcDbEntity
  8
RACCORDO
100
AcDbLine
 62
7
  6
CONTINUOUS
 10
-37.0297760561
 20
22.0059161498
 11
-35.0102082444
 21
22.1117572139
  0
LWPOLYLINE
  5
327
100
AcDbEntity
  8
RACCORDO
100
AcDbPolyline
 62
253
  6
CONTINUOUS
 90
3
 70
0
 10
-38.1653822506
 20
20.8701700707
 10
-38.1646742247
 20
20.8701816244
 10
-37.7838861945
 20
20.8781072719
  0
LWPOLYLINE
  5
328
100
AcDbEntity
  8
0
100
AcDbPolyline
 62
7
  6
CONTINUOUS
 90
3
 70
0
 43
0.3500000006
 10
-45.0011648254
 20
36.7872491913
 10
-46.5011652832
 20
36.7872491913
 10
-45.8583072968
 20
39.1443921204
  0
ARC
  5
329
100
AcDbEntity
  8
RACCORDO
100
AcDbCircle
 62
7
  6
CONTINUOUS
 10
-36.967016408
 20
-20.8075584284
 40
1.2
100
AcDbArc
 50
182.9907948877
 51
267.0
  0
ARC
  5
32A
100
AcDbEntity
  8
RACCORDO
100
AcDbCircle
 62
7
  6
CONTINUOUS
 10
-36.9670164142
 20
20.8075584281
 40
1.2
100
AcDbArc
 50
93.0
 51
177.0092051127
  0
ELLIPSE
  5
32B
100
AcDbEntity
  8
RACCORDO
100
AcDbEllipse
 62
7
  6
CONTINUOUS
 10
-21.7867215082
 20
21.6110710409
 30
0.0
 11
-0.3545231217
 21
0.3545231217
 31
0.0
 40
0.9972646886
 41
-0.7840286355
 42
0.7840286355
  0
ELLIPSE
  5
32C
100
AcDbEntity
  8
RACCORDO
100
AcDbEllipse
 62
7
  6
CONTINUOUS
 10
21.7867215082
 20
21.6110710409
 30
0.0
 11
0.3545231217
 21
0.3545231217
 31
0.0
 40
0.9972646886
 41
-0.7840286355
 42
0.7840286355
  0
ELLIPSE
  5
32D
100
AcDbEntity
  8
RACCORDO
100
AcDbEllipse
 62
7
  6
CONTINUOUS
 10
21.7867215082
 20
-21.6110710409
 30
0.0
 11
-0.3545231217
 21
0.3545231217
 31
0.0
 40
0.9972646886
 41
-3.9256212891
 42
-2.3575640181
  0
ELLIPSE
  5
32E
100
AcDbEntity
  8
RACCORDO
100
AcDbEllipse
 62
7
  6
CONTINUOUS
 10
-21.7867215082
 20
-21.6110710409
 30
0.0
 11
0.3545231217
 21
0.3545231217
 31
0.0
 40
0.9972646886
 41
-3.9256212891
 42
-2.3575640181
  0
ENDSEC
  0
SECTION
  2
OBJECTS
  0
DICTIONARY
  5
C
100
AcDbDictionary
280
0
281
1
  3
ACAD_GROUP
350
D
  3
ACAD_MLINESTYLE
350
17
  3
ACAD_LAYOUT
350
1A
  3
ACAD_PLOTSETTINGS
350
19
  3
ACAD_PLOTSTYLENAME
350
E
  0
DICTIONARY
  5
D
102
{ACAD_REACTORS
330
C
102
}
100
AcDbDictionary
280
0
281
1
  0
ACDBDICTIONARYWDFLT
  5
E
102
{ACAD_REACTORS
330
C
102
}
100
AcDbDictionary
281
1
  3
Normal
350
F
100
AcDbDictionaryWithDefault
340
F
  0
DICTIONARY
  5
17
102
{ACAD_REACTORS
330
C
102
}
100
AcDbDictionary
280
0
281
1
  3
Standard
350
18
  0
DICTIONARY
  5
19
102
{ACAD_REACTORS
330
C
102
}
100
AcDbDictionary
281
1
  0
DICTIONARY
  5
1A
102
{ACAD_REACTORS
330
C
102
}
100
AcDbDictionary
281
1
  3
Model
350
32F
  3
Layout1
350
330
  0
ACDBPLACEHOLDER
  5
F
102
{ACAD_REACTORS
330
E
102
}
  0
MLINESTYLE
  5
18
102
{ACAD_REACTORS
330
17
102
}
100
AcDbMlineStyle
  2
STANDARD
 70
0
  3

 62
256
 51
90.0
 52
90.0
 71
2
 49
0.5
 62
256
  6
BYLAYER
 49
-0.5
 62
256
  6
BYLAYER
  0
LAYOUT
  5
32F
102
{ACAD_REACTORS
330
1A
102
}
100
AcDbPlotSettings
  1

  2
none_device
  4
ISO_A4_(297.00_x_210.00_MM)
  6

 40
0.0
 41
0.0
 42
0.0
 43
0.0
 44
297.0
 45
210.0
 46
0.0
 47
0.0
 48
0.0
 49
0.0
140
0.0
141
0.0
142
1.0
143
1.0
 70
1024
 72
1
 73
0
 74
0
  7

 75
0
147
1.0
148
0.0
149
0.0
100
AcDbLayout
  1
Model
 70
0
 71
0
 10
0.0
 20
0.0
 11
297.0
 21
210.0
 12
0.0
 22
0.0
 32
0.0
 14
0.0
 24
0.0
 34
0.0
 15
0.0
 25
0.0
 35
0.0
146
0.0
 13
0.0
 23
0.0
 33
0.0
 16
1.0
 26
0.0
 36
0.0
 17
0.0
 27
1.0
 37
0.0
 76
0
330
214
345
0
346
0
  0
LAYOUT
  5
330
102
{ACAD_REACTORS
330
1A
102
}
100
AcDbPlotSettings
  1

  2
none_device
  4
ISO_A4_(297.00_x_210.00_MM)
  6

 40
0.0
 41
0.0
 42
0.0
 43
0.0
 44
297.0
 45
210.0
 46
0.0
 47
0.0
 48
0.0
 49
0.0
140
0.0
141
0.0
142
1.0
143
1.0
 70
0
 72
1
 73
0
 74
0
  7

 75
0
147
1.0
148
0.0
149
0.0
100
AcDbLayout
  1
Layout1
 70
0
 71
1
 10
0.0
 20
0.0
 11
297.0
 21
210.0
 12
0.0
 22
0.0
 32
0.0
 14
0.0
 24
0.0
 34
0.0
 15
0.0
 25
0.0
 35
0.0
146
0.0
 13
0.0
 23
0.0
 33
0.0
 16
1.0
 26
0.0
 36
0.0
 17
0.0
 27
1.0
 37
0.0
 76
0
330
215
345
0
346
0
  0
ENDSEC
  0
EOF
