  0
SECTION
  2
HEADER
  9
$ACADVER
  1
AC1015
  9
$DWGCODEPAGE
  3
ANSI_1252
  9
$EXTMAX
 10
297.0
 20
210.0
 30
0.0
  9
$EXTMIN
 10
0.0
 20
0.0
 30
0.0
  9
$LIMMIN
 10
0.0
 20
0.0
  9
$LIMMAX
 10
297.0
 20
210.0
  9
$VIEWCTR
 10
148.5
 20
105.0
  9
$VIEWSIZE
 40
210.0
  9
$CLAYER
  8
0
  9
$LTSCALE
 40
16.335
  9
$CELTYPE
  6
BYLAYER
  9
$DIMSCALE
 40
1.0
  9
$DIMASZ
 40
3.0
  9
$DIMEXO
 40
1.85625
  9
$DIMDLI
 40
11.286
  9
$DIMEXE
 40
5.346
  9
$DIMCEN
 40
2.673
  9
$DIMLFAC
 40
1.0
  9
$DIMBLK
  1
_FILLED
  9
$DIMTXT
 40
3.0
  9
$DIMTOL
 70
1
  9
$DIMLIM
 70
0
  9
$DIMTFAC
 40
1.0
  9
$DIMTP
 40
0.01
  9
$DIMTM
 40
0.01
  9
$PDMODE
 70
3
  9
$PDSIZE
 40
3.0
  9
$HANDSEED
  5
3CB
  9
$TILEMODE
 70
1
  9
$MEASUREMENT
 70
1
  9
$INSUNITS
 70
4
  0
ENDSEC
  0
SECTION
  2
CLASSES
  0
CLASS
  1
ACDBDICTIONARYWDFLT
  2
AcDbDictionaryWithDefault
  3
AutoCAD 2000
 90
0
280
0
281
0
  0
CLASS
  1
ACDBPLACEHOLDER
  2
AcDbPlaceHolder
  3
AutoCAD 2000
 90
0
280
0
281
0
  0
CLASS
  1
LAYOUT
  2
AcDbLayout
  3
AutoCAD 2000
 90
0
280
0
281
0
  0
ENDSEC
  0
SECTION
  2
TABLES
  0
TABLE
  2
VPORT
  5
8
100
AcDbSymbolTable
 70
2
  0
VPORT
  5
1F4
100
AcDbSymbolTableRecord
100
AcDbViewportTableRecord
  2
*ACTIVE
 70
0
 10
0.0
 20
0.0
 11
1.0
 21
1.0
 12
148.5
 22
105.0
 13
0.0
 23
0.0
 14
1.0
 24
1.0
 15
0.0
 25
0.0
 16
0.0
 26
0.0
 36
1.0
 17
0.0
 27
0.0
 37
0.0
 40
210.0
 41
1.4142857143
 42
50.0
 43
0.0
 44
0.0
 50
0.0
 51
0.0
 71
0
 72
100
 73
1
 74
1
 75
0
 76
0
 77
0
 78
0
  0
ENDTAB
  0
TABLE
  2
LTYPE
  5
5
100
AcDbSymbolTable
 70
6
  0
LTYPE
  5
14
100
AcDbSymbolTableRecord
100
AcDbLinetypeTableRecord
  2
BYBLOCK
 70
0
  3

 72
65
 73
0
 40
0.0
  0
LTYPE
  5
15
100
AcDbSymbolTableRecord
100
AcDbLinetypeTableRecord
  2
BYLAYER
 70
0
  3

 72
65
 73
0
 40
0.0
  0
LTYPE
  5
16
100
AcDbSymbolTableRecord
100
AcDbLinetypeTableRecord
  2
CONTINUOUS
 70
64
  3
Solid line
 72
65
 73
0
 40
0.0
  0
LTYPE
  5
1F5
100
AcDbSymbolTableRecord
100
AcDbLinetypeTableRecord
  2
CENTER
 70
64
  3
____ _ ____ _ ____ _ ____ _ ____ _ ____ _ ____
 72
65
 73
4
 40
0.6
 49
0.375
 74
0
 49
-0.075
 74
0
 49
0.075
 74
0
 49
-0.075
 74
0
  0
LTYPE
  5
1F6
100
AcDbSymbolTableRecord
100
AcDbLinetypeTableRecord
  2
HIDDEN
 70
64
  3
- - - - - - - - - - - - - - - - - - - -
 72
65
 73
2
 40
0.2
 49
0.1
 74
0
 49
-0.1
 74
0
  0
LTYPE
  5
1F7
100
AcDbSymbolTableRecord
100
AcDbLinetypeTableRecord
  2
PHANTOM
 70
64
  3
_____ _ _ _____ _ _ _____ _ _ _____
 72
65
 73
6
 40
0.8
 49
0.45
 74
0
 49
-0.05
 74
0
 49
0.1
 74
0
 49
-0.05
 74
0
 49
0.1
 74
0
 49
-0.05
 74
0
  0
LTYPE
  5
1F8
100
AcDbSymbolTableRecord
100
AcDbLinetypeTableRecord
  2
DOT
 70
64
  3
. . . . . . . . . . . . . . . . . . . .
 72
65
 73
2
 40
0.2
 49
0.1
 74
0
 49
-0.1
 74
0
  0
LTYPE
  5
1F9
100
AcDbSymbolTableRecord
100
AcDbLinetypeTableRecord
  2
DASHED
 70
64
  3
- - - - - - - - - - - - - - - - - - - -
 72
65
 73
2
 40
0.2
 49
0.1
 74
0
 49
-0.1
 74
0
  0
ENDTAB
  0
TABLE
  2
LAYER
  5
2
100
AcDbSymbolTable
 70
36
  0
LAYER
  5
10
100
AcDbSymbolTableRecord
100
AcDbLayerTableRecord
  2
0
 70
0
 62
7
  6
CONTINUOUS
370
-3
390
F
  0
LAYER
  5
1FA
100
AcDbSymbolTableRecord
100
AcDbLayerTableRecord
  2
DEFAULT_1
 70
0
 62
7
  6
CENTER
370
-3
390
F
  0
LAYER
  5
1FB
100
AcDbSymbolTableRecord
100
AcDbLayerTableRecord
  2
DEFAULT_2
 70
0
 62
7
  6
HIDDEN
370
-3
390
F
  0
LAYER
  5
1FC
100
AcDbSymbolTableRecord
100
AcDbLayerTableRecord
  2
DEFAULT_3
 70
0
 62
7
  6
PHANTOM
370
-3
390
F
  0
LAYER
  5
1FD
100
AcDbSymbolTableRecord
100
AcDbLayerTableRecord
  2
ASSI
 70
0
 62
7
  6
CONTINUOUS
370
-3
390
F
  0
LAYER
  5
1FE
100
AcDbSymbolTableRecord
100
AcDbLayerTableRecord
  2
COORDINATE
 70
0
 62
7
  6
CONTINUOUS
370
-3
390
F
  0
LAYER
  5
1FF
100
AcDbSymbolTableRecord
100
AcDbLayerTableRecord
  2
COPY_PUBLISH
 70
0
 62
7
  6
CONTINUOUS
370
-3
390
F
  0
LAYER
  5
200
100
AcDbSymbolTableRecord
100
AcDbLayerTableRecord
  2
COSMETIC
 70
0
 62
7
  6
CONTINUOUS
370
-3
390
F
  0
LAYER
  5
201
100
AcDbSymbolTableRecord
100
AcDbLayerTableRecord
  2
COSMETICI
 70
0
 62
7
  6
CONTINUOUS
370
-3
390
F
  0
LAYER
  5
202
100
AcDbSymbolTableRecord
100
AcDbLayerTableRecord
  2
CURVE
 70
0
 62
7
  6
CONTINUOUS
370
-3
390
F
  0
LAYER
  5
203
100
AcDbSymbolTableRecord
100
AcDbLayerTableRecord
  2
DRAFT
 70
0
 62
7
  6
CONTINUOUS
370
-3
390
F
  0
LAYER
  5
204
100
AcDbSymbolTableRecord
100
AcDbLayerTableRecord
  2
IMPORT_IGES
 70
0
 62
7
  6
CONTINUOUS
370
-3
390
F
  0
LAYER
  5
205
100
AcDbSymbolTableRecord
100
AcDbLayerTableRecord
  2
INTFCLR_11
 70
0
 62
7
  6
CONTINUOUS
370
-3
390
F
  0
LAYER
  5
206
100
AcDbSymbolTableRecord
100
AcDbLayerTableRecord
  2
INTF_1
 70
0
 62
7
  6
CONTINUOUS
370
-3
390
F
  0
LAYER
  5
207
100
AcDbSymbolTableRecord
100
AcDbLayerTableRecord
  2
INTF_3
 70
0
 62
7
  6
CONTINUOUS
370
-3
390
F
  0
LAYER
  5
208
100
AcDbSymbolTableRecord
100
AcDbLayerTableRecord
  2
NOTE
 70
0
 62
7
  6
CONTINUOUS
370
-3
390
F
  0
LAYER
  5
209
100
AcDbSymbolTableRecord
100
AcDbLayerTableRecord
  2
PIANI
 70
0
 62
7
  6
CONTINUOUS
370
-3
390
F
  0
LAYER
  5
20A
100
AcDbSymbolTableRecord
100
AcDbLayerTableRecord
  2
PUNTI
 70
0
 62
7
  6
CONTINUOUS
370
-3
390
F
  0
LAYER
  5
20B
100
AcDbSymbolTableRecord
100
AcDbLayerTableRecord
  2
RACCORDO
 70
0
 62
7
  6
CONTINUOUS
370
-3
390
F
  0
LAYER
  5
20C
100
AcDbSymbolTableRecord
100
AcDbLayerTableRecord
  2
SIMBOLI
 70
0
 62
7
  6
CONTINUOUS
370
-3
390
F
  0
LAYER
  5
20D
100
AcDbSymbolTableRecord
100
AcDbLayerTableRecord
  2
SMUSSO
 70
0
 62
7
  6
CONTINUOUS
370
-3
390
F
  0
LAYER
  5
20E
100
AcDbSymbolTableRecord
100
AcDbLayerTableRecord
  2
SNAPLINE
 70
0
 62
7
  6
CONTINUOUS
370
-3
390
F
  0
LAYER
  5
20F
100
AcDbSymbolTableRecord
100
AcDbLayerTableRecord
  2
SUPERFICI
 70
0
 62
7
  6
CONTINUOUS
370
-3
390
F
  0
LAYER
  5
210
100
AcDbSymbolTableRecord
100
AcDbLayerTableRecord
  2
TRASH
 70
0
 62
7
  6
CONTINUOUS
370
-3
390
F
  0
LAYER
  5
211
100
AcDbSymbolTableRecord
100
AcDbLayerTableRecord
  2
___SHELL
 70
0
 62
7
  6
CONTINUOUS
370
-3
390
F
  0
ENDTAB
  0
TABLE
  2
STYLE
  5
3
100
AcDbSymbolTable
 70
1
  0
STYLE
  5
11
100
AcDbSymbolTableRecord
100
AcDbTextStyleTableRecord
  2
STANDARD
 70
0
 40
0.0
 41
0.8
 50
0.0
 71
0
 42
0.2
  3
txt
  4

  0
STYLE
  5
212
100
AcDbSymbolTableRecord
100
AcDbTextStyleTableRecord
  2
TEXTSTYLE_1
 70
0
 40
0.0
 41
0.8
 50
0.0
 71
0
 42
0.2
  3
gdt
  4

  0
ENDTAB
  0
TABLE
  2
VIEW
  5
6
100
AcDbSymbolTable
 70
0
  0
ENDTAB
  0
TABLE
  2
UCS
  5
7
100
AcDbSymbolTable
 70
0
  0
ENDTAB
  0
TABLE
  2
APPID
  5
9
100
AcDbSymbolTable
 70
1
  0
APPID
  5
213
100
AcDbSymbolTableRecord
100
AcDbRegAppTableRecord
  2
ACAD
 70
0
  0
ENDTAB
  0
TABLE
  2
BLOCK_RECORD
  5
1
100
AcDbSymbolTable
 70
0
  0
BLOCK_RECORD
  5
214
100
AcDbSymbolTableRecord
100
AcDbBlockTableRecord
  2
*Model_Space
  0
BLOCK_RECORD
  5
215
100
AcDbSymbolTableRecord
100
AcDbBlockTableRecord
  2
*Paper_Space
  0
BLOCK_RECORD
  5
216
100
AcDbSymbolTableRecord
100
AcDbBlockTableRecord
  2
_FILLED
  0
BLOCK_RECORD
  5
217
100
AcDbSymbolTableRecord
100
AcDbBlockTableRecord
  2
*D0
  0
BLOCK_RECORD
  5
218
100
AcDbSymbolTableRecord
100
AcDbBlockTableRecord
  2
*D1
  0
BLOCK_RECORD
  5
219
100
AcDbSymbolTableRecord
100
AcDbBlockTableRecord
  2
*D2
  0
ENDTAB
  0
TABLE
  2
DIMSTYLE
  5
A
100
AcDbSymbolTable
 70
1
100
AcDbDimStyleTable
 71
0
  0
DIMSTYLE
105
21A
100
AcDbSymbolTableRecord
100
AcDbDimStyleTableRecord
  2
STANDARD
 70
0
  3

  4

 40
1.0
 41
3.0
 42
0.0625
 43
0.38
 44
0.18
 45
0.0
 46
0.0
 47
0.01
 48
0.01
140
3.0
141
0.09
142
0.0
143
25.4
144
1.0
145
0.0
146
1.0
147
0.09
 71
1.0
 72
0.0
 73
0
 74
0
 75
0
 76
0
 77
1
 78
8
170
0
171
2
172
0
173
0
174
0
175
0
176
0
177
0
178
0
270
2
271
2
272
2
273
2
274
2
275
0
280
0
281
0
282
0
283
1
284
8
285
0
286
0
287
3
288
0
340
11
341
216
342
216
343
216
344
216
  0
DIMSTYLE
105
21B
100
AcDbSymbolTableRecord
100
AcDbDimStyleTableRecord
  2
DIMSTYLE_1
 70
0
  3

  4

 40
1.0
 41
3.0
 42
0.0625
 43
0.38
 44
0.18
 45
0.0
 46
0.0
 47
0.0
 48
0.0
140
3.0
141
0.09
142
0.0
143
25.4
144
1.0
145
0.0
146
1.0
147
0.09
 71
0.0
 72
0.0
 73
0
 74
0
 75
0
 76
0
 77
1
 78
8
170
0
171
2
172
0
173
0
174
0
175
0
176
0
177
0
178
0
270
2
271
1
272
1
273
2
274
2
275
0
280
0
281
0
282
0
283
1
284
8
285
0
286
0
287
3
288
0
340
11
341
216
342
216
343
216
344
216
  0
ENDTAB
  0
ENDSEC
  0
SECTION
  2
BLOCKS
  0
BLOCK
  5
20
100
AcDbEntity
  8
0
100
AcDbBlockBegin
  2
*Model_Space
 70
0
 10
0.0
 20
0.0
 30
0.0
  3
*Model_Space
  1

  0
ENDBLK
  5
21
100
AcDbEntity
  8
0
100
AcDbBlockEnd
  0
BLOCK
  5
1C
100
AcDbEntity
  8
0
100
AcDbBlockBegin
  2
*Paper_Space
 70
0
 10
0.0
 20
0.0
 30
0.0
  3
*Paper_Space
  1

  0
ENDBLK
  5
1D
100
AcDbEntity
  8
0
100
AcDbBlockEnd
  0
BLOCK
  5
21C
100
AcDbEntity
  8
0
100
AcDbBlockBegin
  2
_FILLED
 70
64
 10
0.0
 20
0.0
  3
_FILLED
  1

  0
SOLID
  5
21D
100
AcDbEntity
  8
0
  6
BYBLOCK
 62
0
100
AcDbTrace
 10
0.0
 20
0.0
 11
-1.0
 21
0.3166666667
 12
-1.0
 22
-0.3166666667
 13
-1.0
 23
-0.3166666667
  0
ENDBLK
  5
21E
100
AcDbEntity
  8
0
  6
BYBLOCK
 62
0
100
AcDbBlockEnd
  0
BLOCK
  5
21F
100
AcDbEntity
  8
0
100
AcDbBlockBegin
 62
7
  6
CONTINUOUS
  2
*D0
 70
65
 10
0.0
 20
0.0
  3
*D0
  1

  0
LINE
  5
220
100
AcDbEntity
  8
0
100
AcDbLine
 62
7
  6
CONTINUOUS
 10
-22.287406726
 20
22.4305789785
 11
-22.287406726
 21
36.8943938178
  0
LINE
  5
221
100
AcDbEntity
  8
0
100
AcDbLine
 62
7
  6
CONTINUOUS
 10
22.287406726
 20
22.1124414913
 11
22.287406726
 21
36.8943938178
  0
LINE
  5
222
100
AcDbEntity
  8
0
100
AcDbLine
 62
7
  6
CONTINUOUS
 10
-22.287406726
 20
35.3943938178
 11
0.0
 21
35.3943938178
  0
LINE
  5
223
100
AcDbEntity
  8
0
100
AcDbLine
 62
7
  6
CONTINUOUS
 10
22.287406726
 20
35.3943938178
 11
0.0
 21
35.3943938178
  0
INSERT
  5
224
100
AcDbEntity
  8
0
100
AcDbBlockReference
 62
7
  6
CONTINUOUS
  2
_FILLED
 10
-22.287406726
 20
35.3943938178
 41
3.0
 42
3.0
 43
3.0
 50
180.0
  0
INSERT
  5
225
100
AcDbEntity
  8
0
100
AcDbBlockReference
 62
7
  6
CONTINUOUS
  2
_FILLED
 10
22.287406726
 20
35.3943938178
 41
3.0
 42
3.0
 43
3.0
 50
0.0
  0
ENDBLK
  5
226
100
AcDbEntity
  8
0
  6
BYBLOCK
 62
0
100
AcDbBlockEnd
  0
BLOCK
  5
227
100
AcDbEntity
  8
0
100
AcDbBlockBegin
 62
7
  6
CONTINUOUS
  2
*D1
 70
65
 10
0.0
 20
0.0
  3
*D1
  1

  0
LINE
  5
228
100
AcDbEntity
  8
0
100
AcDbLine
 62
7
  6
CONTINUOUS
 10
23.0867922693
 20
22.1117562587
 11
36.6165999395
 21
22.1117562587
  0
LINE
  5
229
100
AcDbEntity
  8
0
100
AcDbLine
 62
7
  6
CONTINUOUS
 10
23.2448629553
 20
-22.1117562587
 11
36.6165999395
 21
-22.1117562587
  0
LINE
  5
22A
100
AcDbEntity
  8
0
100
AcDbLine
 62
7
  6
CONTINUOUS
 10
35.1165999395
 20
22.1117562587
 11
35.1165999395
 21
-0.0
  0
LINE
  5
22B
100
AcDbEntity
  8
0
100
AcDbLine
 62
7
  6
CONTINUOUS
 10
35.1165999395
 20
-22.1117562587
 11
35.1165999395
 21
-0.0
  0
INSERT
  5
22C
100
AcDbEntity
  8
0
100
AcDbBlockReference
 62
7
  6
CONTINUOUS
  2
_FILLED
 10
35.1165999395
 20
22.1117562587
 41
3.0
 42
3.0
 43
3.0
 50
90.0
  0
INSERT
  5
22D
100
AcDbEntity
  8
0
100
AcDbBlockReference
 62
7
  6
CONTINUOUS
  2
_FILLED
 10
35.1165999395
 20
-22.1117562587
 41
3.0
 42
3.0
 43
3.0
 50
270.0
  0
ENDBLK
  5
22E
100
AcDbEntity
  8
0
  6
BYBLOCK
 62
0
100
AcDbBlockEnd
  0
BLOCK
  5
22F
100
AcDbEntity
  8
0
100
AcDbBlockBegin
 62
7
  6
CONTINUOUS
  2
*D2
 70
65
 10
0.0
 20
0.0
  3
*D2
  1

  0
LINE
  5
230
100
AcDbEntity
  8
0
100
AcDbLine
 62
7
  6
CONTINUOUS
 10
-34.0102264717
 20
13.7689805518
 11
-34.0102264717
 21
36.8943938178
  0
LINE
  5
231
100
AcDbEntity
  8
0
100
AcDbLine
 62
7
  6
CONTINUOUS
 10
-38.7024380085
 20
-0.8271167661
 11
-38.7024380085
 21
36.8943938178
  0
LINE
  5
232
100
AcDbEntity
  8
0
100
AcDbLine
 62
7
  6
CONTINUOUS
 10
-34.0102264717
 20
35.3943938178
 11
-30.0102264717
 21
35.3943938178
  0
LINE
  5
233
100
AcDbEntity
  8
0
100
AcDbLine
 62
7
  6
CONTINUOUS
 10
-30.0102264717
 20
35.3943938178
 11
-36.3563322401
 21
35.3943938178
  0
LINE
  5
234
100
AcDbEntity
  8
0
100
AcDbLine
 62
7
  6
CONTINUOUS
 10
-38.7024380085
 20
35.3943938178
 11
-48.6898629655
 21
35.3943938178
  0
LINE
  5
235
100
AcDbEntity
  8
0
100
AcDbLine
 62
7
  6
CONTINUOUS
 10
-48.6898629655
 20
35.3943938178
 11
-36.3563322401
 21
35.3943938178
  0
INSERT
  5
236
100
AcDbEntity
  8
0
100
AcDbBlockReference
 62
7
  6
CONTINUOUS
  2
_FILLED
 10
-34.0102264717
 20
35.3943938178
 41
3.0
 42
3.0
 43
3.0
 50
180.0
  0
INSERT
  5
237
100
AcDbEntity
  8
0
100
AcDbBlockReference
 62
7
  6
CONTINUOUS
  2
_FILLED
 10
-38.7024380085
 20
35.3943938178
 41
3.0
 42
3.0
 43
3.0
  0
ENDBLK
  5
238
100
AcDbEntity
  8
0
  6
BYBLOCK
 62
0
100
AcDbBlockEnd
  0
ENDSEC
  0
SECTION
  2
ENTITIES
  0
DIMENSION
  5
239
100
AcDbEntity
  8
0
100
AcDbDimension
 62
7
  6
CONTINUOUS
  2
*D0
 10
22.287406726
 20
35.3943938178
 11
-4.3928571429
 21
36.1443938178
 70
160
 71
2
 42
44.574813452
  3
DIMSTYLE_1
100
AcDbAlignedDimension
 13
-22.287406726
 23
22.4305789785
 14
22.287406726
 24
22.1124414913
100
AcDbRotatedDimension
  0
DIMENSION
  5
23A
100
AcDbEntity
  8
0
100
AcDbDimension
 62
7
  6
CONTINUOUS
  2
*D1
 10
35.1165999395
 20
-22.1117562587
 11
34.3665999395
 21
-4.3928571429
 70
160
 71
2
 42
44.2235125174
  3
DIMSTYLE_1
100
AcDbAlignedDimension
 13
23.0867922693
 23
22.1117562587
 14
23.2448629553
 24
-22.1117562587
 50
270.0
100
AcDbRotatedDimension
  0
DIMENSION
  5
23B
100
AcDbEntity
  8
0
100
AcDbDimension
 62
7
  6
CONTINUOUS
  2
*D2
 10
-38.7024380085
 20
35.3943938178
 11
-48.6898629655
 21
36.1443938178
 70
160
 71
3
 42
4.6922115368
  3
DIMSTYLE_1
100
AcDbAlignedDimension
 13
-34.0102264717
 23
13.7689805518
 14
-38.7024380085
 24
-0.8271167661
 50
180.0
100
AcDbRotatedDimension
  0
LWPOLYLINE
  5
23C
100
AcDbEntity
  8
0
100
AcDbPolyline
 62
7
  6
CONTINUOUS
 90
10
 70
0
 43
0.3500000006
 10
3.1071428747
 20
39.1443921204
 10
2.464285738
 20
38.5015386658
 10
2.0357142191
 20
37.6443916626
 10
2.0357142191
 20
36.5729647064
 10
2.464285738
 20
36.1443957367
 10
3.1071428747
 20
36.1443957367
 10
3.5357143936
 20
36.5729647064
 10
3.5357143936
 20
37.4301071777
 10
3.1071428747
 20
37.8586806793
 10
2.1785714865
 20
37.8586806793
  0
LWPOLYLINE
  5
23D
100
AcDbEntity
  8
RACCORDO
100
AcDbPolyline
 62
253
  6
CONTINUOUS
 90
16
 70
0
 10
21.7023437668
 20
-22.0260080669
 10
21.7544465492
 20
-22.023139509
 10
21.8059803902
 20
-22.014850594
 10
21.8563826301
 20
-22.0012318436
 10
21.9051029827
 20
-21.9824319648
 10
21.9516094979
 20
-21.9586562426
 10
21.9953943773
 20
-21.9301643127
 10
22.0359795809
 20
-21.8972672924
 10
22.0729220251
 20
-21.8603243785
 10
22.1058183837
 20
-21.8197389571
 10
22.1343095197
 20
-21.7759541764
 10
22.1580844095
 20
-21.7294480923
 10
22.1768835218
 20
-21.68072846
 10
22.1905016458
 20
-21.630327203
 10
22.198790135
 20
-21.5787946072
 10
22.2016585342
 20
-21.5266932995
  0
LWPOLYLINE
  5
23E
100
AcDbEntity
  8
RACCORDO
100
AcDbPolyline
 62
253
  6
CONTINUOUS
 90
16
 70
0
 10
-21.7023437492
 20
-22.0260080493
 10
-21.754445872
 20
-22.0231395627
 10
-21.8059791402
 20
-22.0148508418
 10
-21.8563809102
 20
-22.0012323836
 10
-21.9051008919
 20
-21.9824328752
 10
-21.9516071574
 20
-21.9586575711
 10
-21.9953919481
 20
-21.9301660514
 10
-22.0359772186
 20
-21.8972693888
 10
-22.0729198563
 20
-21.860326751
 10
-22.1058165189
 20
-21.8197414805
 10
-22.1343080384
 20
-21.7759566898
 10
-22.1580833425
 20
-21.7294504243
 10
-22.1768828509
 20
-21.6807304426
 10
-22.1905013091
 20
-21.6303286727
 10
-22.1987900299
 20
-21.5787954046
 10
-22.2016585166
 20
-21.5266932819
  0
LINE
  5
23F
100
AcDbEntity
  8
RACCORDO
100
AcDbLine
 62
253
  6
CONTINUOUS
 10
-21.6947031525
 20
21.8950684657
 11
-21.6924606727
 21
21.8076660712
  0
LINE
  5
240
100
AcDbEntity
  8
RACCORDO
100
AcDbLine
 62
253
  6
CONTINUOUS
 10
-22.170681661
 20
21.1403470978
 11
-22.1687021312
 21
21.0493096838
  0
LINE
  5
241
100
AcDbEntity
  8
RACCORDO
100
AcDbLine
 62
253
  6
CONTINUOUS
 10
-21.6924606727
 20
21.8076660712
 11
-21.6904669458
 21
21.7009339172
  0
LINE
  5
242
100
AcDbEntity
  8
RACCORDO
100
AcDbLine
 62
253
  6
CONTINUOUS
 10
-22.1687021312
 20
21.0493096838
 11
-22.167416629
 21
20.9546247098
  0
LINE
  5
243
100
AcDbEntity
  8
RACCORDO
100
AcDbLine
 62
253
  6
CONTINUOUS
 10
-21.6904669458
 20
21.7009339172
 11
-21.6879808233
 21
21.5093244253
  0
LINE
  5
244
100
AcDbEntity
  8
RACCORDO
100
AcDbLine
 62
253
  6
CONTINUOUS
 10
-21.6879808233
 20
21.5093244253
 11
-21.6857987396
 21
21.2086712693
  0
LINE
  5
245
100
AcDbEntity
  8
RACCORDO
100
AcDbLine
 62
253
  6
CONTINUOUS
 10
-22.167416629
 20
20.9546247098
 11
-22.1668384275
 21
20.8570387366
  0
LWPOLYLINE
  5
246
100
AcDbEntity
  8
RACCORDO
100
AcDbPolyline
 62
253
  6
CONTINUOUS
 90
9
 70
0
 10
-22.1668384275
 20
20.8570387366
 10
-22.1577103532
 20
16.2236957683
 10
-22.1508642975
 20
11.5895754055
 10
-22.1463002606
 20
6.9546776482
 10
-22.1440182427
 20
2.3184841468
 10
-22.1440182435
 20
-2.3184867491
 10
-22.1463002624
 20
-6.9546799903
 10
-22.1508642993
 20
-11.5895772271
 10
-22.1577103543
 20
-16.2236968092
  0
LWPOLYLINE
  5
247
100
AcDbEntity
  8
RACCORDO
100
AcDbPolyline
 62
253
  6
CONTINUOUS
 90
8
 70
0
 10
-21.6778538644
 20
16.2407570029
 10
-21.6724376572
 20
11.6018160204
 10
-21.6688268518
 20
6.9616915799
 10
-21.6670214495
 20
2.3206845026
 10
-21.6670214504
 20
-2.3206884478
 10
-21.668826854
 20
-6.9616951304
 10
-21.6724376594
 20
-11.6018187816
 10
-21.6778538659
 20
-16.2407585807
  0
LINE
  5
248
100
AcDbEntity
  8
RACCORDO
100
AcDbLine
 62
253
  6
CONTINUOUS
 10
-21.6857987396
 20
21.2086712693
 11
-21.6778538644
 21
16.2407570029
  0
LINE
  5
249
100
AcDbEntity
  8
0
100
AcDbLine
 62
7
  6
CONTINUOUS
 10
-22.287406726
 20
21.6124414913
 11
-22.287406726
 21
-21.6124414913
  0
LINE
  5
24A
100
AcDbEntity
  8
RACCORDO
100
AcDbLine
 62
253
  6
CONTINUOUS
 10
-21.6778538659
 20
-16.2407585807
 11
-21.6852567712
 21
-21.0455560812
  0
LINE
  5
24B
100
AcDbEntity
  8
RACCORDO
100
AcDbLine
 62
253
  6
CONTINUOUS
 10
-22.1577103543
 20
-16.2236968092
 11
-22.1670396041
 21
-20.906217702
  0
LINE
  5
24C
100
AcDbEntity
  8
RACCORDO
100
AcDbLine
 62
253
  6
CONTINUOUS
 10
-21.6852567712
 20
-21.0455560812
 11
-21.6867133762
 21
-21.3642660287
  0
LINE
  5
24D
100
AcDbEntity
  8
RACCORDO
100
AcDbLine
 62
253
  6
CONTINUOUS
 10
-21.6867133762
 20
-21.3642660287
 11
-21.6887278514
 21
-21.576995267
  0
LINE
  5
24E
100
AcDbEntity
  8
RACCORDO
100
AcDbLine
 62
253
  6
CONTINUOUS
 10
-22.1670396041
 20
-20.906217702
 11
-22.1679690498
 21
-21.0022169117
  0
LINE
  5
24F
100
AcDbEntity
  8
RACCORDO
100
AcDbLine
 62
253
  6
CONTINUOUS
 10
-21.6887278514
 20
-21.576995267
 11
-21.6904666751
 21
-21.7009353181
  0
LWPOLYLINE
  5
250
100
AcDbEntity
  8
RACCORDO
100
AcDbPolyline
 62
253
  6
CONTINUOUS
 90
18
 70
0
 10
-22.1679690498
 20
-21.0022169117
 10
-22.1696101426
 20
-21.0955695597
 10
-22.1706809495
 20
-21.1403189239
 10
-22.1719164945
 20
-21.1834905098
 10
-22.1733144512
 20
-21.2251282561
 10
-22.1748545557
 20
-21.2646163791
 10
-22.1765390738
 20
-21.3019250411
 10
-22.1783657396
 20
-21.3370840798
 10
-22.1803074917
 20
-21.369567225
 10
-22.1823660363
 20
-21.3993327255
 10
-22.1845396673
 20
-21.4264223325
 10
-22.1867962049
 20
-21.4504350292
 10
-22.1891380186
 20
-21.4713260608
 10
-22.191562739
 20
-21.489140182
 10
-22.1940310779
 20
-21.5036106401
 10
-22.196529939
 20
-21.5146485172
 10
-22.1990724186
 20
-21.5223427312
 10
-22.2016585166
 20
-21.5266932819
  0
LINE
  5
251
100
AcDbEntity
  8
RACCORDO
100
AcDbLine
 62
253
  6
CONTINUOUS
 10
-21.6904666751
 20
-21.7009353181
 11
-21.6924604453
 21
-21.8076670285
  0
LWPOLYLINE
  5
252
100
AcDbEntity
  8
RACCORDO
100
AcDbPolyline
 62
253
  6
CONTINUOUS
 90
8
 70
0
 10
-21.6924604453
 20
-21.8076670285
 10
-21.6947030398
 20
-21.8950690731
 10
-21.6958885828
 20
-21.9309580933
 10
-21.6971338184
 20
-21.9613944703
 10
-21.6983935316
 20
-21.9862291518
 10
-21.6996622345
 20
-22.0053370027
 10
-21.700974096
 20
-22.0186195414
 10
-21.7023437492
 20
-22.0260080493
  0
LWPOLYLINE
  5
253
100
AcDbEntity
  8
RACCORDO
100
AcDbPolyline
 62
253
  6
CONTINUOUS
 90
14
 70
0
 10
21.7829205257
 20
-20.8773337176
 10
21.8303890742
 20
-20.8766470669
 10
21.8762661728
 20
-20.8757688125
 10
21.9201035305
 20
-20.8747075363
 10
21.9614727877
 20
-20.8734736086
 10
21.9999697021
 20
-20.8720790869
 10
22.0352180986
 20
-20.8705375977
 10
22.0668735452
 20
-20.8688642039
 10
22.0946267186
 20
-20.867075257
 10
22.1182064271
 20
-20.865188238
 10
22.1373822599
 20
-20.863221586
 10
22.1519668391
 20
-20.8611945182
 10
22.1618176507
 20
-20.8591268422
 10
22.1668384366
 20
-20.8570387625
  0
LINE
  5
254
100
AcDbEntity
  8
RACCORDO
100
AcDbLine
 62
253
  6
CONTINUOUS
 10
21.6850754654
 20
-20.8781073069
 11
21.7829205257
 21
-20.8773337176
  0
LINE
  5
255
100
AcDbEntity
  8
RACCORDO
100
AcDbLine
 62
253
  6
CONTINUOUS
 10
-21.7023437504
 20
-22.0260080504
 11
-14.9351825669
 21
-22.0154308735
  0
LINE
  5
256
100
AcDbEntity
  8
RACCORDO
100
AcDbLine
 62
253
  6
CONTINUOUS
 10
-14.9351825669
 20
-22.0154308735
 11
-8.1922764616
 21
-22.0087774091
  0
LINE
  5
257
100
AcDbEntity
  8
RACCORDO
100
AcDbLine
 62
253
  6
CONTINUOUS
 10
-21.685075472
 20
-20.8781072465
 11
-8.1841943372
 21
-20.8713008997
  0
LINE
  5
258
100
AcDbEntity
  8
RACCORDO
100
AcDbLine
 62
253
  6
CONTINUOUS
 10
-8.1922764616
 20
-22.0087774091
 11
-1.386525139
 21
-22.005995887
  0
LINE
  5
259
100
AcDbEntity
  8
0
100
AcDbLine
 62
7
  6
CONTINUOUS
 10
-21.7880919586
 20
-22.1117562587
 11
21.7880919586
 21
-22.1117562587
  0
LINE
  5
25A
100
AcDbEntity
  8
RACCORDO
100
AcDbLine
 62
253
  6
CONTINUOUS
 10
-1.386525139
 20
-22.005995887
 11
5.6822838363
 21
-22.007291536
  0
LINE
  5
25B
100
AcDbEntity
  8
RACCORDO
100
AcDbLine
 62
253
  6
CONTINUOUS
 10
-8.1841943372
 20
-20.8713008997
 11
10.6762914945
 21
-20.8720819903
  0
LINE
  5
25C
100
AcDbEntity
  8
RACCORDO
100
AcDbLine
 62
253
  6
CONTINUOUS
 10
10.6762914945
 20
-20.8720819903
 11
21.6850754654
 21
-20.8781072728
  0
LINE
  5
25D
100
AcDbEntity
  8
RACCORDO
100
AcDbLine
 62
253
  6
CONTINUOUS
 10
5.6822838363
 20
-22.007291536
 11
10.6804877979
 21
-22.0107495721
  0
LINE
  5
25E
100
AcDbEntity
  8
RACCORDO
100
AcDbLine
 62
253
  6
CONTINUOUS
 10
10.6804877979
 20
-22.0107495721
 11
16.0115169574
 21
-22.0169324323
  0
LINE
  5
25F
100
AcDbEntity
  8
RACCORDO
100
AcDbLine
 62
253
  6
CONTINUOUS
 10
16.0115169574
 20
-22.0169324323
 11
21.7023437668
 21
-22.0260080669
  0
LWPOLYLINE
  5
260
100
AcDbEntity
  8
RACCORDO
100
AcDbPolyline
 62
253
  6
CONTINUOUS
 90
15
 70
0
 10
-21.6850750309
 20
-20.8781067346
 10
-21.7829191275
 20
-20.877333173
 10
-21.8303872486
 20
-20.8766465446
 10
-21.8762639746
 20
-20.8757683177
 10
-21.9201010272
 20
-20.8747070737
 10
-21.9614700586
 20
-20.8734731824
 10
-21.9999668369
 20
-20.8720787007
 10
-22.0352151961
 20
-20.8705372545
 10
-22.0668707116
 20
-20.8688639058
 10
-22.0946240658
 20
-20.8670750056
 10
-22.1182040706
 20
-20.8651880339
 10
-22.1373803172
 20
-20.8632214288
 10
-22.1519654274
 20
-20.861194407
 10
-22.1618168849
 20
-20.859126775
 10
-22.1668384274
 20
-20.8570387366
  0
LWPOLYLINE
  5
261
100
AcDbEntity
  8
RACCORDO
100
AcDbPolyline
 62
253
  6
CONTINUOUS
 90
7
 70
0
 10
-21.7023437493
 20
22.0260080494
 10
-21.7009741313
 20
22.0186193697
 10
-21.6996622981
 20
22.0053365549
 10
-21.6983936165
 20
21.9862284249
 10
-21.6971339111
 20
21.9613936369
 10
-21.695888678
 20
21.9309573763
 10
-21.6947031525
 20
21.8950684657
  0
LWPOLYLINE
  5
262
100
AcDbEntity
  8
0
100
AcDbPolyline
 62
7
  6
CONTINUOUS
 90
3
 70
0
 43
0.3500000006
 10
1.035714268
 20
36.4301068726
 10
0.9642857051
 20
36.2158223877
 10
0.8214285793
 20
35.93010672
  0
LWPOLYLINE
  5
263
100
AcDbEntity
  8
RACCORDO
100
AcDbPolyline
 62
253
  6
CONTINUOUS
 90
16
 70
0
 10
-22.2016585167
 20
21.526693282
 10
-22.1990728442
 20
21.5223441275
 10
-22.1965307205
 20
21.5146516989
 10
-22.1940321457
 20
21.5036159961
 10
-22.191564004
 20
21.4891480196
 10
-22.1891394111
 20
21.4713367689
 10
-22.186797714
 20
21.4504492426
 10
-22.1845413251
 20
21.4264412853
 10
-22.1823678319
 20
21.3993570523
 10
-22.1803093446
 20
21.3695960086
 10
-22.178367533
 20
21.33711607
 10
-22.1765407271
 20
21.3019593207
 10
-22.174856027
 20
21.2646514771
 10
-22.1733156859
 20
21.2251620882
 10
-22.1719174505
 20
21.1835216051
 10
-22.170681661
 20
21.1403470978
  0
LINE
  5
264
100
AcDbEntity
  8
0
100
AcDbLine
 62
7
  6
CONTINUOUS
 10
-2.701602433
 20
0.6154457732
 11
-2.7
 21
0.585
  0
LINE
  5
265
100
AcDbEntity
  8
0
100
AcDbLine
 62
7
  6
CONTINUOUS
 10
-3.8991882548
 20
0.5433204313
 11
-3.9
 21
0.565
  0
LINE
  5
266
100
AcDbEntity
  8
0
100
AcDbLine
 62
7
  6
CONTINUOUS
 10
-3.9
 20
0.565
 11
-3.9
 21
0.585
  0
LWPOLYLINE
  5
267
100
AcDbEntity
  8
0
100
AcDbPolyline
 62
7
  6
CONTINUOUS
 90
2
 70
0
 43
0.3500000006
 10
-3.3928571262
 20
36.1443957367
 10
-3.3928571262
 20
37.6443916626
  0
LINE
  5
268
100
AcDbEntity
  8
0
100
AcDbLine
 62
7
  6
CONTINUOUS
 10
-2.7
 20
0.585
 11
-2.7
 21
0.565
  0
LINE
  5
269
100
AcDbEntity
  8
0
100
AcDbLine
 62
7
  6
CONTINUOUS
 10
-2.7
 20
0.565
 11
-2.7006451361
 21
0.545906535
  0
LWPOLYLINE
  5
26A
100
AcDbEntity
  8
0
100
AcDbPolyline
 62
7
  6
CONTINUOUS
 90
3
 70
0
 10
-3.9
 20
0.585
 10
-3.8991853011
 20
0.606682312
 10
-3.8967544798
 20
0.6282260282
  0
LINE
  5
26B
100
AcDbEntity
  8
0
100
AcDbLine
 62
7
  6
CONTINUOUS
 10
-2.7
 20
0.565
 11
-2.7015026823
 21
0.535559418
  0
LWPOLYLINE
  5
26C
100
AcDbEntity
  8
0
100
AcDbPolyline
 62
7
  6
CONTINUOUS
 90
23
 70
0
 10
-3.8993548627
 20
0.6040934786
 10
-3.8974967233
 20
0.6229466711
 10
-3.8944255814
 20
0.6415595775
 10
-3.8901192529
 20
0.6600091163
 10
-3.8845999218
 20
0.6782183695
 10
-3.8779341409
 20
0.6959565832
 10
-3.8701035143
 20
0.713221038
 10
-3.8611264373
 20
0.7300144537
 10
-3.8511246498
 20
0.7461142348
 10
-3.8400891125
 20
0.7615064887
 10
-3.828028864
 20
0.7762051085
 10
-3.8150927614
 20
0.7900291774
 10
-3.8012696364
 20
0.8029687756
 10
-3.7865706566
 20
0.8150338232
 10
-3.7711781826
 20
0.8260731641
 10
-3.7550793229
 20
0.8360750364
 10
-3.7382869684
 20
0.8450512022
 10
-3.7210221536
 20
0.8528857916
 10
-3.7032827402
 20
0.8595656802
 10
-3.6850708662
 20
0.8651039923
 10
-3.6666139806
 20
0.8694242303
 10
-3.6479878999
 20
0.8725008947
 10
-3.6291168075
 20
0.8743594846
  0
LWPOLYLINE
  5
26D
100
AcDbEntity
  8
0
100
AcDbPolyline
 62
7
  6
CONTINUOUS
 90
5
 70
0
 10
-2.7006451361
 20
0.545906535
 10
-2.7025032734
 20
0.5270533544
 10
-2.7055744118
 20
0.5084404584
 10
-2.7098807343
 20
0.4899909306
 10
-2.7154000577
 20
0.4717816879
  0
LWPOLYLINE
  5
26E
100
AcDbEntity
  8
0
100
AcDbPolyline
 62
7
  6
CONTINUOUS
 90
14
 70
0
 10
-2.7015026823
 20
0.535559418
 10
-2.706015424
 20
0.5062649755
 10
-2.7135450552
 20
0.4774067686
 10
-2.7240712434
 20
0.4493193929
 10
-2.7375200012
 20
0.4223368797
 10
-2.7537782675
 20
0.3967768283
 10
-2.7726807357
 20
0.3729777647
 10
-2.7940503529
 20
0.3512126786
 10
-2.8176818493
 20
0.331746659
 10
-2.8434132529
 20
0.314802918
 10
-2.8709172584
 20
0.3006055242
 10
-2.8997034466
 20
0.2894165701
 10
-2.9293492372
 20
0.281408545
 10
-2.9595542466
 20
0.2766024269
  0
LWPOLYLINE
  5
26F
100
AcDbEntity
  8
0
100
AcDbPolyline
 62
7
  6
CONTINUOUS
 90
19
 70
0
 10
-3.8967544798
 20
0.6282260282
 10
-3.8927273385
 20
0.6495197058
 10
-3.8871292481
 20
0.6704350113
 10
-3.8799803578
 20
0.690880483
 10
-3.8713031467
 20
0.7107809543
 10
-3.8611390162
 20
0.7300100181
 10
-3.8495764526
 20
0.7484082915
 10
-3.8367094228
 20
0.765840837
 10
-3.8226047059
 20
0.7822287518
 10
-3.8073238601
 20
0.7975190515
 10
-3.7909357414
 20
0.8116379375
 10
-3.7734975562
 20
0.8245092433
 10
-3.7550920386
 20
0.836065548
 10
-3.7358557819
 20
0.8462347866
 10
-3.7159404863
 20
0.8549408885
 10
-3.6954703606
 20
0.8621211307
 10
-3.674533667
 20
0.8677336081
 10
-3.6532286376
 20
0.8717617142
 10
-3.6316802048
 20
0.8741882112
  0
LWPOLYLINE
  5
270
100
AcDbEntity
  8
0
100
AcDbPolyline
 62
7
  6
CONTINUOUS
 90
8
 70
0
 10
-2.7220658328
 20
0.4540434798
 10
-2.7298964539
 20
0.4367790259
 10
-2.7388735262
 20
0.4199856072
 10
-2.7488753167
 20
0.4038858157
 10
-2.7599108649
 20
0.3884935424
 10
-2.7719711308
 20
0.3737948967
 10
-2.7849072618
 20
0.3599707994
 10
-2.7987304279
 20
0.3470311695
  0
LWPOLYLINE
  5
271
100
AcDbEntity
  8
0
100
AcDbPolyline
 62
7
  6
CONTINUOUS
 90
13
 70
0
 10
-1.2745850059
 20
2.1259016801
 10
-1.2568063733
 20
2.147563871
 10
-1.2399091893
 20
2.1699399554
 10
-1.2239130973
 20
2.1929552513
 10
-1.2088338286
 20
2.2165418567
 10
-1.1946715556
 20
2.2406624711
 10
-1.1814227055
 20
2.2652882687
 10
-1.1690880069
 20
2.2903882553
 10
-1.157682582
 20
2.3159238253
 10
-1.1472245731
 20
2.3418547508
 10
-1.1377325309
 20
2.3681434338
 10
-1.1292290697
 20
2.3947610946
 10
-1.1217383324
 20
2.4216806092
  0
LINE
  5
272
100
AcDbEntity
  8
0
100
AcDbLine
 62
7
  6
CONTINUOUS
 10
-1.5279061636
 20
1.8655008306
 11
-1.4304452048
 21
1.9727833493
  0
LWPOLYLINE
  5
273
100
AcDbEntity
  8
0
100
AcDbPolyline
 62
7
  6
CONTINUOUS
 90
13
 70
0
 10
-1.3333332141
 20
2.0657118085
 10
-1.2981777262
 20
2.1002455848
 10
-1.2657538381
 20
2.1367761474
 10
-1.2360615507
 20
2.1753034934
 10
-1.2090443444
 20
2.2160622729
 10
-1.1847587403
 20
2.2588178287
 10
-1.1633743002
 20
2.3028661974
 10
-1.1448116655
 20
2.3481740652
 10
-1.1291501959
 20
2.3947747398
 10
-1.1167975303
 20
2.4420641933
 10
-1.1078895488
 20
2.4898410819
 10
-1.1022903719
 20
2.5383067449
 10
-1.1
 20
2.5874611797
  0
LINE
  5
274
100
AcDbEntity
  8
0
100
AcDbLine
 62
7
  6
CONTINUOUS
 10
-1.4345042552
 20
1.9684940957
 11
-1.3333332141
 21
2.0657118085
  0
LWPOLYLINE
  5
275
100
AcDbEntity
  8
0
100
AcDbPolyline
 62
7
  6
CONTINUOUS
 90
3
 70
0
 10
-1.3333333547
 20
2.0657119658
 10
-1.3128041385
 20
2.0849465109
 10
-1.2932378771
 20
2.105018355
  0
LWPOLYLINE
  5
276
100
AcDbEntity
  8
0
100
AcDbPolyline
 62
7
  6
CONTINUOUS
 90
13
 70
0
 10
2.6206019018
 20
-2.2648171407
 10
2.5969816355
 20
-2.2700830751
 10
2.5717175167
 20
-2.2735315102
 10
2.5464505826
 20
-2.2747594679
 10
2.5212174151
 20
-2.2737056964
 10
2.4959814323
 20
-2.2704314469
 10
2.4712370751
 20
-2.2649980228
 10
2.4469106715
 20
-2.257329165
 10
2.4230758939
 20
-2.2475011312
 10
2.400448201
 20
-2.235804
 10
2.3792660793
 20
-2.222334464
 10
2.3592910433
 20
-2.2069958288
 10
2.3405230933
 20
-2.1897880933
  0
LWPOLYLINE
  5
277
100
AcDbEntity
  8
0
100
AcDbPolyline
 62
7
  6
CONTINUOUS
 90
14
 70
0
 10
2.5994310625
 20
-2.2696712884
 10
2.578012504
 20
-2.2729243261
 10
2.5564473029
 20
-2.274555292
 10
2.5348276715
 20
-2.2745591013
 10
2.5132607507
 20
-2.2729358979
 10
2.491837616
 20
-2.2696907889
 10
2.4706595014
 20
-2.2648437454
 10
2.4498715594
 20
-2.2584365606
 10
2.4296355719
 20
-2.2505183643
 10
2.4100849572
 20
-2.2411284917
 10
2.3913105876
 20
-2.2302957313
 10
2.3733932737
 20
-2.218077541
 10
2.3564343638
 20
-2.2045512086
 10
2.3405227661
 20
-2.1897877661
  0
LWPOLYLINE
  5
278
100
AcDbEntity
  8
0
100
AcDbPolyline
 62
7
  6
CONTINUOUS
 90
2
 70
0
 43
0.3500000006
 10
34.3665993576
 20
-3.3928568802
 10
32.8665988998
 20
-3.3928568802
  0
LINE
  5
279
100
AcDbEntity
  8
0
100
AcDbLine
 62
7
  6
CONTINUOUS
 10
0.010000007
 20
-3.3249999999
 11
-0.010000007
 21
-3.3249999999
  0
LINE
  5
27A
100
AcDbEntity
  8
0
100
AcDbLine
 62
7
  6
CONTINUOUS
 10
-0.0100003409
 20
-3.3249999999
 11
-0.0299864759
 21
-3.3246061039
  0
LINE
  5
27B
100
AcDbEntity
  8
0
100
AcDbLine
 62
7
  6
CONTINUOUS
 10
-0.010000007
 20
-3.325
 11
-0.0288430407
 21
-3.3243762822
  0
LINE
  5
27C
100
AcDbEntity
  8
0
100
AcDbLine
 62
7
  6
CONTINUOUS
 10
-0.0288430407
 20
-3.3243762822
 11
-0.0480190965
 21
-3.3224886983
  0
LWPOLYLINE
  5
27D
100
AcDbEntity
  8
0
100
AcDbPolyline
 62
7
  6
CONTINUOUS
 90
13
 70
0
 10
-0.0299864759
 20
-3.3246061039
 10
-0.0504277719
 20
-3.3224252938
 10
-0.0713242289
 20
-3.3184575692
 10
-0.0929388851
 20
-3.3127882955
 10
-0.1150087023
 20
-3.305332106
 10
-0.1367445658
 20
-3.2958329029
 10
-0.1581312408
 20
-3.2842216417
 10
-0.179183962
 20
-3.2705673643
 10
-0.1991593188
 20
-3.254821101
 10
-0.2180776953
 20
-3.236878324
 10
-0.2359187075
 20
-3.2168435573
 10
-0.2518777929
 20
-3.1949814089
 10
-0.2659276055
 20
-3.1710453724
  0
LWPOLYLINE
  5
27E
100
AcDbEntity
  8
0
100
AcDbPolyline
 62
7
  6
CONTINUOUS
 90
14
 70
0
 10
-0.0480190965
 20
-3.3224886983
 10
-0.0672171639
 20
-3.3193120615
 10
-0.0863725309
 20
-3.3147775564
 10
-0.1055820024
 20
-3.3087899926
 10
-0.124787694
 20
-3.3013036116
 10
-0.1436811427
 20
-3.2923508
 10
-0.1620486145
 20
-3.2819410106
 10
-0.1797860375
 20
-3.2701001609
 10
-0.196708857
 20
-3.2569060882
 10
-0.2127229908
 20
-3.2423742374
 10
-0.227842355
 20
-3.2264279192
 10
-0.2420392317
 20
-3.2089487729
 10
-0.2550989525
 20
-3.1899999563
 10
-0.2667157651
 20
-3.1698944503
  0
LINE
  5
27F
100
AcDbEntity
  8
0
100
AcDbLine
 62
7
  6
CONTINUOUS
 10
-2.750645
 20
-2.189788
 11
-2.764788
 21
-2.175645
  0
LINE
  5
280
100
AcDbEntity
  8
0
100
AcDbLine
 62
7
  6
CONTINUOUS
 10
-1.916259
 20
-1.327117
 11
-1.902117
 21
-1.341259
  0
LWPOLYLINE
  5
281
100
AcDbEntity
  8
0
100
AcDbPolyline
 62
7
  6
CONTINUOUS
 90
3
 70
0
 10
-2.764788
 20
-2.175645
 10
-2.7795461961
 20
-2.1597400028
 10
-2.7930662843
 20
-2.1427914512
  0
LWPOLYLINE
  5
282
100
AcDbEntity
  8
0
100
AcDbPolyline
 62
7
  6
CONTINUOUS
 90
3
 70
0
 10
-1.902117
 20
-1.341259
 10
-1.8873586787
 20
-1.3571641429
 10
-1.8738385611
 20
-1.3741127589
  0
LINE
  5
283
100
AcDbEntity
  8
0
100
AcDbLine
 62
7
  6
CONTINUOUS
 10
-2.7647881579
 20
-2.1756448421
 11
-2.781840142
 21
-2.1570450617
  0
LINE
  5
284
100
AcDbEntity
  8
0
100
AcDbLine
 62
7
  6
CONTINUOUS
 10
-1.9021168741
 20
-1.3412591259
 11
-1.8850656867
 21
-1.3598578396
  0
LWPOLYLINE
  5
285
100
AcDbEntity
  8
0
100
AcDbPolyline
 62
7
  6
CONTINUOUS
 90
6
 70
0
 10
-2.781840142
 20
-2.1570450617
 10
-2.7970545562
 20
-2.1372848099
 10
-2.8104314011
 20
-2.1163640859
 10
-2.8220574946
 20
-2.0940984018
 10
-2.8318460199
 20
-2.0706722435
 10
-2.8395365246
 20
-2.0466390703
  0
LWPOLYLINE
  5
286
100
AcDbEntity
  8
0
100
AcDbPolyline
 62
7
  6
CONTINUOUS
 90
6
 70
0
 10
-1.8850656867
 20
-1.3598578396
 10
-1.8698518438
 20
-1.3796171012
 10
-1.8564753456
 20
-1.4005369099
 10
-1.8448493431
 20
-1.4228017016
 10
-1.8350606861
 20
-1.446227039
 10
-1.8273699233
 20
-1.4702596116
  0
LWPOLYLINE
  5
287
100
AcDbEntity
  8
0
100
AcDbPolyline
 62
7
  6
CONTINUOUS
 90
6
 70
0
 10
-2.7930662843
 20
-2.1427914512
 10
-2.8052778503
 20
-2.1248876158
 10
-2.8161027753
 20
-2.1061321425
 10
-2.8254866894
 20
-2.0866023724
 10
-2.8334049645
 20
-2.0663811776
 10
-2.8398171178
 20
-2.0456019842
  0
LWPOLYLINE
  5
288
100
AcDbEntity
  8
0
100
AcDbPolyline
 62
7
  6
CONTINUOUS
 90
6
 70
0
 10
-1.8738385611
 20
-1.3741127589
 10
-1.8616270407
 20
-1.3920165585
 10
-1.850802249
 20
-1.4107718119
 10
-1.8414184841
 20
-1.4303012275
 10
-1.8335002706
 20
-1.450522146
 10
-1.8270880734
 20
-1.4713012991
  0
LWPOLYLINE
  5
289
100
AcDbEntity
  8
0
100
AcDbPolyline
 62
7
  6
CONTINUOUS
 90
13
 70
0
 10
-2.8398171178
 20
-2.0456019842
 10
-2.8450830109
 20
-2.0219819678
 10
-2.8485314774
 20
-1.996717849
 10
-2.8497594668
 20
-1.9714509149
 10
-2.8487057399
 20
-1.9462177778
 10
-2.8454315361
 20
-1.9209818249
 10
-2.8399981155
 20
-1.8962374214
 10
-2.8323291739
 20
-1.8719108074
 10
-2.8225010149
 20
-1.848075743
 10
-2.8108038106
 20
-1.825447874
 10
-2.7973342846
 20
-1.8042657499
 10
-2.7819957125
 20
-1.7842908229
 10
-2.7647880934
 20
-1.7655230934
  0
LWPOLYLINE
  5
28A
100
AcDbEntity
  8
0
100
AcDbPolyline
 62
7
  6
CONTINUOUS
 90
14
 70
0
 10
-2.8446712763
 20
-2.024431123
 10
-2.8479243205
 20
-2.0030125527
 10
-2.8495552896
 20
-1.9814473678
 10
-2.8495591047
 20
-1.9598277629
 10
-2.8479359094
 20
-1.9382608528
 10
-2.8446908037
 20
-1.9168376929
 10
-2.8398437554
 20
-1.8956595363
 10
-2.833436564
 20
-1.8748715674
 10
-2.825518369
 20
-1.8546355819
 10
-2.8161285029
 20
-1.8350849789
 10
-2.8052957469
 20
-1.8163106138
 10
-2.7930775551
 20
-1.7983932937
 10
-2.7795512175
 20
-1.7814343745
 10
-2.7647877661
 20
-1.7655227661
  0
LINE
  5
28B
100
AcDbEntity
  8
0
100
AcDbLine
 62
7
  6
CONTINUOUS
 10
-0.5008116167
 20
3.0566779144
 11
-0.5
 21
3.035
  0
LINE
  5
28C
100
AcDbEntity
  8
0
100
AcDbLine
 62
7
  6
CONTINUOUS
 10
-1.1
 20
2.5874611797
 11
-1.1
 21
3.035
  0
LWPOLYLINE
  5
28D
100
AcDbEntity
  8
0
100
AcDbPolyline
 62
7
  6
CONTINUOUS
 90
2
 70
0
 43
0.3500000006
 10
-1.035714268
 20
36.1443957367
 10
-1.035714268
 20
37.6443916626
  0
LINE
  5
28E
100
AcDbEntity
  8
0
100
AcDbLine
 62
7
  6
CONTINUOUS
 10
-0.5
 20
3.035
 11
-0.5
 21
2.5874609963
  0
LINE
  5
28F
100
AcDbEntity
  8
0
100
AcDbLine
 62
7
  6
CONTINUOUS
 10
-0.3
 20
-3.035
 11
-0.3
 21
-2.415
  0
LINE
  5
290
100
AcDbEntity
  8
0
100
AcDbLine
 62
7
  6
CONTINUOUS
 10
0.3
 20
-2.415
 11
0.3
 21
-3.035001115
  0
LWPOLYLINE
  5
291
100
AcDbEntity
  8
0
100
AcDbPolyline
 62
7
  6
CONTINUOUS
 90
7
 70
0
 10
-0.4999996214
 20
2.5874609964
 10
-0.5007991871
 20
2.5418862368
 10
-0.5031941141
 20
2.4963902148
 10
-0.5071787558
 20
2.4510281245
 10
-0.5127450471
 20
2.4058707421
 10
-0.5198847776
 20
2.360957055
 10
-0.5285956914
 20
2.3162951287
  0
LWPOLYLINE
  5
292
100
AcDbEntity
  8
0
100
AcDbPolyline
 62
7
  6
CONTINUOUS
 90
13
 70
0
 10
-0.5
 20
2.5874609963
 10
-0.5033243786
 20
2.4956728102
 10
-0.5128704094
 20
2.4052179373
 10
-0.5286380922
 20
2.3160963879
 10
-0.5507655935
 20
2.2278867817
 10
-0.5791147459
 20
2.1410105172
 10
-0.6132710477
 20
2.0567317772
 10
-0.653318438
 20
1.9750882029
 10
-0.6991729755
 20
1.8960421765
 10
-0.7501683381
 20
1.8207449988
 10
-0.8060824174
 20
1.7495804457
 10
-0.8671373182
 20
1.6821647649
 10
-1.0112374172
 20
1.5430122363
  0
LWPOLYLINE
  5
293
100
AcDbEntity
  8
0
100
AcDbPolyline
 62
7
  6
CONTINUOUS
 90
21
 70
0
 10
-1.1
 20
3.035
 10
-1.0991854728
 20
3.0566800539
 10
-1.0967550685
 20
3.0782221478
 10
-1.0927284446
 20
3.0995148667
 10
-1.0871307735
 20
3.1204300614
 10
-1.0799820876
 20
3.1408760705
 10
-1.071304967
 20
3.160777173
 10
-1.0611409154
 20
3.1800067286
 10
-1.0495783222
 20
3.1984055469
 10
-1.0367110745
 20
3.2158387689
 10
-1.0226058408
 20
3.2322275313
 10
-1.0073242187
 20
3.2475187142
 10
-0.9909352482
 20
3.2616383271
 10
-0.9734962064
 20
3.2745101717
 10
-0.9550898182
 20
3.2860668483
 10
-0.9358528107
 20
3.2962362372
 10
-0.9159368109
 20
3.3049423428
 10
-0.8954661185
 20
3.3121224379
 10
-0.8745294225
 20
3.3177345673
 10
-0.8532251351
 20
3.3217622328
 10
-0.8316780763
 20
3.3241883669
  0
LWPOLYLINE
  5
294
100
AcDbEntity
  8
0
100
AcDbPolyline
 62
7
  6
CONTINUOUS
 90
8
 70
0
 10
-0.3
 20
-2.415
 10
-0.2990872011
 20
-2.3920530691
 10
-0.2963590512
 20
-2.3692314472
 10
-0.2918308734
 20
-2.3466696826
 10
-0.285500775
 20
-2.3244493379
 10
-0.2774016292
 20
-2.3027645315
 10
-0.2676621089
 20
-2.2819211027
 10
-0.2564055583
 20
-2.2620875892
  0
LWPOLYLINE
  5
295
100
AcDbEntity
  8
0
100
AcDbPolyline
 62
7
  6
CONTINUOUS
 90
15
 70
0
 10
-0.3
 20
-2.4149967308
 10
-0.2984253824
 20
-2.3870993817
 10
-0.2946170249
 20
-2.3602361772
 10
-0.2885749275
 20
-2.3344071187
 10
-0.2800543293
 20
-2.3093976083
 10
-0.2692999911
 20
-2.2854222459
 10
-0.2570461952
 20
-2.2631248298
 10
-0.2432697541
 20
-2.2426684716
 10
-0.2279938553
 20
-2.2238900628
 10
-0.2120223446
 20
-2.206944072
 10
-0.1954577807
 20
-2.1919602276
 10
-0.1781976049
 20
-2.1788088037
 10
-0.1607379868
 20
-2.1672550883
 10
-0.1430921406
 20
-2.1573023337
 10
-0.1252468521
 20
-2.148947289
  0
LWPOLYLINE
  5
296
100
AcDbEntity
  8
0
100
AcDbPolyline
 62
7
  6
CONTINUOUS
 90
3
 70
0
 10
-1.102544688
 20
2.531628777
 10
-1.1006447871
 20
2.5594726924
 10
-1.1
 20
2.5874611797
  0
LWPOLYLINE
  5
297
100
AcDbEntity
  8
0
100
AcDbPolyline
 62
7
  6
CONTINUOUS
 90
23
 70
0
 10
-1.099354893
 20
3.0540931655
 10
-1.0974968109
 20
3.0729460752
 10
-1.0944257534
 20
3.0915587293
 10
-1.0901195462
 20
3.1100080374
 10
-1.0846003636
 20
3.1282170905
 10
-1.0779347294
 20
3.1459551605
 10
-1.0701042535
 20
3.163219535
 10
-1.0611273258
 20
3.1800129273
 10
-1.0511256404
 20
3.196112749
 10
-1.0400901506
 20
3.2115051224
 10
-1.0280299029
 20
3.2262039263
 10
-1.0150937308
 20
3.2400282071
 10
-1.0012704465
 20
3.2529680533
 10
-0.9865712376
 20
3.2650333777
 10
-0.9711785007
 20
3.2760729624
 10
-0.955079328
 20
3.2860750351
 10
-0.9382866271
 20
3.2950513693
 10
-0.921021518
 20
3.3028860667
 10
-0.9032818532
 20
3.3095659799
 10
-0.88506978
 20
3.3151042572
 10
-0.8666128606
 20
3.3194244432
 10
-0.8479869491
 20
3.3225010529
 10
-0.8291161913
 20
3.3243595719
  0
LWPOLYLINE
  5
298
100
AcDbEntity
  8
0
100
AcDbPolyline
 62
7
  6
CONTINUOUS
 90
23
 70
0
 10
0.5006451278
 20
3.054093353
 10
0.5025032405
 20
3.0729464185
 10
0.5055743381
 20
3.0915591967
 10
0.5098806001
 20
3.1100085953
 10
0.5153998469
 20
3.128217707
 10
0.5220655398
 20
3.1459558093
 10
0.5298960648
 20
3.1632201863
 10
0.5388730359
 20
3.1800135547
 10
0.5488747555
 20
3.1961133417
 10
0.5599102672
 20
3.2115056707
 10
0.5719705275
 20
3.2262044193
 10
0.5849067082
 20
3.2400286463
 10
0.5987299957
 20
3.2529684428
 10
0.6134292037
 20
3.2650337188
 10
0.6288219451
 20
3.276073261
 10
0.6449211264
 20
3.2860752991
 10
0.661713841
 20
3.2950516045
 10
0.6789789833
 20
3.3028862758
 10
0.6967187042
 20
3.3095661688
 10
0.7149308526
 20
3.3151044285
 10
0.7333878696
 20
3.319424588
 10
0.7520139022
 20
3.3225011583
 10
0.7708848033
 20
3.324359629
  0
LWPOLYLINE
  5
299
100
AcDbEntity
  8
0
100
AcDbPolyline
 62
7
  6
CONTINUOUS
 90
7
 70
0
 10
-0.5285956914
 20
2.3162951287
 10
-0.5388764952
 20
2.2719162981
 10
-0.5507137904
 20
2.2279007521
 10
-0.5640857199
 20
2.1843291141
 10
-0.5789720951
 20
2.1412640943
 10
-0.5953584974
 20
2.0987494139
 10
-0.6132248809
 20
2.05683502
  0
LWPOLYLINE
  5
29A
100
AcDbEntity
  8
0
100
AcDbPolyline
 62
7
  6
CONTINUOUS
 90
4
 70
0
 10
-1.1217383324
 20
2.4216806092
 10
-1.1152845812
 20
2.448883689
 10
-1.1099069108
 20
2.4763207108
 10
-1.105647747
 20
2.5039167396
  0
LWPOLYLINE
  5
29B
100
AcDbEntity
  8
0
100
AcDbPolyline
 62
7
  6
CONTINUOUS
 90
18
 70
0
 10
-1.2998714119
 20
1.0949764305
 10
-1.335683134
 20
0.9943984713
 10
-1.3638370192
 20
0.890939947
 10
-1.3839536803
 20
0.786108425
 10
-1.3959355314
 20
0.679663644
 10
-1.399880161
 20
0.571845871
 10
-1.3957009422
 20
0.4648834714
 10
-1.383264316
 20
0.3590459853
 10
-1.36270384
 20
0.2540638839
 10
-1.3343335609
 20
0.1513569323
 10
-1.2979589371
 20
0.0507058883
 10
-1.2537745055
 20
-0.0476699955
 10
-1.2026779309
 20
-0.1416932109
 10
-1.1446674069
 20
-0.2310398443
 10
-1.0797447343
 20
-0.3160338024
 10
-1.0088129887
 20
-0.3955693079
 10
-0.9315978826
 20
-0.4697904752
 10
-0.848373699
 20
-0.5385531879
  0
LWPOLYLINE
  5
29C
100
AcDbEntity
  8
0
100
AcDbPolyline
 62
7
  6
CONTINUOUS
 90
19
 70
0
 10
-1.297209635
 20
1.1015727237
 10
-1.3333333826
 20
1.0020357676
 10
-1.3617800597
 20
0.9000620944
 10
-1.3824343288
 20
0.7958900809
 10
-1.3951785208
 20
0.6900254758
 10
-1.3999261945
 20
0.5834957781
 10
-1.3966252164
 20
0.477392948
 10
-1.3853321656
 20
0.3724921679
 10
-1.3661688367
 20
0.26898916
 10
-1.3391944925
 20
0.166967606
 10
-1.3045124806
 20
0.0669205182
 10
-1.2622023043
 20
-0.0306497501
 10
-1.2121637958
 20
-0.1255189746
 10
-1.1542789003
 20
-0.2173179863
 10
-1.0887470956
 20
-0.3051503556
 10
-1.0160712385
 20
-0.3879801414
 10
-0.9370658974
 20
-0.4649936828
 10
-0.8526826309
 20
-0.5353801697
 10
-0.7608663708
 20
-0.6003193248
  0
LINE
  5
29D
100
AcDbEntity
  8
0
100
AcDbLine
 62
7
  6
CONTINUOUS
 10
-1.2535227555
 20
1.1983641434
 11
-1.2998714119
 21
1.0949764305
  0
LWPOLYLINE
  5
29E
100
AcDbEntity
  8
0
100
AcDbPolyline
 62
7
  6
CONTINUOUS
 90
7
 70
0
 10
-0.6132248809
 20
2.05683502
 10
-0.6325487154
 20
2.0155714447
 10
-0.6533068492
 20
1.9750104824
 10
-0.6754743781
 20
1.9352022283
 10
-0.6990228282
 20
1.8961949126
 10
-0.7239233838
 20
1.8580365328
 10
-0.7501466732
 20
1.8207746637
  0
LINE
  5
29F
100
AcDbEntity
  8
0
100
AcDbLine
 62
7
  6
CONTINUOUS
 10
-1.202553496
 20
1.2917704647
 11
-1.2562176503
 21
1.1927801679
  0
LINE
  5
2A0
100
AcDbEntity
  8
0
100
AcDbLine
 62
7
  6
CONTINUOUS
 10
-1.1446765692
 20
1.3810432245
 11
-1.2049060464
 21
1.287703341
  0
LWPOLYLINE
  5
2A1
100
AcDbEntity
  8
0
100
AcDbPolyline
 62
7
  6
CONTINUOUS
 90
7
 70
0
 10
-0.7501615315
 20
1.8207550492
 10
-0.7776597451
 20
1.784454421
 10
-0.8064281872
 20
1.7491200996
 10
-0.8364174529
 20
1.7148159921
 10
-0.8675908707
 20
1.6815843723
 10
-0.8999092072
 20
1.6494651075
 10
-0.933333038
 20
1.6184979661
  0
LINE
  5
2A2
100
AcDbEntity
  8
0
100
AcDbLine
 62
7
  6
CONTINUOUS
 10
-1.0802573531
 20
1.4655379911
 11
-1.146868587
 21
1.3779193609
  0
LINE
  5
2A3
100
AcDbEntity
  8
0
100
AcDbLine
 62
7
  6
CONTINUOUS
 10
-1.0096717866
 20
1.5448254692
 11
-1.0824159326
 21
1.4628193697
  0
LINE
  5
2A4
100
AcDbEntity
  8
0
100
AcDbLine
 62
7
  6
CONTINUOUS
 10
-2.7647877661
 20
-1.7655227661
 11
-2.3263807661
 21
-1.3271167661
  0
LINE
  5
2A5
100
AcDbEntity
  8
0
100
AcDbLine
 62
253
  6
CONTINUOUS
 10
-22.2016585166
 20
-21.5266932819
 11
-22.287406726
 21
-21.6124414913
  0
LINE
  5
2A6
100
AcDbEntity
  8
0
100
AcDbLine
 62
253
  6
CONTINUOUS
 10
21.7023437669
 20
22.026008067
 11
21.7880919586
 21
22.1117562587
  0
LINE
  5
2A7
100
AcDbEntity
  8
0
100
AcDbLine
 62
7
  6
CONTINUOUS
 10
-1.9021167661
 20
-1.7513807661
 11
-2.3405229141
 21
-2.1897879141
  0
LINE
  5
2A8
100
AcDbEntity
  8
0
100
AcDbLine
 62
253
  6
CONTINUOUS
 10
-21.7023437504
 20
-22.0260080504
 11
-21.7880919586
 21
-22.1117562587
  0
LWPOLYLINE
  5
2A9
100
AcDbEntity
  8
0
100
AcDbPolyline
 62
7
  6
CONTINUOUS
 90
8
 70
0
 10
-2.3263807661
 20
-1.3271167661
 10
-2.3104756167
 20
-1.3123584698
 10
-2.2935270893
 20
-1.2988384445
 10
-2.2756234799
 20
-1.2866270605
 10
-2.2568685908
 20
-1.2758024599
 10
-2.2373396528
 20
-1.266418869
 10
-2.217119108
 20
-1.2585007137
 10
-2.1963400963
 20
-1.2520884534
  0
LWPOLYLINE
  5
2AA
100
AcDbEntity
  8
0
100
AcDbPolyline
 62
7
  6
CONTINUOUS
 90
8
 70
0
 10
-2.3405227661
 20
-2.1897877661
 10
-2.3564273617
 20
-2.2045456518
 10
-2.3733754898
 20
-2.2180655081
 10
-2.3912789019
 20
-2.2302769239
 10
-2.41003397
 20
-2.2411017803
 10
-2.4295633755
 20
-2.2504857071
 10
-2.4497842691
 20
-2.2584040675
 10
-2.4705632135
 20
-2.2648163606
  0
LWPOLYLINE
  5
2AB
100
AcDbEntity
  8
0
100
AcDbPolyline
 62
7
  6
CONTINUOUS
 90
7
 70
0
 10
-2.3263806392
 20
-1.3271166392
 10
-2.3077820811
 20
-1.3100655926
 10
-2.2880229443
 20
-1.2948518535
 10
-2.2671032285
 20
-1.2814754228
 10
-2.2448384927
 20
-1.2698494417
 10
-2.2214131771
 20
-1.2600607702
 10
-2.1973806034
 20
-1.2523699871
  0
LWPOLYLINE
  5
2AC
100
AcDbEntity
  8
0
100
AcDbPolyline
 62
7
  6
CONTINUOUS
 90
7
 70
0
 10
-2.3405229141
 20
-2.1897879141
 10
-2.3591231496
 20
-2.2068402763
 10
-2.3788838161
 20
-2.2220549663
 10
-2.399804913
 20
-2.2354319852
 10
-2.4220709306
 20
-2.2470581336
 10
-2.4454973777
 20
-2.2568466127
 10
-2.4695307824
 20
-2.2645370251
  0
LWPOLYLINE
  5
2AD
100
AcDbEntity
  8
0
100
AcDbPolyline
 62
7
  6
CONTINUOUS
 90
11
 70
0
 10
-2.8134294586
 20
0.3349660881
 10
-2.8288219903
 20
0.323926719
 10
-2.8449209162
 20
0.3139248252
 10
-2.8617133426
 20
0.3049486437
 10
-2.878978225
 20
0.2971140494
 10
-2.8967177033
 20
0.2904341694
 10
-2.9149296372
 20
0.2848958763
 10
-2.9333865621
 20
0.2805756637
 10
-2.9520126562
 20
0.277499029
 10
-2.9708837411
 20
0.2756404745
 10
-2.9899998167
 20
0.275
  0
LWPOLYLINE
  5
2AE
100
AcDbEntity
  8
0
100
AcDbPolyline
 62
7
  6
CONTINUOUS
 90
3
 70
0
 10
-0.0888858231
 20
-2.1359238928
 10
-0.0693405179
 20
-2.1311225893
 10
-0.0495943747
 20
-2.1277220697
  0
LINE
  5
2AF
100
AcDbEntity
  8
0
100
AcDbLine
 62
7
  6
CONTINUOUS
 10
0.2663609045
 20
-0.7992430069
 11
0.3718624108
 21
-0.7744559239
  0
LWPOLYLINE
  5
2B0
100
AcDbEntity
  8
0
100
AcDbPolyline
 62
7
  6
CONTINUOUS
 90
13
 70
0
 10
2.0463012559
 20
-1.2520880857
 10
2.069913954
 20
-1.2468235151
 10
2.0951780154
 20
-1.2433742986
 10
2.1204449814
 20
-1.242145559
 10
2.145677749
 20
-1.2431983408
 10
2.1709134212
 20
-1.2464715991
 10
2.1956588756
 20
-1.2519048344
 10
2.2199893809
 20
-1.2595751496
 10
2.2438296687
 20
-1.2694054406
 10
2.2664608119
 20
-1.2811038977
 10
2.2876431684
 20
-1.2945732507
 10
2.3076163811
 20
-1.3099107685
 10
2.3263804504
 20
-1.3271164504
  0
LWPOLYLINE
  5
2B1
100
AcDbEntity
  8
0
100
AcDbPolyline
 62
7
  6
CONTINUOUS
 90
13
 70
0
 10
-2.1963400963
 20
-1.2520884534
 10
-2.1727237446
 20
-1.2468230911
 10
-2.1474596272
 20
-1.2433740847
 10
-2.1221926541
 20
-1.2421455529
 10
-2.0969599083
 20
-1.2431985406
 10
-2.0717243067
 20
-1.2464720034
 10
-2.0469790029
 20
-1.2519053926
 10
-2.0226487686
 20
-1.2595757983
 10
-1.9988088324
 20
-1.2694061302
 10
-1.9761780341
 20
-1.2811045678
 10
-1.954995987
 20
-1.2945738374
 10
-1.9350230787
 20
-1.3099112119
 10
-1.9162593093
 20
-1.3271166907
  0
LWPOLYLINE
  5
2B2
100
AcDbEntity
  8
0
100
AcDbPolyline
 62
7
  6
CONTINUOUS
 90
13
 70
0
 10
-2.4705632135
 20
-2.2648163606
 10
-2.4941880528
 20
-2.2700833775
 10
-2.5194522801
 20
-2.2735316648
 10
-2.5447192666
 20
-2.2747594709
 10
-2.5699524273
 20
-2.2737055444
 10
-2.5951883471
 20
-2.2704311375
 10
-2.6199325843
 20
-2.2649975898
 10
-2.6442588117
 20
-2.2573286321
 10
-2.6680933568
 20
-2.2475005332
 10
-2.6907207602
 20
-2.23580344
 10
-2.7119025358
 20
-2.2223340675
 10
-2.7318771707
 20
-2.2069956994
 10
-2.7506446653
 20
-2.1897883347
  0
LINE
  5
2B3
100
AcDbEntity
  8
0
100
AcDbLine
 62
7
  6
CONTINUOUS
 10
0.1601765659
 20
-0.8158371613
 11
0.2680450915
 21
-0.7991184551
  0
LWPOLYLINE
  5
2B4
100
AcDbEntity
  8
0
100
AcDbPolyline
 62
7
  6
CONTINUOUS
 90
14
 70
0
 10
-2.4917338946
 20
-2.269670706
 10
-2.5131524068
 20
-2.2729239739
 10
-2.5347176802
 20
-2.2745551757
 10
-2.5563374806
 20
-2.2745592054
 10
-2.5779046365
 20
-2.2729361928
 10
-2.5993280834
 20
-2.2696912302
 10
-2.6205065749
 20
-2.2648442699
 10
-2.6412948879
 20
-2.2584371115
 10
-2.6615312458
 20
-2.2505188829
 10
-2.6810822286
 20
-2.2411289196
 10
-2.6998568852
 20
-2.2302960559
 10
-2.7177743792
 20
-2.21807779
 10
-2.7347333867
 20
-2.2045514199
 10
-2.750645
 20
-2.189788
  0
LWPOLYLINE
  5
2B5
100
AcDbEntity
  8
0
100
AcDbPolyline
 62
7
  6
CONTINUOUS
 90
14
 70
0
 10
2.0674722604
 20
-1.2472338405
 10
2.0888908028
 20
-1.243980753
 10
2.1104555189
 20
-1.2423497537
 10
2.1320744746
 20
-1.2423458306
 10
2.1536409982
 20
-1.2439688481
 10
2.1750643108
 20
-1.2472138167
 10
2.1962428733
 20
-1.2520608171
 10
2.2170311013
 20
-1.2584679697
 10
2.2372669646
 20
-1.2663859977
 10
2.2568173309
 20
-1.275775605
 10
2.2755916795
 20
-1.2866081817
 10
2.2935092761
 20
-1.2988263905
 10
2.3104686211
 20
-1.3123529189
 10
2.3263807661
 20
-1.3271167661
  0
LWPOLYLINE
  5
2B6
100
AcDbEntity
  8
0
100
AcDbPolyline
 62
7
  6
CONTINUOUS
 90
14
 70
0
 10
-2.1751691829
 20
-1.2472341183
 10
-2.1537506642
 20
-1.2439809208
 10
-2.1321859028
 20
-1.2423498085
 10
-2.1105668433
 20
-1.2423457822
 10
-2.0890001781
 20
-1.2439687147
 10
-2.0675766815
 20
-1.2472136247
 10
-2.0463978959
 20
-1.2520606046
 10
-2.0256094423
 20
-1.258467774
 10
-2.0053733386
 20
-1.2663858634
 10
-1.9858227272
 20
-1.275775576
 10
-1.9670481966
 20
-1.286608264
 10
-1.9491305023
 20
-1.2988265588
 10
-1.9321711211
 20
-1.3123531429
 10
-1.916259
 20
-1.327117
  0
LWPOLYLINE
  5
2B7
100
AcDbEntity
  8
0
100
AcDbPolyline
 62
7
  6
CONTINUOUS
 90
3
 70
0
 10
-0.0495943747
 20
-2.1277220697
 10
-0.0297040084
 20
-2.1256810337
 10
-0.0099999955
 20
-2.125
  0
LINE
  5
2B8
100
AcDbEntity
  8
0
100
AcDbLine
 62
7
  6
CONTINUOUS
 10
3.6316795941
 20
0.2758117427
 11
3.6099997786
 21
0.275
  0
LINE
  5
2B9
100
AcDbEntity
  8
0
100
AcDbLine
 62
7
  6
CONTINUOUS
 10
-0.0099999955
 20
-2.1249999999
 11
0.0099999955
 21
-2.1249999999
  0
LWPOLYLINE
  5
2BA
100
AcDbEntity
  8
0
100
AcDbPolyline
 62
7
  6
CONTINUOUS
 90
2
 70
0
 43
0.3500000006
 10
34.3665993576
 20
-1.0357139511
 10
32.8665988998
 20
-1.0357139511
  0
LINE
  5
2BB
100
AcDbEntity
  8
0
100
AcDbLine
 62
7
  6
CONTINUOUS
 10
-2.9899998167
 20
0.275
 11
-3.6099997797
 21
0.2749997743
  0
LINE
  5
2BC
100
AcDbEntity
  8
0
100
AcDbLine
 62
7
  6
CONTINUOUS
 10
3.6099997786
 20
0.275
 11
2.9899998174
 21
0.2750002077
  0
LINE
  5
2BD
100
AcDbEntity
  8
0
100
AcDbLine
 62
7
  6
CONTINUOUS
 10
0.010000898
 20
-2.1249999999
 11
0.0299907759
 21
-2.1254094658
  0
LINE
  5
2BE
100
AcDbEntity
  8
0
100
AcDbLine
 62
7
  6
CONTINUOUS
 10
0.0099999955
 20
-2.125
 11
0.0296407621
 21
-2.1256772249
  0
LWPOLYLINE
  5
2BF
100
AcDbEntity
  8
0
100
AcDbPolyline
 62
7
  6
CONTINUOUS
 90
21
 70
0
 10
-3.6099997797
 20
0.2749997743
 10
-3.6316818539
 20
0.275814662
 10
-3.6532252966
 20
0.2782454051
 10
-3.6745186859
 20
0.2822724251
 10
-3.6954336763
 20
0.28787034
 10
-3.7158788577
 20
0.2950190057
 10
-3.7357791563
 20
0.3036959878
 10
-3.7550081646
 20
0.313859914
 10
-3.7734064606
 20
0.3254223009
 10
-3.790839109
 20
0.3382891967
 10
-3.8072271834
 20
0.3523938363
 10
-3.8225176887
 20
0.3676746777
 10
-3.8366368207
 20
0.384062865
 10
-3.8495084018
 20
0.401501195
 10
-3.8610649738
 20
0.4199069306
 10
-3.8712344297
 20
0.4391434371
 10
-3.87994071
 20
0.4590590385
 10
-3.8871210943
 20
0.4795295336
 10
-3.8927336501
 20
0.5004665608
 10
-3.8967617756
 20
0.5217718333
 10
-3.8991882548
 20
0.5433204313
  0
LWPOLYLINE
  5
2C0
100
AcDbEntity
  8
0
100
AcDbPolyline
 62
7
  6
CONTINUOUS
 90
23
 70
0
 10
-3.6290930931
 20
0.2756449829
 10
-3.6479461273
 20
0.2775031502
 10
-3.6665588823
 20
0.2805742757
 10
-3.6850082664
 20
0.2848805296
 10
-3.7032173716
 20
0.2903997413
 10
-3.7209554732
 20
0.2970654004
 10
-3.7382198552
 20
0.3048959023
 10
-3.7550132341
 20
0.3138728512
 10
-3.7711130335
 20
0.3238745497
 10
-3.786505376
 20
0.3349100416
 10
-3.8012041397
 20
0.3469702829
 10
-3.8150283822
 20
0.3599064442
 10
-3.8279681939
 20
0.3737297118
 10
-3.840033485
 20
0.3884288993
 10
-3.8510730432
 20
0.4038216191
 10
-3.8610750978
 20
0.4199207775
 10
-3.87005142
 20
0.4367134681
 10
-3.8778861101
 20
0.4539785845
 10
-3.8845660237
 20
0.4717182771
 10
-3.8901043057
 20
0.4899303956
 10
-3.8944244907
 20
0.5083873828
 10
-3.8975010905
 20
0.5270133863
 10
-3.8993595936
 20
0.5458842586
  0
LINE
  5
2C1
100
AcDbEntity
  8
0
100
AcDbLine
 62
7
  6
CONTINUOUS
 10
0.0296407621
 20
-2.1256772249
 11
0.0500819674
 21
-2.1277898764
  0
LINE
  5
2C2
100
AcDbEntity
  8
0
100
AcDbLine
 62
7
  6
CONTINUOUS
 10
0.0500819674
 20
-2.1277898764
 11
0.0703950695
 21
-2.1313643402
  0
LWPOLYLINE
  5
2C3
100
AcDbEntity
  8
0
100
AcDbPolyline
 62
7
  6
CONTINUOUS
 90
4
 70
0
 10
0.0504013996
 20
-2.1275837132
 10
0.0712327691
 20
-2.1315227418
 10
0.0927079076
 20
-2.137120833
 10
0.1146037918
 20
-2.1444837046
  0
LWPOLYLINE
  5
2C4
100
AcDbEntity
  8
0
100
AcDbPolyline
 62
7
  6
CONTINUOUS
 90
6
 70
0
 10
-0.3718628339
 20
-0.7746681795
 10
-0.2662448032
 20
-0.7994603194
 10
-0.1594411364
 20
-0.8158949993
 10
-0.0523489769
 20
-0.8240159528
 10
0.0546752639
 20
-0.8239419897
 10
0.1615495098
 20
-0.815678496
  0
LINE
  5
2C5
100
AcDbEntity
  8
0
100
AcDbLine
 62
7
  6
CONTINUOUS
 10
0.0709502303
 20
-2.131462031
 11
0.0922433368
 21
-2.1368967425
  0
LINE
  5
2C6
100
AcDbEntity
  8
0
100
AcDbLine
 62
7
  6
CONTINUOUS
 10
-0.4743714506
 20
-0.74210017
 11
-0.3718877744
 21
-0.7744452769
  0
LINE
  5
2C7
100
AcDbEntity
  8
0
100
AcDbLine
 62
7
  6
CONTINUOUS
 10
-0.5753208817
 20
-0.7013019786
 11
-0.4752302554
 21
-0.7417906005
  0
LWPOLYLINE
  5
2C8
100
AcDbEntity
  8
0
100
AcDbPolyline
 62
7
  6
CONTINUOUS
 90
3
 70
0
 10
0.1140139183
 20
-2.1443066915
 10
0.1358775547
 20
-2.1537483601
 10
0.1572833834
 20
-2.1651863253
  0
LWPOLYLINE
  5
2C9
100
AcDbEntity
  8
0
100
AcDbPolyline
 62
7
  6
CONTINUOUS
 90
8
 70
0
 10
-2.8790446706
 20
0.8529346594
 10
-2.8617802598
 20
0.8451041546
 10
-2.844986858
 20
0.8361272005
 10
-2.8288870447
 20
0.8261255032
 10
-2.8134947015
 20
0.81509002
 10
-2.7987959473
 20
0.8030297932
 10
-2.7849717174
 20
0.7900936555
 10
-2.7720319236
 20
0.7762704244
  0
LINE
  5
2CA
100
AcDbEntity
  8
0
100
AcDbLine
 62
7
  6
CONTINUOUS
 10
-0.6715931196
 20
-0.6534910475
 11
-0.5733564295
 21
-0.7022135159
  0
LWPOLYLINE
  5
2CB
100
AcDbEntity
  8
0
100
AcDbPolyline
 62
7
  6
CONTINUOUS
 90
12
 70
0
 10
0.136251352
 20
-2.1539285116
 10
0.1577221023
 20
-2.1655723019
 10
0.1789445285
 20
-2.1792980257
 10
0.1990350182
 20
-2.1950716918
 10
0.2179354073
 20
-2.212931997
 10
0.23570386
 20
-2.2328402416
 10
0.2516312567
 20
-2.2546463392
 10
0.2657447512
 20
-2.2786719684
 10
0.2780171899
 20
-2.3045954468
 10
0.2876579922
 20
-2.3313016477
 10
0.2944036311
 20
-2.3584188623
 10
0.2985176337
 20
-2.386318798
  0
LINE
  5
2CC
100
AcDbEntity
  8
0
100
AcDbLine
 62
7
  6
CONTINUOUS
 10
-0.7640329137
 20
-0.5982616637
 11
-0.6692529728
 21
-0.6547647072
  0
LINE
  5
2CD
100
AcDbEntity
  8
0
100
AcDbLine
 62
7
  6
CONTINUOUS
 10
-1.1197874814
 20
-1.0822117615
 11
-1.2343822265
 21
-0.9985743807
  0
LWPOLYLINE
  5
2CE
100
AcDbEntity
  8
0
100
AcDbPolyline
 62
7
  6
CONTINUOUS
 90
11
 70
0
 10
0.1779698101
 20
-2.1785997763
 10
0.1977328055
 20
-2.1939591226
 10
0.2164768612
 20
-2.2113646208
 10
0.2340231142
 20
-2.2308424615
 10
0.2500763975
 20
-2.2523268079
 10
0.2643612403
 20
-2.2757186001
 10
0.2765992763
 20
-2.3008702631
 10
0.2865151547
 20
-2.3275971912
 10
0.293864166
 20
-2.3556975774
 10
0.2984297563
 20
-2.3849236013
 10
0.3
 20
-2.415
  0
LINE
  5
2CF
100
AcDbEntity
  8
0
100
AcDbLine
 62
7
  6
CONTINUOUS
 10
-1.2326298994
 20
-1.0000482137
 11
-1.3392318475
 21
-0.9103883176
  0
LWPOLYLINE
  5
2D0
100
AcDbEntity
  8
0
100
AcDbPolyline
 62
7
  6
CONTINUOUS
 90
24
 70
0
 10
-1.3367562167
 20
-0.9126161405
 10
-1.4328885644
 20
-0.8202869574
 10
-1.5228458442
 20
-0.7215363522
 10
-1.6062050941
 20
-0.6167218414
 10
-1.6826193139
 20
-0.5061108886
 10
-1.7517535257
 20
-0.3899589628
 10
-1.813077988
 20
-0.2691053978
 10
-1.8660065509
 20
-0.1447294339
 10
-1.9101675241
 20
-0.0177872482
 10
-1.9455562367
 20
0.1113957908
 10
-1.9721793108
 20
0.2425663472
 10
-1.9899835841
 20
0.3753191676
 10
-1.9988934129
 20
0.5090443519
 10
-1.9988367034
 20
0.6431904499
 10
-1.9897514807
 20
0.7771743018
 10
-1.9716793121
 20
0.9103489374
 10
-1.944697477
 20
1.0420663521
 10
-1.908900917
 20
1.1717125989
 10
-1.8644645546
 20
1.298698847
 10
-1.8115973153
 20
1.4224162297
 10
-1.7505194576
 20
1.5422926111
 10
-1.681525445
 20
1.6577947284
 10
-1.6049458453
 20
1.7683767172
 10
-1.5211210963
 20
1.8735231955
  0
LWPOLYLINE
  5
2D1
100
AcDbEntity
  8
0
100
AcDbPolyline
 62
7
  6
CONTINUOUS
 90
23
 70
0
 10
-1.3392318475
 20
-0.9103883176
 10
-1.4398247227
 20
-0.8128726843
 10
-1.5341771349
 20
-0.7078606977
 10
-1.6204648838
 20
-0.5972565664
 10
-1.6983493687
 20
-0.4812046648
 10
-1.7681692032
 20
-0.3595606246
 10
-1.8291160107
 20
-0.2337955455
 10
-1.8811747828
 20
-0.1036032729
 10
-1.9243605402
 20
0.0307100222
 10
-1.9579099497
 20
0.1667547488
 10
-1.9816015565
 20
0.3042931285
 10
-1.9956568232
 20
0.4435629176
 10
-1.9999767914
 20
0.5828878288
 10
-1.9944334665
 20
0.7224820471
 10
-1.9791548431
 20
0.8621313659
 10
-1.9544259446
 20
0.9995169165
 10
-1.9201428002
 20
1.134418378
 10
-1.8764093731
 20
1.2670560607
 10
-1.8238225872
 20
1.3957720535
 10
-1.7622199923
 20
1.5206316893
 10
-1.6917640262
 20
1.6415696377
 10
-1.613538945
 20
1.7567320034
 10
-1.5279061636
 20
1.8655008306
  0
LINE
  5
2D2
100
AcDbEntity
  8
0
100
AcDbLine
 62
253
  6
CONTINUOUS
 10
-22.287406726
 20
21.6124414913
 11
-22.2016585167
 21
21.526693282
  0
LINE
  5
2D3
100
AcDbEntity
  8
0
100
AcDbLine
 62
253
  6
CONTINUOUS
 10
21.7880919586
 20
-22.1117562587
 11
21.7023437668
 21
-22.0260080669
  0
LINE
  5
2D4
100
AcDbEntity
  8
0
100
AcDbLine
 62
7
  6
CONTINUOUS
 10
2.3405227661
 20
-2.1897877661
 11
1.9021166307
 21
-1.7513806307
  0
LINE
  5
2D5
100
AcDbEntity
  8
0
100
AcDbLine
 62
253
  6
CONTINUOUS
 10
-21.7880919586
 20
22.1117562587
 11
-21.7023437503
 21
22.0260080504
  0
LWPOLYLINE
  5
2D6
100
AcDbEntity
  8
0
100
AcDbPolyline
 62
7
  6
CONTINUOUS
 90
8
 70
0
 10
1.9021167661
 20
-1.7513807661
 10
1.8873586571
 20
-1.7354758346
 10
1.8738387164
 20
-1.7185274579
 10
1.8616273325
 20
-1.7006239129
 10
1.8508026389
 20
-1.6818689299
 10
1.8414189233
 20
-1.6623397769
 10
1.8335006997
 20
-1.6421190664
 10
1.8270884437
 20
-1.6213400578
  0
LWPOLYLINE
  5
2D7
100
AcDbEntity
  8
0
100
AcDbPolyline
 62
7
  6
CONTINUOUS
 90
7
 70
0
 10
1.9021166307
 20
-1.7513806307
 10
1.885065176
 20
-1.7327815217
 10
1.869851146
 20
-1.7130218823
 10
1.8564745413
 20
-1.6921017123
 10
1.844848522
 20
-1.6698365507
 10
1.8350599284
 20
-1.6464108573
 10
1.8273692816
 20
-1.6223780123
  0
LWPOLYLINE
  5
2D8
100
AcDbEntity
  8
0
100
AcDbPolyline
 62
7
  6
CONTINUOUS
 90
11
 70
0
 10
-2.7599666546
 20
0.7615712822
 10
-2.7489271117
 20
0.7461786083
 10
-2.7389250636
 20
0.7300794997
 10
-2.7299487421
 20
0.7132868594
 10
-2.7221140429
 20
0.6960217768
 10
-2.7154341061
 20
0.6782821032
 10
-2.7098957919
 20
0.6600699874
 10
-2.7055755765
 20
0.6416129655
 10
-2.702498952
 20
0.6229868828
 10
-2.7006404265
 20
0.6041158943
 10
-2.7
 20
0.585
  0
LWPOLYLINE
  5
2D9
100
AcDbEntity
  8
0
100
AcDbPolyline
 62
7
  6
CONTINUOUS
 90
6
 70
0
 10
-0.2667157651
 20
-3.1698944503
 10
-0.2780954913
 20
-3.1452819496
 10
-0.2876589261
 20
-3.1186952623
 10
-0.2943770684
 20
-3.0916200177
 10
-0.2984907597
 20
-3.0637215069
 10
-0.3
 20
-3.0349997286
  0
LWPOLYLINE
  5
2DA
100
AcDbEntity
  8
0
100
AcDbPolyline
 62
7
  6
CONTINUOUS
 90
4
 70
0
 10
-0.2767283619
 20
-3.1488275557
 10
-0.2850527649
 20
-3.1269036563
 10
-0.2915688035
 20
-3.1043976804
 10
-0.2962386056
 20
-3.0815035453
  0
LWPOLYLINE
  5
2DB
100
AcDbEntity
  8
0
100
AcDbPolyline
 62
7
  6
CONTINUOUS
 90
13
 70
0
 10
-1.8270880734
 20
-1.4713012991
 10
-1.821823045
 20
-1.4949164339
 10
-1.8183740613
 20
-1.5201804902
 10
-1.8171455513
 20
-1.5454474258
 10
-1.8181986247
 20
-1.5706803011
 10
-1.8214721717
 20
-1.5959160552
 10
-1.8269054413
 20
-1.6206611525
 10
-1.834575267
 20
-1.6449903567
 10
-1.8444048148
 20
-1.6688289042
 10
-1.8561028325
 20
-1.6914589692
 10
-1.8695722358
 20
-1.7126412771
 10
-1.8849101084
 20
-1.7326151038
 10
-1.9021164497
 20
-1.7513804497
  0
LWPOLYLINE
  5
2DC
100
AcDbEntity
  8
0
100
AcDbPolyline
 62
7
  6
CONTINUOUS
 90
14
 70
0
 10
-1.8222338461
 20
-1.4924722301
 10
-1.8189807559
 20
-1.5138907773
 10
-1.8173497469
 20
-1.5354556894
 10
-1.8173458469
 20
-1.5570749242
 10
-1.8189689184
 20
-1.578641621
 10
-1.8222139265
 20
-1.6000648854
 10
-1.827060932
 20
-1.6212432976
 10
-1.8334680876
 20
-1.6420314354
 10
-1.8413861726
 20
-1.6622673651
 10
-1.850775875
 20
-1.6818178426
 10
-1.8616085114
 20
-1.7005922049
 10
-1.8738266934
 20
-1.7185096872
 10
-1.8873531167
 20
-1.7354688514
 10
-1.9021167661
 20
-1.7513807661
  0
LWPOLYLINE
  5
2DD
100
AcDbEntity
  8
0
100
AcDbPolyline
 62
7
  6
CONTINUOUS
 90
3
 70
0
 10
-0.2962386056
 20
-3.0815035453
 10
-0.2990560956
 20
-3.0583220497
 10
-0.3
 20
-3.035
  0
LINE
  5
2DE
100
AcDbEntity
  8
0
100
AcDbLine
 62
7
  6
CONTINUOUS
 10
2.701602323
 20
0.5345552751
 11
2.7
 21
0.565
  0
LWPOLYLINE
  5
2DF
100
AcDbEntity
  8
0
100
AcDbPolyline
 62
7
  6
CONTINUOUS
 90
13
 70
0
 10
1.1
 20
2.5874611797
 10
1.1022992682
 20
2.5382532602
 10
1.1079084206
 20
2.4897450629
 10
1.116827457
 20
2.4419365906
 10
1.1291935958
 20
2.3946276818
 10
1.1448696181
 20
2.3480185025
 10
1.1634438675
 20
2.3027095465
 10
1.1848382153
 20
2.2586657851
 10
1.2091307893
 20
2.2159222532
 10
1.2361443178
 20
2.175184543
 10
1.2658197098
 20
2.1366878549
 10
1.2982160547
 20
2.1001969957
 10
1.3333333518
 20
2.0657119685
  0
LINE
  5
2E0
100
AcDbEntity
  8
0
100
AcDbLine
 62
7
  6
CONTINUOUS
 10
1.0991883997
 20
3.0566776932
 11
1.1
 21
3.035
  0
LWPOLYLINE
  5
2E1
100
AcDbEntity
  8
0
100
AcDbPolyline
 62
7
  6
CONTINUOUS
 90
3
 70
0
 10
1.1
 20
2.5874611797
 10
1.1006488579
 20
2.5593749793
 10
1.1025606108
 20
2.5314449406
  0
LINE
  5
2E2
100
AcDbEntity
  8
0
100
AcDbLine
 62
7
  6
CONTINUOUS
 10
0.5
 20
2.587461
 11
0.5
 21
3.035
  0
LINE
  5
2E3
100
AcDbEntity
  8
0
100
AcDbLine
 62
7
  6
CONTINUOUS
 10
1.1
 20
3.035
 11
1.1
 21
2.5874611797
  0
LINE
  5
2E4
100
AcDbEntity
  8
0
100
AcDbLine
 62
7
  6
CONTINUOUS
 10
2.7
 20
0.565
 11
2.7
 21
0.585
  0
LINE
  5
2E5
100
AcDbEntity
  8
0
100
AcDbLine
 62
7
  6
CONTINUOUS
 10
2.7
 20
0.585
 11
2.7006451507
 21
0.6040935966
  0
LWPOLYLINE
  5
2E6
100
AcDbEntity
  8
0
100
AcDbPolyline
 62
7
  6
CONTINUOUS
 90
21
 70
0
 10
0.5
 20
3.035
 10
0.5008145407
 20
3.0566802411
 10
0.5032449809
 20
3.0782224845
 10
0.5072716567
 20
3.0995153162
 10
0.5128693872
 20
3.1204305837
 10
0.5200181339
 20
3.1408766338
 10
0.5286953146
 20
3.1607777575
 10
0.5388594175
 20
3.1800073052
 10
0.550422046
 20
3.1984060868
 10
0.5632893212
 20
3.2158392651
 10
0.5773945739
 20
3.2322279785
 10
0.5926762048
 20
3.2475191071
 10
0.6090651873
 20
3.2616386742
 10
0.6265042427
 20
3.2745104785
 10
0.6449106422
 20
3.2860671159
 10
0.6641476749
 20
3.296236473
 10
0.6840637212
 20
3.3049425528
 10
0.7045344817
 20
3.312122623
 10
0.7254712739
 20
3.3177347257
 10
0.7467756881
 20
3.3217623564
 10
0.7683229021
 20
3.3241884401
  0
LWPOLYLINE
  5
2E7
100
AcDbEntity
  8
0
100
AcDbPolyline
 62
7
  6
CONTINUOUS
 90
19
 70
0
 10
0.3
 20
-3.035
 10
0.2985435961
 20
-3.0639803739
 10
0.2942633632
 20
-3.0923666521
 10
0.2872904724
 20
-3.1199097497
 10
0.2777488717
 20
-3.1464047074
 10
0.2658263304
 20
-3.171572803
 10
0.2518106959
 20
-3.1950813023
 10
0.2360225129
 20
-3.2167001228
 10
0.2187092189
 20
-3.2363466033
 10
0.2001202719
 20
-3.2539881603
 10
0.1804174272
 20
-3.2696437311
 10
0.1596961578
 20
-3.2833758998
 10
0.1381864624
 20
-3.2951287306
 10
0.1161268419
 20
-3.3048720684
 10
0.0940302366
 20
-3.3125655869
 10
0.0723518769
 20
-3.3182328189
 10
0.0510676897
 20
-3.322072315
 10
0.0301551181
 20
-3.3242876693
 10
0.010000007
 20
-3.325
  0
LWPOLYLINE
  5
2E8
100
AcDbEntity
  8
0
100
AcDbPolyline
 62
7
  6
CONTINUOUS
 90
15
 70
0
 10
2.7
 20
0.585
 10
2.70150285
 20
0.6144422312
 10
2.7060160439
 20
0.6437380297
 10
2.7135463361
 20
0.6725972754
 10
2.7240732853
 20
0.7006853
 10
2.7375228173
 20
0.7276681025
 10
2.7537818641
 20
0.7532282237
 10
2.7726852838
 20
0.7770273821
 10
2.794055846
 20
0.7987923576
 10
2.8176876405
 20
0.8182576147
 10
2.8434177852
 20
0.8351997355
 10
2.8709194454
 20
0.8493954642
 10
2.8997037799
 20
0.8605835393
 10
2.9293489236
 20
0.8685913872
 10
2.959554067
 20
0.8733975538
  0
LWPOLYLINE
  5
2E9
100
AcDbEntity
  8
0
100
AcDbPolyline
 62
7
  6
CONTINUOUS
 90
12
 70
0
 10
0.3
 20
-3.035001115
 10
0.2984624985
 20
-3.0626948282
 10
0.2947011291
 20
-3.0893956599
 10
0.2887158916
 20
-3.1151036115
 10
0.280267709
 20
-3.1400396777
 10
0.2695956584
 20
-3.1639828662
 10
0.2574169705
 20
-3.1862701985
 10
0.2437046308
 20
-3.206736552
 10
0.2284856538
 20
-3.2255470533
 10
0.2125583146
 20
-3.2425340981
 10
0.1960228102
 20
-3.2575665067
 10
0.1787789435
 20
-3.2707754621
  0
LWPOLYLINE
  5
2EA
100
AcDbEntity
  8
0
100
AcDbPolyline
 62
7
  6
CONTINUOUS
 90
5
 70
0
 10
2.7006451507
 20
0.6040935966
 10
2.7025033092
 20
0.6229468858
 10
2.7055744753
 20
0.6415598677
 10
2.7098808357
 20
0.6600094572
 10
2.7154002035
 20
0.6782187391
  0
LWPOLYLINE
  5
2EB
100
AcDbEntity
  8
0
100
AcDbPolyline
 62
7
  6
CONTINUOUS
 90
8
 70
0
 10
2.7220660186
 20
0.6959569676
 10
2.7298966725
 20
0.7132214212
 10
2.7388737732
 20
0.7300148213
 10
2.7488755855
 20
0.7461145866
 10
2.7599111466
 20
0.7615068273
 10
2.7719714188
 20
0.7762054334
 10
2.7849075536
 20
0.7900294925
 10
2.7987307205
 20
0.8029690881
  0
LWPOLYLINE
  5
2EC
100
AcDbEntity
  8
0
100
AcDbPolyline
 62
7
  6
CONTINUOUS
 90
15
 70
0
 10
1.0893199169
 20
-0.3044405817
 10
1.1547340636
 20
-0.2166321335
 10
1.2125257002
 20
-0.1248688704
 10
1.2624958765
 20
-0.0300531352
 10
1.3047136443
 20
0.0673817274
 10
1.3392843082
 20
0.1672269045
 10
1.3661807679
 20
0.2690641023
 10
1.3853261128
 20
0.3724840857
 10
1.3966245758
 20
0.4773774148
 10
1.3999208432
 20
0.5835086049
 10
1.3951602241
 20
0.6900780449
 10
1.3824141294
 20
0.7959754167
 10
1.3617741095
 20
0.9001457504
 10
1.333342813
 20
1.0020751108
 10
1.2972202767
 20
1.1015603802
  0
LWPOLYLINE
  5
2ED
100
AcDbEntity
  8
0
100
AcDbPolyline
 62
7
  6
CONTINUOUS
 90
9
 70
0
 10
-0.243780259
 20
-2.2433985182
 10
-0.2299906549
 20
-2.2260423815
 10
-0.215168675
 20
-2.2100467109
 10
-0.199374292
 20
-2.1953665605
 10
-0.1826351292
 20
-2.1819822991
 10
-0.1650183754
 20
-2.1699113965
 10
-0.1466665488
 20
-2.1592212939
 10
-0.1277028259
 20
-2.149969596
 10
-0.108351902
 20
-2.1421949341
  0
LWPOLYLINE
  5
2EE
100
AcDbEntity
  8
0
100
AcDbPolyline
 62
7
  6
CONTINUOUS
 90
17
 70
0
 10
1.0087244498
 20
-0.3956603101
 10
1.0797004275
 20
-0.3160707278
 10
1.1446768133
 20
-0.2310008106
 10
1.2027331687
 20
-0.141574643
 10
1.2538653261
 20
-0.0474686953
 10
1.2980774587
 20
0.0509934959
 10
1.3344616394
 20
0.1517172453
 10
1.362814353
 20
0.2544810774
 10
1.3833391194
 20
0.3595064575
 10
1.3957385647
 20
0.465363113
 10
1.3998777012
 20
0.5723194166
 10
1.3958915181
 20
0.6801069845
 10
1.3838876051
 20
0.786490412
 10
1.3637825092
 20
0.8912061655
 10
1.3356596809
 20
0.9945177733
 10
1.2998770653
 20
1.0949804286
 10
1.2535128892
 20
1.1983513324
  0
LINE
  5
2EF
100
AcDbEntity
  8
0
100
AcDbLine
 62
7
  6
CONTINUOUS
 10
1.533060896
 20
-0.7092073476
 11
1.4369902232
 21
-0.8160624828
  0
LINE
  5
2F0
100
AcDbEntity
  8
0
100
AcDbLine
 62
253
  6
CONTINUOUS
 10
22.2016585343
 20
21.5266932996
 11
22.287406726
 21
21.6124414913
  0
LINE
  5
2F1
100
AcDbEntity
  8
0
100
AcDbLine
 62
7
  6
CONTINUOUS
 10
1.902117
 20
-1.341259
 11
1.916259
 21
-1.327117
  0
LWPOLYLINE
  5
2F2
100
AcDbEntity
  8
0
100
AcDbPolyline
 62
7
  6
CONTINUOUS
 90
3
 70
0
 10
0.9377951819
 20
-0.4643295806
 10
1.0167329122
 20
-0.3872825268
 10
1.0893199169
 20
-0.3044405817
  0
LINE
  5
2F3
100
AcDbEntity
  8
0
100
AcDbLine
 62
7
  6
CONTINUOUS
 10
1.4385551443
 20
-0.8141870205
 11
1.3378151273
 21
-0.9116559548
  0
LWPOLYLINE
  5
2F4
100
AcDbEntity
  8
0
100
AcDbPolyline
 62
7
  6
CONTINUOUS
 90
3
 70
0
 10
1.916259
 20
-1.327117
 10
1.9321643344
 20
-1.3123585137
 10
1.9491130806
 20
-1.2988383228
  0
LINE
  5
2F5
100
AcDbEntity
  8
0
100
AcDbLine
 62
7
  6
CONTINUOUS
 10
1.9162591159
 20
-1.3271168841
 11
1.9348573176
 21
-1.3100660743
  0
LWPOLYLINE
  5
2F6
100
AcDbEntity
  8
0
100
AcDbPolyline
 62
7
  6
CONTINUOUS
 90
20
 70
0
 10
1.3416942271
 20
-0.908156942
 10
1.2310728856
 20
-1.0012637138
 10
1.1180963716
 20
-1.0833607393
 10
1.000018759
 20
-1.157115602
 10
0.8764141805
 20
-1.2225694758
 10
0.7477085029
 20
-1.2796811965
 10
0.6163125049
 20
-1.3274958293
 10
0.4825449501
 20
-1.3658164138
 10
0.3460870832
 20
-1.3948399207
 10
0.2083934081
 20
-1.4142023128
 10
0.0691203231
 20
-1.4237803652
 10
-0.0713885577
 20
-1.4236973065
 10
-0.2106479051
 20
-1.4139587804
 10
-0.3483166132
 20
-1.3944452239
 10
-0.4847357757
 20
-1.3652761964
 10
-0.6184433634
 20
-1.3268160237
 10
-0.7497516522
 20
-1.2788632192
 10
-0.8783483581
 20
-1.2216192595
 10
-1.0018346163
 20
-1.1560529164
 10
-1.1197874814
 20
-1.0822117615
  0
LINE
  5
2F7
100
AcDbEntity
  8
0
100
AcDbLine
 62
7
  6
CONTINUOUS
 10
0.8535131847
 20
-0.5347385801
 11
0.9377951819
 21
-0.4643295806
  0
LWPOLYLINE
  5
2F8
100
AcDbEntity
  8
0
100
AcDbPolyline
 62
7
  6
CONTINUOUS
 90
3
 70
0
 10
0.8482339788
 20
-0.5386673177
 10
0.9314790125
 20
-0.4699039824
 10
1.0087244498
 20
-0.3956603101
  0
LWPOLYLINE
  5
2F9
100
AcDbEntity
  8
0
100
AcDbPolyline
 62
7
  6
CONTINUOUS
 90
6
 70
0
 10
1.9348573176
 20
-1.3100660743
 10
1.9546161133
 20
-1.2948525005
 10
1.9755355026
 20
-1.2814761631
 10
1.9977999039
 20
-1.2698501945
 10
2.021224898
 20
-1.2600614632
 10
2.0452572287
 20
-1.2523705735
  0
LWPOLYLINE
  5
2FA
100
AcDbEntity
  8
0
100
AcDbPolyline
 62
7
  6
CONTINUOUS
 90
20
 70
0
 10
1.240567976
 20
-0.9937169199
 10
1.133808483
 20
-1.0725682116
 10
1.0217150729
 20
-1.1443970236
 10
0.9045528347
 20
-1.2088407596
 10
0.7824300278
 20
-1.2655961738
 10
0.6553927219
 20
-1.3144114601
 10
0.5250884492
 20
-1.3546896939
 10
0.3940843241
 20
-1.3857944594
 10
0.2642576828
 20
-1.407557354
 10
0.135174123
 20
-1.4204839118
 10
0.0059439025
 20
-1.4249910112
 10
-0.1235165846
 20
-1.4212306208
 10
-0.2531259587
 20
-1.4090021264
 10
-0.3835288476
 20
-1.3878882484
 10
-0.5150686292
 20
-1.3573965113
 10
-0.6459563108
 20
-1.3176644045
 10
-0.7736480514
 20
-1.2693027646
 10
-0.8964589856
 20
-1.2129125698
 10
-1.0143317605
 20
-1.1487545618
 10
-1.1272089556
 20
-1.0770911175
  0
LWPOLYLINE
  5
2FB
100
AcDbEntity
  8
0
100
AcDbPolyline
 62
7
  6
CONTINUOUS
 90
11
 70
0
 10
2.8134297495
 20
0.8150341371
 10
2.8288222831
 20
0.8260734776
 10
2.8449212137
 20
0.8360753483
 10
2.8617136484
 20
0.8450515108
 10
2.8789785524
 20
0.8528860879
 10
2.8967180683
 20
0.8595659545
 10
2.9149300531
 20
0.865104236
 10
2.9333870433
 20
0.8694244313
 10
2.9520132179
 20
0.87250104
 10
2.9708843976
 20
0.8743595629
 10
2.9900005825
 20
0.875
  0
LINE
  5
2FC
100
AcDbEntity
  8
0
100
AcDbLine
 62
7
  6
CONTINUOUS
 10
0.7607193863
 20
-0.6004229557
 11
0.8535131847
 21
-0.5347385801
  0
LWPOLYLINE
  5
2FD
100
AcDbEntity
  8
0
100
AcDbPolyline
 62
7
  6
CONTINUOUS
 90
6
 70
0
 10
1.9491130806
 20
-1.2988383228
 10
1.9670169332
 20
-1.2866268044
 10
1.9857720979
 20
-1.2758020977
 10
2.0053013188
 20
-1.2664184449
 10
2.0255220916
 20
-1.2585002905
 10
2.0463012559
 20
-1.2520880857
  0
LINE
  5
2FE
100
AcDbEntity
  8
0
100
AcDbLine
 62
7
  6
CONTINUOUS
 10
0.6691139371
 20
-0.6548433818
 11
0.7649952351
 21
-0.5976419837
  0
LINE
  5
2FF
100
AcDbEntity
  8
0
100
AcDbLine
 62
7
  6
CONTINUOUS
 10
0.5732389285
 20
-0.7022561128
 11
0.6726789274
 21
-0.6529072572
  0
LINE
  5
300
100
AcDbEntity
  8
0
100
AcDbLine
 62
7
  6
CONTINUOUS
 10
0.4742882925
 20
-0.7421163362
 11
0.5765229374
 21
-0.7007597267
  0
LWPOLYLINE
  5
301
100
AcDbEntity
  8
0
100
AcDbPolyline
 62
7
  6
CONTINUOUS
 90
7
 70
0
 10
-0.1076586479
 20
-2.1419454866
 10
-0.0904219632
 20
-2.1363215062
 10
-0.0734423628
 20
-2.1320507689
 10
-0.0568930682
 20
-2.1288150699
 10
-0.0408318199
 20
-2.1265083412
 10
-0.0252008774
 20
-2.1252366512
 10
-0.0100002408
 20
-2.1249999999
  0
LINE
  5
302
100
AcDbEntity
  8
0
100
AcDbLine
 62
7
  6
CONTINUOUS
 10
0.3733953132
 20
-0.7742315212
 11
0.4765680624
 21
-0.7412935146
  0
LINE
  5
303
100
AcDbEntity
  8
0
100
AcDbLine
 62
7
  6
CONTINUOUS
 10
-2.9595542466
 20
0.2766024269
 11
-2.9899998167
 21
0.275
  0
LINE
  5
304
100
AcDbEntity
  8
0
100
AcDbLine
 62
7
  6
CONTINUOUS
 10
2.959554067
 20
0.8733975538
 11
2.9900005825
 21
0.875
  0
LINE
  5
305
100
AcDbEntity
  8
0
100
AcDbLine
 62
7
  6
CONTINUOUS
 10
-3.6316802048
 20
0.8741882112
 11
-3.6100007033
 21
0.875
  0
LINE
  5
306
100
AcDbEntity
  8
0
100
AcDbLine
 62
7
  6
CONTINUOUS
 10
2.9900005825
 20
0.875
 11
3.6100007003
 21
0.875
  0
LINE
  5
307
100
AcDbEntity
  8
0
100
AcDbLine
 62
7
  6
CONTINUOUS
 10
-3.6100007033
 20
0.875
 11
-2.9900005802
 21
0.8750006598
  0
LWPOLYLINE
  5
308
100
AcDbEntity
  8
0
100
AcDbPolyline
 62
7
  6
CONTINUOUS
 90
6
 70
0
 10
2.9899998174
 20
0.2750002077
 10
2.9709065535
 20
0.2756452449
 10
2.9520535579
 20
0.2775032872
 10
2.9334408309
 20
0.2805743347
 10
2.9149914625
 20
0.2848805725
 10
2.8967823629
 20
0.2903998157
  0
LWPOLYLINE
  5
309
100
AcDbEntity
  8
0
100
AcDbPolyline
 62
7
  6
CONTINUOUS
 90
6
 70
0
 10
-2.9900005802
 20
0.8750006598
 10
-2.9709072348
 20
0.8743552788
 10
-2.9520541667
 20
0.8724969837
 10
-2.9334413762
 20
0.8694257744
 10
-2.9149919529
 20
0.8651194954
 10
-2.8967828074
 20
0.8596003018
  0
LWPOLYLINE
  5
30A
100
AcDbEntity
  8
0
100
AcDbPolyline
 62
7
  6
CONTINUOUS
 90
21
 70
0
 10
3.6100007003
 20
0.875
 10
3.6316825992
 20
0.8741852814
 10
3.653225904
 20
0.8717545021
 10
3.6745191916
 20
0.8677274584
 10
3.6954341222
 20
0.8621295224
 10
3.7158792737
 20
0.8549808316
 10
3.7357795513
 20
0.8463038221
 10
3.7550085505
 20
0.8361398631
 10
3.7734068542
 20
0.8245774309
 10
3.7908395141
 20
0.81171048
 10
3.8072276095
 20
0.7976057682
 10
3.8225181379
 20
0.7823248393
 10
3.8366372718
 20
0.7659365706
 10
3.8495088344
 20
0.7484981687
 10
3.8610653755
 20
0.7300923691
 10
3.8712347842
 20
0.7108558227
 10
3.879941006
 20
0.6909402067
 10
3.8871213216
 20
0.6704697317
 10
3.8927337997
 20
0.6495327872
 10
3.8967618512
 20
0.6282276696
 10
3.899188276
 20
0.6066792899
  0
LWPOLYLINE
  5
30B
100
AcDbEntity
  8
0
100
AcDbPolyline
 62
7
  6
CONTINUOUS
 90
15
 70
0
 10
2.9899998175
 20
0.275
 10
2.9605586113
 20
0.2765027626
 10
2.9312636766
 20
0.2810156899
 10
2.9024050968
 20
0.2885455847
 10
2.8743174929
 20
0.2990720703
 10
2.8473348781
 20
0.3125211329
 10
2.8217747849
 20
0.328779723
 10
2.7979757267
 20
0.3476825343
 10
2.7762107286
 20
0.3690524833
 10
2.756744909
 20
0.3926842196
 10
2.7398014669
 20
0.41841571
 10
2.7256044319
 20
0.4459196538
 10
2.7144158691
 20
0.474705583
 10
2.7064081944
 20
0.5043509117
 10
2.701602323
 20
0.5345552751
  0
LWPOLYLINE
  5
30C
100
AcDbEntity
  8
0
100
AcDbPolyline
 62
7
  6
CONTINUOUS
 90
15
 70
0
 10
-2.99000058
 20
0.875
 10
-2.9605577295
 20
0.8734971477
 10
-2.9312614433
 20
0.8689838492
 10
-2.902401832
 20
0.8614533812
 10
-2.8743135796
 20
0.8509262271
 10
-2.847330668
 20
0.8374764875
 10
-2.8217705014
 20
0.8212172278
 10
-2.7979713564
 20
0.802313603
 10
-2.7762064645
 20
0.7809428667
 10
-2.7567413536
 20
0.7573109624
 10
-2.7397994209
 20
0.7315807899
 10
-2.7256039137
 20
0.7040791939
 10
-2.7144160885
 20
0.675295085
 10
-2.7064084628
 20
0.6456503485
 10
-2.701602433
 20
0.6154457732
  0
LWPOLYLINE
  5
30D
100
AcDbEntity
  8
0
100
AcDbPolyline
 62
7
  6
CONTINUOUS
 90
23
 70
0
 10
3.6290938646
 20
0.8743548471
 10
3.6479467701
 20
0.8724967193
 10
3.666559417
 20
0.8694256168
 10
3.6850087147
 20
0.8651193647
 10
3.7032177539
 20
0.8596001382
 10
3.7209558066
 20
0.8529344619
 10
3.7382201597
 20
0.8451039456
 10
3.7550135267
 20
0.8361269795
 10
3.7711133198
 20
0.8261252592
 10
3.7865056606
 20
0.8150897382
 10
3.801204428
 20
0.8030294629
 10
3.8150286704
 20
0.7900932677
 10
3.8279684758
 20
0.7762699653
 10
3.8400337569
 20
0.7615707427
 10
3.8510732992
 20
0.7461779954
 10
3.8610753305
 20
0.7300788161
 10
3.8700516236
 20
0.7132861118
 10
3.8778862816
 20
0.6960209992
 10
3.8845661576
 20
0.6782813309
 10
3.8901043989
 20
0.6600692539
 10
3.8944245493
 20
0.6416123267
 10
3.8975011235
 20
0.6229864018
 10
3.8993596071
 20
0.6041156264
  0
LWPOLYLINE
  5
30E
100
AcDbEntity
  8
0
100
AcDbPolyline
 62
7
  6
CONTINUOUS
 90
8
 70
0
 10
2.8790442615
 20
0.2970655097
 10
2.8617798734
 20
0.3048960371
 10
2.8449864839
 20
0.3138730153
 10
2.8288866785
 20
0.3238747417
 10
2.8134943381
 20
0.3349102608
 10
2.7987955823
 20
0.3469705281
 10
2.7849713547
 20
0.3599067072
 10
2.7720315684
 20
0.373729982
  0
LWPOLYLINE
  5
30F
100
AcDbEntity
  8
0
100
AcDbPolyline
 62
7
  6
CONTINUOUS
 90
7
 70
0
 10
0.9333332897
 20
1.6184982488
 10
0.8999068725
 20
1.6494678311
 10
0.8675874676
 20
1.6815883486
 10
0.8364139535
 20
1.714820393
 10
0.8064249492
 20
1.7491245453
 10
0.7776570422
 20
1.7844584842
 10
0.7502153935
 20
1.8206846358
  0
LINE
  5
310
100
AcDbEntity
  8
0
100
AcDbLine
 62
7
  6
CONTINUOUS
 10
1.3333332111
 20
2.0657118112
 11
1.4344900374
 21
1.96851231
  0
LINE
  5
311
100
AcDbEntity
  8
0
100
AcDbLine
 62
7
  6
CONTINUOUS
 10
1.0112700264
 20
1.5429620827
 11
0.8671434939
 21
1.6821567479
  0
LINE
  5
312
100
AcDbEntity
  8
0
100
AcDbLine
 62
253
  6
CONTINUOUS
 10
22.287406726
 20
-21.6124414913
 11
22.2016585342
 21
-21.5266932995
  0
LINE
  5
313
100
AcDbEntity
  8
0
100
AcDbLine
 62
7
  6
CONTINUOUS
 10
2.3263807661
 20
-1.3271167661
 11
2.7647879131
 21
-1.7655229131
  0
LWPOLYLINE
  5
314
100
AcDbEntity
  8
0
100
AcDbPolyline
 62
7
  6
CONTINUOUS
 90
3
 70
0
 10
1.2933713812
 20
2.1048766609
 10
1.3128783617
 20
2.0848745029
 10
1.3333333518
 20
2.0657119685
  0
LWPOLYLINE
  5
315
100
AcDbEntity
  8
0
100
AcDbPolyline
 62
7
  6
CONTINUOUS
 90
8
 70
0
 10
2.7647877661
 20
-1.7655227661
 10
2.7795456693
 20
-1.7814273823
 10
2.7930655342
 20
-1.7983755262
 10
2.8052769509
 20
-1.8162789462
 10
2.8161017986
 20
-1.8350340051
 10
2.8254857129
 20
-1.8545633882
 10
2.8334040672
 20
-1.8747842663
 10
2.8398163636
 20
-1.8955632222
  0
LWPOLYLINE
  5
316
100
AcDbEntity
  8
0
100
AcDbPolyline
 62
7
  6
CONTINUOUS
 90
7
 70
0
 10
2.7647879131
 20
-1.7655229131
 10
2.7818401911
 20
-1.7841230387
 10
2.7970548211
 20
-1.8038836017
 10
2.8104318036
 20
-1.8248046015
 10
2.8220579413
 20
-1.8470705235
 10
2.8318464324
 20
-1.8704968808
 10
2.8395368711
 20
-1.8945302154
  0
LWPOLYLINE
  5
317
100
AcDbEntity
  8
0
100
AcDbPolyline
 62
7
  6
CONTINUOUS
 90
22
 70
0
 10
1.4304655397
 20
1.9727619801
 10
1.5278822249
 20
1.8655322803
 10
1.6135099203
 20
1.7567718695
 10
1.691735357
 20
1.641615289
 10
1.7621963133
 20
1.5206783069
 10
1.823806113
 20
1.3958082545
 10
1.8764041958
 20
1.2670706638
 10
1.9201511345
 20
1.1344000001
 10
1.9544419526
 20
0.9994470066
 10
1.9791727828
 20
0.8619886977
 10
1.9944475002
 20
0.7222480694
 10
1.9999727411
 20
0.5825448465
 10
1.9956203252
 20
0.4430834891
 10
1.981518433
 20
0.3036595589
 10
1.9577582395
 20
0.1659794393
 10
1.9241127926
 20
0.0298168135
 10
1.8808090367
 20
-0.1046019794
 10
1.8286189912
 20
-0.2348915701
 10
1.7675257404
 20
-0.3607564154
 10
1.6975461875
 20
-0.482492042
 10
1.6195030806
 20
-0.5985996877
 10
1.533060896
 20
-0.7092073476
  0
LWPOLYLINE
  5
318
100
AcDbEntity
  8
0
100
AcDbPolyline
 62
7
  6
CONTINUOUS
 90
12
 70
0
 10
0.8671434939
 20
1.6821567479
 10
0.8060923545
 20
1.7495674838
 10
0.7501796213
 20
1.8207301648
 10
0.6991821832
 20
1.8960292662
 10
0.653323155
 20
1.9750802891
 10
0.6132718783
 20
2.0567297635
 10
0.5791131611
 20
2.1410163625
 10
0.5507621975
 20
2.2279013896
 10
0.5286339073
 20
2.3161153265
 10
0.5128665972
 20
2.4052349961
 10
0.5033219614
 20
2.4956835574
 10
0.5
 20
2.587461
  0
LINE
  5
319
100
AcDbEntity
  8
0
100
AcDbLine
 62
7
  6
CONTINUOUS
 10
1.0824684847
 20
1.4627393899
 11
1.0096130631
 21
1.544892797
  0
LWPOLYLINE
  5
31A
100
AcDbEntity
  8
0
100
AcDbPolyline
 62
7
  6
CONTINUOUS
 90
22
 70
0
 10
1.5211536329
 20
1.8734840762
 10
1.6049823251
 20
1.7683276685
 10
1.6815602133
 20
1.657742822
 10
1.7505487404
 20
1.5422417849
 10
1.81161779
 20
1.422372423
 10
1.8644788417
 20
1.2986608007
 10
1.9089130541
 20
1.1716716383
 10
1.9447093049
 20
1.0420173062
 10
1.971692483
 20
0.9102886587
 10
1.9897643289
 20
0.7770921507
 10
1.9988406733
 20
0.643064974
 10
1.9988762552
 20
0.5088589455
 10
1.9899511855
 20
0.3751181198
 10
1.9721630797
 20
0.2424667068
 10
1.9456012484
 20
0.1115231044
 10
1.9103232757
 20
-0.0173308713
 10
1.8663555914
 20
-0.1438225128
 10
1.8137583759
 20
-0.2676140194
 10
1.7529170992
 20
-0.3878206248
 10
1.6843799473
 20
-0.5033657798
 10
1.6086657071
 20
-0.6134134032
 10
1.5261065704
 20
-0.7177089455
  0
LINE
  5
31B
100
AcDbEntity
  8
0
100
AcDbLine
 62
7
  6
CONTINUOUS
 10
1.1469284149
 20
1.3778298832
 11
1.0801729639
 21
1.4656513602
  0
LWPOLYLINE
  5
31C
100
AcDbEntity
  8
0
100
AcDbPolyline
 62
7
  6
CONTINUOUS
 90
11
 70
0
 10
2.7599663107
 20
0.3884291684
 10
2.7489267865
 20
0.4038218779
 10
2.7389247665
 20
0.4199210143
 10
2.7299484804
 20
0.4367136735
 10
2.7221138213
 20
0.4539787539
 10
2.7154339326
 20
0.4717184019
 10
2.7098956713
 20
0.4899304707
 10
2.7055755009
 20
0.5083874192
 10
2.7024989094
 20
0.5270134003
 10
2.7006404091
 20
0.5458842606
 10
2.7
 20
0.565
  0
LWPOLYLINE
  5
31D
100
AcDbEntity
  8
0
100
AcDbPolyline
 62
7
  6
CONTINUOUS
 90
7
 70
0
 10
0.7501451272
 20
1.8207773955
 10
0.723923886
 20
1.8580364839
 10
0.6990260977
 20
1.8961906259
 10
0.6754807283
 20
1.935192369
 10
0.6533161711
 20
1.974993977
 10
0.6325611813
 20
2.015546351
 10
0.613304153
 20
2.0566639674
  0
LWPOLYLINE
  5
31E
100
AcDbEntity
  8
0
100
AcDbPolyline
 62
7
  6
CONTINUOUS
 90
4
 70
0
 10
1.224170709
 20
2.1925689405
 10
1.2401505324
 20
2.1696040493
 10
1.2570251402
 20
2.1472834401
 10
1.2747678105
 20
2.1256882722
  0
LINE
  5
31F
100
AcDbEntity
  8
0
100
AcDbLine
 62
7
  6
CONTINUOUS
 10
1.2049569109
 20
1.2876209322
 11
1.1446003643
 21
1.3811485847
  0
LINE
  5
320
100
AcDbEntity
  8
0
100
AcDbLine
 62
7
  6
CONTINUOUS
 10
1.2562468845
 20
1.1927251562
 11
1.2025086106
 21
1.2918143181
  0
LWPOLYLINE
  5
321
100
AcDbEntity
  8
0
100
AcDbPolyline
 62
7
  6
CONTINUOUS
 90
7
 70
0
 10
0.6132410133
 20
2.0567987833
 10
0.5953787954
 20
2.098699519
 10
0.5789958641
 20
2.1412006744
 10
0.5641112664
 20
2.1842543163
 10
0.5507428188
 20
2.2278038011
 10
0.5389083612
 20
2.2717909651
 10
0.5286451566
 20
2.3160704811
  0
LWPOLYLINE
  5
322
100
AcDbEntity
  8
0
100
AcDbPolyline
 62
7
  6
CONTINUOUS
 90
11
 70
0
 10
1.1153688387
 20
2.4485008157
 10
1.1218494886
 20
2.4212501199
 10
1.1293688745
 20
2.3942920664
 10
1.1378991296
 20
2.3676532875
 10
1.1474152963
 20
2.3413560309
 10
1.1578939622
 20
2.3154260233
 10
1.1693169451
 20
2.2898992333
 10
1.1816672817
 20
2.2648133524
 10
1.1949294692
 20
2.2402063799
 10
1.209097905
 20
2.2161136208
 10
1.224170709
 20
2.1925689405
  0
LWPOLYLINE
  5
323
100
AcDbEntity
  8
0
100
AcDbPolyline
 62
7
  6
CONTINUOUS
 90
13
 70
0
 10
1.8270884437
 20
-1.6213400578
 10
1.8218225804
 20
-1.5977210327
 10
1.8183738262
 20
-1.5724569014
 10
1.8171455446
 20
-1.5471899483
 10
1.8181988456
 20
-1.5219570958
 10
1.821472619
 20
-1.4967214223
 10
1.82690606
 20
-1.4719764931
 10
1.8345759893
 20
-1.4476475862
 10
1.8444055857
 20
-1.4238094248
 10
1.8561035809
 20
-1.4011797424
 10
1.8695728855
 20
-1.3799977843
 10
1.8849105883
 20
-1.360024307
 10
1.9021166889
 20
-1.3412593111
  0
LWPOLYLINE
  5
324
100
AcDbEntity
  8
0
100
AcDbPolyline
 62
7
  6
CONTINUOUS
 90
13
 70
0
 10
2.8398163636
 20
-1.8955632222
 10
2.8450832648
 20
-1.9191874435
 10
2.8485316066
 20
-1.9444516483
 10
2.8497594691
 20
-1.9697186231
 10
2.8487056129
 20
-1.9949517555
 10
2.8454312775
 20
-2.0201876584
 10
2.8399977538
 20
-2.0449319636
 10
2.8323287273
 20
-2.0692584333
 10
2.8225005119
 20
-2.0930933064
 10
2.8108033419
 20
-2.1157209304
 10
2.7973339618
 20
-2.1369027554
 10
2.7819956261
 20
-2.1568773336
 10
2.7647883343
 20
-2.1756446657
  0
LWPOLYLINE
  5
325
100
AcDbEntity
  8
0
100
AcDbPolyline
 62
7
  6
CONTINUOUS
 90
7
 70
0
 10
0.528623979
 20
2.3161618497
 10
0.5199008657
 20
2.3608645281
 10
0.5127487106
 20
2.4058453907
 10
0.507176909
 20
2.4510508177
 10
0.5031922721
 20
2.4964261118
 10
0.5007987019
 20
2.5419151082
 10
0.5
 20
2.587461
  0
LWPOLYLINE
  5
326
100
AcDbEntity
  8
0
100
AcDbPolyline
 62
7
  6
CONTINUOUS
 90
3
 70
0
 10
1.1056829372
 20
2.5036529597
 10
1.109966187
 20
2.4759897463
 10
1.1153688387
 20
2.4485008157
  0
LWPOLYLINE
  5
327
100
AcDbEntity
  8
0
100
AcDbPolyline
 62
7
  6
CONTINUOUS
 90
14
 70
0
 10
1.822234125
 20
-1.6001692157
 10
1.8189809234
 20
-1.5787506875
 10
1.8173498014
 20
-1.5571857207
 10
1.8173457996
 20
-1.5355663719
 10
1.8189687888
 20
-1.5139995234
 10
1.8222137424
 20
-1.4925760616
 10
1.8270607339
 20
-1.4713974127
 10
1.8334679123
 20
-1.4506090456
 10
1.8413860606
 20
-1.4303728849
 10
1.8507758669
 20
-1.4108221762
 10
1.8616086116
 20
-1.3920476439
 10
1.8738268759
 20
-1.3741300731
 10
1.8873533492
 20
-1.3571708815
 10
1.902117
 20
-1.341259
  0
LWPOLYLINE
  5
328
100
AcDbEntity
  8
0
100
AcDbPolyline
 62
7
  6
CONTINUOUS
 90
14
 70
0
 10
2.8446707125
 20
-1.916733928
 10
2.8479239788
 20
-1.9381524493
 10
2.8495551766
 20
-1.9597176979
 10
2.8495592065
 20
-1.9813374597
 10
2.847936198
 20
-2.0029045917
 10
2.8446912364
 20
-2.0243280479
 10
2.8398442718
 20
-2.0455065635
 10
2.8334371101
 20
-2.0662948888
 10
2.8255188893
 20
-2.0865312299
 10
2.8161289423
 20
-2.1060821855
 10
2.8052960911
 20
-2.1248568297
 10
2.7930778251
 20
-2.1427743323
 10
2.779551444
 20
-2.1597333589
 10
2.764788
 20
-2.175645
  0
LINE
  5
329
100
AcDbEntity
  8
0
100
AcDbLine
 62
7
  6
CONTINUOUS
 10
3.899188276
 20
0.6066792899
 11
3.9
 21
0.585
  0
LINE
  5
32A
100
AcDbEntity
  8
0
100
AcDbLine
 62
7
  6
CONTINUOUS
 10
3.9
 20
0.585
 11
3.9
 21
0.565
  0
LINE
  5
32B
100
AcDbEntity
  8
0
100
AcDbLine
 62
7
  6
CONTINUOUS
 10
3.9
 20
0.565
 11
3.8991852875
 21
0.5433175042
  0
LWPOLYLINE
  5
32C
100
AcDbEntity
  8
0
100
AcDbPolyline
 62
7
  6
CONTINUOUS
 90
23
 70
0
 10
3.899354846
 20
0.5459063798
 10
3.8974966836
 20
0.5270530714
 10
3.8944255128
 20
0.5084400747
 10
3.8901191452
 20
0.4899904733
 10
3.8845997688
 20
0.4717811832
 10
3.8779339489
 20
0.4540429537
 10
3.8701032925
 20
0.4367785069
 10
3.861126192
 20
0.4199851204
 10
3.8511243903
 20
0.4038853762
 10
3.8400888507
 20
0.3884931664
 10
3.8280286093
 20
0.3737945989
 10
3.8150925182
 20
0.3599705792
 10
3.8012694118
 20
0.3470310258
 10
3.7865704552
 20
0.3349660204
 10
3.7711779971
 20
0.3239267129
 10
3.7550791476
 20
0.3139248626
 10
3.7382867961
 20
0.3049487104
 10
3.7210219606
 20
0.2971141293
 10
3.7032825
 20
0.2904342395
 10
3.685070555
 20
0.284895921
 10
3.6666135664
 20
0.2805756864
 10
3.6479873476
 20
0.27749904
 10
3.6291160851
 20
0.2756404778
  0
LINE
  5
32D
100
AcDbEntity
  8
0
100
AcDbLine
 62
7
  6
CONTINUOUS
 10
3.8991852875
 20
0.5433175042
 11
3.8967544317
 21
0.5217736503
  0
LWPOLYLINE
  5
32E
100
AcDbEntity
  8
0
100
AcDbPolyline
 62
7
  6
CONTINUOUS
 90
19
 70
0
 10
3.8967544317
 20
0.5217736503
 10
3.892727245
 20
0.5004798819
 10
3.8871291099
 20
0.4795645399
 10
3.8799801845
 20
0.4591190756
 10
3.871302947
 20
0.4392186311
 10
3.8611387995
 20
0.4199896062
 10
3.8495762339
 20
0.4015913872
 10
3.8367092146
 20
0.3841589024
 10
3.8226045287
 20
0.3677710575
 10
3.8073237334
 20
0.3524808304
 10
3.7909356624
 20
0.3383619991
 10
3.7734975164
 20
0.3254907303
 10
3.7550920312
 20
0.3139344493
 10
3.7358557805
 20
0.3037652143
 10
3.7159404664
 20
0.2950591044
 10
3.6954702934
 20
0.2878788483
 10
3.6745334907
 20
0.2822663508
 10
3.6532282769
 20
0.2782382306
 10
3.6316795941
 20
0.2758117427
  0
LINE
  5
32F
100
AcDbEntity
  8
0
100
AcDbLine
 62
7
  6
CONTINUOUS
 10
2.764788
 20
-2.175645
 11
2.750645
 21
-2.189788
  0
LWPOLYLINE
  5
330
100
AcDbEntity
  8
0
100
AcDbPolyline
 62
7
  6
CONTINUOUS
 90
3
 70
0
 10
2.750645
 20
-2.189788
 10
2.7347400162
 20
-2.2045461844
 10
2.7177914691
 20
-2.2180662709
  0
LINE
  5
331
100
AcDbEntity
  8
0
100
AcDbLine
 62
7
  6
CONTINUOUS
 10
2.7506448404
 20
-2.1897881596
 11
2.7320449975
 21
-2.2068401912
  0
LWPOLYLINE
  5
332
100
AcDbEntity
  8
0
100
AcDbPolyline
 62
7
  6
CONTINUOUS
 90
6
 70
0
 10
2.7320449975
 20
-2.2068401912
 10
2.7122846865
 20
-2.2220546393
 10
2.6913639069
 20
-2.2354315048
 10
2.6690981689
 20
-2.2470576042
 10
2.6456719613
 20
-2.2568461223
 10
2.6216387522
 20
-2.2645366122
  0
LWPOLYLINE
  5
333
100
AcDbEntity
  8
0
100
AcDbPolyline
 62
7
  6
CONTINUOUS
 90
6
 70
0
 10
2.7177914691
 20
-2.2180662709
 10
2.6998876272
 20
-2.230277843
 10
2.6811321261
 20
-2.241102784
 10
2.6616023136
 20
-2.2504867154
 10
2.6413810903
 20
-2.2584049959
 10
2.6206019018
 20
-2.2648171407
  0
LWPOLYLINE
  5
334
100
AcDbEntity
  8
0
100
AcDbPolyline
 62
7
  6
CONTINUOUS
 90
10
 70
0
 10
0.1613243983
 20
-3.2823869048
 10
0.1436750496
 20
-3.2923957083
 10
0.1258150223
 20
-3.300807001
 10
0.1081943752
 20
-3.3078621045
 10
0.0909038203
 20
-3.3135375864
 10
0.0738526456
 20
-3.3178568802
 10
0.0572187734
 20
-3.3211316063
 10
0.041061511
 20
-3.3234656381
 10
0.0253215511
 20
-3.3247551026
 10
0.0099988938
 20
-3.3249999999
  0
LINE
  5
335
100
AcDbEntity
  8
0
100
AcDbLine
 62
7
  6
CONTINUOUS
 10
0.7683229021
 20
3.3241884401
 11
0.7900005729
 21
3.325
  0
LINE
  5
336
100
AcDbEntity
  8
0
100
AcDbLine
 62
7
  6
CONTINUOUS
 10
-0.8316780763
 20
3.3241883669
 11
-0.8100005874
 21
3.325
  0
LINE
  5
337
100
AcDbEntity
  8
0
100
AcDbLine
 62
7
  6
CONTINUOUS
 10
-0.8100005874
 20
3.325
 11
-0.7900005704
 21
3.3250000199
  0
LINE
  5
338
100
AcDbEntity
  8
0
100
AcDbLine
 62
7
  6
CONTINUOUS
 10
0.7900005729
 20
3.325
 11
0.8100005848
 21
3.3249999798
  0
LWPOLYLINE
  5
339
100
AcDbEntity
  8
0
100
AcDbPolyline
 62
7
  6
CONTINUOUS
 90
3
 70
0
 10
-0.7900005704
 20
3.3250000199
 10
-0.7683198159
 20
3.3241854616
 10
-0.7467770881
 20
3.3217549507
  0
LINE
  5
33A
100
AcDbEntity
  8
0
100
AcDbLine
 62
7
  6
CONTINUOUS
 10
0.8100005848
 20
3.3249999798
 11
0.8316811238
 21
3.3241853905
  0
LWPOLYLINE
  5
33B
100
AcDbEntity
  8
0
100
AcDbPolyline
 62
7
  6
CONTINUOUS
 90
23
 70
0
 10
-0.7709069128
 20
3.3243548913
 10
-0.7520535685
 20
3.3224967532
 10
-0.7334405376
 20
3.3194256056
 10
-0.7149909034
 20
3.3151192595
 10
-0.6967815826
 20
3.3095999032
 10
-0.6790433251
 20
3.3029341025
 10
-0.6617788539
 20
3.2951034639
 10
-0.6449854461
 20
3.2861263798
 10
-0.6288856821
 20
3.2761245948
 10
-0.6134934544
 20
3.2650890722
 10
-0.5987948707
 20
3.2530288476
 10
-0.5849708348
 20
3.2400927737
 10
-0.5720312652
 20
3.2262696854
 10
-0.5599662435
 20
3.2115707466
 10
-0.5489269182
 20
3.1961783042
 10
-0.538925048
 20
3.1800794685
 10
-0.5299488743
 20
3.1632871282
 10
-0.5221142702
 20
3.1460222983
 10
-0.5154343548
 20
3.1282828374
 10
-0.5098960092
 20
3.1100708861
 10
-0.5055757492
 20
3.091613883
 10
-0.5024990804
 20
3.0729876408
 10
-0.5006404973
 20
3.0541163466
  0
LWPOLYLINE
  5
33C
100
AcDbEntity
  8
0
100
AcDbPolyline
 62
7
  6
CONTINUOUS
 90
23
 70
0
 10
0.8290940629
 20
3.3243548134
 10
0.8479472539
 20
3.3224966423
 10
0.8665601577
 20
3.3194254663
 10
0.8850096928
 20
3.3151191
 10
0.9032189407
 20
3.3095997285
 10
0.9209571463
 20
3.3029339077
 10
0.9382215902
 20
3.295103242
 10
0.9550149919
 20
3.2861261263
 10
0.9711147555
 20
3.2761243022
 10
0.9865069875
 20
3.2650887304
 10
1.0012055815
 20
3.2530284492
 10
1.0150296218
 20
3.2400923173
 10
1.0279691876
 20
3.2262691671
 10
1.0400341998
 20
3.211570165
 10
1.0510735047
 20
3.1961776711
 10
1.061075341
 20
3.1800787942
 10
1.0700514702
 20
3.1632864243
 10
1.0778860229
 20
3.1460215939
 10
1.0845658757
 20
3.1282821648
 10
1.0901041521
 20
3.1100702743
 10
1.0944243526
 20
3.0916133681
 10
1.0975009775
 20
3.0729872616
 10
1.0993595266
 20
3.0541161389
  0
LINE
  5
33D
100
AcDbEntity
  8
0
100
AcDbLine
 62
7
  6
CONTINUOUS
 10
0.8316811238
 20
3.3241853905
 11
0.8532236762
 21
3.3217548345
  0
LWPOLYLINE
  5
33E
100
AcDbEntity
  8
0
100
AcDbPolyline
 62
7
  6
CONTINUOUS
 90
19
 70
0
 10
-0.7467770881
 20
3.3217549507
 10
-0.7254838238
 20
3.3177281445
 10
-0.7045681778
 20
3.3121302312
 10
-0.6841218372
 20
3.3049812675
 10
-0.6642205601
 20
3.2963038756
 10
-0.6449909821
 20
3.2861395942
 10
-0.6265922618
 20
3.2745768303
 10
-0.6091592283
 20
3.2617094745
 10
-0.5927707237
 20
3.247604219
 10
-0.5774798512
 20
3.2323226794
 10
-0.5633605603
 20
3.21593386
 10
-0.5504890414
 20
3.1984950374
 10
-0.5389326641
 20
3.1800889364
 10
-0.5287634905
 20
3.1608522029
 10
-0.5200575373
 20
3.1409364821
 10
-0.5128775461
 20
3.1204660773
 10
-0.5072654486
 20
3.0995295369
 10
-0.5032377672
 20
3.0782252012
 10
-0.5008116167
 20
3.0566779144
  0
LWPOLYLINE
  5
33F
100
AcDbEntity
  8
0
100
AcDbPolyline
 62
7
  6
CONTINUOUS
 90
19
 70
0
 10
0.8532236762
 20
3.3217548345
 10
0.8745168054
 20
3.3177280001
 10
0.8954323612
 20
3.3121300649
 10
0.9158786478
 20
3.3049810777
 10
0.9357798906
 20
3.2963036588
 10
0.955009458
 20
3.2861393397
 10
0.9734081873
 20
3.2745765238
 10
0.9908412254
 20
3.2617091129
 10
1.007229731
 20
3.2476037973
 10
1.0225206038
 20
3.2323221894
 10
1.0366398802
 20
3.215933308
 10
1.0495113722
 20
3.1984944308
 10
1.0610677131
 20
3.1800882839
 10
1.071236834
 20
3.1608515315
 10
1.0799427225
 20
3.1409358227
 10
1.0871226444
 20
3.1204654601
 10
1.0927346724
 20
3.0995290047
 10
1.0967622923
 20
3.0782248023
 10
1.0991883997
 20
3.0566776932
  0
LWPOLYLINE
  5
340
100
AcDbEntity
  8
RACCORDO
100
AcDbPolyline
 62
253
  6
CONTINUOUS
 90
16
 70
0
 10
22.2016585342
 20
-21.5266932995
 10
22.1990724363
 20
-21.5223427488
 10
22.1965299567
 20
-21.5146485349
 10
22.1940310956
 20
-21.5036106578
 10
22.1915627568
 20
-21.4891402001
 10
22.1891380365
 20
-21.4713260792
 10
22.1867962228
 20
-21.4504350478
 10
22.1845396852
 20
-21.4264223514
 10
22.1823660543
 20
-21.3993327446
 10
22.1803075098
 20
-21.3695672443
 10
22.1783657576
 20
-21.3370840993
 10
22.1765390919
 20
-21.3019250607
 10
22.1748545738
 20
-21.2646163989
 10
22.1733144693
 20
-21.2251282759
 10
22.1719165126
 20
-21.1834905297
 10
22.1706809677
 20
-21.1403189438
  0
LWPOLYLINE
  5
341
100
AcDbEntity
  8
0
100
AcDbPolyline
 62
7
  6
CONTINUOUS
 90
3
 70
0
 43
0.3500000006
 10
34.0808859558
 20
1.0357133102
 10
34.2951704407
 20
0.9642866592
 10
34.5808861084
 20
0.8214288254
  0
LWPOLYLINE
  5
342
100
AcDbEntity
  8
0
100
AcDbPolyline
 62
7
  6
CONTINUOUS
 90
10
 70
0
 43
0.3500000006
 10
33.866599205
 20
0.9642866592
 10
34.0094570389
 20
1.0357133102
 10
34.0808859558
 20
1.0357133102
 10
34.2237437897
 20
0.8928577423
 10
34.2237437897
 20
0.8214288254
 10
34.1523148727
 20
0.7499999084
 10
34.0808859558
 20
0.7499999084
 10
33.9380281219
 20
0.8214288254
 10
33.866599205
 20
0.8928577423
 10
33.866599205
 20
0.9642866592
  0
LWPOLYLINE
  5
343
100
AcDbEntity
  8
0
100
AcDbPolyline
 62
7
  6
CONTINUOUS
 90
10
 70
0
 43
0.3500000006
 10
0.9642857051
 20
36.6443958893
 10
1.035714268
 20
36.5015380554
 10
1.035714268
 20
36.4301068726
 10
0.8928571422
 20
36.2872490387
 10
0.8214285793
 20
36.2872490387
 10
0.7500000165
 20
36.3586802216
 10
0.7500000165
 20
36.4301068726
 10
0.8214285793
 20
36.5729647064
 10
0.8928571422
 20
36.6443958893
 10
0.9642857051
 20
36.6443958893
  0
LWPOLYLINE
  5
344
100
AcDbEntity
  8
RACCORDO
100
AcDbPolyline
 62
253
  6
CONTINUOUS
 90
7
 70
0
 10
21.7023437668
 20
-22.0260080669
 10
21.7009741091
 20
-22.0186195595
 10
21.6996622432
 20
-22.0053370215
 10
21.6983935358
 20
-21.9862291714
 10
21.6971338181
 20
-21.9613944904
 10
21.695888578
 20
-21.9309581132
 10
21.6947030307
 20
-21.8950690928
  0
LINE
  5
345
100
AcDbEntity
  8
RACCORDO
100
AcDbLine
 62
253
  6
CONTINUOUS
 10
-1.3810572367
 20
20.87020128
 11
21.6850754659
 21
20.8781072719
  0
LINE
  5
346
100
AcDbEntity
  8
RACCORDO
100
AcDbLine
 62
253
  6
CONTINUOUS
 10
-21.6850754719
 20
20.8781072456
 11
-1.3810572367
 21
20.87020128
  0
LINE
  5
347
100
AcDbEntity
  8
RACCORDO
100
AcDbLine
 62
253
  6
CONTINUOUS
 10
21.6947030307
 20
-21.8950690928
 11
21.6924604282
 21
-21.8076670482
  0
LINE
  5
348
100
AcDbEntity
  8
RACCORDO
100
AcDbLine
 62
253
  6
CONTINUOUS
 10
22.1706809677
 20
-21.1403189438
 11
22.1687017663
 21
-21.0492863749
  0
LINE
  5
349
100
AcDbEntity
  8
RACCORDO
100
AcDbLine
 62
253
  6
CONTINUOUS
 10
21.6924604282
 20
-21.8076670482
 11
21.6904666507
 21
-21.7009353375
  0
LINE
  5
34A
100
AcDbEntity
  8
RACCORDO
100
AcDbLine
 62
253
  6
CONTINUOUS
 10
22.1687017663
 20
-21.0492863749
 11
22.1674164944
 21
-20.9546104478
  0
LINE
  5
34B
100
AcDbEntity
  8
RACCORDO
100
AcDbLine
 62
253
  6
CONTINUOUS
 10
21.6904666507
 20
-21.7009353375
 11
21.6879806651
 21
-21.5093261501
  0
LINE
  5
34C
100
AcDbEntity
  8
RACCORDO
100
AcDbLine
 62
253
  6
CONTINUOUS
 10
21.6879806651
 20
-21.5093261501
 11
21.6857987245
 21
-21.2086743047
  0
LINE
  5
34D
100
AcDbEntity
  8
RACCORDO
100
AcDbLine
 62
253
  6
CONTINUOUS
 10
22.1674164944
 20
-20.9546104478
 11
22.1668384366
 21
-20.8570387625
  0
LWPOLYLINE
  5
34E
100
AcDbEntity
  8
RACCORDO
100
AcDbPolyline
 62
253
  6
CONTINUOUS
 90
9
 70
0
 10
22.1668384366
 20
-20.8570387625
 10
22.1577103594
 20
-16.223696831
 10
22.1508643014
 20
-11.589577244
 10
22.1463002624
 20
-6.9546800014
 10
22.1440182425
 20
-2.3184867531
 10
22.1440182417
 20
2.3184841508
 10
22.1463002607
 20
6.9546776594
 10
22.1508642996
 20
11.5895754224
 10
22.1577103582
 20
16.2236957902
  0
LWPOLYLINE
  5
34F
100
AcDbEntity
  8
RACCORDO
100
AcDbPolyline
 62
253
  6
CONTINUOUS
 90
8
 70
0
 10
21.672437658
 20
-11.6018187984
 10
21.668826854
 20
-6.9616951414
 10
21.6670214512
 20
-2.3206884516
 10
21.6670214502
 20
2.3206845067
 10
21.6688268518
 20
6.9616915912
 10
21.6724376559
 20
11.6018160374
 10
21.6778538611
 20
16.240757025
 10
21.6852567199
 20
21.045553356
  0
LINE
  5
350
100
AcDbEntity
  8
RACCORDO
100
AcDbLine
 62
253
  6
CONTINUOUS
 10
21.6857987245
 20
-21.2086743047
 11
21.672437658
 21
-11.6018187984
  0
LINE
  5
351
100
AcDbEntity
  8
0
100
AcDbLine
 62
7
  6
CONTINUOUS
 10
22.287406726
 20
-21.6124414913
 11
22.287406726
 21
21.6124414913
  0
LINE
  5
352
100
AcDbEntity
  8
RACCORDO
100
AcDbLine
 62
253
  6
CONTINUOUS
 10
22.1577103582
 20
16.2236957902
 11
22.1670396819
 21
20.9062254779
  0
LINE
  5
353
100
AcDbEntity
  8
RACCORDO
100
AcDbLine
 62
253
  6
CONTINUOUS
 10
21.6852567199
 20
21.045553356
 11
21.6867132888
 21
21.3642643446
  0
LINE
  5
354
100
AcDbEntity
  8
RACCORDO
100
AcDbLine
 62
253
  6
CONTINUOUS
 10
21.6867132888
 20
21.3642643446
 11
21.6887280295
 21
21.5769935773
  0
LINE
  5
355
100
AcDbEntity
  8
RACCORDO
100
AcDbLine
 62
253
  6
CONTINUOUS
 10
22.1670396819
 20
20.9062254779
 11
22.1679693266
 21
21.002236521
  0
LINE
  5
356
100
AcDbEntity
  8
RACCORDO
100
AcDbLine
 62
253
  6
CONTINUOUS
 10
21.6887280295
 20
21.5769935773
 11
21.6904669225
 21
21.7009339372
  0
LWPOLYLINE
  5
357
100
AcDbEntity
  8
RACCORDO
100
AcDbPolyline
 62
253
  6
CONTINUOUS
 90
18
 70
0
 10
22.1679693266
 20
21.002236521
 10
22.1696106917
 20
21.0955954223
 10
22.1706816792
 20
21.1403471176
 10
22.1719174687
 20
21.1835216249
 10
22.173315704
 20
21.225162108
 10
22.1748560452
 20
21.2646514969
 10
22.1765407453
 20
21.3019593404
 10
22.1783675511
 20
21.3371160895
 10
22.1803093627
 20
21.3695960279
 10
22.18236785
 20
21.3993570714
 10
22.1845413431
 20
21.4264413041
 10
22.186797732
 20
21.4504492612
 10
22.189139429
 20
21.4713367873
 10
22.1915640218
 20
21.4891480379
 10
22.1940321635
 20
21.5036160142
 10
22.1965307383
 20
21.5146517169
 10
22.1990728619
 20
21.5223441453
 10
22.2016585343
 20
21.5266932996
  0
LINE
  5
358
100
AcDbEntity
  8
RACCORDO
100
AcDbLine
 62
253
  6
CONTINUOUS
 10
21.6904669225
 20
21.7009339372
 11
21.6924606565
 21
21.8076660899
  0
LWPOLYLINE
  5
359
100
AcDbEntity
  8
RACCORDO
100
AcDbPolyline
 62
253
  6
CONTINUOUS
 90
8
 70
0
 10
21.6924606565
 20
21.8076660899
 10
21.6947031442
 20
21.8950684834
 10
21.6958886737
 20
21.9309573932
 10
21.697133911
 20
21.9613936532
 10
21.6983936206
 20
21.9862284412
 10
21.6996623067
 20
22.0053365717
 10
21.7009741444
 20
22.018619387
 10
21.7023437669
 20
22.026008067
  0
LWPOLYLINE
  5
35A
100
AcDbEntity
  8
RACCORDO
100
AcDbPolyline
 62
253
  6
CONTINUOUS
 90
16
 70
0
 10
-21.7023437493
 20
22.0260080494
 10
-21.7544466067
 20
22.0231394834
 10
-21.8059805126
 20
22.0148505465
 10
-21.8563828057
 20
22.0012317631
 10
-21.9051032
 20
21.9824318425
 10
-21.9516097431
 20
21.9586560732
 10
-21.995394632
 20
21.9301640973
 10
-22.0359798275
 20
21.8972670372
 10
-22.0729222492
 20
21.8603240931
 10
-22.105818573
 20
21.8197386556
 10
-22.1343096656
 20
21.775953877
 10
-22.1580845086
 20
21.7294478142
 10
-22.1768835766
 20
21.6807282216
 10
-22.1905016635
 20
21.6303270217
 10
-22.1987901271
 20
21.5787945001
 10
-22.2016585167
 20
21.526693282
  0
LWPOLYLINE
  5
35B
100
AcDbEntity
  8
RACCORDO
100
AcDbPolyline
 62
253
  6
CONTINUOUS
 90
14
 70
0
 10
-21.7829205087
 20
20.8773336846
 10
-21.8303890463
 20
20.8766470342
 10
-21.8762661351
 20
20.8757687802
 10
-21.9201034844
 20
20.8747075044
 10
-21.9614727348
 20
20.8734735772
 10
-21.9999696443
 20
20.872079056
 10
-22.035218038
 20
20.8705375674
 10
-22.0668734842
 20
20.8688641742
 10
-22.0946266597
 20
20.8670752281
 10
-22.1182063728
 20
20.8651882097
 10
-22.1373822129
 20
20.8632215584
 10
-22.1519668022
 20
20.8611944912
 10
-22.1618176263
 20
20.8591268158
 10
-22.1668384275
 20
20.8570387366
  0
LINE
  5
35C
100
AcDbEntity
  8
RACCORDO
100
AcDbLine
 62
253
  6
CONTINUOUS
 10
-21.6850754719
 20
20.8781072737
 11
-21.7829205087
 21
20.8773336846
  0
LINE
  5
35D
100
AcDbEntity
  8
RACCORDO
100
AcDbLine
 62
253
  6
CONTINUOUS
 10
13.2987933015
 20
22.0134597024
 11
21.7023437669
 21
22.026008067
  0
LINE
  5
35E
100
AcDbEntity
  8
RACCORDO
100
AcDbLine
 62
253
  6
CONTINUOUS
 10
3.2774298403
 20
22.0063482953
 11
13.2987933015
 21
22.0134597024
  0
LINE
  5
35F
100
AcDbEntity
  8
0
100
AcDbLine
 62
7
  6
CONTINUOUS
 10
21.7880919586
 20
22.1117562587
 11
-21.7880919586
 21
22.1117562587
  0
LINE
  5
360
100
AcDbEntity
  8
RACCORDO
100
AcDbLine
 62
253
  6
CONTINUOUS
 10
-5.936813047
 20
22.0074117757
 11
3.2774298403
 21
22.0063482953
  0
LINE
  5
361
100
AcDbEntity
  8
RACCORDO
100
AcDbLine
 62
253
  6
CONTINUOUS
 10
-14.9346680863
 20
22.0154302178
 11
-5.936813047
 21
22.0074117757
  0
LINE
  5
362
100
AcDbEntity
  8
RACCORDO
100
AcDbLine
 62
253
  6
CONTINUOUS
 10
-21.7023437503
 20
22.0260080504
 11
-14.9346680863
 21
22.0154302178
  0
LWPOLYLINE
  5
363
100
AcDbEntity
  8
RACCORDO
100
AcDbPolyline
 62
253
  6
CONTINUOUS
 90
15
 70
0
 10
21.6850750335
 20
20.878106804
 10
21.782919195
 20
20.8773332398
 10
21.8303873455
 20
20.8766466098
 10
21.8762640976
 20
20.8757683812
 10
21.920101172
 20
20.8747071352
 10
21.9614702204
 20
20.8734732416
 10
21.99996701
 20
20.8720787571
 10
22.0352153742
 20
20.8705373077
 10
22.0668708879
 20
20.8688639556
 10
22.0946242331
 20
20.8670750517
 10
22.1182042215
 20
20.8651880761
 10
22.1373804439
 20
20.863221467
 10
22.1519655224
 20
20.8611944411
 10
22.1618169406
 20
20.8591268051
 10
22.1668384366
 20
20.8570387627
  0
LWPOLYLINE
  5
364
100
AcDbEntity
  8
RACCORDO
100
AcDbPolyline
 62
253
  6
CONTINUOUS
 90
16
 70
0
 10
21.7023437669
 20
22.026008067
 10
21.7544458897
 20
22.0231395804
 10
21.8059791579
 20
22.0148508595
 10
21.8563809279
 20
22.0012324013
 10
21.9051009096
 20
21.9824328929
 10
21.9516071751
 20
21.9586575887
 10
21.9953919658
 20
21.9301660691
 10
22.0359772363
 20
21.8972694064
 10
22.072919874
 20
21.8603267687
 10
22.1058165366
 20
21.8197414981
 10
22.1343080561
 20
21.7759567074
 10
22.1580833602
 20
21.7294504419
 10
22.1768828685
 20
21.6807304602
 10
22.1905013267
 20
21.6303286903
 10
22.1987900476
 20
21.5787954222
 10
22.2016585343
 20
21.5266932996
  0
LWPOLYLINE
  5
365
100
AcDbEntity
  8
0
100
AcDbPolyline
 62
7
  6
CONTINUOUS
 90
3
 70
0
 43
0.3500000006
 10
33.7237436371
 20
-0.5357137985
 10
33.7237436371
 20
-2.0357142563
 10
31.366600708
 20
-1.3928574028
  0
LWPOLYLINE
  5
366
100
AcDbEntity
  8
0
100
AcDbPolyline
 62
7
  6
CONTINUOUS
 90
3
 70
0
 43
0.3500000006
 10
33.7237436371
 20
-2.8928567276
 10
33.7237436371
 20
-4.3928571854
 10
31.366600708
 20
-3.7500003319
  0
LWPOLYLINE
  5
367
100
AcDbEntity
  8
0
100
AcDbPolyline
 62
7
  6
CONTINUOUS
 90
7
 70
0
 43
0.3500000006
 10
34.3665993576
 20
3.5357140732
 10
34.3665993576
 20
2.0357136154
 10
32.2237431793
 20
3.5357140732
 10
31.7951719437
 20
3.5357140732
 10
31.366600708
 20
3.1071428375
 10
31.366600708
 20
2.4642848511
 10
32.0094564285
 20
2.0357136154
  0
LWPOLYLINE
  5
368
100
AcDbEntity
  8
0
100
AcDbPolyline
 62
7
  6
CONTINUOUS
 90
3
 70
0
 43
0.3500000006
 10
-0.5357142924
 20
36.7872491913
 10
-2.0357142191
 20
36.7872491913
 10
-1.3928570824
 20
39.1443921204
  0
LWPOLYLINE
  5
369
100
AcDbEntity
  8
0
100
AcDbPolyline
 62
7
  6
CONTINUOUS
 90
3
 70
0
 43
0.3500000006
 10
-2.8928572569
 20
36.7872491913
 10
-4.3928571482
 20
36.7872491913
 10
-3.7500000114
 20
39.1443921204
  0
LWPOLYLINE
  5
36A
100
AcDbEntity
  8
0
100
AcDbPolyline
 62
7
  6
CONTINUOUS
 90
3
 70
0
 43
0.3500000006
 10
-45.6184359283
 20
36.4301068726
 10
-45.6898625793
 20
36.2158223877
 10
-45.8327204132
 20
35.93010672
  0
LINE
  5
36B
100
AcDbEntity
  8
RACCORDO
100
AcDbLine
 62
7
  6
CONTINUOUS
 10
-35.0102264717
 20
-22.1117562587
 11
-37.0297760904
 21
-22.005916148
  0
LINE
  5
36C
100
AcDbEntity
  8
0
100
AcDbLine
 62
7
  6
CONTINUOUS
 10
-35.0102264717
 20
-22.1117562587
 11
-36.6463994397
 21
-22.0260080669
  0
LWPOLYLINE
  5
36D
100
AcDbEntity
  8
RACCORDO
100
AcDbPolyline
 62
7
  6
CONTINUOUS
 90
22
 70
0
 10
-36.6463994398
 20
-22.0260080669
 10
-36.7306162167
 20
-22.0186195595
 10
-36.8140889914
 20
-22.0053370215
 10
-36.8964058296
 20
-21.9862291714
 10
-36.977158552
 20
-21.9613944904
 10
-37.0559518042
 20
-21.9309581132
 10
-37.13240421
 20
-21.8950690928
 10
-37.2061429184
 20
-21.8539033275
 10
-37.2768002991
 20
-21.8076670482
 10
-37.3440228293
 20
-21.7565926485
 10
-37.407478712
 20
-21.7009353375
 10
-37.4668579153
 20
-21.6409705346
 10
-37.5218680118
 20
-21.5769952854
 10
-37.5722395062
 20
-21.5093261501
 10
-37.6177252872
 20
-21.4382988123
 10
-37.658100994
 20
-21.3642660452
 10
-37.6931670511
 20
-21.2875999737
 10
-37.7227560172
 20
-21.2086743047
 10
-37.7467277585
 20
-21.1278621816
 10
-37.7649635345
 20
-21.045556092
 10
-37.7773704291
 20
-20.9621673407
 10
-37.7838857851
 20
-20.8781072553
  0
LINE
  5
36E
100
AcDbEntity
  8
RACCORDO
100
AcDbLine
 62
253
  6
CONTINUOUS
 10
-37.7838861913
 20
-20.8781073069
 11
-37.7797202356
 21
-20.8778220549
  0
LINE
  5
36F
100
AcDbEntity
  8
RACCORDO
100
AcDbLine
 62
253
  6
CONTINUOUS
 10
-37.7797202356
 20
-20.8778220549
 11
-37.7569631409
 21
-20.8766470669
  0
LINE
  5
370
100
AcDbEntity
  8
RACCORDO
100
AcDbLine
 62
253
  6
CONTINUOUS
 10
-37.7569631409
 20
-20.8766470669
 11
-37.5010148338
 21
-20.865188238
  0
LINE
  5
371
100
AcDbEntity
  8
RACCORDO
100
AcDbLine
 62
253
  6
CONTINUOUS
 10
-37.5010148338
 20
-20.865188238
 11
-37.310806481
 21
-20.8570387625
  0
LWPOLYLINE
  5
372
100
AcDbEntity
  8
RACCORDO
100
AcDbPolyline
 62
253
  6
CONTINUOUS
 90
3
 70
0
 10
-38.1653822507
 20
-20.8701700704
 10
-38.1566697954
 20
-20.8703406751
 10
-37.7838861945
 20
-20.8781072728
  0
LINE
  5
373
100
AcDbEntity
  8
0
100
AcDbLine
 62
253
  6
CONTINUOUS
 10
-35.0102264717
 20
-21.6124414913
 11
-36.6463994398
 21
-21.5266932995
  0
LWPOLYLINE
  5
374
100
AcDbEntity
  8
RACCORDO
100
AcDbPolyline
 62
253
  6
CONTINUOUS
 90
22
 70
0
 10
-36.6463994398
 20
-21.5266932995
 10
-36.6957451282
 20
-21.5223427488
 10
-36.7442585276
 20
-21.5146485349
 10
-36.7919396381
 20
-21.5036106578
 10
-36.8390383476
 20
-21.4891402001
 10
-36.8853047681
 20
-21.4713260792
 10
-36.9299892355
 20
-21.4504350478
 10
-36.973046537
 20
-21.4264223514
 10
-37.0145218854
 20
-21.3993327446
 10
-37.0538012556
 20
-21.3695672443
 10
-37.0908520934
 20
-21.3370840993
 10
-37.1257069529
 20
-21.3019250607
 10
-37.1578494716
 20
-21.2646163989
 10
-37.1872364159
 20
-21.2251282759
 10
-37.2139110195
 20
-21.1834905297
 10
-37.2374866208
 20
-21.1403189438
 10
-37.2579188283
 20
-21.0955695792
 10
-37.2752520335
 20
-21.0492863749
 10
-37.2892327501
 20
-21.0022169311
 10
-37.2997764824
 20
-20.9546104478
 10
-37.306967726
 20
-20.9062177249
 10
-37.310806481
 20
-20.8570387625
  0
LWPOLYLINE
  5
375
100
AcDbEntity
  8
RACCORDO
100
AcDbPolyline
 62
253
  6
CONTINUOUS
 90
16
 70
0
 10
-36.6463994381
 20
22.026008067
 10
-36.6489796623
 20
22.0231395804
 10
-36.6512460121
 20
22.0148508595
 10
-36.6531737433
 20
22.0012324013
 10
-36.6547418089
 20
21.9824328929
 10
-36.6559330885
 20
21.9586575887
 10
-36.6567345753
 20
21.9301660691
 10
-36.6571375184
 20
21.8972694064
 10
-36.6571375188
 20
21.8603267687
 10
-36.6567345762
 20
21.8197414981
 10
-36.6559330901
 20
21.7759567074
 10
-36.6547418111
 20
21.7294504419
 10
-36.6531737457
 20
21.6807304602
 10
-36.6512460142
 20
21.6303286903
 10
-36.6489796636
 20
21.5787954222
 10
-36.6463994381
 20
21.5266932996
  0
LWPOLYLINE
  5
376
100
AcDbEntity
  8
RACCORDO
100
AcDbPolyline
 62
253
  6
CONTINUOUS
 90
16
 70
0
 10
-36.6463994398
 20
-22.0260080669
 10
-36.6489796995
 20
-22.023139509
 10
-36.6512460731
 20
-22.014850594
 10
-36.6531738169
 20
-22.0012318436
 10
-36.6547418852
 20
-21.9824319648
 10
-36.655933158
 20
-21.9586562426
 10
-36.6567346292
 20
-21.9301643127
 10
-36.6571375508
 20
-21.8972672924
 10
-36.6571375264
 20
-21.8603243785
 10
-36.6567345592
 20
-21.8197389571
 10
-36.6559330521
 20
-21.7759541764
 10
-36.6547417587
 20
-21.7294480923
 10
-36.6531736882
 20
-21.68072846
 10
-36.6512459628
 20
-21.630327203
 10
-36.6489796315
 20
-21.5787946072
 10
-36.6463994398
 20
-21.5266932995
  0
LWPOLYLINE
  5
377
100
AcDbEntity
  8
0
100
AcDbPolyline
 62
7
  6
CONTINUOUS
 90
2
 70
0
 43
0.3500000006
 10
-47.6898631897
 20
36.1443957367
 10
-47.6898631897
 20
37.6443916626
  0
LINE
  5
378
100
AcDbEntity
  8
0
100
AcDbLine
 62
7
  6
CONTINUOUS
 10
-34.0102264717
 20
-13.2689805518
 11
-35.0102264717
 21
-13.3213883311
  0
LWPOLYLINE
  5
379
100
AcDbEntity
  8
0
100
AcDbPolyline
 62
7
  6
CONTINUOUS
 90
4
 70
0
 43
0.3500000006
 10
-44.6184356232
 20
38.5015386658
 10
-44.6184356232
 20
39.1443921204
 10
-43.1184351654
 20
39.1443921204
 10
-43.9755776367
 20
36.1443957367
  0
LINE
  5
37A
100
AcDbEntity
  8
0
100
AcDbLine
 62
7
  6
CONTINUOUS
 10
-34.0102264717
 20
-9.7310194482
 11
-35.0102264717
 21
-9.6786116689
  0
LWPOLYLINE
  5
37B
100
AcDbEntity
  8
0
100
AcDbPolyline
 62
7
  6
CONTINUOUS
 90
7
 70
0
 10
-38.1653823031
 20
20.870169067
 10
-38.3288653457
 20
17.4622448614
 10
-38.4661626982
 20
13.9707283109
 10
-38.5729568584
 20
10.478145763
 10
-38.6492366313
 20
6.9847636133
 10
-38.6949935611
 20
3.4908483179
 10
-38.6957165778
 20
3.3249999107
  0
LWPOLYLINE
  5
37C
100
AcDbEntity
  8
RACCORDO
100
AcDbPolyline
 62
7
  6
CONTINUOUS
 90
22
 70
0
 10
-37.7838857836
 20
20.8781072544
 10
-37.7773706141
 20
20.962165691
 10
-37.764964039
 20
21.045553356
 10
-37.7467286005
 20
21.1278589212
 10
-37.7227570245
 20
21.208671297
 10
-37.6931679871
 20
21.2875977207
 10
-37.6581018451
 20
21.3642643446
 10
-37.6177262463
 20
21.4382971873
 10
-37.5722406764
 20
21.5093244475
 10
-37.5218693698
 20
21.5769935773
 10
-37.4668593606
 20
21.6409689569
 10
-37.4074801883
 20
21.7009339372
 10
-37.3440242949
 20
21.7565914423
 10
-37.2768016473
 20
21.8076660899
 10
-37.206144096
 20
21.8539026103
 10
-37.1324053923
 20
21.8950684834
 10
-37.0559534843
 20
21.9309573932
 10
-36.9771609631
 20
21.9613936532
 10
-36.8964085343
 20
21.9862284412
 10
-36.81409129
 20
22.0053365717
 10
-36.7306176138
 20
22.018619387
 10
-36.6463994381
 20
22.026008067
  0
LWPOLYLINE
  5
37D
100
AcDbEntity
  8
0
100
AcDbPolyline
 62
7
  6
CONTINUOUS
 90
4
 70
0
 10
-38.7036522227
 20
-1.2421442419
 10
-38.7035413474
 20
-1.2431983408
 10
-38.7034187168
 20
-1.2464715991
 10
-38.7032902271
 20
-1.2519048344
  0
LWPOLYLINE
  5
37E
100
AcDbEntity
  8
0
100
AcDbPolyline
 62
7
  6
CONTINUOUS
 90
3
 70
0
 10
-38.6956492558
 20
0.8741852814
 10
-38.6954924399
 20
0.8717545021
 10
-38.6953399949
 20
0.8677274584
  0
LWPOLYLINE
  5
37F
100
AcDbEntity
  8
0
100
AcDbPolyline
 62
7
  6
CONTINUOUS
 90
3
 70
0
 10
-38.6957324378
 20
3.3249999798
 10
-38.6957056402
 20
3.3243548134
 10
-38.6956885859
 20
3.3224966423
  0
LWPOLYLINE
  5
380
100
AcDbEntity
  8
RACCORDO
100
AcDbPolyline
 62
253
  6
CONTINUOUS
 90
10
 70
0
 10
-37.7838861945
 20
-20.8781072728
 10
-37.9581031213
 20
-16.2407586027
 10
-38.0888254389
 20
-11.6018187984
 10
-38.1760036674
 20
-6.9616951414
 10
-38.2196023126
 20
-2.3206884516
 10
-38.2196023311
 20
2.3206845067
 10
-38.1760037174
 20
6.9616915912
 10
-38.0888255037
 20
11.6018160374
 10
-37.9581031732
 20
16.240757025
 10
-37.7838861945
 20
20.8781072719
  0
LWPOLYLINE
  5
381
100
AcDbEntity
  8
RACCORDO
100
AcDbPolyline
 62
253
  6
CONTINUOUS
 90
10
 70
0
 10
-37.310806481
 20
-20.8570387625
 10
-37.4849805701
 20
-16.223696831
 10
-37.6156111398
 20
-11.589577244
 10
-37.7026981901
 20
-6.9546800014
 10
-37.7462417248
 20
-2.3184867531
 10
-37.74624174
 20
2.3184841508
 10
-37.7026982243
 20
6.9546776594
 10
-37.6156111739
 20
11.5895754224
 10
-37.4849805925
 20
16.2236957902
 10
-37.3108064802
 20
20.8570387627
  0
LINE
  5
382
100
AcDbEntity
  8
0
100
AcDbLine
 62
7
  6
CONTINUOUS
 10
-38.6957324376
 20
3.325
 11
-38.6957045716
 21
3.324238381
  0
LINE
  5
383
100
AcDbEntity
  8
0
100
AcDbLine
 62
7
  6
CONTINUOUS
 10
-38.6953966791
 20
0.8694256168
 11
-38.69519283
 21
0.8621295224
  0
LINE
  5
384
100
AcDbEntity
  8
0
100
AcDbLine
 62
7
  6
CONTINUOUS
 10
-38.7012375809
 20
0.2805743347
 11
-38.7014190568
 21
0.2885455847
  0
LINE
  5
385
100
AcDbEntity
  8
0
100
AcDbLine
 62
7
  6
CONTINUOUS
 10
-38.6952658808
 20
0.8651193647
 11
-38.6950515867
 21
0.8549808316
  0
LINE
  5
386
100
AcDbEntity
  8
0
100
AcDbLine
 62
7
  6
CONTINUOUS
 10
-38.695138764
 20
0.8596001382
 11
-38.6949167749
 21
0.8463038221
  0
LINE
  5
387
100
AcDbEntity
  8
0
100
AcDbLine
 62
7
  6
CONTINUOUS
 10
-38.7013460265
 20
0.2848805725
 11
-38.7015789865
 21
0.2990720703
  0
LINE
  5
388
100
AcDbEntity
  8
0
100
AcDbLine
 62
7
  6
CONTINUOUS
 10
-38.7032870852
 20
-1.2520608171
 11
-38.7030144005
 21
-1.2694054406
  0
LWPOLYLINE
  5
389
100
AcDbEntity
  8
0
100
AcDbPolyline
 62
7
  6
CONTINUOUS
 90
6
 70
0
 10
-38.6964066254
 20
-3.325
 10
-38.6491201547
 20
-6.9914294026
 10
-38.5727821547
 20
-10.4848101542
 10
-38.4659297926
 20
-13.9773907456
 10
-38.3285742647
 20
-17.4689047809
 10
-38.165382303
 20
-20.8701690677
  0
LINE
  5
38A
100
AcDbEntity
  8
0
100
AcDbLine
 62
7
  6
CONTINUOUS
 10
-38.7030543177
 20
-1.2663859977
 11
-38.7024380111
 21
-1.3271164504
  0
LINE
  5
38B
100
AcDbEntity
  8
0
100
AcDbLine
 62
7
  6
CONTINUOUS
 10
-38.6949167749
 20
0.8463038221
 11
-38.6945600225
 21
0.81171048
  0
LINE
  5
38C
100
AcDbEntity
  8
0
100
AcDbLine
 62
7
  6
CONTINUOUS
 10
-38.70155238
 20
0.2970655097
 11
-38.7018649606
 21
0.328779723
  0
LINE
  5
38D
100
AcDbEntity
  8
0
100
AcDbLine
 62
7
  6
CONTINUOUS
 10
-38.7045817856
 20
-2.1249999999
 11
-38.6964080023
 21
-3.3247551026
  0
LINE
  5
38E
100
AcDbEntity
  8
0
100
AcDbLine
 62
7
  6
CONTINUOUS
 10
-38.7025627753
 20
-1.3123529189
 11
-38.697166436
 21
-1.9381524493
  0
LINE
  5
38F
100
AcDbEntity
  8
0
100
AcDbLine
 62
7
  6
CONTINUOUS
 10
-38.6945871097
 20
0.8150897382
 11
-38.6942114312
 21
0.7461779954
  0
LINE
  5
390
100
AcDbEntity
  8
0
100
AcDbLine
 62
7
  6
CONTINUOUS
 10
-38.7018274298
 20
0.3238747417
 11
-38.7022157209
 21
0.4038218779
  0
LINE
  5
391
100
AcDbEntity
  8
0
100
AcDbLine
 62
7
  6
CONTINUOUS
 10
-38.6972742564
 20
-1.9191874435
 11
-38.6964449978
 21
-2.1427743323
  0
LINE
  5
392
100
AcDbEntity
  8
0
100
AcDbLine
 62
7
  6
CONTINUOUS
 10
-38.6942195662
 20
0.7484981687
 11
-38.6940862395
 21
0.585
  0
LINE
  5
393
100
AcDbEntity
  8
0
100
AcDbLine
 62
7
  6
CONTINUOUS
 10
-38.7060915122
 20
0.2750124503
 11
-38.7076023168
 21
-1.2796811965
  0
LINE
  5
394
100
AcDbEntity
  8
0
100
AcDbLine
 62
7
  6
CONTINUOUS
 10
-38.7021823057
 20
0.3926842196
 11
-38.7022678758
 21
0.585
  0
LINE
  5
395
100
AcDbEntity
  8
0
100
AcDbLine
 62
7
  6
CONTINUOUS
 10
-38.6956885859
 20
3.3224966423
 11
-38.6956894673
 21
3.3121300649
  0
LINE
  5
396
100
AcDbEntity
  8
0
100
AcDbLine
 62
7
  6
CONTINUOUS
 10
-38.6964517864
 20
-2.1369027554
 11
-38.6965144648
 21
-2.2354315048
  0
LINE
  5
397
100
AcDbEntity
  8
0
100
AcDbLine
 62
7
  6
CONTINUOUS
 10
-38.6940631622
 20
0.6041156264
 11
-38.6946039463
 21
0.4199851204
  0
LINE
  5
398
100
AcDbEntity
  8
0
100
AcDbLine
 62
7
  6
CONTINUOUS
 10
-38.7022678758
 20
0.585
 11
-38.7016338001
 21
0.7615068273
  0
LINE
  5
399
100
AcDbEntity
  8
0
100
AcDbLine
 62
7
  6
CONTINUOUS
 10
-38.7009215332
 20
2.5382532602
 11
-38.7052312264
 21
0.8750150012
  0
LINE
  5
39A
100
AcDbEntity
  8
0
100
AcDbLine
 62
7
  6
CONTINUOUS
 10
-38.6956837821
 20
3.3151191
 11
-38.6963210798
 21
3.1961776711
  0
LINE
  5
39B
100
AcDbEntity
  8
0
100
AcDbLine
 62
7
  6
CONTINUOUS
 10
-38.6963059416
 20
3.1984944308
 11
-38.7012102054
 21
2.4902914399
  0
LWPOLYLINE
  5
39C
100
AcDbEntity
  8
0
100
AcDbPolyline
 62
7
  6
CONTINUOUS
 90
3
 70
0
 10
-38.6964957858
 20
-2.230277843
 10
-38.6966458909
 20
-2.2568461223
 10
-38.6967330124
 20
-2.2645366122
  0
LINE
  5
39D
100
AcDbEntity
  8
0
100
AcDbLine
 62
7
  6
CONTINUOUS
 10
-38.6946039463
 20
0.4199851204
 11
-38.6952357574
 21
0.3383619991
  0
LINE
  5
39E
100
AcDbEntity
  8
0
100
AcDbLine
 62
7
  6
CONTINUOUS
 10
-38.7016843337
 20
0.7532282237
 11
-38.7011082865
 21
0.8260734776
  0
LINE
  5
39F
100
AcDbEntity
  8
0
100
AcDbLine
 62
7
  6
CONTINUOUS
 10
-38.6951473171
 20
0.3470310258
 11
-38.6955351118
 21
0.3139248626
  0
LINE
  5
3A0
100
AcDbEntity
  8
0
100
AcDbLine
 62
7
  6
CONTINUOUS
 10
-38.7011892371
 20
0.8182576147
 11
-38.7007565161
 21
0.8528860879
  0
LINE
  5
3A1
100
AcDbEntity
  8
0
100
AcDbLine
 62
7
  6
CONTINUOUS
 10
-38.7008117646
 20
0.8493954642
 11
-38.7006163888
 21
0.8605835393
  0
LWPOLYLINE
  5
3A2
100
AcDbEntity
  8
0
100
AcDbPolyline
 62
7
  6
CONTINUOUS
 90
5
 70
0
 10
-38.6967370234
 20
-2.2648171407
 10
-38.6968234773
 20
-2.2696712884
 10
-38.6969193471
 20
-2.2729243261
 10
-38.6970242191
 20
-2.274555292
 10
-38.6970805729
 20
-2.274760755
  0
LINE
  5
3A3
100
AcDbEntity
  8
0
100
AcDbLine
 62
7
  6
CONTINUOUS
 10
-38.6955351118
 20
0.3139248626
 11
-38.6958514967
 21
0.2950591044
  0
LINE
  5
3A4
100
AcDbEntity
  8
0
100
AcDbLine
 62
7
  6
CONTINUOUS
 10
-38.6958109374
 20
0.2971141293
 11
-38.6960134449
 21
0.2878788483
  0
LINE
  5
3A5
100
AcDbEntity
  8
0
100
AcDbLine
 62
7
  6
CONTINUOUS
 10
-38.700636444
 20
0.8595659545
 11
-38.7004206703
 21
0.8685913872
  0
LWPOLYLINE
  5
3A6
100
AcDbEntity
  8
0
100
AcDbPolyline
 62
7
  6
CONTINUOUS
 90
5
 70
0
 10
-38.7005152292
 20
0.865104236
 10
-38.7003944096
 20
0.8694244313
 10
-38.7002745138
 20
0.87250104
 10
-38.7001550298
 20
0.8743595629
 10
-38.7000359455
 20
0.875
  0
LWPOLYLINE
  5
3A7
100
AcDbEntity
  8
0
100
AcDbPolyline
 62
7
  6
CONTINUOUS
 90
5
 70
0
 10
-38.6959518871
 20
0.2904342395
 10
-38.696176842
 20
0.2822663508
 10
-38.6963409445
 20
0.2782382306
 10
-38.6965048024
 20
0.2758117427
 10
-38.6965148035
 20
0.2757618652
  0
LWPOLYLINE
  5
3A8
100
AcDbEntity
  8
0
100
AcDbPolyline
 62
7
  6
CONTINUOUS
 90
5
 70
0
 10
-38.6960948672
 20
0.284895921
 10
-38.6962380949
 20
0.2805756864
 10
-38.6963809921
 20
0.27749904
 10
-38.6965241537
 20
0.2756404778
 10
-38.6966675679
 20
0.275
  0
LWPOLYLINE
  5
3A9
100
AcDbEntity
  8
RACCORDO
100
AcDbPolyline
 62
253
  6
CONTINUOUS
 90
22
 70
0
 10
-37.3108064802
 20
20.8570387627
 10
-37.3069664922
 20
20.9062254779
 10
-37.2997736037
 20
20.9546247307
 10
-37.2892278146
 20
21.002236521
 10
-37.2752447091
 20
21.0493097029
 10
-37.257908703
 20
21.0955954223
 10
-37.2374730439
 20
21.1403471176
 10
-37.2138927765
 20
21.1835216249
 10
-37.1872128562
 20
21.225162108
 10
-37.1578213969
 20
21.2646514969
 10
-37.1256754041
 20
21.3019593404
 10
-37.0908178724
 20
21.3371160895
 10
-37.0537659002
 20
21.3695960279
 10
-37.0144876221
 20
21.3993570714
 10
-36.9730149034
 20
21.4264413041
 10
-36.9299604386
 20
21.4504492612
 10
-36.8852781974
 20
21.4713367873
 10
-36.8390142101
 20
21.4891480379
 10
-36.791919262
 20
21.5036160142
 10
-36.7442436149
 20
21.5146517169
 10
-36.6957370069
 20
21.5223441453
 10
-36.6463994381
 20
21.5266932996
  0
LINE
  5
3AA
100
AcDbEntity
  8
0
100
AcDbLine
 62
7
  6
CONTINUOUS
 10
-38.6969493141
 20
-2.2735315102
 11
-38.6970805638
 21
-2.2747607471
  0
LINE
  5
3AB
100
AcDbEntity
  8
0
100
AcDbLine
 62
7
  6
CONTINUOUS
 10
-38.7002265258
 20
0.8733975538
 11
-38.7000359455
 21
0.875
  0
LWPOLYLINE
  5
3AC
100
AcDbEntity
  8
0
100
AcDbPolyline
 62
7
  6
CONTINUOUS
 90
4
 70
0
 10
-38.7036522318
 20
-1.242144243
 10
-38.703604077
 20
-1.2423458306
 10
-38.70350361
 20
-1.2439688481
 10
-38.703397776
 20
-1.2472138167
  0
LWPOLYLINE
  5
3AD
100
AcDbEntity
  8
0
100
AcDbPolyline
 62
7
  6
CONTINUOUS
 90
4
 70
0
 10
-38.6958096507
 20
0.875
 10
-38.6956683004
 20
0.8743548471
 10
-38.6955306396
 20
0.8724967193
 10
-38.6953966791
 20
0.8694256168
  0
LINE
  5
3AE
100
AcDbEntity
  8
0
100
AcDbLine
 62
7
  6
CONTINUOUS
 10
-38.6958096507
 20
0.875
 11
-38.6956596492
 21
0.8742380746
  0
LWPOLYLINE
  5
3AF
100
AcDbEntity
  8
0
100
AcDbPolyline
 62
7
  6
CONTINUOUS
 90
3
 70
0
 10
-38.700895302
 20
0.2750002077
 10
-38.7010124479
 20
0.2756452449
 10
-38.7011265372
 20
0.2775032872
  0
LWPOLYLINE
  5
3B0
100
AcDbEntity
  8
0
100
AcDbPolyline
 62
7
  6
CONTINUOUS
 90
3
 70
0
 10
-38.7008953021
 20
0.275
 10
-38.7010752722
 20
0.2765027626
 10
-38.7012504639
 20
0.2810156899
  0
LINE
  5
3B1
100
AcDbEntity
  8
0
100
AcDbLine
 62
7
  6
CONTINUOUS
 10
-35.0102264717
 20
-22.1117562587
 11
-35.0102264717
 21
22.1117562587
  0
LINE
  5
3B2
100
AcDbEntity
  8
0
100
AcDbLine
 62
253
  6
CONTINUOUS
 10
-34.3892920892
 20
13.288846539
 11
-34.3892920892
 21
9.711153461
  0
LINE
  5
3B3
100
AcDbEntity
  8
0
100
AcDbLine
 62
253
  6
CONTINUOUS
 10
-34.3892920892
 20
-9.711153461
 11
-34.3892920892
 21
-13.288846539
  0
LINE
  5
3B4
100
AcDbEntity
  8
0
100
AcDbLine
 62
7
  6
CONTINUOUS
 10
-34.0102264717
 20
13.2689805518
 11
-34.0102264717
 21
9.7310194482
  0
LINE
  5
3B5
100
AcDbEntity
  8
0
100
AcDbLine
 62
7
  6
CONTINUOUS
 10
-34.0102264717
 20
-9.7310194482
 11
-34.0102264717
 21
-13.2689805518
  0
LINE
  5
3B6
100
AcDbEntity
  8
0
100
AcDbLine
 62
7
  6
CONTINUOUS
 10
-38.7000359455
 20
0.875
 11
-38.6968174482
 21
0.8749997705
  0
LINE
  5
3B7
100
AcDbEntity
  8
0
100
AcDbLine
 62
7
  6
CONTINUOUS
 10
-38.6976757082
 20
0.2749999278
 11
-38.7000244491
 21
0.2750001184
  0
LINE
  5
3B8
100
AcDbEntity
  8
0
100
AcDbLine
 62
7
  6
CONTINUOUS
 10
-38.6957653198
 20
3.325
 11
-38.6957324378
 21
3.3249999798
  0
LWPOLYLINE
  5
3B9
100
AcDbEntity
  8
0
100
AcDbPolyline
 62
7
  6
CONTINUOUS
 90
10
 70
0
 43
0.3500000006
 10
-45.6898625793
 20
36.6443958893
 10
-45.6184359283
 20
36.5015380554
 10
-45.6184359283
 20
36.4301068726
 10
-45.7612937622
 20
36.2872490387
 10
-45.8327204132
 20
36.2872490387
 10
-45.9041470642
 20
36.3586802216
 10
-45.9041470642
 20
36.4301068726
 10
-45.8327204132
 20
36.5729647064
 10
-45.7612937622
 20
36.6443958893
 10
-45.6898625793
 20
36.6443958893
  0
LINE
  5
3BA
100
AcDbEntity
  8
0
100
AcDbLine
 62
7
  6
CONTINUOUS
 10
-34.0102264717
 20
9.7310194482
 11
-35.0102264717
 21
9.6786116689
  0
LINE
  5
3BB
100
AcDbEntity
  8
0
100
AcDbLine
 62
7
  6
CONTINUOUS
 10
-34.0102264717
 20
13.2689805518
 11
-35.0102264717
 21
13.3213883311
  0
LINE
  5
3BC
100
AcDbEntity
  8
RACCORDO
100
AcDbLine
 62
253
  6
CONTINUOUS
 10
-37.7385841159
 20
20.8757683812
 11
-37.3108064802
 21
20.8570387627
  0
LWPOLYLINE
  5
3BD
100
AcDbEntity
  8
RACCORDO
100
AcDbPolyline
 62
253
  6
CONTINUOUS
 90
4
 70
0
 10
-37.7838743213
 20
20.878106804
 10
-37.7797085837
 20
20.8778215617
 10
-37.7707052519
 20
20.8773332398
 10
-37.7385841159
 20
20.8757683812
  0
LINE
  5
3BE
100
AcDbEntity
  8
0
100
AcDbLine
 62
253
  6
CONTINUOUS
 10
-36.6463994381
 20
21.5266932996
 11
-35.0102264717
 21
21.6124414913
  0
LINE
  5
3BF
100
AcDbEntity
  8
RACCORDO
100
AcDbLine
 62
7
  6
CONTINUOUS
 10
-37.0297760561
 20
22.0059161498
 11
-35.0102264717
 21
22.1117562587
  0
LINE
  5
3C0
100
AcDbEntity
  8
0
100
AcDbLine
 62
7
  6
CONTINUOUS
 10
-36.6463994379
 20
22.026008067
 11
-35.0102264717
 21
22.1117562587
  0
LWPOLYLINE
  5
3C1
100
AcDbEntity
  8
RACCORDO
100
AcDbPolyline
 62
253
  6
CONTINUOUS
 90
3
 70
0
 10
-38.1653822506
 20
20.8701700707
 10
-38.1646742247
 20
20.8701816244
 10
-37.7838861945
 20
20.8781072719
  0
LWPOLYLINE
  5
3C2
100
AcDbEntity
  8
0
100
AcDbPolyline
 62
7
  6
CONTINUOUS
 90
3
 70
0
 43
0.3500000006
 10
-47.1898630371
 20
36.7872491913
 10
-48.6898634949
 20
36.7872491913
 10
-48.0470055084
 20
39.1443921204
  0
ARC
  5
3C3
100
AcDbEntity
  8
RACCORDO
100
AcDbCircle
 62
7
  6
CONTINUOUS
 10
-36.967016408
 20
-20.8075584284
 40
1.2
100
AcDbArc
 50
182.9907948877
 51
267.0
  0
ARC
  5
3C4
100
AcDbEntity
  8
RACCORDO
100
AcDbCircle
 62
7
  6
CONTINUOUS
 10
-36.9670164142
 20
20.8075584281
 40
1.2
100
AcDbArc
 50
93.0
 51
177.0092051127
  0
ELLIPSE
  5
3C5
100
AcDbEntity
  8
0
100
AcDbEllipse
 62
7
  6
CONTINUOUS
 10
21.786720553
 20
-21.6110700857
 30
0.0
 11
-0.3545231217
 21
0.3545231217
 31
0.0
 40
0.9972646886
 41
2.3575640181
 42
3.9256212891
  0
ELLIPSE
  5
3C6
100
AcDbEntity
  8
0
100
AcDbEllipse
 62
7
  6
CONTINUOUS
 10
21.786720553
 20
21.6110700857
 30
0.0
 11
0.3545231217
 21
0.3545231217
 31
0.0
 40
0.9972646886
 41
-0.7840286355
 42
0.7840286355
  0
ELLIPSE
  5
3C7
100
AcDbEntity
  8
0
100
AcDbEllipse
 62
7
  6
CONTINUOUS
 10
-21.786720553
 20
21.6110700857
 30
0.0
 11
0.3545231217
 21
-0.3545231217
 31
0.0
 40
0.9972646886
 41
2.3575640181
 42
3.9256212891
  0
ELLIPSE
  5
3C8
100
AcDbEntity
  8
0
100
AcDbEllipse
 62
7
  6
CONTINUOUS
 10
-21.786720553
 20
-21.6110700857
 30
0.0
 11
0.3545231217
 21
0.3545231217
 31
0.0
 40
0.9972646886
 41
-3.9256212891
 42
-2.3575640181
  0
ENDSEC
  0
SECTION
  2
OBJECTS
  0
DICTIONARY
  5
C
100
AcDbDictionary
280
0
281
1
  3
ACAD_GROUP
350
D
  3
ACAD_MLINESTYLE
350
17
  3
ACAD_LAYOUT
350
1A
  3
ACAD_PLOTSETTINGS
350
19
  3
ACAD_PLOTSTYLENAME
350
E
  0
DICTIONARY
  5
D
102
{ACAD_REACTORS
330
C
102
}
100
AcDbDictionary
280
0
281
1
  0
ACDBDICTIONARYWDFLT
  5
E
102
{ACAD_REACTORS
330
C
102
}
100
AcDbDictionary
281
1
  3
Normal
350
F
100
AcDbDictionaryWithDefault
340
F
  0
DICTIONARY
  5
17
102
{ACAD_REACTORS
330
C
102
}
100
AcDbDictionary
280
0
281
1
  3
Standard
350
18
  0
DICTIONARY
  5
19
102
{ACAD_REACTORS
330
C
102
}
100
AcDbDictionary
281
1
  0
DICTIONARY
  5
1A
102
{ACAD_REACTORS
330
C
102
}
100
AcDbDictionary
281
1
  3
Model
350
3C9
  3
Layout1
350
3CA
  0
ACDBPLACEHOLDER
  5
F
102
{ACAD_REACTORS
330
E
102
}
  0
MLINESTYLE
  5
18
102
{ACAD_REACTORS
330
17
102
}
100
AcDbMlineStyle
  2
STANDARD
 70
0
  3

 62
256
 51
90.0
 52
90.0
 71
2
 49
0.5
 62
256
  6
BYLAYER
 49
-0.5
 62
256
  6
BYLAYER
  0
LAYOUT
  5
3C9
102
{ACAD_REACTORS
330
1A
102
}
100
AcDbPlotSettings
  1

  2
none_device
  4
ISO_A4_(297.00_x_210.00_MM)
  6

 40
0.0
 41
0.0
 42
0.0
 43
0.0
 44
297.0
 45
210.0
 46
0.0
 47
0.0
 48
0.0
 49
0.0
140
0.0
141
0.0
142
1.0
143
1.0
 70
1024
 72
1
 73
0
 74
0
  7

 75
0
147
1.0
148
0.0
149
0.0
100
AcDbLayout
  1
Model
 70
0
 71
0
 10
0.0
 20
0.0
 11
297.0
 21
210.0
 12
0.0
 22
0.0
 32
0.0
 14
0.0
 24
0.0
 34
0.0
 15
0.0
 25
0.0
 35
0.0
146
0.0
 13
0.0
 23
0.0
 33
0.0
 16
1.0
 26
0.0
 36
0.0
 17
0.0
 27
1.0
 37
0.0
 76
0
330
214
345
0
346
0
  0
LAYOUT
  5
3CA
102
{ACAD_REACTORS
330
1A
102
}
100
AcDbPlotSettings
  1

  2
none_device
  4
ISO_A4_(297.00_x_210.00_MM)
  6

 40
0.0
 41
0.0
 42
0.0
 43
0.0
 44
297.0
 45
210.0
 46
0.0
 47
0.0
 48
0.0
 49
0.0
140
0.0
141
0.0
142
1.0
143
1.0
 70
0
 72
1
 73
0
 74
0
  7

 75
0
147
1.0
148
0.0
149
0.0
100
AcDbLayout
  1
Layout1
 70
0
 71
1
 10
0.0
 20
0.0
 11
297.0
 21
210.0
 12
0.0
 22
0.0
 32
0.0
 14
0.0
 24
0.0
 34
0.0
 15
0.0
 25
0.0
 35
0.0
146
0.0
 13
0.0
 23
0.0
 33
0.0
 16
1.0
 26
0.0
 36
0.0
 17
0.0
 27
1.0
 37
0.0
 76
0
330
215
345
0
346
0
  0
ENDSEC
  0
EOF
