  0
SECTION
  2
HEADER
  9
$ACADVER
  1
AC1015
  9
$DWGCODEPAGE
  3
ANSI_1252
  9
$EXTMAX
 10
297.0
 20
210.0
 30
0.0
  9
$EXTMIN
 10
0.0
 20
0.0
 30
0.0
  9
$LIMMIN
 10
0.0
 20
0.0
  9
$LIMMAX
 10
297.0
 20
210.0
  9
$VIEWCTR
 10
148.5
 20
105.0
  9
$VIEWSIZE
 40
210.0
  9
$CLAYER
  8
0
  9
$LTSCALE
 40
16.335
  9
$CELTYPE
  6
BYLAYER
  9
$DIMSCALE
 40
1.0
  9
$DIMASZ
 40
3.0
  9
$DIMEXO
 40
1.85625
  9
$DIMDLI
 40
11.286
  9
$DIMEXE
 40
5.346
  9
$DIMCEN
 40
2.673
  9
$DIMLFAC
 40
1.0
  9
$DIMBLK
  1
_FILLED
  9
$DIMTXT
 40
3.0
  9
$DIMTOL
 70
1
  9
$DIMLIM
 70
0
  9
$DIMTFAC
 40
1.0
  9
$DIMTP
 40
0.01
  9
$DIMTM
 40
0.01
  9
$PDMODE
 70
3
  9
$PDSIZE
 40
3.0
  9
$HANDSEED
  5
3C2
  9
$TILEMODE
 70
1
  9
$MEASUREMENT
 70
1
  9
$INSUNITS
 70
4
  0
ENDSEC
  0
SECTION
  2
CLASSES
  0
CLASS
  1
ACDBDICTIONARYWDFLT
  2
AcDbDictionaryWithDefault
  3
AutoCAD 2000
 90
0
280
0
281
0
  0
CLASS
  1
ACDBPLACEHOLDER
  2
AcDbPlaceHolder
  3
AutoCAD 2000
 90
0
280
0
281
0
  0
CLASS
  1
LAYOUT
  2
AcDbLayout
  3
AutoCAD 2000
 90
0
280
0
281
0
  0
ENDSEC
  0
SECTION
  2
TABLES
  0
TABLE
  2
VPORT
  5
8
100
AcDbSymbolTable
 70
2
  0
VPORT
  5
1F4
100
AcDbSymbolTableRecord
100
AcDbViewportTableRecord
  2
*ACTIVE
 70
0
 10
0.0
 20
0.0
 11
1.0
 21
1.0
 12
148.5
 22
105.0
 13
0.0
 23
0.0
 14
1.0
 24
1.0
 15
0.0
 25
0.0
 16
0.0
 26
0.0
 36
1.0
 17
0.0
 27
0.0
 37
0.0
 40
210.0
 41
1.4142857143
 42
50.0
 43
0.0
 44
0.0
 50
0.0
 51
0.0
 71
0
 72
100
 73
1
 74
1
 75
0
 76
0
 77
0
 78
0
  0
ENDTAB
  0
TABLE
  2
LTYPE
  5
5
100
AcDbSymbolTable
 70
6
  0
LTYPE
  5
14
100
AcDbSymbolTableRecord
100
AcDbLinetypeTableRecord
  2
BYBLOCK
 70
0
  3

 72
65
 73
0
 40
0.0
  0
LTYPE
  5
15
100
AcDbSymbolTableRecord
100
AcDbLinetypeTableRecord
  2
BYLAYER
 70
0
  3

 72
65
 73
0
 40
0.0
  0
LTYPE
  5
16
100
AcDbSymbolTableRecord
100
AcDbLinetypeTableRecord
  2
CONTINUOUS
 70
64
  3
Solid line
 72
65
 73
0
 40
0.0
  0
LTYPE
  5
1F5
100
AcDbSymbolTableRecord
100
AcDbLinetypeTableRecord
  2
CENTER
 70
64
  3
____ _ ____ _ ____ _ ____ _ ____ _ ____ _ ____
 72
65
 73
4
 40
0.6
 49
0.375
 74
0
 49
-0.075
 74
0
 49
0.075
 74
0
 49
-0.075
 74
0
  0
LTYPE
  5
1F6
100
AcDbSymbolTableRecord
100
AcDbLinetypeTableRecord
  2
HIDDEN
 70
64
  3
- - - - - - - - - - - - - - - - - - - -
 72
65
 73
2
 40
0.2
 49
0.1
 74
0
 49
-0.1
 74
0
  0
LTYPE
  5
1F7
100
AcDbSymbolTableRecord
100
AcDbLinetypeTableRecord
  2
PHANTOM
 70
64
  3
_____ _ _ _____ _ _ _____ _ _ _____
 72
65
 73
6
 40
0.8
 49
0.45
 74
0
 49
-0.05
 74
0
 49
0.1
 74
0
 49
-0.05
 74
0
 49
0.1
 74
0
 49
-0.05
 74
0
  0
LTYPE
  5
1F8
100
AcDbSymbolTableRecord
100
AcDbLinetypeTableRecord
  2
DOT
 70
64
  3
. . . . . . . . . . . . . . . . . . . .
 72
65
 73
2
 40
0.2
 49
0.1
 74
0
 49
-0.1
 74
0
  0
LTYPE
  5
1F9
100
AcDbSymbolTableRecord
100
AcDbLinetypeTableRecord
  2
DASHED
 70
64
  3
- - - - - - - - - - - - - - - - - - - -
 72
65
 73
2
 40
0.2
 49
0.1
 74
0
 49
-0.1
 74
0
  0
ENDTAB
  0
TABLE
  2
LAYER
  5
2
100
AcDbSymbolTable
 70
36
  0
LAYER
  5
10
100
AcDbSymbolTableRecord
100
AcDbLayerTableRecord
  2
0
 70
0
 62
7
  6
CONTINUOUS
370
-3
390
F
  0
LAYER
  5
1FA
100
AcDbSymbolTableRecord
100
AcDbLayerTableRecord
  2
DEFAULT_1
 70
0
 62
7
  6
CENTER
370
-3
390
F
  0
LAYER
  5
1FB
100
AcDbSymbolTableRecord
100
AcDbLayerTableRecord
  2
DEFAULT_2
 70
0
 62
7
  6
HIDDEN
370
-3
390
F
  0
LAYER
  5
1FC
100
AcDbSymbolTableRecord
100
AcDbLayerTableRecord
  2
DEFAULT_3
 70
0
 62
7
  6
PHANTOM
370
-3
390
F
  0
LAYER
  5
1FD
100
AcDbSymbolTableRecord
100
AcDbLayerTableRecord
  2
ASSI
 70
0
 62
7
  6
CONTINUOUS
370
-3
390
F
  0
LAYER
  5
1FE
100
AcDbSymbolTableRecord
100
AcDbLayerTableRecord
  2
COORDINATE
 70
0
 62
7
  6
CONTINUOUS
370
-3
390
F
  0
LAYER
  5
1FF
100
AcDbSymbolTableRecord
100
AcDbLayerTableRecord
  2
COPY_PUBLISH
 70
0
 62
7
  6
CONTINUOUS
370
-3
390
F
  0
LAYER
  5
200
100
AcDbSymbolTableRecord
100
AcDbLayerTableRecord
  2
COSMETIC
 70
0
 62
7
  6
CONTINUOUS
370
-3
390
F
  0
LAYER
  5
201
100
AcDbSymbolTableRecord
100
AcDbLayerTableRecord
  2
COSMETICI
 70
0
 62
7
  6
CONTINUOUS
370
-3
390
F
  0
LAYER
  5
202
100
AcDbSymbolTableRecord
100
AcDbLayerTableRecord
  2
CURVE
 70
0
 62
7
  6
CONTINUOUS
370
-3
390
F
  0
LAYER
  5
203
100
AcDbSymbolTableRecord
100
AcDbLayerTableRecord
  2
DRAFT
 70
0
 62
7
  6
CONTINUOUS
370
-3
390
F
  0
LAYER
  5
204
100
AcDbSymbolTableRecord
100
AcDbLayerTableRecord
  2
IMPORT_IGES
 70
0
 62
7
  6
CONTINUOUS
370
-3
390
F
  0
LAYER
  5
205
100
AcDbSymbolTableRecord
100
AcDbLayerTableRecord
  2
INTFCLR_11
 70
0
 62
7
  6
CONTINUOUS
370
-3
390
F
  0
LAYER
  5
206
100
AcDbSymbolTableRecord
100
AcDbLayerTableRecord
  2
INTF_1
 70
0
 62
7
  6
CONTINUOUS
370
-3
390
F
  0
LAYER
  5
207
100
AcDbSymbolTableRecord
100
AcDbLayerTableRecord
  2
INTF_3
 70
0
 62
7
  6
CONTINUOUS
370
-3
390
F
  0
LAYER
  5
208
100
AcDbSymbolTableRecord
100
AcDbLayerTableRecord
  2
NOTE
 70
0
 62
7
  6
CONTINUOUS
370
-3
390
F
  0
LAYER
  5
209
100
AcDbSymbolTableRecord
100
AcDbLayerTableRecord
  2
PIANI
 70
0
 62
7
  6
CONTINUOUS
370
-3
390
F
  0
LAYER
  5
20A
100
AcDbSymbolTableRecord
100
AcDbLayerTableRecord
  2
PUNTI
 70
0
 62
7
  6
CONTINUOUS
370
-3
390
F
  0
LAYER
  5
20B
100
AcDbSymbolTableRecord
100
AcDbLayerTableRecord
  2
RACCORDO
 70
0
 62
7
  6
CONTINUOUS
370
-3
390
F
  0
LAYER
  5
20C
100
AcDbSymbolTableRecord
100
AcDbLayerTableRecord
  2
SIMBOLI
 70
0
 62
7
  6
CONTINUOUS
370
-3
390
F
  0
LAYER
  5
20D
100
AcDbSymbolTableRecord
100
AcDbLayerTableRecord
  2
SMUSSO
 70
0
 62
7
  6
CONTINUOUS
370
-3
390
F
  0
LAYER
  5
20E
100
AcDbSymbolTableRecord
100
AcDbLayerTableRecord
  2
SNAPLINE
 70
0
 62
7
  6
CONTINUOUS
370
-3
390
F
  0
LAYER
  5
20F
100
AcDbSymbolTableRecord
100
AcDbLayerTableRecord
  2
SUPERFICI
 70
0
 62
7
  6
CONTINUOUS
370
-3
390
F
  0
LAYER
  5
210
100
AcDbSymbolTableRecord
100
AcDbLayerTableRecord
  2
TRASH
 70
0
 62
7
  6
CONTINUOUS
370
-3
390
F
  0
LAYER
  5
211
100
AcDbSymbolTableRecord
100
AcDbLayerTableRecord
  2
___SHELL
 70
0
 62
7
  6
CONTINUOUS
370
-3
390
F
  0
ENDTAB
  0
TABLE
  2
STYLE
  5
3
100
AcDbSymbolTable
 70
1
  0
STYLE
  5
11
100
AcDbSymbolTableRecord
100
AcDbTextStyleTableRecord
  2
STANDARD
 70
0
 40
0.0
 41
0.8
 50
0.0
 71
0
 42
0.2
  3
txt
  4

  0
STYLE
  5
212
100
AcDbSymbolTableRecord
100
AcDbTextStyleTableRecord
  2
TEXTSTYLE_1
 70
0
 40
0.0
 41
0.8
 50
0.0
 71
0
 42
0.2
  3
gdt
  4

  0
ENDTAB
  0
TABLE
  2
VIEW
  5
6
100
AcDbSymbolTable
 70
0
  0
ENDTAB
  0
TABLE
  2
UCS
  5
7
100
AcDbSymbolTable
 70
0
  0
ENDTAB
  0
TABLE
  2
APPID
  5
9
100
AcDbSymbolTable
 70
1
  0
APPID
  5
213
100
AcDbSymbolTableRecord
100
AcDbRegAppTableRecord
  2
ACAD
 70
0
  0
ENDTAB
  0
TABLE
  2
BLOCK_RECORD
  5
1
100
AcDbSymbolTable
 70
0
  0
BLOCK_RECORD
  5
214
100
AcDbSymbolTableRecord
100
AcDbBlockTableRecord
  2
*Model_Space
  0
BLOCK_RECORD
  5
215
100
AcDbSymbolTableRecord
100
AcDbBlockTableRecord
  2
*Paper_Space
  0
BLOCK_RECORD
  5
216
100
AcDbSymbolTableRecord
100
AcDbBlockTableRecord
  2
_FILLED
  0
BLOCK_RECORD
  5
217
100
AcDbSymbolTableRecord
100
AcDbBlockTableRecord
  2
*D0
  0
BLOCK_RECORD
  5
218
100
AcDbSymbolTableRecord
100
AcDbBlockTableRecord
  2
*D1
  0
BLOCK_RECORD
  5
219
100
AcDbSymbolTableRecord
100
AcDbBlockTableRecord
  2
*D2
  0
ENDTAB
  0
TABLE
  2
DIMSTYLE
  5
A
100
AcDbSymbolTable
 70
1
100
AcDbDimStyleTable
 71
0
  0
DIMSTYLE
105
21A
100
AcDbSymbolTableRecord
100
AcDbDimStyleTableRecord
  2
STANDARD
 70
0
  3

  4

 40
1.0
 41
3.0
 42
0.0625
 43
0.38
 44
0.18
 45
0.0
 46
0.0
 47
0.01
 48
0.01
140
3.0
141
0.09
142
0.0
143
25.4
144
1.0
145
0.0
146
1.0
147
0.09
 71
1.0
 72
0.0
 73
0
 74
0
 75
0
 76
0
 77
1
 78
8
170
0
171
2
172
0
173
0
174
0
175
0
176
0
177
0
178
0
270
2
271
2
272
2
273
2
274
2
275
0
280
0
281
0
282
0
283
1
284
8
285
0
286
0
287
3
288
0
340
11
341
216
342
216
343
216
344
216
  0
DIMSTYLE
105
21B
100
AcDbSymbolTableRecord
100
AcDbDimStyleTableRecord
  2
DIMSTYLE_1
 70
0
  3

  4

 40
1.0
 41
3.0
 42
0.0625
 43
0.38
 44
0.18
 45
0.0
 46
0.0
 47
0.0
 48
0.0
140
3.0
141
0.09
142
0.0
143
25.4
144
1.0
145
0.0
146
1.0
147
0.09
 71
0.0
 72
0.0
 73
0
 74
0
 75
0
 76
0
 77
1
 78
8
170
0
171
2
172
0
173
0
174
0
175
0
176
0
177
0
178
0
270
2
271
1
272
1
273
2
274
2
275
0
280
0
281
0
282
0
283
1
284
8
285
0
286
0
287
3
288
0
340
11
341
216
342
216
343
216
344
216
  0
ENDTAB
  0
ENDSEC
  0
SECTION
  2
BLOCKS
  0
BLOCK
  5
20
100
AcDbEntity
  8
0
100
AcDbBlockBegin
  2
*Model_Space
 70
0
 10
0.0
 20
0.0
 30
0.0
  3
*Model_Space
  1

  0
ENDBLK
  5
21
100
AcDbEntity
  8
0
100
AcDbBlockEnd
  0
BLOCK
  5
1C
100
AcDbEntity
  8
0
100
AcDbBlockBegin
  2
*Paper_Space
 70
0
 10
0.0
 20
0.0
 30
0.0
  3
*Paper_Space
  1

  0
ENDBLK
  5
1D
100
AcDbEntity
  8
0
100
AcDbBlockEnd
  0
BLOCK
  5
21C
100
AcDbEntity
  8
0
100
AcDbBlockBegin
  2
_FILLED
 70
64
 10
0.0
 20
0.0
  3
_FILLED
  1

  0
SOLID
  5
21D
100
AcDbEntity
  8
0
  6
BYBLOCK
 62
0
100
AcDbTrace
 10
0.0
 20
0.0
 11
-1.0
 21
0.3166666667
 12
-1.0
 22
-0.3166666667
 13
-1.0
 23
-0.3166666667
  0
ENDBLK
  5
21E
100
AcDbEntity
  8
0
  6
BYBLOCK
 62
0
100
AcDbBlockEnd
  0
BLOCK
  5
21F
100
AcDbEntity
  8
0
100
AcDbBlockBegin
 62
7
  6
CONTINUOUS
  2
*D0
 70
65
 10
0.0
 20
0.0
  3
*D0
  1

  0
LINE
  5
220
100
AcDbEntity
  8
0
100
AcDbLine
 62
7
  6
CONTINUOUS
 10
-22.287406726
 20
22.4305789785
 11
-22.287406726
 21
36.8943938178
  0
LINE
  5
221
100
AcDbEntity
  8
0
100
AcDbLine
 62
7
  6
CONTINUOUS
 10
22.287406726
 20
22.1124414913
 11
22.287406726
 21
36.8943938178
  0
LINE
  5
222
100
AcDbEntity
  8
0
100
AcDbLine
 62
7
  6
CONTINUOUS
 10
-22.287406726
 20
35.3943938178
 11
0.0
 21
35.3943938178
  0
LINE
  5
223
100
AcDbEntity
  8
0
100
AcDbLine
 62
7
  6
CONTINUOUS
 10
22.287406726
 20
35.3943938178
 11
0.0
 21
35.3943938178
  0
INSERT
  5
224
100
AcDbEntity
  8
0
100
AcDbBlockReference
 62
7
  6
CONTINUOUS
  2
_FILLED
 10
-22.287406726
 20
35.3943938178
 41
3.0
 42
3.0
 43
3.0
 50
180.0
  0
INSERT
  5
225
100
AcDbEntity
  8
0
100
AcDbBlockReference
 62
7
  6
CONTINUOUS
  2
_FILLED
 10
22.287406726
 20
35.3943938178
 41
3.0
 42
3.0
 43
3.0
 50
0.0
  0
ENDBLK
  5
226
100
AcDbEntity
  8
0
  6
BYBLOCK
 62
0
100
AcDbBlockEnd
  0
BLOCK
  5
227
100
AcDbEntity
  8
0
100
AcDbBlockBegin
 62
7
  6
CONTINUOUS
  2
*D1
 70
65
 10
0.0
 20
0.0
  3
*D1
  1

  0
LINE
  5
228
100
AcDbEntity
  8
0
100
AcDbLine
 62
7
  6
CONTINUOUS
 10
23.0454906549
 20
22.1117562587
 11
36.6165999395
 21
22.1117562587
  0
LINE
  5
229
100
AcDbEntity
  8
0
100
AcDbLine
 62
7
  6
CONTINUOUS
 10
22.8854232865
 20
-22.1117562587
 11
36.6165999395
 21
-22.1117562587
  0
LINE
  5
22A
100
AcDbEntity
  8
0
100
AcDbLine
 62
7
  6
CONTINUOUS
 10
35.1165999395
 20
22.1117562587
 11
35.1165999395
 21
-0.0
  0
LINE
  5
22B
100
AcDbEntity
  8
0
100
AcDbLine
 62
7
  6
CONTINUOUS
 10
35.1165999395
 20
-22.1117562587
 11
35.1165999395
 21
-0.0
  0
INSERT
  5
22C
100
AcDbEntity
  8
0
100
AcDbBlockReference
 62
7
  6
CONTINUOUS
  2
_FILLED
 10
35.1165999395
 20
22.1117562587
 41
3.0
 42
3.0
 43
3.0
 50
90.0
  0
INSERT
  5
22D
100
AcDbEntity
  8
0
100
AcDbBlockReference
 62
7
  6
CONTINUOUS
  2
_FILLED
 10
35.1165999395
 20
-22.1117562587
 41
3.0
 42
3.0
 43
3.0
 50
270.0
  0
ENDBLK
  5
22E
100
AcDbEntity
  8
0
  6
BYBLOCK
 62
0
100
AcDbBlockEnd
  0
BLOCK
  5
22F
100
AcDbEntity
  8
0
100
AcDbBlockBegin
 62
7
  6
CONTINUOUS
  2
*D2
 70
65
 10
0.0
 20
0.0
  3
*D2
  1

  0
LINE
  5
230
100
AcDbEntity
  8
0
100
AcDbLine
 62
7
  6
CONTINUOUS
 10
-34.0102264717
 20
13.7689805518
 11
-34.0102264717
 21
36.8943938178
  0
LINE
  5
231
100
AcDbEntity
  8
0
100
AcDbLine
 62
7
  6
CONTINUOUS
 10
-38.7030442953
 20
2.8970135096
 11
-38.7030442953
 21
36.8943938178
  0
LINE
  5
232
100
AcDbEntity
  8
0
100
AcDbLine
 62
7
  6
CONTINUOUS
 10
-34.0102264717
 20
35.3943938178
 11
-30.0102264717
 21
35.3943938178
  0
LINE
  5
233
100
AcDbEntity
  8
0
100
AcDbLine
 62
7
  6
CONTINUOUS
 10
-30.0102264717
 20
35.3943938178
 11
-36.3566353835
 21
35.3943938178
  0
LINE
  5
234
100
AcDbEntity
  8
0
100
AcDbLine
 62
7
  6
CONTINUOUS
 10
-38.7030442953
 20
35.3943938178
 11
-45.3351548789
 21
35.3943938178
  0
LINE
  5
235
100
AcDbEntity
  8
0
100
AcDbLine
 62
7
  6
CONTINUOUS
 10
-45.3351548789
 20
35.3943938178
 11
-36.3566353835
 21
35.3943938178
  0
INSERT
  5
236
100
AcDbEntity
  8
0
100
AcDbBlockReference
 62
7
  6
CONTINUOUS
  2
_FILLED
 10
-34.0102264717
 20
35.3943938178
 41
3.0
 42
3.0
 43
3.0
 50
180.0
  0
INSERT
  5
237
100
AcDbEntity
  8
0
100
AcDbBlockReference
 62
7
  6
CONTINUOUS
  2
_FILLED
 10
-38.7030442953
 20
35.3943938178
 41
3.0
 42
3.0
 43
3.0
  0
ENDBLK
  5
238
100
AcDbEntity
  8
0
  6
BYBLOCK
 62
0
100
AcDbBlockEnd
  0
ENDSEC
  0
SECTION
  2
ENTITIES
  0
DIMENSION
  5
239
100
AcDbEntity
  8
0
100
AcDbDimension
 62
7
  6
CONTINUOUS
  2
*D0
 10
22.287406726
 20
35.3943938178
 11
-4.3928571429
 21
36.1443938178
 70
160
 71
2
 42
44.574813452
  3
DIMSTYLE_1
100
AcDbAlignedDimension
 13
-22.287406726
 23
22.4305789785
 14
22.287406726
 24
22.1124414913
100
AcDbRotatedDimension
  0
DIMENSION
  5
23A
100
AcDbEntity
  8
0
100
AcDbDimension
 62
7
  6
CONTINUOUS
  2
*D1
 10
35.1165999395
 20
-22.1117562587
 11
34.3665999395
 21
-4.3928571429
 70
160
 71
2
 42
44.2235125174
  3
DIMSTYLE_1
100
AcDbAlignedDimension
 13
23.0454906549
 23
22.1117562587
 14
22.8854232865
 24
-22.1117562587
 50
270.0
100
AcDbRotatedDimension
  0
DIMENSION
  5
23B
100
AcDbEntity
  8
0
100
AcDbDimension
 62
7
  6
CONTINUOUS
  2
*D2
 10
-38.7030442953
 20
35.3943938178
 11
-45.3351548789
 21
36.1443938178
 70
160
 71
3
 42
4.6928178236
  3
DIMSTYLE_1
100
AcDbAlignedDimension
 13
-34.0102264717
 23
13.7689805518
 14
-38.7030442953
 24
2.8970135096
 50
180.0
100
AcDbRotatedDimension
  0
LWPOLYLINE
  5
23C
100
AcDbEntity
  8
0
100
AcDbPolyline
 62
7
  6
CONTINUOUS
 90
10
 70
0
 43
0.3500000006
 10
3.1071428747
 20
39.1443921204
 10
2.464285738
 20
38.5015386658
 10
2.0357142191
 20
37.6443916626
 10
2.0357142191
 20
36.5729647064
 10
2.464285738
 20
36.1443957367
 10
3.1071428747
 20
36.1443957367
 10
3.5357143936
 20
36.5729647064
 10
3.5357143936
 20
37.4301071777
 10
3.1071428747
 20
37.8586806793
 10
2.1785714865
 20
37.8586806793
  0
LWPOLYLINE
  5
23D
100
AcDbEntity
  8
RACCORDO
100
AcDbPolyline
 62
253
  6
CONTINUOUS
 90
16
 70
0
 10
21.7023437668
 20
-22.0260080669
 10
21.7544465492
 20
-22.023139509
 10
21.8059803902
 20
-22.014850594
 10
21.8563826301
 20
-22.0012318436
 10
21.9051029827
 20
-21.9824319648
 10
21.9516094979
 20
-21.9586562426
 10
21.9953943773
 20
-21.9301643127
 10
22.0359795809
 20
-21.8972672924
 10
22.0729220251
 20
-21.8603243785
 10
22.1058183837
 20
-21.8197389571
 10
22.1343095197
 20
-21.7759541764
 10
22.1580844095
 20
-21.7294480923
 10
22.1768835218
 20
-21.68072846
 10
22.1905016458
 20
-21.630327203
 10
22.198790135
 20
-21.5787946072
 10
22.2016585342
 20
-21.5266932995
  0
LWPOLYLINE
  5
23E
100
AcDbEntity
  8
RACCORDO
100
AcDbPolyline
 62
253
  6
CONTINUOUS
 90
16
 70
0
 10
-21.7023437492
 20
-22.0260080493
 10
-21.754445872
 20
-22.0231395627
 10
-21.8059791402
 20
-22.0148508418
 10
-21.8563809102
 20
-22.0012323836
 10
-21.9051008919
 20
-21.9824328752
 10
-21.9516071574
 20
-21.9586575711
 10
-21.9953919481
 20
-21.9301660514
 10
-22.0359772186
 20
-21.8972693888
 10
-22.0729198563
 20
-21.860326751
 10
-22.1058165189
 20
-21.8197414805
 10
-22.1343080384
 20
-21.7759566898
 10
-22.1580833425
 20
-21.7294504243
 10
-22.1768828509
 20
-21.6807304426
 10
-22.1905013091
 20
-21.6303286727
 10
-22.1987900299
 20
-21.5787954046
 10
-22.2016585166
 20
-21.5266932819
  0
LINE
  5
23F
100
AcDbEntity
  8
RACCORDO
100
AcDbLine
 62
253
  6
CONTINUOUS
 10
-21.6947031525
 20
21.8950684657
 11
-21.6924606727
 21
21.8076660712
  0
LINE
  5
240
100
AcDbEntity
  8
RACCORDO
100
AcDbLine
 62
253
  6
CONTINUOUS
 10
-22.170681661
 20
21.1403470978
 11
-22.1687021312
 21
21.0493096838
  0
LINE
  5
241
100
AcDbEntity
  8
RACCORDO
100
AcDbLine
 62
253
  6
CONTINUOUS
 10
-21.6924606727
 20
21.8076660712
 11
-21.6904669458
 21
21.7009339172
  0
LINE
  5
242
100
AcDbEntity
  8
RACCORDO
100
AcDbLine
 62
253
  6
CONTINUOUS
 10
-22.1687021312
 20
21.0493096838
 11
-22.167416629
 21
20.9546247098
  0
LINE
  5
243
100
AcDbEntity
  8
RACCORDO
100
AcDbLine
 62
253
  6
CONTINUOUS
 10
-21.6904669458
 20
21.7009339172
 11
-21.6879808233
 21
21.5093244253
  0
LINE
  5
244
100
AcDbEntity
  8
RACCORDO
100
AcDbLine
 62
253
  6
CONTINUOUS
 10
-21.6879808233
 20
21.5093244253
 11
-21.6857987396
 21
21.2086712693
  0
LINE
  5
245
100
AcDbEntity
  8
RACCORDO
100
AcDbLine
 62
253
  6
CONTINUOUS
 10
-22.167416629
 20
20.9546247098
 11
-22.1668384275
 21
20.8570387366
  0
LWPOLYLINE
  5
246
100
AcDbEntity
  8
RACCORDO
100
AcDbPolyline
 62
253
  6
CONTINUOUS
 90
9
 70
0
 10
-22.1668384275
 20
20.8570387366
 10
-22.1577103532
 20
16.2236957683
 10
-22.1508642975
 20
11.5895754055
 10
-22.1463002606
 20
6.9546776482
 10
-22.1440182427
 20
2.3184841468
 10
-22.1440182435
 20
-2.3184867491
 10
-22.1463002624
 20
-6.9546799903
 10
-22.1508642993
 20
-11.5895772271
 10
-22.1577103543
 20
-16.2236968092
  0
LWPOLYLINE
  5
247
100
AcDbEntity
  8
RACCORDO
100
AcDbPolyline
 62
253
  6
CONTINUOUS
 90
8
 70
0
 10
-21.6778538644
 20
16.2407570029
 10
-21.6724376572
 20
11.6018160204
 10
-21.6688268518
 20
6.9616915799
 10
-21.6670214495
 20
2.3206845026
 10
-21.6670214504
 20
-2.3206884478
 10
-21.668826854
 20
-6.9616951304
 10
-21.6724376594
 20
-11.6018187816
 10
-21.6778538659
 20
-16.2407585807
  0
LINE
  5
248
100
AcDbEntity
  8
RACCORDO
100
AcDbLine
 62
253
  6
CONTINUOUS
 10
-21.6857987396
 20
21.2086712693
 11
-21.6778538644
 21
16.2407570029
  0
LINE
  5
249
100
AcDbEntity
  8
0
100
AcDbLine
 62
7
  6
CONTINUOUS
 10
-22.287406726
 20
21.6124414913
 11
-22.287406726
 21
-21.6124414913
  0
LINE
  5
24A
100
AcDbEntity
  8
RACCORDO
100
AcDbLine
 62
253
  6
CONTINUOUS
 10
-21.6778538659
 20
-16.2407585807
 11
-21.6852567712
 21
-21.0455560812
  0
LINE
  5
24B
100
AcDbEntity
  8
RACCORDO
100
AcDbLine
 62
253
  6
CONTINUOUS
 10
-22.1577103543
 20
-16.2236968092
 11
-22.1670396041
 21
-20.906217702
  0
LINE
  5
24C
100
AcDbEntity
  8
RACCORDO
100
AcDbLine
 62
253
  6
CONTINUOUS
 10
-21.6852567712
 20
-21.0455560812
 11
-21.6867133762
 21
-21.3642660287
  0
LINE
  5
24D
100
AcDbEntity
  8
RACCORDO
100
AcDbLine
 62
253
  6
CONTINUOUS
 10
-21.6867133762
 20
-21.3642660287
 11
-21.6887278514
 21
-21.576995267
  0
LINE
  5
24E
100
AcDbEntity
  8
RACCORDO
100
AcDbLine
 62
253
  6
CONTINUOUS
 10
-22.1670396041
 20
-20.906217702
 11
-22.1679690498
 21
-21.0022169117
  0
LINE
  5
24F
100
AcDbEntity
  8
RACCORDO
100
AcDbLine
 62
253
  6
CONTINUOUS
 10
-21.6887278514
 20
-21.576995267
 11
-21.6904666751
 21
-21.7009353181
  0
LWPOLYLINE
  5
250
100
AcDbEntity
  8
RACCORDO
100
AcDbPolyline
 62
253
  6
CONTINUOUS
 90
18
 70
0
 10
-22.1679690498
 20
-21.0022169117
 10
-22.1696101426
 20
-21.0955695597
 10
-22.1706809495
 20
-21.1403189239
 10
-22.1719164945
 20
-21.1834905098
 10
-22.1733144512
 20
-21.2251282561
 10
-22.1748545557
 20
-21.2646163791
 10
-22.1765390738
 20
-21.3019250411
 10
-22.1783657396
 20
-21.3370840798
 10
-22.1803074917
 20
-21.369567225
 10
-22.1823660363
 20
-21.3993327255
 10
-22.1845396673
 20
-21.4264223325
 10
-22.1867962049
 20
-21.4504350292
 10
-22.1891380186
 20
-21.4713260608
 10
-22.191562739
 20
-21.489140182
 10
-22.1940310779
 20
-21.5036106401
 10
-22.196529939
 20
-21.5146485172
 10
-22.1990724186
 20
-21.5223427312
 10
-22.2016585166
 20
-21.5266932819
  0
LINE
  5
251
100
AcDbEntity
  8
RACCORDO
100
AcDbLine
 62
253
  6
CONTINUOUS
 10
-21.6904666751
 20
-21.7009353181
 11
-21.6924604453
 21
-21.8076670285
  0
LWPOLYLINE
  5
252
100
AcDbEntity
  8
RACCORDO
100
AcDbPolyline
 62
253
  6
CONTINUOUS
 90
8
 70
0
 10
-21.6924604453
 20
-21.8076670285
 10
-21.6947030398
 20
-21.8950690731
 10
-21.6958885828
 20
-21.9309580933
 10
-21.6971338184
 20
-21.9613944703
 10
-21.6983935316
 20
-21.9862291518
 10
-21.6996622345
 20
-22.0053370027
 10
-21.700974096
 20
-22.0186195414
 10
-21.7023437492
 20
-22.0260080493
  0
LWPOLYLINE
  5
253
100
AcDbEntity
  8
RACCORDO
100
AcDbPolyline
 62
253
  6
CONTINUOUS
 90
14
 70
0
 10
21.7829205257
 20
-20.8773337176
 10
21.8303890742
 20
-20.8766470669
 10
21.8762661728
 20
-20.8757688125
 10
21.9201035305
 20
-20.8747075363
 10
21.9614727877
 20
-20.8734736086
 10
21.9999697021
 20
-20.8720790869
 10
22.0352180986
 20
-20.8705375977
 10
22.0668735452
 20
-20.8688642039
 10
22.0946267186
 20
-20.867075257
 10
22.1182064271
 20
-20.865188238
 10
22.1373822599
 20
-20.863221586
 10
22.1519668391
 20
-20.8611945182
 10
22.1618176507
 20
-20.8591268422
 10
22.1668384366
 20
-20.8570387625
  0
LINE
  5
254
100
AcDbEntity
  8
RACCORDO
100
AcDbLine
 62
253
  6
CONTINUOUS
 10
21.6850754654
 20
-20.8781073069
 11
21.7829205257
 21
-20.8773337176
  0
LINE
  5
255
100
AcDbEntity
  8
RACCORDO
100
AcDbLine
 62
253
  6
CONTINUOUS
 10
-21.7023437504
 20
-22.0260080504
 11
-14.9351825669
 21
-22.0154308735
  0
LINE
  5
256
100
AcDbEntity
  8
RACCORDO
100
AcDbLine
 62
253
  6
CONTINUOUS
 10
-14.9351825669
 20
-22.0154308735
 11
-8.1922764616
 21
-22.0087774091
  0
LINE
  5
257
100
AcDbEntity
  8
RACCORDO
100
AcDbLine
 62
253
  6
CONTINUOUS
 10
-21.685075472
 20
-20.8781072465
 11
-8.1841943372
 21
-20.8713008997
  0
LINE
  5
258
100
AcDbEntity
  8
RACCORDO
100
AcDbLine
 62
253
  6
CONTINUOUS
 10
-8.1922764616
 20
-22.0087774091
 11
-1.386525139
 21
-22.005995887
  0
LINE
  5
259
100
AcDbEntity
  8
0
100
AcDbLine
 62
7
  6
CONTINUOUS
 10
-21.7880919586
 20
-22.1117562587
 11
21.7880919586
 21
-22.1117562587
  0
LINE
  5
25A
100
AcDbEntity
  8
RACCORDO
100
AcDbLine
 62
253
  6
CONTINUOUS
 10
-1.386525139
 20
-22.005995887
 11
5.6822838363
 21
-22.007291536
  0
LINE
  5
25B
100
AcDbEntity
  8
RACCORDO
100
AcDbLine
 62
253
  6
CONTINUOUS
 10
-8.1841943372
 20
-20.8713008997
 11
10.6762914945
 21
-20.8720819903
  0
LINE
  5
25C
100
AcDbEntity
  8
RACCORDO
100
AcDbLine
 62
253
  6
CONTINUOUS
 10
10.6762914945
 20
-20.8720819903
 11
21.6850754654
 21
-20.8781072728
  0
LINE
  5
25D
100
AcDbEntity
  8
RACCORDO
100
AcDbLine
 62
253
  6
CONTINUOUS
 10
5.6822838363
 20
-22.007291536
 11
10.6804877979
 21
-22.0107495721
  0
LINE
  5
25E
100
AcDbEntity
  8
RACCORDO
100
AcDbLine
 62
253
  6
CONTINUOUS
 10
10.6804877979
 20
-22.0107495721
 11
16.0115169574
 21
-22.0169324323
  0
LINE
  5
25F
100
AcDbEntity
  8
RACCORDO
100
AcDbLine
 62
253
  6
CONTINUOUS
 10
16.0115169574
 20
-22.0169324323
 11
21.7023437668
 21
-22.0260080669
  0
LWPOLYLINE
  5
260
100
AcDbEntity
  8
RACCORDO
100
AcDbPolyline
 62
253
  6
CONTINUOUS
 90
15
 70
0
 10
-21.6850750309
 20
-20.8781067346
 10
-21.7829191275
 20
-20.877333173
 10
-21.8303872486
 20
-20.8766465446
 10
-21.8762639746
 20
-20.8757683177
 10
-21.9201010272
 20
-20.8747070737
 10
-21.9614700586
 20
-20.8734731824
 10
-21.9999668369
 20
-20.8720787007
 10
-22.0352151961
 20
-20.8705372545
 10
-22.0668707116
 20
-20.8688639058
 10
-22.0946240658
 20
-20.8670750056
 10
-22.1182040706
 20
-20.8651880339
 10
-22.1373803172
 20
-20.8632214288
 10
-22.1519654274
 20
-20.861194407
 10
-22.1618168849
 20
-20.859126775
 10
-22.1668384274
 20
-20.8570387366
  0
LWPOLYLINE
  5
261
100
AcDbEntity
  8
RACCORDO
100
AcDbPolyline
 62
253
  6
CONTINUOUS
 90
7
 70
0
 10
-21.7023437493
 20
22.0260080494
 10
-21.7009741313
 20
22.0186193697
 10
-21.6996622981
 20
22.0053365549
 10
-21.6983936165
 20
21.9862284249
 10
-21.6971339111
 20
21.9613936369
 10
-21.695888678
 20
21.9309573763
 10
-21.6947031525
 20
21.8950684657
  0
LWPOLYLINE
  5
262
100
AcDbEntity
  8
0
100
AcDbPolyline
 62
7
  6
CONTINUOUS
 90
3
 70
0
 43
0.3500000006
 10
1.035714268
 20
36.4301068726
 10
0.9642857051
 20
36.2158223877
 10
0.8214285793
 20
35.93010672
  0
LWPOLYLINE
  5
263
100
AcDbEntity
  8
RACCORDO
100
AcDbPolyline
 62
253
  6
CONTINUOUS
 90
16
 70
0
 10
-22.2016585167
 20
21.526693282
 10
-22.1990728442
 20
21.5223441275
 10
-22.1965307205
 20
21.5146516989
 10
-22.1940321457
 20
21.5036159961
 10
-22.191564004
 20
21.4891480196
 10
-22.1891394111
 20
21.4713367689
 10
-22.186797714
 20
21.4504492426
 10
-22.1845413251
 20
21.4264412853
 10
-22.1823678319
 20
21.3993570523
 10
-22.1803093446
 20
21.3695960086
 10
-22.178367533
 20
21.33711607
 10
-22.1765407271
 20
21.3019593207
 10
-22.174856027
 20
21.2646514771
 10
-22.1733156859
 20
21.2251620882
 10
-22.1719174505
 20
21.1835216051
 10
-22.170681661
 20
21.1403470978
  0
LINE
  5
264
100
AcDbEntity
  8
0
100
AcDbLine
 62
7
  6
CONTINUOUS
 10
-5.119427
 20
-0.2
 11
-5.119427
 21
0.2
  0
LWPOLYLINE
  5
265
100
AcDbEntity
  8
0
100
AcDbPolyline
 62
7
  6
CONTINUOUS
 90
25
 70
0
 10
-5.119427
 20
0.2
 10
-5.1172828939
 20
0.2654023873
 10
-5.1108688447
 20
0.3305256103
 10
-5.1002122577
 20
0.3950904361
 10
-5.0853494065
 20
0.4588198328
 10
-5.0663527325
 20
0.5214427826
 10
-5.0433041748
 20
0.5826891243
 10
-5.0162941238
 20
0.6422931272
 10
-4.9854463653
 20
0.700004306
 10
-4.9508931348
 20
0.7555754374
 10
-4.912774326
 20
0.8087641929
 10
-4.8712605413
 20
0.85934828
 10
-4.8265300377
 20
0.9071105247
 10
-4.7787675043
 20
0.9518403568
 10
-4.7281835185
 20
0.9933532164
 10
-4.6749951869
 20
1.0314709795
 10
-4.6194250239
 20
1.0660229821
 10
-4.5617153356
 20
1.0968694799
 10
-4.5021128035
 20
1.1238785504
 10
-4.4408678676
 20
1.1469263744
 10
-4.3782464445
 20
1.1659225002
 10
-4.3145184158
 20
1.1807850628
 10
-4.2499547223
 20
1.1914415748
 10
-4.1848324588
 20
1.1978556976
 10
-4.1194307853
 20
1.2
  0
LWPOLYLINE
  5
266
100
AcDbEntity
  8
0
100
AcDbPolyline
 62
7
  6
CONTINUOUS
 90
22
 70
0
 10
-5.119427
 20
0.2
 10
-5.1165789432
 20
0.2750937383
 10
-5.1082624355
 20
0.3490867892
 10
-5.0944774752
 20
0.4219791553
 10
-5.0750481636
 20
0.4942620697
 10
-5.0501503927
 20
0.5654443044
 10
-5.0203118462
 20
0.6340521708
 10
-4.9855667808
 20
0.6998334992
 10
-4.9458809284
 20
0.7630404646
 10
-4.9016791849
 20
0.822955895
 10
-4.8526952062
 20
0.8797487727
 10
-4.7991953216
 20
0.9332501198
 10
-4.7424034388
 20
0.9822358232
 10
-4.6824884936
 20
1.0264395633
 10
-4.6192815382
 20
1.0661276619
 10
-4.5534996586
 20
1.1008749676
 10
-4.4848907011
 20
1.1307157555
 10
-4.4137068092
 20
1.1556157498
 10
-4.3414215188
 20
1.1750469714
 10
-4.268526009
 20
1.1888334258
 10
-4.1945290984
 20
1.1971511031
 10
-4.1194307853
 20
1.2
  0
LWPOLYLINE
  5
267
100
AcDbEntity
  8
0
100
AcDbPolyline
 62
7
  6
CONTINUOUS
 90
16
 70
0
 10
-4.519427
 20
-0.2
 10
-4.5170466243
 20
-0.2424767808
 10
-4.5105425932
 20
-0.2836132787
 10
-4.4999149059
 20
-0.3234094952
 10
-4.4849886553
 20
-0.3622448915
 10
-4.465938745
 20
-0.3997400093
 10
-4.4432898898
 20
-0.4347564701
 10
-4.4168455355
 20
-0.4672873511
 10
-4.3868022307
 20
-0.4973395771
 10
-4.3542743443
 20
-0.5237955402
 10
-4.3192530235
 20
-0.54645954
 10
-4.2817471161
 20
-0.5655272769
 10
-4.2428975446
 20
-0.5804682431
 10
-4.203084616
 20
-0.5911056019
 10
-4.1619280206
 20
-0.597616188
 10
-4.1194277569
 20
-0.6
  0
LINE
  5
268
100
AcDbEntity
  8
0
100
AcDbLine
 62
7
  6
CONTINUOUS
 10
-4.519427
 20
-0.2
 11
-4.5183069562
 21
-0.2298710626
  0
LINE
  5
269
100
AcDbEntity
  8
0
100
AcDbLine
 62
7
  6
CONTINUOUS
 10
-3.7302414817
 20
-0.8682839501
 11
-3.729427
 21
-0.89
  0
LINE
  5
26A
100
AcDbEntity
  8
0
100
AcDbLine
 62
7
  6
CONTINUOUS
 10
-3.0286125131
 20
-0.9317161335
 11
-3.029427
 21
-0.91
  0
LINE
  5
26B
100
AcDbEntity
  8
0
100
AcDbLine
 62
7
  6
CONTINUOUS
 10
-4.519427
 20
0.2
 11
-4.519427
 21
-0.2
  0
LINE
  5
26C
100
AcDbEntity
  8
0
100
AcDbLine
 62
7
  6
CONTINUOUS
 10
-3.729427
 20
-0.89
 11
-3.729427
 21
-0.91
  0
LWPOLYLINE
  5
26D
100
AcDbEntity
  8
0
100
AcDbPolyline
 62
7
  6
CONTINUOUS
 90
2
 70
0
 43
0.3500000006
 10
-3.3928571262
 20
36.1443957367
 10
-3.3928571262
 20
37.6443916626
  0
LINE
  5
26E
100
AcDbEntity
  8
0
100
AcDbLine
 62
7
  6
CONTINUOUS
 10
-3.029427
 20
-0.91
 11
-3.029427
 21
-0.89
  0
LWPOLYLINE
  5
26F
100
AcDbEntity
  8
0
100
AcDbPolyline
 62
7
  6
CONTINUOUS
 90
3
 70
0
 10
-3.729427
 20
-0.91
 10
-3.7302387467
 20
-0.9316430129
 10
-3.7326622513
 20
-0.9531578778
  0
LINE
  5
270
100
AcDbEntity
  8
0
100
AcDbLine
 62
7
  6
CONTINUOUS
 10
-3.029427
 20
-0.89
 11
-3.028615098
 21
-0.8683549221
  0
LWPOLYLINE
  5
271
100
AcDbEntity
  8
0
100
AcDbPolyline
 62
7
  6
CONTINUOUS
 90
16
 70
0
 10
-3.7300721661
 20
-0.9290937514
 10
-3.7319303511
 20
-0.9479471755
 10
-3.7350015549
 20
-0.9665602719
 10
-3.7393079688
 20
-0.9850099575
 10
-3.7448274014
 20
-1.0032193152
 10
-3.7514932785
 20
-1.0209575945
 10
-3.7593239915
 20
-1.0382220709
 10
-3.7683011487
 20
-1.0550154687
 10
-3.7783030019
 20
-1.0711152108
 10
-3.7893385855
 20
-1.0865074042
 10
-3.8013988645
 20
-1.101205942
 10
-3.8143349867
 20
-1.115029926
 10
-3.8281581159
 20
-1.1279694385
 10
-3.8428570876
 20
-1.1400343975
 10
-3.858249558
 20
-1.1510736584
 10
-3.8743484147
 20
-1.1610754639
  0
LWPOLYLINE
  5
272
100
AcDbEntity
  8
0
100
AcDbPolyline
 62
7
  6
CONTINUOUS
 90
16
 70
0
 10
-3.0287818511
 20
-0.8709064395
 10
-3.0269236997
 20
-0.852053186
 10
-3.0238525458
 20
-0.8334402397
 10
-3.0195462031
 20
-0.8149906864
 10
-3.0140268577
 20
-0.7967814401
 10
-3.0073610686
 20
-0.7790432426
 10
-2.9995304445
 20
-0.7617788152
 10
-2.9905533764
 20
-0.7449854366
 10
-2.9805515964
 20
-0.7288856855
 10
-2.9695160665
 20
-0.7134934506
 10
-2.9574558243
 20
-0.6987948434
 10
-2.9445197156
 20
-0.6849707768
 10
-2.9306965701
 20
-0.6720311673
 10
-2.9159975578
 20
-0.6599660988
 10
-2.9006050353
 20
-0.6489267355
 10
-2.884506109
 20
-0.6389248392
  0
LWPOLYLINE
  5
273
100
AcDbEntity
  8
0
100
AcDbPolyline
 62
7
  6
CONTINUOUS
 90
3
 70
0
 10
-4.5149632048
 20
0.2595662941
 10
-4.5183075301
 20
0.2298647398
 10
-4.519427
 20
0.2
  0
LINE
  5
274
100
AcDbEntity
  8
0
100
AcDbLine
 62
7
  6
CONTINUOUS
 10
-3.028615098
 20
-0.8683549221
 11
-3.0261912076
 21
-0.8468385331
  0
LINE
  5
275
100
AcDbEntity
  8
0
100
AcDbLine
 62
7
  6
CONTINUOUS
 10
-4.5094151487
 20
0.2889339358
 11
-4.5149632048
 21
0.2595662941
  0
LWPOLYLINE
  5
276
100
AcDbEntity
  8
0
100
AcDbPolyline
 62
7
  6
CONTINUOUS
 90
13
 70
0
 10
-3.7326622513
 20
-0.9531578778
 10
-3.7366799963
 20
-0.9744334127
 10
-3.7422697975
 20
-0.9953442411
 10
-3.7494133027
 20
-1.0157954329
 10
-3.7580861506
 20
-1.035702601
 10
-3.7682457781
 20
-1.0549369188
 10
-3.7798049138
 20
-1.0733413433
 10
-3.7926686535
 20
-1.0907794862
 10
-3.8067693942
 20
-1.107171718
 10
-3.8220458208
 20
-1.1224657937
 10
-3.8384294156
 20
-1.1365885613
 10
-3.8558629114
 20
-1.1494638978
 10
-3.8742638149
 20
-1.161024477
  0
LWPOLYLINE
  5
277
100
AcDbEntity
  8
0
100
AcDbPolyline
 62
7
  6
CONTINUOUS
 90
13
 70
0
 10
-3.0261912076
 20
-0.8468385331
 10
-3.022172965
 20
-0.8255620298
 10
-3.0165827102
 20
-0.8046509111
 10
-3.0094388936
 20
-0.7841999629
 10
-3.0007658223
 20
-0.7642931845
 10
-2.9906060282
 20
-0.7450592809
 10
-2.9790468561
 20
-0.7266553845
 10
-2.9661832044
 20
-0.7092178263
 10
-2.9520827308
 20
-0.6928262594
 10
-2.9368067159
 20
-0.677532847
 10
-2.9204234832
 20
-0.66341056
 10
-2.9029901265
 20
-0.6505354447
 10
-2.8845892436
 20
-0.6389749755
  0
LWPOLYLINE
  5
278
100
AcDbEntity
  8
0
100
AcDbPolyline
 62
7
  6
CONTINUOUS
 90
7
 70
0
 10
-4.4126496614
 20
0.4720682485
 10
-4.4321743294
 20
0.4493774318
 10
-4.4499520629
 20
0.4252733164
 10
-4.4658809198
 20
0.3999110585
 10
-4.4798675901
 20
0.3734432997
 10
-4.4918227081
 20
0.3460233121
 10
-4.5016878482
 20
0.3178033422
  0
LWPOLYLINE
  5
279
100
AcDbEntity
  8
0
100
AcDbPolyline
 62
7
  6
CONTINUOUS
 90
7
 70
0
 10
0.3450282749
 20
2.5783364669
 10
0.3985810596
 20
2.5955670605
 10
0.4529439269
 20
2.6105288995
 10
0.50720119
 20
2.6230666987
 10
0.5610476198
 20
2.6331286974
 10
0.6147884447
 20
2.6407666593
 10
0.6684236644
 20
2.6459805854
  0
LWPOLYLINE
  5
27A
100
AcDbEntity
  8
0
100
AcDbPolyline
 62
7
  6
CONTINUOUS
 90
19
 70
0
 10
3.3353189029
 20
-2.0425912781
 10
3.3814232295
 20
-2.0342459116
 10
3.4268663522
 20
-2.022837363
 10
3.4714435669
 20
-2.0084097258
 10
3.5149572991
 20
-1.9910342643
 10
3.5572114871
 20
-1.9707892685
 10
3.5980136138
 20
-1.9477592991
 10
3.6371849835
 20
-1.9220534535
 10
3.6745502644
 20
-1.8937868361
 10
3.7099381517
 20
-1.8630801497
 10
3.743194688
 20
-1.8300762167
 10
3.7741704952
 20
-1.794923226
 10
3.802721564
 20
-1.7577739395
 10
3.8287257756
 20
-1.7187988147
 10
3.8520665241
 20
-1.6781725501
 10
3.8726333092
 20
-1.6360730813
 10
3.8903401502
 20
-1.5926920319
 10
3.9051072755
 20
-1.5482246605
 10
3.9168619168
 20
-1.5028678955
  0
LWPOLYLINE
  5
27B
100
AcDbEntity
  8
0
100
AcDbPolyline
 62
7
  6
CONTINUOUS
 90
19
 70
0
 10
3.288760171
 20
-2.047836051
 10
3.3434705203
 20
-2.0412959214
 10
3.3969035234
 20
-2.0307062144
 10
3.4490591816
 20
-2.0160669305
 10
3.5002456047
 20
-1.9972425801
 10
3.5501546853
 20
-1.9743686513
 10
3.5978620997
 20
-1.9478516109
 10
3.6433261833
 20
-1.9176204599
 10
3.6865886055
 20
-1.8837461929
 10
3.7268500454
 20
-1.846848267
 10
3.7640525132
 20
-1.8068682638
 10
3.7982540047
 20
-1.7638645957
 10
3.8288291788
 20
-1.7186319664
 10
3.8557073526
 20
-1.6711282314
 10
3.8789592145
 20
-1.621395529
 10
3.8981714811
 20
-1.5703549888
 10
3.9132063924
 20
-1.5183136527
 10
3.9242017122
 20
-1.4649644741
 10
3.9311574418
 20
-1.4103074502
  0
LINE
  5
27C
100
AcDbEntity
  8
0
100
AcDbLine
 62
7
  6
CONTINUOUS
 10
3.2887601714
 20
-2.0478360563
 11
3.3353189029
 21
-2.0425912781
  0
LINE
  5
27D
100
AcDbEntity
  8
0
100
AcDbLine
 62
7
  6
CONTINUOUS
 10
3.3359091754
 20
-2.6459806664
 11
3.0399193754
 21
-2.6667087525
  0
LINE
  5
27E
100
AcDbEntity
  8
0
100
AcDbLine
 62
7
  6
CONTINUOUS
 10
3.0032369249
 20
-2.0678300097
 11
3.288760171
 21
-2.047836051
  0
LWPOLYLINE
  5
27F
100
AcDbEntity
  8
0
100
AcDbPolyline
 62
7
  6
CONTINUOUS
 90
3
 70
0
 10
3.0398019489
 20
-2.6667127397
 10
2.7435539321
 20
-2.6822618294
 10
2.4471651816
 20
-2.6926278583
  0
LWPOLYLINE
  5
280
100
AcDbEntity
  8
0
100
AcDbPolyline
 62
7
  6
CONTINUOUS
 90
3
 70
0
 10
2.4471157678
 20
-2.6926291542
 10
2.1504883038
 20
-2.6978141261
 10
1.8538227467
 20
-2.6978139256
  0
LWPOLYLINE
  5
281
100
AcDbEntity
  8
0
100
AcDbPolyline
 62
7
  6
CONTINUOUS
 90
2
 70
0
 43
0.3500000006
 10
34.3665993576
 20
-3.3928568802
 10
32.8665988998
 20
-3.3928568802
  0
LINE
  5
282
100
AcDbEntity
  8
0
100
AcDbLine
 62
7
  6
CONTINUOUS
 10
1.8537773583
 20
-2.6978106088
 11
1.5571551483
 21
-2.6926274997
  0
LWPOLYLINE
  5
283
100
AcDbEntity
  8
0
100
AcDbPolyline
 62
7
  6
CONTINUOUS
 90
3
 70
0
 10
1.5571762993
 20
-2.6926278693
 10
1.2606940846
 20
-2.6822588681
 10
0.9644047816
 20
-2.6667081492
  0
LINE
  5
284
100
AcDbEntity
  8
0
100
AcDbLine
 62
7
  6
CONTINUOUS
 10
0.9645253713
 20
-2.666712514
 11
0.668423746
 21
-2.6459805814
  0
LWPOLYLINE
  5
285
100
AcDbEntity
  8
0
100
AcDbPolyline
 62
7
  6
CONTINUOUS
 90
7
 70
0
 10
0.668423746
 20
-2.6459805814
 10
0.6148669421
 20
-2.6407778658
 10
0.5612069525
 20
-2.6331579737
 10
0.5074437774
 20
-2.623120904
 10
0.4532746424
 20
-2.6106146069
 10
0.3990023225
 20
-2.5956911293
 10
0.3455351431
 20
-2.5785066149
  0
LINE
  5
286
100
AcDbEntity
  8
0
100
AcDbLine
 62
7
  6
CONTINUOUS
 10
0.6684237501
 20
-2.6459805287
 11
0.60590573
 21
-2.6395053447
  0
LWPOLYLINE
  5
287
100
AcDbEntity
  8
0
100
AcDbPolyline
 62
7
  6
CONTINUOUS
 90
11
 70
0
 10
0.6046011738
 20
-2.6393702278
 10
0.5407900395
 20
-2.6295548806
 10
0.4771135197
 20
-2.6164740196
 10
0.4135230605
 20
-2.6000163996
 10
0.3503411159
 20
-2.5801631579
 10
0.2883349653
 20
-2.5571628188
 10
0.2278656998
 20
-2.5312211169
 10
0.1691335121
 20
-2.5024790345
 10
0.1126600265
 20
-2.4712501141
 10
0.0589100132
 20
-2.4379417659
 10
0.0074920694
 20
-2.402501581
  0
LWPOLYLINE
  5
288
100
AcDbEntity
  8
0
100
AcDbPolyline
 62
7
  6
CONTINUOUS
 90
6
 70
0
 10
0.2928988994
 20
-2.5589482031
 10
0.241067797
 20
-2.5371287512
 10
0.1908727768
 20
-2.5135429805
 10
0.1424858581
 20
-2.4881879531
 10
0.0957350225
 20
-2.4610666043
 10
0.050935154
 20
-2.4326824669
  0
LWPOLYLINE
  5
289
100
AcDbEntity
  8
0
100
AcDbPolyline
 62
7
  6
CONTINUOUS
 90
7
 70
0
 10
-4.3914914856
 20
-0.4932261516
 10
-4.3688004673
 20
-0.5127504907
 10
-4.3446963062
 20
-0.5305277989
 10
-4.3193341561
 20
-0.5464561731
 10
-4.2928666825
 20
-0.5604423306
 10
-4.2654471386
 20
-0.5723969565
 10
-4.2372277371
 20
-0.5822616554
  0
LWPOLYLINE
  5
28A
100
AcDbEntity
  8
0
100
AcDbPolyline
 62
7
  6
CONTINUOUS
 90
7
 70
0
 10
-3.7683516705
 20
-0.7449211813
 10
-3.758228375
 20
-0.7640691975
 10
-3.7495177302
 20
-0.7839791739
 10
-3.7423321114
 20
-0.8044447464
 10
-3.7367116992
 20
-0.8253861894
 10
-3.7326747714
 20
-0.846708485
 10
-3.7302414817
 20
-0.8682839501
  0
LWPOLYLINE
  5
28B
100
AcDbEntity
  8
0
100
AcDbPolyline
 62
7
  6
CONTINUOUS
 90
7
 70
0
 10
-2.9905023405
 20
-1.055078798
 10
-3.0006258955
 20
-1.0359302272
 10
-3.0093364164
 20
-1.0160204459
 10
-3.0165219369
 20
-0.995555101
 10
-3.0221423
 20
-0.9746138272
 10
-3.026179218
 20
-0.9532916025
 10
-3.0286125131
 20
-0.9317161335
  0
LWPOLYLINE
  5
28C
100
AcDbEntity
  8
0
100
AcDbPolyline
 62
7
  6
CONTINUOUS
 90
7
 70
0
 10
-3.7593753508
 20
-0.7617139408
 10
-3.7515406758
 20
-0.7789790991
 10
-3.7448607961
 20
-0.7967188034
 10
-3.7393225616
 20
-0.8149309059
 10
-3.7350024198
 20
-0.8333878343
 10
-3.7319258535
 20
-0.852013731
 10
-3.7300673802
 20
-0.870884453
  0
LWPOLYLINE
  5
28D
100
AcDbEntity
  8
0
100
AcDbPolyline
 62
7
  6
CONTINUOUS
 90
7
 70
0
 10
-2.9994785929
 20
-1.0382861749
 10
-3.0073132242
 20
-1.0210211313
 10
-3.013993093
 20
-1.0032815224
 10
-3.0195313411
 20
-0.9850694926
 10
-3.0238515023
 20
-0.9666125726
 10
-3.0269280881
 20
-0.9479866057
 10
-3.0287865874
 20
-0.9291157482
  0
LWPOLYLINE
  5
28E
100
AcDbEntity
  8
0
100
AcDbPolyline
 62
7
  6
CONTINUOUS
 90
7
 70
0
 10
-4.5016842404
 20
-0.3178148302
 10
-4.4918181517
 20
-0.3460337346
 10
-4.4798665324
 20
-0.3734455308
 10
-4.4658829132
 20
-0.3999113551
 10
-4.4499493554
 20
-0.4252806237
 10
-4.4321697261
 20
-0.4493832224
 10
-4.4126491977
 20
-0.4720682448
  0
LWPOLYLINE
  5
28F
100
AcDbEntity
  8
0
100
AcDbPolyline
 62
7
  6
CONTINUOUS
 90
3
 70
0
 10
-4.5183069562
 20
-0.2298710626
 10
-4.5149614502
 20
-0.2595768584
 10
-4.5094125231
 20
-0.2889453653
  0
LWPOLYLINE
  5
290
100
AcDbEntity
  8
0
100
AcDbPolyline
 62
7
  6
CONTINUOUS
 90
19
 70
0
 10
0.0723427141
 20
-1.3996951344
 10
0.0776324348
 20
-1.4491364095
 10
0.0864130707
 20
-1.4980716095
 10
0.0986478527
 20
-1.5462522977
 10
0.1142696778
 20
-1.5934436823
 10
0.1332041434
 20
-1.6394147782
 10
0.1553639127
 20
-1.6839305418
 10
0.1806240198
 20
-1.7267654451
 10
0.2088567396
 20
-1.7677018787
 10
0.2399241217
 20
-1.8065195377
 10
0.2736614892
 20
-1.8430282188
 10
0.3099048667
 20
-1.8770530021
 10
0.3484818536
 20
-1.9084207666
 10
0.3891911979
 20
-1.9369777611
 10
0.4318264523
 20
-1.9625771599
 10
0.4761763809
 20
-1.9850801365
 10
0.5220145106
 20
-2.0043811681
 10
0.5691115308
 20
-2.0203829327
 10
0.6172340985
 20
-2.0329955303
  0
LWPOLYLINE
  5
291
100
AcDbEntity
  8
0
100
AcDbPolyline
 62
7
  6
CONTINUOUS
 90
19
 70
0
 10
0.070573
 20
-1.35
 10
0.0730840299
 20
-1.4084707265
 10
0.0802377801
 20
-1.465804889
 10
0.0920342506
 20
-1.5220024878
 10
0.1086129099
 20
-1.5774400239
 10
0.1298342893
 20
-1.6317409968
 10
0.1552799836
 20
-1.6837759065
 10
0.1850443902
 20
-1.7334998137
 10
0.2190331113
 20
-1.7809576621
 10
0.2565445485
 20
-1.8251547802
 10
0.2976547007
 20
-1.8660165195
 10
0.3422875681
 20
-1.9036175356
 10
0.3895135542
 20
-1.9371871155
 10
0.4393891984
 20
-1.9666375167
 10
0.49185796
 20
-1.9920564893
 10
0.5458206227
 20
-2.012936561
 10
0.6009107807
 20
-2.0291085765
 10
0.6574948384
 20
-2.040741697
 10
0.7155727951
 20
-2.0478359245
  0
LINE
  5
292
100
AcDbEntity
  8
0
100
AcDbLine
 62
7
  6
CONTINUOUS
 10
-1.930241498
 20
-0.8682837204
 11
-1.929427
 21
-0.89
  0
LINE
  5
293
100
AcDbEntity
  8
0
100
AcDbLine
 62
7
  6
CONTINUOUS
 10
-1.2286125019
 20
-0.9317162888
 11
-1.229427
 21
-0.91
  0
LINE
  5
294
100
AcDbEntity
  8
0
100
AcDbLine
 62
7
  6
CONTINUOUS
 10
0.0694585946
 20
-0.9702676474
 11
0.070573
 21
-1.0
  0
LINE
  5
295
100
AcDbEntity
  8
0
100
AcDbLine
 62
7
  6
CONTINUOUS
 10
0.070573
 20
-1.35
 11
0.0723427141
 21
-1.3996951344
  0
LINE
  5
296
100
AcDbEntity
  8
0
100
AcDbLine
 62
7
  6
CONTINUOUS
 10
-0.5267760533
 20
-1.4331159105
 11
-0.529427
 21
-1.35
  0
LINE
  5
297
100
AcDbEntity
  8
0
100
AcDbLine
 62
7
  6
CONTINUOUS
 10
-1.929427
 20
-0.89
 11
-1.929427
 21
-0.91
  0
LINE
  5
298
100
AcDbEntity
  8
0
100
AcDbLine
 62
7
  6
CONTINUOUS
 10
-1.229427
 20
-0.91
 11
-1.229427
 21
-0.89
  0
LWPOLYLINE
  5
299
100
AcDbEntity
  8
0
100
AcDbPolyline
 62
7
  6
CONTINUOUS
 90
2
 70
0
 43
0.3500000006
 10
-1.035714268
 20
36.1443957367
 10
-1.035714268
 20
37.6443916626
  0
LINE
  5
29A
100
AcDbEntity
  8
0
100
AcDbLine
 62
7
  6
CONTINUOUS
 10
-0.529427
 20
-1.35
 11
-0.529427
 21
-1.2000001216
  0
LINE
  5
29B
100
AcDbEntity
  8
0
100
AcDbLine
 62
7
  6
CONTINUOUS
 10
-0.529427
 20
1.2099882324
 11
-0.529427
 21
1.3499999987
  0
LINE
  5
29C
100
AcDbEntity
  8
0
100
AcDbLine
 62
7
  6
CONTINUOUS
 10
0.070573
 20
1.3500000009
 11
0.070573
 21
1.0
  0
LINE
  5
29D
100
AcDbEntity
  8
0
100
AcDbLine
 62
7
  6
CONTINUOUS
 10
0.070573
 20
-1.0
 11
0.070573
 21
-1.35
  0
LWPOLYLINE
  5
29E
100
AcDbEntity
  8
0
100
AcDbPolyline
 62
7
  6
CONTINUOUS
 90
19
 70
0
 10
-0.529427
 20
1.3499999987
 10
-0.528422391
 20
1.4045469501
 10
-0.5249400267
 20
1.4594222581
 10
-0.5189799069
 20
1.5146259214
 10
-0.5105133726
 20
1.5704878109
 10
-0.4995690828
 20
1.6266780523
 10
-0.4862330142
 20
1.6822070283
 10
-0.470383392
 20
1.7370513494
 10
-0.4521419908
 20
1.7912344053
 10
-0.4319601122
 20
1.8438367504
 10
-0.4098088397
 20
1.8946664538
 10
-0.3857170895
 20
1.9439154503
 10
-0.3602229123
 20
1.9912400958
 10
-0.3334562296
 20
2.0364309803
 10
-0.3052871197
 20
2.0796975189
 10
-0.2758638686
 20
2.1213243045
 10
-0.24527086
 20
2.1613146261
 10
-0.2134237102
 20
2.1996651988
 10
-0.1802175539
 20
2.2366507533
  0
LWPOLYLINE
  5
29F
100
AcDbEntity
  8
0
100
AcDbPolyline
 62
7
  6
CONTINUOUS
 90
17
 70
0
 10
-0.5294270633
 20
1.3499999987
 10
-0.5268191905
 20
1.4324295448
 10
-0.5189258528
 20
1.5150489718
 10
-0.5056420087
 20
1.5975936813
 10
-0.4867790049
 20
1.6801385434
 10
-0.4624228601
 20
1.7618259851
 10
-0.4331240947
 20
1.8409890934
 10
-0.3992323786
 20
1.917048014
 10
-0.3611437724
 20
1.9896150036
 10
-0.319923341
 20
2.0575898098
 10
-0.2761949293
 20
2.1208742558
 10
-0.2305408996
 20
2.1793840658
 10
-0.1840296094
 20
2.2325459553
 10
-0.1378808353
 20
2.2799519275
 10
-0.0916736813
 20
2.3229047262
 10
-0.0437784694
 20
2.363322467
 10
0.0061301452
 20
2.4015000093
  0
LWPOLYLINE
  5
2A0
100
AcDbEntity
  8
0
100
AcDbPolyline
 62
7
  6
CONTINUOUS
 90
4
 70
0
 10
0.070573
 20
1.0
 10
0.0696908913
 20
0.9737500613
 10
0.0671466276
 20
0.9478323637
 10
0.062940209
 20
0.9222469076
  0
LWPOLYLINE
  5
2A1
100
AcDbEntity
  8
0
100
AcDbPolyline
 62
7
  6
CONTINUOUS
 90
3
 70
0
 10
-1.929427
 20
-0.91
 10
-1.9302389072
 20
-0.9316451502
 10
-1.9326628101
 20
-0.9531615873
  0
LWPOLYLINE
  5
2A2
100
AcDbEntity
  8
0
100
AcDbPolyline
 62
7
  6
CONTINUOUS
 90
3
 70
0
 10
-1.229427
 20
-0.89
 10
-1.2286150152
 20
-0.8683538195
 10
-1.2261909201
 20
-0.8468366244
  0
LWPOLYLINE
  5
2A3
100
AcDbEntity
  8
0
100
AcDbPolyline
 62
7
  6
CONTINUOUS
 90
18
 70
0
 10
0.070573
 20
1.0
 10
0.0688607593
 20
0.9630755198
 10
0.0637291608
 20
0.9263431875
 10
0.05518824
 20
0.8901323929
 10
0.043216993
 20
0.8546326072
 10
0.0279279961
 20
0.8202954934
 10
0.009653052
 20
0.787804567
 10
-0.0114228104
 20
0.7573534587
 10
-0.0351045088
 20
0.7291201915
 10
-0.0608337522
 20
0.7035960588
 10
-0.0882662491
 20
0.6808710921
 10
-0.1172598882
 20
0.6609011591
 10
-0.1475426115
 20
0.6437491421
 10
-0.178505509
 20
0.6295655118
 10
-0.2096086244
 20
0.6183754401
 10
-0.2403153608
 20
0.6100416444
 10
-0.2705225789
 20
0.6043565307
 10
-0.3003635751
 20
0.6010667096
  0
LINE
  5
2A4
100
AcDbEntity
  8
0
100
AcDbLine
 62
7
  6
CONTINUOUS
 10
-0.5295785179
 20
1.2082522473
 11
-0.529427
 21
1.2099882323
  0
LWPOLYLINE
  5
2A5
100
AcDbEntity
  8
0
100
AcDbPolyline
 62
7
  6
CONTINUOUS
 90
16
 70
0
 10
-1.9300721464
 20
-0.929093545
 10
-1.9319302953
 20
-0.9479467865
 10
-1.9350014466
 20
-0.9665597244
 10
-1.9393077853
 20
-0.9850092719
 10
-1.9448271264
 20
-1.0032185157
 10
-1.9514929142
 20
-1.0209567154
 10
-1.9593235392
 20
-1.0382211507
 10
-1.9683006106
 20
-1.0550145421
 10
-1.9783024014
 20
-1.0711143104
 10
-1.9893379501
 20
-1.086506569
 10
-2.0013982178
 20
-1.1012052047
 10
-2.0143343607
 20
-1.1150292995
 10
-2.0281575521
 20
-1.1279689384
 10
-2.0428566183
 20
-1.1400340367
 10
-2.0582491958
 20
-1.1510734214
 10
-2.0743481799
 20
-1.1610753294
  0
LWPOLYLINE
  5
2A6
100
AcDbEntity
  8
0
100
AcDbPolyline
 62
7
  6
CONTINUOUS
 90
16
 70
0
 10
-1.2287818644
 20
-0.8709065695
 10
-1.2269237353
 20
-0.8520534285
 10
-1.2238526127
 20
-0.8334405771
 10
-1.2195463144
 20
-0.8149911031
 10
-1.2140270224
 20
-0.7967819187
 10
-1.2073612834
 20
-0.7790437609
 10
-1.1995307061
 20
-0.7617793483
 10
-1.1905536816
 20
-0.7449859623
 10
-1.1805519292
 20
-0.7288861848
 10
-1.1695164082
 20
-0.7134939009
 10
-1.1574561592
 20
-0.6987952256
 10
-1.1445200238
 20
-0.6849710853
 10
-1.1306968256
 20
-0.6720313949
 10
-1.1159977408
 20
-0.6599662398
 10
-1.1006051401
 20
-0.6489268021
 10
-1.0845061252
 20
-0.6389248473
  0
LWPOLYLINE
  5
2A7
100
AcDbEntity
  8
0
100
AcDbPolyline
 62
7
  6
CONTINUOUS
 90
7
 70
0
 10
-0.529427
 20
1.2099882324
 10
-0.5296149836
 20
1.2081743804
 10
-0.5300604949
 20
1.2065094513
 10
-0.5307635339
 20
1.2049934449
 10
-0.5317603281
 20
1.2035901488
 10
-0.53301465
 20
1.2023357755
 10
-0.5344178173
 20
1.2013389624
  0
LWPOLYLINE
  5
2A8
100
AcDbEntity
  8
0
100
AcDbPolyline
 62
7
  6
CONTINUOUS
 90
3
 70
0
 10
0.0776233647
 20
1.4490792988
 10
0.0723408331
 20
1.3996763518
 10
0.0705729496
 20
1.3500000009
  0
LWPOLYLINE
  5
2A9
100
AcDbEntity
  8
0
100
AcDbPolyline
 62
7
  6
CONTINUOUS
 90
13
 70
0
 10
-1.9326628101
 20
-0.9531615873
 10
-1.9366810679
 20
-0.9744381162
 10
-1.9422713331
 20
-0.9953492296
 10
-1.9494151524
 20
-1.0158001543
 10
-1.9580882273
 20
-1.0357069187
 10
-1.9682480298
 20
-1.0549408192
 10
-1.9798072101
 20
-1.0733447119
 10
-1.99267087
 20
-1.0907822677
 10
-2.0067713523
 20
-1.1071738309
 10
-2.02204738
 20
-1.122467241
 10
-2.0384306349
 20
-1.1365895331
 10
-2.0558640273
 20
-1.1494646624
 10
-2.074264953
 20
-1.1610251432
  0
LWPOLYLINE
  5
2AA
100
AcDbEntity
  8
0
100
AcDbPolyline
 62
7
  6
CONTINUOUS
 90
13
 70
0
 10
-1.2261909201
 20
-0.8468366244
 10
-1.2221724154
 20
-0.8255596176
 10
-1.216581928
 20
-0.8046483704
 10
-1.2094379605
 20
-0.7841975813
 10
-1.2007647811
 20
-0.7642910197
 10
-1.1906048978
 20
-0.7450573231
 10
-1.1790456974
 20
-0.7266536851
 10
-1.1661820787
 20
-0.7092164135
 10
-1.1520817275
 20
-0.6928251765
 10
-1.1368059026
 20
-0.6775320925
 10
-1.1204228277
 20
-0.6634100379
 10
-1.1029895058
 20
-0.6505350188
 10
-1.084588593
 20
-0.6389745934
  0
LWPOLYLINE
  5
2AB
100
AcDbEntity
  8
0
100
AcDbPolyline
 62
7
  6
CONTINUOUS
 90
10
 70
0
 10
0.0570399104
 20
0.8968902962
 10
0.0494774569
 20
0.8718659266
 10
0.0403480235
 20
0.84748399
 10
0.0296310955
 20
0.8237476474
 10
0.0173471876
 20
0.8006537384
 10
0.0036530182
 20
0.7785029713
 10
-0.0114685971
 20
0.7573124809
 10
-0.0280004738
 20
0.7370651331
 10
-0.0457343411
 20
0.7180102338
 10
-0.0646719909
 20
0.7001651648
  0
LINE
  5
2AC
100
AcDbEntity
  8
0
100
AcDbLine
 62
7
  6
CONTINUOUS
 10
-0.5317617768
 20
1.2035672761
 11
-0.5307640756
 21
1.204992506
  0
LINE
  5
2AD
100
AcDbEntity
  8
0
100
AcDbLine
 62
253
  6
CONTINUOUS
 10
-22.2016585166
 20
-21.5266932819
 11
-22.287406726
 21
-21.6124414913
  0
LINE
  5
2AE
100
AcDbEntity
  8
0
100
AcDbLine
 62
253
  6
CONTINUOUS
 10
21.7023437669
 20
22.026008067
 11
21.7880919586
 21
22.1117562587
  0
LINE
  5
2AF
100
AcDbEntity
  8
0
100
AcDbLine
 62
253
  6
CONTINUOUS
 10
-21.7023437504
 20
-22.0260080504
 11
-21.7880919586
 21
-22.1117562587
  0
LWPOLYLINE
  5
2B0
100
AcDbEntity
  8
0
100
AcDbPolyline
 62
7
  6
CONTINUOUS
 90
5
 70
0
 10
-0.145703063
 20
2.2723016136
 10
-0.1098295657
 20
2.3065874587
 10
-0.0723401815
 20
2.3396920511
 10
-0.0332641945
 20
2.3717023288
 10
0.0074276792
 20
2.4025313558
  0
LWPOLYLINE
  5
2B1
100
AcDbEntity
  8
0
100
AcDbPolyline
 62
7
  6
CONTINUOUS
 90
4
 70
0
 10
-0.0848116312
 20
0.6835125448
 10
-0.105939615
 20
0.6682495353
 10
-0.1280842382
 20
0.6543813438
 10
-0.1512172049
 20
0.6419027631
  0
LINE
  5
2B2
100
AcDbEntity
  8
0
100
AcDbLine
 62
7
  6
CONTINUOUS
 10
-0.5344167528
 20
1.2013395766
 11
-0.5329916586
 21
1.2023373089
  0
LWPOLYLINE
  5
2B3
100
AcDbEntity
  8
0
100
AcDbPolyline
 62
7
  6
CONTINUOUS
 90
11
 70
0
 10
0.0074276792
 20
2.4025313558
 10
0.0575912009
 20
2.4370668929
 10
0.1113900276
 20
2.4704997974
 10
0.1679165043
 20
2.5018476775
 10
0.2267061101
 20
2.5306975988
 10
0.2872526456
 20
2.5567394561
 10
0.3493819559
 20
2.5798395747
 10
0.4127353217
 20
2.5997898058
 10
0.4765169304
 20
2.6163316942
 10
0.5403865289
 20
2.6294789132
 10
0.6043983772
 20
2.639342799
  0
LWPOLYLINE
  5
2B4
100
AcDbEntity
  8
0
100
AcDbPolyline
 62
7
  6
CONTINUOUS
 90
6
 70
0
 10
0.0500801731
 20
2.4321020833
 10
0.0949129886
 20
2.460559631
 10
0.1417064239
 20
2.487758881
 10
0.1901461076
 20
2.5131874286
 10
0.2404059704
 20
2.5368404938
 10
0.2923120809
 20
2.5587228594
  0
LWPOLYLINE
  5
2B5
100
AcDbEntity
  8
0
100
AcDbPolyline
 62
7
  6
CONTINUOUS
 90
7
 70
0
 10
-3.8743484147
 20
-1.1610754639
 10
-3.8934962954
 20
-1.1711986521
 10
-3.9134062482
 20
-1.17990929
 10
-3.933871864
 20
-1.1870949288
 10
-3.9548134112
 20
-1.1927153627
 10
-3.9761358879
 20
-1.1967523003
 10
-3.9977116309
 20
-1.1991855741
  0
LWPOLYLINE
  5
2B6
100
AcDbEntity
  8
0
100
AcDbPolyline
 62
7
  6
CONTINUOUS
 90
7
 70
0
 10
-2.884506109
 20
-0.6389248392
 10
-2.8653568858
 20
-0.6288009489
 10
-2.8454473155
 20
-0.6200905362
 10
-2.8249821954
 20
-0.6129050904
 10
-2.8040410366
 20
-0.6072847427
 10
-2.782718761
 20
-0.6032478009
 10
-2.7611431029
 20
-0.6008144825
  0
LWPOLYLINE
  5
2B7
100
AcDbEntity
  8
0
100
AcDbPolyline
 62
7
  6
CONTINUOUS
 90
7
 70
0
 10
-2.0743481799
 20
-1.1610753294
 10
-2.0934973449
 20
-1.1711991674
 10
-2.11340694
 20
-1.1799095668
 10
-2.1338720841
 20
-1.1870949952
 10
-2.1548132566
 20
-1.1927153218
 10
-2.1761355285
 20
-1.1967522404
 10
-2.1977111654
 20
-1.1991855367
  0
LWPOLYLINE
  5
2B8
100
AcDbEntity
  8
0
100
AcDbPolyline
 62
7
  6
CONTINUOUS
 90
7
 70
0
 10
-1.0845061252
 20
-0.6389248473
 10
-1.0653562681
 20
-0.6288006445
 10
-1.0454468752
 20
-0.6200903597
 10
-1.0249819946
 20
-0.6129050294
 10
-1.004041033
 20
-0.6072847456
 10
-0.9827188778
 20
-0.6032478223
 10
-0.9611432995
 20
-0.6008144989
  0
LWPOLYLINE
  5
2B9
100
AcDbEntity
  8
0
100
AcDbPolyline
 62
7
  6
CONTINUOUS
 90
7
 70
0
 10
-2.8677136721
 20
-0.6299486485
 10
-2.8504487617
 20
-0.6221140433
 10
-2.832709234
 20
-0.6154341493
 10
-2.8144972326
 20
-0.6098958413
 10
-2.7960402251
 20
-0.6055756219
 10
-2.7774140341
 20
-0.6024989922
 10
-2.7585428371
 20
-0.6006404515
  0
LWPOLYLINE
  5
2BA
100
AcDbEntity
  8
0
100
AcDbPolyline
 62
7
  6
CONTINUOUS
 90
7
 70
0
 10
-3.8911407695
 20
-1.1700515717
 10
-3.908405615
 20
-1.1778861105
 10
-3.9261450928
 20
-1.1845659627
 10
-3.9443570608
 20
-1.1901042464
 10
-3.9628140862
 20
-1.1944244435
 10
-3.9814403579
 20
-1.1975010483
 10
-4.0003116868
 20
-1.199359567
  0
LWPOLYLINE
  5
2BB
100
AcDbEntity
  8
0
100
AcDbPolyline
 62
7
  6
CONTINUOUS
 90
7
 70
0
 10
-1.0677135942
 20
-0.6299486103
 10
-1.050448612
 20
-0.622113977
 10
-1.0327090335
 20
-0.6154340808
 10
-1.0144970039
 20
-0.6098957886
 10
-0.9960400231
 20
-0.6055755858
 10
-0.9774139246
 20
-0.6024989675
 10
-0.9585428751
 20
-0.6006404389
  0
LWPOLYLINE
  5
2BC
100
AcDbEntity
  8
0
100
AcDbPolyline
 62
7
  6
CONTINUOUS
 90
7
 70
0
 10
-2.0911406748
 20
-1.1700515242
 10
-2.1084056311
 20
-1.177886123
 10
-2.1261451931
 20
-1.1845659966
 10
-2.1443572162
 20
-1.1901042747
 10
-2.1628142161
 20
-1.1944244633
 10
-2.1814403648
 20
-1.1975010646
 10
-2.2003114902
 20
-1.1993595768
  0
LWPOLYLINE
  5
2BD
100
AcDbEntity
  8
0
100
AcDbPolyline
 62
7
  6
CONTINUOUS
 90
6
 70
0
 10
-0.1750399797
 20
0.6309953328
 10
-0.1995433689
 20
0.6216791216
 10
-0.2247365662
 20
0.613934061
 10
-0.2503486175
 20
0.6078814851
 10
-0.2762892048
 20
0.6035618386
 10
-0.3026486459
 20
0.6009346769
  0
LWPOLYLINE
  5
2BE
100
AcDbEntity
  8
0
100
AcDbPolyline
 62
7
  6
CONTINUOUS
 90
7
 70
0
 10
-4.2372398986
 20
0.5822578411
 10
-4.2654581989
 20
0.5723921513
 10
-4.2928694816
 20
0.5604409996
 10
-4.3193349218
 20
0.5464578936
 10
-4.3447039543
 20
0.5305248572
 10
-4.3688064693
 20
0.5127457189
 10
-4.3914915552
 20
0.4932256214
  0
LWPOLYLINE
  5
2BF
100
AcDbEntity
  8
0
100
AcDbPolyline
 62
7
  6
CONTINUOUS
 90
23
 70
0
 10
2.4178353121
 20
0.6106563548
 10
2.4735072851
 20
0.6281155956
 10
2.5289653063
 20
0.6403217385
 10
2.5853964133
 20
0.6476261219
 10
2.6416947634
 20
0.6500316493
 10
2.6977294027
 20
0.6475448746
 10
2.7536312846
 20
0.6401592472
 10
2.8086874291
 20
0.6278580144
 10
2.8633209829
 20
0.610375749
 10
2.9171088001
 20
0.5879778803
 10
2.9680684642
 20
0.5614439399
 10
3.0157719855
 20
0.5307820585
 10
3.0606473594
 20
0.4959841056
 10
3.1019961493
 20
0.45780522
 10
3.1397923706
 20
0.41625533
 10
3.1740620138
 20
0.3713245064
 10
3.2041846055
 20
0.3237381009
 10
3.2301771264
 20
0.2731417246
 10
3.2520226011
 20
0.2198897649
 10
3.2690496223
 20
0.165770738
 10
3.281034389
 20
0.1113808155
 10
3.2882007055
 20
0.0561238239
 10
3.2905485728
 20
-0.0000002377
  0
LWPOLYLINE
  5
2C0
100
AcDbEntity
  8
0
100
AcDbPolyline
 62
7
  6
CONTINUOUS
 90
12
 70
0
 10
2.4689722357
 20
0.6268951702
 10
2.5214255103
 20
0.6389375382
 10
2.5743617216
 20
0.6466202333
 10
2.6270776903
 20
0.6498913359
 10
2.6794495603
 20
0.6488604774
 10
2.7315014021
 20
0.6436056483
 10
2.7831790328
 20
0.6341400082
 10
2.8339620179
 20
0.6205433436
 10
2.8831855087
 20
0.603015266
 10
2.9303789835
 20
0.5818013312
 10
2.9754759548
 20
0.5570568475
 10
3.0184243288
 20
0.5288763851
  0
LINE
  5
2C1
100
AcDbEntity
  8
0
100
AcDbLine
 62
7
  6
CONTINUOUS
 10
-2.1977111654
 20
-1.1991855367
 11
-2.2194275922
 21
-1.2
  0
LINE
  5
2C2
100
AcDbEntity
  8
0
100
AcDbLine
 62
7
  6
CONTINUOUS
 10
-3.9977116309
 20
-1.1991855741
 11
-4.0194280725
 21
-1.2
  0
LINE
  5
2C3
100
AcDbEntity
  8
0
100
AcDbLine
 62
7
  6
CONTINUOUS
 10
-0.9611432995
 20
-0.6008144989
 11
-0.9394268744
 21
-0.6
  0
LINE
  5
2C4
100
AcDbEntity
  8
0
100
AcDbLine
 62
7
  6
CONTINUOUS
 10
-2.7611431029
 20
-0.6008144825
 11
-2.7394266337
 21
-0.6
  0
LWPOLYLINE
  5
2C5
100
AcDbEntity
  8
0
100
AcDbPolyline
 62
7
  6
CONTINUOUS
 90
3
 70
0
 10
2.4314340767
 20
-2.092831566
 10
2.7173452157
 20
-2.0828325904
 10
3.003120599
 20
-2.0678340823
  0
LWPOLYLINE
  5
2C6
100
AcDbEntity
  8
0
100
AcDbPolyline
 62
7
  6
CONTINUOUS
 90
3
 70
0
 10
1.8590746234
 20
-2.0978340776
 10
2.1452526653
 20
-2.0978341364
 10
2.4313932324
 20
-2.0928326371
  0
LINE
  5
2C7
100
AcDbEntity
  8
0
100
AcDbLine
 62
7
  6
CONTINUOUS
 10
-4.0194280726
 20
-1.2000001864
 11
-4.1194307852
 21
-1.1999998113
  0
LINE
  5
2C8
100
AcDbEntity
  8
0
100
AcDbLine
 62
7
  6
CONTINUOUS
 10
-2.2194275924
 20
-1.2000005666
 11
-2.7394277276
 21
-1.199999378
  0
LINE
  5
2C9
100
AcDbEntity
  8
0
100
AcDbLine
 62
7
  6
CONTINUOUS
 10
-0.529427
 20
-1.2000001216
 11
-0.9394272496
 21
-1.199999844
  0
LWPOLYLINE
  5
2CA
100
AcDbEntity
  8
0
100
AcDbPolyline
 62
7
  6
CONTINUOUS
 90
2
 70
0
 43
0.3500000006
 10
34.3665993576
 20
-1.0357139511
 10
32.8665988998
 20
-1.0357139511
  0
LINE
  5
2CB
100
AcDbEntity
  8
0
100
AcDbLine
 62
7
  6
CONTINUOUS
 10
-4.1194277569
 20
-0.5999999054
 11
-4.0194264649
 21
-0.6000000934
  0
LINE
  5
2CC
100
AcDbEntity
  8
0
100
AcDbLine
 62
7
  6
CONTINUOUS
 10
-2.7394266338
 20
-0.5999996884
 11
-2.2194267045
 21
-0.6000002839
  0
LINE
  5
2CD
100
AcDbEntity
  8
0
100
AcDbLine
 62
7
  6
CONTINUOUS
 10
-0.9394268744
 20
-0.5999998915
 11
-0.3294269394
 21
-0.6000000703
  0
LINE
  5
2CE
100
AcDbEntity
  8
0
100
AcDbLine
 62
7
  6
CONTINUOUS
 10
1.5728866819
 20
-2.0928312187
 11
1.8590230288
 21
-2.0978308065
  0
LINE
  5
2CF
100
AcDbEntity
  8
0
100
AcDbLine
 62
7
  6
CONTINUOUS
 10
-4.1194307853
 20
-1.2
 11
-4.1848331831
 21
-1.1978556496
  0
LWPOLYLINE
  5
2D0
100
AcDbEntity
  8
0
100
AcDbPolyline
 62
7
  6
CONTINUOUS
 90
8
 70
0
 10
-0.3294269394
 20
-0.6000000703
 10
-0.302790482
 20
-0.6009180586
 10
-0.2765239878
 20
-0.6035319035
 10
-0.2506274569
 20
-0.607841605
 10
-0.2249903317
 20
-0.6138878686
 10
-0.1997231699
 20
-0.6216299887
 10
-0.1751576443
 20
-0.6309458484
 10
-0.151316886
 20
-0.6418474115
  0
LINE
  5
2D1
100
AcDbEntity
  8
0
100
AcDbLine
 62
7
  6
CONTINUOUS
 10
1.2869114072
 20
-2.0828299601
 11
1.5729106545
 21
-2.0928316376
  0
LWPOLYLINE
  5
2D2
100
AcDbEntity
  8
0
100
AcDbPolyline
 62
7
  6
CONTINUOUS
 90
15
 70
0
 10
-2.7394277278
 20
-1.2
 10
-2.761072004
 20
-1.1991881042
 10
-2.7825877309
 20
-1.1967643195
 10
-2.8038637247
 20
-1.1927462493
 10
-2.82477451
 20
-1.1871561963
 10
-2.8452252872
 20
-1.1800125795
 10
-2.8651320084
 20
-1.1713396918
 10
-2.8843659502
 20
-1.1611800486
 10
-2.9027699788
 20
-1.1496209702
 10
-2.9202077302
 20
-1.1367573563
 10
-2.9365995448
 20
-1.1226568411
 10
-2.9518932358
 20
-1.1073807005
 10
-2.9660157736
 20
-1.0909973151
 10
-2.9788910955
 20
-1.0735638075
 10
-2.9904517378
 20
-1.0551627567
  0
LWPOLYLINE
  5
2D3
100
AcDbEntity
  8
0
100
AcDbPolyline
 62
7
  6
CONTINUOUS
 90
15
 70
0
 10
-0.9394272496
 20
-1.199999844
 10
-0.9610724421
 20
-1.1991880707
 10
-0.9825888936
 20
-1.1967641431
 10
-1.0038654075
 20
-1.1927458652
 10
-1.0247764649
 20
-1.1871555946
 10
-1.0452273043
 20
-1.1800117893
 10
-1.0651339919
 20
-1.1713387377
 10
-1.0843678419
 20
-1.1611789569
 10
-1.1027716983
 20
-1.1496197989
 10
-1.1202092241
 20
-1.1367561649
 10
-1.1366007585
 20
-1.122655715
 10
-1.1518941478
 20
-1.1073797201
 10
-1.1660164344
 20
-1.0909964887
 10
-1.1788915815
 20
-1.0735630919
 10
-1.1904520885
 20
-1.0551621429
  0
LWPOLYLINE
  5
2D4
100
AcDbEntity
  8
0
100
AcDbPolyline
 62
7
  6
CONTINUOUS
 90
15
 70
0
 10
-4.0194264649
 20
-0.6000000934
 10
-3.9977827291
 20
-0.6008118395
 10
-3.9762674466
 20
-0.6032355007
 10
-3.9549917871
 20
-0.6072534044
 10
-3.9340812027
 20
-0.6128432763
 10
-3.913630501
 20
-0.6199867203
 10
-3.8937237731
 20
-0.6286594513
 10
-3.8744897659
 20
-0.6388189612
 10
-3.856085611
 20
-0.6503779472
 10
-3.8386476874
 20
-0.6632415127
 10
-3.8222556593
 20
-0.6773420414
 10
-3.8069617323
 20
-0.6926182595
 10
-3.7928389769
 20
-0.7090017472
 10
-3.7799634706
 20
-0.7264353574
 10
-3.7684026682
 20
-0.7448365275
  0
LWPOLYLINE
  5
2D5
100
AcDbEntity
  8
0
100
AcDbPolyline
 62
7
  6
CONTINUOUS
 90
15
 70
0
 10
-2.2194267045
 20
-0.6000002839
 10
-2.1977806194
 20
-0.6008119993
 10
-2.1762635164
 20
-0.6032360953
 10
-2.1549865943
 20
-0.6072545892
 10
-2.1340754247
 20
-0.612845055
 10
-2.1136246992
 20
-0.6199889931
 10
-2.0937181751
 20
-0.628662144
 10
-2.0744844857
 20
-0.6388220086
 10
-2.056080834
 20
-0.6503812016
 10
-2.0386435392
 20
-0.6632448206
 10
-2.0222522726
 20
-0.6773451829
 10
-2.0069591517
 20
-0.6926210344
 10
-1.9928370596
 20
-0.7090041458
 10
-1.9799620009
 20
-0.7264375183
 10
-1.9684015407
 20
-0.7448384931
  0
LWPOLYLINE
  5
2D6
100
AcDbEntity
  8
0
100
AcDbPolyline
 62
7
  6
CONTINUOUS
 90
22
 70
0
 10
-4.1194307852
 20
-1.1999998113
 10
-4.1945291903
 20
-1.1971509905
 10
-4.2685261857
 20
-1.1888333571
 10
-4.3414217728
 20
-1.1750469144
 10
-4.4137071344
 20
-1.1556156634
 10
-4.4848910902
 20
-1.1307156075
 10
-4.5535001006
 20
-1.1008747525
 10
-4.6192820227
 20
-1.0661273802
 10
-4.6824890096
 20
-1.0264392094
 10
-4.742403971
 20
-0.9822353999
 10
-4.7991958523
 20
-0.9332496281
 10
-4.85269572
 20
-0.8797482152
 10
-4.9016796685
 20
-0.822955287
 10
-4.9458813662
 20
-0.763039822
 10
-4.9855671594
 20
-0.6998328373
 10
-5.0203121612
 20
-0.6340515156
 10
-5.0501506374
 20
-0.5654436842
 10
-5.0750483335
 20
-0.4942615105
 10
-5.0944775817
 20
-0.4219786882
 10
-5.1082624951
 20
-0.3490864468
 10
-5.1165789673
 20
-0.2750935516
 10
-5.119427
 20
-0.2
  0
LWPOLYLINE
  5
2D7
100
AcDbEntity
  8
0
100
AcDbPolyline
 62
7
  6
CONTINUOUS
 90
18
 70
0
 10
-0.3294269395
 20
-0.6
 10
-0.2944030996
 20
-0.6015400208
 10
-0.2591399324
 20
-0.6062278595
 10
-0.2239238755
 20
-0.6141643786
 10
-0.1889598149
 20
-0.6254755035
 10
-0.1547406091
 20
-0.6401599194
 10
-0.1219092821
 20
-0.6580403538
 10
-0.0906776622
 20
-0.679064375
 10
-0.0615326921
 20
-0.7029693504
 10
-0.0354310687
 20
-0.7287617949
 10
-0.0125265258
 20
-0.7559216812
 10
0.0076069366
 20
-0.7845690892
 10
0.0249975778
 20
-0.8145794907
 10
0.0396188353
 20
-0.8457106808
 10
0.0513186639
 20
-0.8774093977
 10
0.06005717
 20
-0.9088561969
 10
0.0660132935
 20
-0.9397470518
 10
0.0694585946
 20
-0.9702676474
  0
LINE
  5
2D8
100
AcDbEntity
  8
0
100
AcDbLine
 62
7
  6
CONTINUOUS
 10
1.0010938281
 20
-2.0678298114
 11
1.2869114072
 21
-2.0828299601
  0
LINE
  5
2D9
100
AcDbEntity
  8
0
100
AcDbLine
 62
7
  6
CONTINUOUS
 10
0.7155727951
 20
-2.0478359245
 11
1.0012069397
 21
-2.067833802
  0
LWPOLYLINE
  5
2DA
100
AcDbEntity
  8
0
100
AcDbPolyline
 62
7
  6
CONTINUOUS
 90
24
 70
0
 10
-4.1848331831
 20
-1.1978556496
 10
-4.2499562534
 20
-1.1914413723
 10
-4.3145208209
 20
-1.1807845844
 10
-4.3782497949
 20
-1.1659216042
 10
-4.4408722055
 20
-1.1469249043
 10
-4.5021181062
 20
-1.1238763539
 10
-4.5617216449
 20
-1.0968663657
 10
-4.6194322785
 20
-1.0660187919
 10
-4.6750030407
 20
-1.0314657317
 10
-4.7281915478
 20
-0.9933470553
 10
-4.7787754028
 20
-0.951833431
 10
-4.8265375414
 20
-0.9071030209
 10
-4.8712674204
 20
-0.8593404346
 10
-4.912780395
 20
-0.8087562839
 10
-4.9508982672
 20
-0.7555677563
 10
-4.9854504292
 20
-0.6999972657
 10
-5.0162971058
 20
-0.6422870797
 10
-5.0433062483
 20
-0.5826841185
 10
-5.0663540967
 20
-0.521438765
 10
-5.085350216
 20
-0.458816814
 10
-5.1002126742
 20
-0.395088342
 10
-5.1108690136
 20
-0.330524326
 10
-5.117282932
 20
-0.2654018047
 10
-5.119427
 20
-0.2
  0
LWPOLYLINE
  5
2DB
100
AcDbEntity
  8
0
100
AcDbPolyline
 62
7
  6
CONTINUOUS
 90
16
 70
0
 10
-2.7585209568
 20
-1.1993548388
 10
-2.7773739218
 20
-1.1974966968
 10
-2.7959866228
 20
-1.1944255742
 10
-2.8144359716
 20
-1.1901192942
 10
-2.8326450565
 20
-1.1846000337
 10
-2.8503831428
 20
-1.1779343231
 10
-2.867647516
 20
-1.1701037704
 10
-2.8844408908
 20
-1.1611267676
 10
-2.9005406765
 20
-1.1511250214
 10
-2.9159329909
 20
-1.1400894871
 10
-2.9306317167
 20
-1.1280292091
 10
-2.9444559104
 20
-1.115093028
 10
-2.9573956576
 20
-1.1012697613
 10
-2.9694608731
 20
-1.086570591
 10
-2.9805003572
 20
-1.0711779044
 10
-2.9905023405
 20
-1.055078798
  0
LWPOLYLINE
  5
2DC
100
AcDbEntity
  8
0
100
AcDbPolyline
 62
7
  6
CONTINUOUS
 90
16
 70
0
 10
-0.9585206378
 20
-1.1993547665
 10
-0.9773737433
 20
-1.1974966799
 10
-0.995986566
 20
-1.1944255843
 10
-1.014436019
 20
-1.1901192926
 10
-1.0326451893
 20
-1.1845999919
 10
-1.050383338
 20
-1.1779342425
 10
-1.0676477475
 20
-1.1701036581
 10
-1.0844411355
 20
-1.1611266248
 10
-1.1005409154
 20
-1.1511248622
 10
-1.115933202
 20
-1.1400893286
 10
-1.1306318806
 20
-1.1280290654
 10
-1.1444560215
 20
-1.1150929171
 10
-1.1573957089
 20
-1.1012697069
 10
-1.1694608587
 20
-1.0865706113
 10
-1.1805002883
 20
-1.0711780044
 10
-1.1905022316
 20
-1.0550789878
  0
LWPOLYLINE
  5
2DD
100
AcDbEntity
  8
0
100
AcDbPolyline
 62
7
  6
CONTINUOUS
 90
16
 70
0
 10
-4.0003333557
 20
-0.6006451879
 10
-3.9814804954
 20
-0.6025032642
 10
-3.9628678842
 20
-0.6055743227
 10
-3.944418614
 20
-0.6098805398
 10
-3.926209593
 20
-0.6153997393
 10
-3.9084715467
 20
-0.6220653918
 10
-3.8912071871
 20
-0.6298958843
 10
-3.8744138026
 20
-0.6388728299
 10
-3.858313983
 20
-0.6488745389
 10
-3.8429216062
 20
-0.6599100586
 10
-3.828222795
 20
-0.6719703416
 10
-3.8143985064
 20
-0.6849065556
 10
-3.8014586524
 20
-0.6987298904
 10
-3.7893933216
 20
-0.7134291559
 10
-3.7783537361
 20
-0.7288219499
 10
-3.7683516705
 20
-0.7449211813
  0
LWPOLYLINE
  5
2DE
100
AcDbEntity
  8
0
100
AcDbPolyline
 62
7
  6
CONTINUOUS
 90
16
 70
0
 10
-2.200333392
 20
-0.6006452996
 10
-2.1814803526
 20
-0.6025033331
 10
-2.1628675864
 20
-0.6055743846
 10
-2.144418182
 20
-0.6098806433
 10
-2.1262090509
 20
-0.6153999201
 10
-2.1084709278
 20
-0.6220656475
 10
-2.0912065284
 20
-0.6298962068
 10
-2.0744131373
 20
-0.6388732166
 10
-2.0583133418
 20
-0.6488749664
 10
-2.0429210254
 20
-0.6599104992
 10
-2.028222305
 20
-0.6719707718
 10
-2.0143981186
 20
-0.684906943
 10
-2.0014583812
 20
-0.6987301931
 10
-1.9893931781
 20
-0.7134293416
 10
-1.9783537031
 20
-0.7288220058
 10
-1.968351725
 20
-0.7449210869
  0
LWPOLYLINE
  5
2DF
100
AcDbEntity
  8
0
100
AcDbPolyline
 62
7
  6
CONTINUOUS
 90
3
 70
0
 10
-4.1789922071
 20
-0.5955363671
 10
-4.1492915451
 20
-0.5988805441
 10
-4.1194277569
 20
-0.6
  0
LWPOLYLINE
  5
2E0
100
AcDbEntity
  8
0
100
AcDbPolyline
 62
7
  6
CONTINUOUS
 90
3
 70
0
 10
0.6172340985
 20
-2.0329955303
 10
0.6661369413
 20
-2.0421624534
 10
0.7155727951
 20
-2.0478359245
  0
LINE
  5
2E1
100
AcDbEntity
  8
0
100
AcDbLine
 62
7
  6
CONTINUOUS
 10
-4.2083590329
 20
-0.5899885827
 11
-4.1789922071
 21
-0.5955363671
  0
LWPOLYLINE
  5
2E2
100
AcDbEntity
  8
0
100
AcDbPolyline
 62
7
  6
CONTINUOUS
 90
3
 70
0
 10
-0.128177764
 20
-0.6543227138
 10
-0.106002558
 20
-0.6682137465
 10
-0.0847843925
 20
-0.6835546798
  0
LWPOLYLINE
  5
2E3
100
AcDbEntity
  8
0
100
AcDbPolyline
 62
7
  6
CONTINUOUS
 90
16
 70
0
 10
0.0083068411
 20
-2.4031791086
 10
-0.0423718606
 20
-2.3644591995
 10
-0.090218935
 20
-2.3241889485
 10
-0.1363897946
 20
-2.2813911211
 10
-0.1825262543
 20
-2.2341489356
 10
-0.2290315489
 20
-2.1811892858
 10
-0.2746814317
 20
-2.1229312793
 10
-0.3184406233
 20
-2.0598947482
 10
-0.3597589025
 20
-1.9920859589
 10
-0.3980022001
 20
-1.9195865241
 10
-0.4320931195
 20
-1.8434970836
 10
-0.4616202639
 20
-1.7642012981
 10
-0.4862166257
 20
-1.6822600492
 10
-0.5053016895
 20
-1.5993444456
 10
-0.5187639979
 20
-1.5163202546
 10
-0.5267760533
 20
-1.4331159105
  0
LWPOLYLINE
  5
2E4
100
AcDbEntity
  8
0
100
AcDbPolyline
 62
7
  6
CONTINUOUS
 90
4
 70
0
 10
-0.0323705042
 20
-2.3724129601
 10
-0.0714437633
 20
-2.3404568487
 10
-0.1089438163
 20
-2.307395049
 10
-0.1448397828
 20
-2.2731432845
  0
LWPOLYLINE
  5
2E5
100
AcDbEntity
  8
0
100
AcDbPolyline
 62
7
  6
CONTINUOUS
 90
13
 70
0
 10
-0.0645301431
 20
-0.7003113429
 10
-0.0455227157
 20
-0.7182232156
 10
-0.027805897
 20
-0.7372708052
 10
-0.0113359004
 20
-0.7574736037
 10
0.0037357273
 20
-0.778629568
 10
0.0174161123
 20
-0.8007822498
 10
0.0296981285
 20
-0.8238880967
 10
0.0404088506
 20
-0.8476144095
 10
0.0495186798
 20
-0.871936831
 10
0.0570572148
 20
-0.8968797179
 10
0.0629403272
 20
-0.9221834412
 10
0.0671399741
 20
-0.9477614582
 10
0.0696841984
 20
-0.9737003112
  0
LINE
  5
2E6
100
AcDbEntity
  8
0
100
AcDbLine
 62
253
  6
CONTINUOUS
 10
-22.287406726
 20
21.6124414913
 11
-22.2016585167
 21
21.526693282
  0
LINE
  5
2E7
100
AcDbEntity
  8
0
100
AcDbLine
 62
253
  6
CONTINUOUS
 10
21.7880919586
 20
-22.1117562587
 11
21.7023437668
 21
-22.0260080669
  0
LINE
  5
2E8
100
AcDbEntity
  8
0
100
AcDbLine
 62
253
  6
CONTINUOUS
 10
-21.7880919586
 20
22.1117562587
 11
-21.7023437503
 21
22.0260080504
  0
LWPOLYLINE
  5
2E9
100
AcDbEntity
  8
0
100
AcDbPolyline
 62
7
  6
CONTINUOUS
 90
19
 70
0
 10
-0.1793859025
 20
-2.2375215562
 10
-0.2126339966
 20
-2.200562296
 10
-0.2445322437
 20
-2.1622330691
 10
-0.2751794202
 20
-2.1222565751
 10
-0.3046583129
 20
-2.0806385973
 10
-0.3328861349
 20
-2.0373733485
 10
-0.3597133017
 20
-1.9921661713
 10
-0.3852702631
 20
-1.9448015958
 10
-0.4094265693
 20
-1.8954950867
 10
-0.4316412863
 20
-1.8445983881
 10
-0.4518868202
 20
-1.7919200075
 10
-0.470190765
 20
-1.7376514336
 10
-0.486094968
 20
-1.6827188842
 10
-0.4994756863
 20
-1.6270989721
 10
-0.5104566632
 20
-1.5708150844
 10
-0.5189509752
 20
-1.5148636034
 10
-0.5249296481
 20
-1.4595766584
 10
-0.5284216564
 20
-1.4046221234
 10
-0.529427
 20
-1.35
  0
LWPOLYLINE
  5
2EA
100
AcDbEntity
  8
0
100
AcDbPolyline
 62
7
  6
CONTINUOUS
 90
7
 70
0
 10
-1.968351725
 20
-0.7449210869
 10
-1.9582275763
 20
-0.7640708674
 10
-1.9495172912
 20
-0.783980296
 10
-1.9423319696
 20
-0.8044452014
 10
-1.9367117052
 20
-0.8253861508
 10
-1.9326748051
 20
-0.846708245
 10
-1.930241498
 20
-0.8682837204
  0
LWPOLYLINE
  5
2EB
100
AcDbEntity
  8
0
100
AcDbPolyline
 62
7
  6
CONTINUOUS
 90
7
 70
0
 10
-1.1905022316
 20
-1.0550789878
 10
-1.2006261241
 20
-1.0359297464
 10
-1.2093365185
 20
-1.0160201835
 10
-1.2165219396
 20
-0.9955550941
 10
-1.2221422632
 20
-0.9746139939
 10
-1.2261791876
 20
-0.9532918125
 10
-1.2286125019
 20
-0.9317162888
  0
LWPOLYLINE
  5
2EC
100
AcDbEntity
  8
0
100
AcDbPolyline
 62
7
  6
CONTINUOUS
 90
7
 70
0
 10
-1.9593754753
 20
-0.7617136834
 10
-1.951540842
 20
-0.7789787087
 10
-1.9448609644
 20
-0.7967183072
 10
-1.9393227034
 20
-0.8149303341
 10
-1.9350025293
 20
-0.833387269
 10
-1.9319259324
 20
-0.8520132718
 10
-1.9300674227
 20
-0.8708841822
  0
LWPOLYLINE
  5
2ED
100
AcDbEntity
  8
0
100
AcDbPolyline
 62
7
  6
CONTINUOUS
 90
7
 70
0
 10
-1.1994784549
 20
-1.0382864595
 10
-1.2073130739
 20
-1.0210214886
 10
-1.2139929542
 20
-1.0032819313
 10
-1.2195312304
 20
-0.9850699311
 10
-1.2238514211
 20
-0.9666129879
 10
-1.2269280327
 20
-0.9479869351
 10
-1.228786559
 20
-0.9291159391
  0
LWPOLYLINE
  5
2EE
100
AcDbEntity
  8
0
100
AcDbPolyline
 62
7
  6
CONTINUOUS
 90
15
 70
0
 10
1.9905485635
 20
-0.0
 10
1.9925213167
 20
0.0507219599
 10
1.9985597984
 20
0.1018634185
 10
2.0088480158
 20
0.153158025
 10
2.0235938464
 20
0.2044599902
 10
2.042729922
 20
0.2550378131
 10
2.0658931987
 20
0.303758384
 10
2.0927323272
 20
0.349905009
 10
2.1231165124
 20
0.3934387376
 10
2.1569127427
 20
0.4342780225
 10
2.1939700042
 20
0.472271699
 10
2.2339989023
 20
0.5071391347
 10
2.2766699021
 20
0.5386013943
 10
2.3216188699
 20
0.5663996712
 10
2.3686789989
 20
0.5904401134
  0
LWPOLYLINE
  5
2EF
100
AcDbEntity
  8
0
100
AcDbPolyline
 62
7
  6
CONTINUOUS
 90
15
 70
0
 10
1.9905485509
 20
0.0000002415
 10
1.9930745904
 20
0.056878253
 10
2.0003774276
 20
0.1126421255
 10
2.0124570622
 20
0.1672918569
 10
2.0295181959
 20
0.221323962
 10
2.0513561248
 20
0.274241922
 10
2.0773567397
 20
0.3245561845
 10
2.1075179629
 20
0.3720184286
 10
2.1418418685
 20
0.4168769738
 10
2.1797205746
 20
0.4583872308
 10
2.2212077651
 20
0.4965798919
 10
2.2662497513
 20
0.5314242655
 10
2.3140775927
 20
0.5620836877
 10
2.3650392275
 20
0.5885182107
 10
2.4187867122
 20
0.610767785
  0
LINE
  5
2F0
100
AcDbEntity
  8
0
100
AcDbLine
 62
253
  6
CONTINUOUS
 10
22.2016585343
 20
21.5266932996
 11
22.287406726
 21
21.6124414913
  0
LWPOLYLINE
  5
2F1
100
AcDbEntity
  8
0
100
AcDbPolyline
 62
7
  6
CONTINUOUS
 90
19
 70
0
 10
0.6661413046
 20
2.0421632104
 10
0.617236747
 20
2.0329962665
 10
0.5691065109
 20
2.0203814766
 10
0.5219952429
 20
2.0043736839
 10
0.4761381212
 20
1.985062161
 10
0.4317683179
 20
1.962545066
 10
0.3891142184
 20
1.9369284956
 10
0.3483858683
 20
1.9083492816
 10
0.3097889265
 20
1.876951713
 10
0.2735247123
 20
1.8428882504
 10
0.2397689893
 20
1.8063364761
 10
0.2086899376
 20
1.7674775376
 10
0.1804410626
 20
1.7264839193
 10
0.1551719899
 20
1.6835828503
 10
0.1330354961
 20
1.6390432503
 10
0.1141565202
 20
1.5931320639
 10
0.0985903263
 20
1.546048794
 10
0.0863889242
 20
1.4979602008
 10
0.0776233647
 20
1.4490792988
  0
LWPOLYLINE
  5
2F2
100
AcDbEntity
  8
0
100
AcDbPolyline
 62
7
  6
CONTINUOUS
 90
19
 70
0
 10
0.7155727488
 20
2.0478359659
 10
0.657469868
 20
2.0407346999
 10
0.6008678502
 20
2.0290954512
 10
0.5457666962
 20
2.0129182178
 10
0.4918017255
 20
1.9920336181
 10
0.4393376201
 20
1.9666110278
 10
0.3894684244
 20
1.9371585812
 10
0.3422494662
 20
1.9035878026
 10
0.2976254192
 20
1.8659871602
 10
0.2565243471
 20
1.8251302059
 10
0.2190228367
 20
1.7809461338
 10
0.1850443022
 20
1.7335057428
 10
0.1552870484
 20
1.6837949953
 10
0.1298436252
 20
1.6317656876
 10
0.1086214833
 20
1.5774660189
 10
0.092041279
 20
1.5220265589
 10
0.0802432314
 20
1.4658241648
 10
0.0730871215
 20
1.4084819789
 10
0.0705729496
 20
1.3500000009
  0
LINE
  5
2F3
100
AcDbEntity
  8
0
100
AcDbLine
 62
7
  6
CONTINUOUS
 10
0.7155727484
 20
2.0478359713
 11
0.6661413046
 21
2.0421632104
  0
LWPOLYLINE
  5
2F4
100
AcDbEntity
  8
0
100
AcDbPolyline
 62
7
  6
CONTINUOUS
 90
3
 70
0
 10
-4.1492981589
 20
0.5988799482
 10
-4.1790032749
 20
0.5955345365
 10
-4.2083710969
 20
0.5899858125
  0
LINE
  5
2F5
100
AcDbEntity
  8
0
100
AcDbLine
 62
7
  6
CONTINUOUS
 10
0.6043983772
 20
2.639342799
 11
0.6684236644
 21
2.6459805854
  0
LINE
  5
2F6
100
AcDbEntity
  8
0
100
AcDbLine
 62
7
  6
CONTINUOUS
 10
-0.5375982328
 20
1.2001904414
 11
-0.5394117086
 21
1.2000025212
  0
LWPOLYLINE
  5
2F7
100
AcDbEntity
  8
0
100
AcDbPolyline
 62
7
  6
CONTINUOUS
 90
4
 70
0
 10
-0.5394117086
 20
1.2000025212
 10
-0.5376760454
 20
1.2001540424
 10
-0.5359941278
 20
1.2006043319
 10
-0.5344173339
 20
1.2013393058
  0
LINE
  5
2F8
100
AcDbEntity
  8
0
100
AcDbLine
 62
7
  6
CONTINUOUS
 10
1.0010913248
 20
2.0678296683
 11
0.7155727488
 21
2.0478359659
  0
LINE
  5
2F9
100
AcDbEntity
  8
0
100
AcDbLine
 62
7
  6
CONTINUOUS
 10
0.6684236714
 20
2.6459804967
 11
0.9644073488
 21
2.6667082419
  0
LWPOLYLINE
  5
2FA
100
AcDbEntity
  8
0
100
AcDbPolyline
 62
7
  6
CONTINUOUS
 90
16
 70
0
 10
-4.119427758
 20
0.5999973157
 10
-4.1619067853
 20
0.597617597
 10
-4.2030450222
 20
0.5911138159
 10
-4.2428424701
 20
0.5804859738
 10
-4.281678516
 20
0.5655589932
 10
-4.3191737756
 20
0.5465079537
 10
-4.3541900949
 20
0.5238580909
 10
-4.3867205731
 20
0.4974129753
 10
-4.4167721161
 20
0.4673690365
 10
-4.4432272819
 20
0.4348407986
 10
-4.4658903556
 20
0.3998194013
 10
-4.4849570579
 20
0.362313703
 10
-4.4998971008
 20
0.3234648049
 10
-4.5105337228
 20
0.283653073
 10
-4.517043689
 20
0.2424981386
 10
-4.519427
 20
0.2
  0
LWPOLYLINE
  5
2FB
100
AcDbEntity
  8
0
100
AcDbPolyline
 62
7
  6
CONTINUOUS
 90
3
 70
0
 10
0.9645249853
 20
2.6667124839
 10
1.2607685815
 20
2.682261433
 10
1.55715439
 20
2.692627437
  0
LINE
  5
2FC
100
AcDbEntity
  8
0
100
AcDbLine
 62
7
  6
CONTINUOUS
 10
-4.1194277568
 20
0.6
 11
-4.1492981589
 21
0.5988799482
  0
LINE
  5
2FD
100
AcDbEntity
  8
0
100
AcDbLine
 62
7
  6
CONTINUOUS
 10
-0.3003635751
 20
0.6010667096
 11
-0.3294269409
 21
0.6
  0
LWPOLYLINE
  5
2FE
100
AcDbEntity
  8
0
100
AcDbPolyline
 62
7
  6
CONTINUOUS
 90
3
 70
0
 10
1.5728871671
 20
2.0928312644
 10
1.2869784631
 20
2.0828322839
 10
1.0012069715
 20
2.0678338523
  0
LINE
  5
2FF
100
AcDbEntity
  8
0
100
AcDbLine
 62
7
  6
CONTINUOUS
 10
1.8590681948
 20
2.0978340715
 11
1.5729290246
 21
2.0928323622
  0
LINE
  5
300
100
AcDbEntity
  8
0
100
AcDbLine
 62
7
  6
CONTINUOUS
 10
1.5572036712
 20
2.6926287295
 11
1.8538297288
 21
2.697813948
  0
LINE
  5
301
100
AcDbEntity
  8
0
100
AcDbLine
 62
7
  6
CONTINUOUS
 10
-0.3294269409
 20
0.6
 11
-4.119427758
 21
0.5999973157
  0
LINE
  5
302
100
AcDbEntity
  8
0
100
AcDbLine
 62
7
  6
CONTINUOUS
 10
-4.1194307853
 20
1.2
 11
-0.5394117086
 21
1.2000025212
  0
LWPOLYLINE
  5
303
100
AcDbEntity
  8
0
100
AcDbPolyline
 62
7
  6
CONTINUOUS
 90
3
 70
0
 10
1.8537765296
 20
2.6978105523
 10
2.1505407545
 20
2.6978107337
 10
2.4471644558
 20
2.6926278344
  0
LWPOLYLINE
  5
304
100
AcDbEntity
  8
0
100
AcDbPolyline
 62
7
  6
CONTINUOUS
 90
3
 70
0
 10
2.4314359849
 20
2.0928315489
 10
2.1452980162
 20
2.0978309241
 10
1.8590240424
 20
2.0978308149
  0
LINE
  5
305
100
AcDbEntity
  8
0
100
AcDbLine
 62
7
  6
CONTINUOUS
 10
2.7174133217
 20
2.0828303756
 11
2.4314116645
 21
2.0928319739
  0
LWPOLYLINE
  5
306
100
AcDbEntity
  8
0
100
AcDbPolyline
 62
7
  6
CONTINUOUS
 90
3
 70
0
 10
2.4471432527
 20
2.6926282049
 10
2.7436283056
 20
2.6822593277
 10
3.0399220606
 20
2.6667085272
  0
LINE
  5
307
100
AcDbEntity
  8
0
100
AcDbLine
 62
7
  6
CONTINUOUS
 10
3.0032347728
 20
2.0678301457
 11
2.7174133217
 21
2.0828303756
  0
LINE
  5
308
100
AcDbEntity
  8
0
100
AcDbLine
 62
7
  6
CONTINUOUS
 10
3.2887602591
 20
2.0478365471
 11
3.0031216542
 21
2.0678343433
  0
LINE
  5
309
100
AcDbEntity
  8
0
100
AcDbLine
 62
7
  6
CONTINUOUS
 10
3.0398016756
 20
2.6667127241
 11
3.3359092522
 21
2.6459805816
  0
LWPOLYLINE
  5
30A
100
AcDbEntity
  8
0
100
AcDbPolyline
 62
7
  6
CONTINUOUS
 90
3
 70
0
 10
3.3814243762
 20
2.0342462264
 10
3.3353197171
 20
2.0425916989
 10
3.2887602591
 20
2.0478365471
  0
LWPOLYLINE
  5
30B
100
AcDbEntity
  8
0
100
AcDbPolyline
 62
7
  6
CONTINUOUS
 90
11
 70
0
 10
3.0590602893
 20
0.4973599746
 10
3.097117504
 20
0.4626725853
 10
3.1323750585
 20
0.4249774638
 10
3.164609709
 20
0.3844922193
 10
3.193623199
 20
0.3414541105
 10
3.219215898
 20
0.2960473731
 10
3.2412098522
 20
0.248367419
 10
3.2593037438
 20
0.1990472847
 10
3.2732157151
 20
0.1491085149
 10
3.2829418713
 20
0.099180331
 10
3.2886708319
 20
0.0493855995
  0
LINE
  5
30C
100
AcDbEntity
  8
0
100
AcDbLine
 62
253
  6
CONTINUOUS
 10
22.287406726
 20
-21.6124414913
 11
22.2016585342
 21
-21.5266932995
  0
LWPOLYLINE
  5
30D
100
AcDbEntity
  8
0
100
AcDbPolyline
 62
7
  6
CONTINUOUS
 90
7
 70
0
 10
4.5289256108
 20
1.4620074275
 10
4.5538521394
 20
1.13748951
 10
4.5725470284
 20
0.8127849937
 10
4.5850102818
 20
0.487894068
 10
4.5912418989
 20
0.162692921
 10
4.5912418842
 20
-0.1626942563
 10
4.5850102472
 20
-0.4878952698
  0
LWPOLYLINE
  5
30E
100
AcDbEntity
  8
0
100
AcDbPolyline
 62
7
  6
CONTINUOUS
 90
4
 70
0
 10
3.9852548656
 20
0.4706578066
 10
3.973233794
 20
0.7840434474
 10
3.9552012777
 20
1.0972653914
 10
3.9311579262
 20
1.4103074989
  0
LWPOLYLINE
  5
30F
100
AcDbEntity
  8
0
100
AcDbPolyline
 62
7
  6
CONTINUOUS
 90
4
 70
0
 10
4.5850097731
 20
-0.4879076283
 10
4.5725469898
 20
-0.8127859287
 10
4.5538521062
 20
-1.1374900446
 10
4.5289255927
 20
-1.4620074283
  0
LWPOLYLINE
  5
310
100
AcDbEntity
  8
0
100
AcDbPolyline
 62
7
  6
CONTINUOUS
 90
36
 70
0
 10
3.2905485728
 20
-0.0000002377
 10
3.2878215755
 20
-0.0596040235
 10
3.2796218805
 20
-0.118781908
 10
3.2659274035
 20
-0.1771253478
 10
3.2469191184
 20
-0.2339604601
 10
3.2229302947
 20
-0.2886284962
 10
3.1941352391
 20
-0.3406971475
 10
3.1607691117
 20
-0.3897470132
 10
3.1231220933
 20
-0.4354570052
 10
3.0813344669
 20
-0.4776796036
 10
3.0356525922
 20
-0.5161108522
 10
2.9864686493
 20
-0.5503184665
 10
2.9341659664
 20
-0.5799324918
 10
2.8788365747
 20
-0.6047615251
 10
2.8210654135
 20
-0.6243868638
 10
2.7623433028
 20
-0.6384320633
 10
2.7037807371
 20
-0.6469188697
 10
2.6458846329
 20
-0.6500103762
 10
2.5891503141
 20
-0.6479851473
 10
2.5339937605
 20
-0.6411996706
 10
2.4805328712
 20
-0.6299766664
 10
2.4287719246
 20
-0.6145248166
 10
2.3791520706
 20
-0.5951235127
 10
2.3318300292
 20
-0.571999404
 10
2.2864378699
 20
-0.5450662502
 10
2.2430517009
 20
-0.5143017839
 10
2.2021831983
 20
-0.4799574508
 10
2.1641534398
 20
-0.4422209387
 10
2.1292188033
 20
-0.4012767547
 10
2.0975899759
 20
-0.3573106211
 10
2.0695447324
 20
-0.3105673416
 10
2.0453392978
 20
-0.261176673
 10
2.0253504948
 20
-0.2097805575
 10
2.0099092728
 20
-0.1574545364
 10
1.9990648958
 20
-0.1049008164
 10
1.9926557348
 20
-0.0523072925
  0
LWPOLYLINE
  5
311
100
AcDbEntity
  8
0
100
AcDbPolyline
 62
7
  6
CONTINUOUS
 90
7
 70
0
 10
3.9311574418
 20
-1.4103074502
 10
3.9552010584
 20
-1.0972642091
 10
3.9732337611
 20
-0.7840414149
 10
3.9852555528
 20
-0.4706392402
 10
3.9912664094
 20
-0.1569384642
 10
3.9912663583
 20
0.1569413468
 10
3.9852554781
 20
0.4706418394
  0
LINE
  5
312
100
AcDbEntity
  8
0
100
AcDbLine
 62
7
  6
CONTINUOUS
 10
4.528925818
 20
-1.4620074479
 11
4.5201445224
 21
-1.5376390586
  0
LWPOLYLINE
  5
313
100
AcDbEntity
  8
0
100
AcDbPolyline
 62
7
  6
CONTINUOUS
 90
19
 70
0
 10
4.5289255927
 20
-1.4620074283
 10
4.5159935193
 20
-1.563559479
 10
4.4955619471
 20
-1.6626690549
 10
4.4676308712
 20
-1.7593361635
 10
4.4319431463
 20
-1.8541282253
 10
4.3887559023
 20
-1.9464778338
 10
4.3388405454
 20
-2.0346827605
 10
4.282068326
 20
-2.1186650371
 10
4.2185679718
 20
-2.1985026533
 10
4.1494971074
 20
-2.2727273241
 10
4.074749244
 20
-2.3412318128
 10
3.9944308481
 20
-2.4041233793
 10
3.9100189817
 20
-2.4602554868
 10
3.8214367169
 20
-2.5094987877
 10
3.7287609647
 20
-2.5519826481
 10
3.6336995536
 20
-2.5869486027
 10
3.5368217593
 20
-2.6141438327
 10
3.4375582993
 20
-2.6338211646
 10
3.3359091701
 20
-2.6459805984
  0
LWPOLYLINE
  5
314
100
AcDbEntity
  8
0
100
AcDbPolyline
 62
7
  6
CONTINUOUS
 90
36
 70
0
 10
3.288021857
 20
-0.0568916224
 10
3.2807154958
 20
-0.1126689342
 10
3.2686294885
 20
-0.1673321739
 10
3.2515577798
 20
-0.221379742
 10
3.2297064216
 20
-0.27431324
 10
3.2036935731
 20
-0.324637471
 10
3.1735222076
 20
-0.3721010772
 10
3.1391893466
 20
-0.416955418
 10
3.1013042215
 20
-0.4584593713
 10
3.0598135459
 20
-0.4966441554
 10
3.0147706004
 20
-0.531478553
 10
2.966944468
 20
-0.5621277874
 10
2.9159878322
 20
-0.5885518796
 10
2.8622480041
 20
-0.6107908083
 10
2.807536011
 20
-0.6281297332
 10
2.7520877571
 20
-0.6403295574
 10
2.695667337
 20
-0.6476293758
 10
2.6393780668
 20
-0.6500316348
 10
2.5833494855
 20
-0.6475428263
 10
2.5274520554
 20
-0.6401564552
 10
2.4724004795
 20
-0.6278554878
 10
2.4177722088
 20
-0.6103742332
 10
2.3639897946
 20
-0.587978378
 10
2.3130355932
 20
-0.5614479548
 10
2.2653385031
 20
-0.5307923819
 10
2.2204696314
 20
-0.4960022384
 10
2.1791246486
 20
-0.457829299
 10
2.1413280325
 20
-0.4162827579
 10
2.1070553101
 20
-0.3713534201
 10
2.0769287272
 20
-0.3237654791
 10
2.0509310404
 20
-0.2731624021
 10
2.0290794966
 20
-0.2199007233
 10
2.0120480768
 20
-0.165774238
 10
2.000061442
 20
-0.1113808797
 10
1.9928949332
 20
-0.0561227191
 10
1.9905485509
 20
0.0000002415
  0
LWPOLYLINE
  5
315
100
AcDbEntity
  8
0
100
AcDbPolyline
 62
7
  6
CONTINUOUS
 90
24
 70
0
 10
4.5201445224
 20
-1.5376390586
 10
4.5069529432
 20
-1.6126277072
 10
4.4893962547
 20
-1.6867161423
 10
4.467526938
 20
-1.7596492848
 10
4.4414272651
 20
-1.8311789498
 10
4.4111872589
 20
-1.9010582677
 10
4.3769038245
 20
-1.9690442024
 10
4.338701201
 20
-2.0349076298
 10
4.2967105134
 20
-2.0984225882
 10
4.251069194
 20
-2.1593673266
 10
4.2019398885
 20
-2.2175374202
 10
4.1494915069
 20
-2.2727328821
 10
4.0938983053
 20
-2.3247592421
 10
4.0353560643
 20
-2.3734438109
 10
3.974065995
 20
-2.4186192953
 10
3.91023383
 20
-2.460124604
 10
3.8440824001
 20
-2.49782405
 10
3.775838508
 20
-2.5315883614
 10
3.7057322457
 20
-2.5612950377
 10
3.6340072818
 20
-2.5868490521
 10
3.5609107834
 20
-2.6081623621
 10
3.4866913975
 20
-2.6251545857
 10
3.4116048971
 20
-2.637775095
 10
3.3359091701
 20
-2.6459805984
  0
LWPOLYLINE
  5
316
100
AcDbEntity
  8
0
100
AcDbPolyline
 62
7
  6
CONTINUOUS
 90
3
 70
0
 10
3.9168619168
 20
-1.5028678955
 10
3.9255583364
 20
-1.4568264824
 10
3.9311574418
 20
-1.4103074502
  0
LWPOLYLINE
  5
317
100
AcDbEntity
  8
0
100
AcDbPolyline
 62
7
  6
CONTINUOUS
 90
25
 70
0
 10
3.3359092366
 20
2.6459803844
 10
3.4116053866
 20
2.6377748071
 10
3.4866925049
 20
2.6251541395
 10
3.5609125465
 20
2.6081616886
 10
3.6340096251
 20
2.5868480896
 10
3.7057351173
 20
2.5612937091
 10
3.7758419034
 20
2.5315865746
 10
3.8440864367
 20
2.4978216597
 10
3.9102385332
 20
2.4601214882
 10
3.9740711397
 20
2.418615478
 10
4.0353613543
 20
2.3734394051
 10
4.0939035349
 20
2.324754351
 10
4.1494964903
 20
2.2727276433
 10
4.201944459
 20
2.2175320103
 10
4.251073223
 20
2.1593619342
 10
4.2967139211
 20
2.0984173868
 10
4.33870391
 20
2.0349028476
 10
4.3769058126
 20
1.969040071
 10
4.4111886035
 20
1.9010549038
 10
4.4414280546
 20
1.8311764563
 10
4.4675272722
 20
1.7596476839
 10
4.4893962873
 20
1.6867152169
 10
4.5069528273
 20
1.6126271319
 10
4.5201443473
 20
1.5376387105
 10
4.5289256108
 20
1.4620074275
  0
LWPOLYLINE
  5
318
100
AcDbEntity
  8
0
100
AcDbPolyline
 62
7
  6
CONTINUOUS
 90
19
 70
0
 10
3.3359092522
 20
2.6459805816
 10
3.4375582109
 20
2.6338211198
 10
3.5368215774
 20
2.6141437468
 10
3.6336993553
 20
2.5869484627
 10
3.728760841
 20
2.551982459
 10
3.8214367449
 20
2.5094985364
 10
3.9100191957
 20
2.4602551065
 10
3.9944313032
 20
2.404122763
 10
4.0747499746
 20
2.3412308938
 10
4.149498043
 20
2.2727261023
 10
4.2185690105
 20
2.1985011083
 10
4.2820693974
 20
2.1186631688
 10
4.3388415687
 20
2.0346806972
 10
4.3887567559
 20
1.9464757364
 10
4.4319437493
 20
1.8541262221
 10
4.4676312543
 20
1.759334414
 10
4.4955621779
 20
1.6626677288
 10
4.5159936285
 20
1.5635587358
 10
4.5289256108
 20
1.4620074275
  0
LWPOLYLINE
  5
319
100
AcDbEntity
  8
0
100
AcDbPolyline
 62
7
  6
CONTINUOUS
 90
19
 70
0
 10
3.9255590422
 20
1.456825418
 10
3.9168630489
 20
1.5028653586
 10
3.9051089303
 20
1.5482208079
 10
3.8903423343
 20
1.5926873975
 10
3.872636038
 20
1.6360680792
 10
3.8520698394
 20
1.678167362
 10
3.8287297787
 20
1.718793356
 10
3.8027263156
 20
1.757768203
 10
3.7741758878
 20
1.7949174565
 10
3.7432004955
 20
1.8300707512
 10
3.7099441809
 20
1.8630752049
 10
3.6745563574
 20
1.8937825358
 10
3.6371909809
 20
1.9220498623
 10
3.5980192669
 20
1.9477564697
 10
3.5572164656
 20
1.9707872339
 10
3.5149611582
 20
1.9910330628
 10
3.4714461221
 20
2.008409276
 10
3.4268679282
 20
2.0228374269
 10
3.3814243762
 20
2.0342462264
  0
LWPOLYLINE
  5
31A
100
AcDbEntity
  8
0
100
AcDbPolyline
 62
7
  6
CONTINUOUS
 90
19
 70
0
 10
3.9311579262
 20
1.4103074989
 10
3.9242018743
 20
1.4649656733
 10
3.9132062677
 20
1.5183157042
 10
3.8981711052
 20
1.5703575944
 10
3.8789585729
 20
1.6213983611
 10
3.8557064807
 20
1.6711309917
 10
3.8288282625
 20
1.7186344444
 10
3.7982533094
 20
1.7638665093
 10
3.7640522246
 20
1.8068694025
 10
3.7268502606
 20
1.8468487229
 10
3.6865894891
 20
1.8837461299
 10
3.6433278325
 20
1.91761997
 10
3.5978643203
 20
1.947850874
 10
3.5501572195
 20
1.9743679219
 10
3.5002482582
 20
1.9972420378
 10
3.4490616601
 20
2.0160666181
 10
3.3969054994
 20
2.0307061288
 10
3.3434716995
 20
2.0412961052
 10
3.2887602591
 20
2.0478365471
  0
LINE
  5
31B
100
AcDbEntity
  8
0
100
AcDbLine
 62
7
  6
CONTINUOUS
 10
3.9311579355
 20
1.4103074997
 11
3.9255590422
 21
1.456825418
  0
LWPOLYLINE
  5
31C
100
AcDbEntity
  8
RACCORDO
100
AcDbPolyline
 62
253
  6
CONTINUOUS
 90
16
 70
0
 10
22.2016585342
 20
-21.5266932995
 10
22.1990724363
 20
-21.5223427488
 10
22.1965299567
 20
-21.5146485349
 10
22.1940310956
 20
-21.5036106578
 10
22.1915627568
 20
-21.4891402001
 10
22.1891380365
 20
-21.4713260792
 10
22.1867962228
 20
-21.4504350478
 10
22.1845396852
 20
-21.4264223514
 10
22.1823660543
 20
-21.3993327446
 10
22.1803075098
 20
-21.3695672443
 10
22.1783657576
 20
-21.3370840993
 10
22.1765390919
 20
-21.3019250607
 10
22.1748545738
 20
-21.2646163989
 10
22.1733144693
 20
-21.2251282759
 10
22.1719165126
 20
-21.1834905297
 10
22.1706809677
 20
-21.1403189438
  0
LWPOLYLINE
  5
31D
100
AcDbEntity
  8
0
100
AcDbPolyline
 62
7
  6
CONTINUOUS
 90
3
 70
0
 43
0.3500000006
 10
34.0808859558
 20
1.0357133102
 10
34.2951704407
 20
0.9642866592
 10
34.5808861084
 20
0.8214288254
  0
LWPOLYLINE
  5
31E
100
AcDbEntity
  8
0
100
AcDbPolyline
 62
7
  6
CONTINUOUS
 90
10
 70
0
 43
0.3500000006
 10
33.866599205
 20
0.9642866592
 10
34.0094570389
 20
1.0357133102
 10
34.0808859558
 20
1.0357133102
 10
34.2237437897
 20
0.8928577423
 10
34.2237437897
 20
0.8214288254
 10
34.1523148727
 20
0.7499999084
 10
34.0808859558
 20
0.7499999084
 10
33.9380281219
 20
0.8214288254
 10
33.866599205
 20
0.8928577423
 10
33.866599205
 20
0.9642866592
  0
LWPOLYLINE
  5
31F
100
AcDbEntity
  8
0
100
AcDbPolyline
 62
7
  6
CONTINUOUS
 90
10
 70
0
 43
0.3500000006
 10
0.9642857051
 20
36.6443958893
 10
1.035714268
 20
36.5015380554
 10
1.035714268
 20
36.4301068726
 10
0.8928571422
 20
36.2872490387
 10
0.8214285793
 20
36.2872490387
 10
0.7500000165
 20
36.3586802216
 10
0.7500000165
 20
36.4301068726
 10
0.8214285793
 20
36.5729647064
 10
0.8928571422
 20
36.6443958893
 10
0.9642857051
 20
36.6443958893
  0
LWPOLYLINE
  5
320
100
AcDbEntity
  8
RACCORDO
100
AcDbPolyline
 62
253
  6
CONTINUOUS
 90
7
 70
0
 10
21.7023437668
 20
-22.0260080669
 10
21.7009741091
 20
-22.0186195595
 10
21.6996622432
 20
-22.0053370215
 10
21.6983935358
 20
-21.9862291714
 10
21.6971338181
 20
-21.9613944904
 10
21.695888578
 20
-21.9309581132
 10
21.6947030307
 20
-21.8950690928
  0
LINE
  5
321
100
AcDbEntity
  8
RACCORDO
100
AcDbLine
 62
253
  6
CONTINUOUS
 10
-1.3810572367
 20
20.87020128
 11
21.6850754659
 21
20.8781072719
  0
LINE
  5
322
100
AcDbEntity
  8
RACCORDO
100
AcDbLine
 62
253
  6
CONTINUOUS
 10
-21.6850754719
 20
20.8781072456
 11
-1.3810572367
 21
20.87020128
  0
LINE
  5
323
100
AcDbEntity
  8
RACCORDO
100
AcDbLine
 62
253
  6
CONTINUOUS
 10
21.6947030307
 20
-21.8950690928
 11
21.6924604282
 21
-21.8076670482
  0
LINE
  5
324
100
AcDbEntity
  8
RACCORDO
100
AcDbLine
 62
253
  6
CONTINUOUS
 10
22.1706809677
 20
-21.1403189438
 11
22.1687017663
 21
-21.0492863749
  0
LINE
  5
325
100
AcDbEntity
  8
RACCORDO
100
AcDbLine
 62
253
  6
CONTINUOUS
 10
21.6924604282
 20
-21.8076670482
 11
21.6904666507
 21
-21.7009353375
  0
LINE
  5
326
100
AcDbEntity
  8
RACCORDO
100
AcDbLine
 62
253
  6
CONTINUOUS
 10
22.1687017663
 20
-21.0492863749
 11
22.1674164944
 21
-20.9546104478
  0
LINE
  5
327
100
AcDbEntity
  8
RACCORDO
100
AcDbLine
 62
253
  6
CONTINUOUS
 10
21.6904666507
 20
-21.7009353375
 11
21.6879806651
 21
-21.5093261501
  0
LINE
  5
328
100
AcDbEntity
  8
RACCORDO
100
AcDbLine
 62
253
  6
CONTINUOUS
 10
21.6879806651
 20
-21.5093261501
 11
21.6857987245
 21
-21.2086743047
  0
LINE
  5
329
100
AcDbEntity
  8
RACCORDO
100
AcDbLine
 62
253
  6
CONTINUOUS
 10
22.1674164944
 20
-20.9546104478
 11
22.1668384366
 21
-20.8570387625
  0
LWPOLYLINE
  5
32A
100
AcDbEntity
  8
RACCORDO
100
AcDbPolyline
 62
253
  6
CONTINUOUS
 90
9
 70
0
 10
22.1668384366
 20
-20.8570387625
 10
22.1577103594
 20
-16.223696831
 10
22.1508643014
 20
-11.589577244
 10
22.1463002624
 20
-6.9546800014
 10
22.1440182425
 20
-2.3184867531
 10
22.1440182417
 20
2.3184841508
 10
22.1463002607
 20
6.9546776594
 10
22.1508642996
 20
11.5895754224
 10
22.1577103582
 20
16.2236957902
  0
LWPOLYLINE
  5
32B
100
AcDbEntity
  8
RACCORDO
100
AcDbPolyline
 62
253
  6
CONTINUOUS
 90
8
 70
0
 10
21.672437658
 20
-11.6018187984
 10
21.668826854
 20
-6.9616951414
 10
21.6670214512
 20
-2.3206884516
 10
21.6670214502
 20
2.3206845067
 10
21.6688268518
 20
6.9616915912
 10
21.6724376559
 20
11.6018160374
 10
21.6778538611
 20
16.240757025
 10
21.6852567199
 20
21.045553356
  0
LINE
  5
32C
100
AcDbEntity
  8
RACCORDO
100
AcDbLine
 62
253
  6
CONTINUOUS
 10
21.6857987245
 20
-21.2086743047
 11
21.672437658
 21
-11.6018187984
  0
LINE
  5
32D
100
AcDbEntity
  8
0
100
AcDbLine
 62
7
  6
CONTINUOUS
 10
22.287406726
 20
-21.6124414913
 11
22.287406726
 21
21.6124414913
  0
LINE
  5
32E
100
AcDbEntity
  8
RACCORDO
100
AcDbLine
 62
253
  6
CONTINUOUS
 10
22.1577103582
 20
16.2236957902
 11
22.1670396819
 21
20.9062254779
  0
LINE
  5
32F
100
AcDbEntity
  8
RACCORDO
100
AcDbLine
 62
253
  6
CONTINUOUS
 10
21.6852567199
 20
21.045553356
 11
21.6867132888
 21
21.3642643446
  0
LINE
  5
330
100
AcDbEntity
  8
RACCORDO
100
AcDbLine
 62
253
  6
CONTINUOUS
 10
21.6867132888
 20
21.3642643446
 11
21.6887280295
 21
21.5769935773
  0
LINE
  5
331
100
AcDbEntity
  8
RACCORDO
100
AcDbLine
 62
253
  6
CONTINUOUS
 10
22.1670396819
 20
20.9062254779
 11
22.1679693266
 21
21.002236521
  0
LINE
  5
332
100
AcDbEntity
  8
RACCORDO
100
AcDbLine
 62
253
  6
CONTINUOUS
 10
21.6887280295
 20
21.5769935773
 11
21.6904669225
 21
21.7009339372
  0
LWPOLYLINE
  5
333
100
AcDbEntity
  8
RACCORDO
100
AcDbPolyline
 62
253
  6
CONTINUOUS
 90
18
 70
0
 10
22.1679693266
 20
21.002236521
 10
22.1696106917
 20
21.0955954223
 10
22.1706816792
 20
21.1403471176
 10
22.1719174687
 20
21.1835216249
 10
22.173315704
 20
21.225162108
 10
22.1748560452
 20
21.2646514969
 10
22.1765407453
 20
21.3019593404
 10
22.1783675511
 20
21.3371160895
 10
22.1803093627
 20
21.3695960279
 10
22.18236785
 20
21.3993570714
 10
22.1845413431
 20
21.4264413041
 10
22.186797732
 20
21.4504492612
 10
22.189139429
 20
21.4713367873
 10
22.1915640218
 20
21.4891480379
 10
22.1940321635
 20
21.5036160142
 10
22.1965307383
 20
21.5146517169
 10
22.1990728619
 20
21.5223441453
 10
22.2016585343
 20
21.5266932996
  0
LINE
  5
334
100
AcDbEntity
  8
RACCORDO
100
AcDbLine
 62
253
  6
CONTINUOUS
 10
21.6904669225
 20
21.7009339372
 11
21.6924606565
 21
21.8076660899
  0
LWPOLYLINE
  5
335
100
AcDbEntity
  8
RACCORDO
100
AcDbPolyline
 62
253
  6
CONTINUOUS
 90
8
 70
0
 10
21.6924606565
 20
21.8076660899
 10
21.6947031442
 20
21.8950684834
 10
21.6958886737
 20
21.9309573932
 10
21.697133911
 20
21.9613936532
 10
21.6983936206
 20
21.9862284412
 10
21.6996623067
 20
22.0053365717
 10
21.7009741444
 20
22.018619387
 10
21.7023437669
 20
22.026008067
  0
LWPOLYLINE
  5
336
100
AcDbEntity
  8
RACCORDO
100
AcDbPolyline
 62
253
  6
CONTINUOUS
 90
16
 70
0
 10
-21.7023437493
 20
22.0260080494
 10
-21.7544466067
 20
22.0231394834
 10
-21.8059805126
 20
22.0148505465
 10
-21.8563828057
 20
22.0012317631
 10
-21.9051032
 20
21.9824318425
 10
-21.9516097431
 20
21.9586560732
 10
-21.995394632
 20
21.9301640973
 10
-22.0359798275
 20
21.8972670372
 10
-22.0729222492
 20
21.8603240931
 10
-22.105818573
 20
21.8197386556
 10
-22.1343096656
 20
21.775953877
 10
-22.1580845086
 20
21.7294478142
 10
-22.1768835766
 20
21.6807282216
 10
-22.1905016635
 20
21.6303270217
 10
-22.1987901271
 20
21.5787945001
 10
-22.2016585167
 20
21.526693282
  0
LWPOLYLINE
  5
337
100
AcDbEntity
  8
RACCORDO
100
AcDbPolyline
 62
253
  6
CONTINUOUS
 90
14
 70
0
 10
-21.7829205087
 20
20.8773336846
 10
-21.8303890463
 20
20.8766470342
 10
-21.8762661351
 20
20.8757687802
 10
-21.9201034844
 20
20.8747075044
 10
-21.9614727348
 20
20.8734735772
 10
-21.9999696443
 20
20.872079056
 10
-22.035218038
 20
20.8705375674
 10
-22.0668734842
 20
20.8688641742
 10
-22.0946266597
 20
20.8670752281
 10
-22.1182063728
 20
20.8651882097
 10
-22.1373822129
 20
20.8632215584
 10
-22.1519668022
 20
20.8611944912
 10
-22.1618176263
 20
20.8591268158
 10
-22.1668384275
 20
20.8570387366
  0
LINE
  5
338
100
AcDbEntity
  8
RACCORDO
100
AcDbLine
 62
253
  6
CONTINUOUS
 10
-21.6850754719
 20
20.8781072737
 11
-21.7829205087
 21
20.8773336846
  0
LINE
  5
339
100
AcDbEntity
  8
RACCORDO
100
AcDbLine
 62
253
  6
CONTINUOUS
 10
13.2987933015
 20
22.0134597024
 11
21.7023437669
 21
22.026008067
  0
LINE
  5
33A
100
AcDbEntity
  8
RACCORDO
100
AcDbLine
 62
253
  6
CONTINUOUS
 10
3.2774298403
 20
22.0063482953
 11
13.2987933015
 21
22.0134597024
  0
LINE
  5
33B
100
AcDbEntity
  8
0
100
AcDbLine
 62
7
  6
CONTINUOUS
 10
21.7880919586
 20
22.1117562587
 11
-21.7880919586
 21
22.1117562587
  0
LINE
  5
33C
100
AcDbEntity
  8
RACCORDO
100
AcDbLine
 62
253
  6
CONTINUOUS
 10
-5.936813047
 20
22.0074117757
 11
3.2774298403
 21
22.0063482953
  0
LINE
  5
33D
100
AcDbEntity
  8
RACCORDO
100
AcDbLine
 62
253
  6
CONTINUOUS
 10
-14.9346680863
 20
22.0154302178
 11
-5.936813047
 21
22.0074117757
  0
LINE
  5
33E
100
AcDbEntity
  8
RACCORDO
100
AcDbLine
 62
253
  6
CONTINUOUS
 10
-21.7023437503
 20
22.0260080504
 11
-14.9346680863
 21
22.0154302178
  0
LWPOLYLINE
  5
33F
100
AcDbEntity
  8
RACCORDO
100
AcDbPolyline
 62
253
  6
CONTINUOUS
 90
15
 70
0
 10
21.6850750335
 20
20.878106804
 10
21.782919195
 20
20.8773332398
 10
21.8303873455
 20
20.8766466098
 10
21.8762640976
 20
20.8757683812
 10
21.920101172
 20
20.8747071352
 10
21.9614702204
 20
20.8734732416
 10
21.99996701
 20
20.8720787571
 10
22.0352153742
 20
20.8705373077
 10
22.0668708879
 20
20.8688639556
 10
22.0946242331
 20
20.8670750517
 10
22.1182042215
 20
20.8651880761
 10
22.1373804439
 20
20.863221467
 10
22.1519655224
 20
20.8611944411
 10
22.1618169406
 20
20.8591268051
 10
22.1668384366
 20
20.8570387627
  0
LWPOLYLINE
  5
340
100
AcDbEntity
  8
RACCORDO
100
AcDbPolyline
 62
253
  6
CONTINUOUS
 90
16
 70
0
 10
21.7023437669
 20
22.026008067
 10
21.7544458897
 20
22.0231395804
 10
21.8059791579
 20
22.0148508595
 10
21.8563809279
 20
22.0012324013
 10
21.9051009096
 20
21.9824328929
 10
21.9516071751
 20
21.9586575887
 10
21.9953919658
 20
21.9301660691
 10
22.0359772363
 20
21.8972694064
 10
22.072919874
 20
21.8603267687
 10
22.1058165366
 20
21.8197414981
 10
22.1343080561
 20
21.7759567074
 10
22.1580833602
 20
21.7294504419
 10
22.1768828685
 20
21.6807304602
 10
22.1905013267
 20
21.6303286903
 10
22.1987900476
 20
21.5787954222
 10
22.2016585343
 20
21.5266932996
  0
LWPOLYLINE
  5
341
100
AcDbEntity
  8
0
100
AcDbPolyline
 62
7
  6
CONTINUOUS
 90
3
 70
0
 43
0.3500000006
 10
33.7237436371
 20
-0.5357137985
 10
33.7237436371
 20
-2.0357142563
 10
31.366600708
 20
-1.3928574028
  0
LWPOLYLINE
  5
342
100
AcDbEntity
  8
0
100
AcDbPolyline
 62
7
  6
CONTINUOUS
 90
3
 70
0
 43
0.3500000006
 10
33.7237436371
 20
-2.8928567276
 10
33.7237436371
 20
-4.3928571854
 10
31.366600708
 20
-3.7500003319
  0
LWPOLYLINE
  5
343
100
AcDbEntity
  8
0
100
AcDbPolyline
 62
7
  6
CONTINUOUS
 90
7
 70
0
 43
0.3500000006
 10
34.3665993576
 20
3.5357140732
 10
34.3665993576
 20
2.0357136154
 10
32.2237431793
 20
3.5357140732
 10
31.7951719437
 20
3.5357140732
 10
31.366600708
 20
3.1071428375
 10
31.366600708
 20
2.4642848511
 10
32.0094564285
 20
2.0357136154
  0
LWPOLYLINE
  5
344
100
AcDbEntity
  8
0
100
AcDbPolyline
 62
7
  6
CONTINUOUS
 90
3
 70
0
 43
0.3500000006
 10
-0.5357142924
 20
36.7872491913
 10
-2.0357142191
 20
36.7872491913
 10
-1.3928570824
 20
39.1443921204
  0
LWPOLYLINE
  5
345
100
AcDbEntity
  8
0
100
AcDbPolyline
 62
7
  6
CONTINUOUS
 90
3
 70
0
 43
0.3500000006
 10
-2.8928572569
 20
36.7872491913
 10
-4.3928571482
 20
36.7872491913
 10
-3.7500000114
 20
39.1443921204
  0
LINE
  5
346
100
AcDbEntity
  8
RACCORDO
100
AcDbLine
 62
7
  6
CONTINUOUS
 10
-35.0102264717
 20
-22.1117562587
 11
-37.0297760904
 21
-22.005916148
  0
LINE
  5
347
100
AcDbEntity
  8
0
100
AcDbLine
 62
7
  6
CONTINUOUS
 10
-35.0102264717
 20
-22.1117562587
 11
-36.6463994397
 21
-22.0260080669
  0
LWPOLYLINE
  5
348
100
AcDbEntity
  8
RACCORDO
100
AcDbPolyline
 62
7
  6
CONTINUOUS
 90
22
 70
0
 10
-36.6463994398
 20
-22.0260080669
 10
-36.7306162167
 20
-22.0186195595
 10
-36.8140889914
 20
-22.0053370215
 10
-36.8964058296
 20
-21.9862291714
 10
-36.977158552
 20
-21.9613944904
 10
-37.0559518042
 20
-21.9309581132
 10
-37.13240421
 20
-21.8950690928
 10
-37.2061429184
 20
-21.8539033275
 10
-37.2768002991
 20
-21.8076670482
 10
-37.3440228293
 20
-21.7565926485
 10
-37.407478712
 20
-21.7009353375
 10
-37.4668579153
 20
-21.6409705346
 10
-37.5218680118
 20
-21.5769952854
 10
-37.5722395062
 20
-21.5093261501
 10
-37.6177252872
 20
-21.4382988123
 10
-37.658100994
 20
-21.3642660452
 10
-37.6931670511
 20
-21.2875999737
 10
-37.7227560172
 20
-21.2086743047
 10
-37.7467277585
 20
-21.1278621816
 10
-37.7649635345
 20
-21.045556092
 10
-37.7773704291
 20
-20.9621673407
 10
-37.7838857851
 20
-20.8781072553
  0
LINE
  5
349
100
AcDbEntity
  8
RACCORDO
100
AcDbLine
 62
253
  6
CONTINUOUS
 10
-37.7838861913
 20
-20.8781073069
 11
-37.7797202356
 21
-20.8778220549
  0
LINE
  5
34A
100
AcDbEntity
  8
RACCORDO
100
AcDbLine
 62
253
  6
CONTINUOUS
 10
-37.7797202356
 20
-20.8778220549
 11
-37.7569631409
 21
-20.8766470669
  0
LINE
  5
34B
100
AcDbEntity
  8
RACCORDO
100
AcDbLine
 62
253
  6
CONTINUOUS
 10
-37.7569631409
 20
-20.8766470669
 11
-37.5010148338
 21
-20.865188238
  0
LINE
  5
34C
100
AcDbEntity
  8
RACCORDO
100
AcDbLine
 62
253
  6
CONTINUOUS
 10
-37.5010148338
 20
-20.865188238
 11
-37.310806481
 21
-20.8570387625
  0
LWPOLYLINE
  5
34D
100
AcDbEntity
  8
RACCORDO
100
AcDbPolyline
 62
253
  6
CONTINUOUS
 90
3
 70
0
 10
-38.1653822507
 20
-20.8701700704
 10
-38.1566697954
 20
-20.8703406751
 10
-37.7838861945
 20
-20.8781072728
  0
LINE
  5
34E
100
AcDbEntity
  8
0
100
AcDbLine
 62
253
  6
CONTINUOUS
 10
-35.0102264717
 20
-21.6124414913
 11
-36.6463994398
 21
-21.5266932995
  0
LWPOLYLINE
  5
34F
100
AcDbEntity
  8
RACCORDO
100
AcDbPolyline
 62
253
  6
CONTINUOUS
 90
22
 70
0
 10
-36.6463994398
 20
-21.5266932995
 10
-36.6957451282
 20
-21.5223427488
 10
-36.7442585276
 20
-21.5146485349
 10
-36.7919396381
 20
-21.5036106578
 10
-36.8390383476
 20
-21.4891402001
 10
-36.8853047681
 20
-21.4713260792
 10
-36.9299892355
 20
-21.4504350478
 10
-36.973046537
 20
-21.4264223514
 10
-37.0145218854
 20
-21.3993327446
 10
-37.0538012556
 20
-21.3695672443
 10
-37.0908520934
 20
-21.3370840993
 10
-37.1257069529
 20
-21.3019250607
 10
-37.1578494716
 20
-21.2646163989
 10
-37.1872364159
 20
-21.2251282759
 10
-37.2139110195
 20
-21.1834905297
 10
-37.2374866208
 20
-21.1403189438
 10
-37.2579188283
 20
-21.0955695792
 10
-37.2752520335
 20
-21.0492863749
 10
-37.2892327501
 20
-21.0022169311
 10
-37.2997764824
 20
-20.9546104478
 10
-37.306967726
 20
-20.9062177249
 10
-37.310806481
 20
-20.8570387625
  0
LWPOLYLINE
  5
350
100
AcDbEntity
  8
0
100
AcDbPolyline
 62
7
  6
CONTINUOUS
 90
3
 70
0
 43
0.3500000006
 10
-42.2637263031
 20
36.4301068726
 10
-42.3351529541
 20
36.2158223877
 10
-42.478010788
 20
35.93010672
  0
LWPOLYLINE
  5
351
100
AcDbEntity
  8
RACCORDO
100
AcDbPolyline
 62
253
  6
CONTINUOUS
 90
16
 70
0
 10
-36.6463994381
 20
22.026008067
 10
-36.6489796623
 20
22.0231395804
 10
-36.6512460121
 20
22.0148508595
 10
-36.6531737433
 20
22.0012324013
 10
-36.6547418089
 20
21.9824328929
 10
-36.6559330885
 20
21.9586575887
 10
-36.6567345753
 20
21.9301660691
 10
-36.6571375184
 20
21.8972694064
 10
-36.6571375188
 20
21.8603267687
 10
-36.6567345762
 20
21.8197414981
 10
-36.6559330901
 20
21.7759567074
 10
-36.6547418111
 20
21.7294504419
 10
-36.6531737457
 20
21.6807304602
 10
-36.6512460142
 20
21.6303286903
 10
-36.6489796636
 20
21.5787954222
 10
-36.6463994381
 20
21.5266932996
  0
LWPOLYLINE
  5
352
100
AcDbEntity
  8
RACCORDO
100
AcDbPolyline
 62
253
  6
CONTINUOUS
 90
16
 70
0
 10
-36.6463994398
 20
-22.0260080669
 10
-36.6489796995
 20
-22.023139509
 10
-36.6512460731
 20
-22.014850594
 10
-36.6531738169
 20
-22.0012318436
 10
-36.6547418852
 20
-21.9824319648
 10
-36.655933158
 20
-21.9586562426
 10
-36.6567346292
 20
-21.9301643127
 10
-36.6571375508
 20
-21.8972672924
 10
-36.6571375264
 20
-21.8603243785
 10
-36.6567345592
 20
-21.8197389571
 10
-36.6559330521
 20
-21.7759541764
 10
-36.6547417587
 20
-21.7294480923
 10
-36.6531736882
 20
-21.68072846
 10
-36.6512459628
 20
-21.630327203
 10
-36.6489796315
 20
-21.5787946072
 10
-36.6463994398
 20
-21.5266932995
  0
LINE
  5
353
100
AcDbEntity
  8
0
100
AcDbLine
 62
7
  6
CONTINUOUS
 10
-34.0102264717
 20
-13.2689805518
 11
-35.0102264717
 21
-13.3213883311
  0
LWPOLYLINE
  5
354
100
AcDbEntity
  8
0
100
AcDbPolyline
 62
7
  6
CONTINUOUS
 90
2
 70
0
 43
0.3500000006
 10
-44.3351535645
 20
36.1443957367
 10
-44.3351535645
 20
37.6443916626
  0
LINE
  5
355
100
AcDbEntity
  8
0
100
AcDbLine
 62
7
  6
CONTINUOUS
 10
-34.0102264717
 20
-9.7310194482
 11
-35.0102264717
 21
-9.6786116689
  0
LWPOLYLINE
  5
356
100
AcDbEntity
  8
0
100
AcDbPolyline
 62
7
  6
CONTINUOUS
 90
4
 70
0
 43
0.3500000006
 10
-41.2637259979
 20
38.5015386658
 10
-41.2637259979
 20
39.1443921204
 10
-39.7637255402
 20
39.1443921204
 10
-40.6208680115
 20
36.1443957367
  0
LWPOLYLINE
  5
357
100
AcDbEntity
  8
0
100
AcDbPolyline
 62
7
  6
CONTINUOUS
 90
7
 70
0
 10
-38.1653823031
 20
20.870169067
 10
-38.3288653457
 20
17.4622448614
 10
-38.4661626982
 20
13.9707283109
 10
-38.5729568584
 20
10.478145763
 10
-38.6492366313
 20
6.9847636133
 10
-38.6949935611
 20
3.4908483179
 10
-38.7008254261
 20
2.698486188
  0
LWPOLYLINE
  5
358
100
AcDbEntity
  8
RACCORDO
100
AcDbPolyline
 62
7
  6
CONTINUOUS
 90
22
 70
0
 10
-37.7838857836
 20
20.8781072544
 10
-37.7773706141
 20
20.962165691
 10
-37.764964039
 20
21.045553356
 10
-37.7467286005
 20
21.1278589212
 10
-37.7227570245
 20
21.208671297
 10
-37.6931679871
 20
21.2875977207
 10
-37.6581018451
 20
21.3642643446
 10
-37.6177262463
 20
21.4382971873
 10
-37.5722406764
 20
21.5093244475
 10
-37.5218693698
 20
21.5769935773
 10
-37.4668593606
 20
21.6409689569
 10
-37.4074801883
 20
21.7009339372
 10
-37.3440242949
 20
21.7565914423
 10
-37.2768016473
 20
21.8076660899
 10
-37.206144096
 20
21.8539026103
 10
-37.1324053923
 20
21.8950684834
 10
-37.0559534843
 20
21.9309573932
 10
-36.9771609631
 20
21.9613936532
 10
-36.8964085343
 20
21.9862284412
 10
-36.81409129
 20
22.0053365717
 10
-36.7306176138
 20
22.018619387
 10
-36.6463994381
 20
22.026008067
  0
LINE
  5
359
100
AcDbEntity
  8
0
100
AcDbLine
 62
7
  6
CONTINUOUS
 10
-38.7022008948
 20
-2.0928312187
 11
-38.7011623339
 21
-2.0978308065
  0
LINE
  5
35A
100
AcDbEntity
  8
0
100
AcDbLine
 62
7
  6
CONTINUOUS
 10
-38.6955829552
 20
2.0678343433
 11
-38.6971908561
 21
2.0828326804
  0
LINE
  5
35B
100
AcDbEntity
  8
0
100
AcDbLine
 62
7
  6
CONTINUOUS
 10
-38.7030960637
 20
-2.0828316586
 11
-38.7022008077
 21
-2.0928316377
  0
LINE
  5
35C
100
AcDbEntity
  8
0
100
AcDbLine
 62
7
  6
CONTINUOUS
 10
-38.693832422
 20
2.0478360472
 11
-38.6955822697
 21
2.0678301457
  0
LINE
  5
35D
100
AcDbEntity
  8
0
100
AcDbLine
 62
7
  6
CONTINUOUS
 10
-38.6918227142
 20
2.6667085272
 11
-38.6900167668
 21
2.6459805816
  0
LWPOLYLINE
  5
35E
100
AcDbEntity
  8
0
100
AcDbPolyline
 62
7
  6
CONTINUOUS
 90
4
 70
0
 10
-38.6900167682
 20
2.6459803844
 10
-38.6895448076
 20
2.6377748071
 10
-38.68909409
 20
2.6251541395
 10
-38.688666074
 20
2.6081616886
  0
LINE
  5
35F
100
AcDbEntity
  8
0
100
AcDbLine
 62
7
  6
CONTINUOUS
 10
-38.6935411182
 20
2.0425916989
 11
-38.6938324192
 21
2.0478365471
  0
LWPOLYLINE
  5
360
100
AcDbEntity
  8
0
100
AcDbPolyline
 62
7
  6
CONTINUOUS
 90
3
 70
0
 10
-38.7022839114
 20
0.6488604774
 10
-38.7020013941
 20
0.6436056483
 10
-38.7017220542
 20
0.6341400082
  0
LWPOLYLINE
  5
361
100
AcDbEntity
  8
0
100
AcDbPolyline
 62
7
  6
CONTINUOUS
 90
4
 70
0
 10
-38.6900167668
 20
2.6459805816
 10
-38.6893877112
 20
2.6338211198
 10
-38.6888032984
 20
2.6141437468
 10
-38.6882638458
 20
2.5869484627
  0
LWPOLYLINE
  5
362
100
AcDbEntity
  8
RACCORDO
100
AcDbPolyline
 62
253
  6
CONTINUOUS
 90
10
 70
0
 10
-37.7838861945
 20
-20.8781072728
 10
-37.9581031213
 20
-16.2407586027
 10
-38.0888254389
 20
-11.6018187984
 10
-38.1760036674
 20
-6.9616951414
 10
-38.2196023126
 20
-2.3206884516
 10
-38.2196023311
 20
2.3206845067
 10
-38.1760037174
 20
6.9616915912
 10
-38.0888255037
 20
11.6018160374
 10
-37.9581031732
 20
16.240757025
 10
-37.7838861945
 20
20.8781072719
  0
LWPOLYLINE
  5
363
100
AcDbEntity
  8
RACCORDO
100
AcDbPolyline
 62
253
  6
CONTINUOUS
 90
10
 70
0
 10
-37.310806481
 20
-20.8570387625
 10
-37.4849805701
 20
-16.223696831
 10
-37.6156111398
 20
-11.589577244
 10
-37.7026981901
 20
-6.9546800014
 10
-37.7462417248
 20
-2.3184867531
 10
-37.74624174
 20
2.3184841508
 10
-37.7026982243
 20
6.9546776594
 10
-37.6156111739
 20
11.5895754224
 10
-37.4849805925
 20
16.2236957902
 10
-37.3108064802
 20
20.8570387627
  0
LWPOLYLINE
  5
364
100
AcDbEntity
  8
0
100
AcDbPolyline
 62
7
  6
CONTINUOUS
 90
3
 70
0
 10
-38.704456433
 20
-2.0478359245
 10
-38.7038479861
 20
-2.067833802
 10
-38.703096035
 20
-2.0828322322
  0
LINE
  5
365
100
AcDbEntity
  8
0
100
AcDbLine
 62
7
  6
CONTINUOUS
 10
-38.693173857
 20
2.0307061288
 11
-38.6934915657
 21
2.0412961052
  0
LINE
  5
366
100
AcDbEntity
  8
0
100
AcDbLine
 62
7
  6
CONTINUOUS
 10
-38.7010147974
 20
-2.6459805814
 11
-38.7011199408
 21
-2.6407778658
  0
LINE
  5
367
100
AcDbEntity
  8
0
100
AcDbLine
 62
7
  6
CONTINUOUS
 10
-38.7018815168
 20
0.6401592472
 11
-38.7014486464
 21
0.6205433436
  0
LINE
  5
368
100
AcDbEntity
  8
0
100
AcDbLine
 62
7
  6
CONTINUOUS
 10
-38.6928793864
 20
2.0160666181
 11
-38.6932641518
 21
2.0342462264
  0
LINE
  5
369
100
AcDbEntity
  8
0
100
AcDbLine
 62
7
  6
CONTINUOUS
 10
-38.7045683685
 20
-2.0411331887
 11
-38.704456433
 21
-2.0478359245
  0
LINE
  5
36A
100
AcDbEntity
  8
0
100
AcDbLine
 62
7
  6
CONTINUOUS
 10
-38.6925309295
 20
1.9910330628
 11
-38.6930027203
 21
2.0228374269
  0
LINE
  5
36B
100
AcDbEntity
  8
0
100
AcDbLine
 62
7
  6
CONTINUOUS
 10
-38.7015846064
 20
0.6278580144
 11
-38.7010037163
 21
0.5879778803
  0
LINE
  5
36C
100
AcDbEntity
  8
0
100
AcDbLine
 62
7
  6
CONTINUOUS
 10
-38.7011199408
 20
-2.6407778658
 11
-38.7016001875
 21
-2.6000163996
  0
LINE
  5
36D
100
AcDbEntity
  8
0
100
AcDbLine
 62
7
  6
CONTINUOUS
 10
-38.6882621651
 20
2.5868480896
 11
-38.6873130072
 21
2.5094985364
  0
LINE
  5
36E
100
AcDbEntity
  8
0
100
AcDbLine
 62
7
  6
CONTINUOUS
 10
-38.6921343573
 20
1.947850874
 11
-38.692606565
 21
1.9972420378
  0
LINE
  5
36F
100
AcDbEntity
  8
0
100
AcDbLine
 62
7
  6
CONTINUOUS
 10
-38.70118467
 20
0.603015266
 11
-38.7004646933
 21
0.5288763851
  0
LWPOLYLINE
  5
370
100
AcDbEntity
  8
0
100
AcDbPolyline
 62
7
  6
CONTINUOUS
 90
7
 70
0
 10
-38.700822925
 20
-2.6984862493
 10
-38.6949353221
 20
-3.4975149462
 10
-38.6491201547
 20
-6.9914294026
 10
-38.5727821547
 20
-10.4848101542
 10
-38.4659297926
 20
-13.9773907456
 10
-38.3285742647
 20
-17.4689047809
 10
-38.165382303
 20
-20.8701690677
  0
LINE
  5
371
100
AcDbEntity
  8
0
100
AcDbLine
 62
7
  6
CONTINUOUS
 10
-38.7050669331
 20
-1.9850801365
 11
-38.7045749064
 21
-2.040741697
  0
LINE
  5
372
100
AcDbEntity
  8
0
100
AcDbLine
 62
7
  6
CONTINUOUS
 10
-38.6875314168
 20
2.5315865746
 11
-38.6865633648
 21
2.404122763
  0
LINE
  5
373
100
AcDbEntity
  8
0
100
AcDbLine
 62
7
  6
CONTINUOUS
 10
-38.7046769864
 20
-2.0984744614
 11
-38.7014956501
 21
-2.6106146069
  0
LINE
  5
374
100
AcDbEntity
  8
0
100
AcDbLine
 62
7
  6
CONTINUOUS
 10
-38.7004787124
 20
0.5307820585
 11
-38.6993530703
 21
0.2731417246
  0
LINE
  5
375
100
AcDbEntity
  8
0
100
AcDbLine
 62
7
  6
CONTINUOUS
 10
-38.6915052727
 20
1.7949174565
 11
-38.6921343573
 21
1.947850874
  0
LINE
  5
376
100
AcDbEntity
  8
0
100
AcDbLine
 62
7
  6
CONTINUOUS
 10
-38.6866437077
 20
2.418615478
 11
-38.6856888744
 21
2.0984173868
  0
LINE
  5
377
100
AcDbEntity
  8
0
100
AcDbLine
 62
7
  6
CONTINUOUS
 10
-38.7095987956
 20
-0.6500385881
 11
-38.7050166014
 21
-1.9920564893
  0
LINE
  5
378
100
AcDbEntity
  8
0
100
AcDbLine
 62
7
  6
CONTINUOUS
 10
-38.7097031533
 20
0.613934061
 11
-38.7096804468
 21
0.6009346769
  0
LINE
  5
379
100
AcDbEntity
  8
0
100
AcDbLine
 62
7
  6
CONTINUOUS
 10
-38.6915052889
 20
-1.794923226
 11
-38.6937366305
 21
-0.1569062697
  0
LINE
  5
37A
100
AcDbEntity
  8
0
100
AcDbLine
 62
7
  6
CONTINUOUS
 10
-38.6994098805
 20
0.2960473731
 11
-38.699265677
 21
-0.2339604601
  0
LINE
  5
37B
100
AcDbEntity
  8
0
100
AcDbLine
 62
7
  6
CONTINUOUS
 10
-38.6937366305
 20
-0.1569062697
 11
-38.6925674508
 21
1.0974754109
  0
LINE
  5
37C
100
AcDbEntity
  8
0
100
AcDbLine
 62
7
  6
CONTINUOUS
 10
-38.6925674508
 20
1.0974754109
 11
-38.6915304964
 21
1.8068694025
  0
LINE
  5
37D
100
AcDbEntity
  8
0
100
AcDbLine
 62
7
  6
CONTINUOUS
 10
-38.6857124717
 20
2.1186631688
 11
-38.6857124713
 21
-2.1186650371
  0
LINE
  5
37E
100
AcDbEntity
  8
0
100
AcDbLine
 62
7
  6
CONTINUOUS
 10
-38.6863846636
 20
1.4620074275
 11
-38.6871965429
 21
1.13748951
  0
LINE
  5
37F
100
AcDbEntity
  8
0
100
AcDbLine
 62
7
  6
CONTINUOUS
 10
-38.7061205173
 20
-0.0523072925
 11
-38.705376054
 21
0.3934387376
  0
LINE
  5
380
100
AcDbEntity
  8
0
100
AcDbLine
 62
7
  6
CONTINUOUS
 10
-38.6856888775
 20
-2.0984225882
 11
-38.6866437269
 21
-2.4186192953
  0
LINE
  5
381
100
AcDbEntity
  8
0
100
AcDbLine
 62
7
  6
CONTINUOUS
 10
-38.6992417482
 20
-0.221379742
 11
-38.7003735443
 21
-0.5161108522
  0
LINE
  5
382
100
AcDbEntity
  8
0
100
AcDbLine
 62
7
  6
CONTINUOUS
 10
-38.6921343702
 20
-1.9478516109
 11
-38.6915304993
 21
-1.8068682638
  0
LINE
  5
383
100
AcDbEntity
  8
0
100
AcDbLine
 62
7
  6
CONTINUOUS
 10
-38.7048544925
 20
2.0129182178
 11
-38.7097031533
 21
0.613934061
  0
LINE
  5
384
100
AcDbEntity
  8
0
100
AcDbLine
 62
7
  6
CONTINUOUS
 10
-38.7054646552
 20
0.3720184286
 11
-38.7045092715
 21
0.5386013943
  0
LINE
  5
385
100
AcDbEntity
  8
0
100
AcDbLine
 62
7
  6
CONTINUOUS
 10
-38.6865633648
 20
-2.4041233793
 11
-38.6875314319
 21
-2.5315883614
  0
LINE
  5
386
100
AcDbEntity
  8
0
100
AcDbLine
 62
7
  6
CONTINUOUS
 10
-38.7045684869
 20
2.0411234278
 11
-38.7049235659
 21
2.0043736839
  0
LINE
  5
387
100
AcDbEntity
  8
0
100
AcDbLine
 62
7
  6
CONTINUOUS
 10
-38.7046811001
 20
2.0984743942
 11
-38.7014360459
 21
2.6163316942
  0
LINE
  5
388
100
AcDbEntity
  8
0
100
AcDbLine
 62
7
  6
CONTINUOUS
 10
-38.7002459619
 20
-0.4966441554
 11
-38.7010096297
 21
-0.5885518796
  0
LINE
  5
389
100
AcDbEntity
  8
0
100
AcDbLine
 62
7
  6
CONTINUOUS
 10
-38.7045677539
 20
0.5314242655
 11
-38.7039947692
 21
0.5904401134
  0
LINE
  5
38A
100
AcDbEntity
  8
0
100
AcDbLine
 62
7
  6
CONTINUOUS
 10
-38.6926065814
 20
-1.9972425801
 11
-38.6921343702
 21
-1.9478516109
  0
LINE
  5
38B
100
AcDbEntity
  8
0
100
AcDbLine
 62
7
  6
CONTINUOUS
 10
-38.701496518
 20
2.6105288995
 11
-38.7011425164
 21
2.639342799
  0
LINE
  5
38C
100
AcDbEntity
  8
0
100
AcDbLine
 62
7
  6
CONTINUOUS
 10
-38.6873130059
 20
-2.5094987877
 11
-38.6882638434
 21
-2.5869486027
  0
LINE
  5
38D
100
AcDbEntity
  8
0
100
AcDbLine
 62
7
  6
CONTINUOUS
 10
-38.7009123174
 20
-0.5799324918
 11
-38.701518026
 21
-0.6243868638
  0
LINE
  5
38E
100
AcDbEntity
  8
0
100
AcDbLine
 62
7
  6
CONTINUOUS
 10
-38.7044564328
 20
2.0478359713
 11
-38.7045684869
 21
2.0411234278
  0
LINE
  5
38F
100
AcDbEntity
  8
0
100
AcDbLine
 62
7
  6
CONTINUOUS
 10
-38.7012971794
 20
-0.6107908083
 11
-38.7015908613
 21
-0.6281297332
  0
LINE
  5
390
100
AcDbEntity
  8
0
100
AcDbLine
 62
7
  6
CONTINUOUS
 10
-38.6930027317
 20
-2.022837363
 11
-38.6925309516
 21
-1.9910342643
  0
LINE
  5
391
100
AcDbEntity
  8
0
100
AcDbLine
 62
7
  6
CONTINUOUS
 10
-38.7040153593
 20
0.5885182107
 11
-38.7034131272
 21
0.6281155956
  0
LINE
  5
392
100
AcDbEntity
  8
0
100
AcDbLine
 62
7
  6
CONTINUOUS
 10
-38.7011425164
 20
2.639342799
 11
-38.7010147975
 21
2.6459805854
  0
LWPOLYLINE
  5
393
100
AcDbEntity
  8
0
100
AcDbPolyline
 62
7
  6
CONTINUOUS
 90
4
 70
0
 10
-38.6882621764
 20
-2.5868490521
 10
-38.6888032965
 20
-2.6141438327
 10
-38.6893877103
 20
-2.6338211646
 10
-38.6900167673
 20
-2.6459805984
  0
LINE
  5
394
100
AcDbEntity
  8
0
100
AcDbLine
 62
7
  6
CONTINUOUS
 10
-38.6932641613
 20
-2.0342459116
 11
-38.6928794025
 21
-2.0160669305
  0
LWPOLYLINE
  5
395
100
AcDbEntity
  8
0
100
AcDbPolyline
 62
7
  6
CONTINUOUS
 90
5
 70
0
 10
-38.7034381277
 20
0.6268951702
 10
-38.7031487171
 20
0.6389375382
 10
-38.7028578179
 20
0.6466202333
 10
-38.7025693325
 20
0.6498913359
 10
-38.7024966831
 20
0.6500325978
  0
LWPOLYLINE
  5
396
100
AcDbEntity
  8
0
100
AcDbPolyline
 62
7
  6
CONTINUOUS
 90
4
 70
0
 10
-38.701518026
 20
-0.6243868638
 10
-38.7018900237
 20
-0.6403295574
 10
-38.7021958134
 20
-0.6476293758
 10
-38.7024968891
 20
-0.6500316953
  0
LWPOLYLINE
  5
397
100
AcDbEntity
  8
0
100
AcDbPolyline
 62
7
  6
CONTINUOUS
 90
4
 70
0
 10
-38.6886660826
 20
-2.6081623621
 10
-38.6890940951
 20
-2.6251545857
 10
-38.6895448092
 20
-2.637775095
 10
-38.6900167673
 20
-2.6459805984
  0
LWPOLYLINE
  5
398
100
AcDbEntity
  8
0
100
AcDbPolyline
 62
7
  6
CONTINUOUS
 90
3
 70
0
 10
-38.7010147975
 20
2.6459805854
 10
-38.7003793203
 20
2.6667124839
 10
-38.699596728
 20
2.6822607389
  0
LWPOLYLINE
  5
399
100
AcDbEntity
  8
0
100
AcDbPolyline
 62
7
  6
CONTINUOUS
 90
3
 70
0
 10
-38.7018346277
 20
-0.6384320633
 10
-38.7021517549
 20
-0.6469188697
 10
-38.7024969322
 20
-0.6500326273
  0
LWPOLYLINE
  5
39A
100
AcDbEntity
  8
0
100
AcDbPolyline
 62
7
  6
CONTINUOUS
 90
3
 70
0
 10
-38.7031072403
 20
0.6403217385
 10
-38.7027973802
 20
0.6476261219
 10
-38.7027014357
 20
0.6483934337
  0
LWPOLYLINE
  5
39B
100
AcDbEntity
  8
0
100
AcDbPolyline
 62
7
  6
CONTINUOUS
 90
3
 70
0
 10
-38.7030962279
 20
2.0828297896
 10
-38.7038482404
 20
2.0678296683
 10
-38.7044564328
 20
2.0478359659
  0
LWPOLYLINE
  5
39C
100
AcDbEntity
  8
0
100
AcDbPolyline
 62
7
  6
CONTINUOUS
 90
3
 70
0
 10
-38.6938324223
 20
-2.047836051
 10
-38.6934915748
 20
-2.0412959214
 10
-38.6931738704
 20
-2.0307062144
  0
LWPOLYLINE
  5
39D
100
AcDbEntity
  8
RACCORDO
100
AcDbPolyline
 62
253
  6
CONTINUOUS
 90
22
 70
0
 10
-37.3108064802
 20
20.8570387627
 10
-37.3069664922
 20
20.9062254779
 10
-37.2997736037
 20
20.9546247307
 10
-37.2892278146
 20
21.002236521
 10
-37.2752447091
 20
21.0493097029
 10
-37.257908703
 20
21.0955954223
 10
-37.2374730439
 20
21.1403471176
 10
-37.2138927765
 20
21.1835216249
 10
-37.1872128562
 20
21.225162108
 10
-37.1578213969
 20
21.2646514969
 10
-37.1256754041
 20
21.3019593404
 10
-37.0908178724
 20
21.3371160895
 10
-37.0537659002
 20
21.3695960279
 10
-37.0144876221
 20
21.3993570714
 10
-36.9730149034
 20
21.4264413041
 10
-36.9299604386
 20
21.4504492612
 10
-36.8852781974
 20
21.4713367873
 10
-36.8390142101
 20
21.4891480379
 10
-36.791919262
 20
21.5036160142
 10
-36.7442436149
 20
21.5146517169
 10
-36.6957370069
 20
21.5223441453
 10
-36.6463994381
 20
21.5266932996
  0
LINE
  5
39E
100
AcDbEntity
  8
0
100
AcDbLine
 62
7
  6
CONTINUOUS
 10
-38.6900167668
 20
-2.6459806664
 11
-38.6918227294
 21
-2.6667087525
  0
LINE
  5
39F
100
AcDbEntity
  8
0
100
AcDbLine
 62
7
  6
CONTINUOUS
 10
-38.6955822575
 20
-2.0678300097
 11
-38.6939131667
 21
-2.0487586521
  0
LINE
  5
3A0
100
AcDbEntity
  8
0
100
AcDbLine
 62
7
  6
CONTINUOUS
 10
-38.702200817
 20
2.0928316301
 11
-38.7030960718
 21
2.0828315331
  0
LINE
  5
3A1
100
AcDbEntity
  8
0
100
AcDbLine
 62
7
  6
CONTINUOUS
 10
-38.6995968821
 20
2.6822590207
 11
-38.6986670883
 21
2.6926287295
  0
LWPOLYLINE
  5
3A2
100
AcDbEntity
  8
0
100
AcDbPolyline
 62
7
  6
CONTINUOUS
 90
3
 70
0
 10
-38.6918234439
 20
-2.6667127397
 10
-38.6934837784
 20
-2.6822618294
 10
-38.6949982096
 20
-2.6926278583
  0
LINE
  5
3A3
100
AcDbEntity
  8
0
100
AcDbLine
 62
7
  6
CONTINUOUS
 10
-38.6971908659
 20
-2.0828325904
 11
-38.6955829631
 21
-2.0678340823
  0
LWPOLYLINE
  5
3A4
100
AcDbEntity
  8
0
100
AcDbPolyline
 62
7
  6
CONTINUOUS
 90
3
 70
0
 10
-38.6949984499
 20
-2.6926291542
 10
-38.6963676058
 20
-2.6978141261
 10
-38.6970124196
 20
-2.6984617719
  0
LWPOLYLINE
  5
3A5
100
AcDbEntity
  8
0
100
AcDbPolyline
 62
7
  6
CONTINUOUS
 90
3
 70
0
 10
-38.6986566209
 20
2.0928319738
 10
-38.6999805052
 20
2.0978309241
 10
-38.7005745837
 20
2.0984554185
  0
LINE
  5
3A6
100
AcDbEntity
  8
0
100
AcDbLine
 62
7
  6
CONTINUOUS
 10
-38.7024966831
 20
0.6500325978
 11
-38.7022839114
 21
0.6488604774
  0
LINE
  5
3A7
100
AcDbEntity
  8
0
100
AcDbLine
 62
7
  6
CONTINUOUS
 10
-38.6971908561
 20
2.0828326804
 11
-38.6986567457
 21
2.0928328249
  0
LWPOLYLINE
  5
3A8
100
AcDbEntity
  8
0
100
AcDbPolyline
 62
7
  6
CONTINUOUS
 90
3
 70
0
 10
-38.7024966355
 20
0.6500313142
 10
-38.7021844614
 20
0.6475448746
 10
-38.7018815168
 20
0.6401592472
  0
LWPOLYLINE
  5
3A9
100
AcDbEntity
  8
0
100
AcDbPolyline
 62
7
  6
CONTINUOUS
 90
4
 70
0
 10
-38.7005745791
 20
-2.0984589144
 10
-38.6999807005
 20
-2.0978341364
 10
-38.6986567171
 20
-2.0928326371
 10
-38.6971904635
 20
-2.082830176
  0
LWPOLYLINE
  5
3AA
100
AcDbEntity
  8
0
100
AcDbPolyline
 62
7
  6
CONTINUOUS
 90
5
 70
0
 10
-38.6970124293
 20
2.6984581239
 10
-38.6963673834
 20
2.6978107337
 10
-38.6949982135
 20
2.6926278344
 10
-38.6934837816
 20
2.6822618114
 10
-38.6918234457
 20
2.6667127241
  0
LINE
  5
3AB
100
AcDbEntity
  8
0
100
AcDbLine
 62
7
  6
CONTINUOUS
 10
-35.0102264717
 20
-22.1117562587
 11
-35.0102264717
 21
22.1117562587
  0
LINE
  5
3AC
100
AcDbEntity
  8
0
100
AcDbLine
 62
253
  6
CONTINUOUS
 10
-34.3892920892
 20
13.288846539
 11
-34.3892920892
 21
9.711153461
  0
LINE
  5
3AD
100
AcDbEntity
  8
0
100
AcDbLine
 62
253
  6
CONTINUOUS
 10
-34.3892920892
 20
-9.711153461
 11
-34.3892920892
 21
-13.288846539
  0
LINE
  5
3AE
100
AcDbEntity
  8
0
100
AcDbLine
 62
7
  6
CONTINUOUS
 10
-34.0102264717
 20
13.2689805518
 11
-34.0102264717
 21
9.7310194482
  0
LINE
  5
3AF
100
AcDbEntity
  8
0
100
AcDbLine
 62
7
  6
CONTINUOUS
 10
-34.0102264717
 20
-9.7310194482
 11
-34.0102264717
 21
-13.2689805518
  0
LWPOLYLINE
  5
3B0
100
AcDbEntity
  8
0
100
AcDbPolyline
 62
7
  6
CONTINUOUS
 90
10
 70
0
 43
0.3500000006
 10
-42.3351529541
 20
36.6443958893
 10
-42.2637263031
 20
36.5015380554
 10
-42.2637263031
 20
36.4301068726
 10
-42.406584137
 20
36.2872490387
 10
-42.478010788
 20
36.2872490387
 10
-42.5494419708
 20
36.3586802216
 10
-42.5494419708
 20
36.4301068726
 10
-42.478010788
 20
36.5729647064
 10
-42.406584137
 20
36.6443958893
 10
-42.3351529541
 20
36.6443958893
  0
LINE
  5
3B1
100
AcDbEntity
  8
0
100
AcDbLine
 62
7
  6
CONTINUOUS
 10
-34.0102264717
 20
9.7310194482
 11
-35.0102264717
 21
9.6786116689
  0
LINE
  5
3B2
100
AcDbEntity
  8
0
100
AcDbLine
 62
7
  6
CONTINUOUS
 10
-34.0102264717
 20
13.2689805518
 11
-35.0102264717
 21
13.3213883311
  0
LINE
  5
3B3
100
AcDbEntity
  8
RACCORDO
100
AcDbLine
 62
253
  6
CONTINUOUS
 10
-37.7385841159
 20
20.8757683812
 11
-37.3108064802
 21
20.8570387627
  0
LWPOLYLINE
  5
3B4
100
AcDbEntity
  8
RACCORDO
100
AcDbPolyline
 62
253
  6
CONTINUOUS
 90
4
 70
0
 10
-37.7838743213
 20
20.878106804
 10
-37.7797085837
 20
20.8778215617
 10
-37.7707052519
 20
20.8773332398
 10
-37.7385841159
 20
20.8757683812
  0
LINE
  5
3B5
100
AcDbEntity
  8
0
100
AcDbLine
 62
253
  6
CONTINUOUS
 10
-36.6463994381
 20
21.5266932996
 11
-35.0102264717
 21
21.6124414913
  0
LINE
  5
3B6
100
AcDbEntity
  8
RACCORDO
100
AcDbLine
 62
7
  6
CONTINUOUS
 10
-37.0297760561
 20
22.0059161498
 11
-35.0102264717
 21
22.1117562587
  0
LINE
  5
3B7
100
AcDbEntity
  8
0
100
AcDbLine
 62
7
  6
CONTINUOUS
 10
-36.6463994379
 20
22.026008067
 11
-35.0102264717
 21
22.1117562587
  0
LWPOLYLINE
  5
3B8
100
AcDbEntity
  8
RACCORDO
100
AcDbPolyline
 62
253
  6
CONTINUOUS
 90
3
 70
0
 10
-38.1653822506
 20
20.8701700707
 10
-38.1646742247
 20
20.8701816244
 10
-37.7838861945
 20
20.8781072719
  0
LWPOLYLINE
  5
3B9
100
AcDbEntity
  8
0
100
AcDbPolyline
 62
7
  6
CONTINUOUS
 90
3
 70
0
 43
0.3500000006
 10
-43.8351534119
 20
36.7872491913
 10
-45.3351538696
 20
36.7872491913
 10
-44.6922958832
 20
39.1443921204
  0
ARC
  5
3BA
100
AcDbEntity
  8
RACCORDO
100
AcDbCircle
 62
7
  6
CONTINUOUS
 10
-36.967016408
 20
-20.8075584284
 40
1.2
100
AcDbArc
 50
182.9907948877
 51
267.0
  0
ARC
  5
3BB
100
AcDbEntity
  8
RACCORDO
100
AcDbCircle
 62
7
  6
CONTINUOUS
 10
-36.9670164142
 20
20.8075584281
 40
1.2
100
AcDbArc
 50
93.0
 51
177.0092051127
  0
ELLIPSE
  5
3BC
100
AcDbEntity
  8
0
100
AcDbEllipse
 62
7
  6
CONTINUOUS
 10
21.786720553
 20
-21.6110700857
 30
0.0
 11
-0.3545231217
 21
0.3545231217
 31
0.0
 40
0.9972646886
 41
2.3575640181
 42
3.9256212891
  0
ELLIPSE
  5
3BD
100
AcDbEntity
  8
0
100
AcDbEllipse
 62
7
  6
CONTINUOUS
 10
21.786720553
 20
21.6110700857
 30
0.0
 11
0.3545231217
 21
0.3545231217
 31
0.0
 40
0.9972646886
 41
-0.7840286355
 42
0.7840286355
  0
ELLIPSE
  5
3BE
100
AcDbEntity
  8
0
100
AcDbEllipse
 62
7
  6
CONTINUOUS
 10
-21.786720553
 20
21.6110700857
 30
0.0
 11
0.3545231217
 21
-0.3545231217
 31
0.0
 40
0.9972646886
 41
2.3575640181
 42
3.9256212891
  0
ELLIPSE
  5
3BF
100
AcDbEntity
  8
0
100
AcDbEllipse
 62
7
  6
CONTINUOUS
 10
-21.786720553
 20
-21.6110700857
 30
0.0
 11
0.3545231217
 21
0.3545231217
 31
0.0
 40
0.9972646886
 41
-3.9256212891
 42
-2.3575640181
  0
ENDSEC
  0
SECTION
  2
OBJECTS
  0
DICTIONARY
  5
C
100
AcDbDictionary
280
0
281
1
  3
ACAD_GROUP
350
D
  3
ACAD_MLINESTYLE
350
17
  3
ACAD_LAYOUT
350
1A
  3
ACAD_PLOTSETTINGS
350
19
  3
ACAD_PLOTSTYLENAME
350
E
  0
DICTIONARY
  5
D
102
{ACAD_REACTORS
330
C
102
}
100
AcDbDictionary
280
0
281
1
  0
ACDBDICTIONARYWDFLT
  5
E
102
{ACAD_REACTORS
330
C
102
}
100
AcDbDictionary
281
1
  3
Normal
350
F
100
AcDbDictionaryWithDefault
340
F
  0
DICTIONARY
  5
17
102
{ACAD_REACTORS
330
C
102
}
100
AcDbDictionary
280
0
281
1
  3
Standard
350
18
  0
DICTIONARY
  5
19
102
{ACAD_REACTORS
330
C
102
}
100
AcDbDictionary
281
1
  0
DICTIONARY
  5
1A
102
{ACAD_REACTORS
330
C
102
}
100
AcDbDictionary
281
1
  3
Model
350
3C0
  3
Layout1
350
3C1
  0
ACDBPLACEHOLDER
  5
F
102
{ACAD_REACTORS
330
E
102
}
  0
MLINESTYLE
  5
18
102
{ACAD_REACTORS
330
17
102
}
100
AcDbMlineStyle
  2
STANDARD
 70
0
  3

 62
256
 51
90.0
 52
90.0
 71
2
 49
0.5
 62
256
  6
BYLAYER
 49
-0.5
 62
256
  6
BYLAYER
  0
LAYOUT
  5
3C0
102
{ACAD_REACTORS
330
1A
102
}
100
AcDbPlotSettings
  1

  2
none_device
  4
ISO_A4_(297.00_x_210.00_MM)
  6

 40
0.0
 41
0.0
 42
0.0
 43
0.0
 44
297.0
 45
210.0
 46
0.0
 47
0.0
 48
0.0
 49
0.0
140
0.0
141
0.0
142
1.0
143
1.0
 70
1024
 72
1
 73
0
 74
0
  7

 75
0
147
1.0
148
0.0
149
0.0
100
AcDbLayout
  1
Model
 70
0
 71
0
 10
0.0
 20
0.0
 11
297.0
 21
210.0
 12
0.0
 22
0.0
 32
0.0
 14
0.0
 24
0.0
 34
0.0
 15
0.0
 25
0.0
 35
0.0
146
0.0
 13
0.0
 23
0.0
 33
0.0
 16
1.0
 26
0.0
 36
0.0
 17
0.0
 27
1.0
 37
0.0
 76
0
330
214
345
0
346
0
  0
LAYOUT
  5
3C1
102
{ACAD_REACTORS
330
1A
102
}
100
AcDbPlotSettings
  1

  2
none_device
  4
ISO_A4_(297.00_x_210.00_MM)
  6

 40
0.0
 41
0.0
 42
0.0
 43
0.0
 44
297.0
 45
210.0
 46
0.0
 47
0.0
 48
0.0
 49
0.0
140
0.0
141
0.0
142
1.0
143
1.0
 70
0
 72
1
 73
0
 74
0
  7

 75
0
147
1.0
148
0.0
149
0.0
100
AcDbLayout
  1
Layout1
 70
0
 71
1
 10
0.0
 20
0.0
 11
297.0
 21
210.0
 12
0.0
 22
0.0
 32
0.0
 14
0.0
 24
0.0
 34
0.0
 15
0.0
 25
0.0
 35
0.0
146
0.0
 13
0.0
 23
0.0
 33
0.0
 16
1.0
 26
0.0
 36
0.0
 17
0.0
 27
1.0
 37
0.0
 76
0
330
215
345
0
346
0
  0
ENDSEC
  0
EOF
