  0
SECTION
  2
HEADER
  9
$ACADVER
  1
AC1015
  9
$DWGCODEPAGE
  3
ANSI_1252
  9
$EXTMAX
 10
297.0
 20
210.0
 30
0.0
  9
$EXTMIN
 10
0.0
 20
0.0
 30
0.0
  9
$LIMMIN
 10
0.0
 20
0.0
  9
$LIMMAX
 10
297.0
 20
210.0
  9
$VIEWCTR
 10
148.5
 20
105.0
  9
$VIEWSIZE
 40
210.0
  9
$CLAYER
  8
0
  9
$LTSCALE
 40
16.335
  9
$CELTYPE
  6
BYLAYER
  9
$DIMSCALE
 40
1.0
  9
$DIMASZ
 40
3.0
  9
$DIMEXO
 40
1.85625
  9
$DIMDLI
 40
11.286
  9
$DIMEXE
 40
5.346
  9
$DIMCEN
 40
2.673
  9
$DIMLFAC
 40
1.0
  9
$DIMBLK
  1
_FILLED
  9
$DIMTXT
 40
3.0
  9
$DIMTOL
 70
1
  9
$DIMLIM
 70
0
  9
$DIMTFAC
 40
1.0
  9
$DIMTP
 40
0.01
  9
$DIMTM
 40
0.01
  9
$PDMODE
 70
3
  9
$PDSIZE
 40
3.0
  9
$HANDSEED
  5
862
  9
$TILEMODE
 70
1
  9
$MEASUREMENT
 70
1
  9
$INSUNITS
 70
4
  0
ENDSEC
  0
SECTION
  2
CLASSES
  0
CLASS
  1
ACDBDICTIONARYWDFLT
  2
AcDbDictionaryWithDefault
  3
AutoCAD 2000
 90
0
280
0
281
0
  0
CLASS
  1
ACDBPLACEHOLDER
  2
AcDbPlaceHolder
  3
AutoCAD 2000
 90
0
280
0
281
0
  0
CLASS
  1
LAYOUT
  2
AcDbLayout
  3
AutoCAD 2000
 90
0
280
0
281
0
  0
ENDSEC
  0
SECTION
  2
TABLES
  0
TABLE
  2
VPORT
  5
8
100
AcDbSymbolTable
 70
2
  0
VPORT
  5
1F4
100
AcDbSymbolTableRecord
100
AcDbViewportTableRecord
  2
*ACTIVE
 70
0
 10
0.0
 20
0.0
 11
1.0
 21
1.0
 12
148.5
 22
105.0
 13
0.0
 23
0.0
 14
1.0
 24
1.0
 15
0.0
 25
0.0
 16
0.0
 26
0.0
 36
1.0
 17
0.0
 27
0.0
 37
0.0
 40
210.0
 41
1.4142857143
 42
50.0
 43
0.0
 44
0.0
 50
0.0
 51
0.0
 71
0
 72
100
 73
1
 74
1
 75
0
 76
0
 77
0
 78
0
  0
ENDTAB
  0
TABLE
  2
LTYPE
  5
5
100
AcDbSymbolTable
 70
6
  0
LTYPE
  5
14
100
AcDbSymbolTableRecord
100
AcDbLinetypeTableRecord
  2
BYBLOCK
 70
0
  3

 72
65
 73
0
 40
0.0
  0
LTYPE
  5
15
100
AcDbSymbolTableRecord
100
AcDbLinetypeTableRecord
  2
BYLAYER
 70
0
  3

 72
65
 73
0
 40
0.0
  0
LTYPE
  5
16
100
AcDbSymbolTableRecord
100
AcDbLinetypeTableRecord
  2
CONTINUOUS
 70
64
  3
Solid line
 72
65
 73
0
 40
0.0
  0
LTYPE
  5
1F5
100
AcDbSymbolTableRecord
100
AcDbLinetypeTableRecord
  2
CENTER
 70
64
  3
____ _ ____ _ ____ _ ____ _ ____ _ ____ _ ____
 72
65
 73
4
 40
0.6
 49
0.375
 74
0
 49
-0.075
 74
0
 49
0.075
 74
0
 49
-0.075
 74
0
  0
LTYPE
  5
1F6
100
AcDbSymbolTableRecord
100
AcDbLinetypeTableRecord
  2
HIDDEN
 70
64
  3
- - - - - - - - - - - - - - - - - - - -
 72
65
 73
2
 40
0.2
 49
0.1
 74
0
 49
-0.1
 74
0
  0
LTYPE
  5
1F7
100
AcDbSymbolTableRecord
100
AcDbLinetypeTableRecord
  2
PHANTOM
 70
64
  3
_____ _ _ _____ _ _ _____ _ _ _____
 72
65
 73
6
 40
0.8
 49
0.45
 74
0
 49
-0.05
 74
0
 49
0.1
 74
0
 49
-0.05
 74
0
 49
0.1
 74
0
 49
-0.05
 74
0
  0
LTYPE
  5
1F8
100
AcDbSymbolTableRecord
100
AcDbLinetypeTableRecord
  2
DOT
 70
64
  3
. . . . . . . . . . . . . . . . . . . .
 72
65
 73
2
 40
0.2
 49
0.1
 74
0
 49
-0.1
 74
0
  0
LTYPE
  5
1F9
100
AcDbSymbolTableRecord
100
AcDbLinetypeTableRecord
  2
DASHED
 70
64
  3
- - - - - - - - - - - - - - - - - - - -
 72
65
 73
2
 40
0.2
 49
0.1
 74
0
 49
-0.1
 74
0
  0
ENDTAB
  0
TABLE
  2
LAYER
  5
2
100
AcDbSymbolTable
 70
36
  0
LAYER
  5
10
100
AcDbSymbolTableRecord
100
AcDbLayerTableRecord
  2
0
 70
0
 62
7
  6
CONTINUOUS
370
-3
390
F
  0
LAYER
  5
1FA
100
AcDbSymbolTableRecord
100
AcDbLayerTableRecord
  2
DEFAULT_1
 70
0
 62
7
  6
CENTER
370
-3
390
F
  0
LAYER
  5
1FB
100
AcDbSymbolTableRecord
100
AcDbLayerTableRecord
  2
DEFAULT_2
 70
0
 62
7
  6
HIDDEN
370
-3
390
F
  0
LAYER
  5
1FC
100
AcDbSymbolTableRecord
100
AcDbLayerTableRecord
  2
DEFAULT_3
 70
0
 62
7
  6
PHANTOM
370
-3
390
F
  0
LAYER
  5
1FD
100
AcDbSymbolTableRecord
100
AcDbLayerTableRecord
  2
ASSI
 70
0
 62
7
  6
CONTINUOUS
370
-3
390
F
  0
LAYER
  5
1FE
100
AcDbSymbolTableRecord
100
AcDbLayerTableRecord
  2
COORDINATE
 70
0
 62
7
  6
CONTINUOUS
370
-3
390
F
  0
LAYER
  5
1FF
100
AcDbSymbolTableRecord
100
AcDbLayerTableRecord
  2
COORD_ORIGINE
 70
0
 62
7
  6
CONTINUOUS
370
-3
390
F
  0
LAYER
  5
200
100
AcDbSymbolTableRecord
100
AcDbLayerTableRecord
  2
COPY_PUBLISH
 70
0
 62
7
  6
CONTINUOUS
370
-3
390
F
  0
LAYER
  5
201
100
AcDbSymbolTableRecord
100
AcDbLayerTableRecord
  2
COSMETIC
 70
0
 62
7
  6
CONTINUOUS
370
-3
390
F
  0
LAYER
  5
202
100
AcDbSymbolTableRecord
100
AcDbLayerTableRecord
  2
COSMETICI
 70
0
 62
7
  6
CONTINUOUS
370
-3
390
F
  0
LAYER
  5
203
100
AcDbSymbolTableRecord
100
AcDbLayerTableRecord
  2
CURVE
 70
0
 62
7
  6
CONTINUOUS
370
-3
390
F
  0
LAYER
  5
204
100
AcDbSymbolTableRecord
100
AcDbLayerTableRecord
  2
CURVE_COSTR_MODELLO
 70
0
 62
7
  6
CONTINUOUS
370
-3
390
F
  0
LAYER
  5
205
100
AcDbSymbolTableRecord
100
AcDbLayerTableRecord
  2
DRAFT
 70
0
 62
7
  6
CONTINUOUS
370
-3
390
F
  0
LAYER
  5
206
100
AcDbSymbolTableRecord
100
AcDbLayerTableRecord
  2
IGES
 70
0
 62
7
  6
CONTINUOUS
370
-3
390
F
  0
LAYER
  5
207
100
AcDbSymbolTableRecord
100
AcDbLayerTableRecord
  2
IMPORT_IGES
 70
0
 62
7
  6
CONTINUOUS
370
-3
390
F
  0
LAYER
  5
208
100
AcDbSymbolTableRecord
100
AcDbLayerTableRecord
  2
INTFCLR_1
 70
0
 62
7
  6
CONTINUOUS
370
-3
390
F
  0
LAYER
  5
209
100
AcDbSymbolTableRecord
100
AcDbLayerTableRecord
  2
INTF_1
 70
0
 62
7
  6
CONTINUOUS
370
-3
390
F
  0
LAYER
  5
20A
100
AcDbSymbolTableRecord
100
AcDbLayerTableRecord
  2
INTF_15
 70
0
 62
7
  6
CONTINUOUS
370
-3
390
F
  0
LAYER
  5
20B
100
AcDbSymbolTableRecord
100
AcDbLayerTableRecord
  2
INTF_16
 70
0
 62
7
  6
CONTINUOUS
370
-3
390
F
  0
LAYER
  5
20C
100
AcDbSymbolTableRecord
100
AcDbLayerTableRecord
  2
NOTE
 70
0
 62
7
  6
CONTINUOUS
370
-3
390
F
  0
LAYER
  5
20D
100
AcDbSymbolTableRecord
100
AcDbLayerTableRecord
  2
PIANI
 70
0
 62
7
  6
CONTINUOUS
370
-3
390
F
  0
LAYER
  5
20E
100
AcDbSymbolTableRecord
100
AcDbLayerTableRecord
  2
PIANI_ORIGINE
 70
0
 62
7
  6
CONTINUOUS
370
-3
390
F
  0
LAYER
  5
20F
100
AcDbSymbolTableRecord
100
AcDbLayerTableRecord
  2
PIANI_SFORMO
 70
0
 62
7
  6
CONTINUOUS
370
-3
390
F
  0
LAYER
  5
210
100
AcDbSymbolTableRecord
100
AcDbLayerTableRecord
  2
PUNTI
 70
0
 62
7
  6
CONTINUOUS
370
-3
390
F
  0
LAYER
  5
211
100
AcDbSymbolTableRecord
100
AcDbLayerTableRecord
  2
RACCORDO
 70
0
 62
7
  6
CONTINUOUS
370
-3
390
F
  0
LAYER
  5
212
100
AcDbSymbolTableRecord
100
AcDbLayerTableRecord
  2
SIMBOLI
 70
0
 62
7
  6
CONTINUOUS
370
-3
390
F
  0
LAYER
  5
213
100
AcDbSymbolTableRecord
100
AcDbLayerTableRecord
  2
SMUSSO
 70
0
 62
7
  6
CONTINUOUS
370
-3
390
F
  0
LAYER
  5
214
100
AcDbSymbolTableRecord
100
AcDbLayerTableRecord
  2
SNAPLINE
 70
0
 62
7
  6
CONTINUOUS
370
-3
390
F
  0
LAYER
  5
215
100
AcDbSymbolTableRecord
100
AcDbLayerTableRecord
  2
SOLIDO
 70
0
 62
7
  6
CONTINUOUS
370
-3
390
F
  0
LAYER
  5
216
100
AcDbSymbolTableRecord
100
AcDbLayerTableRecord
  2
SUPERFICI
 70
0
 62
7
  6
CONTINUOUS
370
-3
390
F
  0
LAYER
  5
217
100
AcDbSymbolTableRecord
100
AcDbLayerTableRecord
  2
SUPERFICI_SKEL
 70
0
 62
7
  6
CONTINUOUS
370
-3
390
F
  0
LAYER
  5
218
100
AcDbSymbolTableRecord
100
AcDbLayerTableRecord
  2
TRASH
 70
0
 62
7
  6
CONTINUOUS
370
-3
390
F
  0
ENDTAB
  0
TABLE
  2
STYLE
  5
3
100
AcDbSymbolTable
 70
1
  0
STYLE
  5
11
100
AcDbSymbolTableRecord
100
AcDbTextStyleTableRecord
  2
STANDARD
 70
0
 40
0.0
 41
0.8
 50
0.0
 71
0
 42
0.2
  3
txt
  4

  0
STYLE
  5
219
100
AcDbSymbolTableRecord
100
AcDbTextStyleTableRecord
  2
TEXTSTYLE_1
 70
0
 40
0.0
 41
0.8
 50
0.0
 71
0
 42
0.2
  3
gdt
  4

  0
ENDTAB
  0
TABLE
  2
VIEW
  5
6
100
AcDbSymbolTable
 70
0
  0
ENDTAB
  0
TABLE
  2
UCS
  5
7
100
AcDbSymbolTable
 70
0
  0
ENDTAB
  0
TABLE
  2
APPID
  5
9
100
AcDbSymbolTable
 70
1
  0
APPID
  5
21A
100
AcDbSymbolTableRecord
100
AcDbRegAppTableRecord
  2
ACAD
 70
0
  0
ENDTAB
  0
TABLE
  2
BLOCK_RECORD
  5
1
100
AcDbSymbolTable
 70
0
  0
BLOCK_RECORD
  5
21B
100
AcDbSymbolTableRecord
100
AcDbBlockTableRecord
  2
*Model_Space
  0
BLOCK_RECORD
  5
21C
100
AcDbSymbolTableRecord
100
AcDbBlockTableRecord
  2
*Paper_Space
  0
BLOCK_RECORD
  5
21D
100
AcDbSymbolTableRecord
100
AcDbBlockTableRecord
  2
_FILLED
  0
BLOCK_RECORD
  5
21E
100
AcDbSymbolTableRecord
100
AcDbBlockTableRecord
  2
*D0
  0
BLOCK_RECORD
  5
21F
100
AcDbSymbolTableRecord
100
AcDbBlockTableRecord
  2
*D1
  0
BLOCK_RECORD
  5
220
100
AcDbSymbolTableRecord
100
AcDbBlockTableRecord
  2
*D2
  0
BLOCK_RECORD
  5
221
100
AcDbSymbolTableRecord
100
AcDbBlockTableRecord
  2
*D3
  0
ENDTAB
  0
TABLE
  2
DIMSTYLE
  5
A
100
AcDbSymbolTable
 70
1
100
AcDbDimStyleTable
 71
0
  0
DIMSTYLE
105
222
100
AcDbSymbolTableRecord
100
AcDbDimStyleTableRecord
  2
STANDARD
 70
0
  3

  4

 40
1.0
 41
3.0
 42
0.0625
 43
0.38
 44
0.18
 45
0.0
 46
0.0
 47
0.01
 48
0.01
140
3.0
141
0.09
142
0.0
143
25.4
144
1.0
145
0.0
146
1.0
147
0.09
 71
1.0
 72
0.0
 73
0
 74
0
 75
0
 76
0
 77
1
 78
8
170
0
171
2
172
0
173
0
174
0
175
0
176
0
177
0
178
0
270
2
271
2
272
2
273
2
274
2
275
0
280
0
281
0
282
0
283
1
284
8
285
0
286
0
287
3
288
0
340
11
341
21D
342
21D
343
21D
344
21D
  0
DIMSTYLE
105
223
100
AcDbSymbolTableRecord
100
AcDbDimStyleTableRecord
  2
DIMSTYLE_1
 70
0
  3

  4

 40
1.0
 41
3.0
 42
0.0625
 43
0.38
 44
0.18
 45
0.0
 46
0.0
 47
0.0
 48
0.0
140
3.0
141
0.09
142
0.0
143
25.4
144
1.0
145
0.0
146
1.0
147
0.09
 71
0.0
 72
0.0
 73
0
 74
0
 75
0
 76
0
 77
1
 78
8
170
0
171
2
172
0
173
0
174
0
175
0
176
0
177
0
178
0
270
2
271
2
272
2
273
2
274
2
275
0
280
0
281
0
282
0
283
1
284
8
285
0
286
0
287
3
288
0
340
11
341
21D
342
21D
343
21D
344
21D
  0
ENDTAB
  0
ENDSEC
  0
SECTION
  2
BLOCKS
  0
BLOCK
  5
20
100
AcDbEntity
  8
0
100
AcDbBlockBegin
  2
*Model_Space
 70
0
 10
0.0
 20
0.0
 30
0.0
  3
*Model_Space
  1

  0
ENDBLK
  5
21
100
AcDbEntity
  8
0
100
AcDbBlockEnd
  0
BLOCK
  5
1C
100
AcDbEntity
  8
0
100
AcDbBlockBegin
  2
*Paper_Space
 70
0
 10
0.0
 20
0.0
 30
0.0
  3
*Paper_Space
  1

  0
ENDBLK
  5
1D
100
AcDbEntity
  8
0
100
AcDbBlockEnd
  0
BLOCK
  5
224
100
AcDbEntity
  8
0
100
AcDbBlockBegin
  2
_FILLED
 70
64
 10
0.0
 20
0.0
  3
_FILLED
  1

  0
SOLID
  5
225
100
AcDbEntity
  8
0
  6
BYBLOCK
 62
0
100
AcDbTrace
 10
0.0
 20
0.0
 11
-1.0
 21
0.3166666667
 12
-1.0
 22
-0.3166666667
 13
-1.0
 23
-0.3166666667
  0
ENDBLK
  5
226
100
AcDbEntity
  8
0
  6
BYBLOCK
 62
0
100
AcDbBlockEnd
  0
BLOCK
  5
227
100
AcDbEntity
  8
0
100
AcDbBlockBegin
 62
7
  6
CONTINUOUS
  2
*D0
 70
65
 10
0.0
 20
0.0
  3
*D0
  1

  0
LINE
  5
228
100
AcDbEntity
  8
0
100
AcDbLine
 62
7
  6
CONTINUOUS
 10
11.1
 20
22.4000761524
 11
11.1
 21
36.8934565064
  0
LINE
  5
229
100
AcDbEntity
  8
0
100
AcDbLine
 62
7
  6
CONTINUOUS
 10
-11.1
 20
22.4000761524
 11
-11.1
 21
36.8934565064
  0
LINE
  5
22A
100
AcDbEntity
  8
0
100
AcDbLine
 62
7
  6
CONTINUOUS
 10
11.1
 20
35.3934565064
 11
0.0
 21
35.3934565064
  0
LINE
  5
22B
100
AcDbEntity
  8
0
100
AcDbLine
 62
7
  6
CONTINUOUS
 10
-11.1
 20
35.3934565064
 11
0.0
 21
35.3934565064
  0
INSERT
  5
22C
100
AcDbEntity
  8
0
100
AcDbBlockReference
 62
7
  6
CONTINUOUS
  2
_FILLED
 10
11.1
 20
35.3934565064
 41
3.0
 42
3.0
 43
3.0
  0
INSERT
  5
22D
100
AcDbEntity
  8
0
100
AcDbBlockReference
 62
7
  6
CONTINUOUS
  2
_FILLED
 10
-11.1
 20
35.3934565064
 41
3.0
 42
3.0
 43
3.0
 50
180.0
  0
ENDBLK
  5
22E
100
AcDbEntity
  8
0
  6
BYBLOCK
 62
0
100
AcDbBlockEnd
  0
BLOCK
  5
22F
100
AcDbEntity
  8
0
100
AcDbBlockBegin
 62
7
  6
CONTINUOUS
  2
*D1
 70
65
 10
0.0
 20
0.0
  3
*D1
  1

  0
LINE
  5
230
100
AcDbEntity
  8
0
100
AcDbLine
 62
7
  6
CONTINUOUS
 10
10.900030461
 20
24.5
 11
25.5859822641
 21
24.5
  0
LINE
  5
231
100
AcDbEntity
  8
0
100
AcDbLine
 62
7
  6
CONTINUOUS
 10
10.900030461
 20
-24.5
 11
25.5859822641
 21
-24.5
  0
LINE
  5
232
100
AcDbEntity
  8
0
100
AcDbLine
 62
7
  6
CONTINUOUS
 10
24.0859822641
 20
24.5
 11
24.0859822641
 21
-0.0
  0
LINE
  5
233
100
AcDbEntity
  8
0
100
AcDbLine
 62
7
  6
CONTINUOUS
 10
24.0859822641
 20
-24.5
 11
24.0859822641
 21
-0.0
  0
INSERT
  5
234
100
AcDbEntity
  8
0
100
AcDbBlockReference
 62
7
  6
CONTINUOUS
  2
_FILLED
 10
24.0859822641
 20
24.5
 41
3.0
 42
3.0
 43
3.0
 50
90.0
  0
INSERT
  5
235
100
AcDbEntity
  8
0
100
AcDbBlockReference
 62
7
  6
CONTINUOUS
  2
_FILLED
 10
24.0859822641
 20
-24.5
 41
3.0
 42
3.0
 43
3.0
 50
270.0
  0
ENDBLK
  5
236
100
AcDbEntity
  8
0
  6
BYBLOCK
 62
0
100
AcDbBlockEnd
  0
BLOCK
  5
237
100
AcDbEntity
  8
0
100
AcDbBlockBegin
 62
7
  6
CONTINUOUS
  2
*D2
 70
65
 10
0.0
 20
0.0
  3
*D2
  1

  0
LINE
  5
238
100
AcDbEntity
  8
0
100
AcDbLine
 62
7
  6
CONTINUOUS
 10
-64.4324185567
 20
24.3443375673
 11
-64.4324185567
 21
36.8934565064
  0
LINE
  5
239
100
AcDbEntity
  8
0
100
AcDbLine
 62
7
  6
CONTINUOUS
 10
-24.9324185567
 20
18.6038272153
 11
-24.9324185567
 21
36.8934565064
  0
LINE
  5
23A
100
AcDbEntity
  8
0
100
AcDbLine
 62
7
  6
CONTINUOUS
 10
-64.4324185567
 20
35.3934565064
 11
-44.6824185567
 21
35.3934565064
  0
LINE
  5
23B
100
AcDbEntity
  8
0
100
AcDbLine
 62
7
  6
CONTINUOUS
 10
-24.9324185567
 20
35.3934565064
 11
-44.6824185567
 21
35.3934565064
  0
INSERT
  5
23C
100
AcDbEntity
  8
0
100
AcDbBlockReference
 62
7
  6
CONTINUOUS
  2
_FILLED
 10
-64.4324185567
 20
35.3934565064
 41
3.0
 42
3.0
 43
3.0
 50
180.0
  0
INSERT
  5
23D
100
AcDbEntity
  8
0
100
AcDbBlockReference
 62
7
  6
CONTINUOUS
  2
_FILLED
 10
-24.9324185567
 20
35.3934565064
 41
3.0
 42
3.0
 43
3.0
  0
ENDBLK
  5
23E
100
AcDbEntity
  8
0
  6
BYBLOCK
 62
0
100
AcDbBlockEnd
  0
BLOCK
  5
23F
100
AcDbEntity
  8
0
100
AcDbBlockBegin
 62
7
  6
CONTINUOUS
  2
*D3
 70
65
 10
0.0
 20
0.0
  3
*D3
  1

  0
LINE
  5
240
100
AcDbEntity
  8
0
100
AcDbLine
 62
7
  6
CONTINUOUS
 10
-87.6324185567
 20
0.5
 11
-87.6324185567
 21
46.8934565064
  0
LINE
  5
241
100
AcDbEntity
  8
0
100
AcDbLine
 62
7
  6
CONTINUOUS
 10
-24.9324185567
 20
17.8968281299
 11
-24.9324185567
 21
46.8934565064
  0
LINE
  5
242
100
AcDbEntity
  8
0
100
AcDbLine
 62
7
  6
CONTINUOUS
 10
-87.6324185567
 20
45.3934565064
 11
-56.2824185567
 21
45.3934565064
  0
LINE
  5
243
100
AcDbEntity
  8
0
100
AcDbLine
 62
7
  6
CONTINUOUS
 10
-24.9324185567
 20
45.3934565064
 11
-56.2824185567
 21
45.3934565064
  0
INSERT
  5
244
100
AcDbEntity
  8
0
100
AcDbBlockReference
 62
7
  6
CONTINUOUS
  2
_FILLED
 10
-87.6324185567
 20
45.3934565064
 41
3.0
 42
3.0
 43
3.0
 50
180.0
  0
INSERT
  5
245
100
AcDbEntity
  8
0
100
AcDbBlockReference
 62
7
  6
CONTINUOUS
  2
_FILLED
 10
-24.9324185567
 20
45.3934565064
 41
3.0
 42
3.0
 43
3.0
  0
ENDBLK
  5
246
100
AcDbEntity
  8
0
  6
BYBLOCK
 62
0
100
AcDbBlockEnd
  0
ENDSEC
  0
SECTION
  2
ENTITIES
  0
DIMENSION
  5
247
100
AcDbEntity
  8
0
100
AcDbDimension
 62
7
  6
CONTINUOUS
  2
*D0
 10
-11.1
 20
35.3934565064
 11
-4.3928571429
 21
36.1434565064
 70
160
 71
2
 42
22.2
  3
DIMSTYLE_1
100
AcDbAlignedDimension
 13
11.1
 23
22.4000761524
 14
-11.1
 24
22.4000761524
 50
180.0
100
AcDbRotatedDimension
  0
DIMENSION
  5
248
100
AcDbEntity
  8
0
100
AcDbDimension
 62
7
  6
CONTINUOUS
  2
*D1
 10
24.0859822641
 20
-24.5
 11
23.3359822641
 21
-2.3571428571
 70
160
 71
2
 42
49.0
  3
DIMSTYLE_1
100
AcDbAlignedDimension
 13
10.900030461
 23
24.5
 14
10.900030461
 24
-24.5
 50
270.0
100
AcDbRotatedDimension
  0
DIMENSION
  5
249
100
AcDbEntity
  8
0
100
AcDbDimension
 62
7
  6
CONTINUOUS
  2
*D2
 10
-24.9324185567
 20
35.3934565064
 11
-48.8609899853
 21
36.1434565064
 70
160
 71
2
 42
39.5
  3
DIMSTYLE_1
100
AcDbAlignedDimension
 13
-64.4324185567
 23
24.3443375673
 14
-24.9324185567
 24
18.6038272153
100
AcDbRotatedDimension
  0
DIMENSION
  5
24A
100
AcDbEntity
  8
0
100
AcDbDimension
 62
7
  6
CONTINUOUS
  2
*D3
 10
-24.9324185567
 20
45.3934565064
 11
-60.6752756996
 21
46.1434565064
 70
160
 71
2
 42
62.7
  3
DIMSTYLE_1
100
AcDbAlignedDimension
 13
-87.6324185567
 23
0.5
 14
-24.9324185567
 24
17.8968281299
100
AcDbRotatedDimension
  0
LINE
  5
24B
100
AcDbEntity
  8
ASSI
100
AcDbLine
 62
7
  6
CONTINUOUS
 10
-10.400030461
 20
-24.5
 11
-7.399969539
 21
-24.5
  0
LINE
  5
24C
100
AcDbEntity
  8
ASSI
100
AcDbLine
 62
7
  6
CONTINUOUS
 10
7.399969539
 20
-24.5
 11
10.400030461
 21
-24.5
  0
LINE
  5
24D
100
AcDbEntity
  8
ASSI
100
AcDbLine
 62
253
  6
CONTINUOUS
 10
10.3606804067
 20
-24.4606499457
 11
7.4393195933
 21
-24.4606499457
  0
LINE
  5
24E
100
AcDbEntity
  8
ASSI
100
AcDbLine
 62
253
  6
CONTINUOUS
 10
-7.4393195933
 20
-24.4606499457
 11
-10.3606804067
 21
-24.4606499457
  0
LINE
  5
24F
100
AcDbEntity
  8
ASSI
100
AcDbLine
 62
253
  6
CONTINUOUS
 10
7.2402075759
 20
-24.2106880219
 11
10.5597924241
 21
-24.2106880219
  0
LINE
  5
250
100
AcDbEntity
  8
ASSI
100
AcDbLine
 62
253
  6
CONTINUOUS
 10
-7.2402075759
 20
-24.2106880219
 11
-10.5597924241
 21
-24.2106880219
  0
LINE
  5
251
100
AcDbEntity
  8
ASSI
100
AcDbLine
 62
7
  6
CONTINUOUS
 10
-4.2000380762
 20
-24.0
 11
-1.0499619238
 21
-24.0
  0
LINE
  5
252
100
AcDbEntity
  8
ASSI
100
AcDbLine
 62
7
  6
CONTINUOUS
 10
1.0499619238
 20
-24.0
 11
4.2000380762
 21
-24.0
  0
LINE
  5
253
100
AcDbEntity
  8
ASSI
100
AcDbLine
 62
253
  6
CONTINUOUS
 10
-4.1947406302
 20
-23.9947025539
 11
-1.0552593698
 21
-23.9947025539
  0
LINE
  5
254
100
AcDbEntity
  8
ASSI
100
AcDbLine
 62
253
  6
CONTINUOUS
 10
1.0552593698
 20
-23.9947025539
 11
4.1947406302
 21
-23.9947025539
  0
LINE
  5
255
100
AcDbEntity
  8
ASSI
100
AcDbLine
 62
253
  6
CONTINUOUS
 10
9.0368706193
 20
-23.8443375673
 11
10.5597924241
 21
-23.8443375673
  0
LINE
  5
256
100
AcDbEntity
  8
ASSI
100
AcDbLine
 62
253
  6
CONTINUOUS
 10
-9.0368706193
 20
-23.8443375673
 11
-10.5597924241
 21
-23.8443375673
  0
LINE
  5
257
100
AcDbEntity
  8
ASSI
100
AcDbLine
 62
253
  6
CONTINUOUS
 10
-7.2402075759
 20
-23.8443375673
 11
-8.7631293807
 21
-23.8443375673
  0
LINE
  5
258
100
AcDbEntity
  8
ASSI
100
AcDbLine
 62
253
  6
CONTINUOUS
 10
8.7631293807
 20
-23.8443375673
 11
7.2402075759
 21
-23.8443375673
  0
LINE
  5
259
100
AcDbEntity
  8
ASSI
100
AcDbLine
 62
253
  6
CONTINUOUS
 10
-4.1947406302
 20
-23.7947330149
 11
-1.0552593698
 21
-23.7947330149
  0
LINE
  5
25A
100
AcDbEntity
  8
ASSI
100
AcDbLine
 62
253
  6
CONTINUOUS
 10
1.0552593698
 20
-23.7947330149
 11
4.1947406302
 21
-23.7947330149
  0
LINE
  5
25B
100
AcDbEntity
  8
ASSI
100
AcDbLine
 62
253
  6
CONTINUOUS
 10
-1.0052669851
 20
-23.7447406302
 11
-0.8052974461
 21
-23.7447406302
  0
LINE
  5
25C
100
AcDbEntity
  8
ASSI
100
AcDbLine
 62
253
  6
CONTINUOUS
 10
1.0052669851
 20
-23.7447406302
 11
0.8052974461
 21
-23.7447406302
  0
LINE
  5
25D
100
AcDbEntity
  8
ASSI
100
AcDbLine
 62
253
  6
CONTINUOUS
 10
4.2447330149
 20
-23.7447406302
 11
4.4447025539
 21
-23.7447406302
  0
LINE
  5
25E
100
AcDbEntity
  8
ASSI
100
AcDbLine
 62
253
  6
CONTINUOUS
 10
-4.2447330149
 20
-23.7447406302
 11
-4.4447025539
 21
-23.7447406302
  0
LINE
  5
25F
100
AcDbEntity
  8
ASSI
100
AcDbLine
 62
253
  6
CONTINUOUS
 10
10.3602592617
 20
-23.6278312164
 11
9.2533769702
 21
-23.6278312164
  0
LINE
  5
260
100
AcDbEntity
  8
ASSI
100
AcDbLine
 62
253
  6
CONTINUOUS
 10
8.5466230298
 20
-23.6278312164
 11
7.4397407383
 21
-23.6278312164
  0
LINE
  5
261
100
AcDbEntity
  8
ASSI
100
AcDbLine
 62
253
  6
CONTINUOUS
 10
-7.4397407383
 20
-23.6278312164
 11
-8.5466230298
 21
-23.6278312164
  0
LINE
  5
262
100
AcDbEntity
  8
ASSI
100
AcDbLine
 62
253
  6
CONTINUOUS
 10
-9.2533769702
 20
-23.6278312164
 11
-10.3602592617
 21
-23.6278312164
  0
LINE
  5
263
100
AcDbEntity
  8
ASSI
100
AcDbLine
 62
7
  6
CONTINUOUS
 10
-10.3281430868
 20
-23.1226497308
 11
-9.3
 21
-23.1226497308
  0
LINE
  5
264
100
AcDbEntity
  8
ASSI
100
AcDbLine
 62
7
  6
CONTINUOUS
 10
-8.5
 20
-23.1226497308
 11
-7.4718569132
 21
-23.1226497308
  0
LINE
  5
265
100
AcDbEntity
  8
ASSI
100
AcDbLine
 62
7
  6
CONTINUOUS
 10
7.4718569132
 20
-23.1226497308
 11
8.5
 21
-23.1226497308
  0
LINE
  5
266
100
AcDbEntity
  8
ASSI
100
AcDbLine
 62
7
  6
CONTINUOUS
 10
9.3
 20
-23.1226497308
 11
10.3281430868
 21
-23.1226497308
  0
LINE
  5
267
100
AcDbEntity
  8
ASSI
100
AcDbLine
 62
253
  6
CONTINUOUS
 10
-7.4393195933
 20
24.4606499457
 11
-7.399969539
 21
24.5
  0
LINE
  5
268
100
AcDbEntity
  8
ASSI
100
AcDbLine
 62
253
  6
CONTINUOUS
 10
-7.2393500543
 20
24.2606804067
 11
-7.2
 21
24.300030461
  0
LINE
  5
269
100
AcDbEntity
  8
ASSI
100
AcDbLine
 62
7
  6
CONTINUOUS
 10
-7.2
 20
-22.4
 11
-4.45
 21
-22.4
  0
LINE
  5
26A
100
AcDbEntity
  8
ASSI
100
AcDbLine
 62
7
  6
CONTINUOUS
 10
-0.8
 20
-22.4
 11
0.8
 21
-22.4
  0
LINE
  5
26B
100
AcDbEntity
  8
ASSI
100
AcDbLine
 62
7
  6
CONTINUOUS
 10
4.45
 20
-22.4
 11
7.2
 21
-22.4
  0
LINE
  5
26C
100
AcDbEntity
  8
ASSI
100
AcDbLine
 62
7
  6
CONTINUOUS
 10
4.2447330149
 20
-22.3737961104
 11
1.0052669851
 21
-22.3737961104
  0
LINE
  5
26D
100
AcDbEntity
  8
ASSI
100
AcDbLine
 62
7
  6
CONTINUOUS
 10
-1.0052669851
 20
-22.3737961104
 11
-4.2447330149
 21
-22.3737961104
  0
LINE
  5
26E
100
AcDbEntity
  8
ASSI
100
AcDbLine
 62
7
  6
CONTINUOUS
 10
-10.3281430868
 20
-22.3213883311
 11
-9.3
 21
-22.3213883311
  0
LINE
  5
26F
100
AcDbEntity
  8
ASSI
100
AcDbLine
 62
7
  6
CONTINUOUS
 10
-8.5
 20
-22.3213883311
 11
-7.4718569132
 21
-22.3213883311
  0
LINE
  5
270
100
AcDbEntity
  8
ASSI
100
AcDbLine
 62
7
  6
CONTINUOUS
 10
7.4718569132
 20
-22.3213883311
 11
8.5
 21
-22.3213883311
  0
LINE
  5
271
100
AcDbEntity
  8
ASSI
100
AcDbLine
 62
7
  6
CONTINUOUS
 10
9.3
 20
-22.3213883311
 11
10.3281430868
 21
-22.3213883311
  0
LINE
  5
272
100
AcDbEntity
  8
ASSI
100
AcDbLine
 62
7
  6
CONTINUOUS
 10
9.0368706193
 20
-22.2689805518
 11
8.7631293807
 21
-22.2689805518
  0
LINE
  5
273
100
AcDbEntity
  8
ASSI
100
AcDbLine
 62
7
  6
CONTINUOUS
 10
-8.7631293807
 20
-22.2689805518
 11
-9.0368706193
 21
-22.2689805518
  0
LINE
  5
274
100
AcDbEntity
  8
ASSI
100
AcDbLine
 62
253
  6
CONTINUOUS
 10
-7.399969539
 20
-24.5
 11
-7.4393195933
 21
-24.4606499457
  0
LINE
  5
275
100
AcDbEntity
  8
ASSI
100
AcDbLine
 62
253
  6
CONTINUOUS
 10
-7.2
 20
-24.300030461
 11
-7.2393500543
 21
-24.2606804067
  0
LINE
  5
276
100
AcDbEntity
  8
ASSI
100
AcDbLine
 62
253
  6
CONTINUOUS
 10
-1.0552593698
 20
23.9947025539
 11
-1.0499619238
 21
24.0
  0
LINE
  5
277
100
AcDbEntity
  8
ASSI
100
AcDbLine
 62
253
  6
CONTINUOUS
 10
-0.8052974461
 20
23.7447406302
 11
-0.8
 21
23.7500380762
  0
LINE
  5
278
100
AcDbEntity
  8
ASSI
100
AcDbLine
 62
253
  6
CONTINUOUS
 10
-1.0499619238
 20
-24.0
 11
-1.0552593698
 21
-23.9947025539
  0
LINE
  5
279
100
AcDbEntity
  8
ASSI
100
AcDbLine
 62
7
  6
CONTINUOUS
 10
-8.5
 20
22.3213883311
 11
-8.5131674569
 21
22.2818538361
  0
LINE
  5
27A
100
AcDbEntity
  8
ASSI
100
AcDbLine
 62
7
  6
CONTINUOUS
 10
-8.5
 20
-22.3213883311
 11
-8.5131674569
 21
-22.2818538361
  0
LINE
  5
27B
100
AcDbEntity
  8
ASSI
100
AcDbLine
 62
7
  6
CONTINUOUS
 10
-7.2218949894
 20
22.3342616154
 11
-7.2
 21
22.4
  0
LINE
  5
27C
100
AcDbEntity
  8
ASSI
100
AcDbLine
 62
253
  6
CONTINUOUS
 10
4.1947406302
 20
23.9947025539
 11
4.2000380762
 21
24.0
  0
LINE
  5
27D
100
AcDbEntity
  8
ASSI
100
AcDbLine
 62
253
  6
CONTINUOUS
 10
4.4447025539
 20
23.7447406302
 11
4.45
 21
23.7500380762
  0
LINE
  5
27E
100
AcDbEntity
  8
ASSI
100
AcDbLine
 62
253
  6
CONTINUOUS
 10
4.2000380762
 20
-24.0
 11
4.1947406302
 21
-23.9947025539
  0
LINE
  5
27F
100
AcDbEntity
  8
ASSI
100
AcDbLine
 62
253
  6
CONTINUOUS
 10
4.45
 20
-23.7500380762
 11
4.4447025539
 21
-23.7447406302
  0
LINE
  5
280
100
AcDbEntity
  8
ASSI
100
AcDbLine
 62
7
  6
CONTINUOUS
 10
-7.2
 20
-22.4
 11
-7.2218949894
 21
-22.3342616154
  0
LINE
  5
281
100
AcDbEntity
  8
ASSI
100
AcDbLine
 62
7
  6
CONTINUOUS
 10
-11.1
 20
-18.5
 11
-11.1392788824
 21
-17.6339745962
  0
LINE
  5
282
100
AcDbEntity
  8
ASSI
100
AcDbLine
 62
253
  6
CONTINUOUS
 10
-10.5781050106
 20
-23.2097560788
 11
-10.5602288007
 21
-23.8010362971
  0
LINE
  5
283
100
AcDbEntity
  8
ASSI
100
AcDbLine
 62
253
  6
CONTINUOUS
 10
-10.3756118279
 20
-23.1200239821
 11
-10.3602592617
 21
-23.6278312164
  0
LINE
  5
284
100
AcDbEntity
  8
RACCORDO
100
AcDbLine
 62
7
  6
CONTINUOUS
 10
-11.15
 20
-17.6716990487
 11
-11.15
 21
17.6716990487
  0
LINE
  5
285
100
AcDbEntity
  8
ASSI
100
AcDbLine
 62
7
  6
CONTINUOUS
 10
-11.15
 20
-17.6716990487
 11
-11.15
 21
17.6716990487
  0
LINE
  5
286
100
AcDbEntity
  8
ASSI
100
AcDbLine
 62
7
  6
CONTINUOUS
 10
-11.1392788824
 20
-17.6339745962
 11
-11.1392788824
 21
17.6339745962
  0
LINE
  5
287
100
AcDbEntity
  8
ASSI
100
AcDbLine
 62
7
  6
CONTINUOUS
 10
-11.1
 20
21.9000761524
 11
-11.1
 21
18.5
  0
LINE
  5
288
100
AcDbEntity
  8
ASSI
100
AcDbLine
 62
7
  6
CONTINUOUS
 10
-11.1
 20
-21.9000761524
 11
-11.1
 21
-18.5
  0
LINE
  5
289
100
AcDbEntity
  8
ASSI
100
AcDbLine
 62
7
  6
CONTINUOUS
 10
-10.6
 20
-24.300030461
 11
-10.6000000646
 21
-22.3999999296
  0
LINE
  5
28A
100
AcDbEntity
  8
ASSI
100
AcDbLine
 62
7
  6
CONTINUOUS
 10
-10.6
 20
22.3999997358
 11
-10.6
 21
24.300030461
  0
LINE
  5
28B
100
AcDbEntity
  8
ASSI
100
AcDbLine
 62
253
  6
CONTINUOUS
 10
-10.5781050106
 20
-23.2097560788
 11
-10.5781050106
 21
-22.3341525772
  0
LINE
  5
28C
100
AcDbEntity
  8
ASSI
100
AcDbLine
 62
253
  6
CONTINUOUS
 10
-10.5781050106
 20
22.3341525772
 11
-10.5781050106
 21
23.2097560788
  0
LINE
  5
28D
100
AcDbEntity
  8
ASSI
100
AcDbLine
 62
253
  6
CONTINUOUS
 10
-10.5597924241
 20
-23.8443375673
 11
-10.5597924241
 21
-24.2106880219
  0
LINE
  5
28E
100
AcDbEntity
  8
ASSI
100
AcDbLine
 62
253
  6
CONTINUOUS
 10
-10.5597924241
 20
23.8443375673
 11
-10.5597924241
 21
24.2106880219
  0
LINE
  5
28F
100
AcDbEntity
  8
ASSI
100
AcDbLine
 62
253
  6
CONTINUOUS
 10
-10.4288985768
 20
-20.8772674193
 11
-10.4288985753
 21
20.8772674139
  0
LINE
  5
290
100
AcDbEntity
  8
ASSI
100
AcDbLine
 62
253
  6
CONTINUOUS
 10
-10.3598228851
 20
-23.844335488
 11
-10.3598228851
 21
-24.2106880219
  0
LINE
  5
291
100
AcDbEntity
  8
ASSI
100
AcDbLine
 62
253
  6
CONTINUOUS
 10
-10.3598228851
 20
23.844357602
 11
-10.3598228851
 21
24.2106880219
  0
LINE
  5
292
100
AcDbEntity
  8
ASSI
100
AcDbLine
 62
253
  6
CONTINUOUS
 10
-10.3281430868
 20
-23.1226497308
 11
-10.3281430868
 21
-22.3213883311
  0
LINE
  5
293
100
AcDbEntity
  8
ASSI
100
AcDbLine
 62
253
  6
CONTINUOUS
 10
-10.3281430868
 20
22.3213883311
 11
-10.3281430868
 21
23.1226497308
  0
LINE
  5
294
100
AcDbEntity
  8
ASSI
100
AcDbLine
 62
253
  6
CONTINUOUS
 10
-10.5781050106
 20
23.2097560788
 11
-10.5602288007
 21
23.8010362971
  0
LINE
  5
295
100
AcDbEntity
  8
ASSI
100
AcDbLine
 62
253
  6
CONTINUOUS
 10
-10.3756118279
 20
23.1200239821
 11
-10.3602579838
 21
23.6278734826
  0
LINE
  5
296
100
AcDbEntity
  8
ASSI
100
AcDbLine
 62
7
  6
CONTINUOUS
 10
-11.1392788824
 20
17.6339745962
 11
-11.1
 21
18.5
  0
LWPOLYLINE
  5
297
100
AcDbEntity
  8
0
100
AcDbPolyline
 62
7
  6
CONTINUOUS
 90
3
 70
0
 43
0.3500000006
 10
1.035714268
 20
36.4291687775
 10
0.9642857051
 20
36.2148842926
 10
0.8214285793
 20
35.9291686249
  0
LINE
  5
298
100
AcDbEntity
  8
ASSI
100
AcDbLine
 62
7
  6
CONTINUOUS
 10
-9.3
 20
-23.1226497308
 11
-9.2868325431
 21
-23.5581814706
  0
LINE
  5
299
100
AcDbEntity
  8
ASSI
100
AcDbLine
 62
7
  6
CONTINUOUS
 10
-9.3
 20
23.1226497308
 11
-9.3
 21
22.3213883311
  0
LINE
  5
29A
100
AcDbEntity
  8
ASSI
100
AcDbLine
 62
7
  6
CONTINUOUS
 10
-9.3
 20
-22.3213883311
 11
-9.3
 21
-23.1226497308
  0
LINE
  5
29B
100
AcDbEntity
  8
ASSI
100
AcDbLine
 62
253
  6
CONTINUOUS
 10
-9.2868325431
 20
-23.5581814706
 11
-9.2868325431
 21
-22.2818538361
  0
LINE
  5
29C
100
AcDbEntity
  8
ASSI
100
AcDbLine
 62
253
  6
CONTINUOUS
 10
-9.2868325431
 20
22.2818538361
 11
-9.2868325431
 21
23.5581814706
  0
LINE
  5
29D
100
AcDbEntity
  8
ASSI
100
AcDbLine
 62
253
  6
CONTINUOUS
 10
-9.0368706193
 20
-23.8443375673
 11
-9.0368706193
 21
-22.2689805518
  0
LINE
  5
29E
100
AcDbEntity
  8
ASSI
100
AcDbLine
 62
253
  6
CONTINUOUS
 10
-9.0368706193
 20
22.2689805518
 11
-9.0368706193
 21
23.8443375673
  0
LINE
  5
29F
100
AcDbEntity
  8
ASSI
100
AcDbLine
 62
253
  6
CONTINUOUS
 10
-8.7631293807
 20
-23.8443375673
 11
-8.7631293807
 21
-22.2689805518
  0
LINE
  5
2A0
100
AcDbEntity
  8
ASSI
100
AcDbLine
 62
253
  6
CONTINUOUS
 10
-8.7631293807
 20
22.2689805518
 11
-8.7631293807
 21
23.8443375673
  0
LINE
  5
2A1
100
AcDbEntity
  8
ASSI
100
AcDbLine
 62
253
  6
CONTINUOUS
 10
-8.5131674569
 20
-23.5581814706
 11
-8.5131674569
 21
-22.2818538361
  0
LINE
  5
2A2
100
AcDbEntity
  8
ASSI
100
AcDbLine
 62
253
  6
CONTINUOUS
 10
-8.5131674569
 20
22.2818538361
 11
-8.5131674569
 21
23.5581814706
  0
LINE
  5
2A3
100
AcDbEntity
  8
ASSI
100
AcDbLine
 62
7
  6
CONTINUOUS
 10
-8.5
 20
23.1226497308
 11
-8.5
 21
22.3213883311
  0
LINE
  5
2A4
100
AcDbEntity
  8
ASSI
100
AcDbLine
 62
7
  6
CONTINUOUS
 10
-8.5
 20
-22.3213883311
 11
-8.5
 21
-23.1226497308
  0
LINE
  5
2A5
100
AcDbEntity
  8
ASSI
100
AcDbLine
 62
7
  6
CONTINUOUS
 10
-9.2868325431
 20
23.5581814706
 11
-9.3
 21
23.1226497308
  0
LINE
  5
2A6
100
AcDbEntity
  8
ASSI
100
AcDbLine
 62
253
  6
CONTINUOUS
 10
10.400030461
 20
24.5
 11
10.3606804067
 21
24.4606499457
  0
LINE
  5
2A7
100
AcDbEntity
  8
ASSI
100
AcDbLine
 62
253
  6
CONTINUOUS
 10
10.6
 20
24.300030461
 11
10.5606499457
 21
24.2606804067
  0
LINE
  5
2A8
100
AcDbEntity
  8
ASSI
100
AcDbLine
 62
253
  6
CONTINUOUS
 10
10.400030461
 20
-24.5
 11
10.3606804067
 21
-24.4606499457
  0
LINE
  5
2A9
100
AcDbEntity
  8
ASSI
100
AcDbLine
 62
253
  6
CONTINUOUS
 10
10.6
 20
-24.300030461
 11
10.5606499457
 21
-24.2606804067
  0
LINE
  5
2AA
100
AcDbEntity
  8
ASSI
100
AcDbLine
 62
7
  6
CONTINUOUS
 10
-8.5131674569
 20
23.5581814706
 11
-8.5
 21
23.1226497308
  0
LINE
  5
2AB
100
AcDbEntity
  8
ASSI
100
AcDbLine
 62
253
  6
CONTINUOUS
 10
-7.4243881721
 20
23.1200239821
 11
-7.4397407629
 21
23.6278320282
  0
LINE
  5
2AC
100
AcDbEntity
  8
ASSI
100
AcDbLine
 62
253
  6
CONTINUOUS
 10
-7.2218949894
 20
23.2097560788
 11
-7.2397711993
 21
23.8010362971
  0
LINE
  5
2AD
100
AcDbEntity
  8
ASSI
100
AcDbLine
 62
253
  6
CONTINUOUS
 10
-7.4718569132
 20
-23.1226497308
 11
-7.4718569132
 21
-22.3213883311
  0
LINE
  5
2AE
100
AcDbEntity
  8
ASSI
100
AcDbLine
 62
253
  6
CONTINUOUS
 10
-7.4718569132
 20
22.3213883311
 11
-7.4718569132
 21
23.1226497308
  0
LINE
  5
2AF
100
AcDbEntity
  8
ASSI
100
AcDbLine
 62
253
  6
CONTINUOUS
 10
-7.4401771149
 20
-24.2106880219
 11
-7.4401771149
 21
-23.8443359311
  0
LINE
  5
2B0
100
AcDbEntity
  8
ASSI
100
AcDbLine
 62
253
  6
CONTINUOUS
 10
-7.4401771149
 20
23.8443375673
 11
-7.4401771149
 21
24.2106880219
  0
LINE
  5
2B1
100
AcDbEntity
  8
ASSI
100
AcDbLine
 62
253
  6
CONTINUOUS
 10
-7.2402075759
 20
-24.2106880219
 11
-7.2402075759
 21
-23.8443375673
  0
LINE
  5
2B2
100
AcDbEntity
  8
ASSI
100
AcDbLine
 62
253
  6
CONTINUOUS
 10
-7.2402075759
 20
23.8443375673
 11
-7.2402075759
 21
24.2106880219
  0
LINE
  5
2B3
100
AcDbEntity
  8
ASSI
100
AcDbLine
 62
253
  6
CONTINUOUS
 10
-7.2218949894
 20
23.2097560788
 11
-7.2218949894
 21
22.3342616154
  0
LINE
  5
2B4
100
AcDbEntity
  8
ASSI
100
AcDbLine
 62
253
  6
CONTINUOUS
 10
-7.2218949894
 20
-22.3342616154
 11
-7.2218949894
 21
-23.2097560788
  0
LINE
  5
2B5
100
AcDbEntity
  8
ASSI
100
AcDbLine
 62
7
  6
CONTINUOUS
 10
-7.2
 20
-24.300030461
 11
-7.2
 21
-22.4
  0
LINE
  5
2B6
100
AcDbEntity
  8
ASSI
100
AcDbLine
 62
7
  6
CONTINUOUS
 10
-7.2
 20
22.4
 11
-7.2
 21
24.300030461
  0
LINE
  5
2B7
100
AcDbEntity
  8
ASSI
100
AcDbLine
 62
7
  6
CONTINUOUS
 10
-8.5
 20
-23.1226497308
 11
-8.5131674569
 21
-23.5581814706
  0
LINE
  5
2B8
100
AcDbEntity
  8
ASSI
100
AcDbLine
 62
253
  6
CONTINUOUS
 10
-7.4397407383
 20
-23.6278312164
 11
-7.4243881721
 21
-23.1200239821
  0
LINE
  5
2B9
100
AcDbEntity
  8
ASSI
100
AcDbLine
 62
253
  6
CONTINUOUS
 10
-7.2397711993
 20
-23.8010362971
 11
-7.2218949894
 21
-23.2097560788
  0
LINE
  5
2BA
100
AcDbEntity
  8
ASSI
100
AcDbLine
 62
7
  6
CONTINUOUS
 10
-0.8052974461
 20
22.3840947378
 11
-0.8
 21
22.4
  0
LINE
  5
2BB
100
AcDbEntity
  8
ASSI
100
AcDbLine
 62
7
  6
CONTINUOUS
 10
-0.8
 20
-22.4
 11
-0.8052974461
 21
-22.3840947378
  0
LINE
  5
2BC
100
AcDbEntity
  8
ASSI
100
AcDbLine
 62
7
  6
CONTINUOUS
 10
-4.45
 20
-22.4
 11
-4.45
 21
-23.7500380762
  0
LINE
  5
2BD
100
AcDbEntity
  8
ASSI
100
AcDbLine
 62
7
  6
CONTINUOUS
 10
-4.45
 20
22.4
 11
-4.45
 21
23.7500380762
  0
LINE
  5
2BE
100
AcDbEntity
  8
ASSI
100
AcDbLine
 62
253
  6
CONTINUOUS
 10
-4.4447025539
 20
-22.3840947378
 11
-4.4447025539
 21
-23.7447406302
  0
LINE
  5
2BF
100
AcDbEntity
  8
ASSI
100
AcDbLine
 62
253
  6
CONTINUOUS
 10
-4.4447025539
 20
22.3840947378
 11
-4.4447025539
 21
23.7447406302
  0
LINE
  5
2C0
100
AcDbEntity
  8
ASSI
100
AcDbLine
 62
253
  6
CONTINUOUS
 10
-4.2447330149
 20
-22.3737961104
 11
-4.2447330149
 21
-23.7447406302
  0
LINE
  5
2C1
100
AcDbEntity
  8
ASSI
100
AcDbLine
 62
253
  6
CONTINUOUS
 10
-4.2447330149
 20
22.3737961104
 11
-4.2447330149
 21
23.7447406302
  0
LINE
  5
2C2
100
AcDbEntity
  8
ASSI
100
AcDbLine
 62
253
  6
CONTINUOUS
 10
-4.1947406302
 20
23.9947025539
 11
-4.1947406302
 21
23.7947330149
  0
LINE
  5
2C3
100
AcDbEntity
  8
ASSI
100
AcDbLine
 62
253
  6
CONTINUOUS
 10
-4.1947406302
 20
-23.7947330149
 11
-4.1947406302
 21
-23.9947025539
  0
LINE
  5
2C4
100
AcDbEntity
  8
ASSI
100
AcDbLine
 62
7
  6
CONTINUOUS
 10
4.45
 20
22.4
 11
4.4447025539
 21
22.3840947378
  0
LINE
  5
2C5
100
AcDbEntity
  8
ASSI
100
AcDbLine
 62
7
  6
CONTINUOUS
 10
4.45
 20
-22.4
 11
4.4447025539
 21
-22.3840947378
  0
LINE
  5
2C6
100
AcDbEntity
  8
ASSI
100
AcDbLine
 62
253
  6
CONTINUOUS
 10
-1.0552593698
 20
23.9947025539
 11
-1.0552593698
 21
23.7947330149
  0
LINE
  5
2C7
100
AcDbEntity
  8
ASSI
100
AcDbLine
 62
253
  6
CONTINUOUS
 10
-1.0552593698
 20
-23.7947330149
 11
-1.0552593698
 21
-23.9947025539
  0
LINE
  5
2C8
100
AcDbEntity
  8
ASSI
100
AcDbLine
 62
253
  6
CONTINUOUS
 10
-1.0052669851
 20
23.7447406302
 11
-1.0052669851
 21
22.3737961104
  0
LINE
  5
2C9
100
AcDbEntity
  8
ASSI
100
AcDbLine
 62
253
  6
CONTINUOUS
 10
-1.0052669851
 20
-23.7447406302
 11
-1.0052669851
 21
-22.3737961104
  0
LINE
  5
2CA
100
AcDbEntity
  8
ASSI
100
AcDbLine
 62
253
  6
CONTINUOUS
 10
-0.8052974461
 20
23.7447406302
 11
-0.8052974461
 21
22.3840947378
  0
LINE
  5
2CB
100
AcDbEntity
  8
ASSI
100
AcDbLine
 62
253
  6
CONTINUOUS
 10
-0.8052974461
 20
-23.7447406302
 11
-0.8052974461
 21
-22.3840947378
  0
LINE
  5
2CC
100
AcDbEntity
  8
ASSI
100
AcDbLine
 62
7
  6
CONTINUOUS
 10
-0.8
 20
-23.7500380762
 11
-0.8
 21
-22.4
  0
LINE
  5
2CD
100
AcDbEntity
  8
ASSI
100
AcDbLine
 62
7
  6
CONTINUOUS
 10
-0.8
 20
22.4
 11
-0.8
 21
23.7500380762
  0
LINE
  5
2CE
100
AcDbEntity
  8
ASSI
100
AcDbLine
 62
7
  6
CONTINUOUS
 10
-9.3
 20
-22.3213883311
 11
-9.2868325431
 21
-22.2818538361
  0
LINE
  5
2CF
100
AcDbEntity
  8
ASSI
100
AcDbLine
 62
253
  6
CONTINUOUS
 10
10.4128373368
 20
22.0243894438
 11
10.5657454716
 21
22.3304155561
  0
LINE
  5
2D0
100
AcDbEntity
  8
ASSI
100
AcDbLine
 62
253
  6
CONTINUOUS
 10
-11.1
 20
-21.8999997649
 11
-10.9126659988
 21
-21.5250746755
  0
LINE
  5
2D1
100
AcDbEntity
  8
ASSI
100
AcDbLine
 62
253
  6
CONTINUOUS
 10
11.1
 20
21.8999997649
 11
10.9126659988
 21
21.5250746755
  0
LWPOLYLINE
  5
2D2
100
AcDbEntity
  8
0
100
AcDbPolyline
 62
7
  6
CONTINUOUS
 90
2
 70
0
 43
0.3500000006
 10
23.335983284
 20
-1.3571429443
 10
21.8359828262
 20
-1.3571429443
  0
LINE
  5
2D3
100
AcDbEntity
  8
ASSI
100
AcDbLine
 62
253
  6
CONTINUOUS
 10
10.4128373357
 20
-22.0243894416
 11
10.5657454716
 21
-22.3304155561
  0
LINE
  5
2D4
100
AcDbEntity
  8
ASSI
100
AcDbLine
 62
253
  6
CONTINUOUS
 10
-10.9126659982
 20
21.5250746743
 11
-11.1
 21
21.8999997649
  0
LINE
  5
2D5
100
AcDbEntity
  8
ASSI
100
AcDbLine
 62
253
  6
CONTINUOUS
 10
10.9126659982
 20
-21.5250746743
 11
11.1
 21
-21.8999997649
  0
LINE
  5
2D6
100
AcDbEntity
  8
ASSI
100
AcDbLine
 62
7
  6
CONTINUOUS
 10
-9.3
 20
22.3213883311
 11
-9.2868325431
 21
22.2818538361
  0
LINE
  5
2D7
100
AcDbEntity
  8
ASSI
100
AcDbLine
 62
7
  6
CONTINUOUS
 10
0.8
 20
-23.7500380762
 11
0.8
 21
-22.4
  0
LINE
  5
2D8
100
AcDbEntity
  8
ASSI
100
AcDbLine
 62
7
  6
CONTINUOUS
 10
0.8
 20
22.4
 11
0.8
 21
23.7500380762
  0
LINE
  5
2D9
100
AcDbEntity
  8
ASSI
100
AcDbLine
 62
253
  6
CONTINUOUS
 10
0.8052974461
 20
23.7447406302
 11
0.8052974461
 21
22.3840947378
  0
LINE
  5
2DA
100
AcDbEntity
  8
ASSI
100
AcDbLine
 62
253
  6
CONTINUOUS
 10
0.8052974461
 20
-22.3840947378
 11
0.8052974461
 21
-23.7447406302
  0
LINE
  5
2DB
100
AcDbEntity
  8
ASSI
100
AcDbLine
 62
253
  6
CONTINUOUS
 10
1.0052669851
 20
23.7447406302
 11
1.0052669851
 21
22.3737961104
  0
LINE
  5
2DC
100
AcDbEntity
  8
ASSI
100
AcDbLine
 62
253
  6
CONTINUOUS
 10
1.0052669851
 20
-22.3737961104
 11
1.0052669851
 21
-23.7447406302
  0
LINE
  5
2DD
100
AcDbEntity
  8
ASSI
100
AcDbLine
 62
253
  6
CONTINUOUS
 10
1.0552593698
 20
-23.7947330149
 11
1.0552593698
 21
-23.9947025539
  0
LINE
  5
2DE
100
AcDbEntity
  8
ASSI
100
AcDbLine
 62
253
  6
CONTINUOUS
 10
1.0552593698
 20
23.7947330149
 11
1.0552593698
 21
23.9947025539
  0
LINE
  5
2DF
100
AcDbEntity
  8
ASSI
100
AcDbLine
 62
7
  6
CONTINUOUS
 10
9.3
 20
22.3213883311
 11
9.2868325431
 21
22.2818538361
  0
LINE
  5
2E0
100
AcDbEntity
  8
ASSI
100
AcDbLine
 62
253
  6
CONTINUOUS
 10
-10.5657454716
 20
-22.3304155561
 11
-10.4128373368
 21
-22.0243894438
  0
LINE
  5
2E1
100
AcDbEntity
  8
ASSI
100
AcDbLine
 62
253
  6
CONTINUOUS
 10
-10.5657454716
 20
22.3304155561
 11
-10.4128373357
 21
22.0243894416
  0
LINE
  5
2E2
100
AcDbEntity
  8
ASSI
100
AcDbLine
 62
7
  6
CONTINUOUS
 10
9.3
 20
-22.3213883311
 11
9.2868325431
 21
-22.2818538361
  0
LINE
  5
2E3
100
AcDbEntity
  8
ASSI
100
AcDbLine
 62
253
  6
CONTINUOUS
 10
4.1947406302
 20
-23.7947330149
 11
4.1947406302
 21
-23.9947025539
  0
LINE
  5
2E4
100
AcDbEntity
  8
ASSI
100
AcDbLine
 62
253
  6
CONTINUOUS
 10
4.1947406302
 20
23.7947330149
 11
4.1947406302
 21
23.9947025539
  0
LINE
  5
2E5
100
AcDbEntity
  8
ASSI
100
AcDbLine
 62
253
  6
CONTINUOUS
 10
4.2447330149
 20
-23.7447406302
 11
4.2447330149
 21
-22.3737961104
  0
LINE
  5
2E6
100
AcDbEntity
  8
ASSI
100
AcDbLine
 62
253
  6
CONTINUOUS
 10
4.2447330149
 20
22.3737961104
 11
4.2447330149
 21
23.7447406302
  0
LINE
  5
2E7
100
AcDbEntity
  8
ASSI
100
AcDbLine
 62
253
  6
CONTINUOUS
 10
4.4447025539
 20
-23.7447406302
 11
4.4447025539
 21
-22.3840947378
  0
LINE
  5
2E8
100
AcDbEntity
  8
ASSI
100
AcDbLine
 62
253
  6
CONTINUOUS
 10
4.4447025539
 20
22.3840947378
 11
4.4447025539
 21
23.7447406302
  0
LINE
  5
2E9
100
AcDbEntity
  8
ASSI
100
AcDbLine
 62
7
  6
CONTINUOUS
 10
4.45
 20
-22.4
 11
4.45
 21
-23.7500380762
  0
LINE
  5
2EA
100
AcDbEntity
  8
ASSI
100
AcDbLine
 62
7
  6
CONTINUOUS
 10
4.45
 20
22.4
 11
4.45
 21
23.7500380762
  0
LINE
  5
2EB
100
AcDbEntity
  8
ASSI
100
AcDbLine
 62
7
  6
CONTINUOUS
 10
-4.45
 20
-22.4
 11
-4.4447025539
 21
-22.3840947378
  0
LINE
  5
2EC
100
AcDbEntity
  8
ASSI
100
AcDbLine
 62
7
  6
CONTINUOUS
 10
-4.45
 20
22.4
 11
-4.4447025539
 21
22.3840947378
  0
LINE
  5
2ED
100
AcDbEntity
  8
ASSI
100
AcDbLine
 62
253
  6
CONTINUOUS
 10
7.2218949894
 20
-23.2097560788
 11
7.2397711993
 21
-23.8010362971
  0
LINE
  5
2EE
100
AcDbEntity
  8
ASSI
100
AcDbLine
 62
253
  6
CONTINUOUS
 10
7.2397711993
 20
23.8010362971
 11
7.2218949894
 21
23.2097560788
  0
LINE
  5
2EF
100
AcDbEntity
  8
ASSI
100
AcDbLine
 62
253
  6
CONTINUOUS
 10
7.4243881721
 20
-23.1200239821
 11
7.4397407383
 21
-23.6278312164
  0
LINE
  5
2F0
100
AcDbEntity
  8
ASSI
100
AcDbLine
 62
7
  6
CONTINUOUS
 10
8.5
 20
-23.1226497308
 11
8.5131674569
 21
-23.5581814706
  0
LINE
  5
2F1
100
AcDbEntity
  8
ASSI
100
AcDbLine
 62
7
  6
CONTINUOUS
 10
7.2
 20
-22.4
 11
7.2
 21
-24.300030461
  0
LINE
  5
2F2
100
AcDbEntity
  8
ASSI
100
AcDbLine
 62
7
  6
CONTINUOUS
 10
7.2
 20
22.4
 11
7.2
 21
24.300030461
  0
LINE
  5
2F3
100
AcDbEntity
  8
ASSI
100
AcDbLine
 62
253
  6
CONTINUOUS
 10
7.2218949894
 20
-23.2097560788
 11
7.2218949894
 21
-22.3342616154
  0
LINE
  5
2F4
100
AcDbEntity
  8
ASSI
100
AcDbLine
 62
253
  6
CONTINUOUS
 10
7.2218949894
 20
22.3342616154
 11
7.2218949894
 21
23.2097560788
  0
LINE
  5
2F5
100
AcDbEntity
  8
ASSI
100
AcDbLine
 62
253
  6
CONTINUOUS
 10
7.2402075759
 20
24.2106880219
 11
7.2402075759
 21
23.8443375673
  0
LINE
  5
2F6
100
AcDbEntity
  8
ASSI
100
AcDbLine
 62
253
  6
CONTINUOUS
 10
7.2402075759
 20
-23.8443375673
 11
7.2402075759
 21
-24.2106880219
  0
LINE
  5
2F7
100
AcDbEntity
  8
ASSI
100
AcDbLine
 62
253
  6
CONTINUOUS
 10
7.4401771149
 20
24.2106880219
 11
7.4401771149
 21
23.8443375673
  0
LINE
  5
2F8
100
AcDbEntity
  8
ASSI
100
AcDbLine
 62
253
  6
CONTINUOUS
 10
7.4401771149
 20
-23.844335488
 11
7.4401771149
 21
-24.2106880219
  0
LINE
  5
2F9
100
AcDbEntity
  8
ASSI
100
AcDbLine
 62
253
  6
CONTINUOUS
 10
7.4718569132
 20
23.1226497308
 11
7.4718569132
 21
22.3213883311
  0
LINE
  5
2FA
100
AcDbEntity
  8
ASSI
100
AcDbLine
 62
253
  6
CONTINUOUS
 10
7.4718569132
 20
-22.3213883311
 11
7.4718569132
 21
-23.1226497308
  0
LINE
  5
2FB
100
AcDbEntity
  8
ASSI
100
AcDbLine
 62
7
  6
CONTINUOUS
 10
8.5
 20
23.1226497308
 11
8.5
 21
22.3213883311
  0
LINE
  5
2FC
100
AcDbEntity
  8
ASSI
100
AcDbLine
 62
7
  6
CONTINUOUS
 10
8.5
 20
-22.3213883311
 11
8.5
 21
-23.1226497308
  0
LINE
  5
2FD
100
AcDbEntity
  8
ASSI
100
AcDbLine
 62
253
  6
CONTINUOUS
 10
8.5131674569
 20
-23.5581814706
 11
8.5131674569
 21
-22.2818538361
  0
LINE
  5
2FE
100
AcDbEntity
  8
ASSI
100
AcDbLine
 62
253
  6
CONTINUOUS
 10
8.5131674569
 20
22.2818538361
 11
8.5131674569
 21
23.5581814706
  0
LINE
  5
2FF
100
AcDbEntity
  8
ASSI
100
AcDbLine
 62
253
  6
CONTINUOUS
 10
7.4397407694
 20
23.6278322442
 11
7.4243881721
 21
23.1200239821
  0
LINE
  5
300
100
AcDbEntity
  8
ASSI
100
AcDbLine
 62
7
  6
CONTINUOUS
 10
8.5131674569
 20
23.5581814706
 11
8.5
 21
23.1226497308
  0
LINE
  5
301
100
AcDbEntity
  8
ASSI
100
AcDbLine
 62
7
  6
CONTINUOUS
 10
0.8052974461
 20
22.3840947378
 11
0.8
 21
22.4
  0
LINE
  5
302
100
AcDbEntity
  8
ASSI
100
AcDbLine
 62
7
  6
CONTINUOUS
 10
9.2868325431
 20
23.5581814706
 11
9.3
 21
23.1226497308
  0
LINE
  5
303
100
AcDbEntity
  8
ASSI
100
AcDbLine
 62
253
  6
CONTINUOUS
 10
8.7631293807
 20
-23.8443375673
 11
8.7631293807
 21
-22.2689805518
  0
LINE
  5
304
100
AcDbEntity
  8
ASSI
100
AcDbLine
 62
253
  6
CONTINUOUS
 10
8.7631293807
 20
22.2689805518
 11
8.7631293807
 21
23.8443375673
  0
LINE
  5
305
100
AcDbEntity
  8
ASSI
100
AcDbLine
 62
253
  6
CONTINUOUS
 10
9.0368706193
 20
-23.8443375673
 11
9.0368706193
 21
-22.2689805518
  0
LINE
  5
306
100
AcDbEntity
  8
ASSI
100
AcDbLine
 62
253
  6
CONTINUOUS
 10
9.0368706193
 20
22.2689805518
 11
9.0368706193
 21
23.8443375673
  0
LINE
  5
307
100
AcDbEntity
  8
ASSI
100
AcDbLine
 62
253
  6
CONTINUOUS
 10
9.2868325431
 20
-23.5581814706
 11
9.2868325431
 21
-22.2818538361
  0
LINE
  5
308
100
AcDbEntity
  8
ASSI
100
AcDbLine
 62
253
  6
CONTINUOUS
 10
9.2868325431
 20
22.2818538361
 11
9.2868325431
 21
23.5581814706
  0
LINE
  5
309
100
AcDbEntity
  8
ASSI
100
AcDbLine
 62
7
  6
CONTINUOUS
 10
9.3
 20
23.1226497308
 11
9.3
 21
22.3213883311
  0
LINE
  5
30A
100
AcDbEntity
  8
ASSI
100
AcDbLine
 62
7
  6
CONTINUOUS
 10
9.3
 20
-22.3213883311
 11
9.3
 21
-23.1226497308
  0
LINE
  5
30B
100
AcDbEntity
  8
ASSI
100
AcDbLine
 62
253
  6
CONTINUOUS
 10
10.3281430868
 20
23.1226497308
 11
10.3281430868
 21
22.3213883311
  0
LINE
  5
30C
100
AcDbEntity
  8
ASSI
100
AcDbLine
 62
253
  6
CONTINUOUS
 10
10.3281430868
 20
-22.3213883311
 11
10.3281430868
 21
-23.1226497308
  0
LINE
  5
30D
100
AcDbEntity
  8
ASSI
100
AcDbLine
 62
253
  6
CONTINUOUS
 10
10.3598228851
 20
24.2106880219
 11
10.3598228851
 21
23.8443575944
  0
LINE
  5
30E
100
AcDbEntity
  8
ASSI
100
AcDbLine
 62
253
  6
CONTINUOUS
 10
10.3598228851
 20
-24.2106880219
 11
10.3598228851
 21
-23.8443359311
  0
LINE
  5
30F
100
AcDbEntity
  8
ASSI
100
AcDbLine
 62
253
  6
CONTINUOUS
 10
10.4288985767
 20
20.8772674161
 11
10.4288985753
 21
-20.8772674171
  0
LINE
  5
310
100
AcDbEntity
  8
ASSI
100
AcDbLine
 62
253
  6
CONTINUOUS
 10
10.5597924241
 20
24.2106880219
 11
10.5597924241
 21
23.8443375673
  0
LINE
  5
311
100
AcDbEntity
  8
ASSI
100
AcDbLine
 62
253
  6
CONTINUOUS
 10
10.5597924241
 20
-24.2106880219
 11
10.5597924241
 21
-23.8443375673
  0
LINE
  5
312
100
AcDbEntity
  8
ASSI
100
AcDbLine
 62
253
  6
CONTINUOUS
 10
10.5781050106
 20
23.2097560788
 11
10.5781050106
 21
22.3341525772
  0
LINE
  5
313
100
AcDbEntity
  8
ASSI
100
AcDbLine
 62
253
  6
CONTINUOUS
 10
10.5781050106
 20
-22.3341525772
 11
10.5781050106
 21
-23.2097560788
  0
LINE
  5
314
100
AcDbEntity
  8
ASSI
100
AcDbLine
 62
7
  6
CONTINUOUS
 10
10.6
 20
-24.300030461
 11
10.6
 21
-22.3999997358
  0
LINE
  5
315
100
AcDbEntity
  8
ASSI
100
AcDbLine
 62
7
  6
CONTINUOUS
 10
10.6000000646
 20
22.3999999296
 11
10.6
 21
24.300030461
  0
LINE
  5
316
100
AcDbEntity
  8
ASSI
100
AcDbLine
 62
7
  6
CONTINUOUS
 10
9.3
 20
-23.1226497308
 11
9.2868325431
 21
-23.5581814706
  0
LINE
  5
317
100
AcDbEntity
  8
ASSI
100
AcDbLine
 62
253
  6
CONTINUOUS
 10
-10.5606499457
 20
-24.2606804067
 11
-10.6
 21
-24.300030461
  0
LINE
  5
318
100
AcDbEntity
  8
ASSI
100
AcDbLine
 62
253
  6
CONTINUOUS
 10
-10.3606804067
 20
-24.4606499457
 11
-10.400030461
 21
-24.5
  0
LINE
  5
319
100
AcDbEntity
  8
ASSI
100
AcDbLine
 62
253
  6
CONTINUOUS
 10
-10.5606499457
 20
24.2606804067
 11
-10.6
 21
24.300030461
  0
LINE
  5
31A
100
AcDbEntity
  8
ASSI
100
AcDbLine
 62
253
  6
CONTINUOUS
 10
-10.3606804067
 20
24.4606499457
 11
-10.400030461
 21
24.5
  0
LINE
  5
31B
100
AcDbEntity
  8
ASSI
100
AcDbLine
 62
7
  6
CONTINUOUS
 10
11.1392788824
 20
17.6339745962
 11
11.1
 21
18.5
  0
LINE
  5
31C
100
AcDbEntity
  8
ASSI
100
AcDbLine
 62
253
  6
CONTINUOUS
 10
10.360257984
 20
23.6278734767
 11
10.3756118279
 21
23.1200239821
  0
LINE
  5
31D
100
AcDbEntity
  8
ASSI
100
AcDbLine
 62
253
  6
CONTINUOUS
 10
10.5602288007
 20
23.8010362971
 11
10.5781050106
 21
23.2097560788
  0
LINE
  5
31E
100
AcDbEntity
  8
ASSI
100
AcDbLine
 62
7
  6
CONTINUOUS
 10
11.1
 20
21.9000761524
 11
11.1
 21
18.5
  0
LINE
  5
31F
100
AcDbEntity
  8
ASSI
100
AcDbLine
 62
7
  6
CONTINUOUS
 10
11.1
 20
-21.9000761524
 11
11.1
 21
-18.5
  0
LINE
  5
320
100
AcDbEntity
  8
ASSI
100
AcDbLine
 62
7
  6
CONTINUOUS
 10
11.1392788824
 20
-17.6339745962
 11
11.1392788824
 21
17.6339745962
  0
LINE
  5
321
100
AcDbEntity
  8
RACCORDO
100
AcDbLine
 62
7
  6
CONTINUOUS
 10
11.15
 20
17.6716990487
 11
11.15
 21
-17.6716990487
  0
LINE
  5
322
100
AcDbEntity
  8
ASSI
100
AcDbLine
 62
7
  6
CONTINUOUS
 10
11.15
 20
17.6716990487
 11
11.15
 21
-17.6716990487
  0
LINE
  5
323
100
AcDbEntity
  8
ASSI
100
AcDbLine
 62
253
  6
CONTINUOUS
 10
10.3602592617
 20
-23.6278312164
 11
10.3756118279
 21
-23.1200239821
  0
LINE
  5
324
100
AcDbEntity
  8
ASSI
100
AcDbLine
 62
253
  6
CONTINUOUS
 10
10.5602288007
 20
-23.8010362971
 11
10.5781050106
 21
-23.2097560788
  0
LINE
  5
325
100
AcDbEntity
  8
ASSI
100
AcDbLine
 62
7
  6
CONTINUOUS
 10
11.1
 20
-18.5
 11
11.1392788824
 21
-17.6339745962
  0
LINE
  5
326
100
AcDbEntity
  8
ASSI
100
AcDbLine
 62
7
  6
CONTINUOUS
 10
7.2
 20
-22.4
 11
7.2218949894
 21
-22.3342616154
  0
LINE
  5
327
100
AcDbEntity
  8
ASSI
100
AcDbLine
 62
253
  6
CONTINUOUS
 10
-4.4447025539
 20
-23.7447406302
 11
-4.45
 21
-23.7500380762
  0
LINE
  5
328
100
AcDbEntity
  8
ASSI
100
AcDbLine
 62
253
  6
CONTINUOUS
 10
-4.1947406302
 20
-23.9947025539
 11
-4.2000380762
 21
-24.0
  0
LINE
  5
329
100
AcDbEntity
  8
ASSI
100
AcDbLine
 62
253
  6
CONTINUOUS
 10
-4.45
 20
23.7500380762
 11
-4.4447025539
 21
23.7447406302
  0
LINE
  5
32A
100
AcDbEntity
  8
ASSI
100
AcDbLine
 62
7
  6
CONTINUOUS
 10
7.2218949894
 20
22.3342616154
 11
7.2
 21
22.4
  0
LINE
  5
32B
100
AcDbEntity
  8
ASSI
100
AcDbLine
 62
7
  6
CONTINUOUS
 10
8.5
 20
-22.3213883311
 11
8.5131674569
 21
-22.2818538361
  0
LWPOLYLINE
  5
32C
100
AcDbEntity
  8
0
100
AcDbPolyline
 62
7
  6
CONTINUOUS
 90
10
 70
0
 43
0.3500000006
 10
23.335983284
 20
0.4285709152
 10
22.4788385468
 20
1.2857133865
 10
21.6216960754
 20
1.5000001373
 10
20.7645536041
 20
1.5000001373
 10
20.3359823685
 20
1.0714289017
 10
20.3359823685
 20
0.4285709152
 10
20.7645536041
 20
-0.0000003204
 10
21.6216960754
 20
-0.0000003204
 10
22.0502673111
 20
0.4285709152
 10
22.0502673111
 20
1.3571423035
  0
LINE
  5
32D
100
AcDbEntity
  8
ASSI
100
AcDbLine
 62
7
  6
CONTINUOUS
 10
8.5
 20
22.3213883311
 11
8.5131674569
 21
22.2818538361
  0
LINE
  5
32E
100
AcDbEntity
  8
ASSI
100
AcDbLine
 62
253
  6
CONTINUOUS
 10
0.8052974461
 20
-23.7447406302
 11
0.8
 21
-23.7500380762
  0
LINE
  5
32F
100
AcDbEntity
  8
ASSI
100
AcDbLine
 62
253
  6
CONTINUOUS
 10
1.0552593698
 20
-23.9947025539
 11
1.0499619238
 21
-24.0
  0
LINE
  5
330
100
AcDbEntity
  8
ASSI
100
AcDbLine
 62
253
  6
CONTINUOUS
 10
0.8
 20
23.7500380762
 11
0.8052974461
 21
23.7447406302
  0
LINE
  5
331
100
AcDbEntity
  8
ASSI
100
AcDbLine
 62
253
  6
CONTINUOUS
 10
1.0499619238
 20
24.0
 11
1.0552593698
 21
23.9947025539
  0
LWPOLYLINE
  5
332
100
AcDbEntity
  8
0
100
AcDbPolyline
 62
7
  6
CONTINUOUS
 90
10
 70
0
 43
0.3500000006
 10
0.9642857051
 20
36.6434577942
 10
1.035714268
 20
36.5005999603
 10
1.035714268
 20
36.4291687775
 10
0.8928571422
 20
36.2863154755
 10
0.8214285793
 20
36.2863154755
 10
0.7500000165
 20
36.3577421265
 10
0.7500000165
 20
36.4291687775
 10
0.8214285793
 20
36.5720266113
 10
0.8928571422
 20
36.6434577942
 10
0.9642857051
 20
36.6434577942
  0
LWPOLYLINE
  5
333
100
AcDbEntity
  8
0
100
AcDbPolyline
 62
7
  6
CONTINUOUS
 90
3
 70
0
 43
0.3500000006
 10
22.6931252975
 20
-0.8571427917
 10
22.6931252975
 20
-2.3571432495
 10
20.3359823685
 20
-1.7142852631
  0
LINE
  5
334
100
AcDbEntity
  8
ASSI
100
AcDbLine
 62
253
  6
CONTINUOUS
 10
7.2393500543
 20
-24.2606804067
 11
7.2
 21
-24.300030461
  0
LINE
  5
335
100
AcDbEntity
  8
ASSI
100
AcDbLine
 62
253
  6
CONTINUOUS
 10
7.4393195933
 20
-24.4606499457
 11
7.399969539
 21
-24.5
  0
LINE
  5
336
100
AcDbEntity
  8
ASSI
100
AcDbLine
 62
7
  6
CONTINUOUS
 10
9.0368706193
 20
22.2689805518
 11
8.7631293807
 21
22.2689805518
  0
LINE
  5
337
100
AcDbEntity
  8
ASSI
100
AcDbLine
 62
7
  6
CONTINUOUS
 10
-8.7631293807
 20
22.2689805518
 11
-9.0368706193
 21
22.2689805518
  0
LINE
  5
338
100
AcDbEntity
  8
ASSI
100
AcDbLine
 62
7
  6
CONTINUOUS
 10
-10.3281430868
 20
22.3213883311
 11
-9.3
 21
22.3213883311
  0
LINE
  5
339
100
AcDbEntity
  8
ASSI
100
AcDbLine
 62
7
  6
CONTINUOUS
 10
-8.5
 20
22.3213883311
 11
-7.4718569132
 21
22.3213883311
  0
LINE
  5
33A
100
AcDbEntity
  8
ASSI
100
AcDbLine
 62
7
  6
CONTINUOUS
 10
7.4718569132
 20
22.3213883311
 11
8.5
 21
22.3213883311
  0
LINE
  5
33B
100
AcDbEntity
  8
ASSI
100
AcDbLine
 62
7
  6
CONTINUOUS
 10
9.3
 20
22.3213883311
 11
10.3281430868
 21
22.3213883311
  0
LINE
  5
33C
100
AcDbEntity
  8
ASSI
100
AcDbLine
 62
7
  6
CONTINUOUS
 10
4.2447330149
 20
22.3737961104
 11
1.0052669851
 21
22.3737961104
  0
LINE
  5
33D
100
AcDbEntity
  8
ASSI
100
AcDbLine
 62
7
  6
CONTINUOUS
 10
-1.0052669851
 20
22.3737961104
 11
-4.2447330149
 21
22.3737961104
  0
LINE
  5
33E
100
AcDbEntity
  8
ASSI
100
AcDbLine
 62
7
  6
CONTINUOUS
 10
-7.2
 20
22.4
 11
-4.45
 21
22.4
  0
LINE
  5
33F
100
AcDbEntity
  8
ASSI
100
AcDbLine
 62
7
  6
CONTINUOUS
 10
-0.8
 20
22.4
 11
0.8
 21
22.4
  0
LINE
  5
340
100
AcDbEntity
  8
ASSI
100
AcDbLine
 62
7
  6
CONTINUOUS
 10
4.45
 20
22.4
 11
7.2
 21
22.4
  0
LINE
  5
341
100
AcDbEntity
  8
ASSI
100
AcDbLine
 62
7
  6
CONTINUOUS
 10
-10.3281430868
 20
23.1226497308
 11
-9.3
 21
23.1226497308
  0
LINE
  5
342
100
AcDbEntity
  8
ASSI
100
AcDbLine
 62
7
  6
CONTINUOUS
 10
-8.5
 20
23.1226497308
 11
-7.4718569132
 21
23.1226497308
  0
LINE
  5
343
100
AcDbEntity
  8
ASSI
100
AcDbLine
 62
7
  6
CONTINUOUS
 10
7.4718569132
 20
23.1226497308
 11
8.5
 21
23.1226497308
  0
LINE
  5
344
100
AcDbEntity
  8
ASSI
100
AcDbLine
 62
7
  6
CONTINUOUS
 10
9.3
 20
23.1226497308
 11
10.3281430868
 21
23.1226497308
  0
LINE
  5
345
100
AcDbEntity
  8
ASSI
100
AcDbLine
 62
253
  6
CONTINUOUS
 10
7.2
 20
24.300030461
 11
7.2393500543
 21
24.2606804067
  0
LINE
  5
346
100
AcDbEntity
  8
ASSI
100
AcDbLine
 62
253
  6
CONTINUOUS
 10
7.399969539
 20
24.5
 11
7.4393195933
 21
24.4606499457
  0
LINE
  5
347
100
AcDbEntity
  8
ASSI
100
AcDbLine
 62
253
  6
CONTINUOUS
 10
-10.3602579838
 20
23.6278734826
 11
-9.2533769702
 21
23.6278312163
  0
LINE
  5
348
100
AcDbEntity
  8
ASSI
100
AcDbLine
 62
253
  6
CONTINUOUS
 10
9.2533769702
 20
23.6278312163
 11
10.360257984
 21
23.6278734767
  0
LINE
  5
349
100
AcDbEntity
  8
ASSI
100
AcDbLine
 62
253
  6
CONTINUOUS
 10
-8.5466230298
 20
23.6278312163
 11
-7.4397407629
 21
23.6278320282
  0
LINE
  5
34A
100
AcDbEntity
  8
ASSI
100
AcDbLine
 62
253
  6
CONTINUOUS
 10
7.4397407694
 20
23.6278322442
 11
8.5466230298
 21
23.6278312163
  0
LINE
  5
34B
100
AcDbEntity
  8
ASSI
100
AcDbLine
 62
253
  6
CONTINUOUS
 10
-4.4447025539
 20
23.7447406302
 11
-4.2447330149
 21
23.7447406302
  0
LINE
  5
34C
100
AcDbEntity
  8
ASSI
100
AcDbLine
 62
253
  6
CONTINUOUS
 10
1.0052669851
 20
23.7447406302
 11
0.8052974461
 21
23.7447406302
  0
LINE
  5
34D
100
AcDbEntity
  8
ASSI
100
AcDbLine
 62
253
  6
CONTINUOUS
 10
-0.8052974461
 20
23.7447406302
 11
-1.0052669851
 21
23.7447406302
  0
LINE
  5
34E
100
AcDbEntity
  8
ASSI
100
AcDbLine
 62
253
  6
CONTINUOUS
 10
4.2447330149
 20
23.7447406302
 11
4.4447025539
 21
23.7447406302
  0
LINE
  5
34F
100
AcDbEntity
  8
ASSI
100
AcDbLine
 62
253
  6
CONTINUOUS
 10
-4.1947406302
 20
23.7947330149
 11
-1.0552593698
 21
23.7947330149
  0
LINE
  5
350
100
AcDbEntity
  8
ASSI
100
AcDbLine
 62
253
  6
CONTINUOUS
 10
4.1947406302
 20
23.7947330149
 11
1.0552593698
 21
23.7947330149
  0
LINE
  5
351
100
AcDbEntity
  8
ASSI
100
AcDbLine
 62
253
  6
CONTINUOUS
 10
-10.5597924241
 20
23.8443375673
 11
-9.0368706193
 21
23.8443375673
  0
LINE
  5
352
100
AcDbEntity
  8
ASSI
100
AcDbLine
 62
253
  6
CONTINUOUS
 10
10.5597924241
 20
23.8443375673
 11
9.0368706193
 21
23.8443375673
  0
LINE
  5
353
100
AcDbEntity
  8
ASSI
100
AcDbLine
 62
253
  6
CONTINUOUS
 10
8.7631293807
 20
23.8443375673
 11
7.2402075759
 21
23.8443375673
  0
LINE
  5
354
100
AcDbEntity
  8
ASSI
100
AcDbLine
 62
253
  6
CONTINUOUS
 10
-7.2402075759
 20
23.8443375673
 11
-8.7631293807
 21
23.8443375673
  0
LINE
  5
355
100
AcDbEntity
  8
ASSI
100
AcDbLine
 62
253
  6
CONTINUOUS
 10
-4.1947435224
 20
23.9947025539
 11
-1.0552593698
 21
23.9947025539
  0
LINE
  5
356
100
AcDbEntity
  8
ASSI
100
AcDbLine
 62
253
  6
CONTINUOUS
 10
4.1947406302
 20
23.9947025539
 11
1.0552593698
 21
23.9947025539
  0
LINE
  5
357
100
AcDbEntity
  8
ASSI
100
AcDbLine
 62
7
  6
CONTINUOUS
 10
-4.2000380762
 20
24.0
 11
-1.0499619238
 21
24.0
  0
LINE
  5
358
100
AcDbEntity
  8
ASSI
100
AcDbLine
 62
7
  6
CONTINUOUS
 10
1.0499619238
 20
24.0
 11
4.2000380762
 21
24.0
  0
LINE
  5
359
100
AcDbEntity
  8
ASSI
100
AcDbLine
 62
253
  6
CONTINUOUS
 10
10.5597924241
 20
24.2106880219
 11
7.2402075759
 21
24.2106880219
  0
LINE
  5
35A
100
AcDbEntity
  8
ASSI
100
AcDbLine
 62
253
  6
CONTINUOUS
 10
-7.2402075759
 20
24.2106880219
 11
-10.5597924241
 21
24.2106880219
  0
LINE
  5
35B
100
AcDbEntity
  8
ASSI
100
AcDbLine
 62
253
  6
CONTINUOUS
 10
10.3606804067
 20
24.4606499457
 11
7.4393195933
 21
24.4606499457
  0
LINE
  5
35C
100
AcDbEntity
  8
ASSI
100
AcDbLine
 62
253
  6
CONTINUOUS
 10
-7.4393195933
 20
24.4606499457
 11
-10.3606804067
 21
24.4606499457
  0
LINE
  5
35D
100
AcDbEntity
  8
ASSI
100
AcDbLine
 62
7
  6
CONTINUOUS
 10
-10.400030461
 20
24.5
 11
-7.399969539
 21
24.5
  0
LINE
  5
35E
100
AcDbEntity
  8
ASSI
100
AcDbLine
 62
7
  6
CONTINUOUS
 10
7.399969539
 20
24.5
 11
10.400030461
 21
24.5
  0
LWPOLYLINE
  5
35F
100
AcDbEntity
  8
0
100
AcDbPolyline
 62
7
  6
CONTINUOUS
 90
7
 70
0
 43
0.3500000006
 10
3.5357143936
 20
36.1434576416
 10
2.0357142191
 20
36.1434576416
 10
3.5357143936
 20
38.286311554
 10
3.5357143936
 20
38.7148850555
 10
3.1071428747
 20
39.1434585571
 10
2.464285738
 20
39.1434585571
 10
2.0357142191
 20
38.5006005707
  0
LWPOLYLINE
  5
360
100
AcDbEntity
  8
0
100
AcDbPolyline
 62
7
  6
CONTINUOUS
 90
7
 70
0
 43
0.3500000006
 10
-0.5357142924
 20
36.1434576416
 10
-2.0357142191
 20
36.1434576416
 10
-0.5357142924
 20
38.286311554
 10
-0.5357142924
 20
38.7148850555
 10
-0.9642857051
 20
39.1434585571
 10
-1.6071428418
 20
39.1434585571
 10
-2.0357142191
 20
38.5006005707
  0
LWPOLYLINE
  5
361
100
AcDbEntity
  8
0
100
AcDbPolyline
 62
7
  6
CONTINUOUS
 90
7
 70
0
 43
0.3500000006
 10
-2.8928572569
 20
36.1434576416
 10
-4.3928571482
 20
36.1434576416
 10
-2.8928572569
 20
38.286311554
 10
-2.8928572569
 20
38.7148850555
 10
-3.3214284925
 20
39.1434585571
 10
-3.9642856293
 20
39.1434585571
 10
-4.3928571482
 20
38.5006005707
  0
LWPOLYLINE
  5
362
100
AcDbEntity
  8
0
100
AcDbPolyline
 62
7
  6
CONTINUOUS
 90
10
 70
0
 43
0.3500000006
 10
-59.6038476105
 20
49.143457077
 10
-60.2467055969
 20
48.5005990906
 10
-60.6752745667
 20
47.6434566193
 10
-60.6752745667
 20
46.5720296631
 10
-60.2467055969
 20
46.1434561615
 10
-59.6038476105
 20
46.1434561615
 10
-59.1752741089
 20
46.5720296631
 10
-59.1752741089
 20
47.4291721344
 10
-59.6038476105
 20
47.8577411041
 10
-60.5324167328
 20
47.8577411041
  0
LINE
  5
363
100
AcDbEntity
  8
0
100
AcDbLine
 62
253
  6
CONTINUOUS
 10
-86.7557062279
 20
-5.2236165645
 11
-86.7557062279
 21
5.2236165645
  0
LINE
  5
364
100
AcDbEntity
  8
0
100
AcDbLine
 62
7
  6
CONTINUOUS
 10
-86.3908282895
 20
6.1162894523
 11
-86.7557062279
 21
5.2236165645
  0
LINE
  5
365
100
AcDbEntity
  8
0
100
AcDbLine
 62
7
  6
CONTINUOUS
 10
-86.3908282895
 20
-6.1162894523
 11
-86.7557062279
 21
-5.2236165645
  0
LINE
  5
366
100
AcDbEntity
  8
0
100
AcDbLine
 62
253
  6
CONTINUOUS
 10
-86.3908282895
 20
-6.1162894523
 11
-86.3908282895
 21
6.1162894523
  0
LINE
  5
367
100
AcDbEntity
  8
0
100
AcDbLine
 62
253
  6
CONTINUOUS
 10
-84.7238102639
 20
-7.2532533242
 11
-84.7238102639
 21
7.2532533242
  0
LWPOLYLINE
  5
368
100
AcDbEntity
  8
0
100
AcDbPolyline
 62
7
  6
CONTINUOUS
 90
5
 70
0
 43
0.3500000006
 10
-48.0038486023
 20
37.8577425842
 10
-47.6467062836
 20
38.0720270691
 10
-47.6467062836
 20
38.7148850555
 10
-48.0038486023
 20
39.1434585571
 10
-48.8609910736
 20
39.1434585571
  0
LINE
  5
369
100
AcDbEntity
  8
ASSI
100
AcDbLine
 62
253
  6
CONTINUOUS
 10
-65.4324185567
 20
23.3515746082
 11
-64.6539280754
 21
23.8010362971
  0
LINE
  5
36A
100
AcDbEntity
  8
ASSI
100
AcDbLine
 62
7
  6
CONTINUOUS
 10
-65.4324185567
 20
-24.5
 11
-67.6867816583
 21
-24.4606499457
  0
LINE
  5
36B
100
AcDbEntity
  8
ASSI
100
AcDbLine
 62
253
  6
CONTINUOUS
 10
-64.6539280754
 20
-23.8010362971
 11
-65.4324185567
 21
-23.3515746082
  0
LINE
  5
36C
100
AcDbEntity
  8
ASSI
100
AcDbLine
 62
7
  6
CONTINUOUS
 10
-65.4324185567
 20
23.1226497308
 11
-64.5574355404
 21
23.6278214108
  0
LINE
  5
36D
100
AcDbEntity
  8
ASSI
100
AcDbLine
 62
7
  6
CONTINUOUS
 10
-65.4324185567
 20
-24.5
 11
-64.6780554551
 21
-24.4868325431
  0
LINE
  5
36E
100
AcDbEntity
  8
ASSI
100
AcDbLine
 62
253
  6
CONTINUOUS
 10
-65.4324185567
 20
-24.300030461
 11
-64.6780554551
 21
-24.2868630041
  0
LINE
  5
36F
100
AcDbEntity
  8
ASSI
100
AcDbLine
 62
7
  6
CONTINUOUS
 10
-64.4324185567
 20
-23.9825449351
 11
-59.6780593256
 21
-23.899557286
  0
LINE
  5
370
100
AcDbEntity
  8
ASSI
100
AcDbLine
 62
253
  6
CONTINUOUS
 10
-64.4324185567
 20
-23.7325830113
 11
-59.8038487764
 21
-23.6517910252
  0
LINE
  5
371
100
AcDbEntity
  8
ASSI
100
AcDbLine
 62
7
  6
CONTINUOUS
 10
-54.9149661503
 20
-22.2164171854
 11
-65.4324189791
 21
-22.4000000074
  0
LINE
  5
372
100
AcDbEntity
  8
ASSI
100
AcDbLine
 62
253
  6
CONTINUOUS
 10
-64.6289280754
 20
-24.2368706193
 11
-64.4324185567
 21
-24.2368706193
  0
LINE
  5
373
100
AcDbEntity
  8
ASSI
100
AcDbLine
 62
253
  6
CONTINUOUS
 10
-67.9324185567
 20
-24.2106880219
 11
-67.735909038
 21
-24.2106880219
  0
LINE
  5
374
100
AcDbEntity
  8
ASSI
100
AcDbLine
 62
253
  6
CONTINUOUS
 10
-67.9324185567
 20
-23.8443375673
 11
-67.735909038
 21
-23.8443375673
  0
LINE
  5
375
100
AcDbEntity
  8
ASSI
100
AcDbLine
 62
253
  6
CONTINUOUS
 10
-64.6289280754
 20
-23.8443375673
 11
-64.4324185567
 21
-23.8443375672
  0
LINE
  5
376
100
AcDbEntity
  8
ASSI
100
AcDbLine
 62
253
  6
CONTINUOUS
 10
-65.4324185567
 20
-24.300030461
 11
-67.6867816583
 21
-24.2606804067
  0
LINE
  5
377
100
AcDbEntity
  8
ASSI
100
AcDbLine
 62
7
  6
CONTINUOUS
 10
-72.9520339497
 20
-22.0059136562
 11
-66.7601688414
 21
-22.3304155561
  0
LINE
  5
378
100
AcDbEntity
  8
ASSI
100
AcDbLine
 62
7
  6
CONTINUOUS
 10
-65.6414691771
 20
-22.3890441212
 11
-65.4324273519
 21
-22.3999995391
  0
LINE
  5
379
100
AcDbEntity
  8
ASSI
100
AcDbLine
 62
253
  6
CONTINUOUS
 10
-72.5864154583
 20
-21.5250746743
 11
-65.4324185567
 21
-21.8999997649
  0
LINE
  5
37A
100
AcDbEntity
  8
ASSI
100
AcDbLine
 62
7
  6
CONTINUOUS
 10
-64.5573453596
 20
-23.6278734767
 11
-65.4324185567
 21
-23.1226497308
  0
LINE
  5
37B
100
AcDbEntity
  8
0
100
AcDbLine
 62
7
  6
CONTINUOUS
 10
-75.8324185567
 20
-7.875
 11
-75.8324185567
 21
7.875
  0
LINE
  5
37C
100
AcDbEntity
  8
RACCORDO
100
AcDbLine
 62
253
  6
CONTINUOUS
 10
-75.5533455264
 20
-7.900639107
 11
-75.5533455264
 21
7.900639107
  0
LINE
  5
37D
100
AcDbEntity
  8
ASSI
100
AcDbLine
 62
253
  6
CONTINUOUS
 10
-73.2519072003
 20
-20.8558253568
 11
-73.7372223563
 21
-20.8772669682
  0
LINE
  5
37E
100
AcDbEntity
  8
ASSI
100
AcDbLine
 62
253
  6
CONTINUOUS
 10
-65.4324185567
 20
-21.9000761524
 11
-64.4324185567
 21
-21.8826210875
  0
LINE
  5
37F
100
AcDbEntity
  8
DRAFT
100
AcDbLine
 62
7
  6
CONTINUOUS
 10
-63.9324185567
 20
-20.85
 11
-53.9324185567
 21
-20.6754493507
  0
LINE
  5
380
100
AcDbEntity
  8
ASSI
100
AcDbLine
 62
7
  6
CONTINUOUS
 10
-63.9324185567
 20
-20.85
 11
-53.9324185567
 21
-20.6754493507
  0
LINE
  5
381
100
AcDbEntity
  8
RACCORDO
100
AcDbLine
 62
7
  6
CONTINUOUS
 10
-25.9149661503
 20
-19.121932718
 11
-53.9324185567
 21
-19.6109791689
  0
LINE
  5
382
100
AcDbEntity
  8
ASSI
100
AcDbLine
 62
7
  6
CONTINUOUS
 10
-25.9149661503
 20
-19.121932718
 11
-53.9324185567
 21
-19.6109791689
  0
LINE
  5
383
100
AcDbEntity
  8
RACCORDO
100
AcDbLine
 62
253
  6
CONTINUOUS
 10
-25.9149661503
 20
-18.8290841082
 11
-53.9324185567
 21
-19.3181305591
  0
LINE
  5
384
100
AcDbEntity
  8
ASSI
100
AcDbLine
 62
253
  6
CONTINUOUS
 10
-25.9149661503
 20
-18.8290841082
 11
-53.9324185567
 21
-19.3181305591
  0
LINE
  5
385
100
AcDbEntity
  8
ASSI
100
AcDbLine
 62
7
  6
CONTINUOUS
 10
-64.4324185567
 20
-19.25
 11
-63.9324185567
 21
-19.2412724675
  0
LINE
  5
386
100
AcDbEntity
  8
RACCORDO
100
AcDbLine
 62
253
  6
CONTINUOUS
 10
-54.1289280754
 20
-21.2165694902
 11
-53.9324185567
 21
-21.2165694902
  0
LINE
  5
387
100
AcDbEntity
  8
RACCORDO
100
AcDbLine
 62
253
  6
CONTINUOUS
 10
-54.1289280754
 20
-21.18553092
 11
-53.9324185567
 21
-21.18553092
  0
LINE
  5
388
100
AcDbEntity
  8
RACCORDO
100
AcDbLine
 62
253
  6
CONTINUOUS
 10
-54.1306732496
 20
-20.7855461508
 11
-53.9324185567
 21
-20.7855461508
  0
LINE
  5
389
100
AcDbEntity
  8
RACCORDO
100
AcDbLine
 62
7
  6
CONTINUOUS
 10
-54.1661044932
 20
-21.4576092846
 11
-64.4324185567
 21
-21.4051134101
  0
LINE
  5
38A
100
AcDbEntity
  8
RACCORDO
100
AcDbLine
 62
253
  6
CONTINUOUS
 10
-64.4324185567
 20
-21.0956137208
 11
-54.1289280754
 21
-21.18553092
  0
LINE
  5
38B
100
AcDbEntity
  8
RACCORDO
100
AcDbLine
 62
7
  6
CONTINUOUS
 10
-64.4324185567
 20
-20.8956365661
 11
-54.1306732496
 21
-20.9855385354
  0
LINE
  5
38C
100
AcDbEntity
  8
RACCORDO
100
AcDbLine
 62
253
  6
CONTINUOUS
 10
-54.1306732496
 20
-20.7855365134
 11
-58.2032826301
 21
-20.7499975604
  0
LINE
  5
38D
100
AcDbEntity
  8
RACCORDO
100
AcDbLine
 62
253
  6
CONTINUOUS
 10
-63.9324185567
 20
-20.7000032022
 11
-64.4324185567
 21
-20.6956400348
  0
LINE
  5
38E
100
AcDbEntity
  8
RACCORDO
100
AcDbLine
 62
253
  6
CONTINUOUS
 10
-64.4324185567
 20
-19.8955027814
 11
-63.9324185567
 21
-19.899872339
  0
LINE
  5
38F
100
AcDbEntity
  8
RACCORDO
100
AcDbLine
 62
7
  6
CONTINUOUS
 10
-64.4324185567
 20
-19.6956365661
 11
-63.9324185567
 21
-19.7
  0
LINE
  5
390
100
AcDbEntity
  8
RACCORDO
100
AcDbLine
 62
7
  6
CONTINUOUS
 10
-74.5414664714
 20
8.5091026701
 11
-74.5184241187
 21
7.9967679482
  0
LINE
  5
391
100
AcDbEntity
  8
RACCORDO
100
AcDbLine
 62
7
  6
CONTINUOUS
 10
-74.5184241187
 20
7.9967679482
 11
-74.4961045343
 21
7.4738615039
  0
LINE
  5
392
100
AcDbEntity
  8
RACCORDO
100
AcDbLine
 62
7
  6
CONTINUOUS
 10
-74.4961045343
 20
7.4738615039
 11
-74.4782027979
 21
7.0313829301
  0
LINE
  5
393
100
AcDbEntity
  8
RACCORDO
100
AcDbLine
 62
7
  6
CONTINUOUS
 10
-74.4782027979
 20
7.0313829301
 11
-74.4586366055
 21
6.5187920549
  0
LINE
  5
394
100
AcDbEntity
  8
RACCORDO
100
AcDbLine
 62
7
  6
CONTINUOUS
 10
-74.4586366055
 20
6.5187920549
 11
-74.4381539398
 21
5.9412846929
  0
LWPOLYLINE
  5
395
100
AcDbEntity
  8
RACCORDO
100
AcDbPolyline
 62
7
  6
CONTINUOUS
 90
28
 70
0
 10
-74.4381539398
 20
5.9412846929
 10
-74.4175621789
 20
5.3047198103
 10
-74.4074862913
 20
4.966281804
 10
-74.3976963673
 20
4.6155233246
 10
-74.388295357
 20
4.2533292698
 10
-74.3793833852
 20
3.880614033
 10
-74.3710559956
 20
3.4983051878
 10
-74.3634037801
 20
3.1073556817
 10
-74.3565102771
 20
2.708747988
 10
-74.3504519528
 20
2.3034652797
 10
-74.3452952715
 20
1.8924986883
 10
-74.341098712
 20
1.4768786514
 10
-74.3379087354
 20
1.0576359309
 10
-74.3357616163
 20
0.6357731108
 10
-74.3346813331
 20
0.2123409893
 10
-74.3346804399
 20
-0.2116054979
 10
-74.3357588072
 20
-0.6350486725
 10
-74.3379043266
 20
-1.0569352035
 10
-74.3410927789
 20
-1.4762123103
 10
-74.3452881967
 20
-1.8918713972
 10
-74.3504439061
 20
-2.3028814786
 10
-74.3565016335
 20
-2.7082115601
 10
-74.3633947298
 20
-3.1068650224
 10
-74.3710467384
 20
-3.4978583233
 10
-74.3793741265
 20
-3.8802086837
 10
-74.388286117
 20
-4.2529592821
 10
-74.3976871582
 20
-4.6151814199
 10
-74.4074770749
 20
-4.9659626088
  0
LWPOLYLINE
  5
396
100
AcDbEntity
  8
ASSI
100
AcDbPolyline
 62
7
  6
CONTINUOUS
 90
5
 70
0
 10
-74.5416312958
 20
-8.5225260871
 10
-74.495004019
 20
-10.4843696095
 10
-74.3881606379
 20
-13.9768035091
 10
-74.2508166539
 20
-17.4681709873
 10
-74.0875926169
 20
-20.8701690373
  0
LINE
  5
397
100
AcDbEntity
  8
RACCORDO
100
AcDbLine
 62
7
  6
CONTINUOUS
 10
-74.5416309747
 20
8.5225283707
 11
-74.5414664714
 21
8.5091026701
  0
LINE
  5
398
100
AcDbEntity
  8
RACCORDO
100
AcDbLine
 62
7
  6
CONTINUOUS
 10
-74.5416309746
 20
-8.5225283707
 11
-74.5414664713
 21
-8.5091026672
  0
LINE
  5
399
100
AcDbEntity
  8
RACCORDO
100
AcDbLine
 62
7
  6
CONTINUOUS
 10
-74.4074770749
 20
-4.9659626088
 11
-74.4278101224
 21
-5.6296983421
  0
LINE
  5
39A
100
AcDbEntity
  8
RACCORDO
100
AcDbLine
 62
7
  6
CONTINUOUS
 10
-74.4278101224
 20
-5.6296983421
 11
-74.4484500999
 21
-6.2375097668
  0
LINE
  5
39B
100
AcDbEntity
  8
RACCORDO
100
AcDbLine
 62
7
  6
CONTINUOUS
 10
-74.4484500999
 20
-6.2375097668
 11
-74.4685725212
 21
-6.783274101
  0
LINE
  5
39C
100
AcDbEntity
  8
RACCORDO
100
AcDbLine
 62
7
  6
CONTINUOUS
 10
-74.4685725212
 20
-6.783274101
 11
-74.4873944481
 21
-7.2614116729
  0
LINE
  5
39D
100
AcDbEntity
  8
RACCORDO
100
AcDbLine
 62
7
  6
CONTINUOUS
 10
-74.4873944481
 20
-7.2614116729
 11
-74.5116751192
 21
-7.841663529
  0
LINE
  5
39E
100
AcDbEntity
  8
RACCORDO
100
AcDbLine
 62
7
  6
CONTINUOUS
 10
-74.5116751192
 20
-7.841663529
 11
-74.5371157814
 21
-8.4142590376
  0
LINE
  5
39F
100
AcDbEntity
  8
RACCORDO
100
AcDbLine
 62
7
  6
CONTINUOUS
 10
-74.5371157814
 20
-8.4142590376
 11
-74.5414630046
 21
-8.5090296604
  0
LWPOLYLINE
  5
3A0
100
AcDbEntity
  8
ASSI
100
AcDbPolyline
 62
7
  6
CONTINUOUS
 90
5
 70
0
 10
-74.0875926169
 20
20.8701690372
 10
-74.2511077227
 20
17.461511065
 10
-74.3883935339
 20
13.970141072
 10
-74.4951787154
 20
10.4777052159
 10
-74.5416312958
 20
8.5225260882
  0
LWPOLYLINE
  5
3A1
100
AcDbEntity
  8
0
100
AcDbPolyline
 62
7
  6
CONTINUOUS
 90
10
 70
0
 43
0.3500000006
 10
-46.2895636597
 20
36.1434576416
 10
-45.4324166565
 20
37.0006001129
 10
-45.2181321716
 20
37.8577425842
 10
-45.2181321716
 20
38.7148850555
 10
-45.6467056732
 20
39.1434585571
 10
-46.2895636597
 20
39.1434585571
 10
-46.7181326294
 20
38.7148850555
 10
-46.7181326294
 20
37.8577425842
 10
-46.2895636597
 20
37.4291690826
 10
-45.3609900055
 20
37.4291690826
  0
LINE
  5
3A2
100
AcDbEntity
  8
RACCORDO
100
AcDbLine
 62
253
  6
CONTINUOUS
 10
-63.9324185567
 20
-19.0856972195
 11
-25.9149661503
 21
-18.8108263007
  0
LINE
  5
3A3
100
AcDbEntity
  8
ASSI
100
AcDbLine
 62
253
  6
CONTINUOUS
 10
-63.9324185567
 20
-19.0856972195
 11
-25.9149661503
 21
-18.8108263007
  0
LINE
  5
3A4
100
AcDbEntity
  8
ASSI
100
AcDbLine
 62
7
  6
CONTINUOUS
 10
-63.9324185567
 20
-18.5638400026
 11
-64.4324185567
 21
-18.5674550649
  0
LINE
  5
3A5
100
AcDbEntity
  8
RACCORDO
100
AcDbLine
 62
253
  6
CONTINUOUS
 10
-63.9324185567
 20
-17.6716990487
 11
-25.9149661503
 21
-17.3968281299
  0
LINE
  5
3A6
100
AcDbEntity
  8
ASSI
100
AcDbLine
 62
253
  6
CONTINUOUS
 10
-63.9324185567
 20
-17.6716990487
 11
-25.9149661503
 21
-17.3968281299
  0
LINE
  5
3A7
100
AcDbEntity
  8
RACCORDO
100
AcDbLine
 62
253
  6
CONTINUOUS
 10
-24.9324185567
 20
-17.3968281299
 11
-25.9149661503
 21
-17.3968281276
  0
LINE
  5
3A8
100
AcDbEntity
  8
ASSI
100
AcDbLine
 62
253
  6
CONTINUOUS
 10
-24.9324185567
 20
-17.3968281299
 11
-25.9149661503
 21
-17.3968281276
  0
LWPOLYLINE
  5
3A9
100
AcDbEntity
  8
0
100
AcDbPolyline
 62
7
  6
CONTINUOUS
 90
3
 70
0
 43
0.3500000006
 10
-55.246704071
 20
46.4291718292
 10
-55.318130722
 20
46.2148828125
 10
-55.4609885559
 20
45.9291716766
  0
LINE
  5
3AA
100
AcDbEntity
  8
0
100
AcDbLine
 62
7
  6
CONTINUOUS
 10
-62.3115086625
 20
15.6766304953
 11
-62.3082771032
 21
15.6798620546
  0
LINE
  5
3AB
100
AcDbEntity
  8
0
100
AcDbLine
 62
7
  6
CONTINUOUS
 10
-62.3115086625
 20
15.5926262097
 11
-62.2662774694
 21
15.6378574028
  0
LINE
  5
3AC
100
AcDbEntity
  8
0
100
AcDbLine
 62
7
  6
CONTINUOUS
 10
-62.3115086625
 20
15.5086219241
 11
-62.2242778356
 21
15.595852751
  0
LINE
  5
3AD
100
AcDbEntity
  8
0
100
AcDbLine
 62
7
  6
CONTINUOUS
 10
-62.3115086625
 20
15.4246176385
 11
-62.1822782019
 21
15.5538480991
  0
LINE
  5
3AE
100
AcDbEntity
  8
0
100
AcDbLine
 62
7
  6
CONTINUOUS
 10
-62.2828305437
 20
15.3692914717
 11
-62.1402785681
 21
15.5118434473
  0
LINE
  5
3AF
100
AcDbEntity
  8
0
100
AcDbLine
 62
7
  6
CONTINUOUS
 10
-62.2408316297
 20
15.3272861001
 11
-62.0982789343
 21
15.4698387955
  0
LINE
  5
3B0
100
AcDbEntity
  8
0
100
AcDbLine
 62
7
  6
CONTINUOUS
 10
-62.1988327157
 20
15.2852807285
 11
-62.0562793005
 21
15.4278341436
  0
LINE
  5
3B1
100
AcDbEntity
  8
0
100
AcDbLine
 62
7
  6
CONTINUOUS
 10
-62.1568338016
 20
15.2432753569
 11
-62.0142796668
 21
15.3858294918
  0
LINE
  5
3B2
100
AcDbEntity
  8
0
100
AcDbLine
 62
7
  6
CONTINUOUS
 10
-62.1148348876
 20
15.2012699853
 11
-61.972280033
 21
15.34382484
  0
LINE
  5
3B3
100
AcDbEntity
  8
0
100
AcDbLine
 62
7
  6
CONTINUOUS
 10
-62.0728359736
 20
15.1592646137
 11
-61.9302803992
 21
15.3018201882
  0
LINE
  5
3B4
100
AcDbEntity
  8
0
100
AcDbLine
 62
7
  6
CONTINUOUS
 10
-61.3292972808
 20
15.9028033065
 11
-61.2567665874
 21
15.975334
  0
LINE
  5
3B5
100
AcDbEntity
  8
0
100
AcDbLine
 62
7
  6
CONTINUOUS
 10
-62.0308370596
 20
15.1172592421
 11
-61.8882807654
 21
15.2598155363
  0
LINE
  5
3B6
100
AcDbEntity
  8
0
100
AcDbLine
 62
7
  6
CONTINUOUS
 10
-61.3292972808
 20
15.8187990209
 11
-61.1727623018
 21
15.975334
  0
LINE
  5
3B7
100
AcDbEntity
  8
0
100
AcDbLine
 62
7
  6
CONTINUOUS
 10
-61.9888381456
 20
15.0752538705
 11
-61.8462811316
 21
15.2178108845
  0
LINE
  5
3B8
100
AcDbEntity
  8
0
100
AcDbLine
 62
7
  6
CONTINUOUS
 10
-61.3292972808
 20
15.7347947353
 11
-61.1276909911
 21
15.936401025
  0
LINE
  5
3B9
100
AcDbEntity
  8
0
100
AcDbLine
 62
7
  6
CONTINUOUS
 10
-61.9468392316
 20
15.0332484989
 11
-61.8042814979
 21
15.1758062327
  0
LINE
  5
3BA
100
AcDbEntity
  8
0
100
AcDbLine
 62
7
  6
CONTINUOUS
 10
-61.3292972808
 20
15.6507904497
 11
-61.1276909911
 21
15.8523967394
  0
LINE
  5
3BB
100
AcDbEntity
  8
0
100
AcDbLine
 62
7
  6
CONTINUOUS
 10
-61.9048403176
 20
14.9912431273
 11
-61.7622818641
 21
15.1338015809
  0
LINE
  5
3BC
100
AcDbEntity
  8
0
100
AcDbLine
 62
7
  6
CONTINUOUS
 10
-61.3292972808
 20
15.5667861641
 11
-61.1276909911
 21
15.7683924538
  0
LINE
  5
3BD
100
AcDbEntity
  8
0
100
AcDbLine
 62
7
  6
CONTINUOUS
 10
-61.8628414036
 20
14.9492377557
 11
-61.7202822303
 21
15.091796929
  0
LINE
  5
3BE
100
AcDbEntity
  8
0
100
AcDbLine
 62
7
  6
CONTINUOUS
 10
-61.3292972808
 20
15.4827818785
 11
-61.1276909911
 21
15.6843881682
  0
LINE
  5
3BF
100
AcDbEntity
  8
0
100
AcDbLine
 62
7
  6
CONTINUOUS
 10
-61.8208424896
 20
14.9072323841
 11
-61.6782825965
 21
15.0497922772
  0
LINE
  5
3C0
100
AcDbEntity
  8
0
100
AcDbLine
 62
7
  6
CONTINUOUS
 10
-61.3292972808
 20
15.3987775929
 11
-61.1276909911
 21
15.6003838826
  0
LINE
  5
3C1
100
AcDbEntity
  8
0
100
AcDbLine
 62
7
  6
CONTINUOUS
 10
-61.7788435756
 20
14.8652270125
 11
-61.6362829627
 21
15.0077876254
  0
LINE
  5
3C2
100
AcDbEntity
  8
0
100
AcDbLine
 62
7
  6
CONTINUOUS
 10
-61.3292972808
 20
15.3147733073
 11
-61.1276909911
 21
15.516379597
  0
LINE
  5
3C3
100
AcDbEntity
  8
0
100
AcDbLine
 62
7
  6
CONTINUOUS
 10
-61.7368446616
 20
14.8232216409
 11
-61.6113493164
 21
14.9487169861
  0
LINE
  5
3C4
100
AcDbEntity
  8
0
100
AcDbLine
 62
7
  6
CONTINUOUS
 10
-61.3292972808
 20
15.2307690217
 11
-61.1276909911
 21
15.4323753114
  0
LINE
  5
3C5
100
AcDbEntity
  8
0
100
AcDbLine
 62
7
  6
CONTINUOUS
 10
-61.6948457476
 20
14.7812162693
 11
-61.6113493164
 21
14.8647127005
  0
LINE
  5
3C6
100
AcDbEntity
  8
0
100
AcDbLine
 62
7
  6
CONTINUOUS
 10
-61.3292972808
 20
15.1467647361
 11
-61.1276909911
 21
15.3483710258
  0
LINE
  5
3C7
100
AcDbEntity
  8
0
100
AcDbLine
 62
7
  6
CONTINUOUS
 10
-61.6528468336
 20
14.7392108977
 11
-61.6113493164
 21
14.7807084149
  0
LINE
  5
3C8
100
AcDbEntity
  8
0
100
AcDbLine
 62
7
  6
CONTINUOUS
 10
-61.3292972808
 20
15.0627604505
 11
-61.1276909911
 21
15.2643667402
  0
LINE
  5
3C9
100
AcDbEntity
  8
0
100
AcDbLine
 62
7
  6
CONTINUOUS
 10
-61.3292972808
 20
14.9787561649
 11
-61.1276909911
 21
15.1803624546
  0
LINE
  5
3CA
100
AcDbEntity
  8
0
100
AcDbLine
 62
7
  6
CONTINUOUS
 10
-61.3292972808
 20
14.8947518793
 11
-61.1276909911
 21
15.096358169
  0
LINE
  5
3CB
100
AcDbEntity
  8
0
100
AcDbLine
 62
7
  6
CONTINUOUS
 10
-61.3292972808
 20
14.8107475937
 11
-61.1276909911
 21
15.0123538834
  0
LINE
  5
3CC
100
AcDbEntity
  8
0
100
AcDbLine
 62
7
  6
CONTINUOUS
 10
-61.3292972808
 20
14.7267433081
 11
-61.1276909911
 21
14.9283495978
  0
LINE
  5
3CD
100
AcDbEntity
  8
0
100
AcDbLine
 62
7
  6
CONTINUOUS
 10
-61.3292972808
 20
14.6427390225
 11
-61.1276909911
 21
14.8443453122
  0
LINE
  5
3CE
100
AcDbEntity
  8
0
100
AcDbLine
 62
7
  6
CONTINUOUS
 10
-61.3292972808
 20
14.5587347368
 11
-61.1276909911
 21
14.7603410266
  0
LINE
  5
3CF
100
AcDbEntity
  8
0
100
AcDbLine
 62
7
  6
CONTINUOUS
 10
-61.3292972808
 20
14.4747304512
 11
-61.1276909911
 21
14.676336741
  0
LINE
  5
3D0
100
AcDbEntity
  8
0
100
AcDbLine
 62
7
  6
CONTINUOUS
 10
-59.9471858152
 20
15.8568419169
 11
-59.8837267321
 21
15.920301
  0
LINE
  5
3D1
100
AcDbEntity
  8
0
100
AcDbLine
 62
7
  6
CONTINUOUS
 10
-61.3292972808
 20
14.3907261656
 11
-61.1276909911
 21
14.5923324553
  0
LINE
  5
3D2
100
AcDbEntity
  8
0
100
AcDbLine
 62
7
  6
CONTINUOUS
 10
-59.9471858152
 20
15.7728376313
 11
-59.7997224465
 21
15.920301
  0
LINE
  5
3D3
100
AcDbEntity
  8
0
100
AcDbLine
 62
7
  6
CONTINUOUS
 10
-61.3292972808
 20
14.30672188
 11
-61.1276909911
 21
14.5083281697
  0
LINE
  5
3D4
100
AcDbEntity
  8
0
100
AcDbLine
 62
7
  6
CONTINUOUS
 10
-59.9471858152
 20
15.6888333457
 11
-59.7467143526
 21
15.8893048083
  0
LINE
  5
3D5
100
AcDbEntity
  8
0
100
AcDbLine
 62
7
  6
CONTINUOUS
 10
-61.3292972808
 20
14.2227175944
 11
-61.1276909911
 21
14.4243238841
  0
LINE
  5
3D6
100
AcDbEntity
  8
0
100
AcDbLine
 62
7
  6
CONTINUOUS
 10
-59.9471858152
 20
15.6048290601
 11
-59.7467143526
 21
15.8053005227
  0
LINE
  5
3D7
100
AcDbEntity
  8
0
100
AcDbLine
 62
7
  6
CONTINUOUS
 10
-61.3292972808
 20
14.1387133088
 11
-61.1276909911
 21
14.3403195985
  0
LINE
  5
3D8
100
AcDbEntity
  8
0
100
AcDbLine
 62
7
  6
CONTINUOUS
 10
-59.9471858152
 20
15.5208247745
 11
-59.7467143526
 21
15.7212962371
  0
LINE
  5
3D9
100
AcDbEntity
  8
0
100
AcDbLine
 62
7
  6
CONTINUOUS
 10
-61.3045253041
 20
14.079481
 11
-61.1028883041
 21
14.281118
  0
LINE
  5
3DA
100
AcDbEntity
  8
0
100
AcDbLine
 62
7
  6
CONTINUOUS
 10
-59.9471858152
 20
15.4368204889
 11
-59.7467143526
 21
15.6372919515
  0
LINE
  5
3DB
100
AcDbEntity
  8
RACCORDO
100
AcDbLine
 62
7
  6
CONTINUOUS
 10
-25.9149661503
 20
-16.0143058604
 11
-52.6824185567
 21
-16.1394991238
  0
LINE
  5
3DC
100
AcDbEntity
  8
ASSI
100
AcDbLine
 62
7
  6
CONTINUOUS
 10
-25.9149661503
 20
-16.0143058604
 11
-52.6824185567
 21
-16.1394991238
  0
LINE
  5
3DD
100
AcDbEntity
  8
RACCORDO
100
AcDbLine
 62
7
  6
CONTINUOUS
 10
-48.2324185567
 20
-15.5760966645
 11
-51.2324185567
 21
-15.5865686825
  0
LINE
  5
3DE
100
AcDbEntity
  8
ASSI
100
AcDbLine
 62
7
  6
CONTINUOUS
 10
-48.2324185567
 20
-15.5760966645
 11
-51.2324185567
 21
-15.5865686825
  0
LINE
  5
3DF
100
AcDbEntity
  8
RACCORDO
100
AcDbLine
 62
7
  6
CONTINUOUS
 10
-48.2324185567
 20
-15.8009761865
 11
-52.6824185567
 21
-15.8113818759
  0
LINE
  5
3E0
100
AcDbEntity
  8
ASSI
100
AcDbLine
 62
7
  6
CONTINUOUS
 10
-48.2324185567
 20
-15.8009761865
 11
-52.6824185567
 21
-15.8113818759
  0
LINE
  5
3E1
100
AcDbEntity
  8
RACCORDO
100
AcDbLine
 62
7
  6
CONTINUOUS
 10
-24.9324185567
 20
-15.75
 11
-26.4324185567
 21
-15.75
  0
LINE
  5
3E2
100
AcDbEntity
  8
ASSI
100
AcDbLine
 62
7
  6
CONTINUOUS
 10
-24.9324185567
 20
-15.75
 11
-26.4324185567
 21
-15.75
  0
LINE
  5
3E3
100
AcDbEntity
  8
0
100
AcDbLine
 62
7
  6
CONTINUOUS
 10
-52.2324185567
 20
-14.7
 11
-53.4324185567
 21
-14.7
  0
LINE
  5
3E4
100
AcDbEntity
  8
0
100
AcDbLine
 62
7
  6
CONTINUOUS
 10
-52.2324185567
 20
-14.3
 11
-53.0938064269
 21
-14.3
  0
LINE
  5
3E5
100
AcDbEntity
  8
RACCORDO
100
AcDbLine
 62
7
  6
CONTINUOUS
 10
-26.4324185567
 20
-14.25
 11
-24.9324185567
 21
-14.25
  0
LINE
  5
3E6
100
AcDbEntity
  8
ASSI
100
AcDbLine
 62
7
  6
CONTINUOUS
 10
-26.4324185567
 20
-14.25
 11
-24.9324185567
 21
-14.25
  0
LINE
  5
3E7
100
AcDbEntity
  8
RACCORDO
100
AcDbLine
 62
7
  6
CONTINUOUS
 10
-48.2324185567
 20
-14.1990238135
 11
-52.6824185567
 21
-14.1886181241
  0
LINE
  5
3E8
100
AcDbEntity
  8
ASSI
100
AcDbLine
 62
7
  6
CONTINUOUS
 10
-48.2324185567
 20
-14.1990238135
 11
-52.6824185567
 21
-14.1886181241
  0
LINE
  5
3E9
100
AcDbEntity
  8
RACCORDO
100
AcDbLine
 62
7
  6
CONTINUOUS
 10
-25.9149661503
 20
-13.9856941396
 11
-52.6824185567
 21
-13.8605008762
  0
LINE
  5
3EA
100
AcDbEntity
  8
ASSI
100
AcDbLine
 62
7
  6
CONTINUOUS
 10
-25.9149661503
 20
-13.9856941396
 11
-52.6824185567
 21
-13.8605008762
  0
LINE
  5
3EB
100
AcDbEntity
  8
CURVE
100
AcDbLine
 62
253
  6
CONTINUOUS
 10
-59.3440156949
 20
-14.790021
 11
-61.3396327065
 21
-14.22041
  0
LINE
  5
3EC
100
AcDbEntity
  8
CURVE
100
AcDbLine
 62
253
  6
CONTINUOUS
 10
-61.3396327065
 20
-13.615552
 11
-58.4404213377
 21
-14.547617
  0
LINE
  5
3ED
100
AcDbEntity
  8
ASSI
100
AcDbLine
 62
7
  6
CONTINUOUS
 10
-67.9324185567
 20
-24.2106880219
 11
-67.9324185567
 21
-22.2689805518
  0
LINE
  5
3EE
100
AcDbEntity
  8
ASSI
100
AcDbLine
 62
7
  6
CONTINUOUS
 10
-67.9324185567
 20
22.2689805518
 11
-67.9324185567
 21
24.2106880219
  0
LINE
  5
3EF
100
AcDbEntity
  8
ASSI
100
AcDbLine
 62
253
  6
CONTINUOUS
 10
-67.735909038
 20
24.2106880219
 11
-67.735909038
 21
23.8443375673
  0
LINE
  5
3F0
100
AcDbEntity
  8
ASSI
100
AcDbLine
 62
253
  6
CONTINUOUS
 10
-67.735909038
 20
-24.2106880219
 11
-67.735909038
 21
-23.8443375673
  0
LINE
  5
3F1
100
AcDbEntity
  8
ASSI
100
AcDbLine
 62
253
  6
CONTINUOUS
 10
-67.6867816583
 20
-23.5581814706
 11
-67.6867816583
 21
-22.2818538361
  0
LINE
  5
3F2
100
AcDbEntity
  8
ASSI
100
AcDbLine
 62
253
  6
CONTINUOUS
 10
-67.6867816583
 20
22.2818538361
 11
-67.6867816583
 21
23.5581814706
  0
LINE
  5
3F3
100
AcDbEntity
  8
0
100
AcDbLine
 62
7
  6
CONTINUOUS
 10
-61.2205210184
 20
14.079481
 11
-61.0188840184
 21
14.281118
  0
LINE
  5
3F4
100
AcDbEntity
  8
0
100
AcDbLine
 62
7
  6
CONTINUOUS
 10
-59.9471858152
 20
15.3528162033
 11
-59.7467143526
 21
15.5532876659
  0
LINE
  5
3F5
100
AcDbEntity
  8
0
100
AcDbLine
 62
7
  6
CONTINUOUS
 10
-61.1365167328
 20
14.079481
 11
-60.9348797328
 21
14.281118
  0
LINE
  5
3F6
100
AcDbEntity
  8
0
100
AcDbLine
 62
7
  6
CONTINUOUS
 10
-59.9471858152
 20
15.2688119177
 11
-59.7467143526
 21
15.4692833802
  0
LINE
  5
3F7
100
AcDbEntity
  8
0
100
AcDbLine
 62
7
  6
CONTINUOUS
 10
-61.0525124472
 20
14.079481
 11
-60.8508754472
 21
14.281118
  0
LINE
  5
3F8
100
AcDbEntity
  8
0
100
AcDbLine
 62
7
  6
CONTINUOUS
 10
-59.9471858152
 20
15.1848076321
 11
-59.7467143526
 21
15.3852790946
  0
LINE
  5
3F9
100
AcDbEntity
  8
0
100
AcDbLine
 62
7
  6
CONTINUOUS
 10
-60.9685081616
 20
14.079481
 11
-60.7668711616
 21
14.281118
  0
LINE
  5
3FA
100
AcDbEntity
  8
0
100
AcDbLine
 62
7
  6
CONTINUOUS
 10
-59.9471858152
 20
15.1008033465
 11
-59.7467143526
 21
15.301274809
  0
LINE
  5
3FB
100
AcDbEntity
  8
0
100
AcDbLine
 62
7
  6
CONTINUOUS
 10
-61.3330337117
 20
13.6309511644
 11
-61.3195946051
 21
13.6443902709
  0
LINE
  5
3FC
100
AcDbEntity
  8
0
100
AcDbLine
 62
7
  6
CONTINUOUS
 10
-60.884503876
 20
14.079481
 11
-60.682866876
 21
14.281118
  0
LINE
  5
3FD
100
AcDbEntity
  8
0
100
AcDbLine
 62
7
  6
CONTINUOUS
 10
-59.9471858152
 20
15.0167990609
 11
-59.7467143526
 21
15.2172705234
  0
LINE
  5
3FE
100
AcDbEntity
  8
0
100
AcDbLine
 62
7
  6
CONTINUOUS
 10
-61.3330337117
 20
13.5469468788
 11
-61.2775949976
 21
13.6023855929
  0
LINE
  5
3FF
100
AcDbEntity
  8
0
100
AcDbLine
 62
7
  6
CONTINUOUS
 10
-60.8004995904
 20
14.079481
 11
-60.5988625904
 21
14.281118
  0
LINE
  5
400
100
AcDbEntity
  8
0
100
AcDbLine
 62
7
  6
CONTINUOUS
 10
-59.9471858152
 20
14.9327947753
 11
-59.7467143526
 21
15.1332662378
  0
LINE
  5
401
100
AcDbEntity
  8
0
100
AcDbLine
 62
7
  6
CONTINUOUS
 10
-61.3330337117
 20
13.4629425931
 11
-61.23559539
 21
13.5603809148
  0
LINE
  5
402
100
AcDbEntity
  8
0
100
AcDbLine
 62
7
  6
CONTINUOUS
 10
-60.7164953048
 20
14.079481
 11
-60.5148583048
 21
14.281118
  0
LINE
  5
403
100
AcDbEntity
  8
0
100
AcDbLine
 62
7
  6
CONTINUOUS
 10
-59.8759623048
 20
14.920014
 11
-59.7467143526
 21
15.0492619522
  0
LINE
  5
404
100
AcDbEntity
  8
0
100
AcDbLine
 62
7
  6
CONTINUOUS
 10
-61.3330337117
 20
13.3789383075
 11
-61.1935957825
 21
13.5183762367
  0
LINE
  5
405
100
AcDbEntity
  8
0
100
AcDbLine
 62
7
  6
CONTINUOUS
 10
-60.6324910192
 20
14.079481
 11
-60.4308540192
 21
14.281118
  0
LINE
  5
406
100
AcDbEntity
  8
0
100
AcDbLine
 62
7
  6
CONTINUOUS
 10
-59.7919580192
 20
14.920014
 11
-59.7467143526
 21
14.9652576666
  0
LINE
  5
407
100
AcDbEntity
  8
0
100
AcDbLine
 62
7
  6
CONTINUOUS
 10
-61.2941486843
 20
13.3338190493
 11
-61.1515961749
 21
13.4763715587
  0
LINE
  5
408
100
AcDbEntity
  8
0
100
AcDbLine
 62
7
  6
CONTINUOUS
 10
-60.5484867336
 20
14.079481
 11
-60.3468497336
 21
14.281118
  0
LINE
  5
409
100
AcDbEntity
  8
0
100
AcDbLine
 62
7
  6
CONTINUOUS
 10
-58.6340248464
 20
15.9939428872
 11
-58.6279677336
 21
16.0
  0
LINE
  5
40A
100
AcDbEntity
  8
0
100
AcDbLine
 62
7
  6
CONTINUOUS
 10
-61.2521497403
 20
13.2918137077
 11
-61.1095965674
 21
13.4343668806
  0
LINE
  5
40B
100
AcDbEntity
  8
0
100
AcDbLine
 62
7
  6
CONTINUOUS
 10
-60.464482448
 20
14.079481
 11
-60.262845448
 21
14.281118
  0
LINE
  5
40C
100
AcDbEntity
  8
0
100
AcDbLine
 62
7
  6
CONTINUOUS
 10
-58.6340248464
 20
15.9099386016
 11
-58.543963448
 21
16.0
  0
LINE
  5
40D
100
AcDbEntity
  8
0
100
AcDbLine
 62
7
  6
CONTINUOUS
 10
-61.2101507963
 20
13.2498083661
 11
-61.0675969599
 21
13.3923622025
  0
LINE
  5
40E
100
AcDbEntity
  8
0
100
AcDbLine
 62
7
  6
CONTINUOUS
 10
-60.3804781624
 20
14.079481
 11
-60.1788411624
 21
14.281118
  0
LINE
  5
40F
100
AcDbEntity
  8
0
100
AcDbLine
 62
7
  6
CONTINUOUS
 10
-58.6340248464
 20
15.825934316
 11
-58.4599591624
 21
16.0
  0
LINE
  5
410
100
AcDbEntity
  8
0
100
AcDbLine
 62
7
  6
CONTINUOUS
 10
-61.1681518523
 20
13.2078030245
 11
-61.0255973523
 21
13.3503575245
  0
LINE
  5
411
100
AcDbEntity
  8
0
100
AcDbLine
 62
7
  6
CONTINUOUS
 10
-60.2964738768
 20
14.079481
 11
-60.0948368768
 21
14.281118
  0
LINE
  5
412
100
AcDbEntity
  8
0
100
AcDbLine
 62
7
  6
CONTINUOUS
 10
-58.6340248464
 20
15.7419300304
 11
-58.4324185567
 21
15.9435363201
  0
LINE
  5
413
100
AcDbEntity
  8
0
100
AcDbLine
 62
7
  6
CONTINUOUS
 10
-61.1261529083
 20
13.1657976829
 11
-60.9835977448
 21
13.3083528464
  0
LINE
  5
414
100
AcDbEntity
  8
0
100
AcDbLine
 62
7
  6
CONTINUOUS
 10
-60.2124695912
 20
14.079481
 11
-60.0108325912
 21
14.281118
  0
LINE
  5
415
100
AcDbEntity
  8
0
100
AcDbLine
 62
7
  6
CONTINUOUS
 10
-58.6340248464
 20
15.6579257448
 11
-58.4324185567
 21
15.8595320345
  0
LINE
  5
416
100
AcDbEntity
  8
0
100
AcDbLine
 62
7
  6
CONTINUOUS
 10
-61.0841539643
 20
13.1237923413
 11
-60.9415981373
 21
13.2663481683
  0
LINE
  5
417
100
AcDbEntity
  8
0
100
AcDbLine
 62
7
  6
CONTINUOUS
 10
-60.1284653056
 20
14.079481
 11
-59.9268283056
 21
14.281118
  0
LINE
  5
418
100
AcDbEntity
  8
0
100
AcDbLine
 62
7
  6
CONTINUOUS
 10
-58.6340248464
 20
15.5739214592
 11
-58.4324185567
 21
15.7755277489
  0
LINE
  5
419
100
AcDbEntity
  8
0
100
AcDbLine
 62
7
  6
CONTINUOUS
 10
-61.0421550203
 20
13.0817869997
 11
-60.8995985297
 21
13.2243434903
  0
LINE
  5
41A
100
AcDbEntity
  8
0
100
AcDbLine
 62
7
  6
CONTINUOUS
 10
-60.04446102
 20
14.079481
 11
-59.84282402
 21
14.281118
  0
LINE
  5
41B
100
AcDbEntity
  8
0
100
AcDbLine
 62
7
  6
CONTINUOUS
 10
-58.6340248464
 20
15.4899171736
 11
-58.4324185567
 21
15.6915234633
  0
LINE
  5
41C
100
AcDbEntity
  8
0
100
AcDbLine
 62
7
  6
CONTINUOUS
 10
-61.0001560763
 20
13.0397816581
 11
-60.8575989222
 21
13.1823388122
  0
LINE
  5
41D
100
AcDbEntity
  8
0
100
AcDbLine
 62
7
  6
CONTINUOUS
 10
-59.9604567344
 20
14.079481
 11
-59.7588197344
 21
14.281118
  0
LINE
  5
41E
100
AcDbEntity
  8
0
100
AcDbLine
 62
7
  6
CONTINUOUS
 10
-58.6340248464
 20
15.405912888
 11
-58.4324185567
 21
15.6075191777
  0
LINE
  5
41F
100
AcDbEntity
  8
0
100
AcDbLine
 62
7
  6
CONTINUOUS
 10
-60.9581571323
 20
12.9977763164
 11
-60.8155993147
 21
13.1403341341
  0
LINE
  5
420
100
AcDbEntity
  8
0
100
AcDbLine
 62
7
  6
CONTINUOUS
 10
-59.8764524488
 20
14.079481
 11
-59.6748154488
 21
14.281118
  0
LINE
  5
421
100
AcDbEntity
  8
0
100
AcDbLine
 62
7
  6
CONTINUOUS
 10
-58.6340248464
 20
15.3219086024
 11
-58.4324185567
 21
15.5235148921
  0
LINE
  5
422
100
AcDbEntity
  8
0
100
AcDbLine
 62
7
  6
CONTINUOUS
 10
-60.9161581883
 20
12.9557709748
 11
-60.7735997071
 21
13.098329456
  0
LINE
  5
423
100
AcDbEntity
  8
0
100
AcDbLine
 62
7
  6
CONTINUOUS
 10
-59.7924481632
 20
14.079481
 11
-59.5908111632
 21
14.281118
  0
LINE
  5
424
100
AcDbEntity
  8
0
100
AcDbLine
 62
7
  6
CONTINUOUS
 10
-58.6340248464
 20
15.2379043168
 11
-58.4324185567
 21
15.4395106065
  0
LINE
  5
425
100
AcDbEntity
  8
0
100
AcDbLine
 62
7
  6
CONTINUOUS
 10
-60.8741592443
 20
12.9137656332
 11
-60.7316000996
 21
13.056324778
  0
LINE
  5
426
100
AcDbEntity
  8
0
100
AcDbLine
 62
7
  6
CONTINUOUS
 10
-59.7084438776
 20
14.079481
 11
-59.5068068776
 21
14.281118
  0
LINE
  5
427
100
AcDbEntity
  8
0
100
AcDbLine
 62
7
  6
CONTINUOUS
 10
-58.6340248464
 20
15.1539000311
 11
-58.4324185567
 21
15.3555063209
  0
LINE
  5
428
100
AcDbEntity
  8
0
100
AcDbLine
 62
7
  6
CONTINUOUS
 10
-60.8321603003
 20
12.8717602916
 11
-60.689600492
 21
13.0143200999
  0
LINE
  5
429
100
AcDbEntity
  8
0
100
AcDbLine
 62
7
  6
CONTINUOUS
 10
-59.624439592
 20
14.079481
 11
-59.422802592
 21
14.281118
  0
LINE
  5
42A
100
AcDbEntity
  8
0
100
AcDbLine
 62
7
  6
CONTINUOUS
 10
-58.6340248464
 20
15.0698957455
 11
-58.4324185567
 21
15.2715020353
  0
LINE
  5
42B
100
AcDbEntity
  8
0
100
AcDbLine
 62
7
  6
CONTINUOUS
 10
-60.7901613564
 20
12.82975495
 11
-60.6476008845
 21
12.9723154218
  0
LINE
  5
42C
100
AcDbEntity
  8
0
100
AcDbLine
 62
7
  6
CONTINUOUS
 10
-59.5404353063
 20
14.079481
 11
-59.3387983063
 21
14.281118
  0
LINE
  5
42D
100
AcDbEntity
  8
0
100
AcDbLine
 62
7
  6
CONTINUOUS
 10
-58.6340248464
 20
14.9858914599
 11
-58.4324185567
 21
15.1874977496
  0
LINE
  5
42E
100
AcDbEntity
  8
0
100
AcDbLine
 62
7
  6
CONTINUOUS
 10
-60.7481624124
 20
12.7877496084
 11
-60.605601277
 21
12.9303107438
  0
LINE
  5
42F
100
AcDbEntity
  8
0
100
AcDbLine
 62
7
  6
CONTINUOUS
 10
-59.4564310207
 20
14.079481
 11
-59.2547940207
 21
14.281118
  0
LINE
  5
430
100
AcDbEntity
  8
0
100
AcDbLine
 62
7
  6
CONTINUOUS
 10
-58.6340248464
 20
14.9018871743
 11
-58.4324185567
 21
15.103493464
  0
LINE
  5
431
100
AcDbEntity
  8
0
100
AcDbLine
 62
7
  6
CONTINUOUS
 10
-60.7061634684
 20
12.7457442668
 11
-60.5636016694
 21
12.8883060657
  0
LINE
  5
432
100
AcDbEntity
  8
0
100
AcDbLine
 62
7
  6
CONTINUOUS
 10
-59.3724267351
 20
14.079481
 11
-59.1707897351
 21
14.281118
  0
LINE
  5
433
100
AcDbEntity
  8
0
100
AcDbLine
 62
7
  6
CONTINUOUS
 10
-58.6340248464
 20
14.8178828887
 11
-58.4324185567
 21
15.0194891784
  0
LINE
  5
434
100
AcDbEntity
  8
0
100
AcDbLine
 62
7
  6
CONTINUOUS
 10
-60.6641645244
 20
12.7037389252
 11
-60.5216020619
 21
12.8463013876
  0
LINE
  5
435
100
AcDbEntity
  8
0
100
AcDbLine
 62
7
  6
CONTINUOUS
 10
-59.2884224495
 20
14.079481
 11
-59.0867854495
 21
14.281118
  0
LINE
  5
436
100
AcDbEntity
  8
0
100
AcDbLine
 62
7
  6
CONTINUOUS
 10
-58.6340248464
 20
14.7338786031
 11
-58.4324185567
 21
14.9354848928
  0
LINE
  5
437
100
AcDbEntity
  8
0
100
AcDbLine
 62
7
  6
CONTINUOUS
 10
-60.6221655804
 20
12.6617335836
 11
-60.4796024544
 21
12.8042967096
  0
LINE
  5
438
100
AcDbEntity
  8
0
100
AcDbLine
 62
7
  6
CONTINUOUS
 10
-59.2044181639
 20
14.079481
 11
-59.0027811639
 21
14.281118
  0
LINE
  5
439
100
AcDbEntity
  8
0
100
AcDbLine
 62
7
  6
CONTINUOUS
 10
-58.6340248464
 20
14.6498743175
 11
-58.4324185567
 21
14.8514806072
  0
LINE
  5
43A
100
AcDbEntity
  8
0
100
AcDbLine
 62
7
  6
CONTINUOUS
 10
-60.5801666364
 20
12.6197282419
 11
-60.4376028468
 21
12.7622920315
  0
LINE
  5
43B
100
AcDbEntity
  8
0
100
AcDbLine
 62
7
  6
CONTINUOUS
 10
-59.1204138783
 20
14.079481
 11
-58.9187768783
 21
14.281118
  0
LINE
  5
43C
100
AcDbEntity
  8
0
100
AcDbLine
 62
7
  6
CONTINUOUS
 10
-58.6340248464
 20
14.5658700319
 11
-58.4324185567
 21
14.7674763216
  0
LINE
  5
43D
100
AcDbEntity
  8
0
100
AcDbLine
 62
7
  6
CONTINUOUS
 10
-61.3271706048
 20
11.7887199879
 11
-61.3035385927
 21
11.812352
  0
LINE
  5
43E
100
AcDbEntity
  8
0
100
AcDbLine
 62
7
  6
CONTINUOUS
 10
-60.5381676924
 20
12.5777229003
 11
-60.3956032393
 21
12.7202873534
  0
LINE
  5
43F
100
AcDbEntity
  8
0
100
AcDbLine
 62
7
  6
CONTINUOUS
 10
-59.0364095927
 20
14.079481
 11
-58.8347725927
 21
14.281118
  0
LINE
  5
440
100
AcDbEntity
  8
0
100
AcDbLine
 62
7
  6
CONTINUOUS
 10
-58.6340248464
 20
14.4818657463
 11
-58.4324185567
 21
14.683472036
  0
LINE
  5
441
100
AcDbEntity
  8
0
100
AcDbLine
 62
7
  6
CONTINUOUS
 10
-61.3271706048
 20
11.7047157023
 11
-61.2195343071
 21
11.812352
  0
LINE
  5
442
100
AcDbEntity
  8
0
100
AcDbLine
 62
7
  6
CONTINUOUS
 10
-60.4961687484
 20
12.5357175587
 11
-60.3536036318
 21
12.6782826754
  0
LINE
  5
443
100
AcDbEntity
  8
0
100
AcDbLine
 62
7
  6
CONTINUOUS
 10
-58.9524053071
 20
14.079481
 11
-58.7507683071
 21
14.281118
  0
LINE
  5
444
100
AcDbEntity
  8
0
100
AcDbLine
 62
7
  6
CONTINUOUS
 10
-58.6340248464
 20
14.3978614607
 11
-58.4324185567
 21
14.5994677504
  0
LINE
  5
445
100
AcDbEntity
  8
0
100
AcDbLine
 62
7
  6
CONTINUOUS
 10
-61.3271706048
 20
11.6207114167
 11
-61.1355300215
 21
11.812352
  0
LINE
  5
446
100
AcDbEntity
  8
0
100
AcDbLine
 62
7
  6
CONTINUOUS
 10
-60.4541698044
 20
12.4937122171
 11
-60.3116040242
 21
12.6362779973
  0
LINE
  5
447
100
AcDbEntity
  8
0
100
AcDbLine
 62
7
  6
CONTINUOUS
 10
-58.8684010215
 20
14.079481
 11
-58.6667640215
 21
14.281118
  0
LINE
  5
448
100
AcDbEntity
  8
0
100
AcDbLine
 62
7
  6
CONTINUOUS
 10
-58.6340248464
 20
14.3138571751
 11
-58.4324185567
 21
14.5154634648
  0
LINE
  5
449
100
AcDbEntity
  8
0
100
AcDbLine
 62
7
  6
CONTINUOUS
 10
-61.2531627359
 20
11.610715
 11
-61.0515257359
 21
11.812352
  0
LINE
  5
44A
100
AcDbEntity
  8
0
100
AcDbLine
 62
7
  6
CONTINUOUS
 10
-60.4121708604
 20
12.4517068755
 11
-60.2696044167
 21
12.5942733192
  0
LINE
  5
44B
100
AcDbEntity
  8
0
100
AcDbLine
 62
7
  6
CONTINUOUS
 10
-58.7843967359
 20
14.079481
 11
-58.4324185567
 21
14.4314591792
  0
LINE
  5
44C
100
AcDbEntity
  8
0
100
AcDbLine
 62
7
  6
CONTINUOUS
 10
-61.1691584503
 20
11.610715
 11
-60.9675214503
 21
11.812352
  0
LINE
  5
44D
100
AcDbEntity
  8
0
100
AcDbLine
 62
7
  6
CONTINUOUS
 10
-60.3701719164
 20
12.4097015339
 11
-60.2276048091
 21
12.5522686412
  0
LINE
  5
44E
100
AcDbEntity
  8
0
100
AcDbLine
 62
7
  6
CONTINUOUS
 10
-58.7003924503
 20
14.079481
 11
-58.4324185567
 21
14.3474548936
  0
LINE
  5
44F
100
AcDbEntity
  8
0
100
AcDbLine
 62
7
  6
CONTINUOUS
 10
-61.0851541647
 20
11.610715
 11
-60.8835171647
 21
11.812352
  0
LINE
  5
450
100
AcDbEntity
  8
0
100
AcDbLine
 62
7
  6
CONTINUOUS
 10
-60.3281729724
 20
12.3676961923
 11
-60.1856052016
 21
12.5102639631
  0
LINE
  5
451
100
AcDbEntity
  8
0
100
AcDbLine
 62
7
  6
CONTINUOUS
 10
-58.6163881647
 20
14.079481
 11
-58.4324185567
 21
14.263450608
  0
LINE
  5
452
100
AcDbEntity
  8
0
100
AcDbLine
 62
7
  6
CONTINUOUS
 10
-61.0011498791
 20
11.610715
 11
-60.7995128791
 21
11.812352
  0
LINE
  5
453
100
AcDbEntity
  8
0
100
AcDbLine
 62
7
  6
CONTINUOUS
 10
-60.2861740284
 20
12.3256908507
 11
-60.1436055941
 21
12.468259285
  0
LINE
  5
454
100
AcDbEntity
  8
0
100
AcDbLine
 62
7
  6
CONTINUOUS
 10
-58.5323838791
 20
14.079481
 11
-58.4324185567
 21
14.1794463224
  0
LINE
  5
455
100
AcDbEntity
  8
0
100
AcDbLine
 62
7
  6
CONTINUOUS
 10
-60.9171455935
 20
11.610715
 11
-60.7155085935
 21
11.812352
  0
LINE
  5
456
100
AcDbEntity
  8
0
100
AcDbLine
 62
7
  6
CONTINUOUS
 10
-60.2441750844
 20
12.2836855091
 11
-60.1016059865
 21
12.4262546069
  0
LINE
  5
457
100
AcDbEntity
  8
0
100
AcDbLine
 62
7
  6
CONTINUOUS
 10
-58.4483795935
 20
14.079481
 11
-58.4324185567
 21
14.0954420368
  0
LINE
  5
458
100
AcDbEntity
  8
0
100
AcDbLine
 62
7
  6
CONTINUOUS
 10
-60.8331413079
 20
11.610715
 11
-60.6315043079
 21
11.812352
  0
LINE
  5
459
100
AcDbEntity
  8
0
100
AcDbLine
 62
7
  6
CONTINUOUS
 10
-60.2021761404
 20
12.2416801674
 11
-60.059606379
 21
12.3842499289
  0
LINE
  5
45A
100
AcDbEntity
  8
0
100
AcDbLine
 62
7
  6
CONTINUOUS
 10
-60.7491370223
 20
11.610715
 11
-60.5475000223
 21
11.812352
  0
LINE
  5
45B
100
AcDbEntity
  8
0
100
AcDbLine
 62
7
  6
CONTINUOUS
 10
-60.1601771964
 20
12.1996748258
 11
-60.0176067715
 21
12.3422452508
  0
LINE
  5
45C
100
AcDbEntity
  8
0
100
AcDbLine
 62
7
  6
CONTINUOUS
 10
-60.6651327367
 20
11.610715
 11
-60.4634957367
 21
11.812352
  0
LINE
  5
45D
100
AcDbEntity
  8
0
100
AcDbLine
 62
7
  6
CONTINUOUS
 10
-60.1181782524
 20
12.1576694842
 11
-59.9756071639
 21
12.3002405727
  0
LINE
  5
45E
100
AcDbEntity
  8
0
100
AcDbLine
 62
7
  6
CONTINUOUS
 10
-60.5811284511
 20
11.610715
 11
-60.3794914511
 21
11.812352
  0
LINE
  5
45F
100
AcDbEntity
  8
0
100
AcDbLine
 62
7
  6
CONTINUOUS
 10
-60.0761793085
 20
12.1156641426
 11
-59.9336075564
 21
12.2582358947
  0
LINE
  5
460
100
AcDbEntity
  8
0
100
AcDbLine
 62
7
  6
CONTINUOUS
 10
-60.4971241655
 20
11.610715
 11
-60.2954871655
 21
11.812352
  0
LINE
  5
461
100
AcDbEntity
  8
0
100
AcDbLine
 62
7
  6
CONTINUOUS
 10
-60.0341803645
 20
12.073658801
 11
-59.8916079489
 21
12.2162312166
  0
LINE
  5
462
100
AcDbEntity
  8
0
100
AcDbLine
 62
253
  6
CONTINUOUS
 10
-58.4251346662
 20
13.654331
 11
-59.8773354553
 21
12.201957
  0
LINE
  5
463
100
AcDbEntity
  8
0
100
AcDbLine
 62
7
  6
CONTINUOUS
 10
-61.1242322011
 20
10.8996026787
 11
-61.0026686979
 21
11.021166182
  0
LINE
  5
464
100
AcDbEntity
  8
0
100
AcDbLine
 62
7
  6
CONTINUOUS
 10
-60.4131198799
 20
11.610715
 11
-60.2114828799
 21
11.812352
  0
LINE
  5
465
100
AcDbEntity
  8
0
100
AcDbLine
 62
7
  6
CONTINUOUS
 10
-59.9921814205
 20
12.0316534594
 11
-58.4251346662
 21
13.5987002136
  0
LINE
  5
466
100
AcDbEntity
  8
0
100
AcDbLine
 62
7
  6
CONTINUOUS
 10
-61.2396915035
 20
10.7001390907
 11
-60.8091843712
 21
11.130646223
  0
LINE
  5
467
100
AcDbEntity
  8
0
100
AcDbLine
 62
7
  6
CONTINUOUS
 10
-60.3291155942
 20
11.610715
 11
-60.1274785942
 21
11.812352
  0
LINE
  5
468
100
AcDbEntity
  8
0
100
AcDbLine
 62
7
  6
CONTINUOUS
 10
-59.9501824765
 20
11.9896481178
 11
-58.4251346662
 21
13.514695928
  0
LINE
  5
469
100
AcDbEntity
  8
0
100
AcDbLine
 62
7
  6
CONTINUOUS
 10
-61.2817262089
 20
10.5741000998
 11
-60.6911620825
 21
11.1646642261
  0
LINE
  5
46A
100
AcDbEntity
  8
0
100
AcDbLine
 62
7
  6
CONTINUOUS
 10
-60.2451113086
 20
11.610715
 11
-60.0434743086
 21
11.812352
  0
LINE
  5
46B
100
AcDbEntity
  8
0
100
AcDbLine
 62
7
  6
CONTINUOUS
 10
-59.9081835325
 20
11.9476427762
 11
-58.4251346662
 21
13.4306916424
  0
LINE
  5
46C
100
AcDbEntity
  8
0
100
AcDbLine
 62
253
  6
CONTINUOUS
 10
-59.8773354553
 20
11.91679
 11
-58.4251346662
 21
13.36921
  0
LINE
  5
46D
100
AcDbEntity
  8
CURVE
100
AcDbLine
 62
253
  6
CONTINUOUS
 10
-55.7465802594
 20
16.035714221
 11
-56.0179675314
 21
15.764285779
  0
LINE
  5
46E
100
AcDbEntity
  8
0
100
AcDbLine
 62
7
  6
CONTINUOUS
 10
-61.3035413597
 20
10.4682806634
 11
-60.5954912393
 21
11.1763307837
  0
LINE
  5
46F
100
AcDbEntity
  8
0
100
AcDbLine
 62
7
  6
CONTINUOUS
 10
-60.161107023
 20
11.610715
 11
-59.959470023
 21
11.812352
  0
LINE
  5
470
100
AcDbEntity
  8
0
100
AcDbLine
 62
7
  6
CONTINUOUS
 10
-61.3140759447
 20
10.3737417927
 11
-61.0463860866
 21
10.6414316508
  0
LINE
  5
471
100
AcDbEntity
  8
0
100
AcDbLine
 62
7
  6
CONTINUOUS
 10
-60.7501817405
 20
10.9376359969
 11
-60.5112258608
 21
11.1765918767
  0
LINE
  5
472
100
AcDbEntity
  8
0
100
AcDbLine
 62
7
  6
CONTINUOUS
 10
-60.0771027374
 20
11.610715
 11
-59.8754657374
 21
11.812352
  0
LINE
  5
473
100
AcDbEntity
  8
0
100
AcDbLine
 62
7
  6
CONTINUOUS
 10
-61.3172257889
 20
10.2865876629
 11
-61.0889607144
 21
10.5148527374
  0
LINE
  5
474
100
AcDbEntity
  8
0
100
AcDbLine
 62
7
  6
CONTINUOUS
 10
-60.6342811399
 20
10.9695323119
 11
-60.4341800779
 21
11.169633374
  0
LINE
  5
475
100
AcDbEntity
  8
0
100
AcDbLine
 62
7
  6
CONTINUOUS
 10
-59.9930984518
 20
11.610715
 11
-59.7914614518
 21
11.812352
  0
LINE
  5
476
100
AcDbEntity
  8
0
100
AcDbLine
 62
7
  6
CONTINUOUS
 10
-61.3175699276
 20
10.2022392387
 11
-61.1073995422
 21
10.412409624
  0
LINE
  5
477
100
AcDbEntity
  8
0
100
AcDbLine
 62
7
  6
CONTINUOUS
 10
-60.5429728312
 20
10.976836335
 11
-60.3630341839
 21
11.1567749824
  0
LINE
  5
478
100
AcDbEntity
  8
0
100
AcDbLine
 62
7
  6
CONTINUOUS
 10
-59.9090941662
 20
11.610715
 11
-59.7074571662
 21
11.812352
  0
LINE
  5
479
100
AcDbEntity
  8
CURVE
100
AcDbLine
 62
253
  6
CONTINUOUS
 10
-56.5607419621
 20
15.9904762983
 11
-56.8321291775
 21
15.764285779
  0
LINE
  5
47A
100
AcDbEntity
  8
0
100
AcDbLine
 62
253
  6
CONTINUOUS
 10
-58.4251350865
 20
11.0860472269
 11
-59.7326210016
 21
10.3998519318
  0
LINE
  5
47B
100
AcDbEntity
  8
CURVE
100
AcDbLine
 62
253
  6
CONTINUOUS
 10
-61.3396327065
 20
-15.342748
 11
-59.3440156949
 21
-14.790021
  0
LINE
  5
47C
100
AcDbEntity
  8
RACCORDO
100
AcDbLine
 62
7
  6
CONTINUOUS
 10
-25.9149661503
 20
-11.0143058604
 11
-52.6824185567
 21
-11.1394991238
  0
LINE
  5
47D
100
AcDbEntity
  8
ASSI
100
AcDbLine
 62
7
  6
CONTINUOUS
 10
-25.9149661503
 20
-11.0143058604
 11
-52.6824185567
 21
-11.1394991238
  0
LINE
  5
47E
100
AcDbEntity
  8
RACCORDO
100
AcDbLine
 62
7
  6
CONTINUOUS
 10
-48.2324185567
 20
-10.8009761865
 11
-52.6824185567
 21
-10.8113818759
  0
LINE
  5
47F
100
AcDbEntity
  8
ASSI
100
AcDbLine
 62
7
  6
CONTINUOUS
 10
-48.2324185567
 20
-10.8009761865
 11
-52.6824185567
 21
-10.8113818759
  0
LINE
  5
480
100
AcDbEntity
  8
CURVE
100
AcDbLine
 62
253
  6
CONTINUOUS
 10
-61.33980668
 20
-13.390935
 11
-58.4404213377
 21
-13.390935
  0
LINE
  5
481
100
AcDbEntity
  8
CURVE
100
AcDbLine
 62
253
  6
CONTINUOUS
 10
-58.4404213377
 20
-12.785664
 11
-61.33980668
 21
-12.785664
  0
LINE
  5
482
100
AcDbEntity
  8
RACCORDO
100
AcDbLine
 62
7
  6
CONTINUOUS
 10
-24.9324185567
 20
-10.75
 11
-26.4324185567
 21
-10.75
  0
LINE
  5
483
100
AcDbEntity
  8
ASSI
100
AcDbLine
 62
7
  6
CONTINUOUS
 10
-24.9324185567
 20
-10.75
 11
-26.4324185567
 21
-10.75
  0
LINE
  5
484
100
AcDbEntity
  8
CURVE
100
AcDbLine
 62
253
  6
CONTINUOUS
 10
-60.3335519608
 20
-11.750162
 11
-58.4404213377
 21
-11.880779
  0
LINE
  5
485
100
AcDbEntity
  8
CURVE
100
AcDbLine
 62
253
  6
CONTINUOUS
 10
-58.4404213377
 20
-12.459827
 11
-61.3396327065
 21
-12.198005
  0
LINE
  5
486
100
AcDbEntity
  8
CURVE
100
AcDbLine
 62
253
  6
CONTINUOUS
 10
-59.7299819014
 20
-10.994355
 11
-61.3396327065
 21
-10.389084
  0
LINE
  5
487
100
AcDbEntity
  8
CURVE
100
AcDbLine
 62
253
  6
CONTINUOUS
 10
-60.3256601629
 20
-10.235548
 11
-58.4404213377
 21
-10.955216
  0
LINE
  5
488
100
AcDbEntity
  8
ASSI
100
AcDbLine
 62
7
  6
CONTINUOUS
 10
-66.9324185567
 20
23.1226497308
 11
-66.9324185567
 21
22.3213883311
  0
LINE
  5
489
100
AcDbEntity
  8
ASSI
100
AcDbLine
 62
7
  6
CONTINUOUS
 10
-66.9324185567
 20
-22.3213883311
 11
-66.9324185567
 21
-23.1226497308
  0
LINE
  5
48A
100
AcDbEntity
  8
ASSI
100
AcDbLine
 62
253
  6
CONTINUOUS
 10
-66.6867816583
 20
23.2097560788
 11
-66.6867816583
 21
22.3341525772
  0
LINE
  5
48B
100
AcDbEntity
  8
ASSI
100
AcDbLine
 62
253
  6
CONTINUOUS
 10
-66.6867816583
 20
-22.3341525772
 11
-66.6867816583
 21
-23.2097560788
  0
LINE
  5
48C
100
AcDbEntity
  8
ASSI
100
AcDbLine
 62
7
  6
CONTINUOUS
 10
-65.4324185567
 20
21.9000761524
 11
-65.4324185567
 21
18.5
  0
LINE
  5
48D
100
AcDbEntity
  8
ASSI
100
AcDbLine
 62
7
  6
CONTINUOUS
 10
-65.4324185567
 20
-24.300030461
 11
-65.4324185567
 21
-22.3999997358
  0
LINE
  5
48E
100
AcDbEntity
  8
ASSI
100
AcDbLine
 62
7
  6
CONTINUOUS
 10
-65.4324185567
 20
-21.9000761524
 11
-65.4324185567
 21
-18.5
  0
LINE
  5
48F
100
AcDbEntity
  8
ASSI
100
AcDbLine
 62
7
  6
CONTINUOUS
 10
-65.4324185567
 20
22.3999999296
 11
-65.4324185567
 21
24.300030461
  0
LINE
  5
490
100
AcDbEntity
  8
ASSI
100
AcDbLine
 62
253
  6
CONTINUOUS
 10
-64.6780554551
 20
-23.5581814706
 11
-64.6780554551
 21
-22.3868325431
  0
LINE
  5
491
100
AcDbEntity
  8
ASSI
100
AcDbLine
 62
253
  6
CONTINUOUS
 10
-64.6780554551
 20
22.3868325431
 11
-64.6780554551
 21
23.5581814706
  0
LINE
  5
492
100
AcDbEntity
  8
ASSI
100
AcDbLine
 62
253
  6
CONTINUOUS
 10
-64.6289280754
 20
-24.2368706193
 11
-64.6289280754
 21
-23.8443375673
  0
LINE
  5
493
100
AcDbEntity
  8
ASSI
100
AcDbLine
 62
253
  6
CONTINUOUS
 10
-64.6289280754
 20
23.8443375673
 11
-64.6289280754
 21
24.2368706193
  0
LINE
  5
494
100
AcDbEntity
  8
ASSI
100
AcDbLine
 62
7
  6
CONTINUOUS
 10
-64.4324185567
 20
-18.5674550649
 11
-64.4324185567
 21
-24.2368706193
  0
LINE
  5
495
100
AcDbEntity
  8
ASSI
100
AcDbLine
 62
7
  6
CONTINUOUS
 10
-64.4324185567
 20
18.5674550649
 11
-64.4324185567
 21
24.2368706193
  0
LINE
  5
496
100
AcDbEntity
  8
0
100
AcDbLine
 62
7
  6
CONTINUOUS
 10
-61.3175699276
 20
10.1182349531
 11
-61.1145277606
 21
10.32127712
  0
LINE
  5
497
100
AcDbEntity
  8
0
100
AcDbLine
 62
7
  6
CONTINUOUS
 10
-60.4649572685
 20
10.9708476121
 11
-60.2985400009
 21
11.1372648797
  0
LINE
  5
498
100
AcDbEntity
  8
0
100
AcDbLine
 62
7
  6
CONTINUOUS
 10
-59.8250898806
 20
11.610715
 11
-59.6234528806
 21
11.812352
  0
LINE
  5
499
100
AcDbEntity
  8
0
100
AcDbLine
 62
7
  6
CONTINUOUS
 10
-61.3175699276
 20
10.0342306675
 11
-61.1159635162
 21
10.2358370789
  0
LINE
  5
49A
100
AcDbEntity
  8
0
100
AcDbLine
 62
7
  6
CONTINUOUS
 10
-60.3953927074
 20
10.9564078876
 11
-60.2377912999
 21
11.1140092951
  0
LINE
  5
49B
100
AcDbEntity
  8
0
100
AcDbLine
 62
7
  6
CONTINUOUS
 10
-59.741085595
 20
11.610715
 11
-59.539448595
 21
11.812352
  0
LINE
  5
49C
100
AcDbEntity
  8
0
100
AcDbLine
 62
7
  6
CONTINUOUS
 10
-61.3175699276
 20
9.9502263819
 11
-61.1159635162
 21
10.1518327933
  0
LINE
  5
49D
100
AcDbEntity
  8
0
100
AcDbLine
 62
7
  6
CONTINUOUS
 10
-60.3329724069
 20
10.9348239025
 11
-60.1799836358
 21
11.0878126737
  0
LINE
  5
49E
100
AcDbEntity
  8
0
100
AcDbLine
 62
7
  6
CONTINUOUS
 10
-59.6570813094
 20
11.610715
 11
-59.4554443094
 21
11.812352
  0
LINE
  5
49F
100
AcDbEntity
  8
0
100
AcDbLine
 62
7
  6
CONTINUOUS
 10
-61.3175699276
 20
9.8662220962
 11
-61.1159635162
 21
10.0678285076
  0
LINE
  5
4A0
100
AcDbEntity
  8
0
100
AcDbLine
 62
7
  6
CONTINUOUS
 10
-60.2760498209
 20
10.9077422029
 11
-60.1274198006
 21
11.0563722232
  0
LINE
  5
4A1
100
AcDbEntity
  8
0
100
AcDbLine
 62
7
  6
CONTINUOUS
 10
-59.5730770238
 20
11.610715
 11
-59.3714400238
 21
11.812352
  0
LINE
  5
4A2
100
AcDbEntity
  8
0
100
AcDbLine
 62
7
  6
CONTINUOUS
 10
-61.3175699276
 20
9.7822178106
 11
-61.1159635162
 21
9.983824222
  0
LINE
  5
4A3
100
AcDbEntity
  8
0
100
AcDbLine
 62
7
  6
CONTINUOUS
 10
-60.2234741983
 20
10.8763135399
 11
-60.0774561064
 21
11.0223316318
  0
LINE
  5
4A4
100
AcDbEntity
  8
0
100
AcDbLine
 62
7
  6
CONTINUOUS
 10
-59.4890727382
 20
11.610715
 11
-59.2874357382
 21
11.812352
  0
LINE
  5
4A5
100
AcDbEntity
  8
0
100
AcDbLine
 62
7
  6
CONTINUOUS
 10
-61.3175699276
 20
9.698213525
 11
-61.1159635162
 21
9.8998199364
  0
LINE
  5
4A6
100
AcDbEntity
  8
0
100
AcDbLine
 62
7
  6
CONTINUOUS
 10
-60.1747945286
 20
10.840988924
 11
-60.0301693402
 21
10.9856141124
  0
LINE
  5
4A7
100
AcDbEntity
  8
0
100
AcDbLine
 62
7
  6
CONTINUOUS
 10
-59.4050684526
 20
11.610715
 11
-59.2034314526
 21
11.812352
  0
LINE
  5
4A8
100
AcDbEntity
  8
0
100
AcDbLine
 62
7
  6
CONTINUOUS
 10
-61.3175699276
 20
9.6142092394
 11
-61.1159635162
 21
9.8158156508
  0
LINE
  5
4A9
100
AcDbEntity
  8
0
100
AcDbLine
 62
7
  6
CONTINUOUS
 10
-60.1312321484
 20
10.8005470185
 11
-59.9875677236
 21
10.9442114433
  0
LINE
  5
4AA
100
AcDbEntity
  8
0
100
AcDbLine
 62
7
  6
CONTINUOUS
 10
-59.321064167
 20
11.610715
 11
-59.119427167
 21
11.812352
  0
LINE
  5
4AB
100
AcDbEntity
  8
0
100
AcDbLine
 62
7
  6
CONTINUOUS
 10
-61.3175699276
 20
9.5302049538
 11
-61.1159635162
 21
9.7318113652
  0
LINE
  5
4AC
100
AcDbEntity
  8
0
100
AcDbLine
 62
7
  6
CONTINUOUS
 10
-60.0913998474
 20
10.756375034
 11
-59.9463454856
 21
10.9014293958
  0
LINE
  5
4AD
100
AcDbEntity
  8
0
100
AcDbLine
 62
7
  6
CONTINUOUS
 10
-59.2370598814
 20
11.610715
 11
-59.0354228814
 21
11.812352
  0
LINE
  5
4AE
100
AcDbEntity
  8
0
100
AcDbLine
 62
7
  6
CONTINUOUS
 10
-61.3175699276
 20
9.4462006682
 11
-61.1159635162
 21
9.6478070796
  0
LINE
  5
4AF
100
AcDbEntity
  8
0
100
AcDbLine
 62
7
  6
CONTINUOUS
 10
-60.0555941732
 20
10.7081764226
 11
-59.9096637534
 21
10.8541068424
  0
LINE
  5
4B0
100
AcDbEntity
  8
0
100
AcDbLine
 62
7
  6
CONTINUOUS
 10
-59.1530555958
 20
11.610715
 11
-58.9514185958
 21
11.812352
  0
LINE
  5
4B1
100
AcDbEntity
  8
0
100
AcDbLine
 62
7
  6
CONTINUOUS
 10
-61.3175699276
 20
9.3621963826
 11
-61.1159635162
 21
9.563802794
  0
LINE
  5
4B2
100
AcDbEntity
  8
0
100
AcDbLine
 62
7
  6
CONTINUOUS
 10
-60.0236775561
 20
10.6560887541
 11
-59.8751719023
 21
10.8045944079
  0
LINE
  5
4B3
100
AcDbEntity
  8
0
100
AcDbLine
 62
7
  6
CONTINUOUS
 10
-59.0690513102
 20
11.610715
 11
-58.8674143102
 21
11.812352
  0
LINE
  5
4B4
100
AcDbEntity
  8
0
100
AcDbLine
 62
7
  6
CONTINUOUS
 10
-61.3175699276
 20
9.278192097
 11
-61.1159635162
 21
9.4797985084
  0
LINE
  5
4B5
100
AcDbEntity
  8
0
100
AcDbLine
 62
7
  6
CONTINUOUS
 10
-59.9957366777
 20
10.6000253469
 11
-59.8437623948
 21
10.7519996298
  0
LINE
  5
4B6
100
AcDbEntity
  8
0
100
AcDbLine
 62
7
  6
CONTINUOUS
 10
-58.9850470246
 20
11.610715
 11
-58.7834100246
 21
11.812352
  0
LINE
  5
4B7
100
AcDbEntity
  8
0
100
AcDbLine
 62
7
  6
CONTINUOUS
 10
-61.3175699276
 20
9.1941878114
 11
-61.1159635162
 21
9.3957942228
  0
LINE
  5
4B8
100
AcDbEntity
  8
0
100
AcDbLine
 62
7
  6
CONTINUOUS
 10
-59.9721115114
 20
10.5396462276
 11
-59.8160063561
 21
10.6957513829
  0
LINE
  5
4B9
100
AcDbEntity
  8
0
100
AcDbLine
 62
7
  6
CONTINUOUS
 10
-58.901042739
 20
11.610715
 11
-58.699405739
 21
11.812352
  0
LINE
  5
4BA
100
AcDbEntity
  8
0
100
AcDbLine
 62
7
  6
CONTINUOUS
 10
-61.2959733992
 20
9.1317800542
 11
-61.1159635162
 21
9.3117899372
  0
LINE
  5
4BB
100
AcDbEntity
  8
0
100
AcDbLine
 62
7
  6
CONTINUOUS
 10
-59.9524457196
 20
10.4753077337
 11
-59.7911544507
 21
10.6365990026
  0
LINE
  5
4BC
100
AcDbEntity
  8
0
100
AcDbLine
 62
7
  6
CONTINUOUS
 10
-58.8170384534
 20
11.610715
 11
-58.6154014534
 21
11.812352
  0
LINE
  5
4BD
100
AcDbEntity
  8
CURVE
100
AcDbLine
 62
253
  6
CONTINUOUS
 10
-55.7465802594
 20
14.678571558
 11
-56.0179675314
 21
14.407142663
  0
LINE
  5
4BE
100
AcDbEntity
  8
0
100
AcDbLine
 62
7
  6
CONTINUOUS
 10
-61.2119691136
 20
9.1317800542
 11
-61.1159635162
 21
9.2277856516
  0
LINE
  5
4BF
100
AcDbEntity
  8
0
100
AcDbLine
 62
7
  6
CONTINUOUS
 10
-59.9379131103
 20
10.4058360575
 11
-59.7694562845
 21
10.5742928832
  0
LINE
  5
4C0
100
AcDbEntity
  8
0
100
AcDbLine
 62
7
  6
CONTINUOUS
 10
-58.7330341678
 20
11.610715
 11
-58.5313971678
 21
11.812352
  0
LINE
  5
4C1
100
AcDbEntity
  8
0
100
AcDbLine
 62
7
  6
CONTINUOUS
 10
-61.127964828
 20
9.1317800542
 11
-61.1159635162
 21
9.143781366
  0
LINE
  5
4C2
100
AcDbEntity
  8
0
100
AcDbLine
 62
7
  6
CONTINUOUS
 10
-59.9286141307
 20
10.3311307515
 11
-59.7523987641
 21
10.5073461181
  0
LINE
  5
4C3
100
AcDbEntity
  8
0
100
AcDbLine
 62
7
  6
CONTINUOUS
 10
-58.6490298822
 20
11.610715
 11
-58.4473928822
 21
11.812352
  0
LINE
  5
4C4
100
AcDbEntity
  8
0
100
AcDbLine
 62
7
  6
CONTINUOUS
 10
-59.924679184
 20
10.2510614126
 11
-59.7388425241
 21
10.4368980725
  0
LINE
  5
4C5
100
AcDbEntity
  8
0
100
AcDbLine
 62
7
  6
CONTINUOUS
 10
-58.5650255965
 20
11.610715
 11
-58.4251346662
 21
11.7506059303
  0
LINE
  5
4C6
100
AcDbEntity
  8
0
100
AcDbLine
 62
7
  6
CONTINUOUS
 10
-59.9242014783
 20
10.1675348326
 11
-59.6468921038
 21
10.4448442071
  0
LINE
  5
4C7
100
AcDbEntity
  8
0
100
AcDbLine
 62
7
  6
CONTINUOUS
 10
-58.4810213109
 20
11.610715
 11
-58.4251346662
 21
11.6666016447
  0
LINE
  5
4C8
100
AcDbEntity
  8
0
100
AcDbLine
 62
7
  6
CONTINUOUS
 10
-61.3330337117
 20
8.6746983137
 11
-61.3073700253
 21
8.700362
  0
LINE
  5
4C9
100
AcDbEntity
  8
0
100
AcDbLine
 62
7
  6
CONTINUOUS
 10
-59.9242014783
 20
10.083530547
 11
-59.4701078152
 21
10.5376242101
  0
LINE
  5
4CA
100
AcDbEntity
  8
0
100
AcDbLine
 62
7
  6
CONTINUOUS
 10
-61.3330337117
 20
8.5906940281
 11
-61.2233657397
 21
8.700362
  0
LINE
  5
4CB
100
AcDbEntity
  8
0
100
AcDbLine
 62
7
  6
CONTINUOUS
 10
-59.7725385605
 20
10.1511891792
 11
-59.2933235267
 21
10.630404213
  0
LINE
  5
4CC
100
AcDbEntity
  8
0
100
AcDbLine
 62
7
  6
CONTINUOUS
 10
-61.3330337117
 20
8.5066897425
 11
-61.1393614541
 21
8.700362
  0
LINE
  5
4CD
100
AcDbEntity
  8
0
100
AcDbLine
 62
7
  6
CONTINUOUS
 10
-59.5957568976
 20
10.2439665566
 11
-59.1165392381
 21
10.723184216
  0
LINE
  5
4CE
100
AcDbEntity
  8
0
100
AcDbLine
 62
7
  6
CONTINUOUS
 10
-61.2950547642
 20
8.4606644043
 11
-61.0553571685
 21
8.700362
  0
LINE
  5
4CF
100
AcDbEntity
  8
0
100
AcDbLine
 62
7
  6
CONTINUOUS
 10
-59.4189752346
 20
10.3367439339
 11
-58.9397549496
 21
10.815964219
  0
LINE
  5
4D0
100
AcDbEntity
  8
0
100
AcDbLine
 62
7
  6
CONTINUOUS
 10
-61.2499414306
 20
8.4217734524
 11
-60.9713528829
 21
8.700362
  0
LINE
  5
4D1
100
AcDbEntity
  8
0
100
AcDbLine
 62
7
  6
CONTINUOUS
 10
-59.2421935717
 20
10.4295213112
 11
-58.762970661
 21
10.9087442219
  0
LINE
  5
4D2
100
AcDbEntity
  8
0
100
AcDbLine
 62
7
  6
CONTINUOUS
 10
-61.2048280969
 20
8.3828825004
 11
-60.8873485973
 21
8.700362
  0
LINE
  5
4D3
100
AcDbEntity
  8
0
100
AcDbLine
 62
7
  6
CONTINUOUS
 10
-59.0654119088
 20
10.5222986885
 11
-58.5861863724
 21
11.0015242249
  0
LINE
  5
4D4
100
AcDbEntity
  8
0
100
AcDbLine
 62
7
  6
CONTINUOUS
 10
-61.1597147632
 20
8.3439915485
 11
-61.0167551126
 21
8.4869511991
  0
LINE
  5
4D5
100
AcDbEntity
  8
0
100
AcDbLine
 62
7
  6
CONTINUOUS
 10
-61.0049813117
 20
8.498725
 11
-60.8033443117
 21
8.700362
  0
LINE
  5
4D6
100
AcDbEntity
  8
0
100
AcDbLine
 62
7
  6
CONTINUOUS
 10
-58.8886302459
 20
10.6150760658
 11
-58.4251350865
 21
11.0785712252
  0
LINE
  5
4D7
100
AcDbEntity
  8
0
100
AcDbLine
 62
7
  6
CONTINUOUS
 10
-61.1146014295
 20
8.3051005966
 11
-60.9716415657
 21
8.4480604604
  0
LINE
  5
4D8
100
AcDbEntity
  8
0
100
AcDbLine
 62
7
  6
CONTINUOUS
 10
-60.9209770261
 20
8.498725
 11
-60.7193400261
 21
8.700362
  0
LINE
  5
4D9
100
AcDbEntity
  8
0
100
AcDbLine
 62
7
  6
CONTINUOUS
 10
-58.711848583
 20
10.7078534431
 11
-58.4251350865
 21
10.9945669396
  0
LINE
  5
4DA
100
AcDbEntity
  8
0
100
AcDbLine
 62
7
  6
CONTINUOUS
 10
-61.0694880959
 20
8.2662096446
 11
-60.9265280188
 21
8.4091697217
  0
LINE
  5
4DB
100
AcDbEntity
  8
0
100
AcDbLine
 62
7
  6
CONTINUOUS
 10
-60.8369727405
 20
8.498725
 11
-60.6353357405
 21
8.700362
  0
LINE
  5
4DC
100
AcDbEntity
  8
0
100
AcDbLine
 62
7
  6
CONTINUOUS
 10
-58.53506692
 20
10.8006308205
 11
-58.4251350865
 21
10.910562654
  0
LINE
  5
4DD
100
AcDbEntity
  8
0
100
AcDbLine
 62
7
  6
CONTINUOUS
 10
-61.0243747622
 20
8.2273186927
 11
-60.881414472
 21
8.3702789829
  0
LINE
  5
4DE
100
AcDbEntity
  8
0
100
AcDbLine
 62
7
  6
CONTINUOUS
 10
-60.7529684549
 20
8.498725
 11
-60.5513314549
 21
8.700362
  0
LINE
  5
4DF
100
AcDbEntity
  8
0
100
AcDbLine
 62
7
  6
CONTINUOUS
 10
-60.9792614285
 20
8.1884277408
 11
-60.8363009251
 21
8.3313882442
  0
LINE
  5
4E0
100
AcDbEntity
  8
0
100
AcDbLine
 62
7
  6
CONTINUOUS
 10
-60.6689641693
 20
8.498725
 11
-60.4673271693
 21
8.700362
  0
LINE
  5
4E1
100
AcDbEntity
  8
0
100
AcDbLine
 62
7
  6
CONTINUOUS
 10
-60.9341480949
 20
8.1495367888
 11
-60.7911873782
 21
8.2924975054
  0
LINE
  5
4E2
100
AcDbEntity
  8
0
100
AcDbLine
 62
7
  6
CONTINUOUS
 10
-60.5849598837
 20
8.498725
 11
-60.3833228837
 21
8.700362
  0
LINE
  5
4E3
100
AcDbEntity
  8
0
100
AcDbLine
 62
7
  6
CONTINUOUS
 10
-60.8890347612
 20
8.1106458369
 11
-60.7460738314
 21
8.2536067667
  0
LINE
  5
4E4
100
AcDbEntity
  8
0
100
AcDbLine
 62
7
  6
CONTINUOUS
 10
-60.5009555981
 20
8.498725
 11
-60.2993185981
 21
8.700362
  0
LINE
  5
4E5
100
AcDbEntity
  8
0
100
AcDbLine
 62
7
  6
CONTINUOUS
 10
-60.8439214275
 20
8.071754885
 11
-60.7009602845
 21
8.214716028
  0
LINE
  5
4E6
100
AcDbEntity
  8
0
100
AcDbLine
 62
7
  6
CONTINUOUS
 10
-60.4169513125
 20
8.498725
 11
-60.2153143125
 21
8.700362
  0
LINE
  5
4E7
100
AcDbEntity
  8
0
100
AcDbLine
 62
7
  6
CONTINUOUS
 10
-60.7988080938
 20
8.032863933
 11
-60.6558467376
 21
8.1758252892
  0
LINE
  5
4E8
100
AcDbEntity
  8
0
100
AcDbLine
 62
7
  6
CONTINUOUS
 10
-60.3329470269
 20
8.498725
 11
-60.1313100269
 21
8.700362
  0
LINE
  5
4E9
100
AcDbEntity
  8
CURVE
100
AcDbLine
 62
253
  6
CONTINUOUS
 10
-56.5607419621
 20
12.235714221
 11
-56.8321291775
 21
11.9642856657
  0
LINE
  5
4EA
100
AcDbEntity
  8
0
100
AcDbLine
 62
7
  6
CONTINUOUS
 10
-60.7536947602
 20
7.9939729811
 11
-60.6107331908
 21
8.1369345505
  0
LINE
  5
4EB
100
AcDbEntity
  8
0
100
AcDbLine
 62
7
  6
CONTINUOUS
 10
-60.2489427413
 20
8.498725
 11
-60.0473057413
 21
8.700362
  0
LINE
  5
4EC
100
AcDbEntity
  8
0
100
AcDbLine
 62
7
  6
CONTINUOUS
 10
-60.7085814265
 20
7.9550820292
 11
-60.5656196439
 21
8.0980438117
  0
LINE
  5
4ED
100
AcDbEntity
  8
0
100
AcDbLine
 62
7
  6
CONTINUOUS
 10
-60.1649384557
 20
8.498725
 11
-59.9633014557
 21
8.700362
  0
LINE
  5
4EE
100
AcDbEntity
  8
0
100
AcDbLine
 62
7
  6
CONTINUOUS
 10
-60.6634680928
 20
7.9161910772
 11
-60.520506097
 21
8.059153073
  0
LINE
  5
4EF
100
AcDbEntity
  8
0
100
AcDbLine
 62
7
  6
CONTINUOUS
 10
-60.0809341701
 20
8.498725
 11
-59.8792971701
 21
8.700362
  0
LINE
  5
4F0
100
AcDbEntity
  8
0
100
AcDbLine
 62
7
  6
CONTINUOUS
 10
-60.6183547592
 20
7.8773001253
 11
-60.4753925502
 21
8.0202623343
  0
LINE
  5
4F1
100
AcDbEntity
  8
0
100
AcDbLine
 62
7
  6
CONTINUOUS
 10
-59.9969298844
 20
8.498725
 11
-59.7952928844
 21
8.700362
  0
LINE
  5
4F2
100
AcDbEntity
  8
0
100
AcDbLine
 62
7
  6
CONTINUOUS
 10
-60.5732414255
 20
7.8384091734
 11
-60.4302790033
 21
7.9813715955
  0
LINE
  5
4F3
100
AcDbEntity
  8
0
100
AcDbLine
 62
7
  6
CONTINUOUS
 10
-59.9472798009
 20
8.464370798
 11
-59.7112885988
 21
8.700362
  0
LINE
  5
4F4
100
AcDbEntity
  8
0
100
AcDbLine
 62
7
  6
CONTINUOUS
 10
-60.5281280918
 20
7.7995182214
 11
-60.3851654564
 21
7.9424808568
  0
LINE
  5
4F5
100
AcDbEntity
  8
0
100
AcDbLine
 62
7
  6
CONTINUOUS
 10
-59.9472798009
 20
8.3803665124
 11
-59.6272843132
 21
8.700362
  0
LINE
  5
4F6
100
AcDbEntity
  8
0
100
AcDbLine
 62
7
  6
CONTINUOUS
 10
-60.4830147581
 20
7.7606272695
 11
-60.3400519096
 21
7.903590118
  0
LINE
  5
4F7
100
AcDbEntity
  8
0
100
AcDbLine
 62
7
  6
CONTINUOUS
 10
-59.9472798009
 20
8.2963622268
 11
-59.7456735111
 21
8.4979685165
  0
LINE
  5
4F8
100
AcDbEntity
  8
0
100
AcDbLine
 62
7
  6
CONTINUOUS
 10
-59.7449170276
 20
8.498725
 11
-59.5432800276
 21
8.700362
  0
LINE
  5
4F9
100
AcDbEntity
  8
0
100
AcDbLine
 62
7
  6
CONTINUOUS
 10
-60.4379014245
 20
7.7217363176
 11
-60.2949383627
 21
7.8646993793
  0
LINE
  5
4FA
100
AcDbEntity
  8
0
100
AcDbLine
 62
7
  6
CONTINUOUS
 10
-59.9472798009
 20
8.2123579412
 11
-59.7456735111
 21
8.4139642309
  0
LINE
  5
4FB
100
AcDbEntity
  8
0
100
AcDbLine
 62
7
  6
CONTINUOUS
 10
-59.660912742
 20
8.498725
 11
-59.459275742
 21
8.700362
  0
LINE
  5
4FC
100
AcDbEntity
  8
0
100
AcDbLine
 62
7
  6
CONTINUOUS
 10
-60.3927880908
 20
7.6828453656
 11
-60.2498248159
 21
7.8258086406
  0
LINE
  5
4FD
100
AcDbEntity
  8
0
100
AcDbLine
 62
7
  6
CONTINUOUS
 10
-59.9472798009
 20
8.1283536556
 11
-59.7456735111
 21
8.3299599453
  0
LINE
  5
4FE
100
AcDbEntity
  8
0
100
AcDbLine
 62
7
  6
CONTINUOUS
 10
-59.5769084564
 20
8.498725
 11
-59.3752714564
 21
8.700362
  0
LINE
  5
4FF
100
AcDbEntity
  8
0
100
AcDbLine
 62
7
  6
CONTINUOUS
 10
-60.3476747571
 20
7.6439544137
 11
-60.204711269
 21
7.7869179018
  0
LINE
  5
500
100
AcDbEntity
  8
0
100
AcDbLine
 62
7
  6
CONTINUOUS
 10
-59.9472798009
 20
8.04434937
 11
-59.7456735111
 21
8.2459556597
  0
LINE
  5
501
100
AcDbEntity
  8
0
100
AcDbLine
 62
7
  6
CONTINUOUS
 10
-59.4929041708
 20
8.498725
 11
-59.2912671708
 21
8.700362
  0
LINE
  5
502
100
AcDbEntity
  8
0
100
AcDbLine
 62
7
  6
CONTINUOUS
 10
-60.3025614235
 20
7.6050634618
 11
-60.1595977221
 21
7.7480271631
  0
LINE
  5
503
100
AcDbEntity
  8
0
100
AcDbLine
 62
7
  6
CONTINUOUS
 10
-59.9472798009
 20
7.9603450844
 11
-59.7456735111
 21
8.1619513741
  0
LINE
  5
504
100
AcDbEntity
  8
0
100
AcDbLine
 62
7
  6
CONTINUOUS
 10
-59.4088998852
 20
8.498725
 11
-59.2072628852
 21
8.700362
  0
LINE
  5
505
100
AcDbEntity
  8
0
100
AcDbLine
 62
7
  6
CONTINUOUS
 10
-60.2574480898
 20
7.5661725098
 11
-60.1144841753
 21
7.7091364243
  0
LINE
  5
506
100
AcDbEntity
  8
0
100
AcDbLine
 62
7
  6
CONTINUOUS
 10
-59.9472798009
 20
7.8763407988
 11
-59.7456735111
 21
8.0779470885
  0
LINE
  5
507
100
AcDbEntity
  8
0
100
AcDbLine
 62
7
  6
CONTINUOUS
 10
-59.3248955996
 20
8.498725
 11
-59.1232585996
 21
8.700362
  0
LINE
  5
508
100
AcDbEntity
  8
0
100
AcDbLine
 62
7
  6
CONTINUOUS
 10
-60.2123347561
 20
7.5272815579
 11
-60.0693706284
 21
7.6702456856
  0
LINE
  5
509
100
AcDbEntity
  8
0
100
AcDbLine
 62
7
  6
CONTINUOUS
 10
-59.9472798009
 20
7.7923365131
 11
-59.7456735111
 21
7.9939428029
  0
LINE
  5
50A
100
AcDbEntity
  8
0
100
AcDbLine
 62
7
  6
CONTINUOUS
 10
-59.240891314
 20
8.498725
 11
-59.039254314
 21
8.700362
  0
LINE
  5
50B
100
AcDbEntity
  8
0
100
AcDbLine
 62
7
  6
CONTINUOUS
 10
-60.1672214224
 20
7.488390606
 11
-60.0242570815
 21
7.6313549469
  0
LINE
  5
50C
100
AcDbEntity
  8
0
100
AcDbLine
 62
7
  6
CONTINUOUS
 10
-59.8778230284
 20
7.777789
 11
-59.7456735111
 21
7.9099385173
  0
LINE
  5
50D
100
AcDbEntity
  8
0
100
AcDbLine
 62
7
  6
CONTINUOUS
 10
-59.1568870284
 20
8.498725
 11
-58.9552500284
 21
8.700362
  0
LINE
  5
50E
100
AcDbEntity
  8
0
100
AcDbLine
 62
7
  6
CONTINUOUS
 10
-60.1221080888
 20
7.449499654
 11
-59.9791435347
 21
7.5924642081
  0
LINE
  5
50F
100
AcDbEntity
  8
0
100
AcDbLine
 62
7
  6
CONTINUOUS
 10
-59.7938187428
 20
7.777789
 11
-59.7456735111
 21
7.8259342316
  0
LINE
  5
510
100
AcDbEntity
  8
0
100
AcDbLine
 62
7
  6
CONTINUOUS
 10
-59.0728827428
 20
8.498725
 11
-58.8712457428
 21
8.700362
  0
LINE
  5
511
100
AcDbEntity
  8
0
100
AcDbLine
 62
253
  6
CONTINUOUS
 10
-59.9242014783
 20
10.0715944548
 11
-58.4251350865
 21
10.8583245146
  0
LINE
  5
512
100
AcDbEntity
  8
0
100
AcDbLine
 62
7
  6
CONTINUOUS
 10
-53.4502739434
 20
-9.7343417818
 11
-52.2324185567
 21
-9.51
  0
LINE
  5
513
100
AcDbEntity
  8
0
100
AcDbLine
 62
7
  6
CONTINUOUS
 10
-52.6594936661
 20
-9.1886717307
 11
-52.9903708918
 21
-9.2496227986
  0
LINE
  5
514
100
AcDbEntity
  8
CURVE
100
AcDbLine
 62
253
  6
CONTINUOUS
 10
-61.3396327065
 20
-9.790227
 11
-58.4404213377
 21
-9.519077
  0
LINE
  5
515
100
AcDbEntity
  8
CURVE
100
AcDbLine
 62
253
  6
CONTINUOUS
 10
-58.4404213377
 20
-10.111193
 11
-60.3256601629
 21
-10.235548
  0
LINE
  5
516
100
AcDbEntity
  8
RACCORDO
100
AcDbLine
 62
7
  6
CONTINUOUS
 10
-26.4324185567
 20
-9.25
 11
-24.9324185567
 21
-9.25
  0
LINE
  5
517
100
AcDbEntity
  8
ASSI
100
AcDbLine
 62
7
  6
CONTINUOUS
 10
-26.4324185567
 20
-9.25
 11
-24.9324185567
 21
-9.25
  0
LINE
  5
518
100
AcDbEntity
  8
RACCORDO
100
AcDbLine
 62
7
  6
CONTINUOUS
 10
-48.2324185567
 20
-9.1990238135
 11
-52.6824185567
 21
-9.1886181241
  0
LINE
  5
519
100
AcDbEntity
  8
ASSI
100
AcDbLine
 62
7
  6
CONTINUOUS
 10
-48.2324185567
 20
-9.1990238135
 11
-52.6824185567
 21
-9.1886181241
  0
LINE
  5
51A
100
AcDbEntity
  8
RACCORDO
100
AcDbLine
 62
7
  6
CONTINUOUS
 10
-25.9149661503
 20
-8.9856941396
 11
-52.6824185567
 21
-8.8605008762
  0
LINE
  5
51B
100
AcDbEntity
  8
ASSI
100
AcDbLine
 62
7
  6
CONTINUOUS
 10
-25.9149661503
 20
-8.9856941396
 11
-52.6824185567
 21
-8.8605008762
  0
LINE
  5
51C
100
AcDbEntity
  8
0
100
AcDbLine
 62
7
  6
CONTINUOUS
 10
-75.5533455265
 20
-7.900639107
 11
-74.5173933913
 21
-7.9730799371
  0
LINE
  5
51D
100
AcDbEntity
  8
0
100
AcDbLine
 62
7
  6
CONTINUOUS
 10
-75.8324185567
 20
-7.875
 11
-84.7238102639
 21
-7.2532533242
  0
LINE
  5
51E
100
AcDbEntity
  8
CURVE
100
AcDbLine
 62
253
  6
CONTINUOUS
 10
-60.5430030555
 20
-8.233126
 11
-59.4670689504
 21
-8.5345
  0
LINE
  5
51F
100
AcDbEntity
  8
CURVE
100
AcDbLine
 62
253
  6
CONTINUOUS
 10
-59.0192071723
 20
-8.658312
 11
-58.4404213377
 21
-8.825329
  0
LINE
  5
520
100
AcDbEntity
  8
CURVE
100
AcDbLine
 62
253
  6
CONTINUOUS
 10
-58.4404213377
 20
-9.424033
 11
-61.3396327065
 21
-8.514517
  0
LINE
  5
521
100
AcDbEntity
  8
RACCORDO
100
AcDbLine
 62
7
  6
CONTINUOUS
 10
-63.9324185567
 20
-20.85
 11
-63.9324185567
 21
-18.9556312201
  0
LINE
  5
522
100
AcDbEntity
  8
RACCORDO
100
AcDbLine
 62
7
  6
CONTINUOUS
 10
-63.9324185567
 20
-18.2156007297
 11
-63.9324185567
 21
18.2156007297
  0
LINE
  5
523
100
AcDbEntity
  8
ASSI
100
AcDbLine
 62
7
  6
CONTINUOUS
 10
-63.9324185567
 20
-20.85
 11
-63.9324185567
 21
20.85
  0
LINE
  5
524
100
AcDbEntity
  8
RACCORDO
100
AcDbLine
 62
7
  6
CONTINUOUS
 10
-63.9324185567
 20
18.9556312201
 11
-63.9324185567
 21
20.85
  0
LINE
  5
525
100
AcDbEntity
  8
0
100
AcDbLine
 62
253
  6
CONTINUOUS
 10
-62.3115086625
 20
15.683094
 11
-62.3115086625
 21
15.397974
  0
LINE
  5
526
100
AcDbEntity
  8
0
100
AcDbLine
 62
253
  6
CONTINUOUS
 10
-61.6113493164
 20
14.697707
 11
-61.6113493164
 21
14.982851
  0
LINE
  5
527
100
AcDbEntity
  8
0
100
AcDbLine
 62
7
  6
CONTINUOUS
 10
-60.0769947551
 20
7.4106087021
 11
-59.9340299878
 21
7.5535734694
  0
LINE
  5
528
100
AcDbEntity
  8
0
100
AcDbLine
 62
7
  6
CONTINUOUS
 10
-58.9888784572
 20
8.498725
 11
-58.7872414572
 21
8.700362
  0
LINE
  5
529
100
AcDbEntity
  8
0
100
AcDbLine
 62
7
  6
CONTINUOUS
 10
-60.0318814214
 20
7.3717177502
 11
-59.8889164409
 21
7.5146827306
  0
LINE
  5
52A
100
AcDbEntity
  8
0
100
AcDbLine
 62
7
  6
CONTINUOUS
 10
-58.9048741716
 20
8.498725
 11
-58.7032371716
 21
8.700362
  0
LINE
  5
52B
100
AcDbEntity
  8
0
100
AcDbLine
 62
7
  6
CONTINUOUS
 10
-59.9867680878
 20
7.3328267982
 11
-59.8438028941
 21
7.4757919919
  0
LINE
  5
52C
100
AcDbEntity
  8
0
100
AcDbLine
 62
7
  6
CONTINUOUS
 10
-58.820869886
 20
8.498725
 11
-58.619232886
 21
8.700362
  0
LINE
  5
52D
100
AcDbEntity
  8
CURVE
100
AcDbLine
 62
253
  6
CONTINUOUS
 10
-56.0179675314
 20
11.2857143342
 11
-55.7465802594
 21
11.5571428895
  0
LINE
  5
52E
100
AcDbEntity
  8
0
100
AcDbLine
 62
7
  6
CONTINUOUS
 10
-59.9416547541
 20
7.2939358463
 11
-59.7986893472
 21
7.4369012532
  0
LINE
  5
52F
100
AcDbEntity
  8
0
100
AcDbLine
 62
7
  6
CONTINUOUS
 10
-58.7368656004
 20
8.498725
 11
-58.5352286004
 21
8.700362
  0
LINE
  5
530
100
AcDbEntity
  8
0
100
AcDbLine
 62
7
  6
CONTINUOUS
 10
-59.8965414204
 20
7.2550448944
 11
-59.7535758003
 21
7.3980105144
  0
LINE
  5
531
100
AcDbEntity
  8
0
100
AcDbLine
 62
7
  6
CONTINUOUS
 10
-58.6528613148
 20
8.498725
 11
-58.4512243148
 21
8.700362
  0
LINE
  5
532
100
AcDbEntity
  8
0
100
AcDbLine
 62
7
  6
CONTINUOUS
 10
-59.8514280867
 20
7.2161539424
 11
-59.7084622535
 21
7.3591197757
  0
LINE
  5
533
100
AcDbEntity
  8
0
100
AcDbLine
 62
7
  6
CONTINUOUS
 10
-58.5688570292
 20
8.498725
 11
-58.4251346662
 21
8.6424473629
  0
LINE
  5
534
100
AcDbEntity
  8
0
100
AcDbLine
 62
7
  6
CONTINUOUS
 10
-59.8063147531
 20
7.1772629905
 11
-59.6633487066
 21
7.3202290369
  0
LINE
  5
535
100
AcDbEntity
  8
0
100
AcDbLine
 62
7
  6
CONTINUOUS
 10
-58.4848527436
 20
8.498725
 11
-58.4251346662
 21
8.5584430773
  0
LINE
  5
536
100
AcDbEntity
  8
0
100
AcDbLine
 62
7
  6
CONTINUOUS
 10
-59.7612014194
 20
7.1383720386
 11
-59.6182351597
 21
7.2813382982
  0
LINE
  5
537
100
AcDbEntity
  8
0
100
AcDbLine
 62
7
  6
CONTINUOUS
 10
-59.7160880857
 20
7.0994810866
 11
-59.5731216129
 21
7.2424475595
  0
LINE
  5
538
100
AcDbEntity
  8
0
100
AcDbLine
 62
7
  6
CONTINUOUS
 10
-59.670974752
 20
7.0605901347
 11
-59.528008066
 21
7.2035568207
  0
LINE
  5
539
100
AcDbEntity
  8
0
100
AcDbLine
 62
7
  6
CONTINUOUS
 10
-59.6258614184
 20
7.0216991828
 11
-59.4828945191
 21
7.164666082
  0
LINE
  5
53A
100
AcDbEntity
  8
0
100
AcDbLine
 62
7
  6
CONTINUOUS
 10
-59.5807480847
 20
6.9828082308
 11
-59.4377809723
 21
7.1257753432
  0
LINE
  5
53B
100
AcDbEntity
  8
0
100
AcDbLine
 62
7
  6
CONTINUOUS
 10
-59.535634751
 20
6.9439172789
 11
-59.3926674254
 21
7.0868846045
  0
LINE
  5
53C
100
AcDbEntity
  8
0
100
AcDbLine
 62
7
  6
CONTINUOUS
 10
-59.4905214174
 20
6.905026327
 11
-59.3475538786
 21
7.0479938658
  0
LINE
  5
53D
100
AcDbEntity
  8
0
100
AcDbLine
 62
7
  6
CONTINUOUS
 10
-59.4454080837
 20
6.866135375
 11
-59.3024403317
 21
7.009103127
  0
LINE
  5
53E
100
AcDbEntity
  8
0
100
AcDbLine
 62
7
  6
CONTINUOUS
 10
-59.40029475
 20
6.8272444231
 11
-59.2573267848
 21
6.9702123883
  0
LINE
  5
53F
100
AcDbEntity
  8
0
100
AcDbLine
 62
7
  6
CONTINUOUS
 10
-59.3551814163
 20
6.7883534712
 11
-59.212213238
 21
6.9313216495
  0
LINE
  5
540
100
AcDbEntity
  8
0
100
AcDbLine
 62
7
  6
CONTINUOUS
 10
-59.3100680827
 20
6.7494625192
 11
-59.1670996911
 21
6.8924309108
  0
LINE
  5
541
100
AcDbEntity
  8
0
100
AcDbLine
 62
7
  6
CONTINUOUS
 10
-59.264954749
 20
6.7105715673
 11
-59.1219861442
 21
6.8535401721
  0
LINE
  5
542
100
AcDbEntity
  8
0
100
AcDbLine
 62
7
  6
CONTINUOUS
 10
-59.2198414153
 20
6.6716806154
 11
-59.0768725974
 21
6.8146494333
  0
LINE
  5
543
100
AcDbEntity
  8
0
100
AcDbLine
 62
7
  6
CONTINUOUS
 10
-59.1747280817
 20
6.6327896634
 11
-59.0317590505
 21
6.7757586946
  0
LINE
  5
544
100
AcDbEntity
  8
0
100
AcDbLine
 62
7
  6
CONTINUOUS
 10
-59.129614748
 20
6.5938987115
 11
-58.9866455036
 21
6.7368679558
  0
LINE
  5
545
100
AcDbEntity
  8
0
100
AcDbLine
 62
7
  6
CONTINUOUS
 10
-59.0845014143
 20
6.5550077596
 11
-58.9415319568
 21
6.6979772171
  0
LINE
  5
546
100
AcDbEntity
  8
0
100
AcDbLine
 62
7
  6
CONTINUOUS
 10
-59.0393880806
 20
6.5161168076
 11
-58.8964184099
 21
6.6590864784
  0
LINE
  5
547
100
AcDbEntity
  8
0
100
AcDbLine
 62
7
  6
CONTINUOUS
 10
-58.994274747
 20
6.4772258557
 11
-58.851304863
 21
6.6201957396
  0
LINE
  5
548
100
AcDbEntity
  8
0
100
AcDbLine
 62
7
  6
CONTINUOUS
 10
-58.9491614133
 20
6.4383349038
 11
-58.8061913162
 21
6.5813050009
  0
LINE
  5
549
100
AcDbEntity
  8
0
100
AcDbLine
 62
7
  6
CONTINUOUS
 10
-58.9040480796
 20
6.3994439518
 11
-58.7610777693
 21
6.5424142621
  0
LINE
  5
54A
100
AcDbEntity
  8
0
100
AcDbLine
 62
7
  6
CONTINUOUS
 10
-58.858934746
 20
6.3605529999
 11
-58.7159642224
 21
6.5035235234
  0
LINE
  5
54B
100
AcDbEntity
  8
0
100
AcDbLine
 62
7
  6
CONTINUOUS
 10
-58.8138214123
 20
6.321662048
 11
-58.6708506756
 21
6.4646327847
  0
LINE
  5
54C
100
AcDbEntity
  8
0
100
AcDbLine
 62
7
  6
CONTINUOUS
 10
-58.7687080786
 20
6.282771096
 11
-58.6257371287
 21
6.4257420459
  0
LINE
  5
54D
100
AcDbEntity
  8
0
100
AcDbLine
 62
7
  6
CONTINUOUS
 10
-58.7235947449
 20
6.2438801441
 11
-58.5806235818
 21
6.3868513072
  0
LINE
  5
54E
100
AcDbEntity
  8
0
100
AcDbLine
 62
7
  6
CONTINUOUS
 10
-58.6784814113
 20
6.2049891922
 11
-58.535510035
 21
6.3479605684
  0
LINE
  5
54F
100
AcDbEntity
  8
0
100
AcDbLine
 62
7
  6
CONTINUOUS
 10
-58.6333680776
 20
6.1660982402
 11
-58.4903964881
 21
6.3090698297
  0
LINE
  5
550
100
AcDbEntity
  8
0
100
AcDbLine
 62
7
  6
CONTINUOUS
 10
-58.5882547439
 20
6.1272072883
 11
-58.4452829413
 21
6.270179091
  0
LINE
  5
551
100
AcDbEntity
  8
0
100
AcDbLine
 62
7
  6
CONTINUOUS
 10
-58.5431414103
 20
6.0883163364
 11
-58.4251346662
 21
6.2063230804
  0
LINE
  5
552
100
AcDbEntity
  8
0
100
AcDbLine
 62
7
  6
CONTINUOUS
 10
-58.4980280766
 20
6.0494253844
 11
-58.4251346662
 21
6.1223187948
  0
LINE
  5
553
100
AcDbEntity
  8
0
100
AcDbLine
 62
7
  6
CONTINUOUS
 10
-58.4529147429
 20
6.0105344325
 11
-58.4251346662
 21
6.0383145092
  0
LINE
  5
554
100
AcDbEntity
  8
CURVE
100
AcDbLine
 62
253
  6
CONTINUOUS
 10
-58.4404213377
 20
-7.677235
 11
-59.0192071723
 21
-7.834033
  0
LINE
  5
555
100
AcDbEntity
  8
CURVE
100
AcDbLine
 62
253
  6
CONTINUOUS
 10
-59.4670689504
 20
-7.954996
 11
-60.5430030555
 21
-8.233126
  0
LINE
  5
556
100
AcDbEntity
  8
RACCORDO
100
AcDbLine
 62
7
  6
CONTINUOUS
 10
-25.9149661503
 20
-6.0143058604
 11
-52.6824185567
 21
-6.1394991238
  0
LINE
  5
557
100
AcDbEntity
  8
ASSI
100
AcDbLine
 62
7
  6
CONTINUOUS
 10
-25.9149661503
 20
-6.0143058604
 11
-52.6824185567
 21
-6.1394991238
  0
LINE
  5
558
100
AcDbEntity
  8
RACCORDO
100
AcDbLine
 62
7
  6
CONTINUOUS
 10
-48.2324185567
 20
-5.8009761865
 11
-52.6824185567
 21
-5.8113818759
  0
LINE
  5
559
100
AcDbEntity
  8
ASSI
100
AcDbLine
 62
7
  6
CONTINUOUS
 10
-48.2324185567
 20
-5.8009761865
 11
-52.6824185567
 21
-5.8113818759
  0
LINE
  5
55A
100
AcDbEntity
  8
CURVE
100
AcDbLine
 62
253
  6
CONTINUOUS
 10
-61.3057602135
 20
-6.8615673444
 11
-58.4404209854
 21
-6.8615673444
  0
LINE
  5
55B
100
AcDbEntity
  8
CURVE
100
AcDbLine
 62
253
  6
CONTINUOUS
 10
-60.0498330803
 20
-6.2788012719
 11
-60.845723201
 21
-6.2788012719
  0
LINE
  5
55C
100
AcDbEntity
  8
CURVE
100
AcDbLine
 62
253
  6
CONTINUOUS
 10
-58.4404209854
 20
-6.2587313832
 11
-59.5750122696
 21
-6.2587313832
  0
LINE
  5
55D
100
AcDbEntity
  8
RACCORDO
100
AcDbLine
 62
7
  6
CONTINUOUS
 10
-24.9324185567
 20
-5.75
 11
-26.4324185567
 21
-5.75
  0
LINE
  5
55E
100
AcDbEntity
  8
ASSI
100
AcDbLine
 62
7
  6
CONTINUOUS
 10
-24.9324185567
 20
-5.75
 11
-26.4324185567
 21
-5.75
  0
LINE
  5
55F
100
AcDbEntity
  8
CURVE
100
AcDbLine
 62
253
  6
CONTINUOUS
 10
-59.7937472594
 20
-5.30544429
 11
-59.8108790725
 21
-5.30544429
  0
LINE
  5
560
100
AcDbEntity
  8
ASSI
100
AcDbLine
 62
253
  6
CONTINUOUS
 10
-59.8213608529
 20
-22.3020586235
 11
-59.8038487764
 21
-23.6517910252
  0
LINE
  5
561
100
AcDbEntity
  8
CURVE
100
AcDbLine
 62
253
  6
CONTINUOUS
 10
-61.33980668
 20
-12.785664
 11
-61.33980668
 21
-13.390935
  0
LINE
  5
562
100
AcDbEntity
  8
CURVE
100
AcDbLine
 62
253
  6
CONTINUOUS
 10
-61.3396327065
 20
-16.00026
 11
-61.3396327065
 21
-15.342748
  0
LINE
  5
563
100
AcDbEntity
  8
CURVE
100
AcDbLine
 62
253
  6
CONTINUOUS
 10
-61.3396327065
 20
-14.22041
 11
-61.3396327065
 21
-13.615552
  0
LINE
  5
564
100
AcDbEntity
  8
CURVE
100
AcDbLine
 62
253
  6
CONTINUOUS
 10
-61.3396327065
 20
-12.198005
 11
-61.3396327065
 21
-11.593234
  0
LINE
  5
565
100
AcDbEntity
  8
CURVE
100
AcDbLine
 62
253
  6
CONTINUOUS
 10
-61.3396327065
 20
-10.389084
 11
-61.3396327065
 21
-9.790227
  0
LINE
  5
566
100
AcDbEntity
  8
CURVE
100
AcDbLine
 62
253
  6
CONTINUOUS
 10
-61.3396327065
 20
-8.514517
 11
-61.3396327065
 21
-7.92899
  0
LINE
  5
567
100
AcDbEntity
  8
0
100
AcDbLine
 62
253
  6
CONTINUOUS
 10
-61.3330337117
 20
13.657831
 11
-61.3330337117
 21
13.37271
  0
LINE
  5
568
100
AcDbEntity
  8
0
100
AcDbLine
 62
253
  6
CONTINUOUS
 10
-61.3330337117
 20
8.700362
 11
-61.3330337117
 21
8.493405
  0
LINE
  5
569
100
AcDbEntity
  8
0
100
AcDbLine
 62
253
  6
CONTINUOUS
 10
-61.3292972808
 20
15.975334
 11
-61.3292972808
 21
14.079481
  0
LINE
  5
56A
100
AcDbEntity
  8
0
100
AcDbLine
 62
253
  6
CONTINUOUS
 10
-61.3271706048
 20
11.812352
 11
-61.3271706048
 21
11.610715
  0
LINE
  5
56B
100
AcDbEntity
  8
0
100
AcDbLine
 62
253
  6
CONTINUOUS
 10
-61.3175699276
 20
10.2768972759
 11
-61.3175699276
 21
9.1317800542
  0
LINE
  5
56C
100
AcDbEntity
  8
0
100
AcDbLine
 62
253
  6
CONTINUOUS
 10
-61.1276909911
 20
14.281118
 11
-61.1276909911
 21
15.975334
  0
LINE
  5
56D
100
AcDbEntity
  8
0
100
AcDbLine
 62
253
  6
CONTINUOUS
 10
-61.1159635162
 20
9.1317800542
 11
-61.1159635162
 21
10.2768972759
  0
LINE
  5
56E
100
AcDbEntity
  8
CURVE
100
AcDbLine
 62
253
  6
CONTINUOUS
 10
-60.0498330803
 20
-5.9328946758
 11
-60.0498330803
 21
-6.2788012719
  0
LINE
  5
56F
100
AcDbEntity
  8
0
100
AcDbLine
 62
253
  6
CONTINUOUS
 10
-59.9472798009
 20
7.777789
 11
-59.9472798009
 21
8.498725
  0
LINE
  5
570
100
AcDbEntity
  8
0
100
AcDbLine
 62
253
  6
CONTINUOUS
 10
-59.9471858152
 20
15.920301
 11
-59.9471858152
 21
14.920014
  0
LINE
  5
571
100
AcDbEntity
  8
ASSI
100
AcDbLine
 62
7
  6
CONTINUOUS
 10
-59.9324185567
 20
23.5393800954
 11
-59.9324185567
 21
22.8606199046
  0
LINE
  5
572
100
AcDbEntity
  8
ASSI
100
AcDbLine
 62
7
  6
CONTINUOUS
 10
-59.9324185567
 20
-22.8606199046
 11
-59.9324185567
 21
-23.5393800954
  0
LINE
  5
573
100
AcDbEntity
  8
0
100
AcDbLine
 62
253
  6
CONTINUOUS
 10
-59.9242014783
 20
10.2383483071
 11
-59.9242014783
 21
10.0715944548
  0
LINE
  5
574
100
AcDbEntity
  8
0
100
AcDbLine
 62
253
  6
CONTINUOUS
 10
-59.7467143526
 20
14.920014
 11
-59.7467143526
 21
15.920301
  0
LINE
  5
575
100
AcDbEntity
  8
0
100
AcDbLine
 62
253
  6
CONTINUOUS
 10
-59.7456735111
 20
7.777789
 11
-59.7456735111
 21
8.498725
  0
LINE
  5
576
100
AcDbEntity
  8
CURVE
100
AcDbLine
 62
253
  6
CONTINUOUS
 10
-59.5750122696
 20
-6.2587313832
 11
-59.5750122696
 21
-5.9341993273
  0
LINE
  5
577
100
AcDbEntity
  8
CURVE
100
AcDbLine
 62
253
  6
CONTINUOUS
 10
-59.4670689504
 20
-8.5345
 11
-59.4670689504
 21
-7.954996
  0
LINE
  5
578
100
AcDbEntity
  8
ASSI
100
AcDbLine
 62
7
  6
CONTINUOUS
 10
-59.4324185567
 20
-23.6495958353
 11
-59.4324185567
 21
-22.2952696104
  0
LINE
  5
579
100
AcDbEntity
  8
ASSI
100
AcDbLine
 62
7
  6
CONTINUOUS
 10
-59.4324185567
 20
22.2952696104
 11
-59.4324185567
 21
23.6495956002
  0
LINE
  5
57A
100
AcDbEntity
  8
CURVE
100
AcDbLine
 62
253
  6
CONTINUOUS
 10
-59.0192071723
 20
-7.834033
 11
-59.0192071723
 21
-8.658312
  0
LINE
  5
57B
100
AcDbEntity
  8
ASSI
100
AcDbLine
 62
253
  6
CONTINUOUS
 10
-59.8213608529
 20
22.3020586235
 11
-59.8038487764
 21
23.6517910252
  0
LINE
  5
57C
100
AcDbEntity
  8
RACCORDO
100
AcDbLine
 62
7
  6
CONTINUOUS
 10
-26.4324185567
 20
-4.25
 11
-24.9324185567
 21
-4.25
  0
LINE
  5
57D
100
AcDbEntity
  8
ASSI
100
AcDbLine
 62
7
  6
CONTINUOUS
 10
-26.4324185567
 20
-4.25
 11
-24.9324185567
 21
-4.25
  0
LINE
  5
57E
100
AcDbEntity
  8
RACCORDO
100
AcDbLine
 62
7
  6
CONTINUOUS
 10
-48.2324185567
 20
-4.1990238135
 11
-52.6824185567
 21
-4.1886181241
  0
LINE
  5
57F
100
AcDbEntity
  8
ASSI
100
AcDbLine
 62
7
  6
CONTINUOUS
 10
-48.2324185567
 20
-4.1990238135
 11
-52.6824185567
 21
-4.1886181241
  0
LINE
  5
580
100
AcDbEntity
  8
RACCORDO
100
AcDbLine
 62
7
  6
CONTINUOUS
 10
-25.9149661503
 20
-3.9856941396
 11
-52.6824185567
 21
-3.8605008762
  0
LINE
  5
581
100
AcDbEntity
  8
ASSI
100
AcDbLine
 62
7
  6
CONTINUOUS
 10
-25.9149661503
 20
-3.9856941396
 11
-52.6824185567
 21
-3.8605008762
  0
LINE
  5
582
100
AcDbEntity
  8
0
100
AcDbLine
 62
253
  6
CONTINUOUS
 10
-58.6340248464
 20
16.0
 11
-58.6340248464
 21
14.281118
  0
LINE
  5
583
100
AcDbEntity
  8
CURVE
100
AcDbLine
 62
253
  6
CONTINUOUS
 10
-58.4404213377
 20
-7.039304
 11
-58.4404213377
 21
-7.677235
  0
LINE
  5
584
100
AcDbEntity
  8
CURVE
100
AcDbLine
 62
253
  6
CONTINUOUS
 10
-58.4404213377
 20
-8.825329
 11
-58.4404213377
 21
-9.424033
  0
LINE
  5
585
100
AcDbEntity
  8
CURVE
100
AcDbLine
 62
253
  6
CONTINUOUS
 10
-58.4404213377
 20
-9.519077
 11
-58.4404213377
 21
-10.111193
  0
LINE
  5
586
100
AcDbEntity
  8
CURVE
100
AcDbLine
 62
253
  6
CONTINUOUS
 10
-58.4404213377
 20
-10.955216
 11
-58.4404213377
 21
-11.040105
  0
LINE
  5
587
100
AcDbEntity
  8
CURVE
100
AcDbLine
 62
253
  6
CONTINUOUS
 10
-58.4404213377
 20
-11.880779
 11
-58.4404213377
 21
-12.459827
  0
LINE
  5
588
100
AcDbEntity
  8
CURVE
100
AcDbLine
 62
253
  6
CONTINUOUS
 10
-58.4404213377
 20
-14.547617
 11
-58.4404213377
 21
-15.081013
  0
LINE
  5
589
100
AcDbEntity
  8
CURVE
100
AcDbLine
 62
253
  6
CONTINUOUS
 10
-58.4404213377
 20
-13.390935
 11
-58.4404213377
 21
-12.785664
  0
LINE
  5
58A
100
AcDbEntity
  8
CURVE
100
AcDbLine
 62
253
  6
CONTINUOUS
 10
-58.4404209854
 20
-6.8615673444
 11
-58.4404209854
 21
-6.2587313832
  0
LINE
  5
58B
100
AcDbEntity
  8
CURVE
100
AcDbLine
 62
253
  6
CONTINUOUS
 10
-58.4404209854
 20
-5.3318417383
 11
-58.4404209854
 21
-4.7496410148
  0
LINE
  5
58C
100
AcDbEntity
  8
0
100
AcDbLine
 62
253
  6
CONTINUOUS
 10
-58.4324185567
 20
14.079481
 11
-58.4324185567
 21
16.0
  0
LINE
  5
58D
100
AcDbEntity
  8
0
100
AcDbLine
 62
253
  6
CONTINUOUS
 10
-58.4251350865
 20
10.8583245146
 11
-58.4251350865
 21
11.0860472269
  0
LINE
  5
58E
100
AcDbEntity
  8
0
100
AcDbLine
 62
253
  6
CONTINUOUS
 10
-58.4251346662
 20
5.986586
 11
-58.4251346662
 21
6.25281
  0
LINE
  5
58F
100
AcDbEntity
  8
0
100
AcDbLine
 62
253
  6
CONTINUOUS
 10
-58.4251346662
 20
8.498725
 11
-58.4251346662
 21
8.700362
  0
LINE
  5
590
100
AcDbEntity
  8
0
100
AcDbLine
 62
253
  6
CONTINUOUS
 10
-58.4251346662
 20
11.610715
 11
-58.4251346662
 21
11.812352
  0
LINE
  5
591
100
AcDbEntity
  8
0
100
AcDbLine
 62
253
  6
CONTINUOUS
 10
-58.4251346662
 20
13.36921
 11
-58.4251346662
 21
13.654331
  0
LINE
  5
592
100
AcDbEntity
  8
CURVE
100
AcDbLine
 62
253
  6
CONTINUOUS
 10
-56.8321291775
 20
15.764285779
 11
-56.8321291775
 21
15.221428442
  0
LINE
  5
593
100
AcDbEntity
  8
CURVE
100
AcDbLine
 62
253
  6
CONTINUOUS
 10
-56.8321291775
 20
11.9642856657
 11
-56.8321291775
 21
11.5571428895
  0
LINE
  5
594
100
AcDbEntity
  8
CURVE
100
AcDbLine
 62
253
  6
CONTINUOUS
 10
-56.8321291775
 20
13.864285779
 11
-56.8321291775
 21
14.678571558
  0
LINE
  5
595
100
AcDbEntity
  8
CURVE
100
AcDbLine
 62
253
  6
CONTINUOUS
 10
-56.0179675314
 20
15.764285779
 11
-56.0179675314
 21
15.492857337
  0
LINE
  5
596
100
AcDbEntity
  8
CURVE
100
AcDbLine
 62
253
  6
CONTINUOUS
 10
-56.0179675314
 20
14.407142663
 11
-56.0179675314
 21
13.864285779
  0
LINE
  5
597
100
AcDbEntity
  8
RACCORDO
100
AcDbLine
 62
7
  6
CONTINUOUS
 10
-25.9149661503
 20
-1.0143058604
 11
-52.6824185567
 21
-1.1394991238
  0
LINE
  5
598
100
AcDbEntity
  8
ASSI
100
AcDbLine
 62
7
  6
CONTINUOUS
 10
-25.9149661503
 20
-1.0143058604
 11
-52.6824185567
 21
-1.1394991238
  0
LINE
  5
599
100
AcDbEntity
  8
RACCORDO
100
AcDbLine
 62
7
  6
CONTINUOUS
 10
-26.4324185567
 20
-0.75
 11
-34.4324917308
 21
-0.7687070285
  0
LINE
  5
59A
100
AcDbEntity
  8
ASSI
100
AcDbLine
 62
7
  6
CONTINUOUS
 10
-26.4324185567
 20
-0.75
 11
-34.4324917308
 21
-0.7687070285
  0
LINE
  5
59B
100
AcDbEntity
  8
RACCORDO
100
AcDbLine
 62
7
  6
CONTINUOUS
 10
-48.2324185567
 20
-0.8009761865
 11
-52.6824185567
 21
-0.8113818759
  0
LINE
  5
59C
100
AcDbEntity
  8
ASSI
100
AcDbLine
 62
7
  6
CONTINUOUS
 10
-48.2324185567
 20
-0.8009761865
 11
-52.6824185567
 21
-0.8113818759
  0
LINE
  5
59D
100
AcDbEntity
  8
0
100
AcDbLine
 62
7
  6
CONTINUOUS
 10
-26.4324185567
 20
-0.8
 11
-34.4324185567
 21
-0.8
  0
LINE
  5
59E
100
AcDbEntity
  8
RACCORDO
100
AcDbLine
 62
7
  6
CONTINUOUS
 10
-24.9324185567
 20
-0.75
 11
-26.4324185567
 21
-0.75
  0
LINE
  5
59F
100
AcDbEntity
  8
ASSI
100
AcDbLine
 62
7
  6
CONTINUOUS
 10
-24.9324185567
 20
-0.75
 11
-26.4324185567
 21
-0.75
  0
LINE
  5
5A0
100
AcDbEntity
  8
CURVE
100
AcDbLine
 62
253
  6
CONTINUOUS
 10
-55.7465802594
 20
11.5571428895
 11
-55.7465802594
 21
12.1452381492
  0
LINE
  5
5A1
100
AcDbEntity
  8
CURVE
100
AcDbLine
 62
253
  6
CONTINUOUS
 10
-54.9324185567
 20
13.864285779
 11
-54.9324185567
 21
14.407142663
  0
LINE
  5
5A2
100
AcDbEntity
  8
CURVE
100
AcDbLine
 62
253
  6
CONTINUOUS
 10
-54.9324185567
 20
15.221428442
 11
-54.9324185567
 21
15.9
  0
LWPOLYLINE
  5
5A3
100
AcDbEntity
  8
0
100
AcDbPolyline
 62
7
  6
CONTINUOUS
 90
4
 70
0
 43
0.3500000006
 10
-54.2467037659
 20
48.5005990906
 10
-54.2467037659
 20
49.143457077
 10
-52.7467033081
 20
49.143457077
 10
-53.6038457794
 20
46.1434561615
  0
LINE
  5
5A4
100
AcDbEntity
  8
RACCORDO
100
AcDbLine
 62
253
  6
CONTINUOUS
 10
-54.1306732496
 20
-20.7855365134
 11
-54.1306732496
 21
-20.6789098993
  0
LINE
  5
5A5
100
AcDbEntity
  8
RACCORDO
100
AcDbLine
 62
253
  6
CONTINUOUS
 10
-54.1306732496
 20
20.6789098993
 11
-54.1306732496
 21
20.7855366255
  0
LINE
  5
5A6
100
AcDbEntity
  8
RACCORDO
100
AcDbLine
 62
253
  6
CONTINUOUS
 10
-54.1289280754
 20
-21.2165694902
 11
-54.1289280754
 21
-21.18553092
  0
LINE
  5
5A7
100
AcDbEntity
  8
RACCORDO
100
AcDbLine
 62
253
  6
CONTINUOUS
 10
-54.1289280754
 20
21.18553092
 11
-54.1289280754
 21
21.2165694902
  0
LINE
  5
5A8
100
AcDbEntity
  8
ASSI
100
AcDbLine
 62
7
  6
CONTINUOUS
 10
-53.9324185567
 20
21.18553092
 11
-53.9324185567
 21
20.8711510238
  0
LINE
  5
5A9
100
AcDbEntity
  8
ASSI
100
AcDbLine
 62
7
  6
CONTINUOUS
 10
-53.9324185567
 20
-20.8710900996
 11
-53.9324185567
 21
-21.18553092
  0
LINE
  5
5AA
100
AcDbEntity
  8
RACCORDO
100
AcDbLine
 62
7
  6
CONTINUOUS
 10
-53.9324185567
 20
-21.2165694902
 11
-53.9324185567
 21
-19.3181305591
  0
LINE
  5
5AB
100
AcDbEntity
  8
ASSI
100
AcDbLine
 62
7
  6
CONTINUOUS
 10
-53.9324185567
 20
-20.6754493507
 11
-53.9324185567
 21
-19.3181305591
  0
LINE
  5
5AC
100
AcDbEntity
  8
ASSI
100
AcDbLine
 62
7
  6
CONTINUOUS
 10
-53.9324185567
 20
19.3181305591
 11
-53.9324185567
 21
20.6754493507
  0
LINE
  5
5AD
100
AcDbEntity
  8
RACCORDO
100
AcDbLine
 62
7
  6
CONTINUOUS
 10
-53.9324185567
 20
19.3181305591
 11
-53.9324185567
 21
21.2165694902
  0
LWPOLYLINE
  5
5AE
100
AcDbEntity
  8
0
100
AcDbPolyline
 62
7
  6
CONTINUOUS
 90
3
 70
0
 43
0.3500000006
 10
-43.6467050629
 20
36.4291687775
 10
-43.7181317139
 20
36.2148842926
 10
-43.8609895477
 20
35.9291686249
  0
LINE
  5
5AF
100
AcDbEntity
  8
RACCORDO
100
AcDbLine
 62
7
  6
CONTINUOUS
 10
-26.4324185567
 20
0.75
 11
-24.9324185567
 21
0.75
  0
LINE
  5
5B0
100
AcDbEntity
  8
ASSI
100
AcDbLine
 62
7
  6
CONTINUOUS
 10
-26.4324185567
 20
0.75
 11
-24.9324185567
 21
0.75
  0
LINE
  5
5B1
100
AcDbEntity
  8
RACCORDO
100
AcDbLine
 62
7
  6
CONTINUOUS
 10
-26.4324185567
 20
0.75
 11
-34.4324185567
 21
0.7687068574
  0
LINE
  5
5B2
100
AcDbEntity
  8
ASSI
100
AcDbLine
 62
7
  6
CONTINUOUS
 10
-26.4324185567
 20
0.75
 11
-34.4324185567
 21
0.7687068574
  0
LINE
  5
5B3
100
AcDbEntity
  8
RACCORDO
100
AcDbLine
 62
7
  6
CONTINUOUS
 10
-48.2324185567
 20
0.8009761865
 11
-52.6824185567
 21
0.8113818759
  0
LINE
  5
5B4
100
AcDbEntity
  8
ASSI
100
AcDbLine
 62
7
  6
CONTINUOUS
 10
-48.2324185567
 20
0.8009761865
 11
-52.6824185567
 21
0.8113818759
  0
LINE
  5
5B5
100
AcDbEntity
  8
RACCORDO
100
AcDbLine
 62
7
  6
CONTINUOUS
 10
-25.9149661503
 20
1.0143058604
 11
-52.6824185567
 21
1.1394991238
  0
LINE
  5
5B6
100
AcDbEntity
  8
ASSI
100
AcDbLine
 62
7
  6
CONTINUOUS
 10
-25.9149661503
 20
1.0143058604
 11
-52.6824185567
 21
1.1394991238
  0
LINE
  5
5B7
100
AcDbEntity
  8
RACCORDO
100
AcDbLine
 62
7
  6
CONTINUOUS
 10
-25.9149661503
 20
2.8726812334
 11
-31.1324185567
 21
2.9
  0
LINE
  5
5B8
100
AcDbEntity
  8
ASSI
100
AcDbLine
 62
7
  6
CONTINUOUS
 10
-25.9149661503
 20
2.8726812334
 11
-31.1324185567
 21
2.9
  0
LINE
  5
5B9
100
AcDbEntity
  8
DRAFT
100
AcDbLine
 62
7
  6
CONTINUOUS
 10
-27.4324185567
 20
2.8980602259
 11
-31.1504599809
 21
2.9180914279
  0
LINE
  5
5BA
100
AcDbEntity
  8
RACCORDO
100
AcDbLine
 62
7
  6
CONTINUOUS
 10
-24.9324185567
 20
2.8843640409
 11
-27.4324185567
 21
2.8982117355
  0
LINE
  5
5BB
100
AcDbEntity
  8
ASSI
100
AcDbLine
 62
7
  6
CONTINUOUS
 10
-24.9324185567
 20
2.8843640409
 11
-31.1504599809
 21
2.9180914279
  0
LINE
  5
5BC
100
AcDbEntity
  8
0
100
AcDbLine
 62
253
  6
CONTINUOUS
 10
-61.3330337117
 20
8.493405
 11
-58.4251346662
 21
5.986586
  0
LINE
  5
5BD
100
AcDbEntity
  8
0
100
AcDbLine
 62
253
  6
CONTINUOUS
 10
-52.8024185567
 20
-14.7
 11
-52.8024185567
 21
-14.3
  0
LINE
  5
5BE
100
AcDbEntity
  8
RACCORDO
100
AcDbLine
 62
253
  6
CONTINUOUS
 10
-52.6824185567
 20
14.1886181241
 11
-52.6824185567
 21
13.8605008762
  0
LINE
  5
5BF
100
AcDbEntity
  8
ASSI
100
AcDbLine
 62
253
  6
CONTINUOUS
 10
-52.6824185567
 20
14.1886181241
 11
-52.6824185567
 21
13.8605008762
  0
LINE
  5
5C0
100
AcDbEntity
  8
RACCORDO
100
AcDbLine
 62
253
  6
CONTINUOUS
 10
-52.6824185567
 20
9.1886181241
 11
-52.6824185567
 21
8.8605008762
  0
LINE
  5
5C1
100
AcDbEntity
  8
ASSI
100
AcDbLine
 62
253
  6
CONTINUOUS
 10
-52.6824185567
 20
9.1886181241
 11
-52.6824185567
 21
8.8605008762
  0
LINE
  5
5C2
100
AcDbEntity
  8
RACCORDO
100
AcDbLine
 62
253
  6
CONTINUOUS
 10
-52.6824185567
 20
4.1886181241
 11
-52.6824185567
 21
3.8605008762
  0
LINE
  5
5C3
100
AcDbEntity
  8
ASSI
100
AcDbLine
 62
253
  6
CONTINUOUS
 10
-52.6824185567
 20
4.1886181241
 11
-52.6824185567
 21
3.8605008762
  0
LINE
  5
5C4
100
AcDbEntity
  8
RACCORDO
100
AcDbLine
 62
253
  6
CONTINUOUS
 10
-52.6824185567
 20
-0.8113818759
 11
-52.6824185567
 21
-1.1394991238
  0
LINE
  5
5C5
100
AcDbEntity
  8
ASSI
100
AcDbLine
 62
253
  6
CONTINUOUS
 10
-52.6824185567
 20
-0.8113818759
 11
-52.6824185567
 21
-1.1394991238
  0
LINE
  5
5C6
100
AcDbEntity
  8
RACCORDO
100
AcDbLine
 62
253
  6
CONTINUOUS
 10
-52.6824185567
 20
-5.8113818759
 11
-52.6824185567
 21
-6.1394991238
  0
LINE
  5
5C7
100
AcDbEntity
  8
ASSI
100
AcDbLine
 62
253
  6
CONTINUOUS
 10
-52.6824185567
 20
-5.8113818759
 11
-52.6824185567
 21
-6.1394991238
  0
LINE
  5
5C8
100
AcDbEntity
  8
RACCORDO
100
AcDbLine
 62
253
  6
CONTINUOUS
 10
-52.6824185567
 20
-10.8113818759
 11
-52.6824185567
 21
-11.1394991238
  0
LINE
  5
5C9
100
AcDbEntity
  8
ASSI
100
AcDbLine
 62
253
  6
CONTINUOUS
 10
-52.6824185567
 20
-10.8113818759
 11
-52.6824185567
 21
-11.1394991238
  0
LINE
  5
5CA
100
AcDbEntity
  8
RACCORDO
100
AcDbLine
 62
253
  6
CONTINUOUS
 10
-52.6824185567
 20
-15.8113818759
 11
-52.6824185567
 21
-16.1394991238
  0
LINE
  5
5CB
100
AcDbEntity
  8
ASSI
100
AcDbLine
 62
253
  6
CONTINUOUS
 10
-52.6824185567
 20
-15.8113818759
 11
-52.6824185567
 21
-16.1394991238
  0
LINE
  5
5CC
100
AcDbEntity
  8
RACCORDO
100
AcDbLine
 62
253
  6
CONTINUOUS
 10
-52.6824185567
 20
-14.1886181241
 11
-52.6824185567
 21
-13.8605008762
  0
LINE
  5
5CD
100
AcDbEntity
  8
ASSI
100
AcDbLine
 62
253
  6
CONTINUOUS
 10
-52.6824185567
 20
-14.1886181241
 11
-52.6824185567
 21
-13.8605008762
  0
LINE
  5
5CE
100
AcDbEntity
  8
RACCORDO
100
AcDbLine
 62
253
  6
CONTINUOUS
 10
-52.6824185567
 20
-9.1886181241
 11
-52.6824185567
 21
-8.8605008762
  0
LINE
  5
5CF
100
AcDbEntity
  8
ASSI
100
AcDbLine
 62
253
  6
CONTINUOUS
 10
-52.6824185567
 20
-9.1886181241
 11
-52.6824185567
 21
-8.8605008762
  0
LINE
  5
5D0
100
AcDbEntity
  8
RACCORDO
100
AcDbLine
 62
253
  6
CONTINUOUS
 10
-52.6824185567
 20
-4.1886181241
 11
-52.6824185567
 21
-3.8605008762
  0
LINE
  5
5D1
100
AcDbEntity
  8
ASSI
100
AcDbLine
 62
253
  6
CONTINUOUS
 10
-52.6824185567
 20
-4.1886181241
 11
-52.6824185567
 21
-3.8605008762
  0
LINE
  5
5D2
100
AcDbEntity
  8
RACCORDO
100
AcDbLine
 62
253
  6
CONTINUOUS
 10
-52.6824185567
 20
0.8113818759
 11
-52.6824185567
 21
1.1394991238
  0
LINE
  5
5D3
100
AcDbEntity
  8
ASSI
100
AcDbLine
 62
253
  6
CONTINUOUS
 10
-52.6824185567
 20
0.8113818759
 11
-52.6824185567
 21
1.1394991238
  0
LINE
  5
5D4
100
AcDbEntity
  8
RACCORDO
100
AcDbLine
 62
253
  6
CONTINUOUS
 10
-52.6824185567
 20
5.8113818759
 11
-52.6824185567
 21
6.1394991238
  0
LINE
  5
5D5
100
AcDbEntity
  8
ASSI
100
AcDbLine
 62
253
  6
CONTINUOUS
 10
-52.6824185567
 20
5.8113818759
 11
-52.6824185567
 21
6.1394991238
  0
LINE
  5
5D6
100
AcDbEntity
  8
RACCORDO
100
AcDbLine
 62
253
  6
CONTINUOUS
 10
-52.6824185567
 20
10.8113818759
 11
-52.6824185567
 21
11.1394991238
  0
LINE
  5
5D7
100
AcDbEntity
  8
ASSI
100
AcDbLine
 62
253
  6
CONTINUOUS
 10
-52.6824185567
 20
10.8113818759
 11
-52.6824185567
 21
11.1394991238
  0
LINE
  5
5D8
100
AcDbEntity
  8
RACCORDO
100
AcDbLine
 62
253
  6
CONTINUOUS
 10
-52.6824185567
 20
15.8113818759
 11
-52.6824185567
 21
16.1394991238
  0
LINE
  5
5D9
100
AcDbEntity
  8
ASSI
100
AcDbLine
 62
253
  6
CONTINUOUS
 10
-52.6824185567
 20
15.8113818759
 11
-52.6824185567
 21
16.1394991238
  0
LINE
  5
5DA
100
AcDbEntity
  8
0
100
AcDbLine
 62
7
  6
CONTINUOUS
 10
-52.2324185567
 20
-15.8103296152
 11
-52.2324185567
 21
-14.1896703848
  0
LINE
  5
5DB
100
AcDbEntity
  8
0
100
AcDbLine
 62
7
  6
CONTINUOUS
 10
-52.2324185567
 20
-10.8103296152
 11
-52.2324185567
 21
-9.1896703848
  0
LINE
  5
5DC
100
AcDbEntity
  8
0
100
AcDbLine
 62
7
  6
CONTINUOUS
 10
-52.2324185567
 20
-5.8103296152
 11
-52.2324185567
 21
-4.1896703848
  0
LINE
  5
5DD
100
AcDbEntity
  8
0
100
AcDbLine
 62
7
  6
CONTINUOUS
 10
-52.2324185567
 20
-0.8103296152
 11
-52.2324185567
 21
0.8103296152
  0
LINE
  5
5DE
100
AcDbEntity
  8
0
100
AcDbLine
 62
7
  6
CONTINUOUS
 10
-52.2324185567
 20
4.1896703848
 11
-52.2324185567
 21
5.8103296152
  0
LINE
  5
5DF
100
AcDbEntity
  8
0
100
AcDbLine
 62
7
  6
CONTINUOUS
 10
-51.2324185567
 20
-15.807991258
 11
-51.2324185567
 21
-14.192008742
  0
LINE
  5
5E0
100
AcDbEntity
  8
0
100
AcDbLine
 62
7
  6
CONTINUOUS
 10
-51.2324185567
 20
-10.807991258
 11
-51.2324185567
 21
-9.192008742
  0
LINE
  5
5E1
100
AcDbEntity
  8
0
100
AcDbLine
 62
7
  6
CONTINUOUS
 10
-51.2324185567
 20
-5.807991258
 11
-51.2324185567
 21
-4.192008742
  0
LINE
  5
5E2
100
AcDbEntity
  8
0
100
AcDbLine
 62
7
  6
CONTINUOUS
 10
-51.2324185567
 20
-0.807991258
 11
-51.2324185567
 21
0.807991258
  0
LINE
  5
5E3
100
AcDbEntity
  8
0
100
AcDbLine
 62
7
  6
CONTINUOUS
 10
-51.2324185567
 20
4.192008742
 11
-51.2324185567
 21
5.807991258
  0
LINE
  5
5E4
100
AcDbEntity
  8
DRAFT
100
AcDbLine
 62
7
  6
CONTINUOUS
 10
-31.1504599809
 20
17.0819085721
 11
-31.1324185567
 21
17.1
  0
LINE
  5
5E5
100
AcDbEntity
  8
ASSI
100
AcDbLine
 62
7
  6
CONTINUOUS
 10
-31.1504599809
 20
17.0819085721
 11
-31.1324185567
 21
17.1
  0
LINE
  5
5E6
100
AcDbEntity
  8
RACCORDO
100
AcDbLine
 62
7
  6
CONTINUOUS
 10
-32.9526731227
 20
3.9527782875
 11
-52.6824185567
 21
3.8605008762
  0
LINE
  5
5E7
100
AcDbEntity
  8
ASSI
100
AcDbLine
 62
7
  6
CONTINUOUS
 10
-32.9526731227
 20
3.9527782875
 11
-52.6824185567
 21
3.8605008762
  0
LINE
  5
5E8
100
AcDbEntity
  8
RACCORDO
100
AcDbLine
 62
7
  6
CONTINUOUS
 10
-33.0865338196
 20
4.2344403018
 11
-34.4324185567
 21
4.2312931426
  0
LINE
  5
5E9
100
AcDbEntity
  8
ASSI
100
AcDbLine
 62
7
  6
CONTINUOUS
 10
-33.0865338196
 20
4.2344403018
 11
-34.4324185567
 21
4.2312931426
  0
LINE
  5
5EA
100
AcDbEntity
  8
RACCORDO
100
AcDbLine
 62
7
  6
CONTINUOUS
 10
-48.2324185567
 20
4.1990238135
 11
-52.6824185567
 21
4.1886181241
  0
LINE
  5
5EB
100
AcDbEntity
  8
ASSI
100
AcDbLine
 62
7
  6
CONTINUOUS
 10
-48.2324185567
 20
4.1990238135
 11
-52.6824185567
 21
4.1886181241
  0
LINE
  5
5EC
100
AcDbEntity
  8
RACCORDO
100
AcDbLine
 62
7
  6
CONTINUOUS
 10
-33.0865338196
 20
5.7655596982
 11
-34.4324185567
 21
5.7687068574
  0
LINE
  5
5ED
100
AcDbEntity
  8
ASSI
100
AcDbLine
 62
7
  6
CONTINUOUS
 10
-33.0865338196
 20
5.7655596982
 11
-34.4324185567
 21
5.7687068574
  0
LINE
  5
5EE
100
AcDbEntity
  8
RACCORDO
100
AcDbLine
 62
7
  6
CONTINUOUS
 10
-48.2324185567
 20
5.8009761865
 11
-52.6824185567
 21
5.8113818759
  0
LINE
  5
5EF
100
AcDbEntity
  8
ASSI
100
AcDbLine
 62
7
  6
CONTINUOUS
 10
-48.2324185567
 20
5.8009761865
 11
-52.6824185567
 21
5.8113818759
  0
LINE
  5
5F0
100
AcDbEntity
  8
0
100
AcDbLine
 62
253
  6
CONTINUOUS
 10
-61.0304128093
 20
8.498725
 11
-58.4251346662
 21
6.25281
  0
LINE
  5
5F1
100
AcDbEntity
  8
0
100
AcDbLine
 62
253
  6
CONTINUOUS
 10
-61.3330337117
 20
13.37271
 11
-59.8773354553
 21
11.91679
  0
LINE
  5
5F2
100
AcDbEntity
  8
RACCORDO
100
AcDbLine
 62
253
  6
CONTINUOUS
 10
-48.3824185567
 20
9.19867306
 11
-48.3824185567
 21
10.80132694
  0
LINE
  5
5F3
100
AcDbEntity
  8
RACCORDO
100
AcDbLine
 62
253
  6
CONTINUOUS
 10
-48.3824185567
 20
14.19867306
 11
-48.3824185567
 21
15.80132694
  0
LINE
  5
5F4
100
AcDbEntity
  8
RACCORDO
100
AcDbLine
 62
7
  6
CONTINUOUS
 10
-48.2324185567
 20
-16.8
 11
-48.2324185567
 21
15.8009761865
  0
LINE
  5
5F5
100
AcDbEntity
  8
0
100
AcDbLine
 62
7
  6
CONTINUOUS
 10
-29.7875158986
 20
16.639877405
 11
-32.5722959617
 21
13.8550973418
  0
LINE
  5
5F6
100
AcDbEntity
  8
0
100
AcDbLine
 62
7
  6
CONTINUOUS
 10
-32.0773212149
 20
13.360122595
 11
-29.2925411517
 21
16.1449026581
  0
LINE
  5
5F7
100
AcDbEntity
  8
CURVE
100
AcDbLine
 62
253
  6
CONTINUOUS
 10
-61.3396327065
 20
-7.92899
 11
-58.4404213377
 21
-7.039304
  0
LINE
  5
5F8
100
AcDbEntity
  8
RACCORDO
100
AcDbLine
 62
7
  6
CONTINUOUS
 10
-27.4324185567
 20
7.1017882645
 11
-24.9324185567
 21
7.1156359591
  0
LINE
  5
5F9
100
AcDbEntity
  8
DRAFT
100
AcDbLine
 62
7
  6
CONTINUOUS
 10
-27.4324185567
 20
7.1019397741
 11
-31.1504599809
 21
7.0819085721
  0
LINE
  5
5FA
100
AcDbEntity
  8
ASSI
100
AcDbLine
 62
7
  6
CONTINUOUS
 10
-24.9324185567
 20
7.1156359591
 11
-31.1504599809
 21
7.0819085721
  0
LINE
  5
5FB
100
AcDbEntity
  8
RACCORDO
100
AcDbLine
 62
7
  6
CONTINUOUS
 10
-25.9149661503
 20
7.1273187666
 11
-31.1324185567
 21
7.1
  0
LINE
  5
5FC
100
AcDbEntity
  8
ASSI
100
AcDbLine
 62
7
  6
CONTINUOUS
 10
-25.9149661503
 20
7.1273187666
 11
-31.1324185567
 21
7.1
  0
LINE
  5
5FD
100
AcDbEntity
  8
0
100
AcDbLine
 62
253
  6
CONTINUOUS
 10
-59.9472798009
 20
7.777789
 11
-59.7456735111
 21
7.777789
  0
LINE
  5
5FE
100
AcDbEntity
  8
0
100
AcDbLine
 62
253
  6
CONTINUOUS
 10
-61.0304128093
 20
8.498725
 11
-59.9472798009
 21
8.498725
  0
LINE
  5
5FF
100
AcDbEntity
  8
0
100
AcDbLine
 62
253
  6
CONTINUOUS
 10
-59.7456735111
 20
8.498725
 11
-58.4251346662
 21
8.498725
  0
LINE
  5
600
100
AcDbEntity
  8
RACCORDO
100
AcDbLine
 62
7
  6
CONTINUOUS
 10
-32.9526731227
 20
6.0472217125
 11
-52.6824185567
 21
6.1394991238
  0
LINE
  5
601
100
AcDbEntity
  8
ASSI
100
AcDbLine
 62
7
  6
CONTINUOUS
 10
-32.9526731227
 20
6.0472217125
 11
-52.6824185567
 21
6.1394991238
  0
LINE
  5
602
100
AcDbEntity
  8
RACCORDO
100
AcDbLine
 62
7
  6
CONTINUOUS
 10
-25.9149661503
 20
7.8726812334
 11
-31.1324185567
 21
7.9
  0
LINE
  5
603
100
AcDbEntity
  8
ASSI
100
AcDbLine
 62
7
  6
CONTINUOUS
 10
-25.9149661503
 20
7.8726812334
 11
-31.1324185567
 21
7.9
  0
LINE
  5
604
100
AcDbEntity
  8
DRAFT
100
AcDbLine
 62
7
  6
CONTINUOUS
 10
-27.4324185567
 20
7.8980602259
 11
-31.1504599809
 21
7.9180914279
  0
LINE
  5
605
100
AcDbEntity
  8
RACCORDO
100
AcDbLine
 62
7
  6
CONTINUOUS
 10
-24.9324185567
 20
7.8843640409
 11
-27.4324185567
 21
7.8982117355
  0
LINE
  5
606
100
AcDbEntity
  8
ASSI
100
AcDbLine
 62
7
  6
CONTINUOUS
 10
-24.9324185567
 20
7.8843640409
 11
-31.1504599809
 21
7.9180914279
  0
LINE
  5
607
100
AcDbEntity
  8
0
100
AcDbLine
 62
253
  6
CONTINUOUS
 10
-59.8773354553
 20
12.201957
 11
-61.3330337117
 21
13.657831
  0
LINE
  5
608
100
AcDbEntity
  8
0
100
AcDbLine
 62
253
  6
CONTINUOUS
 10
-62.3115086625
 20
15.397974
 11
-61.6113493164
 21
14.697707
  0
LINE
  5
609
100
AcDbEntity
  8
0
100
AcDbLine
 62
253
  6
CONTINUOUS
 10
-61.6113493164
 20
14.982851
 11
-62.3115086625
 21
15.683094
  0
LINE
  5
60A
100
AcDbEntity
  8
CURVE
100
AcDbLine
 62
253
  6
CONTINUOUS
 10
-56.2893547468
 20
10.2
 11
-56.8321291775
 21
10.7428571671
  0
LINE
  5
60B
100
AcDbEntity
  8
CURVE
100
AcDbLine
 62
253
  6
CONTINUOUS
 10
-56.8321291775
 20
11.5571428895
 11
-56.5607419621
 21
11.2857143342
  0
LINE
  5
60C
100
AcDbEntity
  8
CURVE
100
AcDbLine
 62
253
  6
CONTINUOUS
 10
-56.0179675314
 20
15.764285779
 11
-56.1536610825
 21
15.9904762983
  0
LINE
  5
60D
100
AcDbEntity
  8
DRAFT
100
AcDbLine
 62
7
  6
CONTINUOUS
 10
-31.1504599809
 20
12.0819085721
 11
-31.1324185567
 21
12.1
  0
LINE
  5
60E
100
AcDbEntity
  8
ASSI
100
AcDbLine
 62
7
  6
CONTINUOUS
 10
-31.1504599809
 20
12.0819085721
 11
-31.1324185567
 21
12.1
  0
LINE
  5
60F
100
AcDbEntity
  8
0
100
AcDbLine
 62
7
  6
CONTINUOUS
 10
-29.7875158986
 20
11.639877405
 11
-32.5722959617
 21
8.8550973418
  0
LINE
  5
610
100
AcDbEntity
  8
0
100
AcDbLine
 62
7
  6
CONTINUOUS
 10
-32.0773212149
 20
8.360122595
 11
-29.2925411517
 21
11.1449026581
  0
LINE
  5
611
100
AcDbEntity
  8
ASSI
100
AcDbLine
 62
7
  6
CONTINUOUS
 10
-65.4324185567
 20
-18.5
 11
-63.9324185567
 21
-17.6339745962
  0
LINE
  5
612
100
AcDbEntity
  8
CURVE
100
AcDbLine
 62
253
  6
CONTINUOUS
 10
-58.4404213377
 20
-11.040105
 11
-60.3335519608
 21
-11.750162
  0
LINE
  5
613
100
AcDbEntity
  8
CURVE
100
AcDbLine
 62
253
  6
CONTINUOUS
 10
-61.3396327065
 20
-11.593234
 11
-59.7299819014
 21
-10.994355
  0
LINE
  5
614
100
AcDbEntity
  8
0
100
AcDbLine
 62
7
  6
CONTINUOUS
 10
-75.8324185567
 20
7.875
 11
-84.7238102639
 21
7.2532533242
  0
LINE
  5
615
100
AcDbEntity
  8
0
100
AcDbLine
 62
7
  6
CONTINUOUS
 10
-75.5533455265
 20
7.900639107
 11
-74.5173933853
 21
7.9730799376
  0
LINE
  5
616
100
AcDbEntity
  8
RACCORDO
100
AcDbLine
 62
7
  6
CONTINUOUS
 10
-32.9526731227
 20
8.9527782875
 11
-52.6824185567
 21
8.8605008762
  0
LINE
  5
617
100
AcDbEntity
  8
ASSI
100
AcDbLine
 62
7
  6
CONTINUOUS
 10
-32.9526731227
 20
8.9527782875
 11
-52.6824185567
 21
8.8605008762
  0
LINE
  5
618
100
AcDbEntity
  8
RACCORDO
100
AcDbLine
 62
7
  6
CONTINUOUS
 10
-33.0865338196
 20
9.2344403018
 11
-34.4324185567
 21
9.2312931426
  0
LINE
  5
619
100
AcDbEntity
  8
ASSI
100
AcDbLine
 62
7
  6
CONTINUOUS
 10
-33.0865338196
 20
9.2344403018
 11
-34.4324185567
 21
9.2312931426
  0
LINE
  5
61A
100
AcDbEntity
  8
RACCORDO
100
AcDbLine
 62
7
  6
CONTINUOUS
 10
-48.2324185567
 20
9.1990238135
 11
-52.6824185567
 21
9.1886181241
  0
LINE
  5
61B
100
AcDbEntity
  8
ASSI
100
AcDbLine
 62
7
  6
CONTINUOUS
 10
-48.2324185567
 20
9.1990238135
 11
-52.6824185567
 21
9.1886181241
  0
LINE
  5
61C
100
AcDbEntity
  8
0
100
AcDbLine
 62
253
  6
CONTINUOUS
 10
-58.4251346662
 20
8.700362
 11
-61.3330337117
 21
8.700362
  0
LINE
  5
61D
100
AcDbEntity
  8
0
100
AcDbLine
 62
253
  6
CONTINUOUS
 10
-61.3175699276
 20
9.1317800542
 11
-61.1159635162
 21
9.1317800542
  0
LINE
  5
61E
100
AcDbEntity
  8
CURVE
100
AcDbLine
 62
253
  6
CONTINUOUS
 10
-56.8321291775
 20
10.7428571671
 11
-54.9324185567
 21
10.7428571671
  0
LINE
  5
61F
100
AcDbEntity
  8
CURVE
100
AcDbLine
 62
253
  6
CONTINUOUS
 10
-56.5607419621
 20
11.2857143342
 11
-56.0179675314
 21
11.2857143342
  0
LINE
  5
620
100
AcDbEntity
  8
RACCORDO
100
AcDbLine
 62
7
  6
CONTINUOUS
 10
-33.0865338196
 20
10.7655596982
 11
-34.4324185567
 21
10.7687068574
  0
LINE
  5
621
100
AcDbEntity
  8
ASSI
100
AcDbLine
 62
7
  6
CONTINUOUS
 10
-33.0865338196
 20
10.7655596982
 11
-34.4324185567
 21
10.7687068574
  0
LINE
  5
622
100
AcDbEntity
  8
RACCORDO
100
AcDbLine
 62
7
  6
CONTINUOUS
 10
-48.2324185567
 20
10.8009761865
 11
-52.6824185567
 21
10.8113818759
  0
LINE
  5
623
100
AcDbEntity
  8
ASSI
100
AcDbLine
 62
7
  6
CONTINUOUS
 10
-48.2324185567
 20
10.8009761865
 11
-52.6824185567
 21
10.8113818759
  0
LINE
  5
624
100
AcDbEntity
  8
RACCORDO
100
AcDbLine
 62
7
  6
CONTINUOUS
 10
-32.9526731227
 20
11.0472217125
 11
-52.6824185567
 21
11.1394991238
  0
LINE
  5
625
100
AcDbEntity
  8
ASSI
100
AcDbLine
 62
7
  6
CONTINUOUS
 10
-32.9526731227
 20
11.0472217125
 11
-52.6824185567
 21
11.1394991238
  0
LINE
  5
626
100
AcDbEntity
  8
ASSI
100
AcDbLine
 62
7
  6
CONTINUOUS
 10
-63.9324185567
 20
17.6339745962
 11
-65.4324185567
 21
18.5
  0
LINE
  5
627
100
AcDbEntity
  8
CURVE
100
AcDbLine
 62
253
  6
CONTINUOUS
 10
-56.2893547468
 20
12.7785713315
 11
-56.8321291775
 21
13.3214286685
  0
LINE
  5
628
100
AcDbEntity
  8
CURVE
100
AcDbLine
 62
253
  6
CONTINUOUS
 10
-54.9324185567
 20
11.5571428895
 11
-55.475193044
 21
12.1
  0
LINE
  5
629
100
AcDbEntity
  8
CURVE
100
AcDbLine
 62
253
  6
CONTINUOUS
 10
-54.9324185567
 20
14.407142663
 11
-55.2038058004
 21
14.678571558
  0
LINE
  5
62A
100
AcDbEntity
  8
DRAFT
100
AcDbLine
 62
7
  6
CONTINUOUS
 10
-31.1504599809
 20
7.0819085721
 11
-31.1324185567
 21
7.1
  0
LINE
  5
62B
100
AcDbEntity
  8
ASSI
100
AcDbLine
 62
7
  6
CONTINUOUS
 10
-31.1504599809
 20
7.0819085721
 11
-31.1324185567
 21
7.1
  0
LINE
  5
62C
100
AcDbEntity
  8
0
100
AcDbLine
 62
7
  6
CONTINUOUS
 10
-29.7875158986
 20
6.639877405
 11
-32.5722959617
 21
3.8550973418
  0
LINE
  5
62D
100
AcDbEntity
  8
CURVE
100
AcDbLine
 62
253
  6
CONTINUOUS
 10
-58.4404213377
 20
-15.081013
 11
-61.3396327065
 21
-16.00026
  0
LINE
  5
62E
100
AcDbEntity
  8
RACCORDO
100
AcDbLine
 62
7
  6
CONTINUOUS
 10
-27.4324185567
 20
12.1017882645
 11
-24.9324185567
 21
12.1156359591
  0
LINE
  5
62F
100
AcDbEntity
  8
DRAFT
100
AcDbLine
 62
7
  6
CONTINUOUS
 10
-27.4324185567
 20
12.1019397741
 11
-31.1504599809
 21
12.0819085721
  0
LINE
  5
630
100
AcDbEntity
  8
ASSI
100
AcDbLine
 62
7
  6
CONTINUOUS
 10
-24.9324185567
 20
12.1156359591
 11
-31.1504599809
 21
12.0819085721
  0
LINE
  5
631
100
AcDbEntity
  8
RACCORDO
100
AcDbLine
 62
7
  6
CONTINUOUS
 10
-25.9149661503
 20
12.1273187666
 11
-31.1324185567
 21
12.1
  0
LINE
  5
632
100
AcDbEntity
  8
ASSI
100
AcDbLine
 62
7
  6
CONTINUOUS
 10
-25.9149661503
 20
12.1273187666
 11
-31.1324185567
 21
12.1
  0
LINE
  5
633
100
AcDbEntity
  8
RACCORDO
100
AcDbLine
 62
7
  6
CONTINUOUS
 10
-32.9526731227
 20
13.9527782875
 11
-52.6824185567
 21
13.8605008762
  0
LINE
  5
634
100
AcDbEntity
  8
ASSI
100
AcDbLine
 62
7
  6
CONTINUOUS
 10
-32.9526731227
 20
13.9527782875
 11
-52.6824185567
 21
13.8605008762
  0
LINE
  5
635
100
AcDbEntity
  8
RACCORDO
100
AcDbLine
 62
7
  6
CONTINUOUS
 10
-33.0865338196
 20
14.2344403018
 11
-34.4324185567
 21
14.2312931426
  0
LINE
  5
636
100
AcDbEntity
  8
ASSI
100
AcDbLine
 62
7
  6
CONTINUOUS
 10
-33.0865338196
 20
14.2344403018
 11
-34.4324185567
 21
14.2312931426
  0
LINE
  5
637
100
AcDbEntity
  8
RACCORDO
100
AcDbLine
 62
7
  6
CONTINUOUS
 10
-48.2324185567
 20
14.1990238135
 11
-52.6824185567
 21
14.1886181241
  0
LINE
  5
638
100
AcDbEntity
  8
ASSI
100
AcDbLine
 62
7
  6
CONTINUOUS
 10
-48.2324185567
 20
14.1990238135
 11
-52.6824185567
 21
14.1886181241
  0
LINE
  5
639
100
AcDbEntity
  8
0
100
AcDbLine
 62
253
  6
CONTINUOUS
 10
-61.3271706048
 20
11.610715
 11
-58.4251346662
 21
11.610715
  0
LINE
  5
63A
100
AcDbEntity
  8
0
100
AcDbLine
 62
253
  6
CONTINUOUS
 10
-58.4251346662
 20
11.812352
 11
-61.3271706048
 21
11.812352
  0
LINE
  5
63B
100
AcDbEntity
  8
CURVE
100
AcDbLine
 62
253
  6
CONTINUOUS
 10
-56.0179675314
 20
12.235714221
 11
-56.5607419621
 21
12.235714221
  0
LINE
  5
63C
100
AcDbEntity
  8
CURVE
100
AcDbLine
 62
253
  6
CONTINUOUS
 10
-56.8321291775
 20
13.3214286685
 11
-54.9324185567
 21
13.3214286685
  0
LINE
  5
63D
100
AcDbEntity
  8
CURVE
100
AcDbLine
 62
253
  6
CONTINUOUS
 10
-56.0179675314
 20
13.864285779
 11
-56.8321291775
 21
13.864285779
  0
LINE
  5
63E
100
AcDbEntity
  8
0
100
AcDbLine
 62
253
  6
CONTINUOUS
 10
-61.3292972808
 20
14.079481
 11
-58.4324185567
 21
14.079481
  0
LINE
  5
63F
100
AcDbEntity
  8
RACCORDO
100
AcDbLine
 62
7
  6
CONTINUOUS
 10
-25.9149661503
 20
12.8726812334
 11
-31.1324185567
 21
12.9
  0
LINE
  5
640
100
AcDbEntity
  8
ASSI
100
AcDbLine
 62
7
  6
CONTINUOUS
 10
-25.9149661503
 20
12.8726812334
 11
-31.1324185567
 21
12.9
  0
LINE
  5
641
100
AcDbEntity
  8
DRAFT
100
AcDbLine
 62
7
  6
CONTINUOUS
 10
-27.4324185567
 20
12.8980602259
 11
-31.1504599809
 21
12.9180914279
  0
LINE
  5
642
100
AcDbEntity
  8
RACCORDO
100
AcDbLine
 62
7
  6
CONTINUOUS
 10
-24.9324185567
 20
12.8843640409
 11
-27.4324185567
 21
12.8982117355
  0
LINE
  5
643
100
AcDbEntity
  8
ASSI
100
AcDbLine
 62
7
  6
CONTINUOUS
 10
-24.9324185567
 20
12.8843640409
 11
-31.1504599809
 21
12.9180914279
  0
LINE
  5
644
100
AcDbEntity
  8
CURVE
100
AcDbLine
 62
253
  6
CONTINUOUS
 10
-55.475193044
 20
12.1
 11
-56.0179675314
 21
12.235714221
  0
LINE
  5
645
100
AcDbEntity
  8
CURVE
100
AcDbLine
 62
253
  6
CONTINUOUS
 10
-54.9324185567
 20
15.9
 11
-55.0681121785
 21
16.035714221
  0
LINE
  5
646
100
AcDbEntity
  8
0
100
AcDbLine
 62
7
  6
CONTINUOUS
 10
-32.0773212149
 20
3.360122595
 11
-29.2925411517
 21
6.1449026581
  0
LINE
  5
647
100
AcDbEntity
  8
ASSI
100
AcDbLine
 62
7
  6
CONTINUOUS
 10
-67.8074185567
 20
-23.6278312164
 11
-66.9278706266
 21
-23.1200239821
  0
LINE
  5
648
100
AcDbEntity
  8
ASSI
100
AcDbLine
 62
253
  6
CONTINUOUS
 10
-67.710909038
 20
-23.8010362971
 11
-66.6867816583
 21
-23.2097560788
  0
LINE
  5
649
100
AcDbEntity
  8
RACCORDO
100
AcDbLine
 62
7
  6
CONTINUOUS
 10
-27.4324185567
 20
17.1017882645
 11
-24.9324185567
 21
17.1156359591
  0
LINE
  5
64A
100
AcDbEntity
  8
DRAFT
100
AcDbLine
 62
7
  6
CONTINUOUS
 10
-27.4324185567
 20
17.1019397741
 11
-31.1504599809
 21
17.0819085721
  0
LINE
  5
64B
100
AcDbEntity
  8
ASSI
100
AcDbLine
 62
7
  6
CONTINUOUS
 10
-24.9324185567
 20
17.1156359591
 11
-31.1504599809
 21
17.0819085721
  0
LINE
  5
64C
100
AcDbEntity
  8
RACCORDO
100
AcDbLine
 62
7
  6
CONTINUOUS
 10
-25.9149661503
 20
17.1273187666
 11
-31.1324185567
 21
17.1
  0
LINE
  5
64D
100
AcDbEntity
  8
ASSI
100
AcDbLine
 62
7
  6
CONTINUOUS
 10
-25.9149661503
 20
17.1273187666
 11
-31.1324185567
 21
17.1
  0
LINE
  5
64E
100
AcDbEntity
  8
0
100
AcDbLine
 62
253
  6
CONTINUOUS
 10
-58.6340248464
 20
14.281118
 11
-61.1276909911
 21
14.281118
  0
LINE
  5
64F
100
AcDbEntity
  8
CURVE
100
AcDbLine
 62
253
  6
CONTINUOUS
 10
-55.2038058004
 20
14.678571558
 11
-55.7465802594
 21
14.678571558
  0
LINE
  5
650
100
AcDbEntity
  8
0
100
AcDbLine
 62
253
  6
CONTINUOUS
 10
-59.9471858152
 20
14.920014
 11
-59.7467143526
 21
14.920014
  0
LINE
  5
651
100
AcDbEntity
  8
RACCORDO
100
AcDbLine
 62
253
  6
CONTINUOUS
 10
-36.0324185567
 20
15.0
 11
-48.2324185567
 21
15.0
  0
LINE
  5
652
100
AcDbEntity
  8
RACCORDO
100
AcDbLine
 62
7
  6
CONTINUOUS
 10
-34.4324185567
 20
15.2
 11
-36.0324185567
 21
15.2
  0
LINE
  5
653
100
AcDbEntity
  8
0
100
AcDbLine
 62
253
  6
CONTINUOUS
 10
-59.7467143526
 20
15.920301
 11
-59.9471858152
 21
15.920301
  0
LINE
  5
654
100
AcDbEntity
  8
0
100
AcDbLine
 62
253
  6
CONTINUOUS
 10
-61.1276909911
 20
15.975334
 11
-61.3292972808
 21
15.975334
  0
LINE
  5
655
100
AcDbEntity
  8
CURVE
100
AcDbLine
 62
253
  6
CONTINUOUS
 10
-56.1536610825
 20
15.9904762983
 11
-56.5607419621
 21
15.9904762983
  0
LINE
  5
656
100
AcDbEntity
  8
0
100
AcDbLine
 62
253
  6
CONTINUOUS
 10
-58.4324185567
 20
16.0
 11
-58.6340248464
 21
16.0
  0
LINE
  5
657
100
AcDbEntity
  8
CURVE
100
AcDbLine
 62
253
  6
CONTINUOUS
 10
-55.0681121785
 20
16.035714221
 11
-55.7465802594
 21
16.035714221
  0
LINE
  5
658
100
AcDbEntity
  8
RACCORDO
100
AcDbLine
 62
7
  6
CONTINUOUS
 10
-33.0865338196
 20
15.7655596982
 11
-52.6824185567
 21
15.8113818759
  0
LINE
  5
659
100
AcDbEntity
  8
ASSI
100
AcDbLine
 62
7
  6
CONTINUOUS
 10
-33.0865338196
 20
15.7655596982
 11
-52.6824185567
 21
15.8113818759
  0
LINE
  5
65A
100
AcDbEntity
  8
RACCORDO
100
AcDbLine
 62
7
  6
CONTINUOUS
 10
-32.9526731227
 20
16.0472217125
 11
-52.6824185567
 21
16.1394991238
  0
LINE
  5
65B
100
AcDbEntity
  8
ASSI
100
AcDbLine
 62
7
  6
CONTINUOUS
 10
-32.9526731227
 20
16.0472217125
 11
-52.6824185567
 21
16.1394991238
  0
LINE
  5
65C
100
AcDbEntity
  8
ASSI
100
AcDbLine
 62
7
  6
CONTINUOUS
 10
-67.8074917538
 20
23.6278734767
 11
-66.9278706266
 21
23.1200239821
  0
LINE
  5
65D
100
AcDbEntity
  8
ASSI
100
AcDbLine
 62
253
  6
CONTINUOUS
 10
-67.710909038
 20
23.8010362971
 11
-66.6867816583
 21
23.2097560788
  0
LINE
  5
65E
100
AcDbEntity
  8
RACCORDO
100
AcDbLine
 62
7
  6
CONTINUOUS
 10
-63.9324185567
 20
19.7
 11
-64.4324185567
 21
19.6956365661
  0
LINE
  5
65F
100
AcDbEntity
  8
RACCORDO
100
AcDbLine
 62
253
  6
CONTINUOUS
 10
-25.9149661503
 20
17.3968281299
 11
-24.9324185567
 21
17.3968281299
  0
LINE
  5
660
100
AcDbEntity
  8
ASSI
100
AcDbLine
 62
253
  6
CONTINUOUS
 10
-25.9149661503
 20
17.3968281299
 11
-24.9324185567
 21
17.3968281299
  0
LINE
  5
661
100
AcDbEntity
  8
RACCORDO
100
AcDbLine
 62
253
  6
CONTINUOUS
 10
-25.9149661503
 20
17.3968281299
 11
-63.9324185567
 21
17.6716990487
  0
LINE
  5
662
100
AcDbEntity
  8
ASSI
100
AcDbLine
 62
253
  6
CONTINUOUS
 10
-25.9149661503
 20
17.3968281299
 11
-63.9324185567
 21
17.6716990487
  0
LINE
  5
663
100
AcDbEntity
  8
ASSI
100
AcDbLine
 62
7
  6
CONTINUOUS
 10
-63.9324185567
 20
18.5638400026
 11
-64.4324185567
 21
18.5674550649
  0
LINE
  5
664
100
AcDbEntity
  8
RACCORDO
100
AcDbLine
 62
253
  6
CONTINUOUS
 10
-25.9149661503
 20
18.8108263007
 11
-63.9324185567
 21
19.0856972195
  0
LINE
  5
665
100
AcDbEntity
  8
ASSI
100
AcDbLine
 62
253
  6
CONTINUOUS
 10
-25.9149661503
 20
18.8108263007
 11
-63.9324185567
 21
19.0856972195
  0
LINE
  5
666
100
AcDbEntity
  8
ASSI
100
AcDbLine
 62
7
  6
CONTINUOUS
 10
-64.4324185567
 20
19.25
 11
-63.9324185567
 21
19.2412724675
  0
LINE
  5
667
100
AcDbEntity
  8
RACCORDO
100
AcDbLine
 62
253
  6
CONTINUOUS
 10
-53.9324185567
 20
19.3181305591
 11
-25.9149661503
 21
18.8290841082
  0
LINE
  5
668
100
AcDbEntity
  8
ASSI
100
AcDbLine
 62
253
  6
CONTINUOUS
 10
-53.9324185567
 20
19.3181305591
 11
-25.9149661503
 21
18.8290841082
  0
LINE
  5
669
100
AcDbEntity
  8
RACCORDO
100
AcDbLine
 62
7
  6
CONTINUOUS
 10
-53.9324185567
 20
19.6109791689
 11
-25.9149661503
 21
19.121932718
  0
LINE
  5
66A
100
AcDbEntity
  8
ASSI
100
AcDbLine
 62
7
  6
CONTINUOUS
 10
-53.9324185567
 20
19.6109791689
 11
-25.9149661503
 21
19.121932718
  0
LINE
  5
66B
100
AcDbEntity
  8
RACCORDO
100
AcDbLine
 62
7
  6
CONTINUOUS
 10
-36.0324185567
 20
15.0
 11
-36.0324185567
 21
15.7724482289
  0
LINE
  5
66C
100
AcDbEntity
  8
0
100
AcDbLine
 62
7
  6
CONTINUOUS
 10
-35.9324185567
 20
15.7722143932
 11
-35.9324185567
 21
15.2
  0
LINE
  5
66D
100
AcDbEntity
  8
0
100
AcDbLine
 62
7
  6
CONTINUOUS
 10
-34.4324185567
 20
15.7687068574
 11
-34.4324185567
 21
-0.8
  0
LINE
  5
66E
100
AcDbEntity
  8
ASSI
100
AcDbLine
 62
253
  6
CONTINUOUS
 10
-65.4324185567
 20
21.8999997649
 11
-72.5864154348
 21
21.5250746755
  0
LINE
  5
66F
100
AcDbEntity
  8
RACCORDO
100
AcDbLine
 62
253
  6
CONTINUOUS
 10
-63.9324185567
 20
19.8999867438
 11
-64.4324185567
 21
19.8956230222
  0
LINE
  5
670
100
AcDbEntity
  8
RACCORDO
100
AcDbLine
 62
253
  6
CONTINUOUS
 10
-64.4324185567
 20
20.6956400831
 11
-63.9324185567
 21
20.7000032536
  0
LINE
  5
671
100
AcDbEntity
  8
RACCORDO
100
AcDbLine
 62
253
  6
CONTINUOUS
 10
-58.2032859482
 20
20.7499976183
 11
-54.1306732496
 21
20.7855366255
  0
LINE
  5
672
100
AcDbEntity
  8
RACCORDO
100
AcDbLine
 62
7
  6
CONTINUOUS
 10
-54.1306732496
 20
20.9855385354
 11
-64.4324185567
 21
20.8956365661
  0
LINE
  5
673
100
AcDbEntity
  8
RACCORDO
100
AcDbLine
 62
253
  6
CONTINUOUS
 10
-54.1289280754
 20
21.18553092
 11
-64.4324185567
 21
21.0956137208
  0
LINE
  5
674
100
AcDbEntity
  8
RACCORDO
100
AcDbLine
 62
7
  6
CONTINUOUS
 10
-54.1661044932
 20
21.4576092846
 11
-64.4324185567
 21
21.4051134101
  0
LINE
  5
675
100
AcDbEntity
  8
RACCORDO
100
AcDbLine
 62
253
  6
CONTINUOUS
 10
-54.1306732496
 20
20.7855461508
 11
-53.9324185567
 21
20.7855461507
  0
LINE
  5
676
100
AcDbEntity
  8
RACCORDO
100
AcDbLine
 62
253
  6
CONTINUOUS
 10
-54.1289280754
 20
21.18553092
 11
-53.9324185567
 21
21.18553092
  0
LINE
  5
677
100
AcDbEntity
  8
RACCORDO
100
AcDbLine
 62
253
  6
CONTINUOUS
 10
-54.1289280754
 20
21.2165694902
 11
-53.9324185567
 21
21.2165694901
  0
LINE
  5
678
100
AcDbEntity
  8
DRAFT
100
AcDbLine
 62
7
  6
CONTINUOUS
 10
-63.9324185567
 20
20.85
 11
-53.9324185567
 21
20.6754493507
  0
LINE
  5
679
100
AcDbEntity
  8
ASSI
100
AcDbLine
 62
7
  6
CONTINUOUS
 10
-63.9324185567
 20
20.85
 11
-53.9324185567
 21
20.6754493507
  0
LINE
  5
67A
100
AcDbEntity
  8
ASSI
100
AcDbLine
 62
253
  6
CONTINUOUS
 10
-64.4324185567
 20
21.8826210875
 11
-65.4324185567
 21
21.9000761524
  0
LINE
  5
67B
100
AcDbEntity
  8
ASSI
100
AcDbLine
 62
7
  6
CONTINUOUS
 10
-54.9149661503
 20
22.2164171854
 11
-65.432414857
 21
22.3999999354
  0
LINE
  5
67C
100
AcDbEntity
  8
ASSI
100
AcDbLine
 62
253
  6
CONTINUOUS
 10
-73.2519071873
 20
20.855825359
 11
-73.7372349989
 21
20.8772675172
  0
LINE
  5
67D
100
AcDbEntity
  8
DRAFT
100
AcDbLine
 62
7
  6
CONTINUOUS
 10
-31.1504599809
 20
2.9180914279
 11
-31.1324185567
 21
2.9
  0
LINE
  5
67E
100
AcDbEntity
  8
ASSI
100
AcDbLine
 62
7
  6
CONTINUOUS
 10
-31.1504599809
 20
2.9180914279
 11
-31.1324185567
 21
2.9
  0
LWPOLYLINE
  5
67F
100
AcDbEntity
  8
0
100
AcDbPolyline
 62
7
  6
CONTINUOUS
 90
10
 70
0
 43
0.3500000006
 10
-55.318130722
 20
46.6434563141
 10
-55.246704071
 20
46.5005984802
 10
-55.246704071
 20
46.4291718292
 10
-55.3895619049
 20
46.2863139954
 10
-55.4609885559
 20
46.2863139954
 10
-55.5324197388
 20
46.3577406464
 10
-55.5324197388
 20
46.4291718292
 10
-55.4609885559
 20
46.5720296631
 10
-55.3895619049
 20
46.6434563141
 10
-55.318130722
 20
46.6434563141
  0
LINE
  5
680
100
AcDbEntity
  8
ASSI
100
AcDbLine
 62
7
  6
CONTINUOUS
 10
-72.9520339344
 20
22.005913657
 11
-66.7601688414
 21
22.3304155561
  0
LINE
  5
681
100
AcDbEntity
  8
ASSI
100
AcDbLine
 62
7
  6
CONTINUOUS
 10
-65.4324236647
 20
22.3999997323
 11
-65.6414660949
 21
22.3890442828
  0
LINE
  5
682
100
AcDbEntity
  8
ASSI
100
AcDbLine
 62
253
  6
CONTINUOUS
 10
-65.4324185567
 20
24.300030461
 11
-67.6867816583
 21
24.2606804067
  0
LINE
  5
683
100
AcDbEntity
  8
ASSI
100
AcDbLine
 62
7
  6
CONTINUOUS
 10
-65.4324185567
 20
24.5
 11
-67.6867816583
 21
24.4606499457
  0
LINE
  5
684
100
AcDbEntity
  8
ASSI
100
AcDbLine
 62
253
  6
CONTINUOUS
 10
-64.6289280754
 20
23.8443375673
 11
-64.4324185567
 21
23.8443375673
  0
LINE
  5
685
100
AcDbEntity
  8
ASSI
100
AcDbLine
 62
253
  6
CONTINUOUS
 10
-67.735909038
 20
23.8443375673
 11
-67.9324185567
 21
23.8443375672
  0
LINE
  5
686
100
AcDbEntity
  8
ASSI
100
AcDbLine
 62
253
  6
CONTINUOUS
 10
-67.735909038
 20
24.2106880219
 11
-67.9324185567
 21
24.2106880219
  0
LINE
  5
687
100
AcDbEntity
  8
ASSI
100
AcDbLine
 62
253
  6
CONTINUOUS
 10
-64.6289280754
 20
24.2368706193
 11
-64.4324185567
 21
24.2368706193
  0
LINE
  5
688
100
AcDbEntity
  8
ASSI
100
AcDbLine
 62
253
  6
CONTINUOUS
 10
-59.8038487764
 20
23.6517910252
 11
-64.4324185567
 21
23.7325830113
  0
LINE
  5
689
100
AcDbEntity
  8
ASSI
100
AcDbLine
 62
7
  6
CONTINUOUS
 10
-59.6780593435
 20
23.8995572863
 11
-64.4324185567
 21
23.9825449351
  0
LINE
  5
68A
100
AcDbEntity
  8
ASSI
100
AcDbLine
 62
253
  6
CONTINUOUS
 10
-64.6780554551
 20
24.286863004
 11
-65.4324185567
 21
24.300030461
  0
LINE
  5
68B
100
AcDbEntity
  8
ASSI
100
AcDbLine
 62
7
  6
CONTINUOUS
 10
-64.6780554551
 20
24.4868325431
 11
-65.4324185567
 21
24.5
  0
LINE
  5
68C
100
AcDbEntity
  8
DRAFT
100
AcDbLine
 62
7
  6
CONTINUOUS
 10
-31.1504599809
 20
7.9180914279
 11
-31.1324185567
 21
7.9
  0
LINE
  5
68D
100
AcDbEntity
  8
ASSI
100
AcDbLine
 62
7
  6
CONTINUOUS
 10
-31.1504599809
 20
7.9180914279
 11
-31.1324185567
 21
7.9
  0
LINE
  5
68E
100
AcDbEntity
  8
0
100
AcDbLine
 62
7
  6
CONTINUOUS
 10
-28.4324185567
 20
17.0965522058
 11
-28.4324185567
 21
12.9034477942
  0
LINE
  5
68F
100
AcDbEntity
  8
0
100
AcDbLine
 62
7
  6
CONTINUOUS
 10
-28.4324185567
 20
12.0965522058
 11
-28.4324185567
 21
7.9034477942
  0
LINE
  5
690
100
AcDbEntity
  8
0
100
AcDbLine
 62
7
  6
CONTINUOUS
 10
-28.4324185567
 20
7.0965522058
 11
-28.4324185567
 21
2.9034477942
  0
LINE
  5
691
100
AcDbEntity
  8
DRAFT
100
AcDbLine
 62
7
  6
CONTINUOUS
 10
-31.1504599809
 20
12.9180914279
 11
-31.1324185567
 21
12.9
  0
LINE
  5
692
100
AcDbEntity
  8
ASSI
100
AcDbLine
 62
7
  6
CONTINUOUS
 10
-31.1504599809
 20
12.9180914279
 11
-31.1324185567
 21
12.9
  0
LWPOLYLINE
  5
693
100
AcDbEntity
  8
0
100
AcDbPolyline
 62
7
  6
CONTINUOUS
 90
10
 70
0
 43
0.3500000006
 10
-43.7181317139
 20
36.6434577942
 10
-43.6467050629
 20
36.5005999603
 10
-43.6467050629
 20
36.4291687775
 10
-43.7895628967
 20
36.2863154755
 10
-43.8609895477
 20
36.2863154755
 10
-43.9324207306
 20
36.3577421265
 10
-43.9324207306
 20
36.4291687775
 10
-43.8609895477
 20
36.5720266113
 10
-43.7895628967
 20
36.6434577942
 10
-43.7181317139
 20
36.6434577942
  0
LINE
  5
694
100
AcDbEntity
  8
DRAFT
100
AcDbLine
 62
7
  6
CONTINUOUS
 10
-27.4324185567
 20
2.8980602259
 11
-27.4324185567
 21
7.1017882645
  0
LINE
  5
695
100
AcDbEntity
  8
ASSI
100
AcDbLine
 62
7
  6
CONTINUOUS
 10
-27.4324185567
 20
2.8980602259
 11
-27.4324185567
 21
7.1017882645
  0
LINE
  5
696
100
AcDbEntity
  8
DRAFT
100
AcDbLine
 62
7
  6
CONTINUOUS
 10
-27.4324185567
 20
7.8980602259
 11
-27.4324185567
 21
12.1017882645
  0
LINE
  5
697
100
AcDbEntity
  8
ASSI
100
AcDbLine
 62
7
  6
CONTINUOUS
 10
-27.4324185567
 20
7.8980602259
 11
-27.4324185567
 21
12.1017882645
  0
LINE
  5
698
100
AcDbEntity
  8
DRAFT
100
AcDbLine
 62
7
  6
CONTINUOUS
 10
-27.4324185567
 20
12.8980602259
 11
-27.4324185567
 21
17.1017882645
  0
LINE
  5
699
100
AcDbEntity
  8
ASSI
100
AcDbLine
 62
7
  6
CONTINUOUS
 10
-27.4324185567
 20
12.8980602259
 11
-27.4324185567
 21
17.1017882645
  0
LINE
  5
69A
100
AcDbEntity
  8
DRAFT
100
AcDbLine
 62
7
  6
CONTINUOUS
 10
-26.4324185567
 20
0.75
 11
-26.4324185567
 21
-0.75
  0
LINE
  5
69B
100
AcDbEntity
  8
ASSI
100
AcDbLine
 62
7
  6
CONTINUOUS
 10
-26.4324185567
 20
0.75
 11
-26.4324185567
 21
-0.75
  0
LINE
  5
69C
100
AcDbEntity
  8
RACCORDO
100
AcDbLine
 62
253
  6
CONTINUOUS
 10
-25.9149661503
 20
12.8726812334
 11
-25.9149661503
 21
12.1273187666
  0
LINE
  5
69D
100
AcDbEntity
  8
ASSI
100
AcDbLine
 62
253
  6
CONTINUOUS
 10
-25.9149661503
 20
12.8726812334
 11
-25.9149661503
 21
12.1273187666
  0
LINE
  5
69E
100
AcDbEntity
  8
RACCORDO
100
AcDbLine
 62
253
  6
CONTINUOUS
 10
-25.9149661503
 20
7.8726812334
 11
-25.9149661503
 21
7.1273187666
  0
LINE
  5
69F
100
AcDbEntity
  8
ASSI
100
AcDbLine
 62
253
  6
CONTINUOUS
 10
-25.9149661503
 20
7.8726812334
 11
-25.9149661503
 21
7.1273187666
  0
LINE
  5
6A0
100
AcDbEntity
  8
RACCORDO
100
AcDbLine
 62
253
  6
CONTINUOUS
 10
-25.9149661503
 20
2.8726812334
 11
-25.9149661503
 21
1.0143058604
  0
LINE
  5
6A1
100
AcDbEntity
  8
ASSI
100
AcDbLine
 62
253
  6
CONTINUOUS
 10
-25.9149661503
 20
2.8726812334
 11
-25.9149661503
 21
1.0143058604
  0
LINE
  5
6A2
100
AcDbEntity
  8
RACCORDO
100
AcDbLine
 62
253
  6
CONTINUOUS
 10
-25.9149661503
 20
-1.0143058604
 11
-25.9149661503
 21
-3.9856941396
  0
LINE
  5
6A3
100
AcDbEntity
  8
ASSI
100
AcDbLine
 62
253
  6
CONTINUOUS
 10
-25.9149661503
 20
-1.0143058604
 11
-25.9149661503
 21
-3.9856941396
  0
LINE
  5
6A4
100
AcDbEntity
  8
RACCORDO
100
AcDbLine
 62
253
  6
CONTINUOUS
 10
-25.9149661503
 20
-6.0143058604
 11
-25.9149661503
 21
-8.9856941396
  0
LINE
  5
6A5
100
AcDbEntity
  8
ASSI
100
AcDbLine
 62
253
  6
CONTINUOUS
 10
-25.9149661503
 20
-6.0143058604
 11
-25.9149661503
 21
-8.9856941396
  0
LINE
  5
6A6
100
AcDbEntity
  8
RACCORDO
100
AcDbLine
 62
253
  6
CONTINUOUS
 10
-25.9149661503
 20
-11.0143058604
 11
-25.9149661503
 21
-13.9856941396
  0
LINE
  5
6A7
100
AcDbEntity
  8
ASSI
100
AcDbLine
 62
253
  6
CONTINUOUS
 10
-25.9149661503
 20
-11.0143058604
 11
-25.9149661503
 21
-13.9856941396
  0
LINE
  5
6A8
100
AcDbEntity
  8
RACCORDO
100
AcDbLine
 62
253
  6
CONTINUOUS
 10
-25.9149661503
 20
-16.0143058604
 11
-25.9149661503
 21
-17.3968281299
  0
LINE
  5
6A9
100
AcDbEntity
  8
ASSI
100
AcDbLine
 62
253
  6
CONTINUOUS
 10
-25.9149661503
 20
-16.0143058604
 11
-25.9149661503
 21
-17.3968281299
  0
LINE
  5
6AA
100
AcDbEntity
  8
RACCORDO
100
AcDbLine
 62
253
  6
CONTINUOUS
 10
-25.9149661503
 20
-18.8108263007
 11
-25.9149661503
 21
-18.8290841082
  0
LINE
  5
6AB
100
AcDbEntity
  8
ASSI
100
AcDbLine
 62
253
  6
CONTINUOUS
 10
-25.9149661503
 20
-18.8108263007
 11
-25.9149661503
 21
-18.8290841082
  0
LINE
  5
6AC
100
AcDbEntity
  8
RACCORDO
100
AcDbLine
 62
253
  6
CONTINUOUS
 10
-25.9149661503
 20
17.1273187666
 11
-25.9149661503
 21
17.3968281299
  0
LINE
  5
6AD
100
AcDbEntity
  8
ASSI
100
AcDbLine
 62
253
  6
CONTINUOUS
 10
-25.9149661503
 20
17.1273187666
 11
-25.9149661503
 21
17.3968281299
  0
LINE
  5
6AE
100
AcDbEntity
  8
RACCORDO
100
AcDbLine
 62
253
  6
CONTINUOUS
 10
-25.9149661503
 20
18.8108263007
 11
-25.9149661503
 21
18.8290841082
  0
LINE
  5
6AF
100
AcDbEntity
  8
ASSI
100
AcDbLine
 62
253
  6
CONTINUOUS
 10
-25.9149661503
 20
18.8108263007
 11
-25.9149661503
 21
18.8290841082
  0
LINE
  5
6B0
100
AcDbEntity
  8
RACCORDO
100
AcDbLine
 62
7
  6
CONTINUOUS
 10
-24.9324185567
 20
-18.1220850228
 11
-24.9324185567
 21
18.1220850228
  0
LINE
  5
6B1
100
AcDbEntity
  8
ASSI
100
AcDbLine
 62
7
  6
CONTINUOUS
 10
-24.9324185567
 20
-18.1220850228
 11
-24.9324185567
 21
18.1220850228
  0
LWPOLYLINE
  5
6B2
100
AcDbEntity
  8
0
100
AcDbPolyline
 62
7
  6
CONTINUOUS
 90
6
 70
0
 43
0.3500000006
 10
-48.8609910736
 20
36.1434576416
 10
-47.7895595856
 20
36.1434576416
 10
-47.5752751007
 20
36.3577421265
 10
-47.5752751007
 20
37.4291690826
 10
-48.0038486023
 20
37.8577425842
 10
-48.432417572
 20
37.8577425842
  0
LWPOLYLINE
  5
6B3
100
AcDbEntity
  8
0
100
AcDbPolyline
 62
7
  6
CONTINUOUS
 90
8
 70
0
 43
0.3500000006
 10
-42.6467047577
 20
36.1434576416
 10
-41.7895622864
 20
36.1434576416
 10
-41.3609887848
 20
36.5720266113
 10
-41.3609887848
 20
37.4291690826
 10
-41.7895622864
 20
37.8577425842
 10
-42.6467047577
 20
37.8577425842
 10
-42.6467047577
 20
39.1434585571
 10
-41.3609887848
 20
39.1434585571
  0
LWPOLYLINE
  5
6B4
100
AcDbEntity
  8
0
100
AcDbPolyline
 62
7
  6
CONTINUOUS
 90
7
 70
0
 43
0.3500000006
 10
-56.8181311798
 20
46.1434561615
 10
-58.3181316376
 20
46.1434561615
 10
-56.8181311798
 20
48.2863146057
 10
-56.8181311798
 20
48.7148835754
 10
-57.2467046814
 20
49.143457077
 10
-57.8895626678
 20
49.143457077
 10
-58.3181316376
 20
48.5005990906
  0
ARC
  5
6B5
100
AcDbEntity
  8
ASSI
100
AcDbCircle
 62
253
  6
CONTINUOUS
 10
-18493.5874195321
 20
0.0000001494
 40
18482.7039468761
100
AcDbArc
 50
359.9353476073
 51
0.0646523918
  0
ARC
  5
6B6
100
AcDbEntity
  8
ASSI
100
AcDbCircle
 62
253
  6
CONTINUOUS
 10
0.0000007891
 20
-7678.3646766508
 40
7657.4945109012
100
AcDbArc
 50
89.9219676864
 51
90.0780323254
  0
ARC
  5
6B7
100
AcDbEntity
  8
ASSI
100
AcDbCircle
 62
253
  6
CONTINUOUS
 10
-45.2363468429
 20
-23.806378427
 40
34.8765446121
100
AcDbArc
 50
359.9376434835
 51
0.2933216697
  0
ARC
  5
6B8
100
AcDbEntity
  8
ASSI
100
AcDbCircle
 62
253
  6
CONTINUOUS
 10
-27.4363468419
 20
-23.806378427
 40
34.8765446111
100
AcDbArc
 50
359.9376434835
 51
0.2933216697
  0
ARC
  5
6B9
100
AcDbEntity
  8
ASSI
100
AcDbCircle
 62
253
  6
CONTINUOUS
 10
0.0000003032
 20
-2955.8523689864
 40
2933.8464582754
100
AcDbArc
 50
89.7966448225
 51
90.2033551894
  0
ARC
  5
6BA
100
AcDbEntity
  8
ASSI
100
AcDbCircle
 62
253
  6
CONTINUOUS
 10
-10.4122730963
 20
-21.5239600845
 40
0.5004157458
100
AcDbArc
 50
180.1276222189
 51
269.9353983487
  0
ARC
  5
6BB
100
AcDbEntity
  8
ASSI
100
AcDbCircle
 62
7
  6
CONTINUOUS
 10
-10.6001587126
 20
-21.9001678853
 40
0.4998378818
100
AcDbArc
 50
179.9894848452
 51
270.0181858364
  0
ARC
  5
6BC
100
AcDbEntity
  8
ASSI
100
AcDbCircle
 62
253
  6
CONTINUOUS
 10
-7.4393927669
 20
-24.2606072331
 40
0.2000430909
100
AcDbArc
 50
270.0209581897
 51
359.9790418103
  0
ARC
  5
6BD
100
AcDbEntity
  8
ASSI
100
AcDbCircle
 62
253
  6
CONTINUOUS
 10
-10.3606072331
 20
-24.2606072331
 40
0.2000430909
100
AcDbArc
 50
180.020958193
 51
269.979041807
  0
ARC
  5
6BE
100
AcDbEntity
  8
ASSI
100
AcDbCircle
 62
7
  6
CONTINUOUS
 10
-10.4000426585
 20
-24.3000426585
 40
0.1999569277
100
AcDbArc
 50
179.9965049109
 51
270.0034950891
  0
ARC
  5
6BF
100
AcDbEntity
  8
ASSI
100
AcDbCircle
 62
7
  6
CONTINUOUS
 10
-7.3999572982
 20
-24.3000427018
 40
0.1999569277
100
AcDbArc
 50
269.9964925066
 51
0.0035074934
  0
ARC
  5
6C0
100
AcDbEntity
  8
ASSI
100
AcDbCircle
 62
7
  6
CONTINUOUS
 10
-4.0
 20
-23.2
 40
0.5
100
AcDbArc
 50
154.1580672368
 51
205.8419327632
  0
ARC
  5
6C1
100
AcDbEntity
  8
ASSI
100
AcDbCircle
 62
253
  6
CONTINUOUS
 10
-4.1946686731
 20
-23.7446686731
 40
0.2500338912
100
AcDbArc
 50
180.016489117
 51
269.983510883
  0
ARC
  5
6C2
100
AcDbEntity
  8
ASSI
100
AcDbCircle
 62
253
  6
CONTINUOUS
 10
-1.0553310729
 20
-23.7446689271
 40
0.2500336371
100
AcDbArc
 50
270.016430911
 51
359.983569089
  0
ARC
  5
6C3
100
AcDbEntity
  8
ASSI
100
AcDbCircle
 62
7
  6
CONTINUOUS
 10
-1.049960424
 20
-23.7500395761
 40
0.2499612619
100
AcDbArc
 50
269.9996562079
 51
0.0003437921
  0
ARC
  5
6C4
100
AcDbEntity
  8
ASSI
100
AcDbCircle
 62
7
  6
CONTINUOUS
 10
-4.200039576
 20
-23.750039576
 40
0.2499612619
100
AcDbArc
 50
179.9996562109
 51
270.0003437891
  0
ARC
  5
6C5
100
AcDbEntity
  8
ASSI
100
AcDbCircle
 62
253
  6
CONTINUOUS
 10
-4.1947431236
 20
-23.7447431236
 40
0.0499898914
100
AcDbArc
 50
179.9971421991
 51
270.0028578008
  0
ARC
  5
6C6
100
AcDbEntity
  8
ASSI
100
AcDbCircle
 62
253
  6
CONTINUOUS
 10
-1.0552567831
 20
-23.7447432169
 40
0.0499897981
100
AcDbArc
 50
269.9970352096
 51
0.0029647904
  0
ARC
  5
6C7
100
AcDbEntity
  8
RACCORDO
100
AcDbCircle
 62
7
  6
CONTINUOUS
 10
-0.0001224534
 20
-0.0057023901
 40
8.2899192212
100
AcDbArc
 50
233.8717033955
 51
306.1282966043
  0
CIRCLE
  5
6C8
100
AcDbEntity
  8
DRAFT
100
AcDbCircle
 62
7
  6
CONTINUOUS
 10
0.0
 20
-0.0
 40
8.25
  0
CIRCLE
  5
6C9
100
AcDbEntity
  8
0
100
AcDbCircle
 62
7
  6
CONTINUOUS
 10
0.0
 20
-0.0
 40
8.0
  0
CIRCLE
  5
6CA
100
AcDbEntity
  8
RACCORDO
100
AcDbCircle
 62
253
  6
CONTINUOUS
 10
0.0
 20
-0.0
 40
7.9006391073
  0
CIRCLE
  5
6CB
100
AcDbEntity
  8
0
100
AcDbCircle
 62
7
  6
CONTINUOUS
 10
0.0
 20
-0.0
 40
7.875
  0
CIRCLE
  5
6CC
100
AcDbEntity
  8
0
100
AcDbCircle
 62
253
  6
CONTINUOUS
 10
0.0
 20
-0.0
 40
7.2532533242
  0
CIRCLE
  5
6CD
100
AcDbEntity
  8
0
100
AcDbCircle
 62
253
  6
CONTINUOUS
 10
0.0
 20
-0.0
 40
6.1162894523
  0
CIRCLE
  5
6CE
100
AcDbEntity
  8
0
100
AcDbCircle
 62
253
  6
CONTINUOUS
 10
0.0
 20
-0.0
 40
5.2236165645
  0
ARC
  5
6CF
100
AcDbEntity
  8
ASSI
100
AcDbCircle
 62
253
  6
CONTINUOUS
 10
-0.0000007848
 20
7678.3690565061
 40
7657.4988907556
100
AcDbArc
 50
269.921967731
 51
270.0780322807
  0
ARC
  5
6D0
100
AcDbEntity
  8
ASSI
100
AcDbCircle
 62
253
  6
CONTINUOUS
 10
-0.000000302
 20
2955.8523650073
 40
2933.8464542963
100
AcDbArc
 50
269.7966448222
 51
270.2033551896
  0
ARC
  5
6D1
100
AcDbEntity
  8
ASSI
100
AcDbCircle
 62
253
  6
CONTINUOUS
 10
-45.2337280799
 20
23.806377655
 40
34.8739258881
100
AcDbArc
 50
359.7067270348
 51
0.0623987992
  0
ARC
  5
6D2
100
AcDbEntity
  8
RACCORDO
100
AcDbCircle
 62
7
  6
CONTINUOUS
 10
0.0001224535
 20
0.0057023901
 40
8.2899192212
100
AcDbArc
 50
53.8717033955
 51
126.1282966043
  0
ARC
  5
6D3
100
AcDbEntity
  8
ASSI
100
AcDbCircle
 62
253
  6
CONTINUOUS
 10
-10.4122730961
 20
21.5239600831
 40
0.5004157456
100
AcDbArc
 50
90.0646015993
 51
179.8723777615
  0
ARC
  5
6D4
100
AcDbEntity
  8
ASSI
100
AcDbCircle
 62
7
  6
CONTINUOUS
 10
-4.0
 20
23.2
 40
0.5
100
AcDbArc
 50
154.1580672368
 51
205.8419327632
  0
ARC
  5
6D5
100
AcDbEntity
  8
ASSI
100
AcDbCircle
 62
7
  6
CONTINUOUS
 10
-10.6001595972
 20
21.9001682196
 40
0.4998372686
100
AcDbArc
 50
89.9817053392
 51
180.0193096512
  0
ARC
  5
6D6
100
AcDbEntity
  8
ASSI
100
AcDbCircle
 62
253
  6
CONTINUOUS
 10
-1.0553310645
 20
23.7446689355
 40
0.2500336288
100
AcDbArc
 50
0.0164290027
 51
89.9835709973
  0
ARC
  5
6D7
100
AcDbEntity
  8
ASSI
100
AcDbCircle
 62
253
  6
CONTINUOUS
 10
-4.1946690163
 20
23.7446690164
 40
0.2500335479
100
AcDbArc
 50
90.0170730915
 51
179.9835895316
  0
ARC
  5
6D8
100
AcDbEntity
  8
ASSI
100
AcDbCircle
 62
7
  6
CONTINUOUS
 10
-1.0499674725
 20
23.7500325275
 40
0.2499699324
100
AcDbArc
 50
0.0012718308
 51
89.9987281692
  0
ARC
  5
6D9
100
AcDbEntity
  8
ASSI
100
AcDbCircle
 62
7
  6
CONTINUOUS
 10
-4.2000325275
 20
23.7500325275
 40
0.2499699324
100
AcDbArc
 50
90.0012718308
 51
179.9987281692
  0
ARC
  5
6DA
100
AcDbEntity
  8
ASSI
100
AcDbCircle
 62
253
  6
CONTINUOUS
 10
-10.3606072331
 20
24.2606072331
 40
0.2000430909
100
AcDbArc
 50
90.0209581928
 51
179.9790418072
  0
ARC
  5
6DB
100
AcDbEntity
  8
ASSI
100
AcDbCircle
 62
253
  6
CONTINUOUS
 10
-7.4393927177
 20
24.2606072823
 40
0.2000430909
100
AcDbArc
 50
0.020944126
 51
89.979055874
  0
ARC
  5
6DC
100
AcDbEntity
  8
ASSI
100
AcDbCircle
 62
7
  6
CONTINUOUS
 10
-10.4000426585
 20
24.3000426585
 40
0.1999569277
100
AcDbArc
 50
89.9965049109
 51
180.0034950891
  0
ARC
  5
6DD
100
AcDbEntity
  8
ASSI
100
AcDbCircle
 62
7
  6
CONTINUOUS
 10
-7.3999572982
 20
24.3000427018
 40
0.1999569277
100
AcDbArc
 50
359.9964925066
 51
90.0035074934
  0
ARC
  5
6DE
100
AcDbEntity
  8
ASSI
100
AcDbCircle
 62
253
  6
CONTINUOUS
 10
-1.0552568506
 20
23.7447431494
 40
0.0499898656
100
AcDbArc
 50
359.9971126105
 51
90.0028873896
  0
ARC
  5
6DF
100
AcDbEntity
  8
ASSI
100
AcDbCircle
 62
253
  6
CONTINUOUS
 10
-4.1947431868
 20
23.7447431868
 40
0.0499898281
100
AcDbArc
 50
89.9970696677
 51
180.0029303323
  0
ARC
  5
6E0
100
AcDbEntity
  8
ASSI
100
AcDbCircle
 62
253
  6
CONTINUOUS
 10
18493.5879924847
 20
-0.0000001503
 40
18482.7045198283
100
AcDbArc
 50
179.9353476093
 51
180.0646523897
  0
ARC
  5
6E1
100
AcDbEntity
  8
ASSI
100
AcDbCircle
 62
253
  6
CONTINUOUS
 10
10.4122730987
 20
-21.5239600803
 40
0.5004157457
100
AcDbArc
 50
270.064601301
 51
359.8723774375
  0
ARC
  5
6E2
100
AcDbEntity
  8
ASSI
100
AcDbCircle
 62
7
  6
CONTINUOUS
 10
4.0
 20
-23.2
 40
0.5
100
AcDbArc
 50
334.1580672368
 51
25.8419327632
  0
ARC
  5
6E3
100
AcDbEntity
  8
ASSI
100
AcDbCircle
 62
7
  6
CONTINUOUS
 10
10.6001595964
 20
-21.9001682205
 40
0.4998372686
100
AcDbArc
 50
269.9817054402
 51
0.019309751
  0
ARC
  5
6E4
100
AcDbEntity
  8
ASSI
100
AcDbCircle
 62
253
  6
CONTINUOUS
 10
1.0553313269
 20
-23.7446686731
 40
0.2500338912
100
AcDbArc
 50
180.016489117
 51
269.983510883
  0
ARC
  5
6E5
100
AcDbEntity
  8
ASSI
100
AcDbCircle
 62
253
  6
CONTINUOUS
 10
4.1946689271
 20
-23.7446689271
 40
0.2500336371
100
AcDbArc
 50
270.016430911
 51
359.983569089
  0
ARC
  5
6E6
100
AcDbEntity
  8
ASSI
100
AcDbCircle
 62
7
  6
CONTINUOUS
 10
4.2000325275
 20
-23.7500325275
 40
0.2499699324
100
AcDbArc
 50
270.0012718308
 51
359.9987281692
  0
ARC
  5
6E7
100
AcDbEntity
  8
ASSI
100
AcDbCircle
 62
7
  6
CONTINUOUS
 10
1.0499604239
 20
-23.7500395761
 40
0.2499612619
100
AcDbArc
 50
179.9996562038
 51
270.0003437962
  0
ARC
  5
6E8
100
AcDbEntity
  8
ASSI
100
AcDbCircle
 62
253
  6
CONTINUOUS
 10
7.4393927669
 20
-24.2606072331
 40
0.2000430909
100
AcDbArc
 50
180.020958193
 51
269.979041807
  0
ARC
  5
6E9
100
AcDbEntity
  8
ASSI
100
AcDbCircle
 62
253
  6
CONTINUOUS
 10
10.3606072331
 20
-24.2606072331
 40
0.2000430909
100
AcDbArc
 50
270.0209581897
 51
359.9790418103
  0
ARC
  5
6EA
100
AcDbEntity
  8
ASSI
100
AcDbCircle
 62
7
  6
CONTINUOUS
 10
7.3999573415
 20
-24.3000426585
 40
0.1999569277
100
AcDbArc
 50
179.9965049109
 51
270.0034950891
  0
ARC
  5
6EB
100
AcDbEntity
  8
ASSI
100
AcDbCircle
 62
7
  6
CONTINUOUS
 10
10.4000427018
 20
-24.3000427018
 40
0.1999569277
100
AcDbArc
 50
269.9964925066
 51
0.0035074934
  0
ARC
  5
6EC
100
AcDbEntity
  8
ASSI
100
AcDbCircle
 62
253
  6
CONTINUOUS
 10
1.0552568764
 20
-23.7447431236
 40
0.0499898914
100
AcDbArc
 50
179.9971421991
 51
270.0028578008
  0
ARC
  5
6ED
100
AcDbEntity
  8
ASSI
100
AcDbCircle
 62
253
  6
CONTINUOUS
 10
4.1947432169
 20
-23.7447432169
 40
0.0499897981
100
AcDbArc
 50
269.9970352096
 51
0.0029647904
  0
ARC
  5
6EE
100
AcDbEntity
  8
ASSI
100
AcDbCircle
 62
253
  6
CONTINUOUS
 10
27.4210466681
 20
23.8063479586
 40
34.8612444824
100
AcDbArc
 50
179.9375626227
 51
180.2933989949
  0
ARC
  5
6EF
100
AcDbEntity
  8
ASSI
100
AcDbCircle
 62
253
  6
CONTINUOUS
 10
10.4122730991
 20
21.5239600819
 40
0.5004157457
100
AcDbArc
 50
0.1276225224
 51
89.9353986675
  0
ARC
  5
6F0
100
AcDbEntity
  8
ASSI
100
AcDbCircle
 62
7
  6
CONTINUOUS
 10
4.0
 20
23.2
 40
0.5
100
AcDbArc
 50
334.1580672368
 51
25.8419327632
  0
ARC
  5
6F1
100
AcDbEntity
  8
ASSI
100
AcDbCircle
 62
7
  6
CONTINUOUS
 10
10.6001587152
 20
21.9001678828
 40
0.4998378818
100
AcDbArc
 50
359.9894851372
 51
90.0181861258
  0
ARC
  5
6F2
100
AcDbEntity
  8
ASSI
100
AcDbCircle
 62
253
  6
CONTINUOUS
 10
4.1946686731
 20
23.7446686731
 40
0.2500338912
100
AcDbArc
 50
0.016489117
 51
89.983510883
  0
ARC
  5
6F3
100
AcDbEntity
  8
ASSI
100
AcDbCircle
 62
253
  6
CONTINUOUS
 10
1.0553310729
 20
23.7446689271
 40
0.2500336371
100
AcDbArc
 50
90.016430911
 51
179.983569089
  0
ARC
  5
6F4
100
AcDbEntity
  8
ASSI
100
AcDbCircle
 62
7
  6
CONTINUOUS
 10
1.0499674725
 20
23.7500325275
 40
0.2499699324
100
AcDbArc
 50
90.0012718308
 51
179.9987281692
  0
ARC
  5
6F5
100
AcDbEntity
  8
ASSI
100
AcDbCircle
 62
7
  6
CONTINUOUS
 10
4.2000325275
 20
23.7500325275
 40
0.2499699324
100
AcDbArc
 50
0.0012718308
 51
89.9987281692
  0
ARC
  5
6F6
100
AcDbEntity
  8
ASSI
100
AcDbCircle
 62
253
  6
CONTINUOUS
 10
7.4393927177
 20
24.2606072823
 40
0.2000430909
100
AcDbArc
 50
90.0209441219
 51
179.9790558781
  0
ARC
  5
6F7
100
AcDbEntity
  8
ASSI
100
AcDbCircle
 62
253
  6
CONTINUOUS
 10
10.3606072823
 20
24.2606072823
 40
0.2000430909
100
AcDbArc
 50
0.020944127
 51
89.979055873
  0
ARC
  5
6F8
100
AcDbEntity
  8
ASSI
100
AcDbCircle
 62
7
  6
CONTINUOUS
 10
7.3999573415
 20
24.3000426585
 40
0.1999569277
100
AcDbArc
 50
89.9965049109
 51
180.0034950891
  0
ARC
  5
6F9
100
AcDbEntity
  8
ASSI
100
AcDbCircle
 62
7
  6
CONTINUOUS
 10
10.4000427018
 20
24.3000427018
 40
0.1999569277
100
AcDbArc
 50
359.9964925066
 51
90.0035074934
  0
ARC
  5
6FA
100
AcDbEntity
  8
ASSI
100
AcDbCircle
 62
253
  6
CONTINUOUS
 10
4.1947431236
 20
23.7447431236
 40
0.0499898914
100
AcDbArc
 50
359.9971421991
 51
90.0028578009
  0
ARC
  5
6FB
100
AcDbEntity
  8
ASSI
100
AcDbCircle
 62
253
  6
CONTINUOUS
 10
1.0552567831
 20
23.7447432169
 40
0.0499897981
100
AcDbArc
 50
89.9970352096
 51
180.0029647904
  0
ARC
  5
6FC
100
AcDbEntity
  8
RACCORDO
100
AcDbCircle
 62
253
  6
CONTINUOUS
 10
-211.773315696
 20
-18.1038272153
 40
185.8596942416
100
AcDbArc
 50
359.7820497792
 51
0.2179502208
  0
ARC
  5
6FD
100
AcDbEntity
  8
ASSI
100
AcDbCircle
 62
253
  6
CONTINUOUS
 10
-211.773315696
 20
-18.1038272153
 40
185.8596942416
100
AcDbArc
 50
359.7820497792
 51
0.2179502208
  0
ARC
  5
6FE
100
AcDbEntity
  8
ASSI
100
AcDbCircle
 62
7
  6
CONTINUOUS
 10
-64.6824185567
 20
-24.2368706193
 40
0.25
100
AcDbArc
 50
271.0
 51
360.0
  0
ARC
  5
6FF
100
AcDbEntity
  8
ASSI
100
AcDbCircle
 62
7
  6
CONTINUOUS
 10
-67.6824185567
 20
-24.2106880219
 40
0.25
100
AcDbArc
 50
180.0
 51
269.0
  0
ARC
  5
700
100
AcDbEntity
  8
ASSI
100
AcDbCircle
 62
7
  6
CONTINUOUS
 10
-64.6824185567
 20
-23.8443375673
 40
0.25
100
AcDbArc
 50
359.995410117
 51
59.9806292498
  0
ARC
  5
701
100
AcDbEntity
  8
ASSI
100
AcDbCircle
 62
7
  6
CONTINUOUS
 10
-67.6824185567
 20
-23.8443375673
 40
0.25
100
AcDbArc
 50
120.0
 51
179.9996250119
  0
ARC
  5
702
100
AcDbEntity
  8
ASSI
100
AcDbCircle
 62
253
  6
CONTINUOUS
 10
-67.6859081376
 20
-23.8443380872
 40
0.0500009004
100
AcDbArc
 50
120.0005957137
 51
179.9994042863
  0
ARC
  5
703
100
AcDbEntity
  8
ASSI
100
AcDbCircle
 62
253
  6
CONTINUOUS
 10
-64.6789287299
 20
-24.2368699762
 40
0.0500006544
100
AcDbArc
 50
271.000736944
 51
359.999263056
  0
ARC
  5
704
100
AcDbEntity
  8
ASSI
100
AcDbCircle
 62
253
  6
CONTINUOUS
 10
-67.6859084131
 20
-24.2106874078
 40
0.0500006249
100
AcDbArc
 50
180.000703718
 51
268.9992962819
  0
ARC
  5
705
100
AcDbEntity
  8
ASSI
100
AcDbCircle
 62
253
  6
CONTINUOUS
 10
-64.6789263345
 20
-23.8443365622
 40
0.0499982591
100
AcDbArc
 50
359.9988481766
 51
60.0011518234
  0
ARC
  5
706
100
AcDbEntity
  8
ASSI
100
AcDbCircle
 62
7
  6
CONTINUOUS
 10
-72.537436528
 20
-20.8249565047
 40
1.2009897416
100
AcDbArc
 50
182.4965004625
 51
267.038168226
  0
ARC
  5
707
100
AcDbEntity
  8
ASSI
100
AcDbCircle
 62
7
  6
CONTINUOUS
 10
-72.8892270101
 20
-20.8075584132
 40
1.2
100
AcDbArc
 50
182.9907948827
 51
267.0
  0
ARC
  5
708
100
AcDbEntity
  8
ASSI
100
AcDbCircle
 62
7
  6
CONTINUOUS
 10
-59.6824220271
 20
-23.6495953552
 40
0.25
100
AcDbArc
 50
271.0
 51
0.000002053
  0
ARC
  5
709
100
AcDbEntity
  8
ASSI
100
AcDbCircle
 62
7
  6
CONTINUOUS
 10
-54.9324185567
 20
-21.2165694902
 40
1.0
100
AcDbArc
 50
352.1410493542
 51
356.406074205
  0
ARC
  5
70A
100
AcDbEntity
  8
ASSI
100
AcDbCircle
 62
7
  6
CONTINUOUS
 10
-54.9324185567
 20
-21.2165694902
 40
1.0
100
AcDbArc
 50
335.04972704
 51
343.5587068392
  0
ARC
  5
70B
100
AcDbEntity
  8
RACCORDO
100
AcDbCircle
 62
7
  6
CONTINUOUS
 10
-54.9324185567
 20
-21.2165694902
 40
1.0
100
AcDbArc
 50
271.0
 51
360.0
  0
ARC
  5
70C
100
AcDbEntity
  8
RACCORDO
100
AcDbCircle
 62
253
  6
CONTINUOUS
 10
-54.9336138001
 20
-21.2158467944
 40
0.8046860492
100
AcDbArc
 50
342.5157724387
 51
359.9485421329
  0
ARC
  5
70D
100
AcDbEntity
  8
RACCORDO
100
AcDbCircle
 62
7
  6
CONTINUOUS
 10
-54.1324185567
 20
-21.18553092
 40
0.2
100
AcDbArc
 50
0.0
 51
89.5
  0
ARC
  5
70E
100
AcDbEntity
  8
RACCORDO
100
AcDbCircle
 62
7
  6
CONTINUOUS
 10
-52.6877432383
 20
-15.0
 40
1.1395115644
100
AcDbArc
 50
89.7322687165
 51
270.2677312835
  0
ARC
  5
70F
100
AcDbEntity
  8
ASSI
100
AcDbCircle
 62
7
  6
CONTINUOUS
 10
-52.6877432383
 20
-15.0
 40
1.1395115644
100
AcDbArc
 50
89.7322687165
 51
270.2677312835
  0
ARC
  5
710
100
AcDbEntity
  8
RACCORDO
100
AcDbCircle
 62
7
  6
CONTINUOUS
 10
-52.6843034267
 20
-15.0
 40
0.8113840994
100
AcDbArc
 50
89.8669000301
 51
270.1330999699
  0
ARC
  5
711
100
AcDbEntity
  8
ASSI
100
AcDbCircle
 62
7
  6
CONTINUOUS
 10
-52.6843034267
 20
-15.0
 40
0.8113840994
100
AcDbArc
 50
89.8669000301
 51
270.1330999699
  0
ARC
  5
712
100
AcDbEntity
  8
RACCORDO
100
AcDbCircle
 62
7
  6
CONTINUOUS
 10
-25.9324185567
 20
-18.1220850228
 40
1.0
100
AcDbArc
 50
271.0
 51
360.0
  0
ARC
  5
713
100
AcDbEntity
  8
ASSI
100
AcDbCircle
 62
7
  6
CONTINUOUS
 10
-25.9324185567
 20
-18.1220850228
 40
1.0
100
AcDbArc
 50
271.0
 51
360.0
  0
ARC
  5
714
100
AcDbEntity
  8
RACCORDO
100
AcDbCircle
 62
253
  6
CONTINUOUS
 10
-25.4553012424
 20
-18.1001892553
 40
0.523141807
100
AcDbArc
 50
343.4478682186
 51
351.5659816893
  0
ARC
  5
715
100
AcDbEntity
  8
ASSI
100
AcDbCircle
 62
253
  6
CONTINUOUS
 10
-25.4553012424
 20
-18.1001892553
 40
0.523141807
100
AcDbArc
 50
343.4478682186
 51
351.5659816893
  0
ARC
  5
716
100
AcDbEntity
  8
RACCORDO
100
AcDbCircle
 62
253
  6
CONTINUOUS
 10
-25.4336631321
 20
-18.103551047
 40
0.5012446515
100
AcDbArc
 50
351.5833295842
 51
359.9684320215
  0
ARC
  5
717
100
AcDbEntity
  8
ASSI
100
AcDbCircle
 62
253
  6
CONTINUOUS
 10
-25.4336631321
 20
-18.103551047
 40
0.5012446515
100
AcDbArc
 50
351.5833295842
 51
359.9684320215
  0
ARC
  5
718
100
AcDbEntity
  8
RACCORDO
100
AcDbCircle
 62
253
  6
CONTINUOUS
 10
-25.4332992561
 20
-18.1219285321
 40
0.5008807239
100
AcDbArc
 50
353.0275212914
 51
359.9820990166
  0
ARC
  5
719
100
AcDbEntity
  8
ASSI
100
AcDbCircle
 62
253
  6
CONTINUOUS
 10
-25.4332992561
 20
-18.1219285321
 40
0.5008807239
100
AcDbArc
 50
353.0275212914
 51
359.9820990166
  0
ARC
  5
71A
100
AcDbEntity
  8
RACCORDO
100
AcDbCircle
 62
7
  6
CONTINUOUS
 10
-36.9324185567
 20
-7.5
 40
9.75
100
AcDbArc
 50
43.7576937553
 51
57.9704804233
  0
ARC
  5
71B
100
AcDbEntity
  8
RACCORDO
100
AcDbCircle
 62
253
  6
CONTINUOUS
 10
-36.9324185567
 20
-7.5
 40
7.7499999051
100
AcDbArc
 50
60.3763063421
 51
71.1794912813
  0
ARC
  5
71C
100
AcDbEntity
  8
0
100
AcDbCircle
 62
7
  6
CONTINUOUS
 10
-84.5842973164
 20
-5.2581252237
 40
2.0
100
AcDbArc
 50
205.4093229091
 51
266.0
  0
ARC
  5
71D
100
AcDbEntity
  8
RACCORDO
100
AcDbCircle
 62
7
  6
CONTINUOUS
 10
-52.6877432383
 20
-5.0
 40
1.1395115644
100
AcDbArc
 50
89.7322687165
 51
270.2677312835
  0
ARC
  5
71E
100
AcDbEntity
  8
RACCORDO
100
AcDbCircle
 62
7
  6
CONTINUOUS
 10
-52.6877432383
 20
-10.0
 40
1.1395115644
100
AcDbArc
 50
89.7322687165
 51
270.2677312835
  0
ARC
  5
71F
100
AcDbEntity
  8
ASSI
100
AcDbCircle
 62
7
  6
CONTINUOUS
 10
-52.6877432383
 20
-5.0
 40
1.1395115644
100
AcDbArc
 50
89.7322687165
 51
270.2677312835
  0
ARC
  5
720
100
AcDbEntity
  8
ASSI
100
AcDbCircle
 62
7
  6
CONTINUOUS
 10
-52.6877432383
 20
-10.0
 40
1.1395115644
100
AcDbArc
 50
89.7322687165
 51
270.2677312835
  0
ARC
  5
721
100
AcDbEntity
  8
RACCORDO
100
AcDbCircle
 62
7
  6
CONTINUOUS
 10
-53.4324185567
 20
-14.5
 40
1.0
100
AcDbArc
 50
276.0561791201
 51
348.4589088499
  0
ARC
  5
722
100
AcDbEntity
  8
RACCORDO
100
AcDbCircle
 62
7
  6
CONTINUOUS
 10
-53.4324185567
 20
-14.5
 40
1.0
100
AcDbArc
 50
11.5385237266
 51
18.1339893009
  0
ARC
  5
723
100
AcDbEntity
  8
RACCORDO
100
AcDbCircle
 62
7
  6
CONTINUOUS
 10
-52.6843034267
 20
-5.0
 40
0.8113840994
100
AcDbArc
 50
89.8669000301
 51
270.1330999699
  0
ARC
  5
724
100
AcDbEntity
  8
RACCORDO
100
AcDbCircle
 62
7
  6
CONTINUOUS
 10
-52.6843034267
 20
-10.0
 40
0.8113840994
100
AcDbArc
 50
89.8669000301
 51
270.1330999699
  0
ARC
  5
725
100
AcDbEntity
  8
ASSI
100
AcDbCircle
 62
7
  6
CONTINUOUS
 10
-52.6843034267
 20
-5.0
 40
0.8113840994
100
AcDbArc
 50
89.8669000301
 51
270.1330999699
  0
ARC
  5
726
100
AcDbEntity
  8
ASSI
100
AcDbCircle
 62
7
  6
CONTINUOUS
 10
-52.6843034267
 20
-10.0
 40
0.8113840994
100
AcDbArc
 50
89.8669000301
 51
270.1330999699
  0
ARC
  5
727
100
AcDbEntity
  8
RACCORDO
100
AcDbCircle
 62
7
  6
CONTINUOUS
 10
-75.5324185567
 20
-7.6013698939
 40
0.3
100
AcDbArc
 50
179.9999336128
 51
265.9999947107
  0
ARC
  5
728
100
AcDbEntity
  8
RACCORDO
100
AcDbCircle
 62
253
  6
CONTINUOUS
 10
-53.4324185567
 20
-14.5
 40
0.2999985432
100
AcDbArc
 50
263.0183138732
 51
318.1335265247
  0
ARC
  5
729
100
AcDbEntity
  8
RACCORDO
100
AcDbCircle
 62
253
  6
CONTINUOUS
 10
-211.7647787602
 20
18.1038272153
 40
185.8511573676
100
AcDbArc
 50
359.7820397678
 51
0.2179602322
  0
ARC
  5
72A
100
AcDbEntity
  8
ASSI
100
AcDbCircle
 62
253
  6
CONTINUOUS
 10
-211.7647787602
 20
18.1038272153
 40
185.8511573676
100
AcDbArc
 50
359.7820397678
 51
0.2179602322
  0
ARC
  5
72B
100
AcDbEntity
  8
0
100
AcDbCircle
 62
7
  6
CONTINUOUS
 10
-71.6324185567
 20
-0.0
 40
16.0
100
AcDbArc
 50
160.9449758568
 51
199.0550241432
  0
ARC
  5
72C
100
AcDbEntity
  8
DRAFT
100
AcDbCircle
 62
7
  6
CONTINUOUS
 10
-31.0456627463
 20
10.031730403
 40
2.1910787852
100
AcDbArc
 50
201.3386821427
 51
209.5003995832
  0
ARC
  5
72D
100
AcDbEntity
  8
DRAFT
100
AcDbCircle
 62
7
  6
CONTINUOUS
 10
-31.0456627463
 20
9.968269597
 40
2.1910787852
100
AcDbArc
 50
150.4996004168
 51
158.6613178573
  0
ARC
  5
72E
100
AcDbEntity
  8
DRAFT
100
AcDbCircle
 62
7
  6
CONTINUOUS
 10
-31.0456627463
 20
5.031730403
 40
2.1910787852
100
AcDbArc
 50
201.3386821427
 51
209.5003995832
  0
ARC
  5
72F
100
AcDbEntity
  8
DRAFT
100
AcDbCircle
 62
7
  6
CONTINUOUS
 10
-31.0456627463
 20
4.968269597
 40
2.1910787852
100
AcDbArc
 50
150.4996004168
 51
158.6613178573
  0
ARC
  5
730
100
AcDbEntity
  8
ASSI
100
AcDbCircle
 62
7
  6
CONTINUOUS
 10
-31.0456627463
 20
4.968269597
 40
2.1910787852
100
AcDbArc
 50
150.4996004168
 51
158.6613178573
  0
ARC
  5
731
100
AcDbEntity
  8
ASSI
100
AcDbCircle
 62
7
  6
CONTINUOUS
 10
-31.0456627463
 20
5.031730403
 40
2.1910787852
100
AcDbArc
 50
201.3386821427
 51
209.5003995832
  0
ARC
  5
732
100
AcDbEntity
  8
ASSI
100
AcDbCircle
 62
7
  6
CONTINUOUS
 10
-31.0456627463
 20
9.968269597
 40
2.1910787852
100
AcDbArc
 50
150.4996004168
 51
158.6613178573
  0
ARC
  5
733
100
AcDbEntity
  8
ASSI
100
AcDbCircle
 62
7
  6
CONTINUOUS
 10
-31.0456627463
 20
10.031730403
 40
2.1910787852
100
AcDbArc
 50
201.3386821427
 51
209.5003995832
  0
ARC
  5
734
100
AcDbEntity
  8
DRAFT
100
AcDbCircle
 62
7
  6
CONTINUOUS
 10
-31.1503037533
 20
9.9997037243
 40
2.0822470819
100
AcDbArc
 50
90.0042988944
 51
158.4192330707
  0
ARC
  5
735
100
AcDbEntity
  8
DRAFT
100
AcDbCircle
 62
7
  6
CONTINUOUS
 10
-31.1503037533
 20
4.9997037243
 40
2.0822470819
100
AcDbArc
 50
90.0042988944
 51
158.4192330707
  0
ARC
  5
736
100
AcDbEntity
  8
ASSI
100
AcDbCircle
 62
7
  6
CONTINUOUS
 10
-31.1503037533
 20
4.9997037243
 40
2.0822470819
100
AcDbArc
 50
90.0042988944
 51
158.4192330707
  0
ARC
  5
737
100
AcDbEntity
  8
ASSI
100
AcDbCircle
 62
7
  6
CONTINUOUS
 10
-31.1503037533
 20
9.9997037243
 40
2.0822470819
100
AcDbArc
 50
90.0042988944
 51
158.4192330707
  0
ARC
  5
738
100
AcDbEntity
  8
DRAFT
100
AcDbCircle
 62
7
  6
CONTINUOUS
 10
-31.1503038381
 20
10.0002961508
 40
2.0822470815
100
AcDbArc
 50
201.5807645916
 51
269.9957034383
  0
ARC
  5
739
100
AcDbEntity
  8
DRAFT
100
AcDbCircle
 62
7
  6
CONTINUOUS
 10
-31.1503038381
 20
5.0002961508
 40
2.0822470815
100
AcDbArc
 50
201.5807645916
 51
269.9957034383
  0
ARC
  5
73A
100
AcDbEntity
  8
ASSI
100
AcDbCircle
 62
7
  6
CONTINUOUS
 10
-31.1503038381
 20
5.0002961508
 40
2.0822470815
100
AcDbArc
 50
201.5807645916
 51
269.9957034383
  0
ARC
  5
73B
100
AcDbEntity
  8
ASSI
100
AcDbCircle
 62
7
  6
CONTINUOUS
 10
-31.1503038381
 20
10.0002961508
 40
2.0822470815
100
AcDbArc
 50
201.5807645916
 51
269.9957034383
  0
ARC
  5
73C
100
AcDbEntity
  8
0
100
AcDbCircle
 62
7
  6
CONTINUOUS
 10
-84.5842973164
 20
5.2581252237
 40
2.0
100
AcDbArc
 50
94.0
 51
154.5906770909
  0
CIRCLE
  5
73D
100
AcDbEntity
  8
ASSI
100
AcDbCircle
 62
7
  6
CONTINUOUS
 10
-30.9324185567
 20
10.0
 40
2.0
  0
CIRCLE
  5
73E
100
AcDbEntity
  8
ASSI
100
AcDbCircle
 62
7
  6
CONTINUOUS
 10
-30.9324185567
 20
5.0
 40
2.0
  0
ARC
  5
73F
100
AcDbEntity
  8
RACCORDO
100
AcDbCircle
 62
7
  6
CONTINUOUS
 10
-52.6877432383
 20
5.0
 40
1.1395115644
100
AcDbArc
 50
89.7322687165
 51
270.2677312835
  0
ARC
  5
740
100
AcDbEntity
  8
RACCORDO
100
AcDbCircle
 62
7
  6
CONTINUOUS
 10
-52.6877432383
 20
-0.0
 40
1.1395115644
100
AcDbArc
 50
89.7322687165
 51
270.2677312835
  0
ARC
  5
741
100
AcDbEntity
  8
RACCORDO
100
AcDbCircle
 62
7
  6
CONTINUOUS
 10
-52.6877432383
 20
10.0
 40
1.1395115644
100
AcDbArc
 50
89.7322687165
 51
270.2677312835
  0
ARC
  5
742
100
AcDbEntity
  8
ASSI
100
AcDbCircle
 62
7
  6
CONTINUOUS
 10
-52.6877432383
 20
10.0
 40
1.1395115644
100
AcDbArc
 50
89.7322687165
 51
270.2677312835
  0
ARC
  5
743
100
AcDbEntity
  8
ASSI
100
AcDbCircle
 62
7
  6
CONTINUOUS
 10
-52.6877432383
 20
5.0
 40
1.1395115644
100
AcDbArc
 50
89.7322687165
 51
270.2677312835
  0
ARC
  5
744
100
AcDbEntity
  8
ASSI
100
AcDbCircle
 62
7
  6
CONTINUOUS
 10
-52.6877432383
 20
-0.0
 40
1.1395115644
100
AcDbArc
 50
89.7322687165
 51
270.2677312835
  0
ARC
  5
745
100
AcDbEntity
  8
RACCORDO
100
AcDbCircle
 62
7
  6
CONTINUOUS
 10
-52.6843034267
 20
10.0
 40
0.8113840994
100
AcDbArc
 50
89.8669000301
 51
270.1330999699
  0
ARC
  5
746
100
AcDbEntity
  8
RACCORDO
100
AcDbCircle
 62
7
  6
CONTINUOUS
 10
-52.6843034267
 20
5.0
 40
0.8113840994
100
AcDbArc
 50
89.8669000301
 51
270.1330999699
  0
ARC
  5
747
100
AcDbEntity
  8
RACCORDO
100
AcDbCircle
 62
7
  6
CONTINUOUS
 10
-52.6843034267
 20
-0.0
 40
0.8113840994
100
AcDbArc
 50
89.8669000301
 51
270.1330999699
  0
ARC
  5
748
100
AcDbEntity
  8
ASSI
100
AcDbCircle
 62
7
  6
CONTINUOUS
 10
-52.6843034267
 20
10.0
 40
0.8113840994
100
AcDbArc
 50
89.8669000301
 51
270.1330999699
  0
ARC
  5
749
100
AcDbEntity
  8
ASSI
100
AcDbCircle
 62
7
  6
CONTINUOUS
 10
-52.6843034267
 20
5.0
 40
0.8113840994
100
AcDbArc
 50
89.8669000301
 51
270.1330999699
  0
ARC
  5
74A
100
AcDbEntity
  8
ASSI
100
AcDbCircle
 62
7
  6
CONTINUOUS
 10
-52.6843034267
 20
-0.0
 40
0.8113840994
100
AcDbArc
 50
89.8669000301
 51
270.1330999699
  0
ARC
  5
74B
100
AcDbEntity
  8
RACCORDO
100
AcDbCircle
 62
7
  6
CONTINUOUS
 10
-75.5324185567
 20
7.6013698939
 40
0.3
100
AcDbArc
 50
94.0000052893
 51
151.3362758605
  0
ARC
  5
74C
100
AcDbEntity
  8
RACCORDO
100
AcDbCircle
 62
7
  6
CONTINUOUS
 10
-52.6877432383
 20
15.0
 40
1.1395115644
100
AcDbArc
 50
89.7322687165
 51
270.2677312835
  0
ARC
  5
74D
100
AcDbEntity
  8
ASSI
100
AcDbCircle
 62
7
  6
CONTINUOUS
 10
-52.6877432383
 20
15.0
 40
1.1395115644
100
AcDbArc
 50
89.7322687165
 51
270.2677312835
  0
ARC
  5
74E
100
AcDbEntity
  8
RACCORDO
100
AcDbCircle
 62
7
  6
CONTINUOUS
 10
-52.6843034267
 20
15.0
 40
0.8113840994
100
AcDbArc
 50
89.8669000301
 51
270.1330999699
  0
ARC
  5
74F
100
AcDbEntity
  8
ASSI
100
AcDbCircle
 62
7
  6
CONTINUOUS
 10
-52.6843034267
 20
15.0
 40
0.8113840994
100
AcDbArc
 50
89.8669000301
 51
270.1330999699
  0
ARC
  5
750
100
AcDbEntity
  8
ASSI
100
AcDbCircle
 62
7
  6
CONTINUOUS
 10
-72.5374364975
 20
20.8249565133
 40
1.2009897402
100
AcDbArc
 50
92.961832128
 51
177.5035000579
  0
ARC
  5
751
100
AcDbEntity
  8
ASSI
100
AcDbCircle
 62
7
  6
CONTINUOUS
 10
-72.8892270109
 20
20.8075584132
 40
1.2
100
AcDbArc
 50
93.0
 51
177.0092051175
  0
ARC
  5
752
100
AcDbEntity
  8
ASSI
100
AcDbCircle
 62
7
  6
CONTINUOUS
 10
-64.6824185567
 20
24.2368706193
 40
0.25
100
AcDbArc
 50
0.0
 51
89.0
  0
ARC
  5
753
100
AcDbEntity
  8
ASSI
100
AcDbCircle
 62
7
  6
CONTINUOUS
 10
-67.6824185567
 20
24.2106880219
 40
0.25
100
AcDbArc
 50
91.0
 51
180.0
  0
ARC
  5
754
100
AcDbEntity
  8
ASSI
100
AcDbCircle
 62
7
  6
CONTINUOUS
 10
-67.6824185567
 20
23.8443375673
 40
0.25
100
AcDbArc
 50
179.995410117
 51
239.9806292494
  0
ARC
  5
755
100
AcDbEntity
  8
ASSI
100
AcDbCircle
 62
7
  6
CONTINUOUS
 10
-64.6824185567
 20
23.8443375673
 40
0.25
100
AcDbArc
 50
299.9955054653
 51
359.9800998866
  0
ARC
  5
756
100
AcDbEntity
  8
ASSI
100
AcDbCircle
 62
253
  6
CONTINUOUS
 10
-64.6789287297
 20
24.2368699763
 40
0.0500006543
100
AcDbArc
 50
0.0007367612
 51
88.9992632388
  0
ARC
  5
757
100
AcDbEntity
  8
ASSI
100
AcDbCircle
 62
253
  6
CONTINUOUS
 10
-67.6859083836
 20
24.2106873788
 40
0.0500006544
100
AcDbArc
 50
91.0007369439
 51
179.999263056
  0
ARC
  5
758
100
AcDbEntity
  8
ASSI
100
AcDbCircle
 62
253
  6
CONTINUOUS
 10
-64.6789263378
 20
23.8443365641
 40
0.0499982624
100
AcDbArc
 50
299.9988503634
 51
0.0011496366
  0
ARC
  5
759
100
AcDbEntity
  8
ASSI
100
AcDbCircle
 62
253
  6
CONTINUOUS
 10
-67.6859107789
 20
23.8443365622
 40
0.0499982591
100
AcDbArc
 50
179.9988481766
 51
240.0011518234
  0
ARC
  5
75A
100
AcDbEntity
  8
ASSI
100
AcDbCircle
 62
7
  6
CONTINUOUS
 10
-54.9324185567
 20
21.2165694902
 40
1.0
100
AcDbArc
 50
13.1659219559
 51
21.7795331326
  0
ARC
  5
75B
100
AcDbEntity
  8
ASSI
100
AcDbCircle
 62
7
  6
CONTINUOUS
 10
-54.9324185567
 20
21.2165694902
 40
1.0
100
AcDbArc
 50
3.593925795
 51
4.7256692771
  0
ARC
  5
75C
100
AcDbEntity
  8
RACCORDO
100
AcDbCircle
 62
7
  6
CONTINUOUS
 10
-54.9324185567
 20
21.2165694902
 40
1.0
100
AcDbArc
 50
359.9953835765
 51
89.0
  0
ARC
  5
75D
100
AcDbEntity
  8
RACCORDO
100
AcDbCircle
 62
253
  6
CONTINUOUS
 10
-54.9335862218
 20
21.2158510479
 40
0.8046584671
100
AcDbArc
 50
0.0511567596
 51
17.4845286689
  0
ARC
  5
75E
100
AcDbEntity
  8
RACCORDO
100
AcDbCircle
 62
7
  6
CONTINUOUS
 10
-54.1324185567
 20
21.18553092
 40
0.2
100
AcDbArc
 50
270.5
 51
360.0
  0
ARC
  5
75F
100
AcDbEntity
  8
ASSI
100
AcDbCircle
 62
7
  6
CONTINUOUS
 10
-59.6824221431
 20
23.6495953573
 40
0.25
100
AcDbArc
 50
0.0000550469
 51
89.0
  0
ARC
  5
760
100
AcDbEntity
  8
DRAFT
100
AcDbCircle
 62
7
  6
CONTINUOUS
 10
-31.0456627463
 20
15.031730403
 40
2.1910787852
100
AcDbArc
 50
201.3386821427
 51
209.5003995832
  0
ARC
  5
761
100
AcDbEntity
  8
DRAFT
100
AcDbCircle
 62
7
  6
CONTINUOUS
 10
-31.0456627463
 20
14.968269597
 40
2.1910787852
100
AcDbArc
 50
150.4996004168
 51
158.6613178573
  0
ARC
  5
762
100
AcDbEntity
  8
ASSI
100
AcDbCircle
 62
7
  6
CONTINUOUS
 10
-31.0456627463
 20
14.968269597
 40
2.1910787852
100
AcDbArc
 50
150.4996004168
 51
158.6613178573
  0
ARC
  5
763
100
AcDbEntity
  8
ASSI
100
AcDbCircle
 62
7
  6
CONTINUOUS
 10
-31.0456627463
 20
15.031730403
 40
2.1910787852
100
AcDbArc
 50
201.3386821427
 51
209.5003995832
  0
ARC
  5
764
100
AcDbEntity
  8
DRAFT
100
AcDbCircle
 62
7
  6
CONTINUOUS
 10
-31.1503037533
 20
14.9997037243
 40
2.0822470819
100
AcDbArc
 50
90.0042988944
 51
158.4192330707
  0
ARC
  5
765
100
AcDbEntity
  8
ASSI
100
AcDbCircle
 62
7
  6
CONTINUOUS
 10
-31.1503037533
 20
14.9997037243
 40
2.0822470819
100
AcDbArc
 50
90.0042988944
 51
158.4192330707
  0
ARC
  5
766
100
AcDbEntity
  8
DRAFT
100
AcDbCircle
 62
7
  6
CONTINUOUS
 10
-31.1503038381
 20
15.0002961508
 40
2.0822470815
100
AcDbArc
 50
201.5807645916
 51
269.9957034383
  0
ARC
  5
767
100
AcDbEntity
  8
ASSI
100
AcDbCircle
 62
7
  6
CONTINUOUS
 10
-31.1503038381
 20
15.0002961508
 40
2.0822470815
100
AcDbArc
 50
201.5807645916
 51
269.9957034383
  0
CIRCLE
  5
768
100
AcDbEntity
  8
ASSI
100
AcDbCircle
 62
7
  6
CONTINUOUS
 10
-30.9324185567
 20
15.0
 40
2.0
  0
ARC
  5
769
100
AcDbEntity
  8
RACCORDO
100
AcDbCircle
 62
7
  6
CONTINUOUS
 10
-25.9324185567
 20
18.1220850228
 40
1.0
100
AcDbArc
 50
0.0
 51
89.0
  0
ARC
  5
76A
100
AcDbEntity
  8
ASSI
100
AcDbCircle
 62
7
  6
CONTINUOUS
 10
-25.9324185567
 20
18.1220850228
 40
1.0
100
AcDbArc
 50
0.0
 51
89.0
  0
ARC
  5
76B
100
AcDbEntity
  8
RACCORDO
100
AcDbCircle
 62
253
  6
CONTINUOUS
 10
-25.4263338731
 20
18.1038144487
 40
0.4939153166
100
AcDbArc
 50
0.0014809685
 51
2.1107348801
  0
ARC
  5
76C
100
AcDbEntity
  8
ASSI
100
AcDbCircle
 62
253
  6
CONTINUOUS
 10
-25.4263338731
 20
18.1038144487
 40
0.4939153166
100
AcDbArc
 50
0.0014809685
 51
2.1107348801
  0
ARC
  5
76D
100
AcDbEntity
  8
ASSI
100
AcDbCircle
 62
253
  6
CONTINUOUS
 10
410.5285556319
 20
-0.0000001502
 40
484.2298025351
100
AcDbArc
 50
177.5315015143
 51
182.4684984499
  0
ARC
  5
76E
100
AcDbEntity
  8
ASSI
100
AcDbCircle
 62
253
  6
CONTINUOUS
 10
411.2993822204
 20
-0.0000000011
 40
485.4857159186
100
AcDbArc
 50
177.5353584049
 51
182.464641595
  0
SPLINE
  5
76F
100
AcDbEntity
  8
RACCORDO
100
AcDbSpline
 62
7
  6
CONTINUOUS
 70
0
 71
3
 72
22
 73
18
 74
16
 42
0.0000001
 43
0.0000001
 44
0.0000000001
 12
-0.2674391125
 22
0.1952124264
 32
0.0
 13
0.2948227961
 23
0.1507019881
 33
0.0
 40
0.0
 40
0.0
 40
0.0
 40
0.0
 40
0.1609582269
 40
0.3201552055
 40
0.4755228787
 40
0.6243992062
 40
0.6950771282
 40
0.7623131102
 40
0.8248985816
 40
0.8813864188
 40
0.9298754271
 40
0.9502559167
 40
0.967579148
 40
0.9814984712
 40
0.9917176743
 40
0.9979576856
 40
1.0
 40
1.0
 40
1.0
 40
1.0
 10
-4.887575177
 20
-6.7014601939
 30
0.0
 10
-4.9019240188
 20
-6.6909865119
 30
0.0
 10
-4.930380867
 20
-6.6700386284
 30
0.0
 10
-4.9723949858
 20
-6.6385850449
 30
0.0
 10
-5.0130887209
 20
-6.6075955455
 30
0.0
 10
-5.0457977349
 20
-6.5822491735
 30
0.0
 10
-5.0706860911
 20
-6.5626919949
 30
0.0
 10
-5.0880198309
 20
-6.5489367218
 30
0.0
 10
-5.1040639469
 20
-6.5360721658
 30
0.0
 10
-5.1184186076
 20
-6.5244216065
 30
0.0
 10
-5.1291141257
 20
-6.5156197756
 30
0.0
 10
-5.1363843317
 20
-6.5095251918
 30
0.0
 10
-5.1407787501
 20
-6.5058062131
 30
0.0
 10
-5.1440907235
 20
-6.5028841105
 30
0.0
 10
-5.1469192692
 20
-6.5004574424
 30
0.0
 10
-5.1477925871
 20
-6.4993724291
 30
0.0
 10
-5.1490171132
 20
-6.4983433399
 30
0.0
 10
-5.1488164062
 20
-6.4982407462
 30
0.0
 11
-4.887575177
 21
-6.7014601939
 31
0.0
 11
-4.9304944434
 21
-6.6698655417
 31
0.0
 11
-4.9726893518
 21
-6.6382735027
 31
0.0
 11
-5.013613836
 21
-6.6071030753
 31
0.0
 11
-5.0525735228
 21
-6.5769031651
 31
0.0
 11
-5.0709728525
 21
-6.5624423638
 31
0.0
 11
-5.0884101336
 21
-6.5486021984
 31
0.0
 11
-5.104574314
 21
-6.5356353296
 31
0.0
 11
-5.1190932899
 21
-6.5238446528
 31
0.0
 11
-5.1314791679
 21
-6.5136292716
 31
0.0
 11
-5.1366507646
 21
-6.5092943398
 31
0.0
 11
-5.1410181291
 21
-6.5055760147
 31
0.0
 11
-5.1444924787
 21
-6.5025478562
 31
0.0
 11
-5.146998493
 21
-6.500274324
 31
0.0
 11
-5.1484638946
 21
-6.49881782
 31
0.0
 11
-5.1488164062
 21
-6.4982407462
 31
0.0
  0
SPLINE
  5
770
100
AcDbEntity
  8
RACCORDO
100
AcDbSpline
 62
7
  6
CONTINUOUS
 70
0
 71
3
 72
22
 73
18
 74
16
 42
0.0000001
 43
0.0000001
 44
0.0000000001
 12
-0.2948227969
 22
0.150702001
 32
0.0
 13
0.2674391178
 23
0.1952124302
 33
0.0
 40
0.0
 40
0.0
 40
0.0
 40
0.0
 40
0.0020420392
 40
0.0082814127
 40
0.0184999789
 40
0.0324190201
 40
0.0497423758
 40
0.0701230774
 40
0.1186121258
 40
0.1750995386
 40
0.2376857664
 40
0.3049229294
 40
0.3756011049
 40
0.52447664
 40
0.6798444543
 40
0.8390416769
 40
1.0
 40
1.0
 40
1.0
 40
1.0
 10
-5.1488164062
 20
6.4982407462
 30
0.0
 10
-5.1490170861
 20
6.498343326
 30
0.0
 10
-5.1477927645
 20
6.4993723401
 30
0.0
 10
-5.1469194784
 20
6.5004572465
 30
0.0
 10
-5.1440911053
 20
6.5028838121
 30
0.0
 10
-5.140779184
 20
6.5058058453
 30
0.0
 10
-5.1363847585
 20
6.5095248268
 30
0.0
 10
-5.1291145218
 20
6.515619438
 30
0.0
 10
-5.1184190265
 20
6.5244212674
 30
0.0
 10
-5.1040643331
 20
6.5360718522
 30
0.0
 10
-5.0880200867
 20
6.5489365131
 30
0.0
 10
-5.0706861612
 20
6.5626919419
 30
0.0
 10
-5.0457977511
 20
6.5822491676
 30
0.0
 10
-5.0130887658
 20
6.6075955063
 30
0.0
 10
-4.972395068
 20
6.6385849822
 30
0.0
 10
-4.9303809075
 20
6.6700386003
 30
0.0
 10
-4.9019240276
 20
6.6909865054
 30
0.0
 10
-4.887575177
 20
6.7014601939
 30
0.0
 11
-5.1488164062
 21
6.4982407462
 31
0.0
 11
-5.1484639697
 21
6.4988177591
 31
0.0
 11
-5.1469987323
 21
6.5002741288
 31
0.0
 11
-5.1444928801
 21
6.5025475259
 31
0.0
 11
-5.1410185989
 21
6.5055756209
 31
0.0
 11
-5.1366511995
 21
6.5092939688
 31
0.0
 11
-5.1314795494
 21
6.5136289463
 31
0.0
 11
-5.1190936671
 21
6.5238443436
 31
0.0
 11
-5.1045748017
 21
6.5356349342
 31
0.0
 11
-5.0884104264
 21
6.548601961
 31
0.0
 11
-5.0709728417
 21
6.5624423735
 31
0.0
 11
-5.0525734471
 21
6.5769032289
 31
0.0
 11
-5.0136139642
 21
6.6071029754
 31
0.0
 11
-4.9726894428
 21
6.6382734329
 31
0.0
 11
-4.9304944702
 21
6.6698655226
 31
0.0
 11
-4.887575177
 21
6.7014601939
 31
0.0
  0
SPLINE
  5
771
100
AcDbEntity
  8
RACCORDO
100
AcDbSpline
 62
7
  6
CONTINUOUS
 70
0
 71
3
 72
22
 73
18
 74
16
 42
0.0000001
 43
0.0000001
 44
0.0000000001
 12
0.2948227969
 22
-0.150702001
 32
0.0
 13
-0.2674391178
 23
-0.1952124302
 33
0.0
 40
0.0
 40
0.0
 40
0.0
 40
0.0
 40
0.0020420392
 40
0.0082814127
 40
0.0184999789
 40
0.0324190201
 40
0.0497423758
 40
0.0701230774
 40
0.1186121258
 40
0.1750995386
 40
0.2376857664
 40
0.3049229294
 40
0.3756011049
 40
0.52447664
 40
0.6798444543
 40
0.8390416769
 40
1.0
 40
1.0
 40
1.0
 40
1.0
 10
5.1488164062
 20
-6.4982407462
 30
0.0
 10
5.1490170861
 20
-6.498343326
 30
0.0
 10
5.1477927645
 20
-6.4993723401
 30
0.0
 10
5.1469194784
 20
-6.5004572465
 30
0.0
 10
5.1440911053
 20
-6.5028838121
 30
0.0
 10
5.140779184
 20
-6.5058058453
 30
0.0
 10
5.1363847585
 20
-6.5095248268
 30
0.0
 10
5.1291145218
 20
-6.515619438
 30
0.0
 10
5.1184190265
 20
-6.5244212675
 30
0.0
 10
5.1040643331
 20
-6.5360718522
 30
0.0
 10
5.0880200867
 20
-6.5489365131
 30
0.0
 10
5.0706861612
 20
-6.5626919419
 30
0.0
 10
5.0457977511
 20
-6.5822491676
 30
0.0
 10
5.0130887658
 20
-6.6075955063
 30
0.0
 10
4.972395068
 20
-6.6385849822
 30
0.0
 10
4.9303809075
 20
-6.6700386003
 30
0.0
 10
4.9019240276
 20
-6.6909865054
 30
0.0
 10
4.887575177
 20
-6.7014601939
 30
0.0
 11
5.1488164062
 21
-6.4982407462
 31
0.0
 11
5.1484639697
 21
-6.4988177591
 31
0.0
 11
5.1469987324
 21
-6.5002741288
 31
0.0
 11
5.1444928801
 21
-6.5025475259
 31
0.0
 11
5.1410185989
 21
-6.5055756209
 31
0.0
 11
5.1366511995
 21
-6.5092939688
 31
0.0
 11
5.1314795494
 21
-6.5136289463
 31
0.0
 11
5.1190936671
 21
-6.5238443436
 31
0.0
 11
5.1045748017
 21
-6.5356349342
 31
0.0
 11
5.0884104264
 21
-6.548601961
 31
0.0
 11
5.0709728417
 21
-6.5624423735
 31
0.0
 11
5.0525734471
 21
-6.5769032289
 31
0.0
 11
5.0136139642
 21
-6.6071029754
 31
0.0
 11
4.9726894428
 21
-6.6382734329
 31
0.0
 11
4.9304944702
 21
-6.6698655226
 31
0.0
 11
4.887575177
 21
-6.7014601939
 31
0.0
  0
SPLINE
  5
772
100
AcDbEntity
  8
RACCORDO
100
AcDbSpline
 62
7
  6
CONTINUOUS
 70
0
 71
3
 72
22
 73
18
 74
16
 42
0.0000001
 43
0.0000001
 44
0.0000000001
 12
0.2674391125
 22
-0.1952124264
 32
0.0
 13
-0.2948227961
 23
-0.1507019881
 33
0.0
 40
0.0
 40
0.0
 40
0.0
 40
0.0
 40
0.1609582269
 40
0.3201552055
 40
0.4755228787
 40
0.6243992062
 40
0.6950771282
 40
0.7623131102
 40
0.8248985816
 40
0.8813864188
 40
0.9298754271
 40
0.9502559167
 40
0.967579148
 40
0.9814984712
 40
0.9917176743
 40
0.9979576856
 40
1.0
 40
1.0
 40
1.0
 40
1.0
 10
4.887575177
 20
6.7014601939
 30
0.0
 10
4.9019240188
 20
6.6909865119
 30
0.0
 10
4.930380867
 20
6.6700386284
 30
0.0
 10
4.9723949858
 20
6.6385850449
 30
0.0
 10
5.0130887209
 20
6.6075955455
 30
0.0
 10
5.0457977349
 20
6.5822491735
 30
0.0
 10
5.0706860911
 20
6.5626919949
 30
0.0
 10
5.0880198309
 20
6.5489367218
 30
0.0
 10
5.1040639469
 20
6.5360721658
 30
0.0
 10
5.1184186076
 20
6.5244216065
 30
0.0
 10
5.1291141257
 20
6.5156197756
 30
0.0
 10
5.1363843317
 20
6.5095251918
 30
0.0
 10
5.1407787501
 20
6.5058062131
 30
0.0
 10
5.1440907235
 20
6.5028841105
 30
0.0
 10
5.1469192692
 20
6.5004574424
 30
0.0
 10
5.1477925871
 20
6.4993724291
 30
0.0
 10
5.1490171132
 20
6.4983433399
 30
0.0
 10
5.1488164062
 20
6.4982407462
 30
0.0
 11
4.887575177
 21
6.7014601939
 31
0.0
 11
4.9304944434
 21
6.6698655417
 31
0.0
 11
4.9726893518
 21
6.6382735027
 31
0.0
 11
5.013613836
 21
6.6071030753
 31
0.0
 11
5.0525735228
 21
6.5769031651
 31
0.0
 11
5.0709728525
 21
6.5624423638
 31
0.0
 11
5.0884101336
 21
6.5486021984
 31
0.0
 11
5.104574314
 21
6.5356353296
 31
0.0
 11
5.1190932899
 21
6.5238446528
 31
0.0
 11
5.1314791679
 21
6.5136292716
 31
0.0
 11
5.1366507646
 21
6.5092943398
 31
0.0
 11
5.1410181291
 21
6.5055760147
 31
0.0
 11
5.1444924787
 21
6.5025478562
 31
0.0
 11
5.146998493
 21
6.500274324
 31
0.0
 11
5.1484638946
 21
6.49881782
 31
0.0
 11
5.1488164062
 21
6.4982407462
 31
0.0
  0
LINE
  5
773
100
AcDbEntity
  8
RACCORDO
100
AcDbLine
 62
7
  6
CONTINUOUS
 10
5.108843139
 20
6.4778253898
 11
5.1488164062
 21
6.4982407462
  0
LINE
  5
774
100
AcDbEntity
  8
RACCORDO
100
AcDbLine
 62
7
  6
CONTINUOUS
 10
-5.1488164062
 20
6.4982407462
 11
-5.108843139
 21
6.4778253898
  0
LINE
  5
775
100
AcDbEntity
  8
RACCORDO
100
AcDbLine
 62
7
  6
CONTINUOUS
 10
-5.108843139
 20
-6.4778253898
 11
-5.1488164062
 21
-6.4982407462
  0
LINE
  5
776
100
AcDbEntity
  8
RACCORDO
100
AcDbLine
 62
7
  6
CONTINUOUS
 10
5.1488164062
 20
-6.4982407462
 11
5.108843139
 21
-6.4778253898
  0
SPLINE
  5
777
100
AcDbEntity
  8
RACCORDO
100
AcDbSpline
 62
253
  6
CONTINUOUS
 70
0
 71
3
 72
29
 73
25
 74
23
 42
0.0000001
 43
0.0000001
 44
0.0000000001
 12
26.7526492149
 22
-0.0010382126
 32
0.0
 13
-26.7526492087
 23
-0.0011858482
 33
0.0
 40
0.0
 40
0.0
 40
0.0
 40
0.0
 40
0.0625057127
 40
0.0937860251
 40
0.1250634347
 40
0.1875285068
 40
0.2499854713
 40
0.2812512517
 40
0.3125173736
 40
0.3437847635
 40
0.3750536527
 40
0.4375230666
 40
0.5000002674
 40
0.5624774934
 40
0.624946968
 40
0.6562158624
 40
0.6874832538
 40
0.7187493721
 40
0.750015138
 40
0.8124721547
 40
0.8749369607
 40
0.9062142236
 40
0.937494436
 40
1.0
 40
1.0
 40
1.0
 40
1.0
 10
0.0
 20
8.5225283765
 30
0.0
 10
0.5573978023
 20
8.5225067451
 30
0.0
 10
1.3967558586
 20
8.4398965016
 30
0.0
 10
2.4798118559
 20
8.1685075599
 30
0.0
 10
3.5311835301
 20
7.7926657287
 30
0.0
 10
4.7682849499
 20
7.1321208926
 30
0.0
 10
5.852555592
 20
6.2427239127
 30
0.0
 10
6.6024217705
 20
5.4160658342
 30
0.0
 10
7.1018902379
 20
4.743371303
 30
0.0
 10
7.5329791349
 20
4.0248962165
 30
0.0
 10
8.010776062
 20
3.0161047432
 30
0.0
 10
8.4186612502
 20
1.6738667684
 30
0.0
 10
8.583603566
 20
-0.0000074407
 30
0.0
 10
8.4186582568
 20
-1.673881914
 30
0.0
 10
8.0107702672
 20
-3.0161199097
 30
0.0
 10
7.532971153
 20
-4.0249110085
 30
0.0
 10
7.1018808978
 20
-4.7433853148
 30
0.0
 10
6.602411208
 20
-5.4160787506
 30
0.0
 10
5.852543202
 20
-6.2427356064
 30
0.0
 10
4.7682722067
 20
-7.132128785
 30
0.0
 10
3.5311729513
 20
-7.7926709965
 30
0.0
 10
2.4798047206
 20
-8.1685084737
 30
0.0
 10
1.3967525455
 20
-8.4398988741
 30
0.0
 10
0.5573964757
 20
-8.5225036691
 30
0.0
 10
0.0
 20
-8.5225283765
 30
0.0
 11
0.0
 21
8.5225283765
 31
0.0
 11
1.6641474963
 21
8.3586872811
 31
0.0
 11
2.4759171816
 21
8.1554227281
 31
0.0
 11
3.2638051877
 21
7.8736621501
 31
0.0
 11
4.7378043612
 21
7.0863107396
 31
0.0
 11
6.0298541195
 21
6.0268399505
 31
0.0
 11
6.5918738342
 21
5.4073483655
 31
0.0
 11
7.0904848534
 21
4.7357545027
 31
0.0
 11
7.5208796917
 21
4.0184900477
 31
0.0
 11
7.8788882955
 21
3.2624444395
 31
0.0
 11
8.3645772649
 21
1.6633539915
 31
0.0
 11
8.5286200161
 21
-0.0000071684
 31
0.0
 11
8.3645742734
 21
-1.6633687135
 31
0.0
 11
7.8788818219
 21
-3.2624598006
 31
0.0
 11
7.5208717099
 21
-4.0185048495
 31
0.0
 11
7.0904754941
 21
-4.7357685235
 31
0.0
 11
6.5918632283
 21
-5.4073613413
 31
0.0
 11
6.0298425538
 21
-6.0268515309
 31
0.0
 11
4.7377895548
 21
-7.0863205698
 31
0.0
 11
3.2637953961
 21
-7.8736662594
 31
0.0
 11
2.4759106179
 21
-8.1554242145
 31
0.0
 11
1.6641436134
 21
-8.3586884562
 31
0.0
 11
0.0
 21
-8.5225283765
 31
0.0
  0
SPLINE
  5
778
100
AcDbEntity
  8
RACCORDO
100
AcDbSpline
 62
253
  6
CONTINUOUS
 70
0
 71
3
 72
29
 73
25
 74
23
 42
0.0000001
 43
0.0000001
 44
0.0000000001
 12
-26.752649218
 22
0.0010387199
 32
0.0
 13
26.7526492118
 23
0.0011863122
 33
0.0
 40
0.0
 40
0.0
 40
0.0
 40
0.0
 40
0.0625057289
 40
0.0937860416
 40
0.1250634465
 40
0.1875285065
 40
0.2499854684
 40
0.2812512481
 40
0.3125173676
 40
0.3437847561
 40
0.3750536439
 40
0.4375230545
 40
0.5000002519
 40
0.5624774746
 40
0.6249469461
 40
0.6562158388
 40
0.6874832284
 40
0.718749346
 40
0.7500151096
 40
0.8124721219
 40
0.8749369321
 40
0.9062142011
 40
0.9374944198
 40
1.0
 40
1.0
 40
1.0
 40
1.0
 10
0.0
 20
-8.5225283765
 30
0.0
 10
-0.5573979466
 20
-8.5225067345
 30
0.0
 10
-1.3967561532
 20
-8.4398964775
 30
0.0
 10
-2.4798122372
 20
-8.1685074474
 30
0.0
 10
-3.5311837538
 20
-7.7926656144
 30
0.0
 10
-4.7682850059
 20
-7.1321208409
 30
0.0
 10
-5.8525555424
 20
-6.2427239507
 30
0.0
 10
-6.6024217003
 20
-5.4160659223
 30
0.0
 10
-7.1018901523
 20
-4.7433714299
 30
0.0
 10
-7.5329790387
 20
-4.0248963917
 30
0.0
 10
-8.010775967
 20
-3.0161049801
 30
0.0
 10
-8.4186611794
 20
-1.6738670893
 30
0.0
 10
-8.5836035602
 20
0.0000070226
 30
0.0
 10
-8.4186583513
 20
1.6738814165
 30
0.0
 10
-8.010770471
 20
3.0161193683
 30
0.0
 10
-7.5329714531
 20
4.0249104486
 30
0.0
 10
-7.1018812691
 20
4.7433847546
 30
0.0
 10
-6.6024116571
 20
5.4160781943
 30
0.0
 10
-5.8525437726
 20
6.2427350707
 30
0.0
 10
-4.7682728789
 20
7.1321283364
 30
0.0
 10
-3.5311736403
 20
7.7926706947
 30
0.0
 10
-2.4798052994
 20
8.1685083052
 30
0.0
 10
-1.3967528948
 20
8.4398988451
 30
0.0
 10
-0.5573966199
 20
8.5225036594
 30
0.0
 10
0.0
 20
8.5225283765
 30
0.0
 11
0.0
 21
-8.5225283765
 31
0.0
 11
-1.6641479237
 21
-8.3586872036
 31
0.0
 11
-2.4759176057
 21
-8.1554226049
 31
0.0
 11
-3.2638054785
 21
-7.8736620314
 31
0.0
 11
-4.737804354
 21
-7.0863107442
 31
0.0
 11
-6.0298540632
 21
-6.0268400049
 31
0.0
 11
-6.5918737735
 21
-5.4073484424
 31
0.0
 11
-7.0904847647
 21
-4.7357546373
 31
0.0
 11
-7.520879597
 21
-4.0184902232
 31
0.0
 11
-7.8788882028
 21
-3.2624446588
 31
0.0
 11
-8.3645772002
 21
-1.6633543113
 31
0.0
 11
-8.5286200162
 21
0.0000067536
 31
0.0
 11
-8.3645743735
 21
1.663368218
 31
0.0
 11
-7.8788820498
 21
3.2624592578
 31
0.0
 11
-7.5208720103
 21
4.0185042914
 31
0.0
 11
-7.0904758709
 21
4.7357679573
 31
0.0
 11
-6.5918636696
 21
5.4073607992
 31
0.0
 11
-6.0298430934
 21
6.0268509925
 31
0.0
 11
-4.7377902862
 21
7.086320083
 31
0.0
 11
-3.2637961042
 21
7.8736659683
 31
0.0
 11
-2.4759111979
 21
8.1554240416
 31
0.0
 11
-1.6641440406
 21
8.3586883779
 31
0.0
 11
0.0
 21
8.5225283765
 31
0.0
  0
SPLINE
  5
779
100
AcDbEntity
  8
ASSI
100
AcDbSpline
 62
253
  6
CONTINUOUS
 70
0
 71
3
 72
11
 73
7
 74
5
 42
0.0000001
 43
0.0000001
 44
0.0000000001
 12
-0.290824418
 22
-0.0021981279
 32
0.0
 13
-0.0029298796
 23
-0.2908179665
 33
0.0
 40
0.0
 40
0.0
 40
0.0
 40
0.0
 40
0.2659011537
 40
0.5231711216
 40
0.7669316808
 40
1.0
 40
1.0
 40
1.0
 40
1.0
 10
7.4397407383
 20
-23.6278312164
 30
0.0
 10
7.4139638889
 20
-23.6280260446
 30
0.0
 10
7.36287865
 20
-23.6369744366
 30
0.0
 10
7.2969587143
 20
-23.6746347866
 30
0.0
 10
7.2514004809
 20
-23.7317691277
 30
0.0
 10
7.23999882
 20
-23.7784428122
 30
0.0
 10
7.2397711993
 20
-23.8010362971
 30
0.0
 11
7.4397407383
 21
-23.6278312164
 31
0.0
 11
7.3636160335
 21
-23.6414468189
 31
0.0
 11
7.2989538539
 21
-23.6790927071
 31
0.0
 11
7.2554907479
 21
-23.7351003272
 31
0.0
 11
7.2397711993
 21
-23.8010362971
 31
0.0
  0
SPLINE
  5
77A
100
AcDbEntity
  8
ASSI
100
AcDbSpline
 62
7
  6
CONTINUOUS
 70
0
 71
3
 72
12
 73
8
 74
6
 42
0.0000001
 43
0.0000001
 44
0.0000000001
 12
0.0092279883
 22
0.240843142
 32
0.0
 13
0.2395313741
 23
-0.0267450118
 33
0.0
 40
0.0
 40
0.0
 40
0.0
 40
0.0
 40
0.1616125329
 40
0.2604072651
 40
0.3752276894
 40
0.6572297246
 40
1.0
 40
1.0
 40
1.0
 40
1.0
 10
7.2218949894
 20
-23.2097560788
 30
0.0
 10
7.2223921089
 20
-23.1967816554
 30
0.0
 10
7.2318840845
 20
-23.1761496414
 30
0.0
 10
7.2539695122
 20
-23.1555549509
 30
0.0
 10
7.2881760839
 20
-23.1346172782
 30
0.0
 10
7.3461936529
 20
-23.1179167767
 30
0.0
 10
7.3970200937
 20
-23.1169681838
 30
0.0
 10
7.4243881721
 20
-23.1200239821
 30
0.0
 11
7.2218949894
 21
-23.2097560788
 31
0.0
 11
7.2364213503
 21
-23.1736142754
 31
0.0
 11
7.2534904582
 21
-23.1570120843
 31
0.0
 11
7.2769507227
 21
-23.1423333093
 31
0.0
 11
7.3417966479
 21
-23.1219699222
 31
0.0
 11
7.4243881721
 21
-23.1200239821
 31
0.0
  0
SPLINE
  5
77B
100
AcDbEntity
  8
ASSI
100
AcDbSpline
 62
7
  6
CONTINUOUS
 70
0
 71
3
 72
12
 73
8
 74
6
 42
0.0000001
 43
0.0000001
 44
0.0000000001
 12
0.2395313741
 22
0.0267450118
 32
0.0
 13
0.0092279883
 23
-0.240843142
 33
0.0
 40
0.0
 40
0.0
 40
0.0
 40
0.0
 40
0.3427702754
 40
0.6247723106
 40
0.7395927349
 40
0.8383874671
 40
1.0
 40
1.0
 40
1.0
 40
1.0
 10
-7.4243881721
 20
-23.1200239821
 30
0.0
 10
-7.3970200937
 20
-23.1169681838
 30
0.0
 10
-7.3461936529
 20
-23.1179167767
 30
0.0
 10
-7.2881760839
 20
-23.1346172782
 30
0.0
 10
-7.2539695122
 20
-23.1555549509
 30
0.0
 10
-7.2318840845
 20
-23.1761496414
 30
0.0
 10
-7.2223921089
 20
-23.1967816554
 30
0.0
 10
-7.2218949894
 20
-23.2097560788
 30
0.0
 11
-7.4243881721
 21
-23.1200239821
 31
0.0
 11
-7.3417966479
 21
-23.1219699222
 31
0.0
 11
-7.2769507227
 21
-23.1423333093
 31
0.0
 11
-7.2534904582
 21
-23.1570120843
 31
0.0
 11
-7.2364213503
 21
-23.1736142754
 31
0.0
 11
-7.2218949894
 21
-23.2097560788
 31
0.0
  0
SPLINE
  5
77C
100
AcDbEntity
  8
ASSI
100
AcDbSpline
 62
253
  6
CONTINUOUS
 70
0
 71
3
 72
11
 73
7
 74
5
 42
0.0000001
 43
0.0000001
 44
0.0000000001
 12
0.290824418
 22
-0.002198128
 32
0.0
 13
0.0029298796
 23
-0.2908179665
 33
0.0
 40
0.0
 40
0.0
 40
0.0
 40
0.0
 40
0.2659011522
 40
0.5231711191
 40
0.7669316794
 40
1.0
 40
1.0
 40
1.0
 40
1.0
 10
-7.4397407383
 20
-23.6278312164
 30
0.0
 10
-7.413963889
 20
-23.6280260446
 30
0.0
 10
-7.3628786504
 20
-23.6369744365
 30
0.0
 10
-7.2969587147
 20
-23.6746347862
 30
0.0
 10
-7.2514004811
 20
-23.7317691273
 30
0.0
 10
-7.23999882
 20
-23.7784428121
 30
0.0
 10
-7.2397711993
 20
-23.8010362971
 30
0.0
 11
-7.4397407383
 21
-23.6278312164
 31
0.0
 11
-7.3636160339
 21
-23.6414468187
 31
0.0
 11
-7.2989538545
 21
-23.6790927066
 31
0.0
 11
-7.2554907481
 21
-23.7351003269
 31
0.0
 11
-7.2397711993
 21
-23.8010362971
 31
0.0
  0
SPLINE
  5
77D
100
AcDbEntity
  8
ASSI
100
AcDbSpline
 62
253
  6
CONTINUOUS
 70
0
 71
3
 72
11
 73
7
 74
5
 42
0.0000001
 43
0.0000001
 44
0.0000000001
 12
0.290824418
 22
-0.002198128
 32
0.0
 13
0.0029298796
 23
-0.2908179665
 33
0.0
 40
0.0
 40
0.0
 40
0.0
 40
0.0
 40
0.2659011522
 40
0.5231711191
 40
0.7669316794
 40
1.0
 40
1.0
 40
1.0
 40
1.0
 10
10.3602592617
 20
-23.6278312164
 30
0.0
 10
10.386036111
 20
-23.6280260446
 30
0.0
 10
10.4371213496
 20
-23.6369744365
 30
0.0
 10
10.5030412853
 20
-23.6746347862
 30
0.0
 10
10.5485995189
 20
-23.7317691273
 30
0.0
 10
10.56000118
 20
-23.7784428121
 30
0.0
 10
10.5602288007
 20
-23.8010362971
 30
0.0
 11
10.3602592617
 21
-23.6278312164
 31
0.0
 11
10.4363839661
 21
-23.6414468187
 31
0.0
 11
10.5010461455
 21
-23.6790927066
 31
0.0
 11
10.5445092519
 21
-23.7351003269
 31
0.0
 11
10.5602288007
 21
-23.8010362971
 31
0.0
  0
SPLINE
  5
77E
100
AcDbEntity
  8
ASSI
100
AcDbSpline
 62
7
  6
CONTINUOUS
 70
0
 71
3
 72
12
 73
8
 74
6
 42
0.0000001
 43
0.0000001
 44
0.0000000001
 12
0.2395313719
 22
0.0267450115
 32
0.0
 13
0.0092279883
 23
-0.2408431399
 33
0.0
 40
0.0
 40
0.0
 40
0.0
 40
0.0
 40
0.3427699806
 40
0.6247717413
 40
0.7395922376
 40
0.8383871706
 40
1.0
 40
1.0
 40
1.0
 40
1.0
 10
10.3756118279
 20
-23.1200239821
 30
0.0
 10
10.4029798825
 20
-23.1169681865
 30
0.0
 10
10.4538062759
 20
-23.1179167719
 30
0.0
 10
10.5118238086
 20
-23.1346172361
 30
0.0
 10
10.5460303979
 20
-23.1555548802
 30
0.0
 10
10.5681158726
 20
-23.1761495846
 30
0.0
 10
10.5776078902
 20
-23.1967816317
 30
0.0
 10
10.5781050106
 20
-23.2097560788
 30
0.0
 11
10.3756118279
 21
-23.1200239821
 31
0.0
 11
10.4582032806
 21
-23.1219699089
 31
0.0
 11
10.5230491523
 21
-23.1423332433
 31
0.0
 11
10.5465094436
 21
-23.1570120079
 31
0.0
 11
10.5635785992
 21
-23.173614219
 31
0.0
 11
10.5781050106
 21
-23.2097560788
 31
0.0
  0
SPLINE
  5
77F
100
AcDbEntity
  8
ASSI
100
AcDbSpline
 62
253
  6
CONTINUOUS
 70
0
 71
3
 72
11
 73
7
 74
5
 42
0.0000001
 43
0.0000001
 44
0.0000000001
 12
0.0029298744
 22
-0.2908179843
 32
0.0
 13
0.2908244364
 23
-0.0021980406
 33
0.0
 40
0.0
 40
0.0
 40
0.0
 40
0.0
 40
0.2330683041
 40
0.4768288064
 40
0.7340987915
 40
1.0
 40
1.0
 40
1.0
 40
1.0
 10
-10.5602288007
 20
23.8010362971
 30
0.0
 10
-10.5600011804
 20
23.7784428123
 30
0.0
 10
-10.5485995333
 20
23.7317691306
 30
0.0
 10
-10.5030413131
 20
23.674634778
 30
0.0
 10
-10.4371213698
 20
23.636974425
 30
0.0
 10
-10.386036118
 20
23.6280260394
 30
0.0
 10
-10.3602592616
 20
23.6278312189
 30
0.0
 11
-10.5602288007
 21
23.8010362971
 31
0.0
 11
-10.5445092636
 21
23.7351003247
 31
0.0
 11
-10.5010461765
 21
23.6790927054
 31
0.0
 11
-10.4363839892
 21
23.6414468114
 31
0.0
 11
-10.3602592616
 21
23.6278312189
 31
0.0
  0
SPLINE
  5
780
100
AcDbEntity
  8
ASSI
100
AcDbSpline
 62
7
  6
CONTINUOUS
 70
0
 71
3
 72
12
 73
8
 74
6
 42
0.0000001
 43
0.0000001
 44
0.0000000001
 12
-0.239530293
 22
-0.0267448911
 32
0.0
 13
-0.0092279467
 23
0.240842055
 33
0.0
 40
0.0
 40
0.0
 40
0.0
 40
0.0
 40
0.3426117859
 40
0.624591816
 40
0.7395308789
 40
0.838274356
 40
1.0
 40
1.0
 40
1.0
 40
1.0
 10
-10.3756118279
 20
23.1200239821
 30
0.0
 10
-10.4029671284
 20
23.1169696105
 30
0.0
 10
-10.4537786213
 20
23.1179165861
 30
0.0
 10
-10.5117911135
 20
23.1346097426
 30
0.0
 10
-10.5460071127
 20
23.1555385338
 30
0.0
 10
-10.5681115785
 20
23.1761339157
 30
0.0
 10
-10.5776075454
 20
23.1967726333
 30
0.0
 10
-10.5781050106
 20
23.2097560788
 30
0.0
 11
-10.3756118279
 21
23.1200239821
 31
0.0
 11
-10.4581648674
 21
23.1219657681
 31
0.0
 11
-10.5230087511
 21
23.142316927
 31
0.0
 11
-10.5464976004
 21
23.1570036873
 31
0.0
 11
-10.5635637077
 21
23.1735910893
 31
0.0
 11
-10.5781050106
 21
23.2097560788
 31
0.0
  0
SPLINE
  5
781
100
AcDbEntity
  8
ASSI
100
AcDbSpline
 62
253
  6
CONTINUOUS
 70
0
 71
3
 72
11
 73
7
 74
5
 42
0.0000001
 43
0.0000001
 44
0.0000000001
 12
0.290824418
 22
0.0021981279
 32
0.0
 13
0.0029298796
 23
0.2908179665
 33
0.0
 40
0.0
 40
0.0
 40
0.0
 40
0.0
 40
0.2659011524
 40
0.5231711195
 40
0.7669316796
 40
1.0
 40
1.0
 40
1.0
 40
1.0
 10
-7.4397407383
 20
23.6278312163
 30
0.0
 10
-7.413963889
 20
23.6280260446
 30
0.0
 10
-7.3628786503
 20
23.6369744365
 30
0.0
 10
-7.2969587147
 20
23.6746347863
 30
0.0
 10
-7.2514004811
 20
23.7317691274
 30
0.0
 10
-7.23999882
 20
23.7784428121
 30
0.0
 10
-7.2397711993
 20
23.8010362971
 30
0.0
 11
-7.4397407383
 21
23.6278312163
 31
0.0
 11
-7.3636160338
 21
23.6414468187
 31
0.0
 11
-7.2989538544
 21
23.6790927066
 31
0.0
 11
-7.2554907481
 21
23.7351003269
 31
0.0
 11
-7.2397711993
 21
23.8010362971
 31
0.0
  0
SPLINE
  5
782
100
AcDbEntity
  8
ASSI
100
AcDbSpline
 62
7
  6
CONTINUOUS
 70
0
 71
3
 72
12
 73
8
 74
6
 42
0.0000001
 43
0.0000001
 44
0.0000000001
 12
-0.0092279883
 22
-0.240843142
 32
0.0
 13
-0.2395313741
 23
0.0267450118
 33
0.0
 40
0.0
 40
0.0
 40
0.0
 40
0.0
 40
0.1616125329
 40
0.2604072651
 40
0.3752276894
 40
0.6572297246
 40
1.0
 40
1.0
 40
1.0
 40
1.0
 10
-7.2218949894
 20
23.2097560788
 30
0.0
 10
-7.2223921089
 20
23.1967816554
 30
0.0
 10
-7.2318840845
 20
23.1761496414
 30
0.0
 10
-7.2539695122
 20
23.1555549509
 30
0.0
 10
-7.2881760839
 20
23.1346172782
 30
0.0
 10
-7.3461936529
 20
23.1179167767
 30
0.0
 10
-7.3970200937
 20
23.1169681838
 30
0.0
 10
-7.4243881721
 20
23.1200239821
 30
0.0
 11
-7.2218949894
 21
23.2097560788
 31
0.0
 11
-7.2364213503
 21
23.1736142754
 31
0.0
 11
-7.2534904582
 21
23.1570120842
 31
0.0
 11
-7.2769507227
 21
23.1423333093
 31
0.0
 11
-7.3417966479
 21
23.1219699222
 31
0.0
 11
-7.4243881721
 21
23.1200239821
 31
0.0
  0
SPLINE
  5
783
100
AcDbEntity
  8
ASSI
100
AcDbSpline
 62
7
  6
CONTINUOUS
 70
0
 71
3
 72
12
 73
8
 74
6
 42
0.0000001
 43
0.0000001
 44
0.0000000001
 12
-0.2395313741
 22
-0.0267450118
 32
0.0
 13
-0.0092279883
 23
0.240843142
 33
0.0
 40
0.0
 40
0.0
 40
0.0
 40
0.0
 40
0.3427702754
 40
0.6247723106
 40
0.7395927349
 40
0.8383874671
 40
1.0
 40
1.0
 40
1.0
 40
1.0
 10
7.4243881721
 20
23.1200239821
 30
0.0
 10
7.3970200937
 20
23.1169681838
 30
0.0
 10
7.3461936529
 20
23.1179167767
 30
0.0
 10
7.2881760839
 20
23.1346172782
 30
0.0
 10
7.2539695122
 20
23.1555549509
 30
0.0
 10
7.2318840845
 20
23.1761496414
 30
0.0
 10
7.2223921089
 20
23.1967816554
 30
0.0
 10
7.2218949894
 20
23.2097560788
 30
0.0
 11
7.4243881721
 21
23.1200239821
 31
0.0
 11
7.3417966479
 21
23.1219699222
 31
0.0
 11
7.2769507227
 21
23.1423333093
 31
0.0
 11
7.2534904582
 21
23.1570120842
 31
0.0
 11
7.2364213503
 21
23.1736142754
 31
0.0
 11
7.2218949894
 21
23.2097560788
 31
0.0
  0
SPLINE
  5
784
100
AcDbEntity
  8
ASSI
100
AcDbSpline
 62
253
  6
CONTINUOUS
 70
0
 71
3
 72
11
 73
7
 74
5
 42
0.0000001
 43
0.0000001
 44
0.0000000001
 12
-0.290824418
 22
0.002198128
 32
0.0
 13
-0.0029298796
 23
0.2908179665
 33
0.0
 40
0.0
 40
0.0
 40
0.0
 40
0.0
 40
0.2659011522
 40
0.5231711191
 40
0.7669316794
 40
1.0
 40
1.0
 40
1.0
 40
1.0
 10
7.4397407383
 20
23.6278312163
 30
0.0
 10
7.413963889
 20
23.6280260446
 30
0.0
 10
7.3628786504
 20
23.6369744364
 30
0.0
 10
7.2969587147
 20
23.6746347862
 30
0.0
 10
7.2514004811
 20
23.7317691273
 30
0.0
 10
7.23999882
 20
23.7784428121
 30
0.0
 10
7.2397711993
 20
23.8010362971
 30
0.0
 11
7.4397407383
 21
23.6278312163
 31
0.0
 11
7.3636160339
 21
23.6414468187
 31
0.0
 11
7.2989538545
 21
23.6790927066
 31
0.0
 11
7.2554907481
 21
23.7351003269
 31
0.0
 11
7.2397711993
 21
23.8010362971
 31
0.0
  0
SPLINE
  5
785
100
AcDbEntity
  8
ASSI
100
AcDbSpline
 62
7
  6
CONTINUOUS
 70
0
 71
3
 72
12
 73
8
 74
6
 42
0.0000001
 43
0.0000001
 44
0.0000000001
 12
-0.0092279467
 22
-0.240842055
 32
0.0
 13
-0.239530293
 23
0.0267448911
 33
0.0
 40
0.0
 40
0.0
 40
0.0
 40
0.0
 40
0.161725644
 40
0.2604691211
 40
0.375408184
 40
0.6573882141
 40
1.0
 40
1.0
 40
1.0
 40
1.0
 10
10.5781050106
 20
23.2097560788
 30
0.0
 10
10.5776075454
 20
23.1967726333
 30
0.0
 10
10.5681115785
 20
23.1761339157
 30
0.0
 10
10.5460071127
 20
23.1555385338
 30
0.0
 10
10.5117911135
 20
23.1346097426
 30
0.0
 10
10.4537786213
 20
23.1179165861
 30
0.0
 10
10.4029671284
 20
23.1169696105
 30
0.0
 10
10.3756118279
 20
23.1200239821
 30
0.0
 11
10.5781050106
 21
23.2097560788
 31
0.0
 11
10.5635637077
 21
23.1735910893
 31
0.0
 11
10.5464976004
 21
23.1570036873
 31
0.0
 11
10.5230087511
 21
23.142316927
 31
0.0
 11
10.4581648674
 21
23.1219657681
 31
0.0
 11
10.3756118279
 21
23.1200239821
 31
0.0
  0
SPLINE
  5
786
100
AcDbEntity
  8
ASSI
100
AcDbSpline
 62
253
  6
CONTINUOUS
 70
0
 71
3
 72
11
 73
7
 74
5
 42
0.0000001
 43
0.0000001
 44
0.0000000001
 12
-0.0029298796
 22
-0.290817965
 32
0.0
 13
-0.2908244163
 23
-0.0021981479
 33
0.0
 40
0.0
 40
0.0
 40
0.0
 40
0.0
 40
0.2330683208
 40
0.4768288792
 40
0.7340988449
 40
1.0
 40
1.0
 40
1.0
 40
1.0
 10
10.5602288007
 20
23.8010362971
 30
0.0
 10
10.56000118
 20
23.7784428122
 30
0.0
 10
10.548599519
 20
23.7317691278
 30
0.0
 10
10.5030412852
 20
23.6746347873
 30
0.0
 10
10.4371213487
 20
23.6369744403
 30
0.0
 10
10.3860361111
 20
23.6280260464
 30
0.0
 10
10.3602592617
 20
23.6278312163
 30
0.0
 11
10.5602288007
 21
23.8010362971
 31
0.0
 11
10.5445092519
 21
23.7351003272
 31
0.0
 11
10.5010461455
 21
23.6790927081
 31
0.0
 11
10.436383966
 21
23.6414468218
 31
0.0
 11
10.3602592617
 21
23.6278312163
 31
0.0
  0
SPLINE
  5
787
100
AcDbEntity
  8
ASSI
100
AcDbSpline
 62
253
  6
CONTINUOUS
 70
0
 71
3
 72
14
 73
10
 74
8
 42
0.0000001
 43
0.0000001
 44
0.0000000001
 12
0.0000001189
 22
0.249966339
 32
0.0
 13
-0.0492099614
 23
0.2450745811
 33
0.0
 40
0.0
 40
0.0
 40
0.0
 40
0.0
 40
0.3786100409
 40
0.5501099883
 40
0.7009445796
 40
0.8254365358
 40
0.9189015662
 40
0.9778261556
 40
1.0
 40
1.0
 40
1.0
 40
1.0
 10
-10.3598228851
 20
24.2106880219
 30
0.0
 10
-10.35982287
 20
24.2422346105
 30
0.0
 10
-10.3598446772
 20
24.2880718798
 30
0.0
 10
-10.3599666072
 20
24.3464737138
 30
0.0
 10
-10.3600278445
 20
24.3837095064
 30
0.0
 10
-10.3602645975
 20
24.4144226478
 30
0.0
 10
-10.360124618
 20
24.4375292579
 30
0.0
 10
-10.3607794363
 20
24.4520049441
 30
0.0
 10
-10.360316682
 20
24.4588385305
 30
0.0
 10
-10.3606804067
 20
24.4606499457
 30
0.0
 11
-10.3598228851
 21
24.2106880219
 31
0.0
 11
-10.3598878852
 21
24.3053277654
 31
0.0
 11
-10.3599668348
 21
24.3481969067
 31
0.0
 11
-10.3600731779
 21
24.3859003273
 31
0.0
 11
-10.3602029188
 21
24.4170188553
 31
0.0
 11
-10.3603511724
 21
24.4403814964
 31
0.0
 11
-10.3605123966
 21
24.4551097779
 31
0.0
 11
-10.3606804067
 21
24.4606499457
 31
0.0
  0
SPLINE
  5
788
100
AcDbEntity
  8
ASSI
100
AcDbSpline
 62
253
  6
CONTINUOUS
 70
0
 71
3
 72
14
 73
10
 74
8
 42
0.0000001
 43
0.0000001
 44
0.0000000001
 12
-0.000000141
 22
0.2499663422
 32
0.0
 13
0.0491548559
 23
0.245085643
 33
0.0
 40
0.0
 40
0.0
 40
0.0
 40
0.0
 40
0.3786133066
 40
0.5501125278
 40
0.7009454954
 40
0.8254364819
 40
0.9189015373
 40
0.9778261401
 40
1.0
 40
1.0
 40
1.0
 40
1.0
 10
-7.4401771149
 20
24.2106880219
 30
0.0
 10
-7.4401771327
 20
24.242234883
 30
0.0
 10
-7.4401552985
 20
24.2880723622
 30
0.0
 10
-7.4400334255
 20
24.346474279
 30
0.0
 10
-7.439972108
 20
24.3837097817
 30
0.0
 10
-7.4397356591
 20
24.4144227483
 30
0.0
 10
-7.4398750043
 20
24.4375291879
 30
0.0
 10
-7.4392214091
 20
24.4520050536
 30
0.0
 10
-7.439682911
 20
24.4588384475
 30
0.0
 10
-7.4393195933
 20
24.4606499457
 30
0.0
 11
-7.4401771149
 21
24.2106880219
 31
0.0
 11
-7.4401121138
 21
24.3053285829
 31
0.0
 11
-7.4400331755
 21
24.3481975433
 31
0.0
 11
-7.4399268531
 21
24.3859005586
 31
0.0
 11
-7.4397971419
 21
24.4170188448
 31
0.0
 11
-7.4396489037
 21
24.4403814925
 31
0.0
 11
-7.4394877451
 21
24.4551097783
 31
0.0
 11
-7.4393195933
 21
24.4606499457
 31
0.0
  0
LINE
  5
789
100
AcDbEntity
  8
ASSI
100
AcDbLine
 62
7
  6
CONTINUOUS
 10
-9.2533769702
 20
23.6278312163
 11
-9.0368706193
 21
23.8443375673
  0
SPLINE
  5
78A
100
AcDbEntity
  8
ASSI
100
AcDbSpline
 62
253
  6
CONTINUOUS
 70
0
 71
3
 72
14
 73
10
 74
8
 42
0.0000001
 43
0.0000001
 44
0.0000000001
 12
0.049160375
 22
-0.2450845349
 32
0.0
 13
-0.0000001471
 23
-0.2499663411
 33
0.0
 40
0.0
 40
0.0
 40
0.0
 40
0.0
 40
0.0221560165
 40
0.0810435119
 40
0.1744698991
 40
0.2989314089
 40
0.4497489564
 40
0.6212570669
 40
1.0
 40
1.0
 40
1.0
 40
1.0
 10
7.4393195933
 20
24.4606499457
 30
0.0
 10
7.4396826594
 20
24.4588399134
 30
0.0
 10
7.4392213687
 20
24.4520111329
 30
0.0
 10
7.4398748912
 20
24.43754305
 30
0.0
 10
7.4397354864
 20
24.414445381
 30
0.0
 10
7.4399720144
 20
24.3837393808
 30
0.0
 10
7.4400333236
 20
24.3465068763
 30
0.0
 10
7.4401552881
 20
24.2880947049
 30
0.0
 10
7.4401771335
 20
24.2422456836
 30
0.0
 10
7.4401771149
 20
24.2106880219
 30
0.0
 11
7.4393195933
 21
24.4606499457
 31
0.0
 11
7.4394876051
 21
24.4551142363
 31
0.0
 11
7.4396487697
 21
24.4403952269
 31
0.0
 11
7.4397969936
 21
24.4170422451
 31
0.0
 11
7.4399267292
 21
24.3859313274
 31
0.0
 11
7.4400330776
 21
24.3482321669
 31
0.0
 11
7.4401120579
 21
24.3053609848
 31
0.0
 11
7.4401771149
 21
24.2106880219
 31
0.0
  0
SPLINE
  5
78B
100
AcDbEntity
  8
ASSI
100
AcDbSpline
 62
253
  6
CONTINUOUS
 70
0
 71
3
 72
14
 73
10
 74
8
 42
0.0000001
 43
0.0000001
 44
0.0000000001
 12
-0.0491706112
 22
-0.2450824821
 32
0.0
 13
0.0000001167
 23
-0.2499663418
 33
0.0
 40
0.0
 40
0.0
 40
0.0
 40
0.0
 40
0.0221606293
 40
0.0810577598
 40
0.1744933938
 40
0.2989593438
 40
0.4497753959
 40
0.6212776652
 40
1.0
 40
1.0
 40
1.0
 40
1.0
 10
10.3606804067
 20
24.4606499457
 30
0.0
 10
10.3603171894
 20
24.4588395517
 30
0.0
 10
10.3607787083
 20
24.4520095365
 30
0.0
 10
10.3601250011
 20
24.4375395348
 30
0.0
 10
10.3602644779
 20
24.4144399045
 30
0.0
 10
10.3600279382
 20
24.3837328946
 30
0.0
 10
10.3599666452
 20
24.3465006294
 30
0.0
 10
10.3598447001
 20
24.2880907861
 30
0.0
 10
10.3598228703
 20
24.2422439674
 30
0.0
 10
10.3598228851
 20
24.2106880219
 30
0.0
 11
10.3606804067
 21
24.4606499457
 31
0.0
 11
10.3605123486
 21
24.4551130842
 31
0.0
 11
10.3603511776
 21
24.4403916661
 31
0.0
 11
10.360202951
 21
24.4170363729
 31
0.0
 11
10.3600732241
 21
24.3859243451
 31
0.0
 11
10.3599668888
 21
24.3482255583
 31
0.0
 11
10.3598879236
 21
24.3053558361
 31
0.0
 11
10.3598228851
 21
24.2106880219
 31
0.0
  0
SPLINE
  5
78C
100
AcDbEntity
  8
ASSI
100
AcDbSpline
 62
253
  6
CONTINUOUS
 70
0
 71
3
 72
9
 73
5
 74
3
 42
0.0000001
 43
0.0000001
 44
0.0000000001
 12
0.0000000896
 22
-0.2165058745
 32
0.0
 13
-0.0013063683
 23
-0.2165019332
 33
0.0
 40
0.0
 40
0.0
 40
0.0
 40
0.0
 40
0.2987947629
 40
1.0
 40
1.0
 40
1.0
 40
1.0
 10
7.4401771149
 20
23.8443375673
 30
0.0
 10
7.4401771239
 20
23.8227739602
 30
0.0
 10
7.4401340428
 20
23.7506054304
 30
0.0
 10
7.4400460883
 20
23.6784363407
 30
0.0
 10
7.4397407442
 20
23.6278322442
 30
0.0
 11
7.4401771149
 21
23.8443375673
 31
0.0
 11
7.4401473729
 21
23.7796467527
 31
0.0
 11
7.4397407442
 21
23.6278322442
 31
0.0
  0
LINE
  5
78D
100
AcDbEntity
  8
ASSI
100
AcDbLine
 62
7
  6
CONTINUOUS
 10
8.5466230298
 20
23.6278312163
 11
8.7631293807
 21
23.8443375673
  0
LINE
  5
78E
100
AcDbEntity
  8
ASSI
100
AcDbLine
 62
7
  6
CONTINUOUS
 10
8.7631293807
 20
-23.8443375673
 11
8.5466230298
 21
-23.6278312164
  0
SPLINE
  5
78F
100
AcDbEntity
  8
ASSI
100
AcDbSpline
 62
253
  6
CONTINUOUS
 70
0
 71
3
 72
14
 73
10
 74
8
 42
0.0000001
 43
0.0000001
 44
0.0000000001
 12
-0.0491043212
 22
0.2450957745
 32
0.0
 13
0.0000000526
 23
0.2499663438
 33
0.0
 40
0.0
 40
0.0
 40
0.0
 40
0.0
 40
0.022157059
 40
0.0810464688
 40
0.1744747522
 40
0.2989370018
 40
0.449754176
 40
0.6212612533
 40
1.0
 40
1.0
 40
1.0
 40
1.0
 10
10.3606804067
 20
-24.4606499457
 30
0.0
 10
10.3603177375
 20
-24.4588397452
 30
0.0
 10
10.3607779006
 20
-24.4520109097
 30
0.0
 10
10.3601253965
 20
-24.4375422509
 30
0.0
 10
10.3602642358
 20
-24.4144442946
 30
0.0
 10
10.3600279654
 20
-24.3837380672
 30
0.0
 10
10.3599665922
 20
-24.3465056315
 30
0.0
 10
10.3598447029
 20
-24.2880939196
 30
0.0
 10
10.3598228784
 20
-24.2422453352
 30
0.0
 10
10.3598228851
 20
-24.2106880219
 30
0.0
 11
10.3606804067
 21
-24.4606499457
 31
0.0
 11
10.3605122962
 21
-24.4551139786
 31
0.0
 11
10.3603511346
 21
-24.4403944904
 31
0.0
 11
10.3602029019
 21
-24.4170410344
 31
0.0
 11
10.360073184
 21
-24.3859299314
 31
0.0
 11
10.3599668587
 21
-24.3482308637
 31
0.0
 11
10.3598879069
 21
-24.3053599393
 31
0.0
 11
10.3598228851
 21
-24.2106880219
 31
0.0
  0
SPLINE
  5
790
100
AcDbEntity
  8
ASSI
100
AcDbSpline
 62
253
  6
CONTINUOUS
 70
0
 71
3
 72
14
 73
10
 74
8
 42
0.0000001
 43
0.0000001
 44
0.0000000001
 12
0.0000000323
 22
-0.2499663453
 32
0.0
 13
-0.049087989
 23
-0.2450990475
 33
0.0
 40
0.0
 40
0.0
 40
0.0
 40
0.0
 40
0.3786065168
 40
0.5501055326
 40
0.7009400823
 40
0.8254330677
 40
0.9188998663
 40
0.9778256462
 40
1.0
 40
1.0
 40
1.0
 40
1.0
 10
7.4401771149
 20
-24.2106880219
 30
0.0
 10
7.440177119
 20
-24.2422343177
 30
0.0
 10
7.4401553058
 20
-24.2880712117
 30
0.0
 10
7.4400335201
 20
-24.3464726851
 30
0.0
 10
7.4399721154
 20
-24.3837084533
 30
0.0
 10
7.4397359752
 20
-24.4144219095
 30
0.0
 10
7.4398746263
 20
-24.4375286493
 30
0.0
 10
7.4392222878
 20
-24.4520050055
 30
0.0
 10
7.4396824248
 20
-24.458838308
 30
0.0
 10
7.4393195933
 20
-24.4606499457
 30
0.0
 11
7.4401771149
 21
-24.2106880219
 31
0.0
 11
7.4401121522
 21
-24.3053268869
 31
0.0
 11
7.440033244
 21
-24.3481957965
 31
0.0
 11
7.4399269412
 21
-24.3858992077
 31
0.0
 11
7.4397972463
 21
-24.4170179941
 31
0.0
 11
7.4396489957
 21
-24.4403810777
 31
0.0
 11
7.4394878594
 21
-24.4551096582
 31
0.0
 11
7.4393195933
 21
-24.4606499457
 31
0.0
  0
SPLINE
  5
791
100
AcDbEntity
  8
ASSI
100
AcDbSpline
 62
253
  6
CONTINUOUS
 70
0
 71
3
 72
14
 73
10
 74
8
 42
0.0000001
 43
0.0000001
 44
0.0000000001
 12
0.0000000323
 22
-0.2499663453
 32
0.0
 13
-0.049087989
 23
-0.2450990475
 33
0.0
 40
0.0
 40
0.0
 40
0.0
 40
0.0
 40
0.3786065168
 40
0.5501055326
 40
0.7009400823
 40
0.8254330677
 40
0.9188998663
 40
0.9778256462
 40
1.0
 40
1.0
 40
1.0
 40
1.0
 10
-10.3598228851
 20
-24.2106880219
 30
0.0
 10
-10.359822881
 20
-24.2422343177
 30
0.0
 10
-10.3598446942
 20
-24.2880712117
 30
0.0
 10
-10.3599664799
 20
-24.3464726851
 30
0.0
 10
-10.3600278846
 20
-24.3837084533
 30
0.0
 10
-10.3602640248
 20
-24.4144219095
 30
0.0
 10
-10.3601253737
 20
-24.4375286493
 30
0.0
 10
-10.3607777122
 20
-24.4520050055
 30
0.0
 10
-10.3603175752
 20
-24.458838308
 30
0.0
 10
-10.3606804067
 20
-24.4606499457
 30
0.0
 11
-10.3598228851
 21
-24.2106880219
 31
0.0
 11
-10.3598878478
 21
-24.3053268869
 31
0.0
 11
-10.359966756
 21
-24.3481957965
 31
0.0
 11
-10.3600730588
 21
-24.3858992077
 31
0.0
 11
-10.3602027537
 21
-24.4170179941
 31
0.0
 11
-10.3603510043
 21
-24.4403810777
 31
0.0
 11
-10.3605121406
 21
-24.4551096582
 31
0.0
 11
-10.3606804067
 21
-24.4606499457
 31
0.0
  0
SPLINE
  5
792
100
AcDbEntity
  8
ASSI
100
AcDbSpline
 62
253
  6
CONTINUOUS
 70
0
 71
3
 72
14
 73
10
 74
8
 42
0.0000001
 43
0.0000001
 44
0.0000000001
 12
-0.0491043212
 22
0.2450957745
 32
0.0
 13
0.0000000526
 23
0.2499663438
 33
0.0
 40
0.0
 40
0.0
 40
0.0
 40
0.0
 40
0.022157059
 40
0.0810464688
 40
0.1744747522
 40
0.2989370018
 40
0.449754176
 40
0.6212612533
 40
1.0
 40
1.0
 40
1.0
 40
1.0
 10
-7.4393195933
 20
-24.4606499457
 30
0.0
 10
-7.4396822625
 20
-24.4588397452
 30
0.0
 10
-7.4392220994
 20
-24.4520109097
 30
0.0
 10
-7.4398746035
 20
-24.4375422509
 30
0.0
 10
-7.4397357642
 20
-24.4144442946
 30
0.0
 10
-7.4399720346
 20
-24.3837380672
 30
0.0
 10
-7.4400334078
 20
-24.3465056315
 30
0.0
 10
-7.4401552971
 20
-24.2880939196
 30
0.0
 10
-7.4401771216
 20
-24.2422453352
 30
0.0
 10
-7.4401771149
 20
-24.2106880219
 30
0.0
 11
-7.4393195933
 21
-24.4606499457
 31
0.0
 11
-7.4394877038
 21
-24.4551139786
 31
0.0
 11
-7.4396488654
 21
-24.4403944904
 31
0.0
 11
-7.4397970981
 21
-24.4170410344
 31
0.0
 11
-7.439926816
 21
-24.3859299314
 31
0.0
 11
-7.4400331413
 21
-24.3482308637
 31
0.0
 11
-7.4401120931
 21
-24.3053599393
 31
0.0
 11
-7.4401771149
 21
-24.2106880219
 31
0.0
  0
LINE
  5
793
100
AcDbEntity
  8
ASSI
100
AcDbLine
 62
7
  6
CONTINUOUS
 10
-9.2533769702
 20
-23.6278312164
 11
-9.0368706193
 21
-23.8443375673
  0
SPLINE
  5
794
100
AcDbEntity
  8
ASSI
100
AcDbSpline
 62
7
  6
CONTINUOUS
 70
0
 71
3
 72
10
 73
6
 74
4
 42
0.0000001
 43
0.0000001
 44
0.0000000001
 12
0.0041283229
 22
0.0124381884
 32
0.0
 13
0.0129404911
 23
0.0020725037
 33
0.0
 40
0.0
 40
0.0
 40
0.0
 40
0.0
 40
0.1072856673
 40
0.3046525265
 40
1.0
 40
1.0
 40
1.0
 40
1.0
 10
-10.5781050106
 20
-22.3341525772
 30
0.0
 10
-10.577957374
 20
-22.3337077641
 30
0.0
 10
-10.5767124954
 20
-22.3328984493
 30
0.0
 10
-10.5726796591
 20
-22.3315558063
 30
0.0
 10
-10.5687448508
 20
-22.3308959262
 30
0.0
 10
-10.5657454716
 20
-22.3304155561
 30
0.0
 11
-10.5781050106
 21
-22.3341525772
 31
0.0
 11
-10.5770826044
 21
-22.3331873917
 31
0.0
 11
-10.5746715766
 21
-22.3322507485
 31
0.0
 11
-10.5657454716
 21
-22.3304155561
 31
0.0
  0
SPLINE
  5
795
100
AcDbEntity
  8
ASSI
100
AcDbSpline
 62
7
  6
CONTINUOUS
 70
0
 71
3
 72
10
 73
6
 74
4
 42
0.0000001
 43
0.0000001
 44
0.0000000001
 12
0.0129404911
 22
-0.0020725037
 32
0.0
 13
0.0041283229
 23
-0.0124381884
 33
0.0
 40
0.0
 40
0.0
 40
0.0
 40
0.0
 40
0.6953474735
 40
0.8927143327
 40
1.0
 40
1.0
 40
1.0
 40
1.0
 10
10.5657454716
 20
-22.3304155561
 30
0.0
 10
10.5687448508
 20
-22.3308959262
 30
0.0
 10
10.5726796591
 20
-22.3315558063
 30
0.0
 10
10.5767124954
 20
-22.3328984493
 30
0.0
 10
10.577957374
 20
-22.3337077641
 30
0.0
 10
10.5781050106
 20
-22.3341525772
 30
0.0
 11
10.5657454716
 21
-22.3304155561
 31
0.0
 11
10.5746715766
 21
-22.3322507485
 31
0.0
 11
10.5770826044
 21
-22.3331873917
 31
0.0
 11
10.5781050106
 21
-22.3341525772
 31
0.0
  0
SPLINE
  5
796
100
AcDbEntity
  8
ASSI
100
AcDbSpline
 62
7
  6
CONTINUOUS
 70
0
 71
3
 72
10
 73
6
 74
4
 42
0.0000001
 43
0.0000001
 44
0.0000000001
 12
-0.0129404911
 22
0.0020725037
 32
0.0
 13
-0.0041283229
 23
0.0124381884
 33
0.0
 40
0.0
 40
0.0
 40
0.0
 40
0.0
 40
0.6953474735
 40
0.8927143327
 40
1.0
 40
1.0
 40
1.0
 40
1.0
 10
-10.5657454716
 20
22.3304155561
 30
0.0
 10
-10.5687448508
 20
22.3308959262
 30
0.0
 10
-10.5726796591
 20
22.3315558063
 30
0.0
 10
-10.5767124954
 20
22.3328984493
 30
0.0
 10
-10.577957374
 20
22.3337077641
 30
0.0
 10
-10.5781050106
 20
22.3341525772
 30
0.0
 11
-10.5657454716
 21
22.3304155561
 31
0.0
 11
-10.5746715766
 21
22.3322507485
 31
0.0
 11
-10.5770826044
 21
22.3331873917
 31
0.0
 11
-10.5781050106
 21
22.3341525772
 31
0.0
  0
SPLINE
  5
797
100
AcDbEntity
  8
ASSI
100
AcDbSpline
 62
7
  6
CONTINUOUS
 70
0
 71
3
 72
10
 73
6
 74
4
 42
0.0000001
 43
0.0000001
 44
0.0000000001
 12
-0.0041283229
 22
-0.0124381884
 32
0.0
 13
-0.0129404911
 23
-0.0020725037
 33
0.0
 40
0.0
 40
0.0
 40
0.0
 40
0.0
 40
0.1072856673
 40
0.3046525265
 40
1.0
 40
1.0
 40
1.0
 40
1.0
 10
10.5781050106
 20
22.3341525772
 30
0.0
 10
10.577957374
 20
22.3337077641
 30
0.0
 10
10.5767124954
 20
22.3328984493
 30
0.0
 10
10.5726796591
 20
22.3315558063
 30
0.0
 10
10.5687448508
 20
22.3308959262
 30
0.0
 10
10.5657454716
 20
22.3304155561
 30
0.0
 11
10.5781050106
 21
22.3341525772
 31
0.0
 11
10.5770826044
 21
22.3331873917
 31
0.0
 11
10.5746715766
 21
22.3322507485
 31
0.0
 11
10.5657454716
 21
22.3304155561
 31
0.0
  0
LINE
  5
798
100
AcDbEntity
  8
ASSI
100
AcDbLine
 62
7
  6
CONTINUOUS
 10
-8.5466230298
 20
23.6278312163
 11
-8.7631293807
 21
23.8443375673
  0
LINE
  5
799
100
AcDbEntity
  8
ASSI
100
AcDbLine
 62
7
  6
CONTINUOUS
 10
9.2533769702
 20
23.6278312163
 11
9.0368706193
 21
23.8443375673
  0
SPLINE
  5
79A
100
AcDbEntity
  8
ASSI
100
AcDbSpline
 62
253
  6
CONTINUOUS
 70
0
 71
3
 72
9
 73
5
 74
3
 42
0.0000001
 43
0.0000001
 44
0.0000000001
 12
0.0000009928
 22
-0.2164846565
 32
0.0
 13
0.0013081016
 23
-0.2164807044
 33
0.0
 40
0.0
 40
0.0
 40
0.0
 40
0.0
 40
0.2986608327
 40
1.0
 40
1.0
 40
1.0
 40
1.0
 10
10.359822873
 20
23.8443575944
 30
0.0
 10
10.3598229719
 20
23.8228057652
 30
0.0
 10
10.3598655964
 20
23.7506443085
 30
0.0
 10
10.3599532289
 20
23.6784822881
 30
0.0
 10
10.3602590366
 20
23.6278734891
 30
0.0
 11
10.359822873
 21
23.8443575944
 31
0.0
 11
10.3598524471
 21
23.7797021134
 31
0.0
 11
10.3602590366
 21
23.6278734891
 31
0.0
  0
LINE
  5
79B
100
AcDbEntity
  8
ASSI
100
AcDbLine
 62
7
  6
CONTINUOUS
 10
9.0368706193
 20
-23.8443375673
 11
9.2533769702
 21
-23.6278312164
  0
SPLINE
  5
79C
100
AcDbEntity
  8
ASSI
100
AcDbSpline
 62
253
  6
CONTINUOUS
 70
0
 71
3
 72
9
 73
5
 74
3
 42
0.0000001
 43
0.0000001
 44
0.0000000001
 12
-0.0000000792
 22
0.2165052661
 32
0.0
 13
0.0013107614
 23
0.2165012983
 33
0.0
 40
0.0
 40
0.0
 40
0.0
 40
0.0
 40
0.2988001338
 40
1.0
 40
1.0
 40
1.0
 40
1.0
 10
10.3598228854
 20
-23.8443359311
 30
0.0
 10
10.3598228775
 20
-23.8227719969
 30
0.0
 10
10.3598662027
 20
-23.7506036713
 30
0.0
 10
10.3599528931
 20
-23.6784347768
 30
0.0
 10
10.3602592617
 20
-23.6278312164
 30
0.0
 11
10.3598228854
 21
-23.8443359311
 31
0.0
 11
10.3598526404
 21
-23.7796441354
 31
0.0
 11
10.3602592617
 21
-23.6278312164
 31
0.0
  0
LINE
  5
79D
100
AcDbEntity
  8
ASSI
100
AcDbLine
 62
7
  6
CONTINUOUS
 10
-8.7631293807
 20
-23.8443375673
 11
-8.5466230298
 21
-23.6278312164
  0
SPLINE
  5
79E
100
AcDbEntity
  8
ASSI
100
AcDbSpline
 62
253
  6
CONTINUOUS
 70
0
 71
3
 72
9
 73
5
 74
3
 42
0.0000001
 43
0.0000001
 44
0.0000000001
 12
-0.0000000792
 22
0.2165052661
 32
0.0
 13
0.0013107614
 23
0.2165012983
 33
0.0
 40
0.0
 40
0.0
 40
0.0
 40
0.0
 40
0.2988001338
 40
1.0
 40
1.0
 40
1.0
 40
1.0
 10
-7.4401771146
 20
-23.8443359311
 30
0.0
 10
-7.4401771225
 20
-23.8227719969
 30
0.0
 10
-7.4401337973
 20
-23.7506036713
 30
0.0
 10
-7.4400471069
 20
-23.6784347768
 30
0.0
 10
-7.4397407383
 20
-23.6278312164
 30
0.0
 11
-7.4401771146
 21
-23.8443359311
 31
0.0
 11
-7.4401473596
 21
-23.7796441354
 31
0.0
 11
-7.4397407383
 21
-23.6278312164
 31
0.0
  0
SPLINE
  5
79F
100
AcDbEntity
  8
ASSI
100
AcDbSpline
 62
253
  6
CONTINUOUS
 70
0
 71
3
 72
18
 73
14
 74
12
 42
0.0000001
 43
0.0000001
 44
0.0000000001
 12
0.0007594238
 22
-0.6698588972
 32
0.0
 13
0.2988795282
 23
-0.5994852346
 33
0.0
 40
0.0
 40
0.0
 40
0.0
 40
0.0
 40
0.1911308635
 40
0.3742063506
 40
0.5429018838
 40
0.6915546455
 40
0.8151476268
 40
0.8662337678
 40
0.9095956099
 40
0.9448847149
 40
0.971822076
 40
0.9902037888
 40
1.0
 40
1.0
 40
1.0
 40
1.0
 10
10.8952394837
 20
-20.8558253568
 30
0.0
 10
10.8952878668
 20
-20.89850226
 30
0.0
 10
10.8955815972
 20
-20.9820573697
 30
0.0
 10
10.8966189487
 20
-21.1032759924
 30
0.0
 10
10.8982062655
 20
-21.2150036244
 30
0.0
 10
10.9002852413
 20
-21.3134378075
 30
0.0
 10
10.9024549799
 20
-21.3856047369
 30
0.0
 10
10.9044727281
 20
-21.4342458908
 30
0.0
 10
10.9059417554
 20
-21.4631847568
 30
0.0
 10
10.907497159
 20
-21.4866920271
 30
0.0
 10
10.9089705365
 20
-21.5046780836
 30
0.0
 10
10.9106369053
 20
-21.5167865346
 30
0.0
 10
10.9116900359
 20
-21.5231171129
 30
0.0
 10
10.9126659982
 20
-21.5250746743
 30
0.0
 11
10.8952394837
 21
-20.8558253568
 31
0.0
 11
10.8956978248
 21
-20.9838553282
 31
0.0
 11
10.8967665912
 21
-21.1064854936
 31
0.0
 11
10.8984082007
 21
-21.2194758454
 31
0.0
 11
10.9005653818
 21
-21.3190289155
 31
0.0
 11
10.9031639573
 21
-21.4017780353
 31
0.0
 11
10.9046013829
 21
-21.4359683607
 31
0.0
 11
10.9061146298
 21
-21.46497525
 31
0.0
 11
10.9076911809
 21
-21.4885613546
 31
0.0
 11
10.9093183507
 21
-21.5065320811
 31
0.0
 11
10.9109820996
 21
-21.5187323226
 31
0.0
 11
10.9126659982
 21
-21.5250746743
 31
0.0
  0
SPLINE
  5
7A0
100
AcDbEntity
  8
ASSI
100
AcDbSpline
 62
253
  6
CONTINUOUS
 70
0
 71
3
 72
14
 73
10
 74
8
 42
0.0000001
 43
0.0000001
 44
0.0000000001
 12
0.0000000171
 22
0.0500143994
 32
0.0
 13
-0.0353374338
 23
0.0353935859
 33
0.0
 40
0.0
 40
0.0
 40
0.0
 40
0.0
 40
0.3784748159
 40
0.5499130417
 40
0.7006958012
 40
0.8251540306
 40
0.9186156011
 40
0.977592863
 40
1.0
 40
1.0
 40
1.0
 40
1.0
 10
-10.5597924241
 20
24.2106880219
 30
0.0
 10
-10.5597924219
 20
24.2169977521
 30
0.0
 10
-10.5598169557
 20
24.2261683316
 30
0.0
 10
-10.559932135
 20
24.2378430462
 30
0.0
 10
-10.5600094488
 20
24.2453046252
 30
0.0
 10
-10.5602011704
 20
24.2514070049
 30
0.0
 10
-10.5601702688
 20
24.2561262569
 30
0.0
 10
-10.5606213658
 20
24.2588411085
 30
0.0
 10
-10.5603860088
 20
24.2604160503
 30
0.0
 10
-10.5606499457
 20
24.2606804067
 30
0.0
 11
-10.5597924241
 21
24.2106880219
 31
0.0
 11
-10.5598573891
 21
24.229617101
 31
0.0
 11
-10.5599363246
 21
24.2381911176
 31
0.0
 11
-10.5600426602
 21
24.245731677
 31
0.0
 11
-10.5601723947
 21
24.2519550285
 31
0.0
 11
-10.5603206528
 21
24.2566271011
 31
0.0
 11
-10.5604818506
 21
24.2595724055
 31
0.0
 11
-10.5606499457
 21
24.2606804067
 31
0.0
  0
SPLINE
  5
7A1
100
AcDbEntity
  8
ASSI
100
AcDbSpline
 62
253
  6
CONTINUOUS
 70
0
 71
3
 72
9
 73
5
 74
3
 42
0.0000001
 43
0.0000001
 44
0.0000000001
 12
0.0013110427
 22
0.0432843983
 32
0.0
 13
0.0000001007
 23
0.0433042489
 33
0.0
 40
0.0
 40
0.0
 40
0.0
 40
0.0
 40
0.1834520378
 40
1.0
 40
1.0
 40
1.0
 40
1.0
 10
-10.5602288007
 20
23.8010362971
 30
0.0
 10
-10.5601486296
 20
23.8036831675
 30
0.0
 10
-10.5598533105
 20
23.8181153116
 30
0.0
 10
-10.5597924515
 20
23.8325509019
 30
0.0
 10
-10.5597924241
 20
23.8443375673
 30
0.0
 11
-10.5602288007
 21
23.8010362971
 31
0.0
 11
-10.5600481665
 21
23.8089784959
 31
0.0
 11
-10.5597924241
 21
23.8443375673
 31
0.0
  0
SPLINE
  5
7A2
100
AcDbEntity
  8
ASSI
100
AcDbSpline
 62
253
  6
CONTINUOUS
 70
0
 71
3
 72
9
 73
5
 74
3
 42
0.0000001
 43
0.0000001
 44
0.0000000001
 12
0.0013086735
 22
-0.0432844709
 32
0.0
 13
-0.0000000099
 23
-0.0433042498
 33
0.0
 40
0.0
 40
0.0
 40
0.0
 40
0.0
 40
0.1834825616
 40
1.0
 40
1.0
 40
1.0
 40
1.0
 10
-10.5602288007
 20
-23.8010362971
 30
0.0
 10
-10.5601487611
 20
-23.8036836123
 30
0.0
 10
-10.5598528223
 20
-23.8181157392
 30
0.0
 10
-10.5597924214
 20
-23.8325513423
 30
0.0
 10
-10.5597924241
 20
-23.8443375673
 30
0.0
 11
-10.5602288007
 21
-23.8010362971
 31
0.0
 11
-10.5600480915
 21
-23.8089798165
 31
0.0
 11
-10.5597924241
 21
-23.8443375673
 31
0.0
  0
SPLINE
  5
7A3
100
AcDbEntity
  8
ASSI
100
AcDbSpline
 62
253
  6
CONTINUOUS
 70
0
 71
3
 72
14
 73
10
 74
8
 42
0.0000001
 43
0.0000001
 44
0.0000000001
 12
0.0000000047
 22
-0.0500143989
 32
0.0
 13
-0.0353848757
 23
-0.035346155
 33
0.0
 40
0.0
 40
0.0
 40
0.0
 40
0.0
 40
0.3784710411
 40
0.5499082368
 40
0.7006911169
 40
0.825150225
 40
0.9186143814
 40
0.9775915881
 40
1.0
 40
1.0
 40
1.0
 40
1.0
 10
-10.5597924241
 20
-24.2106880219
 30
0.0
 10
-10.5597924235
 20
-24.2169976891
 30
0.0
 10
-10.5598169457
 20
-24.2261681979
 30
0.0
 10
-10.5599321476
 20
-24.2378428112
 30
0.0
 10
-10.560009402
 20
-24.2453044451
 30
0.0
 10
-10.5602012854
 20
-24.2514067287
 30
0.0
 10
-10.5601699898
 20
-24.2561264165
 30
0.0
 10
-10.56062182
 20
-24.2588406209
 30
0.0
 10
-10.5603856394
 20
-24.2604163896
 30
0.0
 10
-10.5606499457
 20
-24.2606804067
 30
0.0
 11
-10.5597924241
 21
-24.2106880219
 31
0.0
 11
-10.5598573884
 21
-24.229616912
 31
0.0
 11
-10.5599363224
 21
-24.238190877
 31
0.0
 11
-10.5600426564
 21
-24.2457314424
 31
0.0
 11
-10.5601723904
 21
-24.2519548378
 31
0.0
 11
-10.560320649
 21
-24.2566270397
 31
0.0
 11
-10.5604818491
 21
-24.2595723412
 31
0.0
 11
-10.5606499457
 21
-24.2606804067
 31
0.0
  0
SPLINE
  5
7A4
100
AcDbEntity
  8
ASSI
100
AcDbSpline
 62
253
  6
CONTINUOUS
 70
0
 71
3
 72
14
 73
10
 74
8
 42
0.0000001
 43
0.0000001
 44
0.0000000001
 12
0.0353709844
 22
-0.0353600593
 32
0.0
 13
-0.0000000167
 23
-0.0500144012
 33
0.0
 40
0.0
 40
0.0
 40
0.0
 40
0.0
 40
0.0223888543
 40
0.0813290826
 40
0.1747525517
 40
0.2991802371
 40
0.4499460735
 40
0.6213923018
 40
1.0
 40
1.0
 40
1.0
 40
1.0
 10
7.2393500543
 20
24.2606804067
 30
0.0
 10
7.2396140262
 20
24.2604165163
 30
0.0
 10
7.2393784048
 20
24.2588421078
 30
0.0
 10
7.2398297405
 20
24.2561291953
 30
0.0
 10
7.239798653
 20
24.2514114772
 30
0.0
 10
7.2399904794
 20
24.2453106282
 30
0.0
 10
7.240067782
 20
24.2378496671
 30
0.0
 10
7.2401830383
 20
24.2261729047
 30
0.0
 10
7.240207578
 20
24.2169999677
 30
0.0
 10
7.2402075759
 20
24.2106880219
 30
0.0
 11
7.2393500543
 21
24.2606804067
 31
0.0
 11
7.2395180734
 21
24.2595733188
 31
0.0
 11
7.2396792325
 21
24.2566298671
 31
0.0
 11
7.2398274839
 21
24.2519597007
 31
0.0
 11
7.2399572332
 21
24.2457378773
 31
0.0
 11
7.2400635948
 21
24.2381981644
 31
0.0
 11
7.2401425643
 21
24.2296237476
 31
0.0
 11
7.2402075759
 21
24.2106880219
 31
0.0
  0
SPLINE
  5
7A5
100
AcDbEntity
  8
ASSI
100
AcDbSpline
 62
253
  6
CONTINUOUS
 70
0
 71
3
 72
9
 73
5
 74
3
 42
0.0000001
 43
0.0000001
 44
0.0000000001
 12
0.0000000129
 22
-0.0433040273
 32
0.0
 13
-0.0013086549
 23
-0.0432842489
 33
0.0
 40
0.0
 40
0.0
 40
0.0
 40
0.0
 40
0.2987891373
 40
1.0
 40
1.0
 40
1.0
 40
1.0
 10
7.2402075759
 20
23.8443375673
 30
0.0
 10
7.2402075772
 20
23.840024643
 30
0.0
 10
7.2401644286
 20
23.8255904462
 30
0.0
 10
7.2400770803
 20
23.8111534256
 30
0.0
 10
7.2397711993
 20
23.8010362971
 30
0.0
 11
7.2402075759
 21
23.8443375673
 31
0.0
 11
7.2401778466
 21
23.8313988285
 31
0.0
 11
7.2397711993
 21
23.8010362971
 31
0.0
  0
SPLINE
  5
7A6
100
AcDbEntity
  8
ASSI
100
AcDbSpline
 62
253
  6
CONTINUOUS
 70
0
 71
3
 72
9
 73
5
 74
3
 42
0.0000001
 43
0.0000001
 44
0.0000000001
 12
0.0013086735
 22
-0.0432844709
 32
0.0
 13
-0.0000000099
 23
-0.0433042498
 33
0.0
 40
0.0
 40
0.0
 40
0.0
 40
0.0
 40
0.1834825616
 40
1.0
 40
1.0
 40
1.0
 40
1.0
 10
7.2397711993
 20
-23.8010362971
 30
0.0
 10
7.2398512389
 20
-23.8036836123
 30
0.0
 10
7.2401471777
 20
-23.8181157392
 30
0.0
 10
7.2402075786
 20
-23.8325513423
 30
0.0
 10
7.2402075759
 20
-23.8443375673
 30
0.0
 11
7.2397711993
 21
-23.8010362971
 31
0.0
 11
7.2399519085
 21
-23.8089798165
 31
0.0
 11
7.2402075759
 21
-23.8443375673
 31
0.0
  0
SPLINE
  5
7A7
100
AcDbEntity
  8
ASSI
100
AcDbSpline
 62
253
  6
CONTINUOUS
 70
0
 71
3
 72
14
 73
10
 74
8
 42
0.0000001
 43
0.0000001
 44
0.0000000001
 12
0.0000000047
 22
-0.0500143989
 32
0.0
 13
-0.0353848757
 23
-0.035346155
 33
0.0
 40
0.0
 40
0.0
 40
0.0
 40
0.0
 40
0.3784710411
 40
0.5499082368
 40
0.7006911169
 40
0.825150225
 40
0.9186143814
 40
0.9775915881
 40
1.0
 40
1.0
 40
1.0
 40
1.0
 10
7.2402075759
 20
-24.2106880219
 30
0.0
 10
7.2402075765
 20
-24.2169976891
 30
0.0
 10
7.2401830543
 20
-24.2261681979
 30
0.0
 10
7.2400678524
 20
-24.2378428112
 30
0.0
 10
7.239990598
 20
-24.2453044451
 30
0.0
 10
7.2397987146
 20
-24.2514067287
 30
0.0
 10
7.2398300102
 20
-24.2561264165
 30
0.0
 10
7.23937818
 20
-24.2588406209
 30
0.0
 10
7.2396143606
 20
-24.2604163896
 30
0.0
 10
7.2393500543
 20
-24.2606804067
 30
0.0
 11
7.2402075759
 21
-24.2106880219
 31
0.0
 11
7.2401426116
 21
-24.229616912
 31
0.0
 11
7.2400636776
 21
-24.238190877
 31
0.0
 11
7.2399573436
 21
-24.2457314424
 31
0.0
 11
7.2398276096
 21
-24.2519548378
 31
0.0
 11
7.239679351
 21
-24.2566270397
 31
0.0
 11
7.2395181509
 21
-24.2595723412
 31
0.0
 11
7.2393500543
 21
-24.2606804067
 31
0.0
  0
SPLINE
  5
7A8
100
AcDbEntity
  8
ASSI
100
AcDbSpline
 62
253
  6
CONTINUOUS
 70
0
 71
3
 72
18
 73
14
 74
12
 42
0.0000001
 43
0.0000001
 44
0.0000000001
 12
-0.2727050518
 22
1.1145131131
 32
0.0
 13
-0.0022672771
 23
1.1473893776
 33
0.0
 40
0.0
 40
0.0
 40
0.0
 40
0.0
 40
0.0095615452
 40
0.0278628161
 40
0.054787677
 40
0.0901064155
 40
0.1335285593
 40
0.184694872
 40
0.3084560765
 40
0.457229314
 40
0.6259613415
 40
0.8089850935
 40
1.0
 40
1.0
 40
1.0
 40
1.0
 10
-10.4128373364
 20
-22.0243894429
 30
0.0
 10
-10.4137064969
 20
-22.020837287
 30
0.0
 10
-10.4145250942
 20
-22.0101493918
 30
0.0
 10
-10.415998042
 20
-21.9892902833
 30
0.0
 10
-10.4172430498
 20
-21.9584853892
 30
0.0
 10
-10.4186036881
 20
-21.9181043617
 30
0.0
 10
-10.419887643
 20
-21.8684322358
 30
0.0
 10
-10.4216755559
 20
-21.784941951
 30
0.0
 10
-10.4236382377
 20
-21.6611518486
 30
0.0
 10
-10.4255862807
 20
-21.4923947406
 30
0.0
 10
-10.4271580557
 20
-21.3009664745
 30
0.0
 10
-10.4283055454
 20
-21.0933793158
 30
0.0
 10
-10.4287542205
 20
-20.9503235765
 30
0.0
 10
-10.4288985818
 20
-20.8772674183
 30
0.0
 11
-10.4128373364
 21
-22.0243894429
 31
0.0
 11
-10.4142601386
 21
-22.0135112586
 31
0.0
 11
-10.415681571
 21
-21.9925606983
 31
0.0
 11
-10.417083248
 21
-21.9616991531
 31
0.0
 11
-10.418451924
 21
-21.921197848
 31
0.0
 11
-10.4197773086
 21
-21.8713932765
 31
0.0
 11
-10.4210493233
 21
-21.81269926
 31
0.0
 11
-10.4233939297
 21
-21.6707160487
 31
0.0
 11
-10.4254093277
 21
-21.5000267809
 31
0.0
 11
-10.4270301262
 21
-21.3064318515
 31
0.0
 11
-10.4282067432
 21
-21.0964352289
 31
0.0
 11
-10.4288985818
 21
-20.8772674183
 31
0.0
  0
SPLINE
  5
7A9
100
AcDbEntity
  8
ASSI
100
AcDbSpline
 62
253
  6
CONTINUOUS
 70
0
 71
3
 72
18
 73
14
 74
12
 42
0.0000001
 43
0.0000001
 44
0.0000000001
 12
-0.0022672758
 22
-1.1473893775
 32
0.0
 13
-0.2727050083
 23
-1.1145131235
 33
0.0
 40
0.0
 40
0.0
 40
0.0
 40
0.0
 40
0.1910149067
 40
0.3740386588
 40
0.5427706864
 40
0.6915439239
 40
0.8153051282
 40
0.8664714409
 40
0.9098935846
 40
0.9452123231
 40
0.9721371839
 40
0.9904384548
 40
1.0
 40
1.0
 40
1.0
 40
1.0
 10
10.4288985818
 20
-20.8772674172
 30
0.0
 10
10.4287542206
 20
-20.9503235755
 30
0.0
 10
10.4283055437
 20
-21.0933793149
 30
0.0
 10
10.4271580541
 20
-21.3009664737
 30
0.0
 10
10.4255862797
 20
-21.4923947398
 30
0.0
 10
10.4236382366
 20
-21.6611518478
 30
0.0
 10
10.4216755549
 20
-21.78494195
 30
0.0
 10
10.4198876423
 20
-21.8684322348
 30
0.0
 10
10.4186036874
 20
-21.9181043606
 30
0.0
 10
10.4172430491
 20
-21.9584853881
 30
0.0
 10
10.4159980412
 20
-21.989290282
 30
0.0
 10
10.4145250935
 20
-22.0101493906
 30
0.0
 10
10.4137064962
 20
-22.0208372857
 30
0.0
 10
10.4128373357
 20
-22.0243894416
 30
0.0
 11
10.4288985818
 21
-20.8772674172
 31
0.0
 11
10.4282067419
 21
-21.0964352281
 31
0.0
 11
10.4270301247
 21
-21.3064318508
 31
0.0
 11
10.4254093266
 21
-21.5000267802
 31
0.0
 11
10.4233939286
 21
-21.6707160479
 31
0.0
 11
10.4210493224
 21
-21.8126992591
 31
0.0
 11
10.4197773078
 21
-21.8713932755
 31
0.0
 11
10.4184519233
 21
-21.9211978469
 31
0.0
 11
10.4170832472
 21
-21.961699152
 31
0.0
 11
10.4156815702
 21
-21.9925606971
 31
0.0
 11
10.4142601379
 21
-22.0135112572
 31
0.0
 11
10.4128373357
 21
-22.0243894416
 31
0.0
  0
SPLINE
  5
7AA
100
AcDbEntity
  8
ASSI
100
AcDbSpline
 62
253
  6
CONTINUOUS
 70
0
 71
3
 72
18
 73
14
 74
12
 42
0.0000001
 43
0.0000001
 44
0.0000000001
 12
0.0022672757
 22
1.1473893806
 32
0.0
 13
0.2727050096
 23
1.1145131265
 33
0.0
 40
0.0
 40
0.0
 40
0.0
 40
0.0
 40
0.1910149066
 40
0.3740386587
 40
0.5427706862
 40
0.6915439237
 40
0.8153051281
 40
0.8664714408
 40
0.9098935846
 40
0.9452123231
 40
0.9721371839
 40
0.9904384548
 40
1.0
 40
1.0
 40
1.0
 40
1.0
 10
-10.4288985817
 20
20.8772674141
 30
0.0
 10
-10.4287542206
 20
20.9503235725
 30
0.0
 10
-10.4283055437
 20
21.0933793122
 30
0.0
 10
-10.4271580542
 20
21.3009664716
 30
0.0
 10
-10.4255862797
 20
21.4923947382
 30
0.0
 10
-10.4236382366
 20
21.6611518467
 30
0.0
 10
-10.4216755549
 20
21.7849419493
 30
0.0
 10
-10.4198876423
 20
21.8684322343
 30
0.0
 10
-10.4186036874
 20
21.9181043603
 30
0.0
 10
-10.4172430491
 20
21.9584853879
 30
0.0
 10
-10.4159980412
 20
21.9892902819
 30
0.0
 10
-10.4145250935
 20
22.0101493905
 30
0.0
 10
-10.4137064962
 20
22.0208372857
 30
0.0
 10
-10.4128373357
 20
22.0243894416
 30
0.0
 11
-10.4288985817
 21
20.8772674141
 31
0.0
 11
-10.4282067419
 21
21.0964352254
 31
0.0
 11
-10.4270301247
 21
21.3064318486
 31
0.0
 11
-10.4254093266
 21
21.5000267786
 31
0.0
 11
-10.4233939287
 21
21.6707160468
 31
0.0
 11
-10.4210493225
 21
21.8126992584
 31
0.0
 11
-10.4197773078
 21
21.871393275
 31
0.0
 11
-10.4184519234
 21
21.9211978466
 31
0.0
 11
-10.4170832473
 21
21.9616991518
 31
0.0
 11
-10.4156815702
 21
21.992560697
 31
0.0
 11
-10.4142601379
 21
22.0135112572
 31
0.0
 11
-10.4128373357
 21
22.0243894416
 31
0.0
  0
SPLINE
  5
7AB
100
AcDbEntity
  8
ASSI
100
AcDbSpline
 62
253
  6
CONTINUOUS
 70
0
 71
3
 72
18
 73
14
 74
12
 42
0.0000001
 43
0.0000001
 44
0.0000000001
 12
0.2727050513
 22
-1.1145131164
 32
0.0
 13
0.0022672769
 23
-1.1473893808
 33
0.0
 40
0.0
 40
0.0
 40
0.0
 40
0.0
 40
0.0095615452
 40
0.0278628161
 40
0.054787677
 40
0.0901064156
 40
0.1335285593
 40
0.1846948721
 40
0.3084560766
 40
0.4572293142
 40
0.6259613417
 40
0.8089850936
 40
1.0
 40
1.0
 40
1.0
 40
1.0
 10
10.4128373364
 20
22.0243894429
 30
0.0
 10
10.4137064969
 20
22.020837287
 30
0.0
 10
10.4145250942
 20
22.0101493918
 30
0.0
 10
10.415998042
 20
21.9892902832
 30
0.0
 10
10.4172430498
 20
21.958485389
 30
0.0
 10
10.4186036881
 20
21.9181043613
 30
0.0
 10
10.419887643
 20
21.8684322353
 30
0.0
 10
10.4216755559
 20
21.7849419502
 30
0.0
 10
10.4236382376
 20
21.6611518475
 30
0.0
 10
10.4255862807
 20
21.4923947389
 30
0.0
 10
10.4271580556
 20
21.3009664723
 30
0.0
 10
10.4283055453
 20
21.0933793131
 30
0.0
 10
10.4287542205
 20
20.9503235735
 30
0.0
 10
10.4288985817
 20
20.8772674151
 30
0.0
 11
10.4128373364
 21
22.0243894429
 31
0.0
 11
10.4142601386
 21
22.0135112586
 31
0.0
 11
10.415681571
 21
21.9925606982
 31
0.0
 11
10.417083248
 21
21.9616991529
 31
0.0
 11
10.418451924
 21
21.9211978477
 31
0.0
 11
10.4197773086
 21
21.871393276
 31
0.0
 11
10.4210493233
 21
21.8126992593
 31
0.0
 11
10.4233939297
 21
21.6707160476
 31
0.0
 11
10.4254093277
 21
21.5000267793
 31
0.0
 11
10.4270301261
 21
21.3064318494
 31
0.0
 11
10.4282067431
 21
21.0964352262
 31
0.0
 11
10.4288985817
 21
20.8772674151
 31
0.0
  0
SPLINE
  5
7AC
100
AcDbEntity
  8
ASSI
100
AcDbSpline
 62
253
  6
CONTINUOUS
 70
0
 71
3
 72
18
 73
14
 74
12
 42
0.0000001
 43
0.0000001
 44
0.0000000001
 12
0.2428766571
 22
0.3997365241
 32
0.0
 13
0.4677337168
 23
0.0018786729
 33
0.0
 40
0.0
 40
0.0
 40
0.0
 40
0.0
 40
0.0083067707
 40
0.0250304712
 40
0.0504440753
 40
0.0844758323
 40
0.1268511227
 40
0.1772112865
 40
0.3002621425
 40
0.449404043
 40
0.6196662501
 40
0.8054813009
 40
1.0
 40
1.0
 40
1.0
 40
1.0
 10
-10.8952394836
 20
20.8558253568
 30
0.0
 10
-10.8945669767
 20
20.8569321967
 30
0.0
 10
-10.8904690459
 20
20.8583302222
 30
0.0
 10
-10.8831375767
 20
20.860184565
 30
0.0
 10
-10.8712292347
 20
20.8619782344
 30
0.0
 10
-10.8555265481
 20
20.8638137759
 30
0.0
 10
-10.8358145067
 20
20.865582919
 30
0.0
 10
-10.8022698415
 20
20.8680252064
 30
0.0
 10
-10.7520382296
 20
20.8706728847
 30
0.0
 10
-10.6831038551
 20
20.873254958
 30
0.0
 10
-10.6043572846
 20
20.8752792226
 30
0.0
 10
-10.5185231377
 20
20.8766735107
 30
0.0
 10
-10.4592253823
 20
20.8771451559
 30
0.0
 10
-10.4288977309
 20
20.8772669682
 30
0.0
 11
-10.8952394836
 21
20.8558253568
 31
0.0
 11
-10.8918977126
 21
20.8578074787
 31
0.0
 11
-10.8843275276
 21
20.8597774287
 31
0.0
 11
-10.8725996579
 21
20.8617153025
 31
0.0
 11
-10.8567938952
 21
20.8636016526
 31
0.0
 11
-10.8370570053
 21
20.8654204077
 31
0.0
 11
-10.8135657709
 21
20.8671570094
 31
0.0
 11
-10.7560976205
 21
20.8703267267
 31
0.0
 11
-10.6863897691
 21
20.8730043271
 31
0.0
 11
-10.6067792481
 21
20.8750968736
 31
0.0
 11
-10.5198784678
 21
20.8765341586
 31
0.0
 11
-10.4288977309
 21
20.8772669682
 31
0.0
  0
SPLINE
  5
7AD
100
AcDbEntity
  8
ASSI
100
AcDbSpline
 62
253
  6
CONTINUOUS
 70
0
 71
3
 72
18
 73
14
 74
12
 42
0.0000001
 43
0.0000001
 44
0.0000000001
 12
0.2427608349
 22
-0.3998061115
 32
0.0
 13
0.4677330651
 23
-0.0018787182
 33
0.0
 40
0.0
 40
0.0
 40
0.0
 40
0.0
 40
0.0083054546
 40
0.0250277847
 40
0.0504401409
 40
0.0844708176
 40
0.1268452235
 40
0.1772047211
 40
0.3002549777
 40
0.4493973171
 40
0.6196609898
 40
0.8054783856
 40
1.0
 40
1.0
 40
1.0
 40
1.0
 10
-10.895239484
 20
-20.855825359
 30
0.0
 10
-10.8945674043
 20
-20.8569322162
 30
0.0
 10
-10.8904696933
 20
-20.8583303524
 30
0.0
 10
-10.8831390626
 20
-20.8601846432
 30
0.0
 10
-10.8712312182
 20
-20.8619783654
 30
0.0
 10
-10.8555291071
 20
-20.8638139283
 30
0.0
 10
-10.8358174912
 20
-20.865583113
 30
0.0
 10
-10.8022732216
 20
-20.8680254635
 30
0.0
 10
-10.7520418073
 20
-20.8706732153
 30
0.0
 10
-10.6831073303
 20
-20.873255366
 30
0.0
 10
-10.6043602078
 20
-20.8752796991
 30
0.0
 10
-10.5185251326
 20
-20.8766740377
 30
0.0
 10
-10.4592266397
 20
-20.8771457005
 30
0.0
 10
-10.428898576
 20
-20.8772675176
 30
0.0
 11
-10.895239484
 21
-20.855825359
 31
0.0
 11
-10.8918984533
 21
-20.8578075116
 31
0.0
 11
-10.8843289507
 21
-20.8597774954
 31
0.0
 11
-10.8726016954
 21
-20.8617154057
 31
0.0
 11
-10.8567964686
 21
-20.8636017948
 31
0.0
 11
-10.8370600256
 21
-20.8654205908
 31
0.0
 11
-10.8135691397
 21
-20.8671572349
 31
0.0
 11
-10.7561013552
 21
-20.8703270384
 31
0.0
 11
-10.6863933988
 21
-20.8730047219
 31
0.0
 11
-10.6067823049
 21
-20.8750973408
 31
0.0
 11
-10.5198805495
 21
-20.8765346794
 31
0.0
 11
-10.428898576
 21
-20.8772675176
 31
0.0
  0
SPLINE
  5
7AE
100
AcDbEntity
  8
ASSI
100
AcDbSpline
 62
253
  6
CONTINUOUS
 70
0
 71
3
 72
18
 73
14
 74
12
 42
0.0000001
 43
0.0000001
 44
0.0000000001
 12
-0.2428766561
 22
-0.3997365248
 32
0.0
 13
-0.4677337169
 23
-0.0018786729
 33
0.0
 40
0.0
 40
0.0
 40
0.0
 40
0.0
 40
0.0083067707
 40
0.0250304711
 40
0.0504440753
 40
0.0844758323
 40
0.1268511227
 40
0.1772112864
 40
0.3002621424
 40
0.449404043
 40
0.6196662501
 40
0.8054813008
 40
1.0
 40
1.0
 40
1.0
 40
1.0
 10
10.8952394836
 20
-20.8558253568
 30
0.0
 10
10.8945669767
 20
-20.8569321967
 30
0.0
 10
10.8904690459
 20
-20.8583302222
 30
0.0
 10
10.8831375767
 20
-20.860184565
 30
0.0
 10
10.8712292347
 20
-20.8619782344
 30
0.0
 10
10.8555265482
 20
-20.8638137759
 30
0.0
 10
10.8358145067
 20
-20.865582919
 30
0.0
 10
10.8022698415
 20
-20.8680252064
 30
0.0
 10
10.7520382296
 20
-20.8706728847
 30
0.0
 10
10.6831038551
 20
-20.873254958
 30
0.0
 10
10.6043572847
 20
-20.8752792226
 30
0.0
 10
10.5185231377
 20
-20.8766735107
 30
0.0
 10
10.4592253823
 20
-20.8771451559
 30
0.0
 10
10.4288977309
 20
-20.8772669682
 30
0.0
 11
10.8952394836
 21
-20.8558253568
 31
0.0
 11
10.8918977126
 21
-20.8578074787
 31
0.0
 11
10.8843275276
 21
-20.8597774286
 31
0.0
 11
10.8725996579
 21
-20.8617153025
 31
0.0
 11
10.8567938952
 21
-20.8636016526
 31
0.0
 11
10.8370570053
 21
-20.8654204077
 31
0.0
 11
10.8135657709
 21
-20.8671570094
 31
0.0
 11
10.7560976206
 21
-20.8703267267
 31
0.0
 11
10.6863897691
 21
-20.8730043271
 31
0.0
 11
10.6067792481
 21
-20.8750968736
 31
0.0
 11
10.5198784678
 21
-20.8765341586
 31
0.0
 11
10.4288977309
 21
-20.8772669682
 31
0.0
  0
SPLINE
  5
7AF
100
AcDbEntity
  8
ASSI
100
AcDbSpline
 62
253
  6
CONTINUOUS
 70
0
 71
3
 72
18
 73
14
 74
12
 42
0.0000001
 43
0.0000001
 44
0.0000000001
 12
-0.242760945
 22
0.3998060451
 32
0.0
 13
-0.4677330655
 23
0.0018787179
 33
0.0
 40
0.0
 40
0.0
 40
0.0
 40
0.0
 40
0.0083054559
 40
0.0250277872
 40
0.0504401445
 40
0.084470822
 40
0.1268452286
 40
0.1772047265
 40
0.3002549833
 40
0.4493973222
 40
0.6196609936
 40
0.8054783876
 40
1.0
 40
1.0
 40
1.0
 40
1.0
 10
10.895239484
 20
20.855825359
 30
0.0
 10
10.8945674039
 20
20.8569322161
 30
0.0
 10
10.8904696927
 20
20.8583303523
 30
0.0
 10
10.8831390612
 20
20.8601846432
 30
0.0
 10
10.8712312165
 20
20.8619783653
 30
0.0
 10
10.8555291049
 20
20.8638139283
 30
0.0
 10
10.8358174887
 20
20.8655831129
 30
0.0
 10
10.8022732188
 20
20.8680254634
 30
0.0
 10
10.7520418045
 20
20.8706732152
 30
0.0
 10
10.6831073277
 20
20.8732553658
 30
0.0
 10
10.6043602057
 20
20.8752796988
 30
0.0
 10
10.5185251312
 20
20.8766740374
 30
0.0
 10
10.4592266388
 20
20.8771457001
 30
0.0
 10
10.4288985755
 20
20.8772675172
 30
0.0
 11
10.895239484
 21
20.855825359
 31
0.0
 11
10.8918984526
 21
20.8578075116
 31
0.0
 11
10.8843289494
 21
20.8597774954
 31
0.0
 11
10.8726016936
 21
20.8617154057
 31
0.0
 11
10.8567964664
 21
20.8636017948
 31
0.0
 11
10.8370600231
 21
20.8654205908
 31
0.0
 11
10.8135691369
 21
20.8671572348
 31
0.0
 11
10.7561013523
 21
20.8703270383
 31
0.0
 11
10.6863933961
 21
20.8730047217
 31
0.0
 11
10.6067823027
 21
20.8750973406
 31
0.0
 11
10.5198805481
 21
20.8765346791
 31
0.0
 11
10.4288985755
 21
20.8772675172
 31
0.0
  0
SPLINE
  5
7B0
100
AcDbEntity
  8
ASSI
100
AcDbSpline
 62
253
  6
CONTINUOUS
 70
0
 71
3
 72
18
 73
14
 74
12
 42
0.0000001
 43
0.0000001
 44
0.0000000001
 12
-0.2988795543
 22
-0.5994852205
 32
0.0
 13
-0.0007594237
 23
-0.6698588963
 33
0.0
 40
0.0
 40
0.0
 40
0.0
 40
0.0
 40
0.0097962112
 40
0.0281779245
 40
0.0551152857
 40
0.0904043905
 40
0.1337662328
 40
0.1848523741
 40
0.3084453561
 40
0.457098118
 40
0.6257936519
 40
0.8088691389
 40
1.0
 40
1.0
 40
1.0
 40
1.0
 10
10.9126659988
 20
21.5250746755
 30
0.0
 10
10.9116900364
 20
21.5231171142
 30
0.0
 10
10.910636906
 20
21.5167865357
 30
0.0
 10
10.9089705371
 20
21.5046780847
 30
0.0
 10
10.9074971596
 20
21.486692028
 30
0.0
 10
10.905941756
 20
21.4631847577
 30
0.0
 10
10.9044727288
 20
21.4342458918
 30
0.0
 10
10.9024549805
 20
21.3856047376
 30
0.0
 10
10.9002852419
 20
21.3134378081
 30
0.0
 10
10.8982062661
 20
21.2150036247
 30
0.0
 10
10.8966189493
 20
21.1032759927
 30
0.0
 10
10.8955815979
 20
20.9820573705
 30
0.0
 10
10.8952878671
 20
20.8985022615
 30
0.0
 10
10.895239484
 20
20.855825359
 30
0.0
 11
10.9126659988
 21
21.5250746755
 31
0.0
 11
10.9109821002
 21
21.5187323239
 31
0.0
 11
10.9093183514
 21
21.506532082
 31
0.0
 11
10.9076911815
 21
21.4885613555
 31
0.0
 11
10.9061146304
 21
21.464975251
 31
0.0
 11
10.9046013835
 21
21.4359683617
 31
0.0
 11
10.9031639579
 21
21.4017780361
 31
0.0
 11
10.9005653825
 21
21.3190289159
 31
0.0
 11
10.8984082013
 21
21.2194758458
 31
0.0
 11
10.8967665919
 21
21.1064854937
 31
0.0
 11
10.8956978254
 21
20.9838553285
 31
0.0
 11
10.895239484
 21
20.855825359
 31
0.0
  0
SPLINE
  5
7B1
100
AcDbEntity
  8
ASSI
100
AcDbSpline
 62
253
  6
CONTINUOUS
 70
0
 71
3
 72
9
 73
5
 74
3
 42
0.0000001
 43
0.0000001
 44
0.0000000001
 12
0.0000001007
 22
-0.0433040262
 32
0.0
 13
0.0013110356
 23
-0.0432841757
 33
0.0
 40
0.0
 40
0.0
 40
0.0
 40
0.0
 40
0.2986840764
 40
1.0
 40
1.0
 40
1.0
 40
1.0
 10
10.5597924241
 20
23.8443375673
 30
0.0
 10
10.5597924341
 20
23.8400261596
 30
0.0
 10
10.5598358786
 20
23.8255919674
 30
0.0
 10
10.5599223173
 20
23.8111549243
 30
0.0
 10
10.5602288007
 20
23.8010362971
 30
0.0
 11
10.5597924241
 21
23.8443375673
 31
0.0
 11
10.5598222221
 21
23.8314033786
 31
0.0
 11
10.5602288007
 21
23.8010362971
 31
0.0
  0
SPLINE
  5
7B2
100
AcDbEntity
  8
ASSI
100
AcDbSpline
 62
253
  6
CONTINUOUS
 70
0
 71
3
 72
14
 73
10
 74
8
 42
0.0000001
 43
0.0000001
 44
0.0000000001
 12
-0.0353768578
 22
-0.0353541823
 32
0.0
 13
0.0000000128
 23
-0.0500144006
 33
0.0
 40
0.0
 40
0.0
 40
0.0
 40
0.0
 40
0.0223937944
 40
0.0813434341
 40
0.1747761037
 40
0.2992081645
 40
0.4499725189
 40
0.6214129187
 40
1.0
 40
1.0
 40
1.0
 40
1.0
 10
10.5606499457
 20
24.2606804067
 30
0.0
 10
10.5603858717
 20
24.2604165019
 30
0.0
 10
10.5606216736
 20
24.2588417088
 30
0.0
 10
10.5601701833
 20
24.256128521
 30
0.0
 10
10.560201338
 20
24.2514103649
 30
0.0
 10
10.5600094952
 20
24.2453093333
 30
0.0
 10
10.5599322064
 20
24.2378484153
 30
0.0
 10
10.5598169586
 20
24.2261721208
 30
0.0
 10
10.5597924225
 20
24.2169996239
 30
0.0
 10
10.5597924241
 20
24.2106880219
 30
0.0
 11
10.5606499457
 21
24.2606804067
 31
0.0
 11
10.5604819068
 21
24.2595730719
 31
0.0
 11
10.5603207389
 21
24.2566291493
 31
0.0
 11
10.5601724866
 21
24.2519585227
 31
0.0
 11
10.5600427435
 21
24.2457364803
 31
0.0
 11
10.5599363904
 21
24.2381968415
 31
0.0
 11
10.5598574288
 21
24.2296227163
 31
0.0
 11
10.5597924241
 21
24.2106880219
 31
0.0
  0
SPLINE
  5
7B3
100
AcDbEntity
  8
ASSI
100
AcDbSpline
 62
253
  6
CONTINUOUS
 70
0
 71
3
 72
14
 73
10
 74
8
 42
0.0000001
 43
0.0000001
 44
0.0000000001
 12
-0.0353890603
 22
0.0353419688
 32
0.0
 13
0.0000000042
 23
0.0500144013
 33
0.0
 40
0.0
 40
0.0
 40
0.0
 40
0.0
 40
0.0223894589
 40
0.0813316649
 40
0.1747572081
 40
0.2991857903
 40
0.4499513862
 40
0.6213965713
 40
1.0
 40
1.0
 40
1.0
 40
1.0
 10
10.5606499457
 20
-24.2606804067
 30
0.0
 10
10.5603858317
 20
-24.2604166441
 30
0.0
 10
10.5606217649
 20
-24.2588418814
 30
0.0
 10
10.560170152
 20
-24.2561291666
 30
0.0
 10
10.560201385
 20
-24.2514112207
 30
0.0
 10
10.5600095012
 20
-24.2453103853
 30
0.0
 10
10.5599322211
 20
-24.2378494097
 30
0.0
 10
10.5598169581
 20
-24.2261727486
 30
0.0
 10
10.5597924236
 20
-24.2169998965
 30
0.0
 10
10.5597924241
 20
-24.2106880219
 30
0.0
 11
10.5606499457
 21
-24.2606804067
 31
0.0
 11
10.5604819224
 21
-24.2595732888
 31
0.0
 11
10.5603207616
 21
-24.2566297382
 31
0.0
 11
10.5601725102
 21
-24.251959468
 31
0.0
 11
10.5600427624
 21
-24.2457375997
 31
0.0
 11
10.5599364027
 21
-24.2381978988
 31
0.0
 11
10.5598574348
 21
-24.2296235341
 31
0.0
 11
10.5597924241
 21
-24.2106880219
 31
0.0
  0
SPLINE
  5
7B4
100
AcDbEntity
  8
ASSI
100
AcDbSpline
 62
253
  6
CONTINUOUS
 70
0
 71
3
 72
9
 73
5
 74
3
 42
0.0000001
 43
0.0000001
 44
0.0000000001
 12
-0.00000001
 22
0.0433040274
 32
0.0
 13
0.0013086633
 23
0.0432842487
 33
0.0
 40
0.0
 40
0.0
 40
0.0
 40
0.0
 40
0.2987935853
 40
1.0
 40
1.0
 40
1.0
 40
1.0
 10
10.5597924241
 20
-23.8443375673
 30
0.0
 10
10.5597924231
 20
-23.8400245788
 30
0.0
 10
10.5598355707
 20
-23.825590382
 30
0.0
 10
10.5599229197
 20
-23.8111533614
 30
0.0
 10
10.5602288007
 20
-23.8010362971
 30
0.0
 11
10.5597924241
 21
-23.8443375673
 31
0.0
 11
10.5598221537
 21
-23.8313986359
 31
0.0
 11
10.5602288007
 21
-23.8010362971
 31
0.0
  0
SPLINE
  5
7B5
100
AcDbEntity
  8
RACCORDO
100
AcDbSpline
 62
253
  6
CONTINUOUS
 70
0
 71
3
 72
27
 73
23
 74
21
 42
0.0000001
 43
0.0000001
 44
0.0000000001
 12
26.0930133276
 22
-0.0005090181
 32
0.0
 13
-26.0930133261
 23
-0.0005815708
 33
0.0
 40
0.0
 40
0.0
 40
0.0
 40
0.0
 40
0.0625153018
 40
0.0938004185
 40
0.1250825738
 40
0.1875566998
 40
0.2500225821
 40
0.2812928476
 40
0.3125634896
 40
0.3750337519
 40
0.4375129701
 40
0.5000002682
 40
0.5624875916
 40
0.6249668704
 40
0.6874371394
 40
0.7187077779
 40
0.7499780287
 40
0.8124439632
 40
0.8749178222
 40
0.906199832
 40
0.9374848452
 40
1.0
 40
1.0
 40
1.0
 40
1.0
 10
0.0
 20
8.3182972805
 30
0.0
 10
0.5437375348
 20
8.3182866734
 30
0.0
 10
1.3625329058
 20
8.2375594475
 30
0.0
 10
2.4189543411
 20
7.9724449557
 30
0.0
 10
3.4443757443
 20
7.6053028657
 30
0.0
 10
4.6507361968
 20
6.9601170403
 30
0.0
 10
5.70768678
 20
6.0916640352
 30
0.0
 10
6.4384923405
 20
5.28456501
 30
0.0
 10
7.0868762119
 20
4.4098624025
 30
0.0
 10
7.7316451553
 20
3.2030571453
 30
0.0
 10
8.2074885718
 20
1.6330474885
 30
0.0
 10
8.3682798678
 20
-0.000007283
 30
0.0
 10
8.2074856725
 20
-1.6330623178
 30
0.0
 10
7.7316390052
 20
-3.2030718486
 30
0.0
 10
7.0868675619
 20
-4.4098763965
 30
0.0
 10
6.4384820555
 20
-5.2845776732
 30
0.0
 10
5.7076746844
 20
-6.0916754597
 30
0.0
 10
4.6507238292
 20
-6.9601249749
 30
0.0
 10
3.4443652091
 20
-7.6053074142
 30
0.0
 10
2.4189476364
 20
-7.9724467126
 30
0.0
 10
1.3625294663
 20
-8.2375604209
 30
0.0
 10
0.5437362557
 20
-8.3182851615
 30
0.0
 10
0.0
 20
-8.3182972805
 30
0.0
 11
0.0
 21
8.3182972805
 31
0.0
 11
1.6233401559
 21
8.1582307333
 31
0.0
 11
2.4151446021
 21
7.9596636023
 31
0.0
 11
3.1835860821
 21
7.6844278405
 31
0.0
 11
4.6209390451
 21
6.9154239277
 31
0.0
 11
5.8804623271
 21
5.8808948473
 31
0.0
 11
6.4281785273
 21
5.2761158568
 31
0.0
 11
6.9140060284
 21
4.6205715506
 31
0.0
 11
7.6819909038
 21
3.1827881468
 31
0.0
 11
8.1549600834
 21
1.6226330495
 31
0.0
 11
8.3146799807
 21
-0.0000070191
 31
0.0
 11
8.1549571798
 21
-1.6226474635
 31
0.0
 11
7.6819846027
 21
-3.1828031825
 31
0.0
 11
6.9139969132
 21
-4.620585282
 31
0.0
 11
6.4281681945
 21
-5.2761285709
 31
0.0
 11
5.8804510491
 21
-5.8809061914
 31
0.0
 11
4.6209245931
 21
-6.9154335479
 31
0.0
 11
3.1835764976
 21
-7.6844317953
 31
0.0
 11
2.4151383019
 21
-7.9596654707
 31
0.0
 11
1.6233363837
 21
-8.1582315797
 31
0.0
 11
0.0
 21
-8.3182972805
 31
0.0
  0
SPLINE
  5
7B6
100
AcDbEntity
  8
ASSI
100
AcDbSpline
 62
253
  6
CONTINUOUS
 70
0
 71
3
 72
11
 73
7
 74
5
 42
0.0000001
 43
0.0000001
 44
0.0000000001
 12
-0.290824418
 22
-0.0021981279
 32
0.0
 13
-0.0029298796
 23
-0.2908179665
 33
0.0
 40
0.0
 40
0.0
 40
0.0
 40
0.0
 40
0.2659011537
 40
0.5231711216
 40
0.7669316808
 40
1.0
 40
1.0
 40
1.0
 40
1.0
 10
-10.3602592617
 20
-23.6278312164
 30
0.0
 10
-10.3860361111
 20
-23.6280260446
 30
0.0
 10
-10.43712135
 20
-23.6369744366
 30
0.0
 10
-10.5030412857
 20
-23.6746347866
 30
0.0
 10
-10.5485995191
 20
-23.7317691277
 30
0.0
 10
-10.56000118
 20
-23.7784428122
 30
0.0
 10
-10.5602288007
 20
-23.8010362971
 30
0.0
 11
-10.3602592617
 21
-23.6278312164
 31
0.0
 11
-10.4363839665
 21
-23.6414468189
 31
0.0
 11
-10.5010461461
 21
-23.6790927071
 31
0.0
 11
-10.5445092521
 21
-23.7351003272
 31
0.0
 11
-10.5602288007
 21
-23.8010362971
 31
0.0
  0
SPLINE
  5
7B7
100
AcDbEntity
  8
ASSI
100
AcDbSpline
 62
7
  6
CONTINUOUS
 70
0
 71
3
 72
12
 73
8
 74
6
 42
0.0000001
 43
0.0000001
 44
0.0000000001
 12
0.0092279883
 22
0.2408431399
 32
0.0
 13
0.2395313719
 23
-0.0267450115
 33
0.0
 40
0.0
 40
0.0
 40
0.0
 40
0.0
 40
0.1616128294
 40
0.2604077624
 40
0.3752282587
 40
0.6572300195
 40
1.0
 40
1.0
 40
1.0
 40
1.0
 10
-10.5781050106
 20
-23.2097560788
 30
0.0
 10
-10.5776078902
 20
-23.1967816317
 30
0.0
 10
-10.5681158726
 20
-23.1761495846
 30
0.0
 10
-10.5460303979
 20
-23.1555548802
 30
0.0
 10
-10.5118238086
 20
-23.1346172361
 30
0.0
 10
-10.4538062759
 20
-23.1179167719
 30
0.0
 10
-10.4029798825
 20
-23.1169681865
 30
0.0
 10
-10.3756118279
 20
-23.1200239821
 30
0.0
 11
-10.5781050106
 21
-23.2097560788
 31
0.0
 11
-10.5635785992
 21
-23.173614219
 31
0.0
 11
-10.5465094436
 21
-23.1570120079
 31
0.0
 11
-10.5230491523
 21
-23.1423332433
 31
0.0
 11
-10.4582032806
 21
-23.1219699089
 31
0.0
 11
-10.3756118279
 21
-23.1200239821
 31
0.0
  0
SPLINE
  5
7B8
100
AcDbEntity
  8
RACCORDO
100
AcDbSpline
 62
253
  6
CONTINUOUS
 70
0
 71
3
 72
27
 73
23
 74
21
 42
0.0000001
 43
0.0000001
 44
0.0000000001
 12
-26.0930133306
 22
0.0005092667
 32
0.0
 13
26.0930133291
 23
0.0005817983
 33
0.0
 40
0.0
 40
0.0
 40
0.0
 40
0.0
 40
0.0625153181
 40
0.093800435
 40
0.1250825855
 40
0.1875566995
 40
0.2500225792
 40
0.2812928439
 40
0.3125634836
 40
0.375033743
 40
0.4375129579
 40
0.5000002527
 40
0.5624875727
 40
0.6249668484
 40
0.687437114
 40
0.7187077518
 40
0.7499780003
 40
0.8124439303
 40
0.8749177936
 40
0.9061998094
 40
0.937484829
 40
1.0
 40
1.0
 40
1.0
 40
1.0
 10
0.0
 20
-8.3182972805
 30
0.0
 10
-0.5437376758
 20
-8.3182866682
 30
0.0
 10
-1.362533193
 20
-8.2375594188
 30
0.0
 10
-2.4189547138
 20
-7.9724448464
 30
0.0
 10
-3.4443759627
 20
-7.6053027533
 30
0.0
 10
-4.6507362514
 20
-6.9601169899
 30
0.0
 10
-5.7076867315
 20
-6.0916640723
 30
0.0
 10
-6.438492272
 20
-5.2845650961
 30
0.0
 10
-7.0868761237
 20
-4.4098625386
 30
0.0
 10
-7.7316450573
 20
-3.2030573622
 30
0.0
 10
-8.2074885028
 20
-1.6330478019
 30
0.0
 10
-8.3682798621
 20
0.0000068746
 30
0.0
 10
-8.2074857645
 20
1.6330618318
 30
0.0
 10
-7.7316392257
 20
3.2030713106
 30
0.0
 10
-7.0868678988
 20
4.4098758484
 30
0.0
 10
-6.4384824936
 20
5.2845771296
 30
0.0
 10
-5.7076752412
 20
6.091674936
 30
0.0
 10
-4.6507244856
 20
6.9601245366
 30
0.0
 10
-3.4443658818
 20
7.6053071176
 30
0.0
 10
-2.4189482028
 20
7.9724465502
 30
0.0
 10
-1.3625298067
 20
8.2375603857
 30
0.0
 10
-0.5437363967
 20
8.3182851568
 30
0.0
 10
0.0
 20
8.3182972805
 30
0.0
 11
0.0
 21
-8.3182972805
 31
0.0
 11
-1.6233405734
 21
-8.1582306553
 31
0.0
 11
-2.4151450163
 21
-7.9596634817
 31
0.0
 11
-3.1835863659
 21
-7.6844277245
 31
0.0
 11
-4.620939038
 21
-6.9154239323
 31
0.0
 11
-5.8804622724
 21
-5.8808949004
 31
0.0
 11
-6.428178468
 21
-5.276115932
 31
0.0
 11
-6.9140059419
 21
-4.6205716821
 31
0.0
 11
-7.6819908134
 21
-3.1827883611
 31
0.0
 11
-8.1549600203
 21
-1.622633362
 31
0.0
 11
-8.3146799808
 21
0.0000066139
 31
0.0
 11
-8.1549572773
 21
1.6226469795
 31
0.0
 11
-7.6819848248
 21
3.1828026522
 31
0.0
 11
-6.9139972808
 21
4.6205847287
 31
0.0
 11
-6.4281686251
 21
5.276128041
 31
0.0
 11
-5.8804515755
 21
5.8809056654
 31
0.0
 11
-4.6209253073
 21
6.9154330718
 31
0.0
 11
-3.1835771895
 21
7.6844315105
 31
0.0
 11
-2.4151388691
 21
7.9596653024
 31
0.0
 11
-1.623336801
 21
8.1582315006
 31
0.0
 11
0.0
 21
8.3182972805
 31
0.0
  0
SPLINE
  5
7B9
100
AcDbEntity
  8
ASSI
100
AcDbSpline
 62
253
  6
CONTINUOUS
 70
0
 71
3
 72
18
 73
14
 74
12
 42
0.0000001
 43
0.0000001
 44
0.0000000001
 12
-0.0007594238
 22
0.6698588972
 32
0.0
 13
-0.2988795282
 23
0.5994852346
 33
0.0
 40
0.0
 40
0.0
 40
0.0
 40
0.0
 40
0.1911308635
 40
0.3742063506
 40
0.5429018838
 40
0.6915546454
 40
0.8151476268
 40
0.8662337678
 40
0.9095956099
 40
0.9448847149
 40
0.971822076
 40
0.9902037888
 40
1.0
 40
1.0
 40
1.0
 40
1.0
 10
-10.8952394837
 20
20.8558253568
 30
0.0
 10
-10.8952878668
 20
20.89850226
 30
0.0
 10
-10.8955815972
 20
20.9820573697
 30
0.0
 10
-10.8966189487
 20
21.1032759924
 30
0.0
 10
-10.8982062655
 20
21.2150036244
 30
0.0
 10
-10.9002852413
 20
21.3134378076
 30
0.0
 10
-10.9024549799
 20
21.3856047369
 30
0.0
 10
-10.9044727282
 20
21.4342458908
 30
0.0
 10
-10.9059417554
 20
21.4631847568
 30
0.0
 10
-10.907497159
 20
21.4866920271
 30
0.0
 10
-10.9089705365
 20
21.5046780836
 30
0.0
 10
-10.9106369053
 20
21.5167865346
 30
0.0
 10
-10.9116900359
 20
21.5231171129
 30
0.0
 10
-10.9126659982
 20
21.5250746743
 30
0.0
 11
-10.8952394837
 21
20.8558253568
 31
0.0
 11
-10.8956978248
 21
20.9838553282
 31
0.0
 11
-10.8967665912
 21
21.1064854936
 31
0.0
 11
-10.8984082007
 21
21.2194758454
 31
0.0
 11
-10.9005653818
 21
21.3190289155
 31
0.0
 11
-10.9031639573
 21
21.4017780353
 31
0.0
 11
-10.9046013829
 21
21.4359683607
 31
0.0
 11
-10.9061146298
 21
21.46497525
 31
0.0
 11
-10.9076911809
 21
21.4885613546
 31
0.0
 11
-10.9093183507
 21
21.5065320811
 31
0.0
 11
-10.9109820996
 21
21.5187323226
 31
0.0
 11
-10.9126659982
 21
21.5250746743
 31
0.0
  0
SPLINE
  5
7BA
100
AcDbEntity
  8
ASSI
100
AcDbSpline
 62
253
  6
CONTINUOUS
 70
0
 71
3
 72
9
 73
5
 74
3
 42
0.0000001
 43
0.0000001
 44
0.0000000001
 12
-0.00000001
 22
0.0433040274
 32
0.0
 13
0.0013086633
 23
0.0432842487
 33
0.0
 40
0.0
 40
0.0
 40
0.0
 40
0.0
 40
0.2987935853
 40
1.0
 40
1.0
 40
1.0
 40
1.0
 10
-7.2402075759
 20
-23.8443375673
 30
0.0
 10
-7.2402075769
 20
-23.8400245788
 30
0.0
 10
-7.2401644293
 20
-23.825590382
 30
0.0
 10
-7.2400770803
 20
-23.8111533614
 30
0.0
 10
-7.2397711993
 20
-23.8010362971
 30
0.0
 11
-7.2402075759
 21
-23.8443375673
 31
0.0
 11
-7.2401778463
 21
-23.8313986359
 31
0.0
 11
-7.2397711993
 21
-23.8010362971
 31
0.0
  0
SPLINE
  5
7BB
100
AcDbEntity
  8
ASSI
100
AcDbSpline
 62
253
  6
CONTINUOUS
 70
0
 71
3
 72
14
 73
10
 74
8
 42
0.0000001
 43
0.0000001
 44
0.0000000001
 12
-0.0353890603
 22
0.0353419688
 32
0.0
 13
0.0000000042
 23
0.0500144013
 33
0.0
 40
0.0
 40
0.0
 40
0.0
 40
0.0
 40
0.0223894589
 40
0.0813316649
 40
0.1747572081
 40
0.2991857903
 40
0.4499513862
 40
0.6213965713
 40
1.0
 40
1.0
 40
1.0
 40
1.0
 10
-7.2393500543
 20
-24.2606804067
 30
0.0
 10
-7.2396141683
 20
-24.2604166441
 30
0.0
 10
-7.2393782351
 20
-24.2588418814
 30
0.0
 10
-7.239829848
 20
-24.2561291666
 30
0.0
 10
-7.239798615
 20
-24.2514112207
 30
0.0
 10
-7.2399904988
 20
-24.2453103853
 30
0.0
 10
-7.2400677789
 20
-24.2378494097
 30
0.0
 10
-7.2401830419
 20
-24.2261727486
 30
0.0
 10
-7.2402075764
 20
-24.2169998965
 30
0.0
 10
-7.2402075759
 20
-24.2106880219
 30
0.0
 11
-7.2393500543
 21
-24.2606804067
 31
0.0
 11
-7.2395180776
 21
-24.2595732888
 31
0.0
 11
-7.2396792384
 21
-24.2566297382
 31
0.0
 11
-7.2398274898
 21
-24.251959468
 31
0.0
 11
-7.2399572376
 21
-24.2457375997
 31
0.0
 11
-7.2400635973
 21
-24.2381978988
 31
0.0
 11
-7.2401425652
 21
-24.2296235341
 31
0.0
 11
-7.2402075759
 21
-24.2106880219
 31
0.0
  0
SPLINE
  5
7BC
100
AcDbEntity
  8
ASSI
100
AcDbSpline
 62
253
  6
CONTINUOUS
 70
0
 71
3
 72
18
 73
14
 74
12
 42
0.0000001
 43
0.0000001
 44
0.0000000001
 12
0.2988795543
 22
0.5994852205
 32
0.0
 13
0.0007594237
 23
0.6698588963
 33
0.0
 40
0.0
 40
0.0
 40
0.0
 40
0.0
 40
0.0097962112
 40
0.0281779245
 40
0.0551152857
 40
0.0904043905
 40
0.1337662328
 40
0.1848523741
 40
0.3084453561
 40
0.457098118
 40
0.6257936519
 40
0.8088691389
 40
1.0
 40
1.0
 40
1.0
 40
1.0
 10
-10.9126659988
 20
-21.5250746755
 30
0.0
 10
-10.9116900364
 20
-21.5231171142
 30
0.0
 10
-10.910636906
 20
-21.5167865357
 30
0.0
 10
-10.9089705371
 20
-21.5046780847
 30
0.0
 10
-10.9074971596
 20
-21.4866920281
 30
0.0
 10
-10.905941756
 20
-21.4631847577
 30
0.0
 10
-10.9044727288
 20
-21.4342458918
 30
0.0
 10
-10.9024549805
 20
-21.3856047376
 30
0.0
 10
-10.9002852419
 20
-21.3134378081
 30
0.0
 10
-10.8982062661
 20
-21.2150036247
 30
0.0
 10
-10.8966189493
 20
-21.1032759927
 30
0.0
 10
-10.8955815979
 20
-20.9820573705
 30
0.0
 10
-10.8952878671
 20
-20.8985022615
 30
0.0
 10
-10.895239484
 20
-20.855825359
 30
0.0
 11
-10.9126659988
 21
-21.5250746755
 31
0.0
 11
-10.9109821002
 21
-21.5187323239
 31
0.0
 11
-10.9093183514
 21
-21.506532082
 31
0.0
 11
-10.9076911815
 21
-21.4885613555
 31
0.0
 11
-10.9061146304
 21
-21.464975251
 31
0.0
 11
-10.9046013835
 21
-21.4359683617
 31
0.0
 11
-10.9031639579
 21
-21.4017780361
 31
0.0
 11
-10.9005653825
 21
-21.319028916
 31
0.0
 11
-10.8984082013
 21
-21.2194758458
 31
0.0
 11
-10.8967665919
 21
-21.1064854937
 31
0.0
 11
-10.8956978254
 21
-20.9838553285
 31
0.0
 11
-10.895239484
 21
-20.855825359
 31
0.0
  0
SPLINE
  5
7BD
100
AcDbEntity
  8
ASSI
100
AcDbSpline
 62
253
  6
CONTINUOUS
 70
0
 71
3
 72
9
 73
5
 74
3
 42
0.0000001
 43
0.0000001
 44
0.0000000001
 12
-0.0013086619
 22
0.0432844713
 32
0.0
 13
0.000000012
 23
0.0433042498
 33
0.0
 40
0.0
 40
0.0
 40
0.0
 40
0.0
 40
0.1834851879
 40
1.0
 40
1.0
 40
1.0
 40
1.0
 10
-7.2397711993
 20
23.8010362971
 30
0.0
 10
-7.2398512393
 20
23.8036836502
 30
0.0
 10
-7.2401471814
 20
23.818115777
 30
0.0
 10
-7.2402075792
 20
23.8325513802
 30
0.0
 10
-7.2402075759
 20
23.8443375673
 30
0.0
 11
-7.2397711993
 21
23.8010362971
 31
0.0
 11
-7.2399519113
 21
23.8089799302
 31
0.0
 11
-7.2402075759
 21
23.8443375673
 31
0.0
  0
SPLINE
  5
7BE
100
AcDbEntity
  8
ASSI
100
AcDbSpline
 62
253
  6
CONTINUOUS
 70
0
 71
3
 72
14
 73
10
 74
8
 42
0.0000001
 43
0.0000001
 44
0.0000000001
 12
-0.0000000203
 22
0.0500143983
 32
0.0
 13
0.0353703491
 23
0.0353606907
 33
0.0
 40
0.0
 40
0.0
 40
0.0
 40
0.0
 40
0.3784778443
 40
0.5499151366
 40
0.7006962726
 40
0.8251531199
 40
0.9186154914
 40
0.9775909074
 40
1.0
 40
1.0
 40
1.0
 40
1.0
 10
-7.2402075759
 20
24.2106880219
 30
0.0
 10
-7.2402075785
 20
24.2169978025
 30
0.0
 10
-7.240183051
 20
24.2261684233
 30
0.0
 10
-7.2400678528
 20
24.2378431294
 30
0.0
 10
-7.2399905815
 20
24.245304681
 30
0.0
 10
-7.2397987431
 20
24.2514069162
 30
0.0
 10
-7.239829929
 20
24.2561263892
 30
0.0
 10
-7.2393783083
 20
24.2588407662
 30
0.0
 10
-7.2396142601
 20
24.260416273
 30
0.0
 10
-7.2393500543
 20
24.2606804067
 30
0.0
 11
-7.2402075759
 21
24.2106880219
 31
0.0
 11
-7.2401426095
 21
24.2296172521
 31
0.0
 11
-7.2400636736
 21
24.2381912218
 31
0.0
 11
-7.2399573388
 21
24.2457316998
 31
0.0
 11
-7.239827605
 21
24.2519549821
 31
0.0
 11
-7.2396793473
 21
24.2566270946
 31
0.0
 11
-7.2395181489
 21
24.2595723065
 31
0.0
 11
-7.2393500543
 21
24.2606804067
 31
0.0
  0
LINE
  5
7BF
100
AcDbEntity
  8
ASSI
100
AcDbLine
 62
7
  6
CONTINUOUS
 10
-65.4324185567
 20
-24.5
 11
-65.4324185567
 21
-24.300030461
  0
SPLINE
  5
7C0
100
AcDbEntity
  8
ASSI
100
AcDbSpline
 62
253
  6
CONTINUOUS
 70
0
 71
3
 72
11
 73
7
 74
5
 42
0.0000001
 43
0.0000001
 44
0.0000000001
 12
-1.0278859147
 22
-0.053987728
 32
0.0
 13
-0.0445214629
 23
-1.0283394224
 33
0.0
 40
0.0
 40
0.0
 40
0.0
 40
0.0
 40
0.2499788592
 40
0.4999651467
 40
0.7499717379
 40
1.0
 40
1.0
 40
1.0
 40
1.0
 10
-72.5864154348
 20
21.5250746755
 30
0.0
 10
-72.6720653509
 20
21.5205760786
 30
0.0
 10
-72.8433375745
 20
21.4796143263
 30
0.0
 10
-73.0598540797
 20
21.3303262034
 30
0.0
 10
-73.208403118
 20
21.1132118874
 30
0.0
 10
-73.2481966459
 20
20.9415299985
 30
0.0
 10
-73.2519071873
 20
20.855825359
 30
0.0
 11
-72.5864154348
 21
21.5250746755
 31
0.0
 11
-72.8366021025
 21
21.464975251
 31
0.0
 11
-73.0485193306
 21
21.3190289159
 31
0.0
 11
-73.1935892906
 21
21.1064854937
 31
0.0
 11
-73.2519071873
 21
20.855825359
 31
0.0
  0
SPLINE
  5
7C1
100
AcDbEntity
  8
RACCORDO
100
AcDbSpline
 62
253
  6
CONTINUOUS
 70
0
 71
3
 72
18
 73
14
 74
12
 42
0.0000001
 43
0.0000001
 44
0.0000000001
 12
0.0017467041
 22
0.2000167229
 32
0.0
 13
-0.2000241475
 23
0.0002843131
 33
0.0
 40
0.0
 40
0.0
 40
0.0
 40
0.0
 40
0.1950147213
 40
0.3826895264
 40
0.5555293797
 40
0.7070708606
 40
0.8314185236
 40
0.8818650113
 40
0.9238076301
 40
0.9568719295
 40
0.9807074241
 40
0.9951101926
 40
1.0
 40
1.0
 40
1.0
 40
1.0
 10
-54.1306733091
 20
20.785536625
 30
0.0
 10
-54.1305597647
 20
20.7985386935
 30
0.0
 10
-54.1303590178
 20
20.8240538534
 30
0.0
 10
-54.1301324344
 20
20.8610921602
 30
0.0
 10
-54.1299876943
 20
20.8952357534
 30
0.0
 10
-54.1299401621
 20
20.9251466344
 30
0.0
 10
-54.1299570925
 20
20.9469246479
 30
0.0
 10
-54.1300588379
 20
20.9613441441
 30
0.0
 10
-54.1300901062
 20
20.9697759799
 30
0.0
 10
-54.1303093062
 20
20.9761879361
 30
0.0
 10
-54.1301422013
 20
20.9813479397
 30
0.0
 10
-54.1307571072
 20
20.9834999287
 30
0.0
 10
-54.1303471938
 20
20.9855380712
 30
0.0
 10
-54.1306732203
 20
20.9855385346
 30
0.0
 11
-54.1306733091
 21
20.785536625
 31
0.0
 11
-54.1303667648
 21
20.8245431132
 31
0.0
 11
-54.130138616
 21
20.8620819507
 31
0.0
 11
-54.1299979505
 21
20.8966538438
 31
0.0
 11
-54.1299504172
 21
20.9269657927
 31
0.0
 11
-54.1299978642
 21
20.9518383078
 31
0.0
 11
-54.1300567646
 21
20.9619286618
 31
0.0
 11
-54.1301384858
 21
20.9703178088
 31
0.0
 11
-54.1302421343
 21
20.9769306616
 31
0.0
 11
-54.1303667507
 21
20.981696712
 31
0.0
 11
-54.1305109804
 21
20.9845740038
 31
0.0
 11
-54.1306732203
 21
20.9855385346
 31
0.0
  0
SPLINE
  5
7C2
100
AcDbEntity
  8
ASSI
100
AcDbSpline
 62
7
  6
CONTINUOUS
 70
0
 71
3
 72
10
 73
6
 74
4
 42
0.0000001
 43
0.0000001
 44
0.0000000001
 12
0.0380339309
 22
0.0219589002
 32
0.0
 13
0.041841455
 23
-0.0133441314
 33
0.0
 40
0.0
 40
0.0
 40
0.0
 40
0.0
 40
0.1562586274
 40
0.3725053574
 40
1.0
 40
1.0
 40
1.0
 40
1.0
 10
-66.9278706266
 20
-23.1200239821
 30
0.0
 10
-66.9258895833
 20
-23.1188802263
 30
0.0
 10
-66.9203314613
 20
-23.1177807851
 30
0.0
 10
-66.905733382
 20
-23.1189267989
 30
0.0
 10
-66.8937516729
 20
-23.1224191514
 30
0.0
 10
-66.88499991
 20
-23.125210275
 30
0.0
 11
-66.9278706266
 21
-23.1200239821
 31
0.0
 11
-66.9212477002
 21
-23.1182264185
 31
0.0
 11
-66.9117588362
 21
-23.1186213903
 31
0.0
 11
-66.88499991
 21
-23.125210275
 31
0.0
  0
SPLINE
  5
7C3
100
AcDbEntity
  8
ASSI
100
AcDbSpline
 62
7
  6
CONTINUOUS
 70
0
 71
3
 72
10
 73
6
 74
4
 42
0.0000001
 43
0.0000001
 44
0.0000000001
 12
0.2053840236
 22
-0.0655013408
 32
0.0
 13
0.1961778969
 23
-0.0893714471
 33
0.0
 40
0.0
 40
0.0
 40
0.0
 40
0.0
 40
0.2009386342
 40
0.4447871076
 40
1.0
 40
1.0
 40
1.0
 40
1.0
 10
-66.88499991
 20
-23.125210275
 30
0.0
 10
-66.8712433816
 20
-23.129597525
 30
0.0
 10
-66.8413656305
 20
-23.1410494792
 30
0.0
 10
-66.7752722427
 20
-23.1692343311
 30
0.0
 10
-66.7230884908
 20
-23.1932160189
 30
0.0
 10
-66.6867816583
 20
-23.2097560788
 30
0.0
 11
-66.88499991
 21
-23.125210275
 31
0.0
 11
-66.8443460368
 21
-23.1401659737
 31
0.0
 11
-66.795909942
 21
-23.1605945621
 31
0.0
 11
-66.6867816583
 21
-23.2097560788
 31
0.0
  0
SPLINE
  5
7C4
100
AcDbEntity
  8
ASSI
100
AcDbSpline
 62
253
  6
CONTINUOUS
 70
0
 71
3
 72
18
 73
14
 74
12
 42
0.0000001
 43
0.0000001
 44
0.0000000001
 12
-0.1717708875
 22
-0.0991719681
 32
0.0
 13
0.0991493107
 23
-0.1717839667
 33
0.0
 40
0.0
 40
0.0
 40
0.0
 40
0.0
 40
0.0050557424
 40
0.0195143832
 40
0.0433121005
 40
0.0762867901
 40
0.1182059192
 40
0.1685971851
 40
0.2926641405
 40
0.4439494969
 40
0.6168293837
 40
0.8049344776
 40
1.0
 40
1.0
 40
1.0
 40
1.0
 10
-67.8074185567
 20
-23.6278312164
 30
0.0
 10
-67.8077080332
 20
-23.6279983457
 30
0.0
 10
-67.8066075033
 20
-23.6296479184
 30
0.0
 10
-67.8060008051
 20
-23.6318305804
 30
0.0
 10
-67.8035424779
 20
-23.6362675588
 30
0.0
 10
-67.8006616534
 20
-23.6419465885
 30
0.0
 10
-67.7966904753
 20
-23.6492846669
 30
0.0
 10
-67.7898739946
 20
-23.6618302795
 30
0.0
 10
-67.7794209365
 20
-23.6806802162
 30
0.0
 10
-67.7649233407
 20
-23.7065184145
 30
0.0
 10
-67.7482223045
 20
-23.7359857363
 30
0.0
 10
-67.7299873351
 20
-23.7679068829
 30
0.0
 10
-67.7173559087
 20
-23.7898665874
 30
0.0
 10
-67.710909038
 20
-23.8010362971
 30
0.0
 11
-67.8074185567
 21
-23.6278312164
 31
0.0
 11
-67.807193309
 21
-23.6288083667
 31
0.0
 11
-67.8060195764
 21
-23.6314249552
 31
0.0
 11
-67.8039122815
 21
-23.6356485749
 31
0.0
 11
-67.8008863467
 21
-23.6414468187
 31
0.0
 11
-67.7969627181
 21
-23.6487771987
 31
0.0
 11
-67.7921864359
 21
-23.6575569023
 31
0.0
 11
-67.7802801657
 21
-23.6790927066
 31
0.0
 11
-67.7656035732
 21
-23.7052650137
 31
0.0
 11
-67.7487028024
 21
-23.7351003269
 31
0.0
 11
-67.7301997277
 21
-23.7674984035
 31
0.0
 11
-67.710909038
 21
-23.8010362971
 31
0.0
  0
SPLINE
  5
7C5
100
AcDbEntity
  8
ASSI
100
AcDbSpline
 62
253
  6
CONTINUOUS
 70
0
 71
3
 72
21
 73
17
 74
15
 42
0.0000001
 43
0.0000001
 44
0.0000000001
 12
-0.0029531651
 22
-0.3714747735
 32
0.0
 13
-0.3714474221
 23
0.0053889829
 33
0.0
 40
0.0
 40
0.0
 40
0.0
 40
0.0
 40
0.0012741837
 40
0.004898078
 40
0.0108922061
 40
0.0192448962
 40
0.0429631331
 40
0.0758905564
 40
0.117682475
 40
0.1679282588
 40
0.2262049475
 40
0.291945732
 40
0.4431657125
 40
0.6159972747
 40
0.8041698634
 40
1.0
 40
1.0
 40
1.0
 40
1.0
 10
-59.4324186724
 20
23.6495955121
 30
0.0
 10
-59.4324199266
 20
23.6494377364
 30
0.0
 10
-59.4333381568
 20
23.6494692941
 30
0.0
 10
-59.4343834597
 20
23.6492275173
 30
0.0
 10
-59.4367731685
 20
23.649185175
 30
0.0
 10
-59.4413834277
 20
23.6489850178
 30
0.0
 10
-59.4495056928
 20
23.6488778229
 30
0.0
 10
-59.4616591045
 20
23.6487554291
 30
0.0
 10
-59.4771470062
 20
23.6487111087
 30
0.0
 10
-59.4957554661
 20
23.6487157514
 30
0.0
 10
-59.5173358065
 20
23.6487824682
 30
0.0
 10
-59.5514170528
 20
23.6489569092
 30
0.0
 10
-59.5996836141
 20
23.6493279784
 30
0.0
 10
-59.6631084352
 20
23.6499643969
 30
0.0
 10
-59.7320557242
 20
23.6507894122
 30
0.0
 10
-59.77960191
 20
23.6514392502
 30
0.0
 10
-59.8038487764
 20
23.6517910252
 30
0.0
 11
-59.4324186724
 21
23.6495955121
 31
0.0
 11
-59.4328673336
 21
23.649444662
 31
0.0
 11
-59.4342065272
 21
23.6493072212
 31
0.0
 11
-59.4364298232
 21
23.6491834643
 31
0.0
 11
-59.4395307917
 21
23.6490736656
 31
0.0
 11
-59.4483400263
 21
23.6488970409
 31
0.0
 11
-59.4605715537
 21
23.6487793464
 31
0.0
 11
-59.4760965797
 21
23.6487214233
 31
0.0
 11
-59.4947622106
 21
23.6487236913
 31
0.0
 11
-59.5164111233
 21
23.6487864823
 31
0.0
 11
-59.5408326303
 21
23.6489090721
 31
0.0
 11
-59.5970072521
 21
23.6493279044
 31
0.0
 11
-59.661208684
 21
23.6499651249
 31
0.0
 11
-59.7311073068
 21
23.6507974914
 31
0.0
 11
-59.8038487764
 21
23.6517910252
 31
0.0
  0
SPLINE
  5
7C6
100
AcDbEntity
  8
ASSI
100
AcDbSpline
 62
253
  6
CONTINUOUS
 70
0
 71
3
 72
20
 73
16
 74
14
 42
0.0000001
 43
0.0000001
 44
0.0000000001
 12
-0.0261520065
 22
-0.4993521831
 32
0.0
 13
0.4993512462
 23
-0.0261698899
 33
0.0
 40
0.0
 40
0.0
 40
0.0
 40
0.0
 40
0.1947181026
 40
0.3822854044
 40
0.5549071402
 40
0.7061951091
 40
0.7720385247
 40
0.830443712
 40
0.8808402511
 40
0.9227968418
 40
0.9558954823
 40
0.9798059931
 40
0.9944057637
 40
0.9982407178
 40
1.0
 40
1.0
 40
1.0
 40
1.0
 10
-72.5864154583
 20
-21.5250746743
 30
0.0
 10
-72.5881128813
 20
-21.5574856441
 30
0.0
 10
-72.591283516
 20
-21.6211259383
 30
0.0
 10
-72.5954058756
 20
-21.7135257025
 30
0.0
 10
-72.5987024217
 20
-21.7987150799
 30
0.0
 10
-72.6007516993
 20
-21.8636466436
 30
0.0
 10
-72.6018455994
 20
-21.9095610225
 30
0.0
 10
-72.6023578381
 20
-21.9386637962
 30
0.0
 10
-72.6025940488
 20
-21.9637991363
 30
0.0
 10
-72.6025677211
 20
-21.9846874946
 30
0.0
 10
-72.6022592105
 20
-22.0012399335
 30
0.0
 10
-72.6017564269
 20
-22.0130314938
 30
0.0
 10
-72.6010126063
 20
-22.0202960669
 30
0.0
 10
-72.6003446105
 20
-22.0233588182
 30
0.0
 10
-72.5997877955
 20
-22.0243740949
 30
0.0
 10
-72.5994949623
 20
-22.0243894416
 30
0.0
 11
-72.5864154583
 21
-21.5250746743
 31
0.0
 11
-72.5912570355
 21
-21.6223203891
 31
0.0
 11
-72.5954208154
 21
-21.7160184216
 31
0.0
 11
-72.598730698
 21
-21.8022721121
 31
0.0
 11
-72.6010652072
 21
-21.8778855934
 31
0.0
 11
-72.6018389444
 21
-21.9108006135
 31
0.0
 11
-72.6023384941
 21
-21.9400010679
 31
0.0
 11
-72.602558412
 21
-21.9652002188
 31
0.0
 11
-72.6024976696
 21
-21.9861799588
 31
0.0
 11
-72.6021555485
 21
-22.0027269517
 31
0.0
 11
-72.601534515
 21
-22.0146669406
 31
0.0
 11
-72.6006441417
 21
-22.0219128599
 31
0.0
 11
-72.6001012444
 21
-22.0237520222
 31
0.0
 11
-72.5994949623
 21
-22.0243894416
 31
0.0
  0
SPLINE
  5
7C7
100
AcDbEntity
  8
ASSI
100
AcDbSpline
 62
253
  6
CONTINUOUS
 70
0
 71
3
 72
20
 73
16
 74
14
 42
0.0000001
 43
0.0000001
 44
0.0000000001
 12
-0.0261519982
 22
0.4993521834
 32
0.0
 13
0.4993512461
 23
0.0261698899
 33
0.0
 40
0.0
 40
0.0
 40
0.0
 40
0.0
 40
0.1947180835
 40
0.3822853444
 40
0.5549070707
 40
0.7061950516
 40
0.7720384768
 40
0.8304436687
 40
0.880840218
 40
0.922796821
 40
0.9558954685
 40
0.9798059849
 40
0.9944057611
 40
0.9982407171
 40
1.0
 40
1.0
 40
1.0
 40
1.0
 10
-72.5864154348
 20
21.5250746755
 30
0.0
 10
-72.5881128571
 20
21.5574856422
 30
0.0
 10
-72.5912834906
 20
21.6211259264
 30
0.0
 10
-72.5954058486
 20
21.713525679
 30
0.0
 10
-72.5987023942
 20
21.7987150501
 30
0.0
 10
-72.6007516717
 20
21.8636466158
 30
0.0
 10
-72.6018455725
 20
21.909560999
 30
0.0
 10
-72.6023578115
 20
21.9386637768
 30
0.0
 10
-72.6025940228
 20
21.9637991214
 30
0.0
 10
-72.6025676958
 20
21.9846874846
 30
0.0
 10
-72.6022591855
 20
22.0012399277
 30
0.0
 10
-72.6017564017
 20
22.0130314909
 30
0.0
 10
-72.6010125812
 20
22.0202960665
 30
0.0
 10
-72.6003445853
 20
22.0233588189
 30
0.0
 10
-72.5997877702
 20
22.0243740962
 30
0.0
 10
-72.5994949369
 20
22.024389443
 30
0.0
 11
-72.5864154348
 21
21.5250746755
 31
0.0
 11
-72.5912570102
 21
21.6223203808
 31
0.0
 11
-72.5954207883
 21
21.7160183929
 31
0.0
 11
-72.5987306704
 21
21.8022720787
 31
0.0
 11
-72.6010651798
 21
21.877885566
 31
0.0
 11
-72.6018389176
 21
21.9108005909
 31
0.0
 11
-72.6023384676
 21
21.9400010475
 31
0.0
 11
-72.6025583861
 21
21.9652002035
 31
0.0
 11
-72.6024976443
 21
21.9861799497
 31
0.0
 11
-72.6021555234
 21
22.0027269461
 31
0.0
 11
-72.6015344899
 21
22.0146669377
 31
0.0
 11
-72.6006441165
 21
22.0219128599
 31
0.0
 11
-72.6001012191
 21
22.0237520232
 31
0.0
 11
-72.5994949369
 21
22.024389443
 31
0.0
  0
SPLINE
  5
7C8
100
AcDbEntity
  8
RACCORDO
100
AcDbSpline
 62
253
  6
CONTINUOUS
 70
0
 71
3
 72
18
 73
14
 74
12
 42
0.0000001
 43
0.0000001
 44
0.0000000001
 12
0.2000802044
 22
0.0017460734
 32
0.0
 13
-0.0017455417
 23
0.200080209
 33
0.0
 40
0.0
 40
0.0
 40
0.0
 40
0.0
 40
0.0051358106
 40
0.019649731
 40
0.0435107103
 40
0.076559662
 40
0.1185627937
 40
0.1690427337
 40
0.2932760029
 40
0.4446675106
 40
0.6175283615
 40
0.8054196236
 40
1.0
 40
1.0
 40
1.0
 40
1.0
 10
-54.1306732496
 20
20.9855385354
 30
0.0
 10
-54.1303307249
 20
20.9855415246
 30
0.0
 10
-54.1303897332
 20
20.9875220854
 30
0.0
 10
-54.1298535827
 20
20.9897722043
 30
0.0
 10
-54.1297370442
 20
20.9948867501
 30
0.0
 10
-54.1294182757
 20
21.0013233048
 30
0.0
 10
-54.1292157433
 20
21.0097521697
 30
0.0
 10
-54.1289177776
 20
21.0241761567
 30
0.0
 10
-54.1286741461
 20
21.0459420586
 30
0.0
 10
-54.1285164187
 20
21.0758469137
 30
0.0
 10
-54.1285040223
 20
21.1100072408
 30
0.0
 10
-54.1286360702
 20
21.1470447854
 30
0.0
 10
-54.1288148594
 20
21.1725536926
 30
0.0
 10
-54.1289280754
 20
21.18553092
 30
0.0
 11
-54.1306732496
 21
20.9855385354
 31
0.0
 11
-54.130340999
 21
20.9865109542
 31
0.0
 11
-54.1300274443
 21
20.9893980359
 31
0.0
 11
-54.1297361181
 21
20.9941634307
 31
0.0
 11
-54.1294705529
 21
21.0007707888
 31
0.0
 11
-54.1292339691
 21
21.0091717734
 31
0.0
 11
-54.1290283387
 21
21.0192701013
 31
0.0
 11
-54.1287165772
 21
21.0441257106
 31
0.0
 11
-54.128547117
 21
21.0744168338
 31
0.0
 11
-54.1285260863
 21
21.1090041787
 31
0.0
 11
-54.1286556793
 21
21.146598709
 31
0.0
 11
-54.1289280754
 21
21.18553092
 31
0.0
  0
SPLINE
  5
7C9
100
AcDbEntity
  8
ASSI
100
AcDbSpline
 62
253
  6
CONTINUOUS
 70
0
 71
3
 72
11
 73
7
 74
5
 42
0.0000001
 43
0.0000001
 44
0.0000000001
 12
0.0445214711
 22
-1.0283394222
 32
0.0
 13
1.0278859145
 23
-0.053987734
 33
0.0
 40
0.0
 40
0.0
 40
0.0
 40
0.0
 40
0.2500282611
 40
0.5000348528
 40
0.7500211407
 40
1.0
 40
1.0
 40
1.0
 40
1.0
 10
-73.2519072003
 20
-20.8558253568
 30
0.0
 10
-73.2481966583
 20
-20.941529996
 30
0.0
 10
-73.2084031505
 20
-21.1132118894
 30
0.0
 10
-73.0598541023
 20
-21.3303262024
 30
0.0
 10
-72.8433375988
 20
-21.4796143255
 30
0.0
 10
-72.6720653744
 20
-21.5205760769
 30
0.0
 10
-72.5864154583
 20
-21.5250746743
 30
0.0
 11
-73.2519072003
 21
-20.8558253568
 31
0.0
 11
-73.1935893167
 21
-21.1064854936
 31
0.0
 11
-73.0485193552
 21
-21.3190289155
 31
0.0
 11
-72.8366021262
 21
-21.46497525
 31
0.0
 11
-72.5864154583
 21
-21.5250746743
 31
0.0
  0
SPLINE
  5
7CA
100
AcDbEntity
  8
ASSI
100
AcDbSpline
 62
253
  6
CONTINUOUS
 70
0
 71
3
 72
18
 73
14
 74
12
 42
0.0000001
 43
0.0000001
 44
0.0000000001
 12
0.004362873
 22
-0.250033607
 32
0.0
 13
-0.2500335812
 23
-0.0043643524
 33
0.0
 40
0.0
 40
0.0
 40
0.0
 40
0.0
 40
0.1945886021
 40
0.3824833732
 40
0.5553442543
 40
0.7067335488
 40
0.8309635853
 40
0.8814418578
 40
0.9234434799
 40
0.9564911713
 40
0.9803511732
 40
0.9948644545
 40
1.0
 40
1.0
 40
1.0
 40
1.0
 10
-59.8038487764
 20
-23.6517910252
 30
0.0
 10
-59.803565788
 20
-23.6680089219
 30
0.0
 10
-59.8030642052
 20
-23.6998880127
 30
0.0
 10
-59.8024953157
 20
-23.746175668
 30
0.0
 10
-59.8021383079
 20
-23.7888681911
 30
0.0
 10
-59.8020093162
 20
-23.8262434097
 30
0.0
 10
-59.8020764174
 20
-23.8534476697
 30
0.0
 10
-59.8022914793
 20
-23.8714769354
 30
0.0
 10
-59.8024526504
 20
-23.8820128482
 30
0.0
 10
-59.8027808159
 20
-23.8900601776
 30
0.0
 10
-59.8028706429
 20
-23.8964531647
 30
0.0
 10
-59.8035161456
 20
-23.899270991
 30
0.0
 10
-59.8034207568
 20
-23.9017454779
 30
0.0
 10
-59.8038487764
 20
-23.901752949
 30
0.0
 11
-59.8038487764
 21
-23.6517910252
 31
0.0
 11
-59.8030838386
 21
-23.7004461089
 31
0.0
 11
-59.8025119462
 21
-23.7474297874
 31
0.0
 11
-59.8021610741
 21
-23.7906559723
 31
0.0
 11
-59.8020425318
 21
-23.8285139601
 31
0.0
 11
-59.802161081
 21
-23.8595801464
 31
0.0
 11
-59.8023079246
 21
-23.8722024781
 31
0.0
 11
-59.8025119562
 21
-23.8827039119
 31
0.0
 11
-59.802771762
 21
-23.8909641185
 31
0.0
 11
-59.8030838456
 21
-23.8969226617
 31
0.0
 11
-59.8034441895
 21
-23.9005340894
 31
0.0
 11
-59.8038487764
 21
-23.901752949
 31
0.0
  0
SPLINE
  5
7CB
100
AcDbEntity
  8
ASSI
100
AcDbSpline
 62
253
  6
CONTINUOUS
 70
0
 71
3
 72
18
 73
14
 74
12
 42
0.0000001
 43
0.0000001
 44
0.0000000001
 12
0.0043630533
 22
0.250033613
 32
0.0
 13
-0.2500335903
 23
0.0043643526
 33
0.0
 40
0.0
 40
0.0
 40
0.0
 40
0.0
 40
0.1945885328
 40
0.3824831384
 40
0.5553439218
 40
0.7067332259
 40
0.8309633501
 40
0.8814416814
 40
0.9234433372
 40
0.9564910534
 40
0.9803510951
 40
0.9948644169
 40
1.0
 40
1.0
 40
1.0
 40
1.0
 10
-59.8038487764
 20
23.6517910252
 30
0.0
 10
-59.8035657764
 20
23.6680089165
 30
0.0
 10
-59.8030641735
 20
23.6998879886
 30
0.0
 10
-59.8024952616
 20
23.7461756176
 30
0.0
 10
-59.8021382386
 20
23.788868121
 30
0.0
 10
-59.8020092395
 20
23.826243341
 30
0.0
 10
-59.8020763432
 20
23.8534476147
 30
0.0
 10
-59.8022914116
 20
23.8714768965
 30
0.0
 10
-59.8024525925
 20
23.8820128183
 30
0.0
 10
-59.8027807634
 20
23.8900601584
 30
0.0
 10
-59.802870614
 20
23.8964531489
 30
0.0
 10
-59.8035161096
 20
23.8992709919
 30
0.0
 10
-59.8034207537
 20
23.9017454779
 30
0.0
 10
-59.8038487764
 20
23.901752949
 30
0.0
 11
-59.8038487764
 21
23.6517910252
 31
0.0
 11
-59.8030838076
 21
23.7004460929
 31
0.0
 11
-59.8025118926
 21
23.7474297314
 31
0.0
 11
-59.8021610054
 21
23.7906558933
 31
0.0
 11
-59.8020424566
 21
23.8285138849
 31
0.0
 11
-59.8021610093
 21
23.8595800942
 31
0.0
 11
-59.8023078585
 21
23.872202441
 31
0.0
 11
-59.8025118985
 21
23.8827038835
 31
0.0
 11
-59.8027717153
 21
23.8909640962
 31
0.0
 11
-59.8030838121
 21
23.896922649
 31
0.0
 11
-59.8034441716
 21
23.9005340854
 31
0.0
 11
-59.8038487764
 21
23.901752949
 31
0.0
  0
SPLINE
  5
7CC
100
AcDbEntity
  8
ASSI
100
AcDbSpline
 62
253
  6
CONTINUOUS
 70
0
 71
3
 72
21
 73
17
 74
15
 42
0.0000001
 43
0.0000001
 44
0.0000000001
 12
0.3714473148
 22
0.0053893892
 32
0.0
 13
0.0062289285
 23
-0.3714341848
 33
0.0
 40
0.0
 40
0.0
 40
0.0
 40
0.0
 40
0.1958208531
 40
0.3839854258
 40
0.5568108921
 40
0.7080277301
 40
0.7737682865
 40
0.8320457573
 40
0.8822933045
 40
0.9240880115
 40
0.9570193241
 40
0.9807424857
 40
0.9890980064
 40
0.9950952129
 40
0.9987224257
 40
1.0
 40
1.0
 40
1.0
 40
1.0
 10
-59.8038487764
 20
-23.6517910252
 30
0.0
 10
-59.7796030664
 20
-23.6514392403
 30
0.0
 10
-59.7320590352
 20
-23.650789451
 30
0.0
 10
-59.6631146613
 20
-23.6499645586
 30
0.0
 10
-59.599691992
 20
-23.6493282131
 30
0.0
 10
-59.5514266201
 20
-23.6489571389
 30
0.0
 10
-59.5173456972
 20
-23.6487826687
 30
0.0
 10
-59.4957650918
 20
-23.6487159237
 30
0.0
 10
-59.4771559286
 20
-23.6487112697
 30
0.0
 10
-59.4616671205
 20
-23.6487555357
 30
0.0
 10
-59.4495119264
 20
-23.6488779804
 30
0.0
 10
-59.4413889442
 20
-23.6489849664
 30
0.0
 10
-59.4367763778
 20
-23.6491853271
 30
0.0
 10
-59.434387074
 20
-23.6492272233
 30
0.0
 10
-59.4333379507
 20
-23.649469841
 30
0.0
 10
-59.4324213284
 20
-23.6494372528
 30
0.0
 10
-59.4324186758
 20
-23.6495954311
 30
0.0
 11
-59.8038487764
 21
-23.6517910252
 31
0.0
 11
-59.731110775
 21
-23.6507975425
 31
0.0
 11
-59.661215148
 21
-23.6499652852
 31
0.0
 11
-59.5970159976
 21
-23.6493281312
 31
0.0
 11
-59.5408425587
 21
-23.6489092926
 31
0.0
 11
-59.5164211432
 21
-23.6487866809
 31
0.0
 11
-59.4947719458
 21
-23.6487238654
 31
0.0
 11
-59.4761056651
 21
-23.6487215735
 31
0.0
 11
-59.4605796073
 21
-23.6487794689
 31
0.0
 11
-59.448346638
 21
-23.648897127
 31
0.0
 11
-59.439535575
 21
-23.6490737038
 31
0.0
 11
-59.4364335543
 21
-23.6491834751
 31
0.0
 11
-59.4342091119
 21
-23.6493072028
 31
0.0
 11
-59.4328686762
 21
-23.6494446129
 31
0.0
 11
-59.4324186758
 21
-23.6495954311
 31
0.0
  0
SPLINE
  5
7CD
100
AcDbEntity
  8
ASSI
100
AcDbSpline
 62
7
  6
CONTINUOUS
 70
0
 71
3
 72
21
 73
17
 74
15
 42
0.0000001
 43
0.0000001
 44
0.0000000001
 12
-0.4993233323
 22
-0.026574891
 32
0.0
 13
-0.0
 23
-0.5000300141
 33
0.0
 40
0.0
 40
0.0
 40
0.0
 40
0.0
 40
0.0013706659
 40
0.0050557091
 40
0.0111101809
 40
0.0195275933
 40
0.0433925914
 40
0.0764939753
 40
0.1184819239
 40
0.1689260801
 40
0.2273866984
 40
0.2932927234
 40
0.4447336277
 40
0.6175244721
 40
0.805214679
 40
1.0
 40
1.0
 40
1.0
 40
1.0
 10
-65.4324212577
 20
22.3999998542
 30
0.0
 10
-65.4326493928
 20
22.3999877125
 30
0.0
 10
-65.4327602936
 20
22.3987963099
 30
0.0
 10
-65.4330593126
 20
22.3972905791
 30
0.0
 10
-65.4332235771
 20
22.394086348
 30
0.0
 10
-65.4335370819
 20
22.3878134771
 30
0.0
 10
-65.4337648629
 20
22.376835704
 30
0.0
 10
-65.4339696619
 20
22.3603825154
 30
0.0
 10
-65.4340707337
 20
22.339444165
 30
0.0
 10
-65.4340967131
 20
22.3142991413
 30
0.0
 10
-65.4340459146
 20
22.2851605164
 30
0.0
 10
-65.4338807076
 20
22.2391908303
 30
0.0
 10
-65.43350085
 20
22.1741646027
 30
0.0
 10
-65.4329087602
 20
22.0888413619
 30
0.0
 10
-65.4325021934
 20
21.9962921078
 30
0.0
 10
-65.4324185567
 20
21.9325423214
 30
0.0
 10
-65.4324185567
 20
21.9000761524
 30
0.0
 11
-65.4324212577
 21
22.3999998542
 31
0.0
 11
-65.4327113759
 21
22.3993789122
 31
0.0
 11
-65.4329706303
 21
22.3975546094
 31
0.0
 11
-65.4331999978
 21
22.3945358931
 31
0.0
 11
-65.4334004553
 21
22.3903317105
 31
0.0
 11
-65.4337185475
 21
22.3784027355
 31
0.0
 11
-65.4339328185
 21
22.361852437
 31
0.0
 11
-65.4340518525
 21
22.3408575399
 31
0.0
 11
-65.4340845202
 21
22.3156339689
 31
0.0
 11
-65.4340396031
 21
22.2864019396
 31
0.0
 11
-65.4339244551
 21
22.2534471502
 31
0.0
 11
-65.4335086964
 21
22.177723294
 31
0.0
 11
-65.4329611436
 21
22.0913244207
 31
0.0
 11
-65.4325546867
 21
21.9974745641
 31
0.0
 11
-65.4324185567
 21
21.9000761524
 31
0.0
  0
SPLINE
  5
7CE
100
AcDbEntity
  8
ASSI
100
AcDbSpline
 62
253
  6
CONTINUOUS
 70
0
 71
3
 72
18
 73
14
 74
12
 42
0.0000001
 43
0.0000001
 44
0.0000000001
 12
0.0034904191
 22
-0.2000268907
 32
0.0
 13
-0.2000268721
 23
-0.003491482
 33
0.0
 40
0.0
 40
0.0
 40
0.0
 40
0.0
 40
0.1945885314
 40
0.3824831333
 40
0.5553439148
 40
0.7067332193
 40
0.8309633457
 40
0.8814416784
 40
0.9234433349
 40
0.9564910517
 40
0.9803510941
 40
0.9948644166
 40
1.0
 40
1.0
 40
1.0
 40
1.0
 10
-64.6780554551
 20
-24.2868630041
 30
0.0
 10
-64.6778290566
 20
-24.299837317
 30
0.0
 10
-64.6774277767
 20
-24.3253405743
 30
0.0
 10
-64.676972649
 20
-24.3623706771
 30
0.0
 10
-64.6766870296
 20
-24.3965246794
 30
0.0
 10
-64.6765838282
 20
-24.4264248554
 30
0.0
 10
-64.6766375101
 20
-24.4481882747
 30
0.0
 10
-64.6768095642
 20
-24.4626117004
 30
0.0
 10
-64.6769385086
 20
-24.471040438
 30
0.0
 10
-64.677201045
 20
-24.4774783102
 30
0.0
 10
-64.6772729253
 20
-24.4825927028
 30
0.0
 10
-64.6777893216
 20
-24.4848469772
 30
0.0
 10
-64.6777130369
 20
-24.4868265662
 30
0.0
 10
-64.6780554551
 20
-24.4868325431
 30
0.0
 11
-64.6780554551
 21
-24.2868630041
 31
0.0
 11
-64.6774434837
 21
-24.3257870579
 31
0.0
 11
-64.6769859533
 21
-24.363373968
 31
0.0
 11
-64.6767052427
 21
-24.3979548971
 31
0.0
 11
-64.6766104019
 21
-24.4282412904
 31
0.0
 11
-64.6767052427
 21
-24.4530942583
 31
0.0
 11
-64.6768227217
 21
-24.463192136
 31
0.0
 11
-64.6769859533
 21
-24.4715932902
 31
0.0
 11
-64.6771938065
 21
-24.4782014605
 31
0.0
 11
-64.6774434837
 21
-24.4829683028
 31
0.0
 11
-64.6777317712
 21
-24.4858574521
 31
0.0
 11
-64.6780554551
 21
-24.4868325431
 31
0.0
  0
SPLINE
  5
7CF
100
AcDbEntity
  8
ASSI
100
AcDbSpline
 62
253
  6
CONTINUOUS
 70
0
 71
3
 72
18
 73
14
 74
12
 42
0.0000001
 43
0.0000001
 44
0.0000000001
 12
0.0991493105
 22
0.1717839679
 32
0.0
 13
-0.1717708883
 23
0.0991719686
 33
0.0
 40
0.0
 40
0.0
 40
0.0
 40
0.0
 40
0.1950655215
 40
0.3831706145
 40
0.5560505005
 40
0.7073358561
 40
0.8314028107
 40
0.8817940763
 40
0.9237132052
 40
0.9566878947
 40
0.9804856123
 40
0.9949442541
 40
1.0
 40
1.0
 40
1.0
 40
1.0
 10
-64.6539280754
 20
-23.8010362971
 30
0.0
 10
-64.6474812048
 20
-23.7898665874
 30
0.0
 10
-64.6348497782
 20
-23.767906883
 30
0.0
 10
-64.6166148085
 20
-23.7359857366
 30
0.0
 10
-64.5999137716
 20
-23.7065184152
 30
0.0
 10
-64.5854161746
 20
-23.6806802175
 30
0.0
 10
-64.5749631149
 20
-23.6618302818
 30
0.0
 10
-64.5681466329
 20
-23.6492846699
 30
0.0
 10
-64.5641754549
 20
-23.6419465916
 30
0.0
 10
-64.5612946298
 20
-23.6362675617
 30
0.0
 10
-64.5588363055
 20
-23.6318305825
 30
0.0
 10
-64.5582296051
 20
-23.62964792
 30
0.0
 10
-64.55712908
 20
-23.6279983458
 30
0.0
 10
-64.5574185567
 20
-23.6278312164
 30
0.0
 11
-64.6539280754
 21
-23.8010362971
 31
0.0
 11
-64.6346373856
 21
-23.7674984036
 31
0.0
 11
-64.6161343105
 21
-23.7351003272
 31
0.0
 11
-64.5992335389
 21
-23.7052650144
 31
0.0
 11
-64.5845569451
 21
-23.6790927081
 31
0.0
 11
-64.5726506731
 21
-23.6575569048
 31
0.0
 11
-64.5678743903
 21
-23.6487772016
 31
0.0
 11
-64.5639507614
 21
-23.6414468218
 31
0.0
 11
-64.5609248271
 21
-23.6356485777
 31
0.0
 11
-64.5588175333
 21
-23.6314249574
 31
0.0
 11
-64.5576438023
 21
-23.6288083679
 31
0.0
 11
-64.5574185567
 21
-23.6278312164
 31
0.0
  0
SPLINE
  5
7D0
100
AcDbEntity
  8
ASSI
100
AcDbSpline
 62
7
  6
CONTINUOUS
 70
0
 71
3
 72
21
 73
17
 74
15
 42
0.0000001
 43
0.0000001
 44
0.0000000001
 12
-0.4993991576
 22
0.0265778679
 32
0.0
 13
0.0
 23
0.5001058905
 33
0.0
 40
0.0
 40
0.0
 40
0.0
 40
0.0
 40
0.0013704397
 40
0.0050554296
 40
0.0111099771
 40
0.0195275861
 40
0.0433933362
 40
0.0764959336
 40
0.1184854348
 40
0.1689313225
 40
0.227393711
 40
0.2933013958
 40
0.4447444245
 40
0.6175349462
 40
0.8052222556
 40
1.0
 40
1.0
 40
1.0
 40
1.0
 10
-65.4324249542
 20
-22.3999996605
 30
0.0
 10
-65.4326530864
 20
-22.3999875194
 30
0.0
 10
-65.4327635061
 20
-22.3987957602
 30
0.0
 10
-65.4330622291
 20
-22.3972899465
 30
0.0
 10
-65.4332257386
 20
-22.3940850454
 30
0.0
 10
-65.4335382175
 20
-22.3878110658
 30
0.0
 10
-65.4337648085
 20
-22.3768311993
 30
0.0
 10
-65.4339691787
 20
-22.3603749461
 30
0.0
 10
-65.4340703388
 20
-22.3394326613
 30
0.0
 10
-65.4340966392
 20
-22.3142829826
 30
0.0
 10
-65.4340459943
 20
-22.2851390742
 30
0.0
 10
-65.43388069
 20
-22.2391614871
 30
0.0
 10
-65.4335005244
 20
-22.1741248165
 30
0.0
 10
-65.4329083825
 20
-22.0887888109
 30
0.0
 10
-65.4325020614
 20
-21.9962273113
 30
0.0
 10
-65.4324185567
 20
-21.9324695973
 30
0.0
 10
-65.4324185567
 20
-21.8999997649
 30
0.0
 11
-65.4324249542
 21
-22.3999996605
 31
0.0
 11
-65.4327148268
 21
-22.3993786137
 31
0.0
 11
-65.4329735845
 21
-22.397553985
 31
0.0
 11
-65.433202294
 21
-22.3945347201
 31
0.0
 11
-65.4334020219
 21
-22.390329765
 31
0.0
 11
-65.4337187993
 21
-22.3783985673
 31
0.0
 11
-65.4339324472
 21
-22.361845142
 31
0.0
 11
-65.4340514789
 21
-22.3408462825
 31
0.0
 11
-65.4340844001
 21
-22.3156180183
 31
0.0
 11
-65.4340396422
 21
-22.2863806678
 31
0.0
 11
-65.4339244579
 21
-22.2534200476
 31
0.0
 11
-65.4335084326
 21
-22.1776836395
 31
0.0
 11
-65.4329608088
 21
-22.091271817
 31
0.0
 11
-65.4325545399
 21
-21.9974091673
 31
0.0
 11
-65.4324185567
 21
-21.8999997649
 31
0.0
  0
LINE
  5
7D1
100
AcDbEntity
  8
ASSI
100
AcDbLine
 62
7
  6
CONTINUOUS
 10
-65.4324185567
 20
24.5
 11
-65.4324185567
 21
24.300030461
  0
SPLINE
  5
7D2
100
AcDbEntity
  8
ASSI
100
AcDbSpline
 62
253
  6
CONTINUOUS
 70
0
 71
3
 72
18
 73
14
 74
12
 42
0.0000001
 43
0.0000001
 44
0.0000000001
 12
0.0034904189
 22
0.2000268907
 32
0.0
 13
-0.2000268721
 23
0.003491482
 33
0.0
 40
0.0
 40
0.0
 40
0.0
 40
0.0
 40
0.1945885329
 40
0.3824831386
 40
0.5553439222
 40
0.7067332262
 40
0.8309633503
 40
0.8814416816
 40
0.9234433374
 40
0.9564910536
 40
0.9803510952
 40
0.9948644169
 40
1.0
 40
1.0
 40
1.0
 40
1.0
 10
-64.6780554551
 20
24.286863004
 30
0.0
 10
-64.6778290566
 20
24.2998373171
 30
0.0
 10
-64.6774277768
 20
24.3253405748
 30
0.0
 10
-64.676972649
 20
24.362370678
 30
0.0
 10
-64.6766870296
 20
24.3965246807
 30
0.0
 10
-64.6765838283
 20
24.4264248567
 30
0.0
 10
-64.6766375102
 20
24.4481882757
 30
0.0
 10
-64.6768095643
 20
24.462611701
 30
0.0
 10
-64.6769385086
 20
24.4710404385
 30
0.0
 10
-64.6772010451
 20
24.4774783106
 30
0.0
 10
-64.6772729253
 20
24.482592703
 30
0.0
 10
-64.6777893216
 20
24.4848469774
 30
0.0
 10
-64.6777130369
 20
24.4868265661
 30
0.0
 10
-64.6780554551
 20
24.4868325431
 30
0.0
 11
-64.6780554551
 21
24.286863004
 31
0.0
 11
-64.6774434838
 21
24.3257870582
 31
0.0
 11
-64.6769859534
 21
24.363373969
 31
0.0
 11
-64.6767052428
 21
24.3979548986
 31
0.0
 11
-64.676610402
 21
24.4282412918
 31
0.0
 11
-64.6767052428
 21
24.4530942593
 31
0.0
 11
-64.6768227217
 21
24.4631921367
 31
0.0
 11
-64.6769859534
 21
24.4715932907
 31
0.0
 11
-64.6771938065
 21
24.4782014608
 31
0.0
 11
-64.6774434838
 21
24.482968303
 31
0.0
 11
-64.6777317713
 21
24.4858574521
 31
0.0
 11
-64.6780554551
 21
24.4868325431
 31
0.0
  0
SPLINE
  5
7D3
100
AcDbEntity
  8
ASSI
100
AcDbSpline
 62
253
  6
CONTINUOUS
 70
0
 71
3
 72
18
 73
14
 74
12
 42
0.0000001
 43
0.0000001
 44
0.0000000001
 12
0.0991495294
 22
-0.1717838506
 32
0.0
 13
-0.171770895
 23
-0.0991719725
 33
0.0
 40
0.0
 40
0.0
 40
0.0
 40
0.0
 40
0.1950655165
 40
0.383170609
 40
0.5560504914
 40
0.7073358397
 40
0.8314027862
 40
0.8817940482
 40
0.9237131757
 40
0.9566878654
 40
0.9804855845
 40
0.9949442316
 40
1.0
 40
1.0
 40
1.0
 40
1.0
 10
-64.6539280754
 20
23.8010362971
 30
0.0
 10
-64.6474811907
 20
23.7898665953
 30
0.0
 10
-64.6348497401
 20
23.767906904
 30
0.0
 10
-64.6166147452
 20
23.7359857709
 30
0.0
 10
-64.5999136945
 20
23.7065184567
 30
0.0
 10
-64.5854160951
 20
23.6806802604
 30
0.0
 10
-64.5749630444
 20
23.6618303204
 30
0.0
 10
-64.5681465733
 20
23.6492847025
 30
0.0
 10
-64.5641754068
 20
23.6419466188
 30
0.0
 10
-64.5612945862
 20
23.6362675841
 30
0.0
 10
-64.5588362849
 20
23.6318305973
 30
0.0
 10
-64.5582295722
 20
23.6296479309
 30
0.0
 10
-64.5571290786
 20
23.6279983466
 30
0.0
 10
-64.5574185566
 20
23.6278312164
 30
0.0
 11
-64.6539280754
 21
23.8010362971
 31
0.0
 11
-64.6346373489
 21
23.7674984241
 31
0.0
 11
-64.6161342482
 21
23.7351003607
 31
0.0
 11
-64.5992334631
 21
23.7052650549
 31
0.0
 11
-64.5845568681
 21
23.6790927495
 31
0.0
 11
-64.5726506067
 21
23.6575569411
 31
0.0
 11
-64.5678743323
 21
23.6487772336
 31
0.0
 11
-64.5639507131
 21
23.6414468486
 31
0.0
 11
-64.5609247893
 21
23.6356485987
 31
0.0
 11
-64.5588175069
 21
23.6314249721
 31
0.0
 11
-64.5576437885
 21
23.6288083758
 31
0.0
 11
-64.5574185566
 21
23.6278312164
 31
0.0
  0
SPLINE
  5
7D4
100
AcDbEntity
  8
ASSI
100
AcDbSpline
 62
253
  6
CONTINUOUS
 70
0
 71
3
 72
18
 73
14
 74
12
 42
0.0000001
 43
0.0000001
 44
0.0000000001
 12
-0.0034904191
 22
0.2000268907
 32
0.0
 13
0.2000268721
 23
0.003491482
 33
0.0
 40
0.0
 40
0.0
 40
0.0
 40
0.0
 40
0.1945885314
 40
0.3824831333
 40
0.5553439148
 40
0.7067332193
 40
0.8309633457
 40
0.8814416784
 40
0.9234433349
 40
0.9564910517
 40
0.9803510941
 40
0.9948644166
 40
1.0
 40
1.0
 40
1.0
 40
1.0
 10
-67.6867816583
 20
24.2606804067
 30
0.0
 10
-67.6870080568
 20
24.2736547196
 30
0.0
 10
-67.6874093367
 20
24.299157977
 30
0.0
 10
-67.6878644644
 20
24.3361880797
 30
0.0
 10
-67.6881500838
 20
24.370342082
 30
0.0
 10
-67.6882532852
 20
24.400242258
 30
0.0
 10
-67.6881996033
 20
24.4220056773
 30
0.0
 10
-67.6880275492
 20
24.436429103
 30
0.0
 10
-67.6878986048
 20
24.4448578406
 30
0.0
 10
-67.6876360684
 20
24.4512957128
 30
0.0
 10
-67.6875641881
 20
24.4564101054
 30
0.0
 10
-67.6870477918
 20
24.4586643799
 30
0.0
 10
-67.6871240765
 20
24.4606439688
 30
0.0
 10
-67.6867816583
 20
24.4606499457
 30
0.0
 11
-67.6867816583
 21
24.2606804067
 31
0.0
 11
-67.6873936297
 21
24.2996044605
 31
0.0
 11
-67.6878511601
 21
24.3371913706
 31
0.0
 11
-67.6881318707
 21
24.3717722997
 31
0.0
 11
-67.6882267115
 21
24.402058693
 31
0.0
 11
-67.6881318707
 21
24.4269116609
 31
0.0
 11
-67.6880143917
 21
24.4370095386
 31
0.0
 11
-67.6878511601
 21
24.4454106928
 31
0.0
 11
-67.6876433069
 21
24.4520188631
 31
0.0
 11
-67.6873936297
 21
24.4567857054
 31
0.0
 11
-67.6871053422
 21
24.4596748547
 31
0.0
 11
-67.6867816583
 21
24.4606499457
 31
0.0
  0
SPLINE
  5
7D5
100
AcDbEntity
  8
ASSI
100
AcDbSpline
 62
7
  6
CONTINUOUS
 70
0
 71
3
 72
13
 73
9
 74
7
 42
0.0000001
 43
0.0000001
 44
0.0000000001
 12
-0.236060454
 22
-0.1075404758
 32
0.0
 13
-0.2246488791
 23
0.1297010908
 33
0.0
 40
0.0
 40
0.0
 40
0.0
 40
0.0
 40
0.3376350271
 40
0.6419204642
 40
0.7700441436
 40
0.875061718
 40
0.9520696691
 40
1.0
 40
1.0
 40
1.0
 40
1.0
 10
-66.6867816583
 20
23.2097560788
 30
0.0
 10
-66.7133490842
 20
23.1976529349
 30
0.0
 10
-66.7638247718
 20
23.174602179
 30
0.0
 10
-66.8248193717
 20
23.1477591479
 30
0.0
 10
-66.8680131876
 20
23.1307783849
 30
0.0
 10
-66.8936064579
 20
23.1222302901
 30
0.0
 10
-66.9126917295
 20
23.117818407
 30
0.0
 10
-66.9242814616
 20
23.1179517767
 30
0.0
 10
-66.9278706266
 20
23.1200239821
 30
0.0
 11
-66.6867816583
 21
23.2097560788
 31
0.0
 11
-66.7665495807
 21
23.1735910893
 31
0.0
 11
-66.8390218908
 21
23.142316927
 31
0.0
 11
-66.8700214804
 21
23.1303324359
 31
0.0
 11
-66.8959466395
 21
23.1219657681
 31
0.0
 11
-66.9155686914
 21
23.1182218562
 31
0.0
 11
-66.9278706266
 21
23.1200239821
 31
0.0
  0
SPLINE
  5
7D6
100
AcDbEntity
  8
ASSI
100
AcDbSpline
 62
253
  6
CONTINUOUS
 70
0
 71
3
 72
18
 73
14
 74
12
 42
0.0000001
 43
0.0000001
 44
0.0000000001
 12
-0.0991493105
 22
-0.1717839679
 32
0.0
 13
0.1717708882
 23
-0.0991719686
 33
0.0
 40
0.0
 40
0.0
 40
0.0
 40
0.0
 40
0.1950655215
 40
0.3831706145
 40
0.5560505005
 40
0.7073358561
 40
0.8314028107
 40
0.8817940763
 40
0.9237132052
 40
0.9566878947
 40
0.9804856123
 40
0.9949442541
 40
1.0
 40
1.0
 40
1.0
 40
1.0
 10
-67.710909038
 20
23.8010362971
 30
0.0
 10
-67.7173559086
 20
23.7898665873
 30
0.0
 10
-67.7299873352
 20
23.767906883
 30
0.0
 10
-67.7482223049
 20
23.7359857366
 30
0.0
 10
-67.7649233418
 20
23.7065184152
 30
0.0
 10
-67.7794209388
 20
23.6806802175
 30
0.0
 10
-67.7898739986
 20
23.6618302818
 30
0.0
 10
-67.7966904805
 20
23.6492846699
 30
0.0
 10
-67.8006616585
 20
23.6419465916
 30
0.0
 10
-67.8035424836
 20
23.6362675617
 30
0.0
 10
-67.8060008079
 20
23.6318305825
 30
0.0
 10
-67.8066075083
 20
23.62964792
 30
0.0
 10
-67.8077080334
 20
23.6279983458
 30
0.0
 10
-67.8074185567
 20
23.6278312163
 30
0.0
 11
-67.710909038
 21
23.8010362971
 31
0.0
 11
-67.7301997278
 21
23.7674984036
 31
0.0
 11
-67.7487028029
 21
23.7351003272
 31
0.0
 11
-67.7656035745
 21
23.7052650144
 31
0.0
 11
-67.7802801683
 21
23.6790927081
 31
0.0
 11
-67.7921864403
 21
23.6575569048
 31
0.0
 11
-67.7969627231
 21
23.6487772016
 31
0.0
 11
-67.800886352
 21
23.6414468218
 31
0.0
 11
-67.8039122863
 21
23.6356485777
 31
0.0
 11
-67.8060195801
 21
23.6314249574
 31
0.0
 11
-67.8071933111
 21
23.6288083679
 31
0.0
 11
-67.8074185567
 21
23.6278312163
 31
0.0
  0
LINE
  5
7D7
100
AcDbEntity
  8
ASSI
100
AcDbLine
 62
7
  6
CONTINUOUS
 10
-66.7601688414
 20
-22.3304155561
 11
-66.6867816583
 21
-22.3341525772
  0
LINE
  5
7D8
100
AcDbEntity
  8
ASSI
100
AcDbLine
 62
253
  6
CONTINUOUS
 10
-73.7372350223
 20
20.8772674161
 11
-74.0875925771
 21
20.8701690321
  0
LINE
  5
7D9
100
AcDbEntity
  8
RACCORDO
100
AcDbLine
 62
253
  6
CONTINUOUS
 10
-74.541631247
 20
8.5225283765
 11
-74.5398119731
 21
8.4830483046
  0
LINE
  5
7DA
100
AcDbEntity
  8
RACCORDO
100
AcDbLine
 62
253
  6
CONTINUOUS
 10
-74.5398119731
 20
8.4830483046
 11
-74.5377184698
 21
8.4373962015
  0
SPLINE
  5
7DB
100
AcDbEntity
  8
RACCORDO
100
AcDbSpline
 62
253
  6
CONTINUOUS
 70
0
 71
3
 72
13
 73
9
 74
7
 42
0.0000001
 43
0.0000001
 44
0.0000000001
 12
0.771906482
 22
-16.8635777476
 32
0.0
 13
-0.771909912
 23
-16.8635775906
 33
0.0
 40
0.0
 40
0.0
 40
0.0
 40
0.0
 40
0.1690444063
 40
0.323365583
 40
0.500034164
 40
0.6766978269
 40
0.8310045561
 40
1.0
 40
1.0
 40
1.0
 40
1.0
 10
-74.5377184698
 20
8.4373962015
 30
0.0
 10
-74.4942229789
 20
7.4871650386
 30
0.0
 10
-74.4220737654
 20
5.6689249599
 30
0.0
 10
-74.3508745718
 20
2.8560019451
 30
0.0
 10
-74.3250751836
 20
-0.0006431967
 30
0.0
 10
-74.3508962329
 20
-2.8572068175
 30
0.0
 10
-74.4221032362
 20
-5.669744994
 30
0.0
 10
-74.4942439448
 20
-7.4876282499
 30
0.0
 10
-74.5377270308
 20
-8.4375841766
 30
0.0
 11
-74.5377184698
 21
8.4373962015
 31
0.0
 11
-74.4259229694
 21
5.5859085456
 31
0.0
 11
-74.3606449775
 21
2.9815944793
 31
0.0
 11
-74.3340574066
 21
-0.0006708321
 31
0.0
 11
-74.3606672816
 21
-2.9828529202
 31
0.0
 11
-74.4259555941
 21
-5.5869227587
 31
0.0
 11
-74.5377270308
 21
-8.4375841766
 31
0.0
  0
LINE
  5
7DC
100
AcDbEntity
  8
RACCORDO
100
AcDbLine
 62
253
  6
CONTINUOUS
 10
-74.5377270308
 20
-8.4375841766
 11
-74.5411886126
 21
-8.5129509745
  0
LINE
  5
7DD
100
AcDbEntity
  8
RACCORDO
100
AcDbLine
 62
253
  6
CONTINUOUS
 10
-74.5411886126
 20
-8.5129509745
 11
-74.5416312475
 21
-8.5225283848
  0
LINE
  5
7DE
100
AcDbEntity
  8
ASSI
100
AcDbLine
 62
253
  6
CONTINUOUS
 10
-74.087592577
 20
-20.8701690322
 11
-73.7372350223
 21
-20.8772674171
  0
SPLINE
  5
7DF
100
AcDbEntity
  8
RACCORDO
100
AcDbSpline
 62
253
  6
CONTINUOUS
 70
0
 71
3
 72
18
 73
14
 74
12
 42
0.0000001
 43
0.0000001
 44
0.0000000001
 12
0.0017455417
 22
0.200080209
 32
0.0
 13
-0.2000802044
 23
0.0017460747
 33
0.0
 40
0.0
 40
0.0
 40
0.0
 40
0.0
 40
0.1945803684
 40
0.3824716061
 40
0.5553324365
 40
0.7067239399
 40
0.8309572273
 40
0.8814371812
 40
0.9234403221
 40
0.956489279
 40
0.9803502635
 40
0.9948641878
 40
1.0
 40
1.0
 40
1.0
 40
1.0
 10
-54.1289280754
 20
-21.18553092
 30
0.0
 10
-54.1288148594
 20
-21.1725536931
 30
0.0
 10
-54.1286360702
 20
-21.1470447881
 30
0.0
 10
-54.1285040224
 20
-21.110007247
 30
0.0
 10
-54.1285164186
 20
-21.0758469232
 30
0.0
 10
-54.1286741461
 20
-21.0459420686
 30
0.0
 10
-54.1289177775
 20
-21.0241761648
 30
0.0
 10
-54.1292157432
 20
-21.0097521751
 30
0.0
 10
-54.1294182756
 20
-21.0013233082
 30
0.0
 10
-54.1297370442
 20
-20.9948867523
 30
0.0
 10
-54.1298535826
 20
-20.9897722054
 30
0.0
 10
-54.1303897333
 20
-20.987522086
 30
0.0
 10
-54.1303307248
 20
-20.9855415246
 30
0.0
 10
-54.1306732496
 20
-20.9855385354
 30
0.0
 11
-54.1289280754
 21
-21.18553092
 31
0.0
 11
-54.1286556793
 21
-21.1465987106
 31
0.0
 11
-54.1285260863
 21
-21.1090041853
 31
0.0
 11
-54.128547117
 21
-21.0744168444
 31
0.0
 11
-54.1287165771
 21
-21.044125722
 31
0.0
 11
-54.1290283385
 21
-21.0192701091
 31
0.0
 11
-54.129233969
 21
-21.0091717784
 31
0.0
 11
-54.1294705528
 21
-21.000770792
 31
0.0
 11
-54.1297361181
 21
-20.9941634329
 31
0.0
 11
-54.1300274443
 21
-20.989398037
 31
0.0
 11
-54.130340999
 21
-20.9865109546
 31
0.0
 11
-54.1306732496
 21
-20.9855385354
 31
0.0
  0
SPLINE
  5
7E0
100
AcDbEntity
  8
ASSI
100
AcDbSpline
 62
253
  6
CONTINUOUS
 70
0
 71
3
 72
18
 73
14
 74
12
 42
0.0000001
 43
0.0000001
 44
0.0000000001
 12
-0.2000268721
 22
0.003491482
 32
0.0
 13
0.0034904184
 23
0.2000268907
 33
0.0
 40
0.0
 40
0.0
 40
0.0
 40
0.0
 40
0.0051355832
 40
0.0196489053
 40
0.0435089474
 40
0.0765566639
 40
0.1185583201
 40
0.1690366522
 40
0.2932667776
 40
0.4446560819
 40
0.6175168643
 40
0.8054114679
 40
1.0
 40
1.0
 40
1.0
 40
1.0
 10
-67.6867816583
 20
-24.4606499457
 30
0.0
 10
-67.6871240765
 20
-24.4606439688
 30
0.0
 10
-67.6870477917
 20
-24.4586643799
 30
0.0
 10
-67.687564188
 20
-24.4564101055
 30
0.0
 10
-67.6876360682
 20
-24.451295713
 30
0.0
 10
-67.6878986046
 20
-24.4448578409
 30
0.0
 10
-67.688027549
 20
-24.4364291033
 30
0.0
 10
-67.6881996031
 20
-24.4220056777
 30
0.0
 10
-67.6882532849
 20
-24.4002422586
 30
0.0
 10
-67.6881500836
 20
-24.3703420826
 30
0.0
 10
-67.6878644642
 20
-24.3361880801
 30
0.0
 10
-67.6874093365
 20
-24.2991579772
 30
0.0
 10
-67.6870080568
 20
-24.2736547197
 30
0.0
 10
-67.6867816583
 20
-24.2606804067
 30
0.0
 11
-67.6867816583
 21
-24.4606499457
 31
0.0
 11
-67.6871053421
 21
-24.4596748547
 31
0.0
 11
-67.6873936296
 21
-24.4567857055
 31
0.0
 11
-67.6876433068
 21
-24.4520188632
 31
0.0
 11
-67.6878511599
 21
-24.445410693
 31
0.0
 11
-67.6880143915
 21
-24.4370095389
 31
0.0
 11
-67.6881318704
 21
-24.4269116614
 31
0.0
 11
-67.6882267112
 21
-24.4020586937
 31
0.0
 11
-67.6881318704
 21
-24.3717723004
 31
0.0
 11
-67.6878511599
 21
-24.337191371
 31
0.0
 11
-67.6873936295
 21
-24.2996044607
 31
0.0
 11
-67.6867816583
 21
-24.2606804067
 31
0.0
  0
LINE
  5
7E1
100
AcDbEntity
  8
ASSI
100
AcDbLine
 62
7
  6
CONTINUOUS
 10
-66.6867816583
 20
22.3341525772
 11
-66.7601688414
 21
22.3304155561
  0
SPLINE
  5
7E2
100
AcDbEntity
  8
RACCORDO
100
AcDbSpline
 62
7
  6
CONTINUOUS
 70
0
 71
3
 72
11
 73
7
 74
5
 42
0.0000001
 43
0.0000001
 44
0.0000000001
 12
0.1268279843
 22
0.2598437631
 32
0.0
 13
-0.2891399809
 23
0.0014799402
 33
0.0
 40
0.0
 40
0.0
 40
0.0
 40
0.0
 40
0.2251280482
 40
0.4477100654
 40
0.700076933
 40
1.0
 40
1.0
 40
1.0
 40
1.0
 10
-54.0337402514
 20
-21.6551770363
 30
0.0
 10
-54.0242227392
 20
-21.6356776633
 30
0.0
 10
-54.0112908159
 20
-21.5930904792
 30
0.0
 10
-54.0249816881
 20
-21.523430608
 30
0.0
 10
-54.0824338114
 20
-21.4686782655
 30
0.0
 10
-54.1371979099
 20
-21.4577572407
 30
0.0
 10
-54.1661044932
 20
-21.4576092846
 30
0.0
 11
-54.0337402514
 21
-21.6551770363
 31
0.0
 11
-54.0167009783
 21
-21.592352356
 31
0.0
 11
-54.0300933561
 21
-21.5294029911
 31
0.0
 11
-54.0817923961
 21
-21.4779066321
 31
0.0
 11
-54.1661044932
 21
-21.4576092846
 31
0.0
  0
SPLINE
  5
7E3
100
AcDbEntity
  8
RACCORDO
100
AcDbSpline
 62
7
  6
CONTINUOUS
 70
0
 71
3
 72
11
 73
7
 74
5
 42
0.0000001
 43
0.0000001
 44
0.0000000001
 12
0.2891394436
 22
0.0014811324
 32
0.0
 13
-0.1268307097
 23
0.2598418416
 33
0.0
 40
0.0
 40
0.0
 40
0.0
 40
0.0
 40
0.2998763891
 40
0.5523034723
 40
0.7748772366
 40
1.0
 40
1.0
 40
1.0
 40
1.0
 10
-54.1661044932
 20
21.4576092846
 30
0.0
 10
-54.1372024625
 20
21.4577573368
 30
0.0
 10
-54.0824388267
 20
21.4686775605
 30
0.0
 10
-54.0249801391
 20
21.5234267445
 30
0.0
 10
-54.0112901012
 20
21.5930917181
 30
0.0
 10
-54.0242224154
 20
21.6356771644
 30
0.0
 10
-54.0337399087
 20
21.6551759355
 30
0.0
 11
-54.1661044932
 21
21.4576092846
 31
0.0
 11
-54.0818049689
 21
21.4779005119
 31
0.0
 11
-54.0300905886
 21
21.5294059512
 31
0.0
 11
-54.016699997
 21
21.5923531355
 31
0.0
 11
-54.0337399087
 21
21.6551759355
 31
0.0
  0
SPLINE
  5
7E4
100
AcDbEntity
  8
RACCORDO
100
AcDbSpline
 62
253
  6
CONTINUOUS
 70
0
 71
3
 72
18
 73
14
 74
12
 42
0.0000001
 43
0.0000001
 44
0.0000000001
 12
0.1997322047
 22
0.0108028107
 32
0.0
 13
-0.0017473008
 23
0.2000165024
 33
0.0
 40
0.0
 40
0.0
 40
0.0
 40
0.0
 40
0.0049553997
 40
0.0194470671
 40
0.0433626642
 40
0.0764798816
 40
0.1184546421
 40
0.168920778
 40
0.2932756312
 40
0.4447773108
 40
0.6175363245
 40
0.8051047855
 40
1.0
 40
1.0
 40
1.0
 40
1.0
 10
-54.1306720095
 20
-20.9855384478
 30
0.0
 10
-54.1303420919
 20
-20.9855206037
 30
0.0
 10
-54.1307599965
 20
-20.9835061069
 30
0.0
 10
-54.1301397516
 20
-20.9813027908
 30
0.0
 10
-54.1303089054
 20
-20.9761494763
 30
0.0
 10
-54.1300892754
 20
-20.9697167508
 30
0.0
 10
-54.1300583961
 20
-20.9612817342
 30
0.0
 10
-54.1299568877
 20
-20.9468565478
 30
0.0
 10
-54.1299402034
 20
-20.9250805432
 30
0.0
 10
-54.1299879086
 20
-20.8951767982
 30
0.0
 10
-54.1301326817
 20
-20.8610485284
 30
0.0
 10
-54.1303591544
 20
-20.8240306624
 30
0.0
 10
-54.1305597962
 20
-20.7985305992
 30
0.0
 10
-54.1306733097
 20
-20.7855365128
 30
0.0
 11
-54.1306720095
 21
-20.9855384478
 31
0.0
 11
-54.1305098722
 21
-20.9845605991
 31
0.0
 11
-54.1303656913
 21
-20.9816655039
 31
0.0
 11
-54.13024118
 21
-20.9768834279
 31
0.0
 11
-54.1301377317
 21
-20.970259993
 31
0.0
 11
-54.1300562478
 21
-20.9618644233
 31
0.0
 11
-54.1299975603
 21
-20.9517701487
 31
0.0
 11
-54.1299504188
 21
-20.9268962216
 31
0.0
 11
-54.1299981428
 21
-20.8965922668
 31
0.0
 11
-54.1301388498
 21
-20.8620365811
 31
0.0
 11
-54.1303669016
 21
-20.8245190552
 31
0.0
 11
-54.1306733097
 21
-20.7855365128
 31
0.0
  0
SPLINE
  5
7E5
100
AcDbEntity
  8
RACCORDO
100
AcDbSpline
 62
253
  6
CONTINUOUS
 70
0
 71
3
 72
18
 73
14
 74
12
 42
0.0000001
 43
0.0000001
 44
0.0000000001
 12
0.2928752066
 22
0.0051121557
 32
0.0
 13
-0.0029943967
 23
0.2929045141
 33
0.0
 40
0.0
 40
0.0
 40
0.0
 40
0.0
 40
0.0043029655
 40
0.0167129437
 40
0.0372630548
 40
0.0659091044
 40
0.1025980246
 40
0.1472702109
 40
0.2600998298
 40
0.4033098797
 40
0.575714323
 40
0.7754032742
 40
1.0
 40
1.0
 40
1.0
 40
1.0
 10
-25.9149661503
 20
-19.121932718
 30
0.0
 10
-25.914546073
 20
-19.1219253855
 30
0.0
 10
-25.9147855454
 20
-19.1194169542
 30
0.0
 10
-25.9141083219
 20
-19.1166255985
 30
0.0
 10
-25.9141319626
 20
-19.1101402682
 30
0.0
 10
-25.9138328679
 20
-19.1019647085
 30
0.0
 10
-25.9137239007
 20
-19.0911443466
 30
0.0
 10
-25.9135481049
 20
-19.0722221136
 30
0.0
 10
-25.9135055539
 20
-19.0428358191
 30
0.0
 10
-25.9136055341
 20
-19.0010132348
 30
0.0
 10
-25.9138904256
 20
-18.9506960096
 30
0.0
 10
-25.9143460623
 20
-18.892438259
 30
0.0
 10
-25.914741973
 20
-18.8510125732
 30
0.0
 10
-25.9149661503
 20
-18.8290841082
 30
0.0
 11
-25.9149661503
 21
-19.121932718
 31
0.0
 11
-25.9146333753
 21
-19.1207170169
 31
0.0
 11
-25.9143429742
 21
-19.1170935066
 31
0.0
 11
-25.9140956675
 21
-19.111079054
 31
0.0
 11
-25.9138921757
 21
-19.1026905262
 31
0.0
 11
-25.9137332193
 21
-19.0919447899
 31
0.0
 11
-25.9136194833
 21
-19.0788599155
 31
0.0
 11
-25.913528491
 21
-19.0458100091
 31
0.0
 11
-25.9136194833
 21
-19.0038610458
 31
0.0
 11
-25.9138921757
 21
-18.9533611036
 31
0.0
 11
-25.9143429742
 21
-18.8948699891
 31
0.0
 11
-25.9149661503
 21
-18.8290841082
 31
0.0
  0
SPLINE
  5
7E6
100
AcDbEntity
  8
RACCORDO
100
AcDbSpline
 62
253
  6
CONTINUOUS
 70
0
 71
3
 72
18
 73
14
 74
12
 42
0.0000001
 43
0.0000001
 44
0.0000000001
 12
0.0029943967
 22
0.2929045141
 32
0.0
 13
-0.2928752066
 23
0.0051121557
 33
0.0
 40
0.0
 40
0.0
 40
0.0
 40
0.0
 40
0.2245967258
 40
0.424285677
 40
0.5966901203
 40
0.7399001702
 40
0.8527297891
 40
0.8974019754
 40
0.9340908956
 40
0.9627369452
 40
0.9832870563
 40
0.9956970345
 40
1.0
 40
1.0
 40
1.0
 40
1.0
 10
-25.9149661503
 20
18.8290841082
 30
0.0
 10
-25.914741973
 20
18.8510125732
 30
0.0
 10
-25.9143460623
 20
18.892438259
 30
0.0
 10
-25.9138904256
 20
18.9506960096
 30
0.0
 10
-25.9136055341
 20
19.0010132348
 30
0.0
 10
-25.9135055539
 20
19.0428358191
 30
0.0
 10
-25.9135481049
 20
19.0722221136
 30
0.0
 10
-25.9137239007
 20
19.0911443466
 30
0.0
 10
-25.9138328679
 20
19.1019647085
 30
0.0
 10
-25.9141319626
 20
19.1101402682
 30
0.0
 10
-25.9141083219
 20
19.1166255985
 30
0.0
 10
-25.9147855454
 20
19.1194169542
 30
0.0
 10
-25.914546073
 20
19.1219253855
 30
0.0
 10
-25.9149661503
 20
19.121932718
 30
0.0
 11
-25.9149661503
 21
18.8290841082
 31
0.0
 11
-25.9143429742
 21
18.8948699891
 31
0.0
 11
-25.9138921757
 21
18.9533611036
 31
0.0
 11
-25.9136194833
 21
19.0038610458
 31
0.0
 11
-25.913528491
 21
19.0458100091
 31
0.0
 11
-25.9136194833
 21
19.0788599154
 31
0.0
 11
-25.9137332193
 21
19.0919447899
 31
0.0
 11
-25.9138921757
 21
19.1026905262
 31
0.0
 11
-25.9140956675
 21
19.111079054
 31
0.0
 11
-25.9143429742
 21
19.1170935066
 31
0.0
 11
-25.9146333753
 21
19.1207170169
 31
0.0
 11
-25.9149661503
 21
19.121932718
 31
0.0
  0
SPLINE
  5
7E7
100
AcDbEntity
  8
RACCORDO
100
AcDbSpline
 62
253
  6
CONTINUOUS
 70
0
 71
3
 72
12
 73
8
 74
6
 42
0.0000001
 43
0.0000001
 44
0.0000000001
 12
1.1820381125
 22
-0.0145894137
 32
0.0
 13
0.3362308124
 23
-1.1333030448
 33
0.0
 40
0.0
 40
0.0
 40
0.0
 40
0.0
 40
0.2809277763
 40
0.5460236683
 40
0.7853381522
 40
0.8953084957
 40
1.0
 40
1.0
 40
1.0
 40
1.0
 10
-25.9149661503
 20
18.8108263007
 30
0.0
 10
-25.8042770375
 20
18.8094601102
 30
0.0
 10
-25.5884407471
 20
18.78160094
 30
0.0
 10
-25.2974751253
 20
18.6670935324
 30
0.0
 10
-25.1033143284
 20
18.5140737574
 30
0.0
 10
-24.999233886
 20
18.3672765444
 30
0.0
 10
-24.9655714534
 20
18.2887749515
 30
0.0
 10
-24.9538379502
 20
18.2492258846
 30
0.0
 11
-25.9149661503
 21
18.8108263007
 31
0.0
 11
-25.5857656913
 21
18.7670933226
 31
0.0
 11
-25.2955121504
 21
18.6489483966
 31
0.0
 11
-25.0766644052
 21
18.4696768335
 31
0.0
 11
-25.0021051616
 21
18.3631842559
 31
0.0
 11
-24.9538379502
 21
18.2492258846
 31
0.0
  0
SPLINE
  5
7E8
100
AcDbEntity
  8
RACCORDO
100
AcDbSpline
 62
253
  6
CONTINUOUS
 70
0
 71
3
 72
9
 73
5
 74
3
 42
0.0000001
 43
0.0000001
 44
0.0000000001
 12
0.036732779
 22
-0.1238118838
 32
0.0
 13
0.004753634
 23
-0.1290584464
 33
0.0
 40
0.0
 40
0.0
 40
0.0
 40
0.0
 40
0.2527572658
 40
1.0
 40
1.0
 40
1.0
 40
1.0
 10
-24.9538379502
 20
18.2492258846
 30
0.0
 10
-24.9507431246
 20
18.2387944335
 30
0.0
 10
-24.9397546473
 20
18.1971636157
 30
0.0
 10
-24.9339377123
 20
18.1541518101
 30
0.0
 10
-24.9327536728
 20
18.1220058147
 30
0.0
 11
-24.9538379502
 21
18.2492258846
 31
0.0
 11
-24.94551868
 21
18.217661224
 31
0.0
 11
-24.9327536728
 21
18.1220058147
 31
0.0
  0
SPLINE
  5
7E9
100
AcDbEntity
  8
RACCORDO
100
AcDbSpline
 62
253
  6
CONTINUOUS
 70
0
 71
3
 72
13
 73
9
 74
7
 42
0.0000001
 43
0.0000001
 44
0.0000000001
 12
1.3288446604
 22
-0.0164013912
 32
0.0
 13
0.0
 23
-1.3289458744
 33
0.0
 40
0.0
 40
0.0
 40
0.0
 40
0.0
 40
0.2871807683
 40
0.5533965419
 40
0.6752296459
 40
0.7890367246
 40
0.8963987342
 40
1.0
 40
1.0
 40
1.0
 40
1.0
 10
-25.9149661503
 20
18.8290841082
 30
0.0
 10
-25.7877599401
 20
18.8275140535
 30
0.0
 10
-25.5417947691
 20
18.791773388
 30
0.0
 10
-25.2651105684
 20
18.6636206357
 30
0.0
 10
-25.0957907298
 20
18.5174908766
 30
0.0
 10
-25.003206248
 20
18.395351799
 30
0.0
 10
-24.9456085781
 20
18.2618919457
 30
0.0
 10
-24.9324185567
 20
18.1679785144
 30
0.0
 10
-24.9324185567
 20
18.1220850228
 30
0.0
 11
-25.9149661503
 21
18.8290841082
 31
0.0
 11
-25.5376481402
 21
18.7717597317
 31
0.0
 11
-25.2191661409
 21
18.6177013002
 31
0.0
 11
-25.0973324676
 21
18.5110651198
 31
0.0
 11
-25.0068879227
 21
18.3898448048
 31
0.0
 11
-24.9512154762
 21
18.258476331
 31
0.0
 11
-24.9324185567
 21
18.1220850228
 31
0.0
  0
SPLINE
  5
7EA
100
AcDbEntity
  8
RACCORDO
100
AcDbSpline
 62
253
  6
CONTINUOUS
 70
0
 71
3
 72
12
 73
8
 74
6
 42
0.0000001
 43
0.0000001
 44
0.0000000001
 12
-0.3362308124
 22
-1.1333030449
 32
0.0
 13
-1.1820381127
 23
-0.0145894115
 33
0.0
 40
0.0
 40
0.0
 40
0.0
 40
0.0
 40
0.1046915043
 40
0.2146618478
 40
0.4539763317
 40
0.7190722238
 40
1.0
 40
1.0
 40
1.0
 40
1.0
 10
-24.9538379502
 20
-18.2492258846
 30
0.0
 10
-24.9655714534
 20
-18.2887749515
 30
0.0
 10
-24.999233886
 20
-18.3672765444
 30
0.0
 10
-25.1033143284
 20
-18.5140737575
 30
0.0
 10
-25.2974751253
 20
-18.6670935325
 30
0.0
 10
-25.5884407471
 20
-18.7816009404
 30
0.0
 10
-25.8042770375
 20
-18.8094601104
 30
0.0
 10
-25.9149661503
 20
-18.8108263007
 30
0.0
 11
-24.9538379502
 21
-18.2492258846
 31
0.0
 11
-25.0021051616
 21
-18.363184256
 31
0.0
 11
-25.0766644052
 21
-18.4696768336
 31
0.0
 11
-25.2955121504
 21
-18.6489483968
 31
0.0
 11
-25.5857656913
 21
-18.767093323
 31
0.0
 11
-25.9149661503
 21
-18.8108263007
 31
0.0
  0
SPLINE
  5
7EB
100
AcDbEntity
  8
RACCORDO
100
AcDbSpline
 62
253
  6
CONTINUOUS
 70
0
 71
3
 72
13
 73
9
 74
7
 42
0.0000001
 43
0.0000001
 44
0.0000000001
 12
-0.1537836051
 22
-1.2595553481
 32
0.0
 13
-1.268811973
 23
-0.015660432
 33
0.0
 40
0.0
 40
0.0
 40
0.0
 40
0.0
 40
0.1037157785
 40
0.2119730846
 40
0.326911093
 40
0.4495104117
 40
0.7153742512
 40
1.0
 40
1.0
 40
1.0
 40
1.0
 10
-24.9361227578
 20
-18.1827317317
 30
0.0
 10
-24.9414393533
 20
-18.2262769862
 30
0.0
 10
-24.9640640171
 20
-18.3142045162
 30
0.0
 10
-25.0305947643
 20
-18.4367605256
 30
0.0
 10
-25.1271592808
 20
-18.5479917164
 30
0.0
 10
-25.2955685933
 20
-18.6800176306
 30
0.0
 10
-25.5610700851
 20
-18.7952675493
 30
0.0
 10
-25.7945872976
 20
-18.8275983208
 30
0.0
 10
-25.9149661503
 20
-18.8290841082
 30
0.0
 11
-24.9361227578
 21
-18.1827317317
 31
0.0
 11
-24.968490542
 21
-18.310295147
 31
0.0
 11
-25.0332121795
 21
-18.4314613539
 31
0.0
 11
-25.1280947526
 21
-18.5422237263
 31
0.0
 11
-25.2499584986
 21
-18.6389213069
 31
0.0
 11
-25.5574889352
 21
-18.7776105983
 31
0.0
 11
-25.9149661503
 21
-18.8290841082
 31
0.0
  0
SPLINE
  5
7EC
100
AcDbEntity
  8
ASSI
100
AcDbSpline
 62
253
  6
CONTINUOUS
 70
0
 71
3
 72
18
 73
14
 74
12
 42
0.0000001
 43
0.0000001
 44
0.0000000001
 12
0.0029943967
 22
0.2929045141
 32
0.0
 13
-0.2928752066
 23
0.0051121557
 33
0.0
 40
0.0
 40
0.0
 40
0.0
 40
0.0
 40
0.2245967258
 40
0.424285677
 40
0.5966901203
 40
0.7399001702
 40
0.8527297891
 40
0.8974019754
 40
0.9340908956
 40
0.9627369452
 40
0.9832870563
 40
0.9956970345
 40
1.0
 40
1.0
 40
1.0
 40
1.0
 10
-25.9149661503
 20
18.8290841082
 30
0.0
 10
-25.914741973
 20
18.8510125732
 30
0.0
 10
-25.9143460623
 20
18.892438259
 30
0.0
 10
-25.9138904256
 20
18.9506960096
 30
0.0
 10
-25.9136055341
 20
19.0010132348
 30
0.0
 10
-25.9135055539
 20
19.0428358191
 30
0.0
 10
-25.9135481049
 20
19.0722221136
 30
0.0
 10
-25.9137239007
 20
19.0911443466
 30
0.0
 10
-25.9138328679
 20
19.1019647085
 30
0.0
 10
-25.9141319626
 20
19.1101402682
 30
0.0
 10
-25.9141083219
 20
19.1166255985
 30
0.0
 10
-25.9147855454
 20
19.1194169542
 30
0.0
 10
-25.914546073
 20
19.1219253855
 30
0.0
 10
-25.9149661503
 20
19.121932718
 30
0.0
 11
-25.9149661503
 21
18.8290841082
 31
0.0
 11
-25.9143429742
 21
18.8948699891
 31
0.0
 11
-25.9138921757
 21
18.9533611036
 31
0.0
 11
-25.9136194833
 21
19.0038610458
 31
0.0
 11
-25.913528491
 21
19.0458100091
 31
0.0
 11
-25.9136194833
 21
19.0788599154
 31
0.0
 11
-25.9137332193
 21
19.0919447899
 31
0.0
 11
-25.9138921757
 21
19.1026905262
 31
0.0
 11
-25.9140956675
 21
19.111079054
 31
0.0
 11
-25.9143429742
 21
19.1170935066
 31
0.0
 11
-25.9146333753
 21
19.1207170169
 31
0.0
 11
-25.9149661503
 21
19.121932718
 31
0.0
  0
SPLINE
  5
7ED
100
AcDbEntity
  8
ASSI
100
AcDbSpline
 62
253
  6
CONTINUOUS
 70
0
 71
3
 72
18
 73
14
 74
12
 42
0.0000001
 43
0.0000001
 44
0.0000000001
 12
0.2928752066
 22
0.0051121557
 32
0.0
 13
-0.0029943967
 23
0.2929045141
 33
0.0
 40
0.0
 40
0.0
 40
0.0
 40
0.0
 40
0.0043029655
 40
0.0167129437
 40
0.0372630548
 40
0.0659091044
 40
0.1025980246
 40
0.1472702109
 40
0.2600998298
 40
0.4033098797
 40
0.575714323
 40
0.7754032742
 40
1.0
 40
1.0
 40
1.0
 40
1.0
 10
-25.9149661503
 20
-19.121932718
 30
0.0
 10
-25.914546073
 20
-19.1219253855
 30
0.0
 10
-25.9147855454
 20
-19.1194169542
 30
0.0
 10
-25.9141083219
 20
-19.1166255985
 30
0.0
 10
-25.9141319626
 20
-19.1101402682
 30
0.0
 10
-25.9138328679
 20
-19.1019647085
 30
0.0
 10
-25.9137239007
 20
-19.0911443466
 30
0.0
 10
-25.9135481049
 20
-19.0722221136
 30
0.0
 10
-25.9135055539
 20
-19.0428358191
 30
0.0
 10
-25.9136055341
 20
-19.0010132348
 30
0.0
 10
-25.9138904256
 20
-18.9506960096
 30
0.0
 10
-25.9143460623
 20
-18.892438259
 30
0.0
 10
-25.914741973
 20
-18.8510125732
 30
0.0
 10
-25.9149661503
 20
-18.8290841082
 30
0.0
 11
-25.9149661503
 21
-19.121932718
 31
0.0
 11
-25.9146333753
 21
-19.1207170169
 31
0.0
 11
-25.9143429742
 21
-19.1170935066
 31
0.0
 11
-25.9140956675
 21
-19.111079054
 31
0.0
 11
-25.9138921757
 21
-19.1026905262
 31
0.0
 11
-25.9137332193
 21
-19.0919447899
 31
0.0
 11
-25.9136194833
 21
-19.0788599155
 31
0.0
 11
-25.913528491
 21
-19.0458100091
 31
0.0
 11
-25.9136194833
 21
-19.0038610458
 31
0.0
 11
-25.9138921757
 21
-18.9533611036
 31
0.0
 11
-25.9143429742
 21
-18.8948699891
 31
0.0
 11
-25.9149661503
 21
-18.8290841082
 31
0.0
  0
SPLINE
  5
7EE
100
AcDbEntity
  8
ASSI
100
AcDbSpline
 62
253
  6
CONTINUOUS
 70
0
 71
3
 72
13
 73
9
 74
7
 42
0.0000001
 43
0.0000001
 44
0.0000000001
 12
-0.1537836051
 22
-1.2595553481
 32
0.0
 13
-1.268811973
 23
-0.015660432
 33
0.0
 40
0.0
 40
0.0
 40
0.0
 40
0.0
 40
0.1037157785
 40
0.2119730846
 40
0.326911093
 40
0.4495104117
 40
0.7153742512
 40
1.0
 40
1.0
 40
1.0
 40
1.0
 10
-24.9361227578
 20
-18.1827317317
 30
0.0
 10
-24.9414393533
 20
-18.2262769862
 30
0.0
 10
-24.9640640171
 20
-18.3142045162
 30
0.0
 10
-25.0305947643
 20
-18.4367605256
 30
0.0
 10
-25.1271592808
 20
-18.5479917164
 30
0.0
 10
-25.2955685933
 20
-18.6800176306
 30
0.0
 10
-25.5610700851
 20
-18.7952675493
 30
0.0
 10
-25.7945872976
 20
-18.8275983208
 30
0.0
 10
-25.9149661503
 20
-18.8290841082
 30
0.0
 11
-24.9361227578
 21
-18.1827317317
 31
0.0
 11
-24.968490542
 21
-18.310295147
 31
0.0
 11
-25.0332121795
 21
-18.4314613539
 31
0.0
 11
-25.1280947526
 21
-18.5422237263
 31
0.0
 11
-25.2499584986
 21
-18.6389213069
 31
0.0
 11
-25.5574889352
 21
-18.7776105983
 31
0.0
 11
-25.9149661503
 21
-18.8290841082
 31
0.0
  0
SPLINE
  5
7EF
100
AcDbEntity
  8
ASSI
100
AcDbSpline
 62
253
  6
CONTINUOUS
 70
0
 71
3
 72
12
 73
8
 74
6
 42
0.0000001
 43
0.0000001
 44
0.0000000001
 12
-0.3362308124
 22
-1.1333030449
 32
0.0
 13
-1.1820381127
 23
-0.0145894115
 33
0.0
 40
0.0
 40
0.0
 40
0.0
 40
0.0
 40
0.1046915043
 40
0.2146618478
 40
0.4539763317
 40
0.7190722238
 40
1.0
 40
1.0
 40
1.0
 40
1.0
 10
-24.9538379502
 20
-18.2492258846
 30
0.0
 10
-24.9655714534
 20
-18.2887749515
 30
0.0
 10
-24.999233886
 20
-18.3672765444
 30
0.0
 10
-25.1033143284
 20
-18.5140737575
 30
0.0
 10
-25.2974751253
 20
-18.6670935325
 30
0.0
 10
-25.5884407471
 20
-18.7816009404
 30
0.0
 10
-25.8042770375
 20
-18.8094601104
 30
0.0
 10
-25.9149661503
 20
-18.8108263007
 30
0.0
 11
-24.9538379502
 21
-18.2492258846
 31
0.0
 11
-25.0021051616
 21
-18.363184256
 31
0.0
 11
-25.0766644052
 21
-18.4696768336
 31
0.0
 11
-25.2955121504
 21
-18.6489483968
 31
0.0
 11
-25.5857656913
 21
-18.767093323
 31
0.0
 11
-25.9149661503
 21
-18.8108263007
 31
0.0
  0
SPLINE
  5
7F0
100
AcDbEntity
  8
ASSI
100
AcDbSpline
 62
253
  6
CONTINUOUS
 70
0
 71
3
 72
12
 73
8
 74
6
 42
0.0000001
 43
0.0000001
 44
0.0000000001
 12
1.1820381125
 22
-0.0145894137
 32
0.0
 13
0.3362308124
 23
-1.1333030448
 33
0.0
 40
0.0
 40
0.0
 40
0.0
 40
0.0
 40
0.2809277763
 40
0.5460236683
 40
0.7853381522
 40
0.8953084957
 40
1.0
 40
1.0
 40
1.0
 40
1.0
 10
-25.9149661503
 20
18.8108263007
 30
0.0
 10
-25.8042770375
 20
18.8094601102
 30
0.0
 10
-25.5884407471
 20
18.78160094
 30
0.0
 10
-25.2974751253
 20
18.6670935324
 30
0.0
 10
-25.1033143284
 20
18.5140737574
 30
0.0
 10
-24.999233886
 20
18.3672765444
 30
0.0
 10
-24.9655714534
 20
18.2887749515
 30
0.0
 10
-24.9538379502
 20
18.2492258846
 30
0.0
 11
-25.9149661503
 21
18.8108263007
 31
0.0
 11
-25.5857656913
 21
18.7670933226
 31
0.0
 11
-25.2955121504
 21
18.6489483966
 31
0.0
 11
-25.0766644052
 21
18.4696768335
 31
0.0
 11
-25.0021051616
 21
18.3631842559
 31
0.0
 11
-24.9538379502
 21
18.2492258846
 31
0.0
  0
SPLINE
  5
7F1
100
AcDbEntity
  8
ASSI
100
AcDbSpline
 62
253
  6
CONTINUOUS
 70
0
 71
3
 72
9
 73
5
 74
3
 42
0.0000001
 43
0.0000001
 44
0.0000000001
 12
0.036732779
 22
-0.1238118838
 32
0.0
 13
0.004753634
 23
-0.1290584464
 33
0.0
 40
0.0
 40
0.0
 40
0.0
 40
0.0
 40
0.2527572658
 40
1.0
 40
1.0
 40
1.0
 40
1.0
 10
-24.9538379502
 20
18.2492258846
 30
0.0
 10
-24.9507431246
 20
18.2387944335
 30
0.0
 10
-24.9397546473
 20
18.1971636157
 30
0.0
 10
-24.9339377123
 20
18.1541518101
 30
0.0
 10
-24.9327536728
 20
18.1220058147
 30
0.0
 11
-24.9538379502
 21
18.2492258846
 31
0.0
 11
-24.94551868
 21
18.217661224
 31
0.0
 11
-24.9327536728
 21
18.1220058147
 31
0.0
  0
SPLINE
  5
7F2
100
AcDbEntity
  8
ASSI
100
AcDbSpline
 62
253
  6
CONTINUOUS
 70
0
 71
3
 72
13
 73
9
 74
7
 42
0.0000001
 43
0.0000001
 44
0.0000000001
 12
1.3288446604
 22
-0.0164013912
 32
0.0
 13
0.0
 23
-1.3289458744
 33
0.0
 40
0.0
 40
0.0
 40
0.0
 40
0.0
 40
0.2871807683
 40
0.5533965419
 40
0.6752296459
 40
0.7890367246
 40
0.8963987342
 40
1.0
 40
1.0
 40
1.0
 40
1.0
 10
-25.9149661503
 20
18.8290841082
 30
0.0
 10
-25.7877599401
 20
18.8275140535
 30
0.0
 10
-25.5417947691
 20
18.791773388
 30
0.0
 10
-25.2651105684
 20
18.6636206357
 30
0.0
 10
-25.0957907298
 20
18.5174908766
 30
0.0
 10
-25.003206248
 20
18.395351799
 30
0.0
 10
-24.9456085781
 20
18.2618919457
 30
0.0
 10
-24.9324185567
 20
18.1679785144
 30
0.0
 10
-24.9324185567
 20
18.1220850228
 30
0.0
 11
-25.9149661503
 21
18.8290841082
 31
0.0
 11
-25.5376481402
 21
18.7717597317
 31
0.0
 11
-25.2191661409
 21
18.6177013002
 31
0.0
 11
-25.0973324676
 21
18.5110651198
 31
0.0
 11
-25.0068879227
 21
18.3898448048
 31
0.0
 11
-24.9512154762
 21
18.258476331
 31
0.0
 11
-24.9324185567
 21
18.1220850228
 31
0.0
  0
SPLINE
  5
7F3
100
AcDbEntity
  8
CURVE
100
AcDbSpline
 62
253
  6
CONTINUOUS
 70
0
 71
3
 72
10
 73
6
 74
4
 42
0.0000001
 43
0.0000001
 44
0.0000000001
 12
0.7328821116
 22
0.0113103174
 32
0.0
 13
0.0163673223
 23
-0.7328982126
 33
0.0
 40
0.0
 40
0.0
 40
0.0
 40
0.0
 40
0.2929210355
 40
0.5275938042
 40
1.0
 40
1.0
 40
1.0
 40
1.0
 10
-60.5003693284
 20
-5.4627200261
 30
0.0
 10
-60.4288104661
 20
-5.4616156828
 30
0.0
 10
-60.295836254
 20
-5.4770528399
 30
0.0
 10
-60.0901743963
 20
-5.6287671311
 30
0.0
 10
-60.0524104218
 20
-5.8174861236
 30
0.0
 10
-60.0498330803
 20
-5.9328946758
 30
0.0
 11
-60.5003693284
 21
-5.4627200261
 31
0.0
 11
-60.2886977466
 21
-5.498672008
 31
0.0
 11
-60.1509254528
 21
-5.6016708449
 31
0.0
 11
-60.0498330803
 21
-5.9328946758
 31
0.0
  0
SPLINE
  5
7F4
100
AcDbEntity
  8
CURVE
100
AcDbSpline
 62
253
  6
CONTINUOUS
 70
0
 71
3
 72
9
 73
5
 74
3
 42
0.0000001
 43
0.0000001
 44
0.0000000001
 12
0.0616189773
 22
0.530822429
 32
0.0
 13
0.5342412434
 23
0.0083570671
 33
0.0
 40
0.0
 40
0.0
 40
0.0
 40
0.0
 40
0.5013510385
 40
1.0
 40
1.0
 40
1.0
 40
1.0
 10
-60.8627897915
 20
-5.804625691
 30
0.0
 10
-60.8524922121
 20
-5.7159162323
 30
0.0
 10
-60.7743825425
 20
-5.5364909894
 30
0.0
 10
-60.5891689421
 20
-5.4641091071
 30
0.0
 10
-60.5003693284
 20
-5.4627200261
 30
0.0
 11
-60.8627897915
 21
-5.804625691
 31
0.0
 11
-60.7472506044
 21
-5.5629118238
 31
0.0
 11
-60.5003693284
 21
-5.4627200261
 31
0.0
  0
SPLINE
  5
7F5
100
AcDbEntity
  8
CURVE
100
AcDbSpline
 62
253
  6
CONTINUOUS
 70
0
 71
3
 72
9
 73
5
 74
3
 42
0.0000001
 43
0.0000001
 44
0.0000000001
 12
-0.0800344797
 22
0.4691120427
 32
0.0
 13
0.0548613365
 23
0.4727186214
 33
0.0
 40
0.0
 40
0.0
 40
0.0
 40
0.0
 40
0.5157390107
 40
1.0
 40
1.0
 40
1.0
 40
1.0
 10
-60.845723201
 20
-6.2788012719
 30
0.0
 10
-60.8594821688
 20
-6.1981548116
 30
0.0
 10
-60.8796756251
 20
-6.0401708385
 30
0.0
 10
-60.8716455265
 20
-5.8809320867
 30
0.0
 10
-60.8627897915
 20
-5.804625691
 30
0.0
 11
-60.845723201
 21
-6.2788012719
 31
0.0
 11
-60.8728041842
 21
-6.0348640611
 31
0.0
 11
-60.8627897915
 21
-5.804625691
 31
0.0
  0
SPLINE
  5
7F6
100
AcDbEntity
  8
CURVE
100
AcDbSpline
 62
253
  6
CONTINUOUS
 70
0
 71
3
 72
10
 73
6
 74
4
 42
0.0000001
 43
0.0000001
 44
0.0000000001
 12
-0.511471697
 22
-1.4159479367
 32
0.0
 13
0.2190956501
 23
-1.4894878422
 33
0.0
 40
0.0
 40
0.0
 40
0.0
 40
0.0
 40
0.2954237646
 40
0.5848737211
 40
1.0
 40
1.0
 40
1.0
 40
1.0
 10
-61.2752360186
 20
-5.3678501192
 30
0.0
 10
-61.3256029833
 20
-5.5072850092
 30
0.0
 10
-61.374567348
 20
-5.8009746511
 30
0.0
 10
-61.3744731397
 20
-6.3030007264
 30
0.0
 10
-61.3360776675
 20
-6.6554588292
 30
0.0
 10
-61.3057602135
 20
-6.8615673444
 30
0.0
 11
-61.2752360186
 21
-5.3678501192
 31
0.0
 11
-61.3625609791
 21
-5.8039570571
 31
0.0
 11
-61.3680162414
 21
-6.2396957027
 31
0.0
 11
-61.3057602135
 21
-6.8615673444
 31
0.0
  0
SPLINE
  5
7F7
100
AcDbEntity
  8
CURVE
100
AcDbSpline
 62
253
  6
CONTINUOUS
 70
0
 71
3
 72
23
 73
19
 74
17
 42
0.0000001
 43
0.0000001
 44
0.0000000001
 12
-0.2315264875
 22
1.7946036049
 32
0.0
 13
-0.6139483615
 23
-1.7021091361
 33
0.0
 40
0.0
 40
0.0
 40
0.0
 40
0.0
 40
0.0193928962
 40
0.0560918278
 40
0.1068350589
 40
0.1689387844
 40
0.2406513391
 40
0.3215099784
 40
0.4126293501
 40
0.4629068833
 40
0.5169198095
 40
0.5604931843
 40
0.6016378815
 40
0.677722206
 40
0.747068359
 40
0.8106528864
 40
0.920171439
 40
1.0
 40
1.0
 40
1.0
 40
1.0
 10
-59.8108790725
 20
-5.30544429
 30
0.0
 10
-59.8123757289
 20
-5.2938434362
 30
0.0
 10
-59.829091293
 20
-5.2632069054
 30
0.0
 10
-59.8628465513
 20
-5.2090321015
 30
0.0
 10
-59.9216823375
 20
-5.1398099271
 30
0.0
 10
-60.0039528676
 20
-5.0645396381
 30
0.0
 10
-60.1122519499
 20
-4.9924232313
 30
0.0
 10
-60.2475138232
 20
-4.9329611274
 30
0.0
 10
-60.3791759256
 20
-4.9032239884
 30
0.0
 10
-60.4968058956
 20
-4.89402718
 30
0.0
 10
-60.586112507
 20
-4.8956454635
 30
0.0
 10
-60.6694099507
 20
-4.9044394109
 30
0.0
 10
-60.7647084422
 20
-4.9229196409
 30
0.0
 10
-60.8721626917
 20
-4.9582621697
 30
0.0
 10
-60.9840294304
 20
-5.0175752447
 30
0.0
 10
-61.1013100721
 20
-5.1057748269
 30
0.0
 10
-61.2031728763
 20
-5.2214285397
 30
0.0
 10
-61.2588991472
 20
-5.3225578116
 30
0.0
 10
-61.2752360186
 20
-5.3678501192
 30
0.0
 11
-59.8108790725
 21
-5.30544429
 31
0.0
 11
-59.8240544055
 21
-5.2729213449
 31
0.0
 11
-59.8596024219
 21
-5.2168346717
 31
0.0
 11
-59.9184069839
 21
-5.1463244856
 31
0.0
 11
-60.0013617892
 21
-5.0705309187
 31
0.0
 11
-60.1093427085
 21
-4.9985942537
 31
0.0
 11
-60.2432379071
 21
-4.9396546695
 31
0.0
 11
-60.4039324765
 21
-4.9028523708
 31
0.0
 11
-60.4946061163
 21
-4.8956090175
 31
0.0
 11
-60.5923115083
 21
-4.8973275625
 31
0.0
 11
-60.6706938124
 21
-4.9057483616
 31
0.0
 11
-60.743760344
 21
-4.9199800835
 31
0.0
 11
-60.8744225209
 21
-4.963294003
 31
0.0
 11
-60.985250901
 21
-5.0221047359
 31
0.0
 11
-61.0771983462
 21
-5.091247697
 31
0.0
 11
-61.2082618801
 21
-5.239871963
 31
0.0
 11
-61.2752360186
 21
-5.3678501192
 31
0.0
  0
SPLINE
  5
7F8
100
AcDbEntity
  8
CURVE
100
AcDbSpline
 62
253
  6
CONTINUOUS
 70
0
 71
3
 72
10
 73
6
 74
4
 42
0.0000001
 43
0.0000001
 44
0.0000000001
 12
-0.6658466305
 22
-0.1814243074
 32
0.0
 13
-0.255610764
 23
-0.6411277761
 33
0.0
 40
0.0
 40
0.0
 40
0.0
 40
0.0
 40
0.4939032387
 40
0.7479365287
 40
1.0
 40
1.0
 40
1.0
 40
1.0
 10
-59.2251145532
 20
-4.9565587397
 30
0.0
 10
-59.3347358223
 20
-4.9864274241
 30
0.0
 10
-59.5026851681
 20
-5.0311015744
 30
0.0
 10
-59.7008826223
 20
-5.1536200638
 30
0.0
 10
-59.7722705472
 20
-5.2515759924
 30
0.0
 10
-59.7937472594
 20
-5.30544429
 30
0.0
 11
-59.2251145532
 21
-4.9565587397
 31
0.0
 11
-59.5479530273
 21
-5.06590756
 31
0.0
 11
-59.6939868554
 21
-5.16291893
 31
0.0
 11
-59.7937472594
 21
-5.30544429
 31
0.0
  0
SPLINE
  5
7F9
100
AcDbEntity
  8
CURVE
100
AcDbSpline
 62
253
  6
CONTINUOUS
 70
0
 71
3
 72
9
 73
5
 74
3
 42
0.0000001
 43
0.0000001
 44
0.0000000001
 12
-0.7831383809
 22
-0.212730566
 32
0.0
 13
-0.7829702865
 23
-0.2133486067
 33
0.0
 40
0.0
 40
0.0
 40
0.0
 40
0.0
 40
0.1980141723
 40
1.0
 40
1.0
 40
1.0
 40
1.0
 10
-58.4404209854
 20
-4.7496410148
 30
0.0
 10
-58.4921118182
 20
-4.7636822371
 30
0.0
 10
-58.753744708
 20
-4.8324077287
 30
0.0
 10
-59.0158041954
 20
-4.8995245534
 30
0.0
 10
-59.2251145532
 20
-4.9565587397
 30
0.0
 11
-58.4404209854
 21
-4.7496410148
 31
0.0
 11
-58.5957425852
 21
-4.7908364046
 31
0.0
 11
-59.2251145532
 21
-4.9565587397
 31
0.0
  0
SPLINE
  5
7FA
100
AcDbEntity
  8
CURVE
100
AcDbSpline
 62
253
  6
CONTINUOUS
 70
0
 71
3
 72
11
 73
7
 74
5
 42
0.0000001
 43
0.0000001
 44
0.0000000001
 12
0.8595041012
 22
0.3229529722
 32
0.0
 13
0.8824125507
 23
0.2537357968
 33
0.0
 40
0.0
 40
0.0
 40
0.0
 40
0.0
 40
0.2222334256
 40
0.5586346745
 40
0.8657346811
 40
1.0
 40
1.0
 40
1.0
 40
1.0
 10
-59.3195569342
 20
-5.5965120355
 30
0.0
 10
-59.255886754
 20
-5.5725883871
 30
0.0
 10
-59.0917413027
 20
-5.5240624166
 30
0.0
 10
-58.838274062
 20
-5.447208328
 30
0.0
 10
-58.6096552219
 20
-5.3807958248
 30
0.0
 10
-58.4799134529
 20
-5.3431977109
 30
0.0
 10
-58.4404209854
 20
-5.3318417383
 30
0.0
 11
-59.3195569342
 21
-5.5965120355
 31
0.0
 11
-59.1253809856
 21
-5.533810961
 31
0.0
 11
-58.8294903317
 21
-5.4452023619
 31
0.0
 11
-58.5588489919
 21
-5.3660810254
 31
0.0
 11
-58.4404209854
 21
-5.3318417383
 31
0.0
  0
SPLINE
  5
7FB
100
AcDbEntity
  8
CURVE
100
AcDbSpline
 62
253
  6
CONTINUOUS
 70
0
 71
3
 72
10
 73
6
 74
4
 42
0.0000001
 43
0.0000001
 44
0.0000000001
 12
0.0
 22
0.4498714952
 32
0.0
 13
0.4211237832
 23
0.15806672
 33
0.0
 40
0.0
 40
0.0
 40
0.0
 40
0.0
 40
0.3517340052
 40
0.6302069713
 40
1.0
 40
1.0
 40
1.0
 40
1.0
 10
-59.5750122696
 20
-5.9341993273
 30
0.0
 10
-59.5750122696
 20
-5.881454293
 30
0.0
 10
-59.5536904048
 20
-5.784912168
 30
0.0
 10
-59.4593325068
 20
-5.6640774716
 30
0.0
 10
-59.3714664806
 20
-5.6159960259
 30
0.0
 10
-59.3195569342
 20
-5.5965120355
 30
0.0
 11
-59.5750122696
 21
-5.9341993273
 31
0.0
 11
-59.5393300509
 21
-5.7800411646
 31
0.0
 11
-59.4630229605
 21
-5.6806943326
 31
0.0
 11
-59.3195569342
 21
-5.5965120355
 31
0.0
  0
SPLINE
  5
7FC
100
AcDbEntity
  8
0
100
AcDbSpline
 62
253
  6
CONTINUOUS
 70
0
 71
3
 72
16
 73
12
 74
10
 42
0.0000001
 43
0.0000001
 44
0.0000000001
 12
0.0
 22
2.0793102827
 32
0.0
 13
0.0
 23
-2.0793102827
 33
0.0
 40
0.0
 40
0.0
 40
0.0
 40
0.0
 40
0.1480181679
 40
0.2760826901
 40
0.3794597004
 40
0.4313382788
 40
0.4844003997
 40
0.5962837356
 40
0.7135728322
 40
0.8439284655
 40
1.0
 40
1.0
 40
1.0
 40
1.0
 10
-61.1159635162
 20
10.2768972759
 30
0.0
 10
-61.1159635162
 20
10.3794891755
 30
0.0
 10
-61.0924147951
 20
10.5731867323
 30
0.0
 10
-60.9611276778
 20
10.8109056775
 30
0.0
 10
-60.7951548596
 20
10.9272278961
 30
0.0
 10
-60.656351454
 20
10.9699620524
 30
0.0
 10
-60.5059475041
 20
10.9847564894
 30
0.0
 10
-60.3086949949
 20
10.9436678627
 30
0.0
 10
-60.0997218479
 20
10.7952957391
 30
0.0
 10
-59.9530945539
 20
10.5480290742
 30
0.0
 10
-59.9242014783
 20
10.3465220226
 30
0.0
 10
-59.9242014783
 20
10.2383483071
 30
0.0
 11
-61.1159635162
 21
10.2768972759
 31
0.0
 11
-61.0700251094
 21
10.581224239
 31
0.0
 11
-60.9355912776
 21
10.8110724657
 31
0.0
 11
-60.7594457744
 21
10.9342311
 31
0.0
 11
-60.6564383114
 21
10.9662080461
 31
0.0
 11
-60.5466606824
 21
10.9770931782
 31
0.0
 11
-60.3188994983
 21
10.9298651484
 31
0.0
 11
-60.1194293618
 21
10.789589693
 31
0.0
 11
-59.9779968121
 21
10.5583782353
 31
0.0
 11
-59.9242014783
 21
10.2383483071
 31
0.0
  0
SPLINE
  5
7FD
100
AcDbEntity
  8
0
100
AcDbSpline
 62
253
  6
CONTINUOUS
 70
0
 71
3
 72
18
 73
14
 74
12
 42
0.0000001
 43
0.0000001
 44
0.0000000001
 12
-0.3241704396
 22
2.534298751
 32
0.0
 13
0.0
 23
-2.5549537474
 33
0.0
 40
0.0
 40
0.0
 40
0.0
 40
0.0
 40
0.138143453
 40
0.258984552
 40
0.3716524909
 40
0.4810457505
 40
0.540417
 40
0.5985432077
 40
0.6564597947
 40
0.7152297619
 40
0.7813913786
 40
0.849863194
 40
1.0
 40
1.0
 40
1.0
 40
1.0
 10
-59.7326210016
 20
10.3998519318
 30
0.0
 10
-59.7475483428
 20
10.5165508586
 30
0.0
 10
-59.8095454518
 20
10.7339591642
 30
0.0
 10
-60.0067622438
 20
10.9909391754
 30
0.0
 10
-60.2629284343
 20
11.1442770239
 30
0.0
 10
-60.5041193696
 20
11.1878999401
 30
0.0
 10
-60.697517425
 20
11.1689185928
 30
0.0
 10
-60.8412083671
 20
11.1243229471
 30
0.0
 10
-60.9722285789
 20
11.0514538552
 30
0.0
 10
-61.0907180233
 20
10.9487759043
 30
0.0
 10
-61.19027662
 20
10.815826268
 30
0.0
 10
-61.2919207008
 20
10.5940402339
 30
0.0
 10
-61.3175699276
 20
10.4047614743
 30
0.0
 10
-61.3175699276
 20
10.2768972759
 30
0.0
 11
-59.7326210016
 21
10.3998519318
 31
0.0
 11
-59.8351494768
 21
10.7375774198
 31
0.0
 11
-60.0246322584
 21
10.981314645
 31
0.0
 11
-60.2716605576
 21
11.1290393783
 31
0.0
 11
-60.5466606824
 21
11.1787302999
 31
0.0
 11
-60.6975817381
 21
11.1636972367
 31
0.0
 11
-60.8393517638
 21
11.1195351655
 31
0.0
 11
-60.9686721326
 21
11.0476497638
 31
0.0
 11
-61.0822442172
 21
10.9494467091
 31
0.0
 11
-61.1839555799
 21
10.8144425443
 31
0.0
 11
-61.2576330461
 21
10.6557768805
 31
0.0
 11
-61.3175699276
 21
10.2768972759
 31
0.0
  0
ELLIPSE
  5
7FE
100
AcDbEntity
  8
RACCORDO
100
AcDbEllipse
 62
7
  6
CONTINUOUS
 10
9.1496953439
 20
-17.6714466826
 30
0.0
 11
1.8480888181
 21
-0.7655034529
 31
0.0
 40
0.9998215708
 41
0.2314839238
 42
0.3926359958
  0
ELLIPSE
  5
7FF
100
AcDbEntity
  8
RACCORDO
100
AcDbEllipse
 62
7
  6
CONTINUOUS
 10
9.1496953439
 20
17.6714466826
 30
0.0
 11
-1.8480888181
 21
-0.7655034529
 31
0.0
 40
0.9998215708
 41
2.7489566578
 42
2.9101087298
  0
ELLIPSE
  5
800
100
AcDbEntity
  8
RACCORDO
100
AcDbEllipse
 62
7
  6
CONTINUOUS
 10
-9.1496953439
 20
17.6714466826
 30
0.0
 11
-1.8480888181
 21
0.7655034529
 31
0.0
 40
0.9998215708
 41
0.2314839238
 42
0.3926359958
  0
ELLIPSE
  5
801
100
AcDbEntity
  8
RACCORDO
100
AcDbEllipse
 62
7
  6
CONTINUOUS
 10
-9.1496953439
 20
-17.6714466826
 30
0.0
 11
1.8480888181
 21
0.7655034529
 31
0.0
 40
0.9998215708
 41
2.7489566578
 42
2.9101087298
  0
ELLIPSE
  5
802
100
AcDbEntity
  8
ASSI
100
AcDbEllipse
 62
7
  6
CONTINUOUS
 10
-9.1496953439
 20
-17.6714466826
 30
0.0
 11
1.8480888181
 21
0.7655034529
 31
0.0
 40
0.9998215708
 41
2.7489566578
 42
2.9101087298
  0
ELLIPSE
  5
803
100
AcDbEntity
  8
ASSI
100
AcDbEllipse
 62
7
  6
CONTINUOUS
 10
-9.1496953439
 20
17.6714466826
 30
0.0
 11
-1.8480888181
 21
0.7655034529
 31
0.0
 40
0.9998215708
 41
0.2314839238
 42
0.3926359958
  0
ELLIPSE
  5
804
100
AcDbEntity
  8
ASSI
100
AcDbEllipse
 62
7
  6
CONTINUOUS
 10
9.1496953439
 20
17.6714466826
 30
0.0
 11
-1.8480888181
 21
-0.7655034529
 31
0.0
 40
0.9998215708
 41
2.7489566578
 42
2.9101087298
  0
ELLIPSE
  5
805
100
AcDbEntity
  8
ASSI
100
AcDbEllipse
 62
7
  6
CONTINUOUS
 10
9.1496953439
 20
-17.6714466826
 30
0.0
 11
1.8480888181
 21
-0.7655034529
 31
0.0
 40
0.9998215708
 41
0.2314839238
 42
0.3926359958
  0
ELLIPSE
  5
806
100
AcDbEntity
  8
ASSI
100
AcDbEllipse
 62
7
  6
CONTINUOUS
 10
-9.0368706193
 20
22.2820824966
 30
0.0
 11
0.25
 21
-0.0
 31
0.0
 40
0.0524077793
 41
-3.1241393611
 42
-1.5707963268
  0
ELLIPSE
  5
807
100
AcDbEntity
  8
ASSI
100
AcDbEllipse
 62
7
  6
CONTINUOUS
 10
8.7631293807
 20
22.2820824966
 30
0.0
 11
0.25
 21
-0.0
 31
0.0
 40
0.0524077793
 41
-3.1241393611
 42
-1.5707963268
  0
ELLIPSE
  5
808
100
AcDbEntity
  8
ASSI
100
AcDbEllipse
 62
7
  6
CONTINUOUS
 10
8.7631293807
 20
-22.2820824966
 30
0.0
 11
0.25
 21
-0.0
 31
0.0
 40
0.0524077793
 41
1.5707963268
 42
3.1241393611
  0
ELLIPSE
  5
809
100
AcDbEntity
  8
ASSI
100
AcDbEllipse
 62
7
  6
CONTINUOUS
 10
8.7631293807
 20
-23.5556624327
 30
0.0
 11
0.25
 21
-0.0
 31
0.0
 40
0.5773502692
 41
-3.1241393611
 42
-2.617993878
  0
ELLIPSE
  5
80A
100
AcDbEntity
  8
ASSI
100
AcDbEllipse
 62
7
  6
CONTINUOUS
 10
-9.0368706193
 20
-23.5556624327
 30
0.0
 11
0.25
 21
0.0
 31
0.0
 40
0.5773502692
 41
-3.1241393611
 42
-2.617993878
  0
ELLIPSE
  5
80B
100
AcDbEntity
  8
ASSI
100
AcDbEllipse
 62
7
  6
CONTINUOUS
 10
-9.0368706193
 20
-22.2820824966
 30
0.0
 11
0.25
 21
-0.0
 31
0.0
 40
0.0524077793
 41
1.5707963268
 42
3.1241393611
  0
ELLIPSE
  5
80C
100
AcDbEntity
  8
ASSI
100
AcDbEllipse
 62
7
  6
CONTINUOUS
 10
-10.3281430868
 20
-22.3344902759
 30
0.0
 11
0.25
 21
0.0
 31
0.0
 40
0.0524077793
 41
1.5707963268
 42
2.8253464262
  0
ELLIPSE
  5
80D
100
AcDbEntity
  8
ASSI
100
AcDbEllipse
 62
7
  6
CONTINUOUS
 10
-10.3281430868
 20
-22.9783121635
 30
0.0
 11
0.25
 21
0.0
 31
0.0
 40
0.5773502692
 41
-1.7618311193
 42
-1.5707963268
  0
ELLIPSE
  5
80E
100
AcDbEntity
  8
ASSI
100
AcDbEllipse
 62
7
  6
CONTINUOUS
 10
-7.4718569132
 20
-22.3344902759
 30
0.0
 11
0.25
 21
0.0
 31
0.0
 40
0.0524077793
 41
0.0174532925
 42
1.5707963268
  0
ELLIPSE
  5
80F
100
AcDbEntity
  8
ASSI
100
AcDbEllipse
 62
7
  6
CONTINUOUS
 10
-7.4718569132
 20
-22.9783121635
 30
0.0
 11
0.25
 21
0.0
 31
0.0
 40
0.5773502692
 41
-1.5707963268
 42
-1.3797615343
  0
ELLIPSE
  5
810
100
AcDbEntity
  8
ASSI
100
AcDbEllipse
 62
7
  6
CONTINUOUS
 10
7.4718569132
 20
-22.3344902759
 30
0.0
 11
0.25
 21
-0.0
 31
0.0
 40
0.0524077793
 41
1.5707963268
 42
3.1241393611
  0
ELLIPSE
  5
811
100
AcDbEntity
  8
ASSI
100
AcDbEllipse
 62
7
  6
CONTINUOUS
 10
7.4718569132
 20
-22.9783121635
 30
0.0
 11
0.25
 21
-0.0
 31
0.0
 40
0.5773502692
 41
-1.7618311193
 42
-1.5707963268
  0
ELLIPSE
  5
812
100
AcDbEntity
  8
ASSI
100
AcDbEllipse
 62
7
  6
CONTINUOUS
 10
10.3281430868
 20
-22.3344902759
 30
0.0
 11
0.25
 21
0.0
 31
0.0
 40
0.0524077793
 41
0.3162462274
 42
1.5707963268
  0
ELLIPSE
  5
813
100
AcDbEntity
  8
ASSI
100
AcDbEllipse
 62
7
  6
CONTINUOUS
 10
10.3281430868
 20
-22.9783121635
 30
0.0
 11
0.25
 21
0.0
 31
0.0
 40
0.5773502692
 41
-1.5707963268
 42
-1.3797615343
  0
ELLIPSE
  5
814
100
AcDbEntity
  8
ASSI
100
AcDbEllipse
 62
7
  6
CONTINUOUS
 10
-7.4718569132
 20
22.3344902759
 30
0.0
 11
0.25
 21
0.0
 31
0.0
 40
0.0524077793
 41
-1.5707963268
 42
-0.0174532925
  0
ELLIPSE
  5
815
100
AcDbEntity
  8
ASSI
100
AcDbEllipse
 62
7
  6
CONTINUOUS
 10
-7.4718569132
 20
22.9783121635
 30
0.0
 11
0.25
 21
0.0
 31
0.0
 40
0.5773502692
 41
1.3797615343
 42
1.5707963268
  0
ELLIPSE
  5
816
100
AcDbEntity
  8
ASSI
100
AcDbEllipse
 62
7
  6
CONTINUOUS
 10
-10.3281430868
 20
22.3344902759
 30
0.0
 11
0.25
 21
0.0
 31
0.0
 40
0.0524077793
 41
-2.8253464262
 42
-1.5707963268
  0
ELLIPSE
  5
817
100
AcDbEntity
  8
ASSI
100
AcDbEllipse
 62
7
  6
CONTINUOUS
 10
-10.3281430868
 20
22.9783121635
 30
0.0
 11
0.25
 21
0.0
 31
0.0
 40
0.5773502692
 41
1.5707963268
 42
1.7618311193
  0
ELLIPSE
  5
818
100
AcDbEntity
  8
ASSI
100
AcDbEllipse
 62
7
  6
CONTINUOUS
 10
7.4718569132
 20
22.3344902759
 30
0.0
 11
0.25
 21
0.0
 31
0.0
 40
0.0524077793
 41
-3.1241393611
 42
-1.5707963268
  0
ELLIPSE
  5
819
100
AcDbEntity
  8
ASSI
100
AcDbEllipse
 62
7
  6
CONTINUOUS
 10
7.4718569132
 20
22.9783121635
 30
0.0
 11
0.25
 21
0.0
 31
0.0
 40
0.5773502692
 41
1.5707963268
 42
1.7618311193
  0
ELLIPSE
  5
81A
100
AcDbEntity
  8
ASSI
100
AcDbEllipse
 62
7
  6
CONTINUOUS
 10
10.3281430868
 20
22.3344902759
 30
0.0
 11
0.25
 21
0.0
 31
0.0
 40
0.0524077793
 41
-1.5707963268
 42
-0.3162462274
  0
ELLIPSE
  5
81B
100
AcDbEntity
  8
ASSI
100
AcDbEllipse
 62
7
  6
CONTINUOUS
 10
10.3281430868
 20
22.9783121635
 30
0.0
 11
0.25
 21
0.0
 31
0.0
 40
0.5773502692
 41
1.3797615343
 42
1.5707963268
  0
ELLIPSE
  5
81C
100
AcDbEntity
  8
ASSI
100
AcDbEllipse
 62
7
  6
CONTINUOUS
 10
-8.7631293807
 20
22.2820824966
 30
0.0
 11
0.25
 21
0.0
 31
0.0
 40
0.0524077793
 41
-1.5707963268
 42
-0.0174532925
  0
ELLIPSE
  5
81D
100
AcDbEntity
  8
ASSI
100
AcDbEllipse
 62
7
  6
CONTINUOUS
 10
-8.7631293807
 20
23.5556624327
 30
0.0
 11
0.25
 21
0.0
 31
0.0
 40
0.5773502692
 41
0.0174532925
 42
0.5235987756
  0
ELLIPSE
  5
81E
100
AcDbEntity
  8
ASSI
100
AcDbEllipse
 62
7
  6
CONTINUOUS
 10
9.0368706193
 20
23.5556624327
 30
0.0
 11
0.25
 21
0.0
 31
0.0
 40
0.5773502692
 41
0.0174532925
 42
0.5235987756
  0
ELLIPSE
  5
81F
100
AcDbEntity
  8
ASSI
100
AcDbEllipse
 62
7
  6
CONTINUOUS
 10
9.0368706193
 20
22.2820824966
 30
0.0
 11
0.25
 21
-0.0
 31
0.0
 40
0.0524077793
 41
-1.5707963268
 42
-0.0174532925
  0
ELLIPSE
  5
820
100
AcDbEntity
  8
ASSI
100
AcDbEllipse
 62
7
  6
CONTINUOUS
 10
9.0368706193
 20
-22.2820824966
 30
0.0
 11
0.25
 21
-0.0
 31
0.0
 40
0.0524077793
 41
0.0174532925
 42
1.5707963268
  0
ELLIPSE
  5
821
100
AcDbEntity
  8
ASSI
100
AcDbEllipse
 62
7
  6
CONTINUOUS
 10
-8.7631293807
 20
-22.2820824966
 30
0.0
 11
0.25
 21
-0.0
 31
0.0
 40
0.0524077793
 41
0.0174532925
 42
1.5707963268
  0
ELLIPSE
  5
822
100
AcDbEntity
  8
ASSI
100
AcDbEllipse
 62
7
  6
CONTINUOUS
 10
1.0052669851
 20
-22.3842776662
 30
0.0
 11
0.2
 21
-0.0
 31
0.0
 40
0.0524077793
 41
1.5707963268
 42
3.1241393611
  0
ELLIPSE
  5
823
100
AcDbEntity
  8
ASSI
100
AcDbEllipse
 62
7
  6
CONTINUOUS
 10
4.2447330149
 20
-22.3842776662
 30
0.0
 11
0.2
 21
-0.0
 31
0.0
 40
0.0524077793
 41
0.0174532925
 42
1.5707963268
  0
ELLIPSE
  5
824
100
AcDbEntity
  8
ASSI
100
AcDbEllipse
 62
7
  6
CONTINUOUS
 10
4.2447330149
 20
22.3842776662
 30
0.0
 11
0.2
 21
0.0
 31
0.0
 40
0.0524077793
 41
-1.5707963268
 42
-0.0174532925
  0
ELLIPSE
  5
825
100
AcDbEntity
  8
ASSI
100
AcDbEllipse
 62
7
  6
CONTINUOUS
 10
1.0052669851
 20
22.3842776662
 30
0.0
 11
0.2
 21
0.0
 31
0.0
 40
0.0524077793
 41
-3.1241393611
 42
-1.5707963268
  0
ELLIPSE
  5
826
100
AcDbEntity
  8
ASSI
100
AcDbEllipse
 62
7
  6
CONTINUOUS
 10
-4.2447330149
 20
-22.3842776662
 30
0.0
 11
0.2
 21
-0.0
 31
0.0
 40
0.0524077793
 41
1.5707963268
 42
3.1241393611
  0
ELLIPSE
  5
827
100
AcDbEntity
  8
ASSI
100
AcDbEllipse
 62
7
  6
CONTINUOUS
 10
-1.0052669851
 20
-22.3842776662
 30
0.0
 11
0.2
 21
0.0
 31
0.0
 40
0.0524077793
 41
0.0174532925
 42
1.5707963268
  0
ELLIPSE
  5
828
100
AcDbEntity
  8
ASSI
100
AcDbEllipse
 62
7
  6
CONTINUOUS
 10
-4.2447330149
 20
22.3842776662
 30
0.0
 11
0.2
 21
0.0
 31
0.0
 40
0.0524077793
 41
-3.1241393611
 42
-1.5707963268
  0
ELLIPSE
  5
829
100
AcDbEntity
  8
ASSI
100
AcDbEllipse
 62
7
  6
CONTINUOUS
 10
-1.0052669851
 20
22.3842776662
 30
0.0
 11
0.2
 21
-0.0
 31
0.0
 40
0.0524077793
 41
-1.5707963268
 42
-0.0174532925
  0
ELLIPSE
  5
82A
100
AcDbEntity
  8
ASSI
100
AcDbEllipse
 62
7
  6
CONTINUOUS
 10
-10.600342662
 20
21.9003426489
 30
0.0
 11
-0.9888246763
 21
3.0427267403
 31
0.0
 40
0.0489125227
 41
-1.4436485256
 42
-1.4217508691
  0
ELLIPSE
  5
82B
100
AcDbEntity
  8
ASSI
100
AcDbEllipse
 62
7
  6
CONTINUOUS
 10
-10.600342662
 20
-21.9003426489
 30
0.0
 11
0.9888246763
 21
3.0427267403
 31
0.0
 40
0.0489125227
 41
-1.7198418491
 42
-1.697944128
  0
ELLIPSE
  5
82C
100
AcDbEntity
  8
ASSI
100
AcDbEllipse
 62
7
  6
CONTINUOUS
 10
10.600342662
 20
-21.9003426489
 30
0.0
 11
-0.9888246763
 21
3.0427267403
 31
0.0
 40
0.0489125227
 41
-4.5852411792
 42
-4.5633435227
  0
ELLIPSE
  5
82D
100
AcDbEntity
  8
ASSI
100
AcDbEllipse
 62
7
  6
CONTINUOUS
 10
10.600342662
 20
21.9003426489
 30
0.0
 11
0.9888246763
 21
3.0427267403
 31
0.0
 40
0.0489125227
 41
1.4217508045
 42
1.4436485256
  0
ELLIPSE
  5
82E
100
AcDbEntity
  8
ASSI
100
AcDbEllipse
 62
7
  6
CONTINUOUS
 10
-8.7631293807
 20
-23.5556624327
 30
0.0
 11
0.25
 21
0.0
 31
0.0
 40
0.5773502692
 41
-0.5235987756
 42
-0.0174532925
  0
ELLIPSE
  5
82F
100
AcDbEntity
  8
ASSI
100
AcDbEllipse
 62
7
  6
CONTINUOUS
 10
9.0368706193
 20
-23.5556624327
 30
0.0
 11
0.25
 21
-0.0
 31
0.0
 40
0.5773502692
 41
-0.5235987756
 42
-0.0174532925
  0
ELLIPSE
  5
830
100
AcDbEntity
  8
ASSI
100
AcDbEllipse
 62
7
  6
CONTINUOUS
 10
8.7631293807
 20
23.5556624327
 30
0.0
 11
0.25
 21
0.0
 31
0.0
 40
0.5773502692
 41
2.617993878
 42
3.1241393611
  0
ELLIPSE
  5
831
100
AcDbEntity
  8
ASSI
100
AcDbEllipse
 62
7
  6
CONTINUOUS
 10
-9.0368706193
 20
23.5556624327
 30
0.0
 11
0.25
 21
0.0
 31
0.0
 40
0.5773502692
 41
2.617993878
 42
3.1241393611
  0
ELLIPSE
  5
832
100
AcDbEntity
  8
ASSI
100
AcDbEllipse
 62
7
  6
CONTINUOUS
 10
-42.2847154536
 20
23.2
 30
0.0
 11
26.3304431995
 21
-0.0
 31
0.0
 40
0.017367588
 41
-2.5701928713
 42
-2.3053277814
  0
ELLIPSE
  5
833
100
AcDbEntity
  8
ASSI
100
AcDbEllipse
 62
7
  6
CONTINUOUS
 10
-42.2847154536
 20
23.2
 30
0.0
 11
26.3304431995
 21
-0.0
 31
0.0
 40
0.017367588
 41
2.3053277814
 42
2.5701928713
  0
ELLIPSE
  5
834
100
AcDbEntity
  8
ASSI
100
AcDbEllipse
 62
7
  6
CONTINUOUS
 10
-42.2847154536
 20
-23.2
 30
0.0
 11
26.3304431995
 21
-0.0
 31
0.0
 40
0.017367588
 41
-2.5701928713
 42
-2.3053277814
  0
ELLIPSE
  5
835
100
AcDbEntity
  8
ASSI
100
AcDbEllipse
 62
7
  6
CONTINUOUS
 10
-42.2847154536
 20
-23.2
 30
0.0
 11
26.3304431995
 21
0.0
 31
0.0
 40
0.017367588
 41
2.3053277814
 42
2.5701928713
  0
ELLIPSE
  5
836
100
AcDbEntity
  8
ASSI
100
AcDbEllipse
 62
7
  6
CONTINUOUS
 10
-65.4127874652
 20
21.9003426489
 30
0.0
 11
57.2877742299
 21
3.0018677586
 31
0.0
 40
0.0087159045
 41
1.5706822257
 42
1.5925799468
  0
ELLIPSE
  5
837
100
AcDbEntity
  8
ASSI
100
AcDbEllipse
 62
7
  6
CONTINUOUS
 10
-65.4127874652
 20
-21.9003426489
 30
0.0
 11
57.2877742299
 21
-3.0018677586
 31
0.0
 40
0.0087159045
 41
4.6906053604
 42
4.7125030169
  0
ELLIPSE
  5
838
100
AcDbEntity
  8
DRAFT
100
AcDbEllipse
 62
7
  6
CONTINUOUS
 10
-31.1324185567
 20
10.0
 30
0.0
 11
-1.2918901108
 21
1.6556025917
 31
0.0
 40
1.0
 41
-0.6626215756
 42
0.3861029651
  0
ELLIPSE
  5
839
100
AcDbEntity
  8
DRAFT
100
AcDbEllipse
 62
7
  6
CONTINUOUS
 10
-31.1324185567
 20
10.0
 30
0.0
 11
-0.0667961047
 21
2.098937417
 31
0.0
 40
1.0
 41
-4.222130229
 42
-3.1734056884
  0
ELLIPSE
  5
83A
100
AcDbEntity
  8
DRAFT
100
AcDbEllipse
 62
7
  6
CONTINUOUS
 10
-31.1324185567
 20
5.0
 30
0.0
 11
1.9489337142
 21
-0.7820852752
 31
0.0
 40
1.0
 41
1.952413246
 42
3.0011377867
  0
ELLIPSE
  5
83B
100
AcDbEntity
  8
DRAFT
100
AcDbEllipse
 62
7
  6
CONTINUOUS
 10
-31.1324185567
 20
5.0
 30
0.0
 11
1.1195526097
 21
1.7766828513
 31
0.0
 40
1.0
 41
-3.6280327818
 42
-2.5793082411
  0
ELLIPSE
  5
83C
100
AcDbEntity
  8
RACCORDO
100
AcDbEllipse
 62
7
  6
CONTINUOUS
 10
-25.9324185567
 20
7.1098634624
 30
0.0
 11
0.9999999954
 21
0.0055407478
 31
0.0
 40
0.0173607453
 41
0.0133490089
 42
1.5532468428
  0
ELLIPSE
  5
83D
100
AcDbEntity
  8
RACCORDO
100
AcDbEllipse
 62
7
  6
CONTINUOUS
 10
-25.9324185567
 20
2.8901365376
 30
0.0
 11
0.9999999954
 21
-0.0055407478
 31
0.0
 40
0.0173607453
 41
-1.5532468428
 42
-0.0133490089
  0
ELLIPSE
  5
83E
100
AcDbEntity
  8
RACCORDO
100
AcDbEllipse
 62
7
  6
CONTINUOUS
 10
-25.9324185567
 20
12.1098634624
 30
0.0
 11
0.9999999954
 21
0.0055407478
 31
0.0
 40
0.0173607453
 41
0.0133490089
 42
1.5532468428
  0
ELLIPSE
  5
83F
100
AcDbEntity
  8
RACCORDO
100
AcDbEllipse
 62
7
  6
CONTINUOUS
 10
-25.9324185567
 20
7.8901365376
 30
0.0
 11
0.9999999954
 21
-0.0055407478
 31
0.0
 40
0.0173607453
 41
-1.5532468428
 42
-0.0133490089
  0
ELLIPSE
  5
840
100
AcDbEntity
  8
RACCORDO
100
AcDbEllipse
 62
7
  6
CONTINUOUS
 10
-25.9324185567
 20
17.1098634624
 30
0.0
 11
0.9999999954
 21
0.0055407478
 31
0.0
 40
0.0173607453
 41
0.0133490089
 42
1.5532468428
  0
ELLIPSE
  5
841
100
AcDbEntity
  8
RACCORDO
100
AcDbEllipse
 62
7
  6
CONTINUOUS
 10
-25.9324185567
 20
12.8901365376
 30
0.0
 11
0.9999999954
 21
-0.0055407478
 31
0.0
 40
0.0173607453
 41
-1.5532468428
 42
-0.0133490089
  0
ELLIPSE
  5
842
100
AcDbEntity
  8
RACCORDO
100
AcDbEllipse
 62
7
  6
CONTINUOUS
 10
-25.9324185567
 20
-0.746397478
 30
0.0
 11
1.0
 21
0.0
 31
0.0
 40
0.2679491924
 41
-1.5533430343
 42
-0.0134452004
  0
ELLIPSE
  5
843
100
AcDbEntity
  8
RACCORDO
100
AcDbEllipse
 62
7
  6
CONTINUOUS
 10
-25.9324185567
 20
0.746397478
 30
0.0
 11
1.0
 21
0.0
 31
0.0
 40
0.2679491924
 41
0.0134452004
 42
1.5533430343
  0
ELLIPSE
  5
844
100
AcDbEntity
  8
RACCORDO
100
AcDbEllipse
 62
7
  6
CONTINUOUS
 10
-25.9324185567
 20
-5.746397478
 30
0.0
 11
1.0
 21
0.0
 31
0.0
 40
0.2679491924
 41
-1.5533430343
 42
-0.0134452004
  0
ELLIPSE
  5
845
100
AcDbEntity
  8
RACCORDO
100
AcDbEllipse
 62
7
  6
CONTINUOUS
 10
-25.9324185567
 20
-4.253602522
 30
0.0
 11
1.0
 21
0.0
 31
0.0
 40
0.2679491924
 41
0.0134452004
 42
1.5533430343
  0
ELLIPSE
  5
846
100
AcDbEntity
  8
RACCORDO
100
AcDbEllipse
 62
7
  6
CONTINUOUS
 10
-25.9324185567
 20
-10.746397478
 30
0.0
 11
1.0
 21
0.0
 31
0.0
 40
0.2679491924
 41
-1.5533430343
 42
-0.0134452004
  0
ELLIPSE
  5
847
100
AcDbEntity
  8
RACCORDO
100
AcDbEllipse
 62
7
  6
CONTINUOUS
 10
-25.9324185567
 20
-9.253602522
 30
0.0
 11
1.0
 21
0.0
 31
0.0
 40
0.2679491924
 41
0.0134452004
 42
1.5533430343
  0
ELLIPSE
  5
848
100
AcDbEntity
  8
RACCORDO
100
AcDbEllipse
 62
7
  6
CONTINUOUS
 10
-25.9324185567
 20
-15.746397478
 30
0.0
 11
1.0
 21
0.0
 31
0.0
 40
0.2679491924
 41
-1.5533430343
 42
-0.0134452004
  0
ELLIPSE
  5
849
100
AcDbEntity
  8
RACCORDO
100
AcDbEllipse
 62
7
  6
CONTINUOUS
 10
-25.9324185567
 20
-14.253602522
 30
0.0
 11
1.0
 21
-0.0
 31
0.0
 40
0.2679491924
 41
0.0134452004
 42
1.5533430343
  0
ELLIPSE
  5
84A
100
AcDbEntity
  8
DRAFT
100
AcDbEllipse
 62
7
  6
CONTINUOUS
 10
-31.1324185567
 20
15.0
 30
0.0
 11
2.0919805088
 21
0.1833508952
 31
0.0
 40
1.0
 41
1.4833750667
 42
2.5320996074
  0
ELLIPSE
  5
84B
100
AcDbEntity
  8
DRAFT
100
AcDbEllipse
 62
7
  6
CONTINUOUS
 10
-31.1324185567
 20
15.0
 30
0.0
 11
2.0999893655
 21
0.0066831691
 31
0.0
 40
1.0
 41
-2.6227033343
 42
-1.5739787937
  0
ELLIPSE
  5
84C
100
AcDbEntity
  8
ASSI
100
AcDbEllipse
 62
7
  6
CONTINUOUS
 10
-31.1324185567
 20
10.0
 30
0.0
 11
-1.2918901108
 21
1.6556025917
 31
0.0
 40
1.0
 41
-0.6626215756
 42
0.3861029651
  0
ELLIPSE
  5
84D
100
AcDbEntity
  8
ASSI
100
AcDbEllipse
 62
7
  6
CONTINUOUS
 10
-25.9324185567
 20
-14.253602522
 30
0.0
 11
1.0
 21
-0.0
 31
0.0
 40
0.2679491924
 41
0.0134452004
 42
1.5533430343
  0
ELLIPSE
  5
84E
100
AcDbEntity
  8
ASSI
100
AcDbEllipse
 62
7
  6
CONTINUOUS
 10
-25.9324185567
 20
-15.746397478
 30
0.0
 11
1.0
 21
0.0
 31
0.0
 40
0.2679491924
 41
-1.5533430343
 42
-0.0134452004
  0
ELLIPSE
  5
84F
100
AcDbEntity
  8
ASSI
100
AcDbEllipse
 62
7
  6
CONTINUOUS
 10
-25.9324185567
 20
-9.253602522
 30
0.0
 11
1.0
 21
0.0
 31
0.0
 40
0.2679491924
 41
0.0134452004
 42
1.5533430343
  0
ELLIPSE
  5
850
100
AcDbEntity
  8
ASSI
100
AcDbEllipse
 62
7
  6
CONTINUOUS
 10
-25.9324185567
 20
-10.746397478
 30
0.0
 11
1.0
 21
0.0
 31
0.0
 40
0.2679491924
 41
-1.5533430343
 42
-0.0134452004
  0
ELLIPSE
  5
851
100
AcDbEntity
  8
ASSI
100
AcDbEllipse
 62
7
  6
CONTINUOUS
 10
-25.9324185567
 20
-4.253602522
 30
0.0
 11
1.0
 21
0.0
 31
0.0
 40
0.2679491924
 41
0.0134452004
 42
1.5533430343
  0
ELLIPSE
  5
852
100
AcDbEntity
  8
ASSI
100
AcDbEllipse
 62
7
  6
CONTINUOUS
 10
-25.9324185567
 20
-5.746397478
 30
0.0
 11
1.0
 21
0.0
 31
0.0
 40
0.2679491924
 41
-1.5533430343
 42
-0.0134452004
  0
ELLIPSE
  5
853
100
AcDbEntity
  8
ASSI
100
AcDbEllipse
 62
7
  6
CONTINUOUS
 10
-25.9324185567
 20
0.746397478
 30
0.0
 11
1.0
 21
0.0
 31
0.0
 40
0.2679491924
 41
0.0134452004
 42
1.5533430343
  0
ELLIPSE
  5
854
100
AcDbEntity
  8
ASSI
100
AcDbEllipse
 62
7
  6
CONTINUOUS
 10
-25.9324185567
 20
-0.746397478
 30
0.0
 11
1.0
 21
0.0
 31
0.0
 40
0.2679491924
 41
-1.5533430343
 42
-0.0134452004
  0
ELLIPSE
  5
855
100
AcDbEntity
  8
ASSI
100
AcDbEllipse
 62
7
  6
CONTINUOUS
 10
-25.9324185567
 20
12.8901365376
 30
0.0
 11
0.9999999954
 21
-0.0055407478
 31
0.0
 40
0.0173607453
 41
-1.5532468428
 42
-0.0133490089
  0
ELLIPSE
  5
856
100
AcDbEntity
  8
ASSI
100
AcDbEllipse
 62
7
  6
CONTINUOUS
 10
-31.1324185567
 20
15.0
 30
0.0
 11
2.0919805088
 21
0.1833508952
 31
0.0
 40
1.0
 41
1.4833750667
 42
2.5320996074
  0
ELLIPSE
  5
857
100
AcDbEntity
  8
ASSI
100
AcDbEllipse
 62
7
  6
CONTINUOUS
 10
-25.9324185567
 20
17.1098634624
 30
0.0
 11
0.9999999954
 21
0.0055407478
 31
0.0
 40
0.0173607453
 41
0.0133490089
 42
1.5532468428
  0
ELLIPSE
  5
858
100
AcDbEntity
  8
ASSI
100
AcDbEllipse
 62
7
  6
CONTINUOUS
 10
-25.9324185567
 20
7.8901365376
 30
0.0
 11
0.9999999954
 21
-0.0055407478
 31
0.0
 40
0.0173607453
 41
-1.5532468428
 42
-0.0133490089
  0
ELLIPSE
  5
859
100
AcDbEntity
  8
ASSI
100
AcDbEllipse
 62
7
  6
CONTINUOUS
 10
-25.9324185567
 20
12.1098634624
 30
0.0
 11
0.9999999954
 21
0.0055407478
 31
0.0
 40
0.0173607453
 41
0.0133490089
 42
1.5532468428
  0
ELLIPSE
  5
85A
100
AcDbEntity
  8
ASSI
100
AcDbEllipse
 62
7
  6
CONTINUOUS
 10
-25.9324185567
 20
2.8901365376
 30
0.0
 11
0.9999999954
 21
-0.0055407478
 31
0.0
 40
0.0173607453
 41
-1.5532468428
 42
-0.0133490089
  0
ELLIPSE
  5
85B
100
AcDbEntity
  8
ASSI
100
AcDbEllipse
 62
7
  6
CONTINUOUS
 10
-25.9324185567
 20
7.1098634624
 30
0.0
 11
0.9999999954
 21
0.0055407478
 31
0.0
 40
0.0173607453
 41
0.0133490089
 42
1.5532468428
  0
ELLIPSE
  5
85C
100
AcDbEntity
  8
ASSI
100
AcDbEllipse
 62
7
  6
CONTINUOUS
 10
-31.1324185567
 20
15.0
 30
0.0
 11
2.0999893655
 21
0.0066831691
 31
0.0
 40
1.0
 41
-2.6227033343
 42
-1.5739787937
  0
ELLIPSE
  5
85D
100
AcDbEntity
  8
ASSI
100
AcDbEllipse
 62
7
  6
CONTINUOUS
 10
-31.1324185567
 20
10.0
 30
0.0
 11
-0.0667961047
 21
2.098937417
 31
0.0
 40
1.0
 41
-4.222130229
 42
-3.1734056884
  0
ELLIPSE
  5
85E
100
AcDbEntity
  8
ASSI
100
AcDbEllipse
 62
7
  6
CONTINUOUS
 10
-31.1324185567
 20
5.0
 30
0.0
 11
1.9489337142
 21
-0.7820852752
 31
0.0
 40
1.0
 41
1.952413246
 42
3.0011377867
  0
ELLIPSE
  5
85F
100
AcDbEntity
  8
ASSI
100
AcDbEllipse
 62
7
  6
CONTINUOUS
 10
-31.1324185567
 20
5.0
 30
0.0
 11
1.1195526097
 21
1.7766828513
 31
0.0
 40
1.0
 41
-3.6280327818
 42
-2.5793082411
  0
ENDSEC
  0
SECTION
  2
OBJECTS
  0
DICTIONARY
  5
C
100
AcDbDictionary
280
0
281
1
  3
ACAD_GROUP
350
D
  3
ACAD_MLINESTYLE
350
17
  3
ACAD_LAYOUT
350
1A
  3
ACAD_PLOTSETTINGS
350
19
  3
ACAD_PLOTSTYLENAME
350
E
  0
DICTIONARY
  5
D
102
{ACAD_REACTORS
330
C
102
}
100
AcDbDictionary
280
0
281
1
  0
ACDBDICTIONARYWDFLT
  5
E
102
{ACAD_REACTORS
330
C
102
}
100
AcDbDictionary
281
1
  3
Normal
350
F
100
AcDbDictionaryWithDefault
340
F
  0
DICTIONARY
  5
17
102
{ACAD_REACTORS
330
C
102
}
100
AcDbDictionary
280
0
281
1
  3
Standard
350
18
  0
DICTIONARY
  5
19
102
{ACAD_REACTORS
330
C
102
}
100
AcDbDictionary
281
1
  0
DICTIONARY
  5
1A
102
{ACAD_REACTORS
330
C
102
}
100
AcDbDictionary
281
1
  3
Model
350
860
  3
Layout1
350
861
  0
ACDBPLACEHOLDER
  5
F
102
{ACAD_REACTORS
330
E
102
}
  0
MLINESTYLE
  5
18
102
{ACAD_REACTORS
330
17
102
}
100
AcDbMlineStyle
  2
STANDARD
 70
0
  3

 62
256
 51
90.0
 52
90.0
 71
2
 49
0.5
 62
256
  6
BYLAYER
 49
-0.5
 62
256
  6
BYLAYER
  0
LAYOUT
  5
860
102
{ACAD_REACTORS
330
1A
102
}
100
AcDbPlotSettings
  1

  2
none_device
  4
ISO_A4_(297.00_x_210.00_MM)
  6

 40
0.0
 41
0.0
 42
0.0
 43
0.0
 44
297.0
 45
210.0
 46
0.0
 47
0.0
 48
0.0
 49
0.0
140
0.0
141
0.0
142
1.0
143
1.0
 70
1024
 72
1
 73
0
 74
0
  7

 75
0
147
1.0
148
0.0
149
0.0
100
AcDbLayout
  1
Model
 70
0
 71
0
 10
0.0
 20
0.0
 11
297.0
 21
210.0
 12
0.0
 22
0.0
 32
0.0
 14
0.0
 24
0.0
 34
0.0
 15
0.0
 25
0.0
 35
0.0
146
0.0
 13
0.0
 23
0.0
 33
0.0
 16
1.0
 26
0.0
 36
0.0
 17
0.0
 27
1.0
 37
0.0
 76
0
330
21B
345
0
346
0
  0
LAYOUT
  5
861
102
{ACAD_REACTORS
330
1A
102
}
100
AcDbPlotSettings
  1

  2
none_device
  4
ISO_A4_(297.00_x_210.00_MM)
  6

 40
0.0
 41
0.0
 42
0.0
 43
0.0
 44
297.0
 45
210.0
 46
0.0
 47
0.0
 48
0.0
 49
0.0
140
0.0
141
0.0
142
1.0
143
1.0
 70
0
 72
1
 73
0
 74
0
  7

 75
0
147
1.0
148
0.0
149
0.0
100
AcDbLayout
  1
Layout1
 70
0
 71
1
 10
0.0
 20
0.0
 11
297.0
 21
210.0
 12
0.0
 22
0.0
 32
0.0
 14
0.0
 24
0.0
 34
0.0
 15
0.0
 25
0.0
 35
0.0
146
0.0
 13
0.0
 23
0.0
 33
0.0
 16
1.0
 26
0.0
 36
0.0
 17
0.0
 27
1.0
 37
0.0
 76
0
330
21C
345
0
346
0
  0
ENDSEC
  0
EOF
