  0
SECTION
  2
HEADER
  9
$ACADVER
  1
AC1015
  9
$DWGCODEPAGE
  3
ANSI_1252
  9
$EXTMAX
 10
297.0
 20
210.0
 30
0.0
  9
$EXTMIN
 10
0.0
 20
0.0
 30
0.0
  9
$LIMMIN
 10
0.0
 20
0.0
  9
$LIMMAX
 10
297.0
 20
210.0
  9
$VIEWCTR
 10
148.5
 20
105.0
  9
$VIEWSIZE
 40
210.0
  9
$CLAYER
  8
0
  9
$LTSCALE
 40
16.335
  9
$CELTYPE
  6
BYLAYER
  9
$DIMSCALE
 40
1.0
  9
$DIMASZ
 40
3.0
  9
$DIMEXO
 40
1.85625
  9
$DIMDLI
 40
11.286
  9
$DIMEXE
 40
5.346
  9
$DIMCEN
 40
2.673
  9
$DIMLFAC
 40
1.0
  9
$DIMBLK
  1
_FILLED
  9
$DIMTXT
 40
3.0
  9
$DIMTOL
 70
1
  9
$DIMLIM
 70
0
  9
$DIMTFAC
 40
1.0
  9
$DIMTP
 40
0.01
  9
$DIMTM
 40
0.01
  9
$PDMODE
 70
3
  9
$PDSIZE
 40
3.0
  9
$HANDSEED
  5
7B6
  9
$TILEMODE
 70
1
  9
$MEASUREMENT
 70
1
  9
$INSUNITS
 70
4
  0
ENDSEC
  0
SECTION
  2
CLASSES
  0
CLASS
  1
ACDBDICTIONARYWDFLT
  2
AcDbDictionaryWithDefault
  3
AutoCAD 2000
 90
0
280
0
281
0
  0
CLASS
  1
ACDBPLACEHOLDER
  2
AcDbPlaceHolder
  3
AutoCAD 2000
 90
0
280
0
281
0
  0
CLASS
  1
LAYOUT
  2
AcDbLayout
  3
AutoCAD 2000
 90
0
280
0
281
0
  0
ENDSEC
  0
SECTION
  2
TABLES
  0
TABLE
  2
VPORT
  5
8
100
AcDbSymbolTable
 70
2
  0
VPORT
  5
1F4
100
AcDbSymbolTableRecord
100
AcDbViewportTableRecord
  2
*ACTIVE
 70
0
 10
0.0
 20
0.0
 11
1.0
 21
1.0
 12
148.5
 22
105.0
 13
0.0
 23
0.0
 14
1.0
 24
1.0
 15
0.0
 25
0.0
 16
0.0
 26
0.0
 36
1.0
 17
0.0
 27
0.0
 37
0.0
 40
210.0
 41
1.4142857143
 42
50.0
 43
0.0
 44
0.0
 50
0.0
 51
0.0
 71
0
 72
100
 73
1
 74
1
 75
0
 76
0
 77
0
 78
0
  0
ENDTAB
  0
TABLE
  2
LTYPE
  5
5
100
AcDbSymbolTable
 70
6
  0
LTYPE
  5
14
100
AcDbSymbolTableRecord
100
AcDbLinetypeTableRecord
  2
BYBLOCK
 70
0
  3

 72
65
 73
0
 40
0.0
  0
LTYPE
  5
15
100
AcDbSymbolTableRecord
100
AcDbLinetypeTableRecord
  2
BYLAYER
 70
0
  3

 72
65
 73
0
 40
0.0
  0
LTYPE
  5
16
100
AcDbSymbolTableRecord
100
AcDbLinetypeTableRecord
  2
CONTINUOUS
 70
64
  3
Solid line
 72
65
 73
0
 40
0.0
  0
LTYPE
  5
1F5
100
AcDbSymbolTableRecord
100
AcDbLinetypeTableRecord
  2
CENTER
 70
64
  3
____ _ ____ _ ____ _ ____ _ ____ _ ____ _ ____
 72
65
 73
4
 40
0.6
 49
0.375
 74
0
 49
-0.075
 74
0
 49
0.075
 74
0
 49
-0.075
 74
0
  0
LTYPE
  5
1F6
100
AcDbSymbolTableRecord
100
AcDbLinetypeTableRecord
  2
HIDDEN
 70
64
  3
- - - - - - - - - - - - - - - - - - - -
 72
65
 73
2
 40
0.2
 49
0.1
 74
0
 49
-0.1
 74
0
  0
LTYPE
  5
1F7
100
AcDbSymbolTableRecord
100
AcDbLinetypeTableRecord
  2
PHANTOM
 70
64
  3
_____ _ _ _____ _ _ _____ _ _ _____
 72
65
 73
6
 40
0.8
 49
0.45
 74
0
 49
-0.05
 74
0
 49
0.1
 74
0
 49
-0.05
 74
0
 49
0.1
 74
0
 49
-0.05
 74
0
  0
LTYPE
  5
1F8
100
AcDbSymbolTableRecord
100
AcDbLinetypeTableRecord
  2
DOT
 70
64
  3
. . . . . . . . . . . . . . . . . . . .
 72
65
 73
2
 40
0.2
 49
0.1
 74
0
 49
-0.1
 74
0
  0
LTYPE
  5
1F9
100
AcDbSymbolTableRecord
100
AcDbLinetypeTableRecord
  2
DASHED
 70
64
  3
- - - - - - - - - - - - - - - - - - - -
 72
65
 73
2
 40
0.2
 49
0.1
 74
0
 49
-0.1
 74
0
  0
ENDTAB
  0
TABLE
  2
LAYER
  5
2
100
AcDbSymbolTable
 70
36
  0
LAYER
  5
10
100
AcDbSymbolTableRecord
100
AcDbLayerTableRecord
  2
0
 70
0
 62
7
  6
CONTINUOUS
370
-3
390
F
  0
LAYER
  5
1FA
100
AcDbSymbolTableRecord
100
AcDbLayerTableRecord
  2
DEFAULT_1
 70
0
 62
7
  6
CENTER
370
-3
390
F
  0
LAYER
  5
1FB
100
AcDbSymbolTableRecord
100
AcDbLayerTableRecord
  2
DEFAULT_2
 70
0
 62
7
  6
HIDDEN
370
-3
390
F
  0
LAYER
  5
1FC
100
AcDbSymbolTableRecord
100
AcDbLayerTableRecord
  2
DEFAULT_3
 70
0
 62
7
  6
PHANTOM
370
-3
390
F
  0
LAYER
  5
1FD
100
AcDbSymbolTableRecord
100
AcDbLayerTableRecord
  2
ASSI
 70
0
 62
7
  6
CONTINUOUS
370
-3
390
F
  0
LAYER
  5
1FE
100
AcDbSymbolTableRecord
100
AcDbLayerTableRecord
  2
COORDINATE
 70
0
 62
7
  6
CONTINUOUS
370
-3
390
F
  0
LAYER
  5
1FF
100
AcDbSymbolTableRecord
100
AcDbLayerTableRecord
  2
COORD_ORIGINE
 70
0
 62
7
  6
CONTINUOUS
370
-3
390
F
  0
LAYER
  5
200
100
AcDbSymbolTableRecord
100
AcDbLayerTableRecord
  2
COPY_PUBLISH
 70
0
 62
7
  6
CONTINUOUS
370
-3
390
F
  0
LAYER
  5
201
100
AcDbSymbolTableRecord
100
AcDbLayerTableRecord
  2
COSMETIC
 70
0
 62
7
  6
CONTINUOUS
370
-3
390
F
  0
LAYER
  5
202
100
AcDbSymbolTableRecord
100
AcDbLayerTableRecord
  2
CURVE
 70
0
 62
7
  6
CONTINUOUS
370
-3
390
F
  0
LAYER
  5
203
100
AcDbSymbolTableRecord
100
AcDbLayerTableRecord
  2
DRAFT
 70
0
 62
7
  6
CONTINUOUS
370
-3
390
F
  0
LAYER
  5
204
100
AcDbSymbolTableRecord
100
AcDbLayerTableRecord
  2
IMPORT
 70
0
 62
7
  6
CONTINUOUS
370
-3
390
F
  0
LAYER
  5
205
100
AcDbSymbolTableRecord
100
AcDbLayerTableRecord
  2
IMPORT_IGES
 70
0
 62
7
  6
CONTINUOUS
370
-3
390
F
  0
LAYER
  5
206
100
AcDbSymbolTableRecord
100
AcDbLayerTableRecord
  2
INTFCLR_1
 70
0
 62
7
  6
CONTINUOUS
370
-3
390
F
  0
LAYER
  5
207
100
AcDbSymbolTableRecord
100
AcDbLayerTableRecord
  2
INTF_1
 70
0
 62
7
  6
CONTINUOUS
370
-3
390
F
  0
LAYER
  5
208
100
AcDbSymbolTableRecord
100
AcDbLayerTableRecord
  2
INTF_15
 70
0
 62
7
  6
CONTINUOUS
370
-3
390
F
  0
LAYER
  5
209
100
AcDbSymbolTableRecord
100
AcDbLayerTableRecord
  2
INTF_16
 70
0
 62
7
  6
CONTINUOUS
370
-3
390
F
  0
LAYER
  5
20A
100
AcDbSymbolTableRecord
100
AcDbLayerTableRecord
  2
NOTE
 70
0
 62
7
  6
CONTINUOUS
370
-3
390
F
  0
LAYER
  5
20B
100
AcDbSymbolTableRecord
100
AcDbLayerTableRecord
  2
PIANI
 70
0
 62
7
  6
CONTINUOUS
370
-3
390
F
  0
LAYER
  5
20C
100
AcDbSymbolTableRecord
100
AcDbLayerTableRecord
  2
PIANI_ORIGINE
 70
0
 62
7
  6
CONTINUOUS
370
-3
390
F
  0
LAYER
  5
20D
100
AcDbSymbolTableRecord
100
AcDbLayerTableRecord
  2
PIANI_RIFERIMENTO
 70
0
 62
7
  6
CONTINUOUS
370
-3
390
F
  0
LAYER
  5
20E
100
AcDbSymbolTableRecord
100
AcDbLayerTableRecord
  2
PIANI_SFORMO
 70
0
 62
7
  6
CONTINUOUS
370
-3
390
F
  0
LAYER
  5
20F
100
AcDbSymbolTableRecord
100
AcDbLayerTableRecord
  2
PUNTI
 70
0
 62
7
  6
CONTINUOUS
370
-3
390
F
  0
LAYER
  5
210
100
AcDbSymbolTableRecord
100
AcDbLayerTableRecord
  2
RACCORDO
 70
0
 62
7
  6
CONTINUOUS
370
-3
390
F
  0
LAYER
  5
211
100
AcDbSymbolTableRecord
100
AcDbLayerTableRecord
  2
SMUSSO
 70
0
 62
7
  6
CONTINUOUS
370
-3
390
F
  0
LAYER
  5
212
100
AcDbSymbolTableRecord
100
AcDbLayerTableRecord
  2
SNAPLINE
 70
0
 62
7
  6
CONTINUOUS
370
-3
390
F
  0
LAYER
  5
213
100
AcDbSymbolTableRecord
100
AcDbLayerTableRecord
  2
SUPERFICI
 70
0
 62
7
  6
CONTINUOUS
370
-3
390
F
  0
LAYER
  5
214
100
AcDbSymbolTableRecord
100
AcDbLayerTableRecord
  2
SUPERFICI_SKEL
 70
0
 62
7
  6
CONTINUOUS
370
-3
390
F
  0
LAYER
  5
215
100
AcDbSymbolTableRecord
100
AcDbLayerTableRecord
  2
TRASH
 70
0
 62
7
  6
CONTINUOUS
370
-3
390
F
  0
ENDTAB
  0
TABLE
  2
STYLE
  5
3
100
AcDbSymbolTable
 70
1
  0
STYLE
  5
11
100
AcDbSymbolTableRecord
100
AcDbTextStyleTableRecord
  2
STANDARD
 70
0
 40
0.0
 41
0.8
 50
0.0
 71
0
 42
0.2
  3
txt
  4

  0
STYLE
  5
216
100
AcDbSymbolTableRecord
100
AcDbTextStyleTableRecord
  2
TEXTSTYLE_1
 70
0
 40
0.0
 41
0.8
 50
0.0
 71
0
 42
0.2
  3
gdt
  4

  0
ENDTAB
  0
TABLE
  2
VIEW
  5
6
100
AcDbSymbolTable
 70
0
  0
ENDTAB
  0
TABLE
  2
UCS
  5
7
100
AcDbSymbolTable
 70
0
  0
ENDTAB
  0
TABLE
  2
APPID
  5
9
100
AcDbSymbolTable
 70
1
  0
APPID
  5
217
100
AcDbSymbolTableRecord
100
AcDbRegAppTableRecord
  2
ACAD
 70
0
  0
ENDTAB
  0
TABLE
  2
BLOCK_RECORD
  5
1
100
AcDbSymbolTable
 70
0
  0
BLOCK_RECORD
  5
218
100
AcDbSymbolTableRecord
100
AcDbBlockTableRecord
  2
*Model_Space
  0
BLOCK_RECORD
  5
219
100
AcDbSymbolTableRecord
100
AcDbBlockTableRecord
  2
*Paper_Space
  0
BLOCK_RECORD
  5
21A
100
AcDbSymbolTableRecord
100
AcDbBlockTableRecord
  2
_FILLED
  0
BLOCK_RECORD
  5
21B
100
AcDbSymbolTableRecord
100
AcDbBlockTableRecord
  2
*D0
  0
BLOCK_RECORD
  5
21C
100
AcDbSymbolTableRecord
100
AcDbBlockTableRecord
  2
*D1
  0
BLOCK_RECORD
  5
21D
100
AcDbSymbolTableRecord
100
AcDbBlockTableRecord
  2
*D2
  0
BLOCK_RECORD
  5
21E
100
AcDbSymbolTableRecord
100
AcDbBlockTableRecord
  2
*D3
  0
ENDTAB
  0
TABLE
  2
DIMSTYLE
  5
A
100
AcDbSymbolTable
 70
1
100
AcDbDimStyleTable
 71
0
  0
DIMSTYLE
105
21F
100
AcDbSymbolTableRecord
100
AcDbDimStyleTableRecord
  2
STANDARD
 70
0
  3

  4

 40
1.0
 41
3.0
 42
0.0625
 43
0.38
 44
0.18
 45
0.0
 46
0.0
 47
0.01
 48
0.01
140
3.0
141
0.09
142
0.0
143
25.4
144
1.0
145
0.0
146
1.0
147
0.09
 71
1.0
 72
0.0
 73
0
 74
0
 75
0
 76
0
 77
1
 78
8
170
0
171
2
172
0
173
0
174
0
175
0
176
0
177
0
178
0
270
2
271
2
272
2
273
2
274
2
275
0
280
0
281
0
282
0
283
1
284
8
285
0
286
0
287
3
288
0
340
11
341
21A
342
21A
343
21A
344
21A
  0
DIMSTYLE
105
220
100
AcDbSymbolTableRecord
100
AcDbDimStyleTableRecord
  2
DIMSTYLE_1
 70
0
  3

  4

 40
1.0
 41
3.0
 42
0.0625
 43
0.38
 44
0.18
 45
0.0
 46
0.0
 47
0.0
 48
0.0
140
3.0
141
0.09
142
0.0
143
25.4
144
1.0
145
0.0
146
1.0
147
0.09
 71
0.0
 72
0.0
 73
0
 74
0
 75
0
 76
0
 77
1
 78
8
170
0
171
2
172
0
173
0
174
0
175
0
176
0
177
0
178
0
270
2
271
2
272
2
273
2
274
2
275
0
280
0
281
0
282
0
283
1
284
8
285
0
286
0
287
3
288
0
340
11
341
21A
342
21A
343
21A
344
21A
  0
DIMSTYLE
105
221
100
AcDbSymbolTableRecord
100
AcDbDimStyleTableRecord
  2
DIMSTYLE_2
 70
0
  3

  4

 40
1.0
 41
3.0
 42
0.0625
 43
0.38
 44
0.18
 45
0.0
 46
0.0
 47
0.0
 48
0.0
140
3.0
141
0.09
142
0.0
143
25.4
144
1.0
145
0.0
146
1.0
147
0.09
 71
0.0
 72
0.0
 73
0
 74
0
 75
0
 76
0
 77
1
 78
8
170
0
171
2
172
0
173
0
174
0
175
0
176
0
177
0
178
0
270
2
271
1
272
1
273
2
274
2
275
0
280
0
281
0
282
0
283
1
284
8
285
0
286
0
287
3
288
0
340
11
341
21A
342
21A
343
21A
344
21A
  0
ENDTAB
  0
ENDSEC
  0
SECTION
  2
BLOCKS
  0
BLOCK
  5
20
100
AcDbEntity
  8
0
100
AcDbBlockBegin
  2
*Model_Space
 70
0
 10
0.0
 20
0.0
 30
0.0
  3
*Model_Space
  1

  0
ENDBLK
  5
21
100
AcDbEntity
  8
0
100
AcDbBlockEnd
  0
BLOCK
  5
1C
100
AcDbEntity
  8
0
100
AcDbBlockBegin
  2
*Paper_Space
 70
0
 10
0.0
 20
0.0
 30
0.0
  3
*Paper_Space
  1

  0
ENDBLK
  5
1D
100
AcDbEntity
  8
0
100
AcDbBlockEnd
  0
BLOCK
  5
222
100
AcDbEntity
  8
0
100
AcDbBlockBegin
  2
_FILLED
 70
64
 10
0.0
 20
0.0
  3
_FILLED
  1

  0
SOLID
  5
223
100
AcDbEntity
  8
0
  6
BYBLOCK
 62
0
100
AcDbTrace
 10
0.0
 20
0.0
 11
-1.0
 21
0.3166666667
 12
-1.0
 22
-0.3166666667
 13
-1.0
 23
-0.3166666667
  0
ENDBLK
  5
224
100
AcDbEntity
  8
0
  6
BYBLOCK
 62
0
100
AcDbBlockEnd
  0
BLOCK
  5
225
100
AcDbEntity
  8
0
100
AcDbBlockBegin
 62
7
  6
CONTINUOUS
  2
*D0
 70
65
 10
0.0
 20
0.0
  3
*D0
  1

  0
LINE
  5
226
100
AcDbEntity
  8
0
100
AcDbLine
 62
7
  6
CONTINUOUS
 10
-26.5121530485
 20
13.8984939452
 11
-26.5121530485
 21
45.569132182
  0
LINE
  5
227
100
AcDbEntity
  8
0
100
AcDbLine
 62
7
  6
CONTINUOUS
 10
-59.6121530485
 20
31.5582206107
 11
-59.6121530485
 21
45.569132182
  0
LINE
  5
228
100
AcDbEntity
  8
0
100
AcDbLine
 62
7
  6
CONTINUOUS
 10
-26.5121530485
 20
44.069132182
 11
-43.0621530485
 21
44.069132182
  0
LINE
  5
229
100
AcDbEntity
  8
0
100
AcDbLine
 62
7
  6
CONTINUOUS
 10
-59.6121530485
 20
44.069132182
 11
-43.0621530485
 21
44.069132182
  0
INSERT
  5
22A
100
AcDbEntity
  8
0
100
AcDbBlockReference
 62
7
  6
CONTINUOUS
  2
_FILLED
 10
-26.5121530485
 20
44.069132182
 41
3.0
 42
3.0
 43
3.0
  0
INSERT
  5
22B
100
AcDbEntity
  8
0
100
AcDbBlockReference
 62
7
  6
CONTINUOUS
  2
_FILLED
 10
-59.6121530485
 20
44.069132182
 41
3.0
 42
3.0
 43
3.0
 50
180.0
  0
ENDBLK
  5
22C
100
AcDbEntity
  8
0
  6
BYBLOCK
 62
0
100
AcDbBlockEnd
  0
BLOCK
  5
22D
100
AcDbEntity
  8
0
100
AcDbBlockBegin
 62
7
  6
CONTINUOUS
  2
*D1
 70
65
 10
0.0
 20
0.0
  3
*D1
  1

  0
LINE
  5
22E
100
AcDbEntity
  8
0
100
AcDbLine
 62
7
  6
CONTINUOUS
 10
-12.3349272349
 20
31.0757518281
 11
-12.3349272349
 21
45.569132182
  0
LINE
  5
22F
100
AcDbEntity
  8
0
100
AcDbLine
 62
7
  6
CONTINUOUS
 10
9.8650727651
 20
31.0757518281
 11
9.8650727651
 21
45.569132182
  0
LINE
  5
230
100
AcDbEntity
  8
0
100
AcDbLine
 62
7
  6
CONTINUOUS
 10
-12.3349272349
 20
44.069132182
 11
-1.2349272349
 21
44.069132182
  0
LINE
  5
231
100
AcDbEntity
  8
0
100
AcDbLine
 62
7
  6
CONTINUOUS
 10
9.8650727651
 20
44.069132182
 11
-1.2349272349
 21
44.069132182
  0
INSERT
  5
232
100
AcDbEntity
  8
0
100
AcDbBlockReference
 62
7
  6
CONTINUOUS
  2
_FILLED
 10
-12.3349272349
 20
44.069132182
 41
3.0
 42
3.0
 43
3.0
 50
180.0
  0
INSERT
  5
233
100
AcDbEntity
  8
0
100
AcDbBlockReference
 62
7
  6
CONTINUOUS
  2
_FILLED
 10
9.8650727651
 20
44.069132182
 41
3.0
 42
3.0
 43
3.0
  0
ENDBLK
  5
234
100
AcDbEntity
  8
0
  6
BYBLOCK
 62
0
100
AcDbBlockEnd
  0
BLOCK
  5
235
100
AcDbEntity
  8
0
100
AcDbBlockBegin
 62
7
  6
CONTINUOUS
  2
*D2
 70
65
 10
0.0
 20
0.0
  3
*D2
  1

  0
LINE
  5
236
100
AcDbEntity
  8
0
100
AcDbLine
 62
7
  6
CONTINUOUS
 10
9.665103226
 20
-15.8243243243
 11
24.3510550292
 21
-15.8243243243
  0
LINE
  5
237
100
AcDbEntity
  8
0
100
AcDbLine
 62
7
  6
CONTINUOUS
 10
9.665103226
 20
33.1756756757
 11
24.3510550292
 21
33.1756756757
  0
LINE
  5
238
100
AcDbEntity
  8
0
100
AcDbLine
 62
7
  6
CONTINUOUS
 10
22.8510550292
 20
-15.8243243243
 11
22.8510550292
 21
8.6756756757
  0
LINE
  5
239
100
AcDbEntity
  8
0
100
AcDbLine
 62
7
  6
CONTINUOUS
 10
22.8510550292
 20
33.1756756757
 11
22.8510550292
 21
8.6756756757
  0
INSERT
  5
23A
100
AcDbEntity
  8
0
100
AcDbBlockReference
 62
7
  6
CONTINUOUS
  2
_FILLED
 10
22.8510550292
 20
-15.8243243243
 41
3.0
 42
3.0
 43
3.0
 50
270.0
  0
INSERT
  5
23B
100
AcDbEntity
  8
0
100
AcDbBlockReference
 62
7
  6
CONTINUOUS
  2
_FILLED
 10
22.8510550292
 20
33.1756756757
 41
3.0
 42
3.0
 43
3.0
 50
90.0
  0
ENDBLK
  5
23C
100
AcDbEntity
  8
0
  6
BYBLOCK
 62
0
100
AcDbBlockEnd
  0
BLOCK
  5
23D
100
AcDbEntity
  8
0
100
AcDbBlockBegin
 62
7
  6
CONTINUOUS
  2
*D3
 70
65
 10
0.0
 20
0.0
  3
*D3
  1

  0
LINE
  5
23E
100
AcDbEntity
  8
0
100
AcDbLine
 62
7
  6
CONTINUOUS
 10
-26.5121530485
 20
13.8984939452
 11
-26.5121530485
 21
55.569132182
  0
LINE
  5
23F
100
AcDbEntity
  8
0
100
AcDbLine
 62
7
  6
CONTINUOUS
 10
-69.7781403006
 20
14.3932653604
 11
-69.7781403006
 21
55.569132182
  0
LINE
  5
240
100
AcDbEntity
  8
0
100
AcDbLine
 62
7
  6
CONTINUOUS
 10
-26.5121530485
 20
54.069132182
 11
-48.1451466745
 21
54.069132182
  0
LINE
  5
241
100
AcDbEntity
  8
0
100
AcDbLine
 62
7
  6
CONTINUOUS
 10
-69.7781403006
 20
54.069132182
 11
-48.1451466745
 21
54.069132182
  0
INSERT
  5
242
100
AcDbEntity
  8
0
100
AcDbBlockReference
 62
7
  6
CONTINUOUS
  2
_FILLED
 10
-26.5121530485
 20
54.069132182
 41
3.0
 42
3.0
 43
3.0
 50
0.0
  0
INSERT
  5
243
100
AcDbEntity
  8
0
100
AcDbBlockReference
 62
7
  6
CONTINUOUS
  2
_FILLED
 10
-69.7781403006
 20
54.069132182
 41
3.0
 42
3.0
 43
3.0
 50
180.0
  0
ENDBLK
  5
244
100
AcDbEntity
  8
0
  6
BYBLOCK
 62
0
100
AcDbBlockEnd
  0
ENDSEC
  0
SECTION
  2
ENTITIES
  0
DIMENSION
  5
245
100
AcDbEntity
  8
0
100
AcDbDimension
 62
7
  6
CONTINUOUS
  2
*D0
 10
-59.6121530485
 20
44.069132182
 11
-46.9192959057
 21
44.819132182
 70
160
 71
2
 42
33.1
  3
DIMSTYLE_1
100
AcDbAlignedDimension
 13
-26.5121530485
 23
13.8984939452
 14
-59.6121530485
 24
31.5582206107
 50
180.0
100
AcDbRotatedDimension
  0
DIMENSION
  5
246
100
AcDbEntity
  8
0
100
AcDbDimension
 62
7
  6
CONTINUOUS
  2
*D1
 10
9.8650727651
 20
44.069132182
 11
-5.6277843778
 21
44.819132182
 70
160
 71
2
 42
22.2
  3
DIMSTYLE_1
100
AcDbAlignedDimension
 13
-12.3349272349
 23
31.0757518281
 14
9.8650727651
 24
31.0757518281
100
AcDbRotatedDimension
  0
DIMENSION
  5
247
100
AcDbEntity
  8
0
100
AcDbDimension
 62
7
  6
CONTINUOUS
  2
*D2
 10
22.8510550292
 20
33.1756756757
 11
22.1010550292
 21
6.3185328185
 70
160
 71
2
 42
49.0
  3
DIMSTYLE_1
100
AcDbAlignedDimension
 13
9.665103226
 23
-15.8243243243
 14
9.665103226
 24
33.1756756757
 50
90.0
100
AcDbRotatedDimension
  0
DIMENSION
  5
248
100
AcDbEntity
  8
0
100
AcDbDimension
 62
7
  6
CONTINUOUS
  2
*D3
 10
-69.7781403006
 20
54.069132182
 11
-52.3237181031
 21
54.819132182
 70
160
 71
2
 42
43.28125
  3
DIMSTYLE_2
100
AcDbAlignedDimension
 13
-26.5121530485
 23
13.8984939452
 14
-69.7781403006
 24
14.3932653604
 50
180.0
100
AcDbRotatedDimension
  0
LINE
  5
249
100
AcDbEntity
  8
ASSI
100
AcDbLine
 62
7
  6
CONTINUOUS
 10
-11.6349576959
 20
-15.8243243243
 11
-8.634896774
 21
-15.8243243243
  0
LINE
  5
24A
100
AcDbEntity
  8
ASSI
100
AcDbLine
 62
7
  6
CONTINUOUS
 10
6.1650423041
 20
-15.8243243243
 11
9.165103226
 21
-15.8243243243
  0
LINE
  5
24B
100
AcDbEntity
  8
ASSI
100
AcDbLine
 62
253
  6
CONTINUOUS
 10
9.1257531717
 20
-15.78497427
 11
6.2043923584
 21
-15.78497427
  0
LINE
  5
24C
100
AcDbEntity
  8
ASSI
100
AcDbLine
 62
253
  6
CONTINUOUS
 10
-8.6742468283
 20
-15.78497427
 11
-11.5956076416
 21
-15.78497427
  0
LINE
  5
24D
100
AcDbEntity
  8
ASSI
100
AcDbLine
 62
253
  6
CONTINUOUS
 10
6.005280341
 20
-15.5350123462
 11
9.3248651892
 21
-15.5350123462
  0
LINE
  5
24E
100
AcDbEntity
  8
ASSI
100
AcDbLine
 62
253
  6
CONTINUOUS
 10
-8.4751348108
 20
-15.5350123462
 11
-11.794719659
 21
-15.5350123462
  0
LINE
  5
24F
100
AcDbEntity
  8
ASSI
100
AcDbLine
 62
7
  6
CONTINUOUS
 10
-5.4349653111
 20
-15.3243243243
 11
-2.2848891587
 21
-15.3243243243
  0
LINE
  5
250
100
AcDbEntity
  8
ASSI
100
AcDbLine
 62
7
  6
CONTINUOUS
 10
-0.1849653111
 20
-15.3243243243
 11
2.9651108413
 21
-15.3243243243
  0
LINE
  5
251
100
AcDbEntity
  8
ASSI
100
AcDbLine
 62
253
  6
CONTINUOUS
 10
-5.4296678651
 20
-15.3190268783
 11
-2.2901866048
 21
-15.3190268783
  0
LINE
  5
252
100
AcDbEntity
  8
ASSI
100
AcDbLine
 62
253
  6
CONTINUOUS
 10
-0.1796678651
 20
-15.3190268783
 11
2.9598133952
 21
-15.3190268783
  0
LINE
  5
253
100
AcDbEntity
  8
ASSI
100
AcDbLine
 62
253
  6
CONTINUOUS
 10
7.8019433844
 20
-15.1686618916
 11
9.3248651892
 21
-15.1686618916
  0
LINE
  5
254
100
AcDbEntity
  8
ASSI
100
AcDbLine
 62
253
  6
CONTINUOUS
 10
-10.2717978542
 20
-15.1686618916
 11
-11.794719659
 21
-15.1686618916
  0
LINE
  5
255
100
AcDbEntity
  8
ASSI
100
AcDbLine
 62
253
  6
CONTINUOUS
 10
-8.4751348108
 20
-15.1686618916
 11
-9.9980566156
 21
-15.1686618916
  0
LINE
  5
256
100
AcDbEntity
  8
ASSI
100
AcDbLine
 62
253
  6
CONTINUOUS
 10
7.5282021458
 20
-15.1686618916
 11
6.005280341
 21
-15.1686618916
  0
LINE
  5
257
100
AcDbEntity
  8
ASSI
100
AcDbLine
 62
253
  6
CONTINUOUS
 10
-5.4296678651
 20
-15.1190573392
 11
-2.2901866048
 21
-15.1190573392
  0
LINE
  5
258
100
AcDbEntity
  8
ASSI
100
AcDbLine
 62
253
  6
CONTINUOUS
 10
-0.1796678651
 20
-15.1190573392
 11
2.9598133952
 21
-15.1190573392
  0
LINE
  5
259
100
AcDbEntity
  8
ASSI
100
AcDbLine
 62
253
  6
CONTINUOUS
 10
-2.24019422
 20
-15.0690649545
 11
-2.040224681
 21
-15.0690649545
  0
LINE
  5
25A
100
AcDbEntity
  8
ASSI
100
AcDbLine
 62
253
  6
CONTINUOUS
 10
-0.2296602498
 20
-15.0690649545
 11
-0.4296297889
 21
-15.0690649545
  0
LINE
  5
25B
100
AcDbEntity
  8
ASSI
100
AcDbLine
 62
253
  6
CONTINUOUS
 10
3.00980578
 20
-15.0690649545
 11
3.209775319
 21
-15.0690649545
  0
LINE
  5
25C
100
AcDbEntity
  8
ASSI
100
AcDbLine
 62
253
  6
CONTINUOUS
 10
-5.4796602498
 20
-15.0690649545
 11
-5.6796297889
 21
-15.0690649545
  0
LINE
  5
25D
100
AcDbEntity
  8
ASSI
100
AcDbLine
 62
253
  6
CONTINUOUS
 10
9.1253320268
 20
-14.9521555407
 11
8.0184497353
 21
-14.9521555407
  0
LINE
  5
25E
100
AcDbEntity
  8
ASSI
100
AcDbLine
 62
253
  6
CONTINUOUS
 10
7.3116957948
 20
-14.9521555407
 11
6.2048135034
 21
-14.9521555407
  0
LINE
  5
25F
100
AcDbEntity
  8
ASSI
100
AcDbLine
 62
253
  6
CONTINUOUS
 10
-8.6746679732
 20
-14.9521555407
 11
-9.7815502647
 21
-14.9521555407
  0
LINE
  5
260
100
AcDbEntity
  8
ASSI
100
AcDbLine
 62
253
  6
CONTINUOUS
 10
-10.4883042052
 20
-14.9521555407
 11
-11.5951864966
 21
-14.9521555407
  0
LINE
  5
261
100
AcDbEntity
  8
ASSI
100
AcDbLine
 62
7
  6
CONTINUOUS
 10
-11.5630703218
 20
-14.4469740551
 11
-10.5349272349
 21
-14.4469740551
  0
LINE
  5
262
100
AcDbEntity
  8
ASSI
100
AcDbLine
 62
7
  6
CONTINUOUS
 10
-9.7349272349
 20
-14.4469740551
 11
-8.7067841481
 21
-14.4469740551
  0
LINE
  5
263
100
AcDbEntity
  8
ASSI
100
AcDbLine
 62
7
  6
CONTINUOUS
 10
6.2369296782
 20
-14.4469740551
 11
7.2650727651
 21
-14.4469740551
  0
LINE
  5
264
100
AcDbEntity
  8
ASSI
100
AcDbLine
 62
7
  6
CONTINUOUS
 10
8.0650727651
 20
-14.4469740551
 11
9.0932158519
 21
-14.4469740551
  0
LINE
  5
265
100
AcDbEntity
  8
ASSI
100
AcDbLine
 62
253
  6
CONTINUOUS
 10
-8.6742468283
 20
33.1363256214
 11
-8.634896774
 21
33.1756756757
  0
LINE
  5
266
100
AcDbEntity
  8
ASSI
100
AcDbLine
 62
253
  6
CONTINUOUS
 10
-8.4742772892
 20
32.9363560823
 11
-8.4349272349
 21
32.9757061366
  0
LINE
  5
267
100
AcDbEntity
  8
ASSI
100
AcDbLine
 62
7
  6
CONTINUOUS
 10
-8.4349272349
 20
-13.7243243243
 11
-5.6849272349
 21
-13.7243243243
  0
LINE
  5
268
100
AcDbEntity
  8
ASSI
100
AcDbLine
 62
7
  6
CONTINUOUS
 10
-2.0349272349
 20
-13.7243243243
 11
-0.4349272349
 21
-13.7243243243
  0
LINE
  5
269
100
AcDbEntity
  8
ASSI
100
AcDbLine
 62
7
  6
CONTINUOUS
 10
3.2150727651
 20
-13.7243243243
 11
5.9650727651
 21
-13.7243243243
  0
LINE
  5
26A
100
AcDbEntity
  8
ASSI
100
AcDbLine
 62
7
  6
CONTINUOUS
 10
3.00980578
 20
-13.6981204347
 11
-0.2296602498
 21
-13.6981204347
  0
LINE
  5
26B
100
AcDbEntity
  8
ASSI
100
AcDbLine
 62
7
  6
CONTINUOUS
 10
-2.24019422
 20
-13.6981204347
 11
-5.4796602498
 21
-13.6981204347
  0
LINE
  5
26C
100
AcDbEntity
  8
ASSI
100
AcDbLine
 62
7
  6
CONTINUOUS
 10
-11.5630703218
 20
-13.6457126554
 11
-10.5349272349
 21
-13.6457126554
  0
LINE
  5
26D
100
AcDbEntity
  8
ASSI
100
AcDbLine
 62
7
  6
CONTINUOUS
 10
-9.7349272349
 20
-13.6457126554
 11
-8.7067841481
 21
-13.6457126554
  0
LINE
  5
26E
100
AcDbEntity
  8
ASSI
100
AcDbLine
 62
7
  6
CONTINUOUS
 10
6.2369296782
 20
-13.6457126554
 11
7.2650727651
 21
-13.6457126554
  0
LINE
  5
26F
100
AcDbEntity
  8
ASSI
100
AcDbLine
 62
7
  6
CONTINUOUS
 10
8.0650727651
 20
-13.6457126554
 11
9.0932158519
 21
-13.6457126554
  0
LINE
  5
270
100
AcDbEntity
  8
ASSI
100
AcDbLine
 62
7
  6
CONTINUOUS
 10
7.8019433844
 20
-13.5933048761
 11
7.5282021458
 21
-13.5933048761
  0
LINE
  5
271
100
AcDbEntity
  8
ASSI
100
AcDbLine
 62
7
  6
CONTINUOUS
 10
-9.9980566156
 20
-13.5933048761
 11
-10.2717978542
 21
-13.5933048761
  0
LINE
  5
272
100
AcDbEntity
  8
ASSI
100
AcDbLine
 62
253
  6
CONTINUOUS
 10
-8.634896774
 20
-15.8243243243
 11
-8.6742468283
 21
-15.78497427
  0
LINE
  5
273
100
AcDbEntity
  8
ASSI
100
AcDbLine
 62
253
  6
CONTINUOUS
 10
-8.4349272349
 20
-15.6243547853
 11
-8.4742772892
 21
-15.585004731
  0
LINE
  5
274
100
AcDbEntity
  8
ASSI
100
AcDbLine
 62
253
  6
CONTINUOUS
 10
-2.2901866048
 20
32.6703782296
 11
-2.2848891587
 21
32.6756756757
  0
LINE
  5
275
100
AcDbEntity
  8
ASSI
100
AcDbLine
 62
253
  6
CONTINUOUS
 10
-2.040224681
 20
32.4204163058
 11
-2.0349272349
 21
32.4257137519
  0
LINE
  5
276
100
AcDbEntity
  8
ASSI
100
AcDbLine
 62
253
  6
CONTINUOUS
 10
-2.2848891587
 20
-15.3243243243
 11
-2.2901866048
 21
-15.3190268783
  0
LINE
  5
277
100
AcDbEntity
  8
ASSI
100
AcDbLine
 62
253
  6
CONTINUOUS
 10
-2.0349272349
 20
-15.0743624005
 11
-2.040224681
 21
-15.0690649545
  0
LINE
  5
278
100
AcDbEntity
  8
ASSI
100
AcDbLine
 62
7
  6
CONTINUOUS
 10
-9.7349272349
 20
30.9970640067
 11
-9.7480946918
 21
30.9575295118
  0
LINE
  5
279
100
AcDbEntity
  8
ASSI
100
AcDbLine
 62
7
  6
CONTINUOUS
 10
-9.7349272349
 20
-13.6457126554
 11
-9.7480946918
 21
-13.6061781605
  0
LINE
  5
27A
100
AcDbEntity
  8
ASSI
100
AcDbLine
 62
7
  6
CONTINUOUS
 10
-8.4568222243
 20
31.0099372911
 11
-8.4349272349
 21
31.0756756757
  0
LINE
  5
27B
100
AcDbEntity
  8
ASSI
100
AcDbLine
 62
253
  6
CONTINUOUS
 10
2.9598133952
 20
32.6703782296
 11
2.9651108413
 21
32.6756756757
  0
LINE
  5
27C
100
AcDbEntity
  8
ASSI
100
AcDbLine
 62
253
  6
CONTINUOUS
 10
3.209775319
 20
32.4204163058
 11
3.2150727651
 21
32.4257137519
  0
LINE
  5
27D
100
AcDbEntity
  8
ASSI
100
AcDbLine
 62
253
  6
CONTINUOUS
 10
2.9651108413
 20
-15.3243243243
 11
2.9598133952
 21
-15.3190268783
  0
LINE
  5
27E
100
AcDbEntity
  8
ASSI
100
AcDbLine
 62
253
  6
CONTINUOUS
 10
3.2150727651
 20
-15.0743624005
 11
3.209775319
 21
-15.0690649545
  0
LINE
  5
27F
100
AcDbEntity
  8
ASSI
100
AcDbLine
 62
7
  6
CONTINUOUS
 10
-8.4349272349
 20
-13.7243243243
 11
-8.4568222243
 21
-13.6585859398
  0
LINE
  5
280
100
AcDbEntity
  8
ASSI
100
AcDbLine
 62
7
  6
CONTINUOUS
 10
-12.3349272349
 20
-9.8243243243
 11
-12.3742061173
 21
-8.9582989205
  0
LINE
  5
281
100
AcDbEntity
  8
ASSI
100
AcDbLine
 62
253
  6
CONTINUOUS
 10
-11.8130322455
 20
-14.5340804031
 11
-11.7951560356
 21
-15.1253606214
  0
LINE
  5
282
100
AcDbEntity
  8
ASSI
100
AcDbLine
 62
253
  6
CONTINUOUS
 10
-11.6105390628
 20
-14.4443483065
 11
-11.5951864966
 21
-14.9521555407
  0
LINE
  5
283
100
AcDbEntity
  8
RACCORDO
100
AcDbLine
 62
7
  6
CONTINUOUS
 10
-12.3849272349
 20
-8.996023373
 11
-12.3849272349
 21
26.3473747244
  0
LINE
  5
284
100
AcDbEntity
  8
SUPERFICI
100
AcDbLine
 62
7
  6
CONTINUOUS
 10
-12.3849272349
 20
-8.996023373
 11
-12.3849272349
 21
26.3473747244
  0
LINE
  5
285
100
AcDbEntity
  8
ASSI
100
AcDbLine
 62
7
  6
CONTINUOUS
 10
-12.3742061173
 20
-8.9582989205
 11
-12.3742061173
 21
26.3096502719
  0
LINE
  5
286
100
AcDbEntity
  8
ASSI
100
AcDbLine
 62
7
  6
CONTINUOUS
 10
-12.3349272349
 20
30.5757518281
 11
-12.3349272349
 21
27.1756756757
  0
LINE
  5
287
100
AcDbEntity
  8
ASSI
100
AcDbLine
 62
7
  6
CONTINUOUS
 10
-12.3349272349
 20
-13.2244004767
 11
-12.3349272349
 21
-9.8243243243
  0
LINE
  5
288
100
AcDbEntity
  8
ASSI
100
AcDbLine
 62
7
  6
CONTINUOUS
 10
-11.8349272349
 20
-15.6243547853
 11
-11.8349272995
 21
-13.724324254
  0
LINE
  5
289
100
AcDbEntity
  8
ASSI
100
AcDbLine
 62
7
  6
CONTINUOUS
 10
-11.8349272349
 20
31.0756754115
 11
-11.8349272349
 21
32.9757061366
  0
LINE
  5
28A
100
AcDbEntity
  8
ASSI
100
AcDbLine
 62
253
  6
CONTINUOUS
 10
-11.8130322455
 20
-14.5340804031
 11
-11.8130322455
 21
-13.6584769015
  0
LINE
  5
28B
100
AcDbEntity
  8
ASSI
100
AcDbLine
 62
253
  6
CONTINUOUS
 10
-11.8130322455
 20
31.0098282529
 11
-11.8130322455
 21
31.8854317544
  0
LINE
  5
28C
100
AcDbEntity
  8
ASSI
100
AcDbLine
 62
253
  6
CONTINUOUS
 10
-11.794719659
 20
-15.1686618916
 11
-11.794719659
 21
-15.5350123462
  0
LINE
  5
28D
100
AcDbEntity
  8
ASSI
100
AcDbLine
 62
253
  6
CONTINUOUS
 10
-11.794719659
 20
32.520013243
 11
-11.794719659
 21
32.8863636976
  0
LINE
  5
28E
100
AcDbEntity
  8
ASSI
100
AcDbLine
 62
253
  6
CONTINUOUS
 10
-11.6638258117
 20
-12.2015917436
 11
-11.6638258102
 21
29.5529430896
  0
LINE
  5
28F
100
AcDbEntity
  8
ASSI
100
AcDbLine
 62
253
  6
CONTINUOUS
 10
-11.59475012
 20
-15.1686598124
 11
-11.59475012
 21
-15.5350123462
  0
LINE
  5
290
100
AcDbEntity
  8
ASSI
100
AcDbLine
 62
253
  6
CONTINUOUS
 10
-11.59475012
 20
32.5200332776
 11
-11.59475012
 21
32.8863636976
  0
LINE
  5
291
100
AcDbEntity
  8
ASSI
100
AcDbLine
 62
253
  6
CONTINUOUS
 10
-11.5630703218
 20
-14.4469740551
 11
-11.5630703218
 21
-13.6457126554
  0
LINE
  5
292
100
AcDbEntity
  8
ASSI
100
AcDbLine
 62
253
  6
CONTINUOUS
 10
-11.5630703218
 20
30.9970640067
 11
-11.5630703218
 21
31.7983254065
  0
LINE
  5
293
100
AcDbEntity
  8
ASSI
100
AcDbLine
 62
253
  6
CONTINUOUS
 10
-11.8130322455
 20
31.8854317544
 11
-11.7951560356
 21
32.4767119728
  0
LINE
  5
294
100
AcDbEntity
  8
ASSI
100
AcDbLine
 62
253
  6
CONTINUOUS
 10
-11.6105390628
 20
31.7956996578
 11
-11.5951852188
 21
32.3035491583
  0
LINE
  5
295
100
AcDbEntity
  8
ASSI
100
AcDbLine
 62
7
  6
CONTINUOUS
 10
-12.3742061173
 20
26.3096502719
 11
-12.3349272349
 21
27.1756756757
  0
LWPOLYLINE
  5
296
100
AcDbEntity
  8
0
100
AcDbPolyline
 62
7
  6
CONTINUOUS
 90
3
 70
0
 43
0.3500000006
 10
-0.1992129512
 20
45.1048444061
 10
-0.2706415141
 20
44.8905599213
 10
-0.4134986576
 20
44.6048442535
  0
LINE
  5
297
100
AcDbEntity
  8
ASSI
100
AcDbLine
 62
7
  6
CONTINUOUS
 10
-10.5349272349
 20
-14.4469740551
 11
-10.521759778
 21
-14.8825057949
  0
LINE
  5
298
100
AcDbEntity
  8
ASSI
100
AcDbLine
 62
7
  6
CONTINUOUS
 10
-10.5349272349
 20
31.7983254065
 11
-10.5349272349
 21
30.9970640067
  0
LINE
  5
299
100
AcDbEntity
  8
ASSI
100
AcDbLine
 62
7
  6
CONTINUOUS
 10
-10.5349272349
 20
-13.6457126554
 11
-10.5349272349
 21
-14.4469740551
  0
LINE
  5
29A
100
AcDbEntity
  8
ASSI
100
AcDbLine
 62
253
  6
CONTINUOUS
 10
-10.521759778
 20
-14.8825057949
 11
-10.521759778
 21
-13.6061781605
  0
LINE
  5
29B
100
AcDbEntity
  8
ASSI
100
AcDbLine
 62
253
  6
CONTINUOUS
 10
-10.521759778
 20
30.9575295118
 11
-10.521759778
 21
32.2338571463
  0
LINE
  5
29C
100
AcDbEntity
  8
ASSI
100
AcDbLine
 62
253
  6
CONTINUOUS
 10
-10.2717978542
 20
-15.1686618916
 11
-10.2717978542
 21
-13.5933048761
  0
LINE
  5
29D
100
AcDbEntity
  8
ASSI
100
AcDbLine
 62
253
  6
CONTINUOUS
 10
-10.2717978542
 20
30.9446562275
 11
-10.2717978542
 21
32.520013243
  0
LINE
  5
29E
100
AcDbEntity
  8
ASSI
100
AcDbLine
 62
253
  6
CONTINUOUS
 10
-9.9980566156
 20
-15.1686618916
 11
-9.9980566156
 21
-13.5933048761
  0
LINE
  5
29F
100
AcDbEntity
  8
ASSI
100
AcDbLine
 62
253
  6
CONTINUOUS
 10
-9.9980566156
 20
30.9446562275
 11
-9.9980566156
 21
32.520013243
  0
LINE
  5
2A0
100
AcDbEntity
  8
ASSI
100
AcDbLine
 62
253
  6
CONTINUOUS
 10
-9.7480946918
 20
-14.8825057949
 11
-9.7480946918
 21
-13.6061781605
  0
LINE
  5
2A1
100
AcDbEntity
  8
ASSI
100
AcDbLine
 62
253
  6
CONTINUOUS
 10
-9.7480946918
 20
30.9575295118
 11
-9.7480946918
 21
32.2338571463
  0
LINE
  5
2A2
100
AcDbEntity
  8
ASSI
100
AcDbLine
 62
7
  6
CONTINUOUS
 10
-9.7349272349
 20
31.7983254065
 11
-9.7349272349
 21
30.9970640067
  0
LINE
  5
2A3
100
AcDbEntity
  8
ASSI
100
AcDbLine
 62
7
  6
CONTINUOUS
 10
-9.7349272349
 20
-13.6457126554
 11
-9.7349272349
 21
-14.4469740551
  0
LINE
  5
2A4
100
AcDbEntity
  8
ASSI
100
AcDbLine
 62
7
  6
CONTINUOUS
 10
-10.521759778
 20
32.2338571463
 11
-10.5349272349
 21
31.7983254065
  0
LINE
  5
2A5
100
AcDbEntity
  8
ASSI
100
AcDbLine
 62
253
  6
CONTINUOUS
 10
9.165103226
 20
33.1756756757
 11
9.1257531717
 21
33.1363256214
  0
LINE
  5
2A6
100
AcDbEntity
  8
ASSI
100
AcDbLine
 62
253
  6
CONTINUOUS
 10
9.3650727651
 20
32.9757061366
 11
9.3257227108
 21
32.9363560823
  0
LINE
  5
2A7
100
AcDbEntity
  8
ASSI
100
AcDbLine
 62
253
  6
CONTINUOUS
 10
9.165103226
 20
-15.8243243243
 11
9.1257531717
 21
-15.78497427
  0
LINE
  5
2A8
100
AcDbEntity
  8
ASSI
100
AcDbLine
 62
253
  6
CONTINUOUS
 10
9.3650727651
 20
-15.6243547853
 11
9.3257227108
 21
-15.585004731
  0
LINE
  5
2A9
100
AcDbEntity
  8
ASSI
100
AcDbLine
 62
7
  6
CONTINUOUS
 10
-9.7480946918
 20
32.2338571463
 11
-9.7349272349
 21
31.7983254065
  0
LINE
  5
2AA
100
AcDbEntity
  8
ASSI
100
AcDbLine
 62
253
  6
CONTINUOUS
 10
-8.659315407
 20
31.7956996578
 11
-8.6746679978
 21
32.3035077039
  0
LINE
  5
2AB
100
AcDbEntity
  8
ASSI
100
AcDbLine
 62
253
  6
CONTINUOUS
 10
-8.4568222243
 20
31.8854317544
 11
-8.4746984342
 21
32.4767119728
  0
LINE
  5
2AC
100
AcDbEntity
  8
ASSI
100
AcDbLine
 62
253
  6
CONTINUOUS
 10
-8.7067841481
 20
-14.4469740551
 11
-8.7067841481
 21
-13.6457126554
  0
LINE
  5
2AD
100
AcDbEntity
  8
ASSI
100
AcDbLine
 62
253
  6
CONTINUOUS
 10
-8.7067841481
 20
30.9970640067
 11
-8.7067841481
 21
31.7983254065
  0
LINE
  5
2AE
100
AcDbEntity
  8
ASSI
100
AcDbLine
 62
253
  6
CONTINUOUS
 10
-8.6751043499
 20
-15.5350123462
 11
-8.6751043499
 21
-15.1686602554
  0
LINE
  5
2AF
100
AcDbEntity
  8
ASSI
100
AcDbLine
 62
253
  6
CONTINUOUS
 10
-8.6751043499
 20
32.520013243
 11
-8.6751043499
 21
32.8863636976
  0
LINE
  5
2B0
100
AcDbEntity
  8
ASSI
100
AcDbLine
 62
253
  6
CONTINUOUS
 10
-8.4751348108
 20
-15.5350123462
 11
-8.4751348108
 21
-15.1686618916
  0
LINE
  5
2B1
100
AcDbEntity
  8
ASSI
100
AcDbLine
 62
253
  6
CONTINUOUS
 10
-8.4751348108
 20
32.520013243
 11
-8.4751348108
 21
32.8863636976
  0
LINE
  5
2B2
100
AcDbEntity
  8
ASSI
100
AcDbLine
 62
253
  6
CONTINUOUS
 10
-8.4568222243
 20
31.8854317544
 11
-8.4568222243
 21
31.0099372911
  0
LINE
  5
2B3
100
AcDbEntity
  8
ASSI
100
AcDbLine
 62
253
  6
CONTINUOUS
 10
-8.4568222243
 20
-13.6585859398
 11
-8.4568222243
 21
-14.5340804031
  0
LINE
  5
2B4
100
AcDbEntity
  8
ASSI
100
AcDbLine
 62
7
  6
CONTINUOUS
 10
-8.4349272349
 20
-15.6243547853
 11
-8.4349272349
 21
-13.7243243243
  0
LINE
  5
2B5
100
AcDbEntity
  8
ASSI
100
AcDbLine
 62
7
  6
CONTINUOUS
 10
-8.4349272349
 20
31.0756756757
 11
-8.4349272349
 21
32.9757061366
  0
LINE
  5
2B6
100
AcDbEntity
  8
RACCORDO
100
AcDbLine
 62
253
  6
CONTINUOUS
 10
-7.9217465288
 20
4.8616368919
 11
-7.9214456722
 21
13.8912093356
  0
LINE
  5
2B7
100
AcDbEntity
  8
ASSI
100
AcDbLine
 62
7
  6
CONTINUOUS
 10
-9.7349272349
 20
-14.4469740551
 11
-9.7480946918
 21
-14.8825057949
  0
LINE
  5
2B8
100
AcDbEntity
  8
ASSI
100
AcDbLine
 62
253
  6
CONTINUOUS
 10
-8.6746679732
 20
-14.9521555407
 11
-8.659315407
 21
-14.4443483065
  0
LINE
  5
2B9
100
AcDbEntity
  8
ASSI
100
AcDbLine
 62
253
  6
CONTINUOUS
 10
-8.4746984342
 20
-15.1253606214
 11
-8.4568222243
 21
-14.5340804031
  0
LINE
  5
2BA
100
AcDbEntity
  8
ASSI
100
AcDbLine
 62
7
  6
CONTINUOUS
 10
-2.040224681
 20
31.0597704135
 11
-2.0349272349
 21
31.0756756757
  0
LINE
  5
2BB
100
AcDbEntity
  8
ASSI
100
AcDbLine
 62
7
  6
CONTINUOUS
 10
-2.0349272349
 20
-13.7243243243
 11
-2.040224681
 21
-13.7084190622
  0
LINE
  5
2BC
100
AcDbEntity
  8
0
100
AcDbLine
 62
7
  6
CONTINUOUS
 10
-6.9349272349
 20
10.9256756757
 11
-6.9349272349
 21
9.2256756757
  0
LINE
  5
2BD
100
AcDbEntity
  8
0
100
AcDbLine
 62
7
  6
CONTINUOUS
 10
-6.2099272349
 20
12.8256756757
 11
-6.2099272349
 21
10.9256756757
  0
LINE
  5
2BE
100
AcDbEntity
  8
0
100
AcDbLine
 62
7
  6
CONTINUOUS
 10
-6.2099272349
 20
9.2256756757
 11
-6.2099272349
 21
5.8756756757
  0
LINE
  5
2BF
100
AcDbEntity
  8
0
100
AcDbLine
 62
7
  6
CONTINUOUS
 10
-6.0149272349
 20
12.8256756757
 11
-6.0149272349
 21
9.3256756757
  0
LINE
  5
2C0
100
AcDbEntity
  8
ASSI
100
AcDbLine
 62
7
  6
CONTINUOUS
 10
-5.6849272349
 20
-15.0743624005
 11
-5.6849272349
 21
-13.7243243243
  0
LINE
  5
2C1
100
AcDbEntity
  8
ASSI
100
AcDbLine
 62
7
  6
CONTINUOUS
 10
-5.6849272349
 20
31.0756756757
 11
-5.6849272349
 21
32.4257137519
  0
LINE
  5
2C2
100
AcDbEntity
  8
ASSI
100
AcDbLine
 62
253
  6
CONTINUOUS
 10
-5.6796297889
 20
-13.7084190622
 11
-5.6796297889
 21
-15.0690649545
  0
LINE
  5
2C3
100
AcDbEntity
  8
ASSI
100
AcDbLine
 62
253
  6
CONTINUOUS
 10
-5.6796297889
 20
31.0597704135
 11
-5.6796297889
 21
32.4204163058
  0
LINE
  5
2C4
100
AcDbEntity
  8
0
100
AcDbLine
 62
7
  6
CONTINUOUS
 10
-5.5149272349
 20
12.8256756757
 11
-5.5149272349
 21
9.3256756757
  0
LINE
  5
2C5
100
AcDbEntity
  8
ASSI
100
AcDbLine
 62
253
  6
CONTINUOUS
 10
-5.4796602498
 20
-13.6981204347
 11
-5.4796602498
 21
-15.0690649545
  0
LINE
  5
2C6
100
AcDbEntity
  8
ASSI
100
AcDbLine
 62
253
  6
CONTINUOUS
 10
-5.4796602498
 20
31.049471786
 11
-5.4796602498
 21
32.4204163058
  0
LINE
  5
2C7
100
AcDbEntity
  8
ASSI
100
AcDbLine
 62
253
  6
CONTINUOUS
 10
-5.4296678651
 20
32.6703782296
 11
-5.4296678651
 21
32.4704086906
  0
LINE
  5
2C8
100
AcDbEntity
  8
ASSI
100
AcDbLine
 62
253
  6
CONTINUOUS
 10
-5.4296678651
 20
-15.1190573392
 11
-5.4296678651
 21
-15.3190268783
  0
LINE
  5
2C9
100
AcDbEntity
  8
0
100
AcDbLine
 62
7
  6
CONTINUOUS
 10
-3.2749272349
 20
3.3756756757
 11
0.8050727651
 21
3.3756756757
  0
LINE
  5
2CA
100
AcDbEntity
  8
0
100
AcDbLine
 62
7
  6
CONTINUOUS
 10
-4.5349272349
 20
4.2756756757
 11
-3.2749272349
 21
4.2756756757
  0
LINE
  5
2CB
100
AcDbEntity
  8
0
100
AcDbLine
 62
7
  6
CONTINUOUS
 10
0.8050727651
 20
4.2756756757
 11
2.0650727651
 21
4.2756756757
  0
LINE
  5
2CC
100
AcDbEntity
  8
RACCORDO
100
AcDbLine
 62
253
  6
CONTINUOUS
 10
-5.1110981054
 20
3.2585554469
 11
-5.1113730762
 21
4.8603509902
  0
LINE
  5
2CD
100
AcDbEntity
  8
RACCORDO
100
AcDbLine
 62
253
  6
CONTINUOUS
 10
-4.0568510156
 20
2.0569015243
 11
-4.0570905939
 21
3.2582281364
  0
LINE
  5
2CE
100
AcDbEntity
  8
0
100
AcDbLine
 62
7
  6
CONTINUOUS
 10
-4.9949272349
 20
12.8256756757
 11
-4.9949272349
 21
9.3256756757
  0
LINE
  5
2CF
100
AcDbEntity
  8
0
100
AcDbLine
 62
7
  6
CONTINUOUS
 10
-4.5349272349
 20
5.8756756757
 11
-4.5349272349
 21
4.2756756757
  0
LINE
  5
2D0
100
AcDbEntity
  8
0
100
AcDbLine
 62
7
  6
CONTINUOUS
 10
-4.4949272349
 20
12.8256756757
 11
-4.4949272349
 21
9.3256756757
  0
LINE
  5
2D1
100
AcDbEntity
  8
0
100
AcDbLine
 62
7
  6
CONTINUOUS
 10
-3.9749272349
 20
12.8256756757
 11
-3.9749272349
 21
9.3256756757
  0
LINE
  5
2D2
100
AcDbEntity
  8
ASSI
100
AcDbLine
 62
7
  6
CONTINUOUS
 10
-3.9499272349
 20
12.8256756757
 11
-3.9499272349
 21
9.3256756757
  0
LINE
  5
2D3
100
AcDbEntity
  8
ASSI
100
AcDbLine
 62
7
  6
CONTINUOUS
 10
-3.4999272349
 20
12.8256756757
 11
-3.4999272349
 21
9.3256756757
  0
LINE
  5
2D4
100
AcDbEntity
  8
0
100
AcDbLine
 62
7
  6
CONTINUOUS
 10
-3.4749272349
 20
12.8256756757
 11
-3.4749272349
 21
9.3256756757
  0
LINE
  5
2D5
100
AcDbEntity
  8
0
100
AcDbLine
 62
7
  6
CONTINUOUS
 10
-3.2749272349
 20
4.2756756757
 11
-3.2749272349
 21
3.3756756757
  0
LINE
  5
2D6
100
AcDbEntity
  8
ASSI
100
AcDbLine
 62
7
  6
CONTINUOUS
 10
3.2150727651
 20
31.0756756757
 11
3.209775319
 21
31.0597704135
  0
LINE
  5
2D7
100
AcDbEntity
  8
RACCORDO
100
AcDbLine
 62
7
  6
CONTINUOUS
 10
-7.386062756
 20
5.3745401546
 11
-7.3946056397
 21
5.3659972709
  0
LINE
  5
2D8
100
AcDbEntity
  8
0
100
AcDbLine
 62
7
  6
CONTINUOUS
 10
-4.5349272349
 20
5.4256756757
 11
2.0650727651
 21
5.4256756757
  0
LINE
  5
2D9
100
AcDbEntity
  8
0
100
AcDbLine
 62
7
  6
CONTINUOUS
 10
-6.2099272349
 20
5.8756756757
 11
-4.5349272349
 21
5.8756756757
  0
LINE
  5
2DA
100
AcDbEntity
  8
0
100
AcDbLine
 62
7
  6
CONTINUOUS
 10
2.0650727651
 20
5.8756756757
 11
3.7400727651
 21
5.8756756757
  0
LINE
  5
2DB
100
AcDbEntity
  8
RACCORDO
100
AcDbLine
 62
7
  6
CONTINUOUS
 10
1.0670948961
 20
2.5736535447
 11
1.0757695256
 21
2.5649789151
  0
LINE
  5
2DC
100
AcDbEntity
  8
RACCORDO
100
AcDbLine
 62
7
  6
CONTINUOUS
 10
1.067238187
 20
3.7735102538
 11
1.0759470903
 21
3.7648013504
  0
LINE
  5
2DD
100
AcDbEntity
  8
ASSI
100
AcDbLine
 62
7
  6
CONTINUOUS
 10
3.2150727651
 20
-13.7243243243
 11
3.209775319
 21
-13.7084190622
  0
LINE
  5
2DE
100
AcDbEntity
  8
0
100
AcDbLine
 62
7
  6
CONTINUOUS
 10
-2.9549272349
 20
12.8256756757
 11
-2.9549272349
 21
9.3256756757
  0
LINE
  5
2DF
100
AcDbEntity
  8
ASSI
100
AcDbLine
 62
7
  6
CONTINUOUS
 10
-2.9499272349
 20
12.8256756757
 11
-2.9499272349
 21
9.3256756757
  0
LINE
  5
2E0
100
AcDbEntity
  8
ASSI
100
AcDbLine
 62
7
  6
CONTINUOUS
 10
-2.4999272349
 20
12.8256756757
 11
-2.4999272349
 21
9.3256756757
  0
LINE
  5
2E1
100
AcDbEntity
  8
0
100
AcDbLine
 62
7
  6
CONTINUOUS
 10
-2.4549272349
 20
12.8256756757
 11
-2.4549272349
 21
9.3256756757
  0
LINE
  5
2E2
100
AcDbEntity
  8
ASSI
100
AcDbLine
 62
253
  6
CONTINUOUS
 10
-2.2901866048
 20
32.6703782296
 11
-2.2901866048
 21
32.4704086906
  0
LINE
  5
2E3
100
AcDbEntity
  8
ASSI
100
AcDbLine
 62
253
  6
CONTINUOUS
 10
-2.2901866048
 20
-15.1190573392
 11
-2.2901866048
 21
-15.3190268783
  0
LINE
  5
2E4
100
AcDbEntity
  8
ASSI
100
AcDbLine
 62
253
  6
CONTINUOUS
 10
-2.24019422
 20
32.4204163058
 11
-2.24019422
 21
31.049471786
  0
LINE
  5
2E5
100
AcDbEntity
  8
ASSI
100
AcDbLine
 62
253
  6
CONTINUOUS
 10
-2.24019422
 20
-15.0690649545
 11
-2.24019422
 21
-13.6981204347
  0
LINE
  5
2E6
100
AcDbEntity
  8
ASSI
100
AcDbLine
 62
253
  6
CONTINUOUS
 10
-2.040224681
 20
32.4204163058
 11
-2.040224681
 21
31.0597704135
  0
LINE
  5
2E7
100
AcDbEntity
  8
ASSI
100
AcDbLine
 62
253
  6
CONTINUOUS
 10
-2.040224681
 20
-15.0690649545
 11
-2.040224681
 21
-13.7084190622
  0
LINE
  5
2E8
100
AcDbEntity
  8
ASSI
100
AcDbLine
 62
7
  6
CONTINUOUS
 10
-2.0349272349
 20
-15.0743624005
 11
-2.0349272349
 21
-13.7243243243
  0
LINE
  5
2E9
100
AcDbEntity
  8
ASSI
100
AcDbLine
 62
7
  6
CONTINUOUS
 10
-2.0349272349
 20
31.0756756757
 11
-2.0349272349
 21
32.4257137519
  0
LINE
  5
2EA
100
AcDbEntity
  8
ASSI
100
AcDbLine
 62
7
  6
CONTINUOUS
 10
-1.9499272349
 20
12.8256756757
 11
-1.9499272349
 21
9.3256756757
  0
LINE
  5
2EB
100
AcDbEntity
  8
ASSI
100
AcDbLine
 62
7
  6
CONTINUOUS
 10
-1.4999272349
 20
12.8256756757
 11
-1.4999272349
 21
9.3256756757
  0
LINE
  5
2EC
100
AcDbEntity
  8
0
100
AcDbLine
 62
7
  6
CONTINUOUS
 10
-1.4349272349
 20
12.8256756757
 11
-1.4349272349
 21
9.3256756757
  0
LINE
  5
2ED
100
AcDbEntity
  8
ASSI
100
AcDbLine
 62
7
  6
CONTINUOUS
 10
-10.5349272349
 20
-13.6457126554
 11
-10.521759778
 21
-13.6061781605
  0
LINE
  5
2EE
100
AcDbEntity
  8
ASSI
100
AcDbLine
 62
253
  6
CONTINUOUS
 10
9.1779101019
 20
30.7000651195
 11
9.3308182366
 21
31.0060912318
  0
LINE
  5
2EF
100
AcDbEntity
  8
ASSI
100
AcDbLine
 62
253
  6
CONTINUOUS
 10
-12.3349272349
 20
-13.2243240892
 11
-12.1475932338
 21
-12.8493989998
  0
LINE
  5
2F0
100
AcDbEntity
  8
ASSI
100
AcDbLine
 62
253
  6
CONTINUOUS
 10
9.8650727651
 20
30.5756754405
 11
9.6777387639
 21
30.2007503512
  0
LINE
  5
2F1
100
AcDbEntity
  8
RACCORDO
100
AcDbLine
 62
7
  6
CONTINUOUS
 10
-4.5870212681
 20
5.3735816425
 11
-4.5956581133
 21
5.3649447973
  0
LWPOLYLINE
  5
2F2
100
AcDbEntity
  8
0
100
AcDbPolyline
 62
7
  6
CONTINUOUS
 90
2
 70
0
 43
0.3500000006
 10
22.1010558701
 20
7.3185326843
 10
20.6010554123
 20
7.3185326843
  0
LINE
  5
2F3
100
AcDbEntity
  8
RACCORDO
100
AcDbLine
 62
7
  6
CONTINUOUS
 10
2.117025797
 20
3.7737226438
 11
2.1256635149
 21
3.7650849259
  0
LINE
  5
2F4
100
AcDbEntity
  8
RACCORDO
100
AcDbLine
 62
7
  6
CONTINUOUS
 10
-7.3859478817
 20
13.3766963224
 11
-7.3944919723
 21
13.385240413
  0
LINE
  5
2F5
100
AcDbEntity
  8
RACCORDO
100
AcDbLine
 62
7
  6
CONTINUOUS
 10
2.1171667983
 20
5.3735816425
 11
2.1258036434
 21
5.3649447973
  0
LINE
  5
2F6
100
AcDbEntity
  8
ASSI
100
AcDbLine
 62
253
  6
CONTINUOUS
 10
9.1779101008
 20
-13.348713766
 11
9.3308182366
 21
-13.6547398805
  0
LINE
  5
2F7
100
AcDbEntity
  8
ASSI
100
AcDbLine
 62
253
  6
CONTINUOUS
 10
-12.1475932332
 20
30.2007503499
 11
-12.3349272349
 21
30.5756754405
  0
LINE
  5
2F8
100
AcDbEntity
  8
ASSI
100
AcDbLine
 62
253
  6
CONTINUOUS
 10
9.6777387633
 20
-12.8493989986
 11
9.8650727651
 21
-13.2243240892
  0
LINE
  5
2F9
100
AcDbEntity
  8
ASSI
100
AcDbLine
 62
7
  6
CONTINUOUS
 10
-10.5349272349
 20
30.9970640067
 11
-10.521759778
 21
30.9575295118
  0
LINE
  5
2FA
100
AcDbEntity
  8
ASSI
100
AcDbLine
 62
7
  6
CONTINUOUS
 10
-0.9499272349
 20
12.8256756757
 11
-0.9499272349
 21
9.3256756757
  0
LINE
  5
2FB
100
AcDbEntity
  8
ASSI
100
AcDbLine
 62
7
  6
CONTINUOUS
 10
-0.4999272349
 20
12.8256756757
 11
-0.4999272349
 21
9.3256756757
  0
LINE
  5
2FC
100
AcDbEntity
  8
ASSI
100
AcDbLine
 62
7
  6
CONTINUOUS
 10
-0.4349272349
 20
-15.0743624005
 11
-0.4349272349
 21
-13.7243243243
  0
LINE
  5
2FD
100
AcDbEntity
  8
ASSI
100
AcDbLine
 62
7
  6
CONTINUOUS
 10
-0.4349272349
 20
31.0756756757
 11
-0.4349272349
 21
32.4257137519
  0
LINE
  5
2FE
100
AcDbEntity
  8
ASSI
100
AcDbLine
 62
253
  6
CONTINUOUS
 10
-0.4296297889
 20
32.4204163058
 11
-0.4296297889
 21
31.0597704135
  0
LINE
  5
2FF
100
AcDbEntity
  8
ASSI
100
AcDbLine
 62
253
  6
CONTINUOUS
 10
-0.4296297889
 20
-13.7084190622
 11
-0.4296297889
 21
-15.0690649545
  0
LINE
  5
300
100
AcDbEntity
  8
0
100
AcDbLine
 62
7
  6
CONTINUOUS
 10
-0.4149272349
 20
12.8256756757
 11
-0.4149272349
 21
9.3256756757
  0
LINE
  5
301
100
AcDbEntity
  8
ASSI
100
AcDbLine
 62
253
  6
CONTINUOUS
 10
-0.2296602498
 20
32.4204163058
 11
-0.2296602498
 21
31.049471786
  0
LINE
  5
302
100
AcDbEntity
  8
ASSI
100
AcDbLine
 62
253
  6
CONTINUOUS
 10
-0.2296602498
 20
-13.6981204347
 11
-0.2296602498
 21
-15.0690649545
  0
LINE
  5
303
100
AcDbEntity
  8
ASSI
100
AcDbLine
 62
253
  6
CONTINUOUS
 10
-0.1796678651
 20
-15.1190573392
 11
-0.1796678651
 21
-15.3190268783
  0
LINE
  5
304
100
AcDbEntity
  8
ASSI
100
AcDbLine
 62
253
  6
CONTINUOUS
 10
-0.1796678651
 20
32.4704086906
 11
-0.1796678651
 21
32.6703782296
  0
LINE
  5
305
100
AcDbEntity
  8
ASSI
100
AcDbLine
 62
7
  6
CONTINUOUS
 10
0.0500727651
 20
12.8256756757
 11
0.0500727651
 21
9.3256756757
  0
LINE
  5
306
100
AcDbEntity
  8
ASSI
100
AcDbLine
 62
7
  6
CONTINUOUS
 10
0.5000727651
 20
12.8256756757
 11
0.5000727651
 21
9.3256756757
  0
LINE
  5
307
100
AcDbEntity
  8
0
100
AcDbLine
 62
7
  6
CONTINUOUS
 10
0.6050727651
 20
12.8256756757
 11
0.6050727651
 21
9.3256756757
  0
LINE
  5
308
100
AcDbEntity
  8
0
100
AcDbLine
 62
7
  6
CONTINUOUS
 10
0.8050727651
 20
3.3756756757
 11
0.8050727651
 21
4.2756756757
  0
LINE
  5
309
100
AcDbEntity
  8
ASSI
100
AcDbLine
 62
7
  6
CONTINUOUS
 10
1.0500727651
 20
12.8256756757
 11
1.0500727651
 21
9.3256756757
  0
LINE
  5
30A
100
AcDbEntity
  8
ASSI
100
AcDbLine
 62
7
  6
CONTINUOUS
 10
8.0650727651
 20
30.9970640067
 11
8.0519053082
 21
30.9575295118
  0
LINE
  5
30B
100
AcDbEntity
  8
ASSI
100
AcDbLine
 62
253
  6
CONTINUOUS
 10
-11.8006727065
 20
-13.6547398805
 11
-11.6477645717
 21
-13.3487137681
  0
LINE
  5
30C
100
AcDbEntity
  8
RACCORDO
100
AcDbLine
 62
7
  6
CONTINUOUS
 10
4.9160934118
 20
13.3766963224
 11
4.9246375024
 21
13.385240413
  0
LINE
  5
30D
100
AcDbEntity
  8
RACCORDO
100
AcDbLine
 62
7
  6
CONTINUOUS
 10
-4.5868802668
 20
3.7737226438
 11
-4.5955179847
 21
3.7650849259
  0
LINE
  5
30E
100
AcDbEntity
  8
RACCORDO
100
AcDbLine
 62
7
  6
CONTINUOUS
 10
-3.5370926568
 20
3.7735102538
 11
-3.5457665573
 21
3.7648363533
  0
LINE
  5
30F
100
AcDbEntity
  8
0
100
AcDbLine
 62
7
  6
CONTINUOUS
 10
-6.9349272349
 20
9.2256756757
 11
-6.2099272349
 21
9.2256756757
  0
LINE
  5
310
100
AcDbEntity
  8
0
100
AcDbLine
 62
7
  6
CONTINUOUS
 10
3.7400727651
 20
9.2256756757
 11
4.4650727651
 21
9.2256756757
  0
LINE
  5
311
100
AcDbEntity
  8
0
100
AcDbLine
 62
7
  6
CONTINUOUS
 10
-6.0149272349
 20
9.3256756757
 11
-5.5149272349
 21
9.3256756757
  0
LINE
  5
312
100
AcDbEntity
  8
0
100
AcDbLine
 62
7
  6
CONTINUOUS
 10
-4.9949272349
 20
9.3256756757
 11
-4.4949272349
 21
9.3256756757
  0
LINE
  5
313
100
AcDbEntity
  8
ASSI
100
AcDbLine
 62
7
  6
CONTINUOUS
 10
-3.9499272349
 20
9.3256756757
 11
-3.4999272349
 21
9.3256756757
  0
LINE
  5
314
100
AcDbEntity
  8
0
100
AcDbLine
 62
7
  6
CONTINUOUS
 10
-3.9749272349
 20
9.3256756757
 11
-3.4749272349
 21
9.3256756757
  0
LINE
  5
315
100
AcDbEntity
  8
ASSI
100
AcDbLine
 62
7
  6
CONTINUOUS
 10
-2.9499272349
 20
9.3256756757
 11
-2.4999272349
 21
9.3256756757
  0
LINE
  5
316
100
AcDbEntity
  8
0
100
AcDbLine
 62
7
  6
CONTINUOUS
 10
-2.9549272349
 20
9.3256756757
 11
-2.4549272349
 21
9.3256756757
  0
LINE
  5
317
100
AcDbEntity
  8
ASSI
100
AcDbLine
 62
7
  6
CONTINUOUS
 10
-1.9499272349
 20
9.3256756757
 11
-1.4999272349
 21
9.3256756757
  0
LINE
  5
318
100
AcDbEntity
  8
0
100
AcDbLine
 62
7
  6
CONTINUOUS
 10
-1.9349272349
 20
9.3256756757
 11
-1.4349272349
 21
9.3256756757
  0
LINE
  5
319
100
AcDbEntity
  8
ASSI
100
AcDbLine
 62
7
  6
CONTINUOUS
 10
-0.9499272349
 20
9.3256756757
 11
-0.4999272349
 21
9.3256756757
  0
LINE
  5
31A
100
AcDbEntity
  8
0
100
AcDbLine
 62
7
  6
CONTINUOUS
 10
-0.9149272349
 20
9.3256756757
 11
-0.4149272349
 21
9.3256756757
  0
LINE
  5
31B
100
AcDbEntity
  8
ASSI
100
AcDbLine
 62
7
  6
CONTINUOUS
 10
0.0500727651
 20
9.3256756757
 11
0.5000727651
 21
9.3256756757
  0
LINE
  5
31C
100
AcDbEntity
  8
0
100
AcDbLine
 62
7
  6
CONTINUOUS
 10
0.1050727651
 20
9.3256756757
 11
0.6050727651
 21
9.3256756757
  0
LINE
  5
31D
100
AcDbEntity
  8
ASSI
100
AcDbLine
 62
7
  6
CONTINUOUS
 10
1.0500727651
 20
9.3256756757
 11
1.5000727651
 21
9.3256756757
  0
LINE
  5
31E
100
AcDbEntity
  8
0
100
AcDbLine
 62
7
  6
CONTINUOUS
 10
1.1250727651
 20
9.3256756757
 11
1.6250727651
 21
9.3256756757
  0
LINE
  5
31F
100
AcDbEntity
  8
0
100
AcDbLine
 62
7
  6
CONTINUOUS
 10
2.1450727651
 20
9.3256756757
 11
2.6450727651
 21
9.3256756757
  0
LINE
  5
320
100
AcDbEntity
  8
0
100
AcDbLine
 62
7
  6
CONTINUOUS
 10
3.1650727651
 20
9.3256756757
 11
3.6650727651
 21
9.3256756757
  0
LINE
  5
321
100
AcDbEntity
  8
0
100
AcDbLine
 62
7
  6
CONTINUOUS
 10
4.4650727651
 20
10.9256756757
 11
3.7400727651
 21
10.9256756757
  0
LINE
  5
322
100
AcDbEntity
  8
0
100
AcDbLine
 62
7
  6
CONTINUOUS
 10
-6.2099272349
 20
10.9256756757
 11
-6.9349272349
 21
10.9256756757
  0
LINE
  5
323
100
AcDbEntity
  8
RACCORDO
100
AcDbLine
 62
7
  6
CONTINUOUS
 10
4.9162082861
 20
5.3745401546
 11
4.9247511698
 21
5.3659972709
  0
LINE
  5
324
100
AcDbEntity
  8
ASSI
100
AcDbLine
 62
253
  6
CONTINUOUS
 10
-11.8006727065
 20
31.0060912318
 11
-11.6477645707
 21
30.7000651173
  0
LINE
  5
325
100
AcDbEntity
  8
ASSI
100
AcDbLine
 62
7
  6
CONTINUOUS
 10
8.0650727651
 20
-13.6457126554
 11
8.0519053082
 21
-13.6061781605
  0
LINE
  5
326
100
AcDbEntity
  8
ASSI
100
AcDbLine
 62
7
  6
CONTINUOUS
 10
1.5000727651
 20
12.8256756757
 11
1.5000727651
 21
9.3256756757
  0
LINE
  5
327
100
AcDbEntity
  8
0
100
AcDbLine
 62
7
  6
CONTINUOUS
 10
1.6250727651
 20
12.8256756757
 11
1.6250727651
 21
9.3256756757
  0
LINE
  5
328
100
AcDbEntity
  8
0
100
AcDbLine
 62
7
  6
CONTINUOUS
 10
2.0650727651
 20
4.2756756757
 11
2.0650727651
 21
5.8756756757
  0
LINE
  5
329
100
AcDbEntity
  8
0
100
AcDbLine
 62
7
  6
CONTINUOUS
 10
2.1450727651
 20
12.8256756757
 11
2.1450727651
 21
9.3256756757
  0
LINE
  5
32A
100
AcDbEntity
  8
0
100
AcDbLine
 62
7
  6
CONTINUOUS
 10
2.6450727651
 20
12.8256756757
 11
2.6450727651
 21
9.3256756757
  0
LINE
  5
32B
100
AcDbEntity
  8
ASSI
100
AcDbLine
 62
253
  6
CONTINUOUS
 10
2.9598133952
 20
-15.1190573392
 11
2.9598133952
 21
-15.3190268783
  0
LINE
  5
32C
100
AcDbEntity
  8
ASSI
100
AcDbLine
 62
253
  6
CONTINUOUS
 10
2.9598133952
 20
32.4704086906
 11
2.9598133952
 21
32.6703782296
  0
LINE
  5
32D
100
AcDbEntity
  8
ASSI
100
AcDbLine
 62
253
  6
CONTINUOUS
 10
3.00980578
 20
-15.0690649545
 11
3.00980578
 21
-13.6981204347
  0
LINE
  5
32E
100
AcDbEntity
  8
ASSI
100
AcDbLine
 62
253
  6
CONTINUOUS
 10
3.00980578
 20
31.049471786
 11
3.00980578
 21
32.4204163058
  0
LINE
  5
32F
100
AcDbEntity
  8
0
100
AcDbLine
 62
7
  6
CONTINUOUS
 10
3.1650727651
 20
12.8256756757
 11
3.1650727651
 21
9.3256756757
  0
LINE
  5
330
100
AcDbEntity
  8
ASSI
100
AcDbLine
 62
253
  6
CONTINUOUS
 10
3.209775319
 20
-15.0690649545
 11
3.209775319
 21
-13.7084190622
  0
LINE
  5
331
100
AcDbEntity
  8
ASSI
100
AcDbLine
 62
253
  6
CONTINUOUS
 10
3.209775319
 20
31.0597704135
 11
3.209775319
 21
32.4204163058
  0
LINE
  5
332
100
AcDbEntity
  8
ASSI
100
AcDbLine
 62
7
  6
CONTINUOUS
 10
3.2150727651
 20
-15.0743624005
 11
3.2150727651
 21
-13.7243243243
  0
LINE
  5
333
100
AcDbEntity
  8
ASSI
100
AcDbLine
 62
7
  6
CONTINUOUS
 10
3.2150727651
 20
31.0756756757
 11
3.2150727651
 21
32.4257137519
  0
LINE
  5
334
100
AcDbEntity
  8
RACCORDO
100
AcDbLine
 62
253
  6
CONTINUOUS
 10
1.5872361241
 20
3.2582281364
 11
1.5869965458
 21
2.0569015243
  0
LINE
  5
335
100
AcDbEntity
  8
RACCORDO
100
AcDbLine
 62
253
  6
CONTINUOUS
 10
2.6415186064
 20
4.8603509902
 11
2.6412436356
 21
3.2585554469
  0
LINE
  5
336
100
AcDbEntity
  8
ASSI
100
AcDbLine
 62
7
  6
CONTINUOUS
 10
-5.6849272349
 20
-13.7243243243
 11
-5.6796297889
 21
-13.7084190622
  0
LINE
  5
337
100
AcDbEntity
  8
RACCORDO
100
AcDbLine
 62
7
  6
CONTINUOUS
 10
-3.5369493659
 20
2.5736535447
 11
-3.5456453958
 21
2.5649575148
  0
LINE
  5
338
100
AcDbEntity
  8
ASSI
100
AcDbLine
 62
253
  6
CONTINUOUS
 10
-3.9499272349
 20
12.4026756622
 11
-3.4999272349
 21
12.4026756622
  0
LINE
  5
339
100
AcDbEntity
  8
ASSI
100
AcDbLine
 62
253
  6
CONTINUOUS
 10
-2.9499272349
 20
12.4026756622
 11
-2.4999272349
 21
12.4026756622
  0
LINE
  5
33A
100
AcDbEntity
  8
ASSI
100
AcDbLine
 62
253
  6
CONTINUOUS
 10
-1.9499272349
 20
12.4026756622
 11
-1.4999272349
 21
12.4026756622
  0
LINE
  5
33B
100
AcDbEntity
  8
ASSI
100
AcDbLine
 62
253
  6
CONTINUOUS
 10
-0.9499272349
 20
12.4026756622
 11
-0.4999272349
 21
12.4026756622
  0
LINE
  5
33C
100
AcDbEntity
  8
ASSI
100
AcDbLine
 62
253
  6
CONTINUOUS
 10
0.0500727651
 20
12.4026756622
 11
0.5000727651
 21
12.4026756622
  0
LINE
  5
33D
100
AcDbEntity
  8
ASSI
100
AcDbLine
 62
253
  6
CONTINUOUS
 10
1.0500727651
 20
12.4026756622
 11
1.5000727651
 21
12.4026756622
  0
LINE
  5
33E
100
AcDbEntity
  8
0
100
AcDbLine
 62
7
  6
CONTINUOUS
 10
3.7400727651
 20
12.8256756757
 11
-6.2099272349
 21
12.8256756757
  0
LINE
  5
33F
100
AcDbEntity
  8
ASSI
100
AcDbLine
 62
7
  6
CONTINUOUS
 10
-5.6849272349
 20
31.0756756757
 11
-5.6796297889
 21
31.0597704135
  0
LINE
  5
340
100
AcDbEntity
  8
ASSI
100
AcDbLine
 62
253
  6
CONTINUOUS
 10
5.9869677545
 20
-14.5340804031
 11
6.0048439644
 21
-15.1253606214
  0
LINE
  5
341
100
AcDbEntity
  8
0
100
AcDbLine
 62
7
  6
CONTINUOUS
 10
3.6650727651
 20
12.8256756757
 11
3.6650727651
 21
9.3256756757
  0
LINE
  5
342
100
AcDbEntity
  8
0
100
AcDbLine
 62
7
  6
CONTINUOUS
 10
3.7400727651
 20
5.8756756757
 11
3.7400727651
 21
9.2256756757
  0
LINE
  5
343
100
AcDbEntity
  8
0
100
AcDbLine
 62
7
  6
CONTINUOUS
 10
3.7400727651
 20
10.9256756757
 11
3.7400727651
 21
12.8256756757
  0
LINE
  5
344
100
AcDbEntity
  8
0
100
AcDbLine
 62
7
  6
CONTINUOUS
 10
4.4650727651
 20
9.2256756757
 11
4.4650727651
 21
10.9256756757
  0
LINE
  5
345
100
AcDbEntity
  8
ASSI
100
AcDbLine
 62
253
  6
CONTINUOUS
 10
6.0048439644
 20
32.4767119728
 11
5.9869677545
 21
31.8854317544
  0
LINE
  5
346
100
AcDbEntity
  8
ASSI
100
AcDbLine
 62
253
  6
CONTINUOUS
 10
6.1894609372
 20
-14.4443483065
 11
6.2048135034
 21
-14.9521555407
  0
LINE
  5
347
100
AcDbEntity
  8
ASSI
100
AcDbLine
 62
7
  6
CONTINUOUS
 10
7.2650727651
 20
-14.4469740551
 11
7.278240222
 21
-14.8825057949
  0
LINE
  5
348
100
AcDbEntity
  8
RACCORDO
100
AcDbLine
 62
253
  6
CONTINUOUS
 10
5.4515912023
 20
13.8912093356
 11
5.451892059
 21
4.8616368919
  0
LINE
  5
349
100
AcDbEntity
  8
ASSI
100
AcDbLine
 62
7
  6
CONTINUOUS
 10
5.9650727651
 20
-15.6243547853
 11
5.9650727651
 21
-13.7243243243
  0
LINE
  5
34A
100
AcDbEntity
  8
ASSI
100
AcDbLine
 62
7
  6
CONTINUOUS
 10
5.9650727651
 20
31.0756756757
 11
5.9650727651
 21
32.9757061366
  0
LINE
  5
34B
100
AcDbEntity
  8
ASSI
100
AcDbLine
 62
253
  6
CONTINUOUS
 10
5.9869677545
 20
-14.5340804031
 11
5.9869677545
 21
-13.6585859398
  0
LINE
  5
34C
100
AcDbEntity
  8
ASSI
100
AcDbLine
 62
253
  6
CONTINUOUS
 10
5.9869677545
 20
31.0099372911
 11
5.9869677545
 21
31.8854317544
  0
LINE
  5
34D
100
AcDbEntity
  8
ASSI
100
AcDbLine
 62
253
  6
CONTINUOUS
 10
6.005280341
 20
32.8863636976
 11
6.005280341
 21
32.520013243
  0
LINE
  5
34E
100
AcDbEntity
  8
ASSI
100
AcDbLine
 62
253
  6
CONTINUOUS
 10
6.005280341
 20
-15.1686618916
 11
6.005280341
 21
-15.5350123462
  0
LINE
  5
34F
100
AcDbEntity
  8
ASSI
100
AcDbLine
 62
253
  6
CONTINUOUS
 10
6.20524988
 20
32.8863636976
 11
6.20524988
 21
32.520013243
  0
LINE
  5
350
100
AcDbEntity
  8
ASSI
100
AcDbLine
 62
253
  6
CONTINUOUS
 10
6.20524988
 20
-15.1686598124
 11
6.20524988
 21
-15.5350123462
  0
LINE
  5
351
100
AcDbEntity
  8
ASSI
100
AcDbLine
 62
253
  6
CONTINUOUS
 10
6.2369296782
 20
31.7983254065
 11
6.2369296782
 21
30.9970640067
  0
LINE
  5
352
100
AcDbEntity
  8
ASSI
100
AcDbLine
 62
253
  6
CONTINUOUS
 10
6.2369296782
 20
-13.6457126554
 11
6.2369296782
 21
-14.4469740551
  0
LINE
  5
353
100
AcDbEntity
  8
ASSI
100
AcDbLine
 62
7
  6
CONTINUOUS
 10
7.2650727651
 20
31.7983254065
 11
7.2650727651
 21
30.9970640067
  0
LINE
  5
354
100
AcDbEntity
  8
ASSI
100
AcDbLine
 62
7
  6
CONTINUOUS
 10
7.2650727651
 20
-13.6457126554
 11
7.2650727651
 21
-14.4469740551
  0
LINE
  5
355
100
AcDbEntity
  8
ASSI
100
AcDbLine
 62
253
  6
CONTINUOUS
 10
7.278240222
 20
-14.8825057949
 11
7.278240222
 21
-13.6061781605
  0
LINE
  5
356
100
AcDbEntity
  8
ASSI
100
AcDbLine
 62
253
  6
CONTINUOUS
 10
7.278240222
 20
30.9575295118
 11
7.278240222
 21
32.2338571463
  0
LINE
  5
357
100
AcDbEntity
  8
ASSI
100
AcDbLine
 62
253
  6
CONTINUOUS
 10
6.2048135345
 20
32.3035079199
 11
6.1894609372
 21
31.7956996578
  0
LINE
  5
358
100
AcDbEntity
  8
ASSI
100
AcDbLine
 62
7
  6
CONTINUOUS
 10
7.278240222
 20
32.2338571463
 11
7.2650727651
 21
31.7983254065
  0
LINE
  5
359
100
AcDbEntity
  8
ASSI
100
AcDbLine
 62
7
  6
CONTINUOUS
 10
-0.4349272349
 20
-13.7243243243
 11
-0.4296297889
 21
-13.7084190622
  0
LINE
  5
35A
100
AcDbEntity
  8
ASSI
100
AcDbLine
 62
7
  6
CONTINUOUS
 10
-0.4296297889
 20
31.0597704135
 11
-0.4349272349
 21
31.0756756757
  0
LINE
  5
35B
100
AcDbEntity
  8
ASSI
100
AcDbLine
 62
7
  6
CONTINUOUS
 10
8.0519053082
 20
32.2338571463
 11
8.0650727651
 21
31.7983254065
  0
LINE
  5
35C
100
AcDbEntity
  8
ASSI
100
AcDbLine
 62
253
  6
CONTINUOUS
 10
7.5282021458
 20
-15.1686618916
 11
7.5282021458
 21
-13.5933048761
  0
LINE
  5
35D
100
AcDbEntity
  8
ASSI
100
AcDbLine
 62
253
  6
CONTINUOUS
 10
7.5282021458
 20
30.9446562275
 11
7.5282021458
 21
32.520013243
  0
LINE
  5
35E
100
AcDbEntity
  8
ASSI
100
AcDbLine
 62
253
  6
CONTINUOUS
 10
7.8019433844
 20
-15.1686618916
 11
7.8019433844
 21
-13.5933048761
  0
LINE
  5
35F
100
AcDbEntity
  8
ASSI
100
AcDbLine
 62
253
  6
CONTINUOUS
 10
7.8019433844
 20
30.9446562275
 11
7.8019433844
 21
32.520013243
  0
LINE
  5
360
100
AcDbEntity
  8
ASSI
100
AcDbLine
 62
253
  6
CONTINUOUS
 10
8.0519053082
 20
-14.8825057949
 11
8.0519053082
 21
-13.6061781605
  0
LINE
  5
361
100
AcDbEntity
  8
ASSI
100
AcDbLine
 62
253
  6
CONTINUOUS
 10
8.0519053082
 20
30.9575295118
 11
8.0519053082
 21
32.2338571463
  0
LINE
  5
362
100
AcDbEntity
  8
ASSI
100
AcDbLine
 62
7
  6
CONTINUOUS
 10
8.0650727651
 20
31.7983254065
 11
8.0650727651
 21
30.9970640067
  0
LINE
  5
363
100
AcDbEntity
  8
ASSI
100
AcDbLine
 62
7
  6
CONTINUOUS
 10
8.0650727651
 20
-13.6457126554
 11
8.0650727651
 21
-14.4469740551
  0
LINE
  5
364
100
AcDbEntity
  8
ASSI
100
AcDbLine
 62
253
  6
CONTINUOUS
 10
9.0932158519
 20
31.7983254065
 11
9.0932158519
 21
30.9970640067
  0
LINE
  5
365
100
AcDbEntity
  8
ASSI
100
AcDbLine
 62
253
  6
CONTINUOUS
 10
9.0932158519
 20
-13.6457126554
 11
9.0932158519
 21
-14.4469740551
  0
LINE
  5
366
100
AcDbEntity
  8
ASSI
100
AcDbLine
 62
253
  6
CONTINUOUS
 10
9.1248956501
 20
32.8863636976
 11
9.1248956501
 21
32.5200332701
  0
LINE
  5
367
100
AcDbEntity
  8
ASSI
100
AcDbLine
 62
253
  6
CONTINUOUS
 10
9.1248956501
 20
-15.5350123462
 11
9.1248956501
 21
-15.1686602554
  0
LINE
  5
368
100
AcDbEntity
  8
ASSI
100
AcDbLine
 62
253
  6
CONTINUOUS
 10
9.1939713418
 20
29.5529430917
 11
9.1939713404
 21
-12.2015917414
  0
LINE
  5
369
100
AcDbEntity
  8
ASSI
100
AcDbLine
 62
253
  6
CONTINUOUS
 10
9.3248651892
 20
32.8863636976
 11
9.3248651892
 21
32.520013243
  0
LINE
  5
36A
100
AcDbEntity
  8
ASSI
100
AcDbLine
 62
253
  6
CONTINUOUS
 10
9.3248651892
 20
-15.5350123462
 11
9.3248651892
 21
-15.1686618916
  0
LINE
  5
36B
100
AcDbEntity
  8
ASSI
100
AcDbLine
 62
253
  6
CONTINUOUS
 10
9.3431777757
 20
31.8854317544
 11
9.3431777757
 21
31.0098282529
  0
LINE
  5
36C
100
AcDbEntity
  8
ASSI
100
AcDbLine
 62
253
  6
CONTINUOUS
 10
9.3431777757
 20
-13.6584769015
 11
9.3431777757
 21
-14.5340804031
  0
LINE
  5
36D
100
AcDbEntity
  8
ASSI
100
AcDbLine
 62
7
  6
CONTINUOUS
 10
9.3650727651
 20
-15.6243547853
 11
9.3650727651
 21
-13.7243240601
  0
LINE
  5
36E
100
AcDbEntity
  8
ASSI
100
AcDbLine
 62
7
  6
CONTINUOUS
 10
9.3650728296
 20
31.0756756053
 11
9.3650727651
 21
32.9757061366
  0
LINE
  5
36F
100
AcDbEntity
  8
ASSI
100
AcDbLine
 62
7
  6
CONTINUOUS
 10
8.0650727651
 20
-14.4469740551
 11
8.0519053082
 21
-14.8825057949
  0
LINE
  5
370
100
AcDbEntity
  8
ASSI
100
AcDbLine
 62
253
  6
CONTINUOUS
 10
-11.7955771806
 20
-15.585004731
 11
-11.8349272349
 21
-15.6243547853
  0
LINE
  5
371
100
AcDbEntity
  8
ASSI
100
AcDbLine
 62
253
  6
CONTINUOUS
 10
-11.5956076416
 20
-15.78497427
 11
-11.6349576959
 21
-15.8243243243
  0
LINE
  5
372
100
AcDbEntity
  8
ASSI
100
AcDbLine
 62
253
  6
CONTINUOUS
 10
-11.7955771806
 20
32.9363560823
 11
-11.8349272349
 21
32.9757061366
  0
LINE
  5
373
100
AcDbEntity
  8
ASSI
100
AcDbLine
 62
253
  6
CONTINUOUS
 10
-11.5956076416
 20
33.1363256214
 11
-11.6349576959
 21
33.1756756757
  0
LINE
  5
374
100
AcDbEntity
  8
ASSI
100
AcDbLine
 62
7
  6
CONTINUOUS
 10
9.9043516474
 20
26.3096502719
 11
9.8650727651
 21
27.1756756757
  0
LINE
  5
375
100
AcDbEntity
  8
ASSI
100
AcDbLine
 62
253
  6
CONTINUOUS
 10
9.1253307491
 20
32.3035491524
 11
9.140684593
 21
31.7956996578
  0
LINE
  5
376
100
AcDbEntity
  8
ASSI
100
AcDbLine
 62
253
  6
CONTINUOUS
 10
9.3253015658
 20
32.4767119728
 11
9.3431777757
 21
31.8854317544
  0
LINE
  5
377
100
AcDbEntity
  8
ASSI
100
AcDbLine
 62
7
  6
CONTINUOUS
 10
9.8650727651
 20
30.5757518281
 11
9.8650727651
 21
27.1756756757
  0
LINE
  5
378
100
AcDbEntity
  8
ASSI
100
AcDbLine
 62
7
  6
CONTINUOUS
 10
9.8650727651
 20
-13.2244004767
 11
9.8650727651
 21
-9.8243243243
  0
LINE
  5
379
100
AcDbEntity
  8
ASSI
100
AcDbLine
 62
7
  6
CONTINUOUS
 10
9.9043516474
 20
-8.9582989205
 11
9.9043516474
 21
26.3096502719
  0
LINE
  5
37A
100
AcDbEntity
  8
RACCORDO
100
AcDbLine
 62
7
  6
CONTINUOUS
 10
9.9150727651
 20
26.3473747244
 11
9.9150727651
 21
-8.996023373
  0
LINE
  5
37B
100
AcDbEntity
  8
SUPERFICI
100
AcDbLine
 62
7
  6
CONTINUOUS
 10
9.9150727651
 20
26.3473747244
 11
9.9150727651
 21
-8.996023373
  0
LINE
  5
37C
100
AcDbEntity
  8
ASSI
100
AcDbLine
 62
253
  6
CONTINUOUS
 10
9.1253320268
 20
-14.9521555407
 11
9.140684593
 21
-14.4443483065
  0
LINE
  5
37D
100
AcDbEntity
  8
ASSI
100
AcDbLine
 62
253
  6
CONTINUOUS
 10
9.3253015658
 20
-15.1253606214
 11
9.3431777757
 21
-14.5340804031
  0
LINE
  5
37E
100
AcDbEntity
  8
ASSI
100
AcDbLine
 62
7
  6
CONTINUOUS
 10
9.8650727651
 20
-9.8243243243
 11
9.9043516474
 21
-8.9582989205
  0
LINE
  5
37F
100
AcDbEntity
  8
ASSI
100
AcDbLine
 62
7
  6
CONTINUOUS
 10
5.9650727651
 20
-13.7243243243
 11
5.9869677545
 21
-13.6585859398
  0
LINE
  5
380
100
AcDbEntity
  8
ASSI
100
AcDbLine
 62
253
  6
CONTINUOUS
 10
-5.6796297889
 20
-15.0690649545
 11
-5.6849272349
 21
-15.0743624005
  0
LINE
  5
381
100
AcDbEntity
  8
ASSI
100
AcDbLine
 62
253
  6
CONTINUOUS
 10
-5.4296678651
 20
-15.3190268783
 11
-5.4349653111
 21
-15.3243243243
  0
LINE
  5
382
100
AcDbEntity
  8
ASSI
100
AcDbLine
 62
253
  6
CONTINUOUS
 10
-5.6849272349
 20
32.4257137519
 11
-5.6796297889
 21
32.4204163058
  0
LINE
  5
383
100
AcDbEntity
  8
ASSI
100
AcDbLine
 62
253
  6
CONTINUOUS
 10
-5.4349653111
 20
32.6756756757
 11
-5.4296707573
 21
32.6703782296
  0
LINE
  5
384
100
AcDbEntity
  8
ASSI
100
AcDbLine
 62
7
  6
CONTINUOUS
 10
5.9869677545
 20
31.0099372911
 11
5.9650727651
 21
31.0756756757
  0
LINE
  5
385
100
AcDbEntity
  8
ASSI
100
AcDbLine
 62
7
  6
CONTINUOUS
 10
7.2650727651
 20
-13.6457126554
 11
7.278240222
 21
-13.6061781605
  0
LWPOLYLINE
  5
386
100
AcDbEntity
  8
0
100
AcDbPolyline
 62
7
  6
CONTINUOUS
 90
10
 70
0
 43
0.3500000006
 10
22.1010558701
 20
9.1042465439
 10
21.2439111328
 20
9.9613890152
 10
20.3867686615
 20
10.175675766
 10
19.5296261902
 20
10.175675766
 10
19.1010549545
 20
9.7471045303
 10
19.1010549545
 20
9.1042465439
 10
19.5296261902
 20
8.6756753082
 10
20.3867686615
 20
8.6756753082
 10
20.8153398972
 20
9.1042465439
 10
20.8153398972
 20
10.0328179321
  0
LINE
  5
387
100
AcDbEntity
  8
ASSI
100
AcDbLine
 62
7
  6
CONTINUOUS
 10
7.2650727651
 20
30.9970640067
 11
7.278240222
 21
30.9575295118
  0
LINE
  5
388
100
AcDbEntity
  8
ASSI
100
AcDbLine
 62
253
  6
CONTINUOUS
 10
-0.4296297889
 20
-15.0690649545
 11
-0.4349272349
 21
-15.0743624005
  0
LINE
  5
389
100
AcDbEntity
  8
ASSI
100
AcDbLine
 62
253
  6
CONTINUOUS
 10
-0.1796678651
 20
-15.3190268783
 11
-0.1849653111
 21
-15.3243243243
  0
LINE
  5
38A
100
AcDbEntity
  8
ASSI
100
AcDbLine
 62
253
  6
CONTINUOUS
 10
-0.1849653111
 20
32.6756756757
 11
-0.1796678651
 21
32.6703782296
  0
LWPOLYLINE
  5
38B
100
AcDbEntity
  8
0
100
AcDbPolyline
 62
7
  6
CONTINUOUS
 90
10
 70
0
 43
0.3500000006
 10
-0.2706415141
 20
45.3191334229
 10
-0.1992129512
 20
45.176275589
 10
-0.1992129512
 20
45.1048444061
 10
-0.3420700947
 20
44.9619911041
 10
-0.4134986576
 20
44.9619911041
 10
-0.4849272205
 20
45.0334177551
 10
-0.4849272205
 20
45.1048444061
 10
-0.4134986576
 20
45.24770224
 10
-0.3420700947
 20
45.3191334229
 10
-0.2706415141
 20
45.3191334229
  0
LWPOLYLINE
  5
38C
100
AcDbEntity
  8
0
100
AcDbPolyline
 62
7
  6
CONTINUOUS
 90
3
 70
0
 43
0.3500000006
 10
21.4581978836
 20
7.8185328369
 10
21.4581978836
 20
6.3185323792
 10
19.1010549545
 20
6.9613903656
  0
LINE
  5
38D
100
AcDbEntity
  8
ASSI
100
AcDbLine
 62
253
  6
CONTINUOUS
 10
6.0044228194
 20
-15.585004731
 11
5.9650727651
 21
-15.6243547853
  0
LINE
  5
38E
100
AcDbEntity
  8
ASSI
100
AcDbLine
 62
253
  6
CONTINUOUS
 10
6.2043923584
 20
-15.78497427
 11
6.1650423041
 21
-15.8243243243
  0
LINE
  5
38F
100
AcDbEntity
  8
ASSI
100
AcDbLine
 62
7
  6
CONTINUOUS
 10
7.8019433844
 20
30.9446562275
 11
7.5282021458
 21
30.9446562275
  0
LINE
  5
390
100
AcDbEntity
  8
ASSI
100
AcDbLine
 62
7
  6
CONTINUOUS
 10
-9.9980566156
 20
30.9446562275
 11
-10.2717978542
 21
30.9446562275
  0
LINE
  5
391
100
AcDbEntity
  8
ASSI
100
AcDbLine
 62
7
  6
CONTINUOUS
 10
-11.5630703218
 20
30.9970640067
 11
-10.5349272349
 21
30.9970640067
  0
LINE
  5
392
100
AcDbEntity
  8
ASSI
100
AcDbLine
 62
7
  6
CONTINUOUS
 10
-9.7349272349
 20
30.9970640067
 11
-8.7067841481
 21
30.9970640067
  0
LINE
  5
393
100
AcDbEntity
  8
ASSI
100
AcDbLine
 62
7
  6
CONTINUOUS
 10
6.2369296782
 20
30.9970640067
 11
7.2650727651
 21
30.9970640067
  0
LINE
  5
394
100
AcDbEntity
  8
ASSI
100
AcDbLine
 62
7
  6
CONTINUOUS
 10
8.0650727651
 20
30.9970640067
 11
9.0932158519
 21
30.9970640067
  0
LINE
  5
395
100
AcDbEntity
  8
ASSI
100
AcDbLine
 62
7
  6
CONTINUOUS
 10
3.00980578
 20
31.049471786
 11
-0.2296602498
 21
31.049471786
  0
LINE
  5
396
100
AcDbEntity
  8
ASSI
100
AcDbLine
 62
7
  6
CONTINUOUS
 10
-2.24019422
 20
31.049471786
 11
-5.4796602498
 21
31.049471786
  0
LINE
  5
397
100
AcDbEntity
  8
ASSI
100
AcDbLine
 62
7
  6
CONTINUOUS
 10
-8.4349272349
 20
31.0756756757
 11
-5.6849272349
 21
31.0756756757
  0
LINE
  5
398
100
AcDbEntity
  8
ASSI
100
AcDbLine
 62
7
  6
CONTINUOUS
 10
-2.0349272349
 20
31.0756756757
 11
-0.4349272349
 21
31.0756756757
  0
LINE
  5
399
100
AcDbEntity
  8
ASSI
100
AcDbLine
 62
7
  6
CONTINUOUS
 10
3.2150727651
 20
31.0756756757
 11
5.9650727651
 21
31.0756756757
  0
LINE
  5
39A
100
AcDbEntity
  8
ASSI
100
AcDbLine
 62
7
  6
CONTINUOUS
 10
-11.5630703218
 20
31.7983254065
 11
-10.5349272349
 21
31.7983254065
  0
LINE
  5
39B
100
AcDbEntity
  8
ASSI
100
AcDbLine
 62
7
  6
CONTINUOUS
 10
-9.7349272349
 20
31.7983254065
 11
-8.7067841481
 21
31.7983254065
  0
LINE
  5
39C
100
AcDbEntity
  8
ASSI
100
AcDbLine
 62
7
  6
CONTINUOUS
 10
6.2369296782
 20
31.7983254065
 11
7.2650727651
 21
31.7983254065
  0
LINE
  5
39D
100
AcDbEntity
  8
ASSI
100
AcDbLine
 62
7
  6
CONTINUOUS
 10
8.0650727651
 20
31.7983254065
 11
9.0932158519
 21
31.7983254065
  0
LINE
  5
39E
100
AcDbEntity
  8
ASSI
100
AcDbLine
 62
253
  6
CONTINUOUS
 10
5.9650727651
 20
32.9757061366
 11
6.0044228194
 21
32.9363560823
  0
LINE
  5
39F
100
AcDbEntity
  8
ASSI
100
AcDbLine
 62
253
  6
CONTINUOUS
 10
6.1650423041
 20
33.1756756757
 11
6.2043923584
 21
33.1363256214
  0
LINE
  5
3A0
100
AcDbEntity
  8
ASSI
100
AcDbLine
 62
253
  6
CONTINUOUS
 10
-11.5951852188
 20
32.3035491583
 11
-10.4883042052
 21
32.303506892
  0
LINE
  5
3A1
100
AcDbEntity
  8
ASSI
100
AcDbLine
 62
253
  6
CONTINUOUS
 10
8.0184497353
 20
32.303506892
 11
9.1253307491
 21
32.3035491524
  0
LINE
  5
3A2
100
AcDbEntity
  8
ASSI
100
AcDbLine
 62
253
  6
CONTINUOUS
 10
-9.7815502647
 20
32.303506892
 11
-8.6746679978
 21
32.3035077039
  0
LINE
  5
3A3
100
AcDbEntity
  8
ASSI
100
AcDbLine
 62
253
  6
CONTINUOUS
 10
6.2048135345
 20
32.3035079199
 11
7.3116957948
 21
32.303506892
  0
LINE
  5
3A4
100
AcDbEntity
  8
ASSI
100
AcDbLine
 62
253
  6
CONTINUOUS
 10
-5.6796297889
 20
32.4204163058
 11
-5.4796602498
 21
32.4204163058
  0
LINE
  5
3A5
100
AcDbEntity
  8
ASSI
100
AcDbLine
 62
253
  6
CONTINUOUS
 10
-0.2296602498
 20
32.4204163058
 11
-0.4296297889
 21
32.4204163058
  0
LINE
  5
3A6
100
AcDbEntity
  8
ASSI
100
AcDbLine
 62
253
  6
CONTINUOUS
 10
-2.040224681
 20
32.4204163058
 11
-2.24019422
 21
32.4204163058
  0
LINE
  5
3A7
100
AcDbEntity
  8
ASSI
100
AcDbLine
 62
253
  6
CONTINUOUS
 10
3.00980578
 20
32.4204163058
 11
3.209775319
 21
32.4204163058
  0
LINE
  5
3A8
100
AcDbEntity
  8
ASSI
100
AcDbLine
 62
253
  6
CONTINUOUS
 10
-5.4296678651
 20
32.4704086906
 11
-2.2901866048
 21
32.4704086906
  0
LINE
  5
3A9
100
AcDbEntity
  8
ASSI
100
AcDbLine
 62
253
  6
CONTINUOUS
 10
2.9598133952
 20
32.4704086906
 11
-0.1796678651
 21
32.4704086906
  0
LINE
  5
3AA
100
AcDbEntity
  8
ASSI
100
AcDbLine
 62
253
  6
CONTINUOUS
 10
-11.794719659
 20
32.520013243
 11
-10.2717978542
 21
32.520013243
  0
LINE
  5
3AB
100
AcDbEntity
  8
ASSI
100
AcDbLine
 62
253
  6
CONTINUOUS
 10
9.3248651892
 20
32.520013243
 11
7.8019433844
 21
32.520013243
  0
LINE
  5
3AC
100
AcDbEntity
  8
ASSI
100
AcDbLine
 62
253
  6
CONTINUOUS
 10
7.5282021458
 20
32.520013243
 11
6.005280341
 21
32.520013243
  0
LINE
  5
3AD
100
AcDbEntity
  8
ASSI
100
AcDbLine
 62
253
  6
CONTINUOUS
 10
-8.4751348108
 20
32.520013243
 11
-9.9980566156
 21
32.520013243
  0
LINE
  5
3AE
100
AcDbEntity
  8
ASSI
100
AcDbLine
 62
253
  6
CONTINUOUS
 10
-5.4296707573
 20
32.6703782296
 11
-2.2901866048
 21
32.6703782296
  0
LINE
  5
3AF
100
AcDbEntity
  8
ASSI
100
AcDbLine
 62
253
  6
CONTINUOUS
 10
2.9598133952
 20
32.6703782296
 11
-0.1796678651
 21
32.6703782296
  0
LINE
  5
3B0
100
AcDbEntity
  8
ASSI
100
AcDbLine
 62
7
  6
CONTINUOUS
 10
-5.4349653111
 20
32.6756756757
 11
-2.2848891587
 21
32.6756756757
  0
LINE
  5
3B1
100
AcDbEntity
  8
ASSI
100
AcDbLine
 62
7
  6
CONTINUOUS
 10
-0.1849653111
 20
32.6756756757
 11
2.9651108413
 21
32.6756756757
  0
LINE
  5
3B2
100
AcDbEntity
  8
ASSI
100
AcDbLine
 62
253
  6
CONTINUOUS
 10
9.3248651892
 20
32.8863636976
 11
6.005280341
 21
32.8863636976
  0
LINE
  5
3B3
100
AcDbEntity
  8
ASSI
100
AcDbLine
 62
253
  6
CONTINUOUS
 10
-8.4751348108
 20
32.8863636976
 11
-11.794719659
 21
32.8863636976
  0
LINE
  5
3B4
100
AcDbEntity
  8
ASSI
100
AcDbLine
 62
253
  6
CONTINUOUS
 10
9.1257531717
 20
33.1363256214
 11
6.2043923584
 21
33.1363256214
  0
LINE
  5
3B5
100
AcDbEntity
  8
ASSI
100
AcDbLine
 62
253
  6
CONTINUOUS
 10
-8.6742468283
 20
33.1363256214
 11
-11.5956076416
 21
33.1363256214
  0
LINE
  5
3B6
100
AcDbEntity
  8
ASSI
100
AcDbLine
 62
7
  6
CONTINUOUS
 10
-11.6349576959
 20
33.1756756757
 11
-8.634896774
 21
33.1756756757
  0
LINE
  5
3B7
100
AcDbEntity
  8
ASSI
100
AcDbLine
 62
7
  6
CONTINUOUS
 10
6.1650423041
 20
33.1756756757
 11
9.165103226
 21
33.1756756757
  0
LWPOLYLINE
  5
3B8
100
AcDbEntity
  8
0
100
AcDbPolyline
 62
7
  6
CONTINUOUS
 90
7
 70
0
 43
0.3500000006
 10
2.3007871213
 20
44.8191332703
 10
0.8007870176
 20
44.8191332703
 10
2.3007871213
 20
46.9619871826
 10
2.3007871213
 20
47.3905606842
 10
1.8722156024
 20
47.8191341858
 10
1.2293584657
 20
47.8191341858
 10
0.8007870176
 20
47.1762761993
  0
LWPOLYLINE
  5
3B9
100
AcDbEntity
  8
0
100
AcDbPolyline
 62
7
  6
CONTINUOUS
 90
7
 70
0
 43
0.3500000006
 10
-1.7706414585
 20
44.8191332703
 10
-3.270641633
 20
44.8191332703
 10
-1.7706414585
 20
46.9619871826
 10
-1.7706414585
 20
47.3905606842
 10
-2.1992129774
 20
47.8191341858
 10
-2.8420701141
 20
47.8191341858
 10
-3.270641633
 20
47.1762761993
  0
LWPOLYLINE
  5
3BA
100
AcDbEntity
  8
0
100
AcDbPolyline
 62
7
  6
CONTINUOUS
 90
7
 70
0
 43
0.3500000006
 10
-4.1277843876
 20
44.8191332703
 10
-5.6277842789
 20
44.8191332703
 10
-4.1277843876
 20
46.9619871826
 10
-4.1277843876
 20
47.3905606842
 10
-4.5563559065
 20
47.8191341858
 10
-5.1992130432
 20
47.8191341858
 10
-5.6277842789
 20
47.1762761993
  0
LWPOLYLINE
  5
3BB
100
AcDbEntity
  8
0
100
AcDbPolyline
 62
7
  6
CONTINUOUS
 90
5
 70
0
 43
0.3500000006
 10
-49.1094321899
 20
56.5334212646
 10
-48.7522898712
 20
56.7477057495
 10
-48.7522898712
 20
57.3905592041
 10
-49.1094321899
 20
57.8191281738
 10
-49.9665746613
 20
57.8191281738
  0
LWPOLYLINE
  5
3BC
100
AcDbEntity
  8
0
100
AcDbPolyline
 62
7
  6
CONTINUOUS
 90
5
 70
0
 43
0.3500000006
 10
-45.2522888031
 20
56.5334212646
 10
-44.8951464844
 20
56.7477057495
 10
-44.8951464844
 20
57.3905592041
 10
-45.2522888031
 20
57.8191281738
 10
-46.1094312744
 20
57.8191281738
  0
LWPOLYLINE
  5
3BD
100
AcDbEntity
  8
0
100
AcDbPolyline
 62
7
  6
CONTINUOUS
 90
5
 70
0
 43
0.3500000006
 10
-46.0621549072
 20
46.5334182129
 10
-45.7050080566
 20
46.7477026978
 10
-45.7050080566
 20
47.3905606842
 10
-46.0621549072
 20
47.8191341858
 10
-46.9192973785
 20
47.8191341858
  0
LWPOLYLINE
  5
3BE
100
AcDbEntity
  8
0
100
AcDbPolyline
 62
7
  6
CONTINUOUS
 90
5
 70
0
 43
0.3500000006
 10
-43.919296463
 20
46.5334182129
 10
-43.5621541443
 20
46.7477026978
 10
-43.5621541443
 20
47.3905606842
 10
-43.919296463
 20
47.8191341858
 10
-44.7764389343
 20
47.8191341858
  0
LINE
  5
3BF
100
AcDbEntity
  8
ASSI
100
AcDbLine
 62
253
  6
CONTINUOUS
 10
-60.6121530485
 20
32.0272502838
 11
-59.8336625672
 21
32.4767119728
  0
LINE
  5
3C0
100
AcDbEntity
  8
ASSI
100
AcDbLine
 62
7
  6
CONTINUOUS
 10
-60.6121530485
 20
31.7983254065
 11
-59.7371700322
 21
32.3034970865
  0
LINE
  5
3C1
100
AcDbEntity
  8
ASSI
100
AcDbLine
 62
253
  6
CONTINUOUS
 10
-59.8336625672
 20
-15.1253606214
 11
-60.6121530485
 21
-14.6758989325
  0
LINE
  5
3C2
100
AcDbEntity
  8
ASSI
100
AcDbLine
 62
7
  6
CONTINUOUS
 10
-59.7370798514
 20
-14.9521978011
 11
-60.6121530485
 21
-14.4469740551
  0
LINE
  5
3C3
100
AcDbEntity
  8
ASSI
100
AcDbLine
 62
7
  6
CONTINUOUS
 10
-60.6121530485
 20
-15.8243243243
 11
-59.8577899469
 21
-15.8111568674
  0
LINE
  5
3C4
100
AcDbEntity
  8
ASSI
100
AcDbLine
 62
253
  6
CONTINUOUS
 10
-60.6121530485
 20
-15.6243547853
 11
-59.8577899469
 21
-15.6111873284
  0
LINE
  5
3C5
100
AcDbEntity
  8
ASSI
100
AcDbLine
 62
7
  6
CONTINUOUS
 10
-59.6121530485
 20
-15.3068692594
 11
-54.8577938174
 21
-15.2238816103
  0
LINE
  5
3C6
100
AcDbEntity
  8
ASSI
100
AcDbLine
 62
253
  6
CONTINUOUS
 10
-59.6121530485
 20
-15.0569073356
 11
-54.9835832683
 21
-14.9761153496
  0
LINE
  5
3C7
100
AcDbEntity
  8
ASSI
100
AcDbLine
 62
253
  6
CONTINUOUS
 10
-59.8086625672
 20
-15.5611949436
 11
-59.6121530485
 21
-15.5611949436
  0
LINE
  5
3C8
100
AcDbEntity
  8
ASSI
100
AcDbLine
 62
253
  6
CONTINUOUS
 10
-63.1121530485
 20
-15.5350123462
 11
-62.9156435298
 21
-15.5350123462
  0
LINE
  5
3C9
100
AcDbEntity
  8
ASSI
100
AcDbLine
 62
253
  6
CONTINUOUS
 10
-63.1121530485
 20
-15.1686618916
 11
-62.9156435298
 21
-15.1686618916
  0
LINE
  5
3CA
100
AcDbEntity
  8
ASSI
100
AcDbLine
 62
253
  6
CONTINUOUS
 10
-59.8086625672
 20
-15.1686618916
 11
-59.6121530485
 21
-15.1686618915
  0
LINE
  5
3CB
100
AcDbEntity
  8
ASSI
100
AcDbLine
 62
7
  6
CONTINUOUS
 10
-60.6121530485
 20
-15.8243243243
 11
-62.8665161501
 21
-15.78497427
  0
LINE
  5
3CC
100
AcDbEntity
  8
ASSI
100
AcDbLine
 62
253
  6
CONTINUOUS
 10
-60.6121530485
 20
-15.6243547853
 11
-62.8665161501
 21
-15.585004731
  0
LINE
  5
3CD
100
AcDbEntity
  8
ASSI
100
AcDbLine
 62
7
  6
CONTINUOUS
 10
-68.1317684415
 20
-13.3302379805
 11
-61.9399033332
 21
-13.6547398805
  0
LINE
  5
3CE
100
AcDbEntity
  8
ASSI
100
AcDbLine
 62
7
  6
CONTINUOUS
 10
-60.8212036689
 20
-13.7133684456
 11
-60.6121618437
 21
-13.7243238634
  0
LINE
  5
3CF
100
AcDbEntity
  8
RACCORDO
100
AcDbLine
 62
7
  6
CONTINUOUS
 10
-69.6129227511
 20
4.8887100866
 11
-69.6119358655
 21
4.8616368919
  0
LINE
  5
3D0
100
AcDbEntity
  8
RACCORDO
100
AcDbLine
 62
7
  6
CONTINUOUS
 10
-69.7152355785
 20
3.2741274296
 11
-69.7147814357
 21
3.2585554469
  0
LINE
  5
3D1
100
AcDbEntity
  8
RACCORDO
100
AcDbLine
 62
7
  6
CONTINUOUS
 10
-69.7257792767
 20
2.0682443091
 11
-69.7254661205
 21
2.0569015243
  0
LINE
  5
3D2
100
AcDbEntity
  8
RACCORDO
100
AcDbLine
 62
7
  6
CONTINUOUS
 10
-69.7435878013
 20
3.2695631748
 11
-69.7433043917
 21
3.2582281364
  0
LINE
  5
3D3
100
AcDbEntity
  8
RACCORDO
100
AcDbLine
 62
7
  6
CONTINUOUS
 10
-69.7332054303
 20
4.8761552246
 11
-69.7328098689
 21
4.8603509902
  0
LWPOLYLINE
  5
3D4
100
AcDbEntity
  8
ASSI
100
AcDbPolyline
 62
7
  6
CONTINUOUS
 90
6
 70
0
 10
-69.7573996709
 20
2.0565146079
 10
-69.751070094
 20
1.6845400254
 10
-69.6747385108
 20
-1.8086939338
 10
-69.5678951298
 20
-5.3011278335
 10
-69.4305511457
 20
-8.7924953117
 10
-69.2673271087
 20
-12.1944933617
  0
LINE
  5
3D5
100
AcDbEntity
  8
RACCORDO
100
AcDbLine
 62
7
  6
CONTINUOUS
 10
-69.7309827325
 20
2.3954806666
 11
-69.7257785254
 21
2.0681980983
  0
LINE
  5
3D6
100
AcDbEntity
  8
RACCORDO
100
AcDbLine
 62
7
  6
CONTINUOUS
 10
-69.7371658295
 20
2.8080128501
 11
-69.7309827325
 21
2.3954806666
  0
LINE
  5
3D7
100
AcDbEntity
  8
RACCORDO
100
AcDbLine
 62
7
  6
CONTINUOUS
 10
-69.7435863313
 20
3.2696092806
 11
-69.7371658295
 21
2.8080128501
  0
LINE
  5
3D8
100
AcDbEntity
  8
RACCORDO
100
AcDbLine
 62
7
  6
CONTINUOUS
 10
-69.7204522143
 20
3.6861248579
 11
-69.7152327543
 21
3.2741850884
  0
LINE
  5
3D9
100
AcDbEntity
  8
RACCORDO
100
AcDbLine
 62
7
  6
CONTINUOUS
 10
-69.7262480569
 20
4.1876528913
 11
-69.7204522143
 21
3.6861248579
  0
LWPOLYLINE
  5
3DA
100
AcDbEntity
  8
RACCORDO
100
AcDbPolyline
 62
7
  6
CONTINUOUS
 90
3
 70
0
 10
-69.7332049
 20
4.876097631
 10
-69.7314305063
 20
4.689192215
 10
-69.7262480569
 20
4.1876528913
  0
LWPOLYLINE
  5
3DB
100
AcDbEntity
  8
RACCORDO
100
AcDbPolyline
 62
7
  6
CONTINUOUS
 90
10
 70
0
 10
-69.5983352412
 20
13.8642329737
 10
-69.6083473883
 20
12.9514258353
 10
-69.617253402
 20
11.9309965301
 10
-69.6237458815
 20
10.9105449248
 10
-69.6278248377
 20
9.8900766602
 10
-69.6294902578
 20
8.8695974413
 10
-69.6287421204
 20
7.8491130254
 10
-69.6255803978
 20
6.8286291274
 10
-69.6200050388
 20
5.8081514275
 10
-69.612915211
 20
4.8887858963
  0
LINE
  5
3DC
100
AcDbEntity
  8
RACCORDO
100
AcDbLine
 62
7
  6
CONTINUOUS
 10
-69.5983361608
 20
13.8641560187
 11
-69.5972791354
 21
13.8912093356
  0
LWPOLYLINE
  5
3DD
100
AcDbEntity
  8
ASSI
100
AcDbPolyline
 62
7
  6
CONTINUOUS
 90
6
 70
0
 10
-69.2673271087
 20
29.5458447129
 10
-69.4308422145
 20
26.1371867407
 10
-69.5681280257
 20
22.6458167477
 10
-69.6749132073
 20
19.1533808916
 10
-69.7511865658
 20
15.6601455345
 10
-69.7781403006
 20
13.8932653604
  0
LWPOLYLINE
  5
3DE
100
AcDbEntity
  8
0
100
AcDbPolyline
 62
7
  6
CONTINUOUS
 90
3
 70
0
 43
0.3500000006
 10
-40.9192955475
 20
46.9619871826
 10
-40.0621530762
 20
47.8191341858
 10
-40.0621530762
 20
44.8191332703
  0
LINE
  5
3DF
100
AcDbEntity
  8
ASSI
100
AcDbLine
 62
7
  6
CONTINUOUS
 10
-50.0947006421
 20
-13.5407415097
 11
-60.6121534709
 21
-13.7243243317
  0
LINE
  5
3E0
100
AcDbEntity
  8
ASSI
100
AcDbLine
 62
253
  6
CONTINUOUS
 10
-60.6121530485
 20
-13.2244004767
 11
-59.6121530485
 21
-13.2069454118
  0
LINE
  5
3E1
100
AcDbEntity
  8
DRAFT
100
AcDbLine
 62
7
  6
CONTINUOUS
 10
-59.1121530485
 20
-12.1743243243
 11
-49.1121530485
 21
-11.999773675
  0
LINE
  5
3E2
100
AcDbEntity
  8
SUPERFICI
100
AcDbLine
 62
7
  6
CONTINUOUS
 10
-59.1121530485
 20
-12.1743243243
 11
-49.1121530485
 21
-11.999773675
  0
LINE
  5
3E3
100
AcDbEntity
  8
ASSI
100
AcDbLine
 62
7
  6
CONTINUOUS
 10
-49.1418974123
 20
-12.7829764458
 11
-59.6121530485
 21
-12.7294377345
  0
LINE
  5
3E4
100
AcDbEntity
  8
ASSI
100
AcDbLine
 62
7
  6
CONTINUOUS
 10
-49.1121530485
 20
-12.3115930022
 11
-59.6121530485
 21
-12.2199608904
  0
LINE
  5
3E5
100
AcDbEntity
  8
ASSI
100
AcDbLine
 62
253
  6
CONTINUOUS
 10
-67.7661499501
 20
-12.8493989986
 11
-60.6121530485
 21
-13.2243240892
  0
LINE
  5
3E6
100
AcDbEntity
  8
ASSI
100
AcDbLine
 62
253
  6
CONTINUOUS
 10
-68.4316416921
 20
-12.1801496812
 11
-68.9169568481
 21
-12.2015912925
  0
LINE
  5
3E7
100
AcDbEntity
  8
RACCORDO
100
AcDbLine
 62
7
  6
CONTINUOUS
 10
-27.4947006421
 20
-10.446990289
 11
-49.1121530485
 21
-10.8243243243
  0
LINE
  5
3E8
100
AcDbEntity
  8
SUPERFICI
100
AcDbLine
 62
7
  6
CONTINUOUS
 10
-27.4947006421
 20
-10.446990289
 11
-49.1121530485
 21
-10.8243243243
  0
LINE
  5
3E9
100
AcDbEntity
  8
ASSI
100
AcDbLine
 62
7
  6
CONTINUOUS
 10
-59.6121530485
 20
-10.5743243243
 11
-59.1121530485
 21
-10.5655967919
  0
LINE
  5
3EA
100
AcDbEntity
  8
RACCORDO
100
AcDbLine
 62
253
  6
CONTINUOUS
 10
-27.4947006421
 20
-9.4471425938
 11
-49.1121530485
 21
-9.8244766292
  0
LINE
  5
3EB
100
AcDbEntity
  8
SUPERFICI
100
AcDbLine
 62
253
  6
CONTINUOUS
 10
-27.4947006421
 20
-9.4471425938
 11
-49.1121530485
 21
-9.8244766292
  0
LINE
  5
3EC
100
AcDbEntity
  8
RACCORDO
100
AcDbLine
 62
253
  6
CONTINUOUS
 10
-59.1121530485
 20
-10.4100215438
 11
-49.1121530485
 21
-10.3377202976
  0
LINE
  5
3ED
100
AcDbEntity
  8
SUPERFICI
100
AcDbLine
 62
253
  6
CONTINUOUS
 10
-59.1121530485
 20
-10.4100215438
 11
-49.1121530485
 21
-10.3377202976
  0
LINE
  5
3EE
100
AcDbEntity
  8
ASSI
100
AcDbLine
 62
7
  6
CONTINUOUS
 10
-59.1121530485
 20
-9.8881643269
 11
-59.6121530485
 21
-9.8917793893
  0
LINE
  5
3EF
100
AcDbEntity
  8
0
100
AcDbLine
 62
7
  6
CONTINUOUS
 10
-57.4906523501
 20
24.3616839455
 11
-57.482110646
 21
24.3702256497
  0
LINE
  5
3F0
100
AcDbEntity
  8
0
100
AcDbLine
 62
7
  6
CONTINUOUS
 10
-57.4906523501
 20
24.2776796599
 11
-57.440114211
 21
24.328217799
  0
LINE
  5
3F1
100
AcDbEntity
  8
0
100
AcDbLine
 62
7
  6
CONTINUOUS
 10
-57.4906523501
 20
24.1936753743
 11
-57.398117776
 21
24.2862099484
  0
LINE
  5
3F2
100
AcDbEntity
  8
0
100
AcDbLine
 62
7
  6
CONTINUOUS
 10
-57.4906523501
 20
24.1096710887
 11
-57.356121341
 21
24.2442020978
  0
LINE
  5
3F3
100
AcDbEntity
  8
0
100
AcDbLine
 62
7
  6
CONTINUOUS
 10
-57.4566661155
 20
24.0596530377
 11
-57.3141249061
 21
24.2021942471
  0
LINE
  5
3F4
100
AcDbEntity
  8
0
100
AcDbLine
 62
7
  6
CONTINUOUS
 10
-57.4146704004
 20
24.0176444673
 11
-57.2721284711
 21
24.1601863965
  0
LINE
  5
3F5
100
AcDbEntity
  8
0
100
AcDbLine
 62
7
  6
CONTINUOUS
 10
-57.3726746852
 20
23.9756358968
 11
-57.2301320361
 21
24.1181785459
  0
LINE
  5
3F6
100
AcDbEntity
  8
0
100
AcDbLine
 62
7
  6
CONTINUOUS
 10
-57.33067897
 20
23.9336273264
 11
-57.1881356012
 21
24.0761706952
  0
LINE
  5
3F7
100
AcDbEntity
  8
0
100
AcDbLine
 62
7
  6
CONTINUOUS
 10
-57.2886832548
 20
23.891618756
 11
-57.1461391662
 21
24.0341628446
  0
LINE
  5
3F8
100
AcDbEntity
  8
0
100
AcDbLine
 62
7
  6
CONTINUOUS
 10
-57.2466875396
 20
23.8496101856
 11
-57.1041427312
 21
23.992154994
  0
LINE
  5
3F9
100
AcDbEntity
  8
0
100
AcDbLine
 62
7
  6
CONTINUOUS
 10
-56.508590564
 20
24.5877071612
 11
-56.4252880495
 21
24.6710096757
  0
LINE
  5
3FA
100
AcDbEntity
  8
0
100
AcDbLine
 62
7
  6
CONTINUOUS
 10
-57.2046918244
 20
23.8076016152
 11
-57.0621462963
 21
23.9501471433
  0
LINE
  5
3FB
100
AcDbEntity
  8
0
100
AcDbLine
 62
7
  6
CONTINUOUS
 10
-56.508590564
 20
24.5037028756
 11
-56.3412837639
 21
24.6710096757
  0
LINE
  5
3FC
100
AcDbEntity
  8
0
100
AcDbLine
 62
7
  6
CONTINUOUS
 10
-57.1626961092
 20
23.7655930448
 11
-57.0201498613
 21
23.9081392927
  0
LINE
  5
3FD
100
AcDbEntity
  8
0
100
AcDbLine
 62
7
  6
CONTINUOUS
 10
-56.508590564
 20
24.41969859
 11
-56.3070149799
 21
24.6212741741
  0
LINE
  5
3FE
100
AcDbEntity
  8
0
100
AcDbLine
 62
7
  6
CONTINUOUS
 10
-57.120700394
 20
23.7235844744
 11
-56.9781534263
 21
23.8661314421
  0
LINE
  5
3FF
100
AcDbEntity
  8
0
100
AcDbLine
 62
7
  6
CONTINUOUS
 10
-56.508590564
 20
24.3356943044
 11
-56.3070149799
 21
24.5372698885
  0
LINE
  5
400
100
AcDbEntity
  8
0
100
AcDbLine
 62
7
  6
CONTINUOUS
 10
-57.0787046788
 20
23.681575904
 11
-56.9361569913
 21
23.8241235914
  0
LINE
  5
401
100
AcDbEntity
  8
0
100
AcDbLine
 62
7
  6
CONTINUOUS
 10
-56.508590564
 20
24.2516900188
 11
-56.3070149799
 21
24.4532656029
  0
LINE
  5
402
100
AcDbEntity
  8
0
100
AcDbLine
 62
7
  6
CONTINUOUS
 10
-57.0367089636
 20
23.6395673336
 11
-56.8941605564
 21
23.7821157408
  0
LINE
  5
403
100
AcDbEntity
  8
0
100
AcDbLine
 62
7
  6
CONTINUOUS
 10
-56.508590564
 20
24.1676857332
 11
-56.3070149799
 21
24.3692613173
  0
LINE
  5
404
100
AcDbEntity
  8
0
100
AcDbLine
 62
7
  6
CONTINUOUS
 10
-56.9947132484
 20
23.5975587632
 11
-56.8521641214
 21
23.7401078902
  0
LINE
  5
405
100
AcDbEntity
  8
0
100
AcDbLine
 62
7
  6
CONTINUOUS
 10
-56.508590564
 20
24.0836814476
 11
-56.3070149799
 21
24.2852570317
  0
LINE
  5
406
100
AcDbEntity
  8
0
100
AcDbLine
 62
7
  6
CONTINUOUS
 10
-56.9527175332
 20
23.5555501928
 11
-56.8101676864
 21
23.6981000395
  0
LINE
  5
407
100
AcDbEntity
  8
0
100
AcDbLine
 62
7
  6
CONTINUOUS
 10
-56.508590564
 20
23.999677162
 11
-56.3070149799
 21
24.2012527461
  0
LINE
  5
408
100
AcDbEntity
  8
0
100
AcDbLine
 62
7
  6
CONTINUOUS
 10
-56.910721818
 20
23.5135416223
 11
-56.7905996417
 21
23.6336637987
  0
LINE
  5
409
100
AcDbEntity
  8
0
100
AcDbLine
 62
7
  6
CONTINUOUS
 10
-56.508590564
 20
23.9156728764
 11
-56.3070149799
 21
24.1172484604
  0
LINE
  5
40A
100
AcDbEntity
  8
0
100
AcDbLine
 62
7
  6
CONTINUOUS
 10
-56.8687261028
 20
23.4715330519
 11
-56.7905996417
 21
23.5496595131
  0
LINE
  5
40B
100
AcDbEntity
  8
0
100
AcDbLine
 62
7
  6
CONTINUOUS
 10
-56.508590564
 20
23.8316685908
 11
-56.3070149799
 21
24.0332441748
  0
LINE
  5
40C
100
AcDbEntity
  8
0
100
AcDbLine
 62
7
  6
CONTINUOUS
 10
-56.8267303876
 20
23.4295244815
 11
-56.7905996417
 21
23.4656552275
  0
LINE
  5
40D
100
AcDbEntity
  8
0
100
AcDbLine
 62
7
  6
CONTINUOUS
 10
-56.508590564
 20
23.7476643051
 11
-56.3070149799
 21
23.9492398892
  0
LINE
  5
40E
100
AcDbEntity
  8
0
100
AcDbLine
 62
7
  6
CONTINUOUS
 10
-56.508590564
 20
23.6636600195
 11
-56.3070149799
 21
23.8652356036
  0
LINE
  5
40F
100
AcDbEntity
  8
0
100
AcDbLine
 62
7
  6
CONTINUOUS
 10
-56.508590564
 20
23.5796557339
 11
-56.3070149799
 21
23.781231318
  0
LINE
  5
410
100
AcDbEntity
  8
0
100
AcDbLine
 62
7
  6
CONTINUOUS
 10
-56.508590564
 20
23.4956514483
 11
-56.3070149799
 21
23.6972270324
  0
LINE
  5
411
100
AcDbEntity
  8
0
100
AcDbLine
 62
7
  6
CONTINUOUS
 10
-56.508590564
 20
23.4116471627
 11
-56.3070149799
 21
23.6132227468
  0
LINE
  5
412
100
AcDbEntity
  8
0
100
AcDbLine
 62
7
  6
CONTINUOUS
 10
-56.508590564
 20
23.3276428771
 11
-56.3070149799
 21
23.5292184612
  0
LINE
  5
413
100
AcDbEntity
  8
0
100
AcDbLine
 62
7
  6
CONTINUOUS
 10
-56.508590564
 20
23.2436385915
 11
-56.3070149799
 21
23.4452141756
  0
LINE
  5
414
100
AcDbEntity
  8
0
100
AcDbLine
 62
7
  6
CONTINUOUS
 10
-56.508590564
 20
23.1596343059
 11
-56.3070149799
 21
23.36120989
  0
LINE
  5
415
100
AcDbEntity
  8
0
100
AcDbLine
 62
7
  6
CONTINUOUS
 10
-55.1266896006
 20
24.5415352693
 11
-55.0522481942
 21
24.6159766757
  0
LINE
  5
416
100
AcDbEntity
  8
0
100
AcDbLine
 62
7
  6
CONTINUOUS
 10
-56.508590564
 20
23.0756300203
 11
-56.3070149799
 21
23.2772056044
  0
LINE
  5
417
100
AcDbEntity
  8
0
100
AcDbLine
 62
7
  6
CONTINUOUS
 10
-55.1266896006
 20
24.4575309837
 11
-54.9682439086
 21
24.6159766757
  0
LINE
  5
418
100
AcDbEntity
  8
0
100
AcDbLine
 62
7
  6
CONTINUOUS
 10
-56.508590564
 20
22.9916257347
 11
-56.3070149799
 21
23.1932013188
  0
LINE
  5
419
100
AcDbEntity
  8
0
100
AcDbLine
 62
7
  6
CONTINUOUS
 10
-55.1266896006
 20
24.3735266981
 11
-54.9262486708
 21
24.5739676279
  0
LINE
  5
41A
100
AcDbEntity
  8
RACCORDO
100
AcDbLine
 62
253
  6
CONTINUOUS
 10
-59.1121530485
 20
-8.996023373
 11
-49.1121530485
 21
-8.9237221268
  0
LINE
  5
41B
100
AcDbEntity
  8
SUPERFICI
100
AcDbLine
 62
253
  6
CONTINUOUS
 10
-59.1121530485
 20
-8.996023373
 11
-49.1121530485
 21
-8.9237221268
  0
LINE
  5
41C
100
AcDbEntity
  8
RACCORDO
100
AcDbLine
 62
253
  6
CONTINUOUS
 10
-26.5121530485
 20
-9.4471425938
 11
-27.4947006421
 21
-9.4471425938
  0
LINE
  5
41D
100
AcDbEntity
  8
SUPERFICI
100
AcDbLine
 62
253
  6
CONTINUOUS
 10
-26.5121530485
 20
-9.4471425938
 11
-27.4947006421
 21
-9.4471425938
  0
LINE
  5
41E
100
AcDbEntity
  8
0
100
AcDbLine
 62
253
  6
CONTINUOUS
 10
-56.5114077057
 20
-5.4620383243
 11
-54.5151189335
 21
-6.1031633243
  0
LINE
  5
41F
100
AcDbEntity
  8
ASSI
100
AcDbLine
 62
7
  6
CONTINUOUS
 10
-63.1121530485
 20
-15.5350123462
 11
-63.1121530485
 21
-13.5933048761
  0
LINE
  5
420
100
AcDbEntity
  8
ASSI
100
AcDbLine
 62
7
  6
CONTINUOUS
 10
-63.1121530485
 20
30.9446562275
 11
-63.1121530485
 21
32.8863636976
  0
LINE
  5
421
100
AcDbEntity
  8
ASSI
100
AcDbLine
 62
253
  6
CONTINUOUS
 10
-62.9156435298
 20
32.8863636976
 11
-62.9156435298
 21
32.520013243
  0
LINE
  5
422
100
AcDbEntity
  8
ASSI
100
AcDbLine
 62
253
  6
CONTINUOUS
 10
-62.9156435298
 20
-15.5350123462
 11
-62.9156435298
 21
-15.1686618916
  0
LINE
  5
423
100
AcDbEntity
  8
ASSI
100
AcDbLine
 62
253
  6
CONTINUOUS
 10
-62.8665161501
 20
-14.8825057949
 11
-62.8665161501
 21
-13.6061781605
  0
LINE
  5
424
100
AcDbEntity
  8
ASSI
100
AcDbLine
 62
253
  6
CONTINUOUS
 10
-62.8665161501
 20
30.9575295118
 11
-62.8665161501
 21
32.2338571463
  0
LINE
  5
425
100
AcDbEntity
  8
ASSI
100
AcDbLine
 62
7
  6
CONTINUOUS
 10
-62.1121530485
 20
31.7983254065
 11
-62.1121530485
 21
30.9970640067
  0
LINE
  5
426
100
AcDbEntity
  8
ASSI
100
AcDbLine
 62
7
  6
CONTINUOUS
 10
-62.1121530485
 20
-13.6457126554
 11
-62.1121530485
 21
-14.4469740551
  0
LINE
  5
427
100
AcDbEntity
  8
ASSI
100
AcDbLine
 62
253
  6
CONTINUOUS
 10
-61.8665161501
 20
31.8854317544
 11
-61.8665161501
 21
31.0098282529
  0
LINE
  5
428
100
AcDbEntity
  8
ASSI
100
AcDbLine
 62
253
  6
CONTINUOUS
 10
-61.8665161501
 20
-13.6584769015
 11
-61.8665161501
 21
-14.5340804031
  0
LWPOLYLINE
  5
429
100
AcDbEntity
  8
0
100
AcDbPolyline
 62
7
  6
CONTINUOUS
 90
3
 70
0
 43
0.3500000006
 10
-47.1094315796
 20
55.1048474579
 10
-47.1808627625
 20
54.890562973
 10
-47.3237160645
 20
54.6048473053
  0
LINE
  5
42A
100
AcDbEntity
  8
0
100
AcDbLine
 62
7
  6
CONTINUOUS
 10
-56.508590564
 20
22.9076214491
 11
-56.3070149799
 21
23.1091970332
  0
LINE
  5
42B
100
AcDbEntity
  8
0
100
AcDbLine
 62
7
  6
CONTINUOUS
 10
-55.1266896006
 20
24.2895224125
 11
-54.9262486708
 21
24.4899633423
  0
LINE
  5
42C
100
AcDbEntity
  8
0
100
AcDbLine
 62
7
  6
CONTINUOUS
 10
-56.508590564
 20
22.8236171635
 11
-56.3070149799
 21
23.0251927476
  0
LINE
  5
42D
100
AcDbEntity
  8
0
100
AcDbLine
 62
7
  6
CONTINUOUS
 10
-55.1266896006
 20
24.2055181269
 11
-54.9262486708
 21
24.4059590567
  0
LINE
  5
42E
100
AcDbEntity
  8
0
100
AcDbLine
 62
7
  6
CONTINUOUS
 10
-56.4730467662
 20
22.7751566757
 11
-56.2714097662
 21
22.9767936757
  0
LINE
  5
42F
100
AcDbEntity
  8
0
100
AcDbLine
 62
7
  6
CONTINUOUS
 10
-55.1266896006
 20
24.1215138413
 11
-54.9262486708
 21
24.3219547711
  0
LINE
  5
430
100
AcDbEntity
  8
0
100
AcDbLine
 62
7
  6
CONTINUOUS
 10
-56.3890424806
 20
22.7751566757
 11
-56.1874054806
 21
22.9767936757
  0
LINE
  5
431
100
AcDbEntity
  8
0
100
AcDbLine
 62
7
  6
CONTINUOUS
 10
-55.1266896006
 20
24.0375095557
 11
-54.9262486708
 21
24.2379504855
  0
LINE
  5
432
100
AcDbEntity
  8
0
100
AcDbLine
 62
7
  6
CONTINUOUS
 10
-56.305038195
 20
22.7751566757
 11
-56.103401195
 21
22.9767936757
  0
LINE
  5
433
100
AcDbEntity
  8
0
100
AcDbLine
 62
7
  6
CONTINUOUS
 10
-55.1266896006
 20
23.9535052701
 11
-54.9262486708
 21
24.1539461999
  0
LINE
  5
434
100
AcDbEntity
  8
0
100
AcDbLine
 62
7
  6
CONTINUOUS
 10
-56.2210339094
 20
22.7751566757
 11
-56.0193969094
 21
22.9767936757
  0
LINE
  5
435
100
AcDbEntity
  8
0
100
AcDbLine
 62
7
  6
CONTINUOUS
 10
-55.1266896006
 20
23.8695009845
 11
-54.9262486708
 21
24.0699419143
  0
LINE
  5
436
100
AcDbEntity
  8
0
100
AcDbLine
 62
7
  6
CONTINUOUS
 10
-56.1370296238
 20
22.7751566757
 11
-55.9353926238
 21
22.9767936757
  0
LINE
  5
437
100
AcDbEntity
  8
0
100
AcDbLine
 62
7
  6
CONTINUOUS
 10
-55.1266896006
 20
23.7854966989
 11
-54.9262486708
 21
23.9859376287
  0
LINE
  5
438
100
AcDbEntity
  8
0
100
AcDbLine
 62
7
  6
CONTINUOUS
 10
-56.5123264258
 20
22.3158555881
 11
-56.493503452
 21
22.3346785619
  0
LINE
  5
439
100
AcDbEntity
  8
0
100
AcDbLine
 62
7
  6
CONTINUOUS
 10
-56.0530253382
 20
22.7751566757
 11
-55.8513883382
 21
22.9767936757
  0
LINE
  5
43A
100
AcDbEntity
  8
0
100
AcDbLine
 62
7
  6
CONTINUOUS
 10
-55.1266896006
 20
23.7014924133
 11
-54.9262486708
 21
23.9019333431
  0
LINE
  5
43B
100
AcDbEntity
  8
0
100
AcDbLine
 62
7
  6
CONTINUOUS
 10
-56.5123264258
 20
22.2318513025
 11
-56.4515070433
 21
22.292670685
  0
LINE
  5
43C
100
AcDbEntity
  8
0
100
AcDbLine
 62
7
  6
CONTINUOUS
 10
-55.9690210526
 20
22.7751566757
 11
-55.7673840526
 21
22.9767936757
  0
LINE
  5
43D
100
AcDbEntity
  8
0
100
AcDbLine
 62
7
  6
CONTINUOUS
 10
-55.1266896006
 20
23.6174881276
 11
-54.9262486708
 21
23.8179290574
  0
LINE
  5
43E
100
AcDbEntity
  8
0
100
AcDbLine
 62
7
  6
CONTINUOUS
 10
-56.5123264258
 20
22.1478470169
 11
-56.4095106345
 21
22.2506628081
  0
LINE
  5
43F
100
AcDbEntity
  8
0
100
AcDbLine
 62
7
  6
CONTINUOUS
 10
-55.885016767
 20
22.7751566757
 11
-55.683379767
 21
22.9767936757
  0
LINE
  5
440
100
AcDbEntity
  8
0
100
AcDbLine
 62
7
  6
CONTINUOUS
 10
-55.044483767
 20
23.6156896757
 11
-54.9262486708
 21
23.7339247718
  0
LINE
  5
441
100
AcDbEntity
  8
0
100
AcDbLine
 62
7
  6
CONTINUOUS
 10
-56.5100552995
 20
22.0661138575
 11
-56.3675142258
 21
22.2086549312
  0
LINE
  5
442
100
AcDbEntity
  8
0
100
AcDbLine
 62
7
  6
CONTINUOUS
 10
-55.8010124814
 20
22.7751566757
 11
-55.5993754814
 21
22.9767936757
  0
LINE
  5
443
100
AcDbEntity
  8
0
100
AcDbLine
 62
7
  6
CONTINUOUS
 10
-54.9604794814
 20
23.6156896757
 11
-54.9262486708
 21
23.6499204862
  0
LINE
  5
444
100
AcDbEntity
  8
0
100
AcDbLine
 62
7
  6
CONTINUOUS
 10
-56.4680595544
 20
22.0241053171
 11
-56.3255178171
 21
22.1666470543
  0
LINE
  5
445
100
AcDbEntity
  8
0
100
AcDbLine
 62
7
  6
CONTINUOUS
 10
-55.7170081958
 20
22.7751566757
 11
-55.5153711958
 21
22.9767936757
  0
LINE
  5
446
100
AcDbEntity
  8
0
100
AcDbLine
 62
7
  6
CONTINUOUS
 10
-53.8137286326
 20
24.6784362388
 11
-53.7964891958
 21
24.6956756757
  0
LINE
  5
447
100
AcDbEntity
  8
0
100
AcDbLine
 62
7
  6
CONTINUOUS
 10
-56.4260638092
 20
21.9820967767
 11
-56.2835214084
 21
22.1246391775
  0
LINE
  5
448
100
AcDbEntity
  8
0
100
AcDbLine
 62
7
  6
CONTINUOUS
 10
-55.6330039102
 20
22.7751566757
 11
-55.4313669102
 21
22.9767936757
  0
LINE
  5
449
100
AcDbEntity
  8
0
100
AcDbLine
 62
7
  6
CONTINUOUS
 10
-53.8137286326
 20
24.5944319532
 11
-53.7124849102
 21
24.6956756757
  0
LINE
  5
44A
100
AcDbEntity
  8
0
100
AcDbLine
 62
7
  6
CONTINUOUS
 10
-56.384068064
 20
21.9400882362
 11
-56.2415249996
 21
22.0826313006
  0
LINE
  5
44B
100
AcDbEntity
  8
0
100
AcDbLine
 62
7
  6
CONTINUOUS
 10
-55.5489996246
 20
22.7751566757
 11
-55.3473626246
 21
22.9767936757
  0
LINE
  5
44C
100
AcDbEntity
  8
0
100
AcDbLine
 62
7
  6
CONTINUOUS
 10
-53.8137286326
 20
24.5104276676
 11
-53.6284806246
 21
24.6956756757
  0
LINE
  5
44D
100
AcDbEntity
  8
0
100
AcDbLine
 62
7
  6
CONTINUOUS
 10
-56.3420723188
 20
21.8980796958
 11
-56.1995285909
 21
22.0406234237
  0
LINE
  5
44E
100
AcDbEntity
  8
0
100
AcDbLine
 62
7
  6
CONTINUOUS
 10
-55.4649953389
 20
22.7751566757
 11
-55.2633583389
 21
22.9767936757
  0
LINE
  5
44F
100
AcDbEntity
  8
0
100
AcDbLine
 62
7
  6
CONTINUOUS
 10
-53.8137286326
 20
24.426423382
 11
-53.6121530485
 21
24.6279989661
  0
LINE
  5
450
100
AcDbEntity
  8
0
100
AcDbLine
 62
7
  6
CONTINUOUS
 10
-56.3000765736
 20
21.8560711554
 11
-56.1575321822
 21
21.9986155468
  0
LINE
  5
451
100
AcDbEntity
  8
0
100
AcDbLine
 62
7
  6
CONTINUOUS
 10
-55.3809910533
 20
22.7751566757
 11
-55.1793540533
 21
22.9767936757
  0
LINE
  5
452
100
AcDbEntity
  8
0
100
AcDbLine
 62
7
  6
CONTINUOUS
 10
-53.8137286326
 20
24.3424190964
 11
-53.6121530485
 21
24.5439946805
  0
LINE
  5
453
100
AcDbEntity
  8
0
100
AcDbLine
 62
7
  6
CONTINUOUS
 10
-56.2580808284
 20
21.814062615
 11
-56.1155357735
 21
21.95660767
  0
LINE
  5
454
100
AcDbEntity
  8
0
100
AcDbLine
 62
7
  6
CONTINUOUS
 10
-55.2969867677
 20
22.7751566757
 11
-55.0953497677
 21
22.9767936757
  0
LINE
  5
455
100
AcDbEntity
  8
0
100
AcDbLine
 62
7
  6
CONTINUOUS
 10
-53.8137286326
 20
24.2584148108
 11
-53.6121530485
 21
24.4599903949
  0
LINE
  5
456
100
AcDbEntity
  8
0
100
AcDbLine
 62
7
  6
CONTINUOUS
 10
-56.2160850832
 20
21.7720540746
 11
-56.0735393647
 21
21.9145997931
  0
LINE
  5
457
100
AcDbEntity
  8
0
100
AcDbLine
 62
7
  6
CONTINUOUS
 10
-55.2129824821
 20
22.7751566757
 11
-55.0113454821
 21
22.9767936757
  0
LINE
  5
458
100
AcDbEntity
  8
0
100
AcDbLine
 62
7
  6
CONTINUOUS
 10
-53.8137286326
 20
24.1744105252
 11
-53.6121530485
 21
24.3759861093
  0
LINE
  5
459
100
AcDbEntity
  8
0
100
AcDbLine
 62
7
  6
CONTINUOUS
 10
-56.1740893381
 20
21.7300455341
 11
-56.031542956
 21
21.8725919162
  0
LINE
  5
45A
100
AcDbEntity
  8
0
100
AcDbLine
 62
7
  6
CONTINUOUS
 10
-55.1289781965
 20
22.7751566757
 11
-54.9273411965
 21
22.9767936757
  0
LINE
  5
45B
100
AcDbEntity
  8
0
100
AcDbLine
 62
7
  6
CONTINUOUS
 10
-53.8137286326
 20
24.0904062396
 11
-53.6121530485
 21
24.2919818237
  0
LINE
  5
45C
100
AcDbEntity
  8
0
100
AcDbLine
 62
7
  6
CONTINUOUS
 10
-56.1320935929
 20
21.6880369937
 11
-55.9895465473
 21
21.8305840393
  0
LINE
  5
45D
100
AcDbEntity
  8
0
100
AcDbLine
 62
7
  6
CONTINUOUS
 10
-55.0449739109
 20
22.7751566757
 11
-54.8433369109
 21
22.9767936757
  0
LINE
  5
45E
100
AcDbEntity
  8
0
100
AcDbLine
 62
7
  6
CONTINUOUS
 10
-53.8137286326
 20
24.006401954
 11
-53.6121530485
 21
24.2079775381
  0
LINE
  5
45F
100
AcDbEntity
  8
0
100
AcDbLine
 62
7
  6
CONTINUOUS
 10
-56.0900978477
 20
21.6460284533
 11
-55.9475501385
 21
21.7885761624
  0
LINE
  5
460
100
AcDbEntity
  8
0
100
AcDbLine
 62
7
  6
CONTINUOUS
 10
-54.9609696253
 20
22.7751566757
 11
-54.7593326253
 21
22.9767936757
  0
LINE
  5
461
100
AcDbEntity
  8
0
100
AcDbLine
 62
7
  6
CONTINUOUS
 10
-53.8137286326
 20
23.9223976684
 11
-53.6121530485
 21
24.1239732525
  0
LINE
  5
462
100
AcDbEntity
  8
0
100
AcDbLine
 62
7
  6
CONTINUOUS
 10
-56.0481021025
 20
21.6040199129
 11
-55.9055537298
 21
21.7465682856
  0
LINE
  5
463
100
AcDbEntity
  8
0
100
AcDbLine
 62
7
  6
CONTINUOUS
 10
-54.8769653397
 20
22.7751566757
 11
-54.6753283397
 21
22.9767936757
  0
LINE
  5
464
100
AcDbEntity
  8
0
100
AcDbLine
 62
7
  6
CONTINUOUS
 10
-53.8137286326
 20
23.8383933828
 11
-53.6121530485
 21
24.0399689669
  0
LINE
  5
465
100
AcDbEntity
  8
0
100
AcDbLine
 62
7
  6
CONTINUOUS
 10
-56.0061063573
 20
21.5620113725
 11
-55.8635573211
 21
21.7045604087
  0
LINE
  5
466
100
AcDbEntity
  8
0
100
AcDbLine
 62
7
  6
CONTINUOUS
 10
-54.7929610541
 20
22.7751566757
 11
-54.5913240541
 21
22.9767936757
  0
LINE
  5
467
100
AcDbEntity
  8
0
100
AcDbLine
 62
7
  6
CONTINUOUS
 10
-53.8137286326
 20
23.7543890972
 11
-53.6121530485
 21
23.9559646813
  0
LINE
  5
468
100
AcDbEntity
  8
0
100
AcDbLine
 62
7
  6
CONTINUOUS
 10
-55.9641106121
 20
21.520002832
 11
-55.8215609124
 21
21.6625525318
  0
LINE
  5
469
100
AcDbEntity
  8
0
100
AcDbLine
 62
7
  6
CONTINUOUS
 10
-54.7089567685
 20
22.7751566757
 11
-54.5073197685
 21
22.9767936757
  0
LINE
  5
46A
100
AcDbEntity
  8
0
100
AcDbLine
 62
7
  6
CONTINUOUS
 10
-53.8137286326
 20
23.6703848116
 11
-53.6121530485
 21
23.8719603957
  0
LINE
  5
46B
100
AcDbEntity
  8
0
100
AcDbLine
 62
7
  6
CONTINUOUS
 10
-55.9221148669
 20
21.4779942916
 11
-55.7795645036
 21
21.6205446549
  0
LINE
  5
46C
100
AcDbEntity
  8
0
100
AcDbLine
 62
7
  6
CONTINUOUS
 10
-54.6249524829
 20
22.7751566757
 11
-54.4233154829
 21
22.9767936757
  0
LINE
  5
46D
100
AcDbEntity
  8
0
100
AcDbLine
 62
7
  6
CONTINUOUS
 10
-53.8137286326
 20
23.586380526
 11
-53.6121530485
 21
23.78795611
  0
LINE
  5
46E
100
AcDbEntity
  8
0
100
AcDbLine
 62
7
  6
CONTINUOUS
 10
-55.8801191218
 20
21.4359857512
 11
-55.7375680949
 21
21.5785367781
  0
LINE
  5
46F
100
AcDbEntity
  8
0
100
AcDbLine
 62
7
  6
CONTINUOUS
 10
-54.5409481973
 20
22.7751566757
 11
-54.3393111973
 21
22.9767936757
  0
LINE
  5
470
100
AcDbEntity
  8
0
100
AcDbLine
 62
7
  6
CONTINUOUS
 10
-53.8137286326
 20
23.5023762403
 11
-53.6121530485
 21
23.7039518244
  0
LINE
  5
471
100
AcDbEntity
  8
0
100
AcDbLine
 62
7
  6
CONTINUOUS
 10
-55.8381233766
 20
21.3939772108
 11
-55.6955716862
 21
21.5365289012
  0
LINE
  5
472
100
AcDbEntity
  8
0
100
AcDbLine
 62
7
  6
CONTINUOUS
 10
-54.4569439117
 20
22.7751566757
 11
-54.2553069117
 21
22.9767936757
  0
LINE
  5
473
100
AcDbEntity
  8
0
100
AcDbLine
 62
7
  6
CONTINUOUS
 10
-53.8137286326
 20
23.4183719547
 11
-53.6121530485
 21
23.6199475388
  0
LINE
  5
474
100
AcDbEntity
  8
0
100
AcDbLine
 62
7
  6
CONTINUOUS
 10
-55.7961276314
 20
21.3519686704
 11
-55.6535752774
 21
21.4945210243
  0
LINE
  5
475
100
AcDbEntity
  8
0
100
AcDbLine
 62
7
  6
CONTINUOUS
 10
-54.3729396261
 20
22.7751566757
 11
-54.1713026261
 21
22.9767936757
  0
LINE
  5
476
100
AcDbEntity
  8
0
100
AcDbLine
 62
7
  6
CONTINUOUS
 10
-53.8137286326
 20
23.3343676691
 11
-53.6121530485
 21
23.5359432532
  0
LINE
  5
477
100
AcDbEntity
  8
0
100
AcDbLine
 62
7
  6
CONTINUOUS
 10
-55.7541318862
 20
21.3099601299
 11
-55.6115788687
 21
21.4525131474
  0
LINE
  5
478
100
AcDbEntity
  8
0
100
AcDbLine
 62
7
  6
CONTINUOUS
 10
-54.2889353405
 20
22.7751566757
 11
-54.0872983405
 21
22.9767936757
  0
LINE
  5
479
100
AcDbEntity
  8
0
100
AcDbLine
 62
7
  6
CONTINUOUS
 10
-53.8137286326
 20
23.2503633835
 11
-53.6121530485
 21
23.4519389676
  0
LINE
  5
47A
100
AcDbEntity
  8
0
100
AcDbLine
 62
7
  6
CONTINUOUS
 10
-56.5064642118
 20
20.4736235187
 11
-56.4720600549
 21
20.5080276757
  0
LINE
  5
47B
100
AcDbEntity
  8
0
100
AcDbLine
 62
7
  6
CONTINUOUS
 10
-55.712136141
 20
21.2679515895
 11
-55.56958246
 21
21.4105052706
  0
LINE
  5
47C
100
AcDbEntity
  8
0
100
AcDbLine
 62
7
  6
CONTINUOUS
 10
-54.2049310549
 20
22.7751566757
 11
-54.0032940549
 21
22.9767936757
  0
LINE
  5
47D
100
AcDbEntity
  8
0
100
AcDbLine
 62
7
  6
CONTINUOUS
 10
-53.8137286326
 20
23.1663590979
 11
-53.6121530485
 21
23.367934682
  0
LINE
  5
47E
100
AcDbEntity
  8
0
100
AcDbLine
 62
7
  6
CONTINUOUS
 10
-56.5064642118
 20
20.3896192331
 11
-56.3880557693
 21
20.5080276757
  0
LINE
  5
47F
100
AcDbEntity
  8
0
100
AcDbLine
 62
7
  6
CONTINUOUS
 10
-55.6701403958
 20
21.2259430491
 11
-55.5275860513
 21
21.3684973937
  0
LINE
  5
480
100
AcDbEntity
  8
0
100
AcDbLine
 62
7
  6
CONTINUOUS
 10
-54.1209267693
 20
22.7751566757
 11
-53.9192897693
 21
22.9767936757
  0
LINE
  5
481
100
AcDbEntity
  8
0
100
AcDbLine
 62
7
  6
CONTINUOUS
 10
-53.8137286326
 20
23.0823548123
 11
-53.6121530485
 21
23.2839303964
  0
LINE
  5
482
100
AcDbEntity
  8
0
100
AcDbLine
 62
7
  6
CONTINUOUS
 10
-56.5056884837
 20
20.3063906757
 11
-56.3040514837
 21
20.5080276757
  0
LINE
  5
483
100
AcDbEntity
  8
0
100
AcDbLine
 62
7
  6
CONTINUOUS
 10
-55.6281446506
 20
21.1839345087
 11
-55.4855896425
 21
21.3264895168
  0
LINE
  5
484
100
AcDbEntity
  8
0
100
AcDbLine
 62
7
  6
CONTINUOUS
 10
-54.0369224837
 20
22.7751566757
 11
-53.8352854837
 21
22.9767936757
  0
LINE
  5
485
100
AcDbEntity
  8
0
100
AcDbLine
 62
7
  6
CONTINUOUS
 10
-53.8137286326
 20
22.9983505267
 11
-53.6121530485
 21
23.1999261108
  0
LINE
  5
486
100
AcDbEntity
  8
0
100
AcDbLine
 62
7
  6
CONTINUOUS
 10
-56.4216841981
 20
20.3063906757
 11
-56.2200471981
 21
20.5080276757
  0
LINE
  5
487
100
AcDbEntity
  8
0
100
AcDbLine
 62
7
  6
CONTINUOUS
 10
-55.5861489055
 20
21.1419259683
 11
-55.4435932338
 21
21.2844816399
  0
LINE
  5
488
100
AcDbEntity
  8
0
100
AcDbLine
 62
7
  6
CONTINUOUS
 10
-53.9529181981
 20
22.7751566757
 11
-53.6121530485
 21
23.1159218252
  0
LINE
  5
489
100
AcDbEntity
  8
0
100
AcDbLine
 62
7
  6
CONTINUOUS
 10
-56.3376799125
 20
20.3063906757
 11
-56.1360429125
 21
20.5080276757
  0
LINE
  5
48A
100
AcDbEntity
  8
0
100
AcDbLine
 62
7
  6
CONTINUOUS
 10
-55.5441531603
 20
21.0999174279
 11
-55.4015968251
 21
21.242473763
  0
LINE
  5
48B
100
AcDbEntity
  8
0
100
AcDbLine
 62
7
  6
CONTINUOUS
 10
-53.8689139125
 20
22.7751566757
 11
-53.6121530485
 21
23.0319175396
  0
LINE
  5
48C
100
AcDbEntity
  8
0
100
AcDbLine
 62
7
  6
CONTINUOUS
 10
-56.2536756268
 20
20.3063906757
 11
-56.0520386268
 21
20.5080276757
  0
LINE
  5
48D
100
AcDbEntity
  8
0
100
AcDbLine
 62
7
  6
CONTINUOUS
 10
-55.5021574151
 20
21.0579088874
 11
-55.3596004164
 21
21.2004658862
  0
LINE
  5
48E
100
AcDbEntity
  8
0
100
AcDbLine
 62
7
  6
CONTINUOUS
 10
-53.7849096268
 20
22.7751566757
 11
-53.6121530485
 21
22.947913254
  0
LINE
  5
48F
100
AcDbEntity
  8
0
100
AcDbLine
 62
7
  6
CONTINUOUS
 10
-56.1696713412
 20
20.3063906757
 11
-55.9680343412
 21
20.5080276757
  0
LINE
  5
490
100
AcDbEntity
  8
0
100
AcDbLine
 62
7
  6
CONTINUOUS
 10
-55.4601616699
 20
21.015900347
 11
-55.3176040076
 21
21.1584580093
  0
LINE
  5
491
100
AcDbEntity
  8
0
100
AcDbLine
 62
7
  6
CONTINUOUS
 10
-53.7009053412
 20
22.7751566757
 11
-53.6121530485
 21
22.8639089684
  0
LINE
  5
492
100
AcDbEntity
  8
0
100
AcDbLine
 62
7
  6
CONTINUOUS
 10
-56.0856670556
 20
20.3063906757
 11
-55.8840300556
 21
20.5080276757
  0
LINE
  5
493
100
AcDbEntity
  8
0
100
AcDbLine
 62
7
  6
CONTINUOUS
 10
-55.4181659247
 20
20.9738918066
 11
-55.2756075989
 21
21.1164501324
  0
LINE
  5
494
100
AcDbEntity
  8
0
100
AcDbLine
 62
7
  6
CONTINUOUS
 10
-53.6169010556
 20
22.7751566757
 11
-53.6121530485
 21
22.7799046828
  0
LINE
  5
495
100
AcDbEntity
  8
0
100
AcDbLine
 62
7
  6
CONTINUOUS
 10
-56.00166277
 20
20.3063906757
 11
-55.80002577
 21
20.5080276757
  0
LINE
  5
496
100
AcDbEntity
  8
0
100
AcDbLine
 62
7
  6
CONTINUOUS
 10
-55.3761701795
 20
20.9318832662
 11
-55.2336111902
 21
21.0744422555
  0
LINE
  5
497
100
AcDbEntity
  8
0
100
AcDbLine
 62
7
  6
CONTINUOUS
 10
-55.9176584844
 20
20.3063906757
 11
-55.7160214844
 21
20.5080276757
  0
LINE
  5
498
100
AcDbEntity
  8
0
100
AcDbLine
 62
7
  6
CONTINUOUS
 10
-55.3341744343
 20
20.8898747258
 11
-55.1916147814
 21
21.0324343787
  0
LINE
  5
499
100
AcDbEntity
  8
0
100
AcDbLine
 62
253
  6
CONTINUOUS
 10
-53.6121600464
 20
-5.8131483243
 11
-56.5114077057
 21
-4.8820093243
  0
LINE
  5
49A
100
AcDbEntity
  8
ASSI
100
AcDbLine
 62
7
  6
CONTINUOUS
 10
-60.6121530485
 20
30.5757518281
 11
-60.6121530485
 21
27.1756756757
  0
LINE
  5
49B
100
AcDbEntity
  8
ASSI
100
AcDbLine
 62
7
  6
CONTINUOUS
 10
-60.6121530485
 20
-15.6243547853
 11
-60.6121530485
 21
-13.7243240601
  0
LINE
  5
49C
100
AcDbEntity
  8
ASSI
100
AcDbLine
 62
7
  6
CONTINUOUS
 10
-60.6121530485
 20
-13.2244004767
 11
-60.6121530485
 21
-9.8243243243
  0
LINE
  5
49D
100
AcDbEntity
  8
ASSI
100
AcDbLine
 62
7
  6
CONTINUOUS
 10
-60.6121530485
 20
31.0756756053
 11
-60.6121530485
 21
32.9757061366
  0
LINE
  5
49E
100
AcDbEntity
  8
ASSI
100
AcDbLine
 62
253
  6
CONTINUOUS
 10
-59.8577899469
 20
-14.8825057949
 11
-59.8577899469
 21
-13.7111568674
  0
LINE
  5
49F
100
AcDbEntity
  8
ASSI
100
AcDbLine
 62
253
  6
CONTINUOUS
 10
-59.8577899469
 20
31.0625082188
 11
-59.8577899469
 21
32.2338571463
  0
LINE
  5
4A0
100
AcDbEntity
  8
ASSI
100
AcDbLine
 62
253
  6
CONTINUOUS
 10
-59.8086625672
 20
-15.5611949436
 11
-59.8086625672
 21
-15.1686618916
  0
LINE
  5
4A1
100
AcDbEntity
  8
ASSI
100
AcDbLine
 62
253
  6
CONTINUOUS
 10
-59.8086625672
 20
32.520013243
 11
-59.8086625672
 21
32.912546295
  0
LINE
  5
4A2
100
AcDbEntity
  8
ASSI
100
AcDbLine
 62
7
  6
CONTINUOUS
 10
-59.6121530485
 20
-15.5611949436
 11
-59.6121530485
 21
-9.8917793893
  0
LINE
  5
4A3
100
AcDbEntity
  8
ASSI
100
AcDbLine
 62
7
  6
CONTINUOUS
 10
-59.6121530485
 20
27.2431307406
 11
-59.6121530485
 21
32.912546295
  0
LINE
  5
4A4
100
AcDbEntity
  8
0
100
AcDbLine
 62
253
  6
CONTINUOUS
 10
-53.6048702674
 20
22.3500066757
 11
-55.0568498793
 21
20.8976326757
  0
LINE
  5
4A5
100
AcDbEntity
  8
0
100
AcDbLine
 62
253
  6
CONTINUOUS
 10
-55.0568498793
 20
20.6124656757
 11
-53.6048702674
 21
22.0648856757
  0
LINE
  5
4A6
100
AcDbEntity
  8
0
100
AcDbLine
 62
7
  6
CONTINUOUS
 10
-55.8336541988
 20
20.3063906757
 11
-55.6320171988
 21
20.5080276757
  0
LINE
  5
4A7
100
AcDbEntity
  8
0
100
AcDbLine
 62
7
  6
CONTINUOUS
 10
-55.2921786892
 20
20.8478661853
 11
-55.1496183727
 21
20.9904265018
  0
LINE
  5
4A8
100
AcDbEntity
  8
0
100
AcDbLine
 62
7
  6
CONTINUOUS
 10
-55.7496499132
 20
20.3063906757
 11
-55.5480129132
 21
20.5080276757
  0
LINE
  5
4A9
100
AcDbEntity
  8
0
100
AcDbLine
 62
7
  6
CONTINUOUS
 10
-55.250182944
 20
20.8058576449
 11
-55.107621964
 21
20.9484186249
  0
LINE
  5
4AA
100
AcDbEntity
  8
0
100
AcDbLine
 62
7
  6
CONTINUOUS
 10
-55.6656456276
 20
20.3063906757
 11
-55.4640086276
 21
20.5080276757
  0
LINE
  5
4AB
100
AcDbEntity
  8
0
100
AcDbLine
 62
7
  6
CONTINUOUS
 10
-55.2081871988
 20
20.7638491045
 11
-55.0656255553
 21
20.906410748
  0
LINE
  5
4AC
100
AcDbEntity
  8
0
100
AcDbLine
 62
253
  6
CONTINUOUS
 10
-53.6048680485
 20
22.3500066757
 11
-55.0572900485
 21
20.8976326757
  0
LINE
  5
4AD
100
AcDbEntity
  8
0
100
AcDbLine
 62
7
  6
CONTINUOUS
 10
-56.3323210708
 20
19.5557109469
 11
-56.1394553956
 21
19.7485766221
  0
LINE
  5
4AE
100
AcDbEntity
  8
0
100
AcDbLine
 62
7
  6
CONTINUOUS
 10
-55.581641342
 20
20.3063906757
 11
-55.380004342
 21
20.5080276757
  0
LINE
  5
4AF
100
AcDbEntity
  8
0
100
AcDbLine
 62
7
  6
CONTINUOUS
 10
-55.1661914536
 20
20.7218405641
 11
-53.6048702674
 21
22.2831617502
  0
LINE
  5
4B0
100
AcDbEntity
  8
0
100
AcDbLine
 62
7
  6
CONTINUOUS
 10
-56.4265213955
 20
19.3775063366
 11
-55.9720443032
 21
19.8319834289
  0
LINE
  5
4B1
100
AcDbEntity
  8
0
100
AcDbLine
 62
7
  6
CONTINUOUS
 10
-55.4976370564
 20
20.3063906757
 11
-55.2960000564
 21
20.5080276757
  0
LINE
  5
4B2
100
AcDbEntity
  8
0
100
AcDbLine
 62
7
  6
CONTINUOUS
 10
-55.1241957084
 20
20.6798320237
 11
-53.6048702674
 21
22.1991574646
  0
LINE
  5
4B3
100
AcDbEntity
  8
0
100
AcDbLine
 62
7
  6
CONTINUOUS
 10
-56.4636471708
 20
19.2563762757
 11
-55.8572596884
 21
19.862763758
  0
LINE
  5
4B4
100
AcDbEntity
  8
0
100
AcDbLine
 62
7
  6
CONTINUOUS
 10
-55.4136327708
 20
20.3063906757
 11
-55.2119957708
 21
20.5080276757
  0
LINE
  5
4B5
100
AcDbEntity
  8
0
100
AcDbLine
 62
7
  6
CONTINUOUS
 10
-55.0821999632
 20
20.6378234832
 11
-53.6048702674
 21
22.115153179
  0
LINE
  5
4B6
100
AcDbEntity
  8
0
100
AcDbLine
 62
253
  6
CONTINUOUS
 10
-55.0572900485
 20
20.6124656757
 11
-53.6048680485
 21
22.0648856757
  0
LINE
  5
4B7
100
AcDbEntity
  8
0
100
AcDbLine
 62
7
  6
CONTINUOUS
 10
-56.483594714
 20
19.1524244469
 11
-55.7631853827
 21
19.8728337782
  0
LINE
  5
4B8
100
AcDbEntity
  8
0
100
AcDbLine
 62
7
  6
CONTINUOUS
 10
-55.3296284852
 20
20.3063906757
 11
-55.1279914852
 21
20.5080276757
  0
LINE
  5
4B9
100
AcDbEntity
  8
0
100
AcDbLine
 62
7
  6
CONTINUOUS
 10
-56.493509484
 20
19.0585053913
 11
-56.2328730255
 21
19.3191418498
  0
LINE
  5
4BA
100
AcDbEntity
  8
0
100
AcDbLine
 62
7
  6
CONTINUOUS
 10
-55.912903111
 20
19.6391117643
 11
-55.6796282293
 21
19.872386646
  0
LINE
  5
4BB
100
AcDbEntity
  8
0
100
AcDbLine
 62
7
  6
CONTINUOUS
 10
-55.2456241996
 20
20.3063906757
 11
-55.0439871996
 21
20.5080276757
  0
LINE
  5
4BC
100
AcDbEntity
  8
0
100
AcDbLine
 62
7
  6
CONTINUOUS
 10
-56.4968649968
 20
18.9711455928
 11
-56.2706684359
 21
19.1973421538
  0
LINE
  5
4BD
100
AcDbEntity
  8
0
100
AcDbLine
 62
7
  6
CONTINUOUS
 10
-55.8012102667
 20
19.666800323
 11
-55.6047540652
 21
19.8632565245
  0
LINE
  5
4BE
100
AcDbEntity
  8
0
100
AcDbLine
 62
7
  6
CONTINUOUS
 10
-55.161619914
 20
20.3063906757
 11
-54.959982914
 21
20.5080276757
  0
LINE
  5
4BF
100
AcDbEntity
  8
0
100
AcDbLine
 62
7
  6
CONTINUOUS
 10
-56.4968649968
 20
18.8871413072
 11
-56.287710128
 21
19.096296176
  0
LINE
  5
4C0
100
AcDbEntity
  8
0
100
AcDbLine
 62
7
  6
CONTINUOUS
 10
-55.7122091587
 20
19.6717971454
 11
-55.5347115508
 21
19.8492947532
  0
LINE
  5
4C1
100
AcDbEntity
  8
0
100
AcDbLine
 62
7
  6
CONTINUOUS
 10
-55.0776156284
 20
20.3063906757
 11
-54.8759786284
 21
20.5080276757
  0
LINE
  5
4C2
100
AcDbEntity
  8
0
100
AcDbLine
 62
7
  6
CONTINUOUS
 10
-56.4968649968
 20
18.8031370216
 11
-56.2940639671
 21
19.0059380514
  0
LINE
  5
4C3
100
AcDbEntity
  8
0
100
AcDbLine
 62
7
  6
CONTINUOUS
 10
-55.6349796229
 20
19.6650223956
 11
-55.4694052131
 21
19.8305968054
  0
LINE
  5
4C4
100
AcDbEntity
  8
0
100
AcDbLine
 62
7
  6
CONTINUOUS
 10
-54.9936113428
 20
20.3063906757
 11
-54.7919743428
 21
20.5080276757
  0
LINE
  5
4C5
100
AcDbEntity
  8
0
100
AcDbLine
 62
7
  6
CONTINUOUS
 10
-56.4968649968
 20
18.719132736
 11
-56.2952892911
 21
18.9207084418
  0
LINE
  5
4C6
100
AcDbEntity
  8
0
100
AcDbLine
 62
7
  6
CONTINUOUS
 10
-55.5662345022
 20
19.6497632306
 11
-55.4099709249
 21
19.8060268079
  0
LINE
  5
4C7
100
AcDbEntity
  8
0
100
AcDbLine
 62
7
  6
CONTINUOUS
 10
-54.9096070572
 20
20.3063906757
 11
-54.7079700572
 21
20.5080276757
  0
LINE
  5
4C8
100
AcDbEntity
  8
0
100
AcDbLine
 62
7
  6
CONTINUOUS
 10
-56.4968649968
 20
18.6351284504
 11
-56.2952892911
 21
18.8367041562
  0
LINE
  5
4C9
100
AcDbEntity
  8
0
100
AcDbLine
 62
7
  6
CONTINUOUS
 10
-55.5041070894
 20
19.6278863578
 11
-55.3526485663
 21
19.7793448809
  0
LINE
  5
4CA
100
AcDbEntity
  8
0
100
AcDbLine
 62
7
  6
CONTINUOUS
 10
-54.8256027716
 20
20.3063906757
 11
-54.6239657716
 21
20.5080276757
  0
LINE
  5
4CB
100
AcDbEntity
  8
0
100
AcDbLine
 62
7
  6
CONTINUOUS
 10
-56.4968649968
 20
18.5511241648
 11
-56.2952892911
 21
18.7526998705
  0
LINE
  5
4CC
100
AcDbEntity
  8
0
100
AcDbLine
 62
7
  6
CONTINUOUS
 10
-55.4475296992
 20
19.6004594624
 11
-55.3004908544
 21
19.7474983072
  0
LINE
  5
4CD
100
AcDbEntity
  8
0
100
AcDbLine
 62
7
  6
CONTINUOUS
 10
-54.741598486
 20
20.3063906757
 11
-54.539961486
 21
20.5080276757
  0
LINE
  5
4CE
100
AcDbEntity
  8
0
100
AcDbLine
 62
253
  6
CONTINUOUS
 10
-51.8418319671
 20
23.1613898967
 11
-52.1132191824
 21
22.8899614547
  0
LINE
  5
4CF
100
AcDbEntity
  8
0
100
AcDbLine
 62
7
  6
CONTINUOUS
 10
-56.4968649968
 20
18.4671198792
 11
-56.2952892911
 21
18.6686955849
  0
LINE
  5
4D0
100
AcDbEntity
  8
0
100
AcDbLine
 62
7
  6
CONTINUOUS
 10
-55.3958518416
 20
19.5681330345
 11
-55.2507408929
 21
19.7132439832
  0
LINE
  5
4D1
100
AcDbEntity
  8
0
100
AcDbLine
 62
7
  6
CONTINUOUS
 10
-54.6575942004
 20
20.3063906757
 11
-54.4559572004
 21
20.5080276757
  0
LINE
  5
4D2
100
AcDbEntity
  8
0
100
AcDbLine
 62
7
  6
CONTINUOUS
 10
-56.4968649968
 20
18.3831155936
 11
-56.2952892911
 21
18.5846912993
  0
LINE
  5
4D3
100
AcDbEntity
  8
0
100
AcDbLine
 62
7
  6
CONTINUOUS
 10
-55.3485500403
 20
19.5314305502
 11
-55.2043815599
 21
19.6755990306
  0
LINE
  5
4D4
100
AcDbEntity
  8
0
100
AcDbLine
 62
7
  6
CONTINUOUS
 10
-54.5735899147
 20
20.3063906757
 11
-54.3719529147
 21
20.5080276757
  0
LINE
  5
4D5
100
AcDbEntity
  8
0
100
AcDbLine
 62
7
  6
CONTINUOUS
 10
-56.4968649968
 20
18.299111308
 11
-56.2952892911
 21
18.5006870137
  0
LINE
  5
4D6
100
AcDbEntity
  8
0
100
AcDbLine
 62
7
  6
CONTINUOUS
 10
-55.3053049238
 20
19.490671381
 11
-55.1615676331
 21
19.6344086717
  0
LINE
  5
4D7
100
AcDbEntity
  8
0
100
AcDbLine
 62
7
  6
CONTINUOUS
 10
-54.4895856291
 20
20.3063906757
 11
-54.2879486291
 21
20.5080276757
  0
LINE
  5
4D8
100
AcDbEntity
  8
0
100
AcDbLine
 62
7
  6
CONTINUOUS
 10
-56.4968649968
 20
18.2151070224
 11
-56.2952892911
 21
18.4166827281
  0
LINE
  5
4D9
100
AcDbEntity
  8
0
100
AcDbLine
 62
7
  6
CONTINUOUS
 10
-55.2659876364
 20
19.4459843828
 11
-55.1208742591
 21
19.5910977601
  0
LINE
  5
4DA
100
AcDbEntity
  8
0
100
AcDbLine
 62
7
  6
CONTINUOUS
 10
-54.4055813435
 20
20.3063906757
 11
-54.2039443435
 21
20.5080276757
  0
LINE
  5
4DB
100
AcDbEntity
  8
0
100
AcDbLine
 62
7
  6
CONTINUOUS
 10
-56.4968649968
 20
18.1311027368
 11
-56.2952892911
 21
18.3326784425
  0
LINE
  5
4DC
100
AcDbEntity
  8
0
100
AcDbLine
 62
7
  6
CONTINUOUS
 10
-55.2310309547
 20
19.3969367789
 11
-55.0847072203
 21
19.5432605133
  0
LINE
  5
4DD
100
AcDbEntity
  8
0
100
AcDbLine
 62
7
  6
CONTINUOUS
 10
-54.3215770579
 20
20.3063906757
 11
-54.1199400579
 21
20.5080276757
  0
LINE
  5
4DE
100
AcDbEntity
  8
0
100
AcDbLine
 62
7
  6
CONTINUOUS
 10
-56.4968649968
 20
18.0470984512
 11
-56.2952892911
 21
18.2486741569
  0
LINE
  5
4DF
100
AcDbEntity
  8
0
100
AcDbLine
 62
7
  6
CONTINUOUS
 10
-55.1990463351
 20
19.3449171129
 11
-55.0497522807
 21
19.4942111673
  0
LINE
  5
4E0
100
AcDbEntity
  8
0
100
AcDbLine
 62
7
  6
CONTINUOUS
 10
-54.2375727723
 20
20.3063906757
 11
-54.0359357723
 21
20.5080276757
  0
LINE
  5
4E1
100
AcDbEntity
  8
0
100
AcDbLine
 62
7
  6
CONTINUOUS
 10
-56.4968649968
 20
17.9630941655
 11
-56.2952892911
 21
18.1646698713
  0
LINE
  5
4E2
100
AcDbEntity
  8
0
100
AcDbLine
 62
7
  6
CONTINUOUS
 10
-55.1719183181
 20
19.2880408443
 11
-55.019987799
 21
19.4399713634
  0
LINE
  5
4E3
100
AcDbEntity
  8
0
100
AcDbLine
 62
7
  6
CONTINUOUS
 10
-54.1535684867
 20
20.3063906757
 11
-53.9519314867
 21
20.5080276757
  0
LINE
  5
4E4
100
AcDbEntity
  8
0
100
AcDbLine
 62
7
  6
CONTINUOUS
 10
-56.4968649968
 20
17.8790898799
 11
-56.2952892911
 21
18.0806655857
  0
LINE
  5
4E5
100
AcDbEntity
  8
0
100
AcDbLine
 62
7
  6
CONTINUOUS
 10
-55.1491782153
 20
19.2267766615
 11
-54.9920109889
 21
19.3839438879
  0
LINE
  5
4E6
100
AcDbEntity
  8
0
100
AcDbLine
 62
7
  6
CONTINUOUS
 10
-54.0695642011
 20
20.3063906757
 11
-53.8679272011
 21
20.5080276757
  0
LINE
  5
4E7
100
AcDbEntity
  8
0
100
AcDbLine
 62
7
  6
CONTINUOUS
 10
-56.4644948614
 20
17.8274557298
 11
-56.2952892911
 21
17.9966613001
  0
LINE
  5
4E8
100
AcDbEntity
  8
0
100
AcDbLine
 62
7
  6
CONTINUOUS
 10
-55.1304180789
 20
19.1615325123
 11
-54.9678686017
 21
19.3240819895
  0
LINE
  5
4E9
100
AcDbEntity
  8
0
100
AcDbLine
 62
7
  6
CONTINUOUS
 10
-53.9855599155
 20
20.3063906757
 11
-53.7839229155
 21
20.5080276757
  0
LINE
  5
4EA
100
AcDbEntity
  8
0
100
AcDbLine
 62
7
  6
CONTINUOUS
 10
-56.3804905758
 20
17.8274557298
 11
-56.2952892911
 21
17.9126570145
  0
LINE
  5
4EB
100
AcDbEntity
  8
0
100
AcDbLine
 62
7
  6
CONTINUOUS
 10
-55.1161690521
 20
19.0917772535
 11
-54.9474890945
 21
19.2604572111
  0
LINE
  5
4EC
100
AcDbEntity
  8
0
100
AcDbLine
 62
7
  6
CONTINUOUS
 10
-53.9015556299
 20
20.3063906757
 11
-53.6999186299
 21
20.5080276757
  0
LINE
  5
4ED
100
AcDbEntity
  8
0
100
AcDbLine
 62
7
  6
CONTINUOUS
 10
-56.2964862901
 20
17.8274557298
 11
-56.2952892911
 21
17.8286527289
  0
LINE
  5
4EE
100
AcDbEntity
  8
0
100
AcDbLine
 62
7
  6
CONTINUOUS
 10
-55.1070220676
 20
19.0169199524
 11
-54.9295703956
 21
19.1943716243
  0
LINE
  5
4EF
100
AcDbEntity
  8
0
100
AcDbLine
 62
7
  6
CONTINUOUS
 10
-53.8175513443
 20
20.3063906757
 11
-53.6159143443
 21
20.5080276757
  0
LINE
  5
4F0
100
AcDbEntity
  8
0
100
AcDbLine
 62
7
  6
CONTINUOUS
 10
-55.1037935092
 20
18.9361442251
 11
-54.9169882598
 21
19.1229494746
  0
LINE
  5
4F1
100
AcDbEntity
  8
0
100
AcDbLine
 62
7
  6
CONTINUOUS
 10
-53.7335470587
 20
20.3063906757
 11
-53.6048702674
 21
20.4350674669
  0
LINE
  5
4F2
100
AcDbEntity
  8
0
100
AcDbLine
 62
7
  6
CONTINUOUS
 10
-55.1037087644
 20
18.8522246844
 11
-54.8032295275
 21
19.1527039213
  0
LINE
  5
4F3
100
AcDbEntity
  8
0
100
AcDbLine
 62
7
  6
CONTINUOUS
 10
-53.6495427731
 20
20.3063906757
 11
-53.6048702674
 21
20.3510631813
  0
LINE
  5
4F4
100
AcDbEntity
  8
0
100
AcDbLine
 62
7
  6
CONTINUOUS
 10
-56.5123264258
 20
17.3596027374
 11
-56.4758914875
 21
17.3960376757
  0
LINE
  5
4F5
100
AcDbEntity
  8
0
100
AcDbLine
 62
7
  6
CONTINUOUS
 10
-55.1037087644
 20
18.7682203988
 11
-54.6264154915
 21
19.2455136717
  0
LINE
  5
4F6
100
AcDbEntity
  8
0
100
AcDbLine
 62
7
  6
CONTINUOUS
 10
-56.5123264258
 20
17.2755984518
 11
-56.3918872019
 21
17.3960376757
  0
LINE
  5
4F7
100
AcDbEntity
  8
0
100
AcDbLine
 62
7
  6
CONTINUOUS
 10
-54.9288974709
 20
18.8590274066
 11
-54.4496014555
 21
19.3383234221
  0
LINE
  5
4F8
100
AcDbEntity
  8
0
100
AcDbLine
 62
7
  6
CONTINUOUS
 10
-56.5123264258
 20
17.1915941662
 11
-56.3078829163
 21
17.3960376757
  0
LINE
  5
4F9
100
AcDbEntity
  8
0
100
AcDbLine
 62
7
  6
CONTINUOUS
 10
-54.7520860619
 20
18.9518345301
 11
-54.2727874195
 21
19.4311331724
  0
LINE
  5
4FA
100
AcDbEntity
  8
0
100
AcDbLine
 62
7
  6
CONTINUOUS
 10
-56.4685660133
 20
17.151350293
 11
-56.2238786307
 21
17.3960376757
  0
LINE
  5
4FB
100
AcDbEntity
  8
0
100
AcDbLine
 62
7
  6
CONTINUOUS
 10
-54.5752746528
 20
19.0446416536
 11
-54.0959733835
 21
19.5239429228
  0
LINE
  5
4FC
100
AcDbEntity
  8
0
100
AcDbLine
 62
7
  6
CONTINUOUS
 10
-56.4234558609
 20
17.1124561598
 11
-56.1398743451
 21
17.3960376757
  0
LINE
  5
4FD
100
AcDbEntity
  8
0
100
AcDbLine
 62
7
  6
CONTINUOUS
 10
-54.3984632437
 20
19.137448777
 11
-53.9191593475
 21
19.6167526732
  0
LINE
  5
4FE
100
AcDbEntity
  8
0
100
AcDbLine
 62
7
  6
CONTINUOUS
 10
-56.3783457085
 20
17.0735620266
 11
-56.0558700595
 21
17.3960376757
  0
LINE
  5
4FF
100
AcDbEntity
  8
0
100
AcDbLine
 62
7
  6
CONTINUOUS
 10
-54.2216518346
 20
19.2302559005
 11
-53.7423453115
 21
19.7095624236
  0
LINE
  5
500
100
AcDbEntity
  8
0
100
AcDbLine
 62
7
  6
CONTINUOUS
 10
-56.3332355561
 20
17.0346678934
 11
-56.1902859591
 21
17.1776174904
  0
LINE
  5
501
100
AcDbEntity
  8
0
100
AcDbLine
 62
7
  6
CONTINUOUS
 10
-56.1735027739
 20
17.1944006757
 11
-55.9718657739
 21
17.3960376757
  0
LINE
  5
502
100
AcDbEntity
  8
0
100
AcDbLine
 62
7
  6
CONTINUOUS
 10
-54.0448404256
 20
19.323063024
 11
-53.6048706876
 21
19.7630327619
  0
LINE
  5
503
100
AcDbEntity
  8
0
100
AcDbLine
 62
7
  6
CONTINUOUS
 10
-56.2881254037
 20
16.9957737602
 11
-56.1451755936
 21
17.1387235704
  0
LINE
  5
504
100
AcDbEntity
  8
0
100
AcDbLine
 62
7
  6
CONTINUOUS
 10
-56.0894984883
 20
17.1944006757
 11
-55.8878614883
 21
17.3960376757
  0
LINE
  5
505
100
AcDbEntity
  8
0
100
AcDbLine
 62
7
  6
CONTINUOUS
 10
-53.8680290165
 20
19.4158701474
 11
-53.6048706876
 21
19.6790284763
  0
LINE
  5
506
100
AcDbEntity
  8
0
100
AcDbLine
 62
7
  6
CONTINUOUS
 10
-56.2430152513
 20
16.956879627
 11
-56.100065228
 21
17.0998296504
  0
LINE
  5
507
100
AcDbEntity
  8
0
100
AcDbLine
 62
7
  6
CONTINUOUS
 10
-56.0054942026
 20
17.1944006757
 11
-55.8038572026
 21
17.3960376757
  0
LINE
  5
508
100
AcDbEntity
  8
0
100
AcDbLine
 62
7
  6
CONTINUOUS
 10
-53.6912176074
 20
19.5086772709
 11
-53.6048706876
 21
19.5950241907
  0
LINE
  5
509
100
AcDbEntity
  8
0
100
AcDbLine
 62
7
  6
CONTINUOUS
 10
-56.1979050989
 20
16.9179854938
 11
-56.0549548624
 21
17.0609357303
  0
LINE
  5
50A
100
AcDbEntity
  8
0
100
AcDbLine
 62
7
  6
CONTINUOUS
 10
-55.921489917
 20
17.1944006757
 11
-55.719852917
 21
17.3960376757
  0
LINE
  5
50B
100
AcDbEntity
  8
0
100
AcDbLine
 62
7
  6
CONTINUOUS
 10
-56.1527949465
 20
16.8790913606
 11
-56.0098444968
 21
17.0220418103
  0
LINE
  5
50C
100
AcDbEntity
  8
0
100
AcDbLine
 62
7
  6
CONTINUOUS
 10
-55.8374856314
 20
17.1944006757
 11
-55.6358486314
 21
17.3960376757
  0
LINE
  5
50D
100
AcDbEntity
  8
0
100
AcDbLine
 62
7
  6
CONTINUOUS
 10
-56.1076847941
 20
16.8401972274
 11
-55.9647341312
 21
16.9831478903
  0
LINE
  5
50E
100
AcDbEntity
  8
0
100
AcDbLine
 62
7
  6
CONTINUOUS
 10
-55.7534813458
 20
17.1944006757
 11
-55.5518443458
 21
17.3960376757
  0
LINE
  5
50F
100
AcDbEntity
  8
0
100
AcDbLine
 62
7
  6
CONTINUOUS
 10
-56.0625746417
 20
16.8013030942
 11
-55.9196237656
 21
16.9442539703
  0
LINE
  5
510
100
AcDbEntity
  8
0
100
AcDbLine
 62
7
  6
CONTINUOUS
 10
-55.6694770602
 20
17.1944006757
 11
-55.4678400602
 21
17.3960376757
  0
LINE
  5
511
100
AcDbEntity
  8
0
100
AcDbLine
 62
253
  6
CONTINUOUS
 10
-51.8418319671
 20
21.623294637
 11
-52.1132191824
 21
21.3971043442
  0
LINE
  5
512
100
AcDbEntity
  8
0
100
AcDbLine
 62
253
  6
CONTINUOUS
 10
-53.6048684688
 20
19.7817229026
 11
-54.9125535507
 21
19.0955276075
  0
LINE
  5
513
100
AcDbEntity
  8
0
100
AcDbLine
 62
253
  6
CONTINUOUS
 10
-53.6048706876
 20
19.7817229026
 11
-54.9121574662
 21
19.0955276075
  0
LINE
  5
514
100
AcDbEntity
  8
0
100
AcDbLine
 62
253
  6
CONTINUOUS
 10
-55.1037087644
 20
18.7672701304
 11
-53.6048706876
 21
19.5540001903
  0
LINE
  5
515
100
AcDbEntity
  8
0
100
AcDbLine
 62
253
  6
CONTINUOUS
 10
-56.5114077057
 20
-4.4953303243
 11
-53.6121530485
 21
-4.4953383243
  0
LINE
  5
516
100
AcDbEntity
  8
0
100
AcDbLine
 62
253
  6
CONTINUOUS
 10
-53.6121600464
 20
-3.9153163243
 11
-56.5114077057
 21
-3.9153093243
  0
LINE
  5
517
100
AcDbEntity
  8
0
100
AcDbLine
 62
253
  6
CONTINUOUS
 10
-56.5114077057
 20
-3.3353093243
 11
-53.6121600464
 21
-3.3353093243
  0
LINE
  5
518
100
AcDbEntity
  8
0
100
AcDbLine
 62
253
  6
CONTINUOUS
 10
-53.6121600464
 20
-2.7552873243
 11
-55.5240195424
 21
-2.7552873243
  0
LINE
  5
519
100
AcDbEntity
  8
0
100
AcDbLine
 62
253
  6
CONTINUOUS
 10
-56.5114077057
 20
-1.3753363243
 11
-54.6233139687
 21
-1.9169043243
  0
LINE
  5
51A
100
AcDbEntity
  8
0
100
AcDbLine
 62
253
  6
CONTINUOUS
 10
-53.612168044
 20
-1.6269043243
 11
-55.5240195424
 21
-1.0785293243
  0
LINE
  5
51B
100
AcDbEntity
  8
RACCORDO
100
AcDbLine
 62
7
  6
CONTINUOUS
 10
-59.1121530485
 20
-12.1743243243
 11
-59.1121530485
 21
-10.2725939221
  0
LINE
  5
51C
100
AcDbEntity
  8
SUPERFICI
100
AcDbLine
 62
7
  6
CONTINUOUS
 10
-59.1121530485
 20
-12.1743243243
 11
-59.1121530485
 21
-10.2725939221
  0
LINE
  5
51D
100
AcDbEntity
  8
ASSI
100
AcDbLine
 62
7
  6
CONTINUOUS
 10
-59.1121530485
 20
-10.5655967919
 11
-59.1121530485
 21
-9.5423537893
  0
LINE
  5
51E
100
AcDbEntity
  8
ASSI
100
AcDbLine
 62
7
  6
CONTINUOUS
 10
-59.1121530485
 20
-8.9582989205
 11
-59.1121530485
 21
26.3096502719
  0
LINE
  5
51F
100
AcDbEntity
  8
RACCORDO
100
AcDbLine
 62
7
  6
CONTINUOUS
 10
-59.1121530485
 20
-9.5423537893
 11
-59.1121530485
 21
26.8937051407
  0
LINE
  5
520
100
AcDbEntity
  8
SUPERFICI
100
AcDbLine
 62
7
  6
CONTINUOUS
 10
-59.1121530485
 20
-9.5423537893
 11
-59.1121530485
 21
26.8937051407
  0
LINE
  5
521
100
AcDbEntity
  8
ASSI
100
AcDbLine
 62
7
  6
CONTINUOUS
 10
-59.1121530485
 20
26.8937051407
 11
-59.1121530485
 21
27.9169481432
  0
LINE
  5
522
100
AcDbEntity
  8
RACCORDO
100
AcDbLine
 62
7
  6
CONTINUOUS
 10
-59.1121530485
 20
27.6239452734
 11
-59.1121530485
 21
29.5256756757
  0
LINE
  5
523
100
AcDbEntity
  8
SUPERFICI
100
AcDbLine
 62
7
  6
CONTINUOUS
 10
-59.1121530485
 20
27.6239452734
 11
-59.1121530485
 21
29.5256756757
  0
LINE
  5
524
100
AcDbEntity
  8
0
100
AcDbLine
 62
253
  6
CONTINUOUS
 10
-57.4906523501
 20
24.3787696757
 11
-57.4906523501
 21
24.0936496757
  0
LINE
  5
525
100
AcDbEntity
  8
0
100
AcDbLine
 62
7
  6
CONTINUOUS
 10
-56.0174644893
 20
16.7624089609
 11
-55.8745134
 21
16.9053600503
  0
LINE
  5
526
100
AcDbEntity
  8
0
100
AcDbLine
 62
7
  6
CONTINUOUS
 10
-55.5854727746
 20
17.1944006757
 11
-55.3838357746
 21
17.3960376757
  0
LINE
  5
527
100
AcDbEntity
  8
0
100
AcDbLine
 62
7
  6
CONTINUOUS
 10
-55.972354337
 20
16.7235148277
 11
-55.8294030344
 21
16.8664661303
  0
LINE
  5
528
100
AcDbEntity
  8
0
100
AcDbLine
 62
7
  6
CONTINUOUS
 10
-55.501468489
 20
17.1944006757
 11
-55.299831489
 21
17.3960376757
  0
LINE
  5
529
100
AcDbEntity
  8
0
100
AcDbLine
 62
253
  6
CONTINUOUS
 10
-51.0276702643
 20
21.6685327862
 11
-51.2990575363
 21
21.3971043442
  0
LINE
  5
52A
100
AcDbEntity
  8
0
100
AcDbLine
 62
7
  6
CONTINUOUS
 10
-55.9272441846
 20
16.6846206945
 11
-55.7842926688
 21
16.8275722103
  0
LINE
  5
52B
100
AcDbEntity
  8
0
100
AcDbLine
 62
7
  6
CONTINUOUS
 10
-55.4174642034
 20
17.1944006757
 11
-55.2158272034
 21
17.3960376757
  0
LINE
  5
52C
100
AcDbEntity
  8
0
100
AcDbLine
 62
7
  6
CONTINUOUS
 10
-55.8821340322
 20
16.6457265613
 11
-55.7391823032
 21
16.7886782903
  0
LINE
  5
52D
100
AcDbEntity
  8
0
100
AcDbLine
 62
7
  6
CONTINUOUS
 10
-55.3334599178
 20
17.1944006757
 11
-55.1318229178
 21
17.3960376757
  0
LINE
  5
52E
100
AcDbEntity
  8
0
100
AcDbLine
 62
7
  6
CONTINUOUS
 10
-55.8370238798
 20
16.6068324281
 11
-55.6940719376
 21
16.7497843702
  0
LINE
  5
52F
100
AcDbEntity
  8
0
100
AcDbLine
 62
7
  6
CONTINUOUS
 10
-55.2494556322
 20
17.1944006757
 11
-55.0478186322
 21
17.3960376757
  0
LINE
  5
530
100
AcDbEntity
  8
0
100
AcDbLine
 62
7
  6
CONTINUOUS
 10
-55.7919137274
 20
16.5679382949
 11
-55.648961572
 21
16.7108904502
  0
LINE
  5
531
100
AcDbEntity
  8
0
100
AcDbLine
 62
7
  6
CONTINUOUS
 10
-55.1654513466
 20
17.1944006757
 11
-54.9638143466
 21
17.3960376757
  0
LINE
  5
532
100
AcDbEntity
  8
0
100
AcDbLine
 62
7
  6
CONTINUOUS
 10
-55.746803575
 20
16.5290441617
 11
-55.6038512065
 21
16.6719965302
  0
LINE
  5
533
100
AcDbEntity
  8
0
100
AcDbLine
 62
7
  6
CONTINUOUS
 10
-55.126783572
 20
17.1490641647
 11
-54.879810061
 21
17.3960376757
  0
LINE
  5
534
100
AcDbEntity
  8
0
100
AcDbLine
 62
7
  6
CONTINUOUS
 10
-55.7016934226
 20
16.4901500285
 11
-55.5587408409
 21
16.6331026102
  0
LINE
  5
535
100
AcDbEntity
  8
0
100
AcDbLine
 62
7
  6
CONTINUOUS
 10
-55.126783572
 20
17.0650598791
 11
-54.7958057754
 21
17.3960376757
  0
LINE
  5
536
100
AcDbEntity
  8
0
100
AcDbLine
 62
253
  6
CONTINUOUS
 10
-51.8418319671
 20
20.3113898967
 11
-52.1132191824
 21
20.0399613414
  0
LINE
  5
537
100
AcDbEntity
  8
0
100
AcDbLine
 62
7
  6
CONTINUOUS
 10
-55.6565832702
 20
16.4512558953
 11
-55.5136304753
 21
16.5942086902
  0
LINE
  5
538
100
AcDbEntity
  8
0
100
AcDbLine
 62
7
  6
CONTINUOUS
 10
-55.126783572
 20
16.9810555935
 11
-54.9252079879
 21
17.1826311776
  0
LINE
  5
539
100
AcDbEntity
  8
0
100
AcDbLine
 62
7
  6
CONTINUOUS
 10
-54.9134384898
 20
17.1944006757
 11
-54.7118014898
 21
17.3960376757
  0
LINE
  5
53A
100
AcDbEntity
  8
0
100
AcDbLine
 62
7
  6
CONTINUOUS
 10
-55.6114731178
 20
16.4123617621
 11
-55.4685201097
 21
16.5553147702
  0
LINE
  5
53B
100
AcDbEntity
  8
0
100
AcDbLine
 62
7
  6
CONTINUOUS
 10
-55.126783572
 20
16.8970513079
 11
-54.9252079879
 21
17.098626892
  0
LINE
  5
53C
100
AcDbEntity
  8
0
100
AcDbLine
 62
7
  6
CONTINUOUS
 10
-54.8294342042
 20
17.1944006757
 11
-54.6277972042
 21
17.3960376757
  0
LINE
  5
53D
100
AcDbEntity
  8
0
100
AcDbLine
 62
7
  6
CONTINUOUS
 10
-55.5663629654
 20
16.3734676289
 11
-55.4234097441
 21
16.5164208502
  0
LINE
  5
53E
100
AcDbEntity
  8
0
100
AcDbLine
 62
7
  6
CONTINUOUS
 10
-55.126783572
 20
16.8130470223
 11
-54.9252079879
 21
17.0146226064
  0
LINE
  5
53F
100
AcDbEntity
  8
0
100
AcDbLine
 62
7
  6
CONTINUOUS
 10
-54.7454299186
 20
17.1944006757
 11
-54.5437929186
 21
17.3960376757
  0
LINE
  5
540
100
AcDbEntity
  8
0
100
AcDbLine
 62
7
  6
CONTINUOUS
 10
-55.521252813
 20
16.3345734957
 11
-55.3782993785
 21
16.4775269301
  0
LINE
  5
541
100
AcDbEntity
  8
0
100
AcDbLine
 62
7
  6
CONTINUOUS
 10
-55.126783572
 20
16.7290427367
 11
-54.9252079879
 21
16.9306183208
  0
LINE
  5
542
100
AcDbEntity
  8
0
100
AcDbLine
 62
7
  6
CONTINUOUS
 10
-54.661425633
 20
17.1944006757
 11
-54.459788633
 21
17.3960376757
  0
LINE
  5
543
100
AcDbEntity
  8
0
100
AcDbLine
 62
7
  6
CONTINUOUS
 10
-55.4761426606
 20
16.2956793624
 11
-55.3331890129
 21
16.4386330101
  0
LINE
  5
544
100
AcDbEntity
  8
0
100
AcDbLine
 62
7
  6
CONTINUOUS
 10
-55.126783572
 20
16.6450384511
 11
-54.9252079879
 21
16.8466140352
  0
LINE
  5
545
100
AcDbEntity
  8
0
100
AcDbLine
 62
7
  6
CONTINUOUS
 10
-54.5774213474
 20
17.1944006757
 11
-54.3757843474
 21
17.3960376757
  0
LINE
  5
546
100
AcDbEntity
  8
0
100
AcDbLine
 62
7
  6
CONTINUOUS
 10
-55.4310325082
 20
16.2567852292
 11
-55.2880786473
 21
16.3997390901
  0
LINE
  5
547
100
AcDbEntity
  8
0
100
AcDbLine
 62
7
  6
CONTINUOUS
 10
-55.126783572
 20
16.5610341655
 11
-54.9252079879
 21
16.7626097496
  0
LINE
  5
548
100
AcDbEntity
  8
0
100
AcDbLine
 62
7
  6
CONTINUOUS
 10
-54.4934170618
 20
17.1944006757
 11
-54.2917800618
 21
17.3960376757
  0
LINE
  5
549
100
AcDbEntity
  8
0
100
AcDbLine
 62
7
  6
CONTINUOUS
 10
-55.3859223558
 20
16.217891096
 11
-55.2429682817
 21
16.3608451701
  0
LINE
  5
54A
100
AcDbEntity
  8
0
100
AcDbLine
 62
7
  6
CONTINUOUS
 10
-55.126783572
 20
16.4770298799
 11
-54.9252079879
 21
16.678605464
  0
LINE
  5
54B
100
AcDbEntity
  8
0
100
AcDbLine
 62
7
  6
CONTINUOUS
 10
-54.4094127762
 20
17.1944006757
 11
-54.2077757762
 21
17.3960376757
  0
LINE
  5
54C
100
AcDbEntity
  8
0
100
AcDbLine
 62
7
  6
CONTINUOUS
 10
-55.3408122034
 20
16.1789969628
 11
-55.1978579161
 21
16.3219512501
  0
LINE
  5
54D
100
AcDbEntity
  8
0
100
AcDbLine
 62
7
  6
CONTINUOUS
 10
-55.0463444905
 20
16.4734646757
 11
-54.9252079879
 21
16.5946011783
  0
LINE
  5
54E
100
AcDbEntity
  8
0
100
AcDbLine
 62
7
  6
CONTINUOUS
 10
-54.3254084905
 20
17.1944006757
 11
-54.1237714905
 21
17.3960376757
  0
LINE
  5
54F
100
AcDbEntity
  8
0
100
AcDbLine
 62
7
  6
CONTINUOUS
 10
-55.295702051
 20
16.1401028296
 11
-55.1527475505
 21
16.2830573301
  0
LINE
  5
550
100
AcDbEntity
  8
0
100
AcDbLine
 62
7
  6
CONTINUOUS
 10
-54.9623402049
 20
16.4734646757
 11
-54.9252079879
 21
16.5105968927
  0
LINE
  5
551
100
AcDbEntity
  8
0
100
AcDbLine
 62
7
  6
CONTINUOUS
 10
-54.2414042049
 20
17.1944006757
 11
-54.0397672049
 21
17.3960376757
  0
LINE
  5
552
100
AcDbEntity
  8
0
100
AcDbLine
 62
7
  6
CONTINUOUS
 10
-55.2505918986
 20
16.1012086964
 11
-55.1076371849
 21
16.2441634101
  0
LINE
  5
553
100
AcDbEntity
  8
0
100
AcDbLine
 62
7
  6
CONTINUOUS
 10
-54.1573999193
 20
17.1944006757
 11
-53.9557629193
 21
17.3960376757
  0
LINE
  5
554
100
AcDbEntity
  8
0
100
AcDbLine
 62
7
  6
CONTINUOUS
 10
-55.2054817462
 20
16.0623145632
 11
-55.0625268194
 21
16.2052694901
  0
LINE
  5
555
100
AcDbEntity
  8
0
100
AcDbLine
 62
7
  6
CONTINUOUS
 10
-54.0733956337
 20
17.1944006757
 11
-53.8717586337
 21
17.3960376757
  0
LINE
  5
556
100
AcDbEntity
  8
0
100
AcDbLine
 62
7
  6
CONTINUOUS
 10
-55.1603715938
 20
16.02342043
 11
-55.0174164538
 21
16.16637557
  0
LINE
  5
557
100
AcDbEntity
  8
0
100
AcDbLine
 62
7
  6
CONTINUOUS
 10
-53.9893913481
 20
17.1944006757
 11
-53.7877543481
 21
17.3960376757
  0
LINE
  5
558
100
AcDbEntity
  8
0
100
AcDbLine
 62
7
  6
CONTINUOUS
 10
-55.1152614414
 20
15.9845262968
 11
-54.9723060882
 21
16.12748165
  0
LINE
  5
559
100
AcDbEntity
  8
0
100
AcDbLine
 62
7
  6
CONTINUOUS
 10
-53.9053870625
 20
17.1944006757
 11
-53.7037500625
 21
17.3960376757
  0
LINE
  5
55A
100
AcDbEntity
  8
0
100
AcDbLine
 62
7
  6
CONTINUOUS
 10
-55.070151289
 20
15.9456321636
 11
-54.9271957226
 21
16.08858773
  0
LINE
  5
55B
100
AcDbEntity
  8
0
100
AcDbLine
 62
7
  6
CONTINUOUS
 10
-53.8213827769
 20
17.1944006757
 11
-53.6197457769
 21
17.3960376757
  0
LINE
  5
55C
100
AcDbEntity
  8
0
100
AcDbLine
 62
7
  6
CONTINUOUS
 10
-55.0250411366
 20
15.9067380304
 11
-54.882085357
 21
16.04969381
  0
LINE
  5
55D
100
AcDbEntity
  8
0
100
AcDbLine
 62
7
  6
CONTINUOUS
 10
-53.7373784913
 20
17.1944006757
 11
-53.6048702674
 21
17.3269088996
  0
LINE
  5
55E
100
AcDbEntity
  8
0
100
AcDbLine
 62
7
  6
CONTINUOUS
 10
-54.9799309842
 20
15.8678438971
 11
-54.8369749914
 21
16.01079989
  0
LINE
  5
55F
100
AcDbEntity
  8
0
100
AcDbLine
 62
7
  6
CONTINUOUS
 10
-53.6533742057
 20
17.1944006757
 11
-53.6048702674
 21
17.2429046139
  0
LINE
  5
560
100
AcDbEntity
  8
0
100
AcDbLine
 62
7
  6
CONTINUOUS
 10
-54.9348208318
 20
15.8289497639
 11
-54.7918646258
 21
15.97190597
  0
LINE
  5
561
100
AcDbEntity
  8
0
100
AcDbLine
 62
7
  6
CONTINUOUS
 10
-54.8897106794
 20
15.7900556307
 11
-54.7467542602
 21
15.93301205
  0
LINE
  5
562
100
AcDbEntity
  8
0
100
AcDbLine
 62
253
  6
CONTINUOUS
 10
-51.2990575363
 20
19.3613900099
 11
-51.0276702643
 21
19.6328185652
  0
LINE
  5
563
100
AcDbEntity
  8
0
100
AcDbLine
 62
7
  6
CONTINUOUS
 10
-54.844600527
 20
15.7511614975
 11
-54.7016438946
 21
15.89411813
  0
LINE
  5
564
100
AcDbEntity
  8
0
100
AcDbLine
 62
7
  6
CONTINUOUS
 10
-54.7994903746
 20
15.7122673643
 11
-54.656533529
 21
15.8552242099
  0
LINE
  5
565
100
AcDbEntity
  8
0
100
AcDbLine
 62
7
  6
CONTINUOUS
 10
-54.7543802223
 20
15.6733732311
 11
-54.6114231634
 21
15.8163302899
  0
LINE
  5
566
100
AcDbEntity
  8
0
100
AcDbLine
 62
7
  6
CONTINUOUS
 10
-54.7092700699
 20
15.6344790979
 11
-54.5663127978
 21
15.7774363699
  0
LINE
  5
567
100
AcDbEntity
  8
0
100
AcDbLine
 62
7
  6
CONTINUOUS
 10
-54.6641599175
 20
15.5955849647
 11
-54.5212024322
 21
15.7385424499
  0
LINE
  5
568
100
AcDbEntity
  8
0
100
AcDbLine
 62
7
  6
CONTINUOUS
 10
-54.6190497651
 20
15.5566908315
 11
-54.4760920667
 21
15.6996485299
  0
LINE
  5
569
100
AcDbEntity
  8
0
100
AcDbLine
 62
7
  6
CONTINUOUS
 10
-54.5739396127
 20
15.5177966983
 11
-54.4309817011
 21
15.6607546099
  0
LINE
  5
56A
100
AcDbEntity
  8
0
100
AcDbLine
 62
7
  6
CONTINUOUS
 10
-54.5288294603
 20
15.4789025651
 11
-54.3858713355
 21
15.6218606899
  0
LINE
  5
56B
100
AcDbEntity
  8
0
100
AcDbLine
 62
7
  6
CONTINUOUS
 10
-54.4837193079
 20
15.4400084319
 11
-54.3407609699
 21
15.5829667698
  0
LINE
  5
56C
100
AcDbEntity
  8
0
100
AcDbLine
 62
7
  6
CONTINUOUS
 10
-54.4386091555
 20
15.4011142986
 11
-54.2956506043
 21
15.5440728498
  0
LINE
  5
56D
100
AcDbEntity
  8
0
100
AcDbLine
 62
7
  6
CONTINUOUS
 10
-54.3934990031
 20
15.3622201654
 11
-54.2505402387
 21
15.5051789298
  0
LINE
  5
56E
100
AcDbEntity
  8
0
100
AcDbLine
 62
7
  6
CONTINUOUS
 10
-54.3483888507
 20
15.3233260322
 11
-54.2054298731
 21
15.4662850098
  0
LINE
  5
56F
100
AcDbEntity
  8
0
100
AcDbLine
 62
7
  6
CONTINUOUS
 10
-54.3032786983
 20
15.284431899
 11
-54.1603195075
 21
15.4273910898
  0
LINE
  5
570
100
AcDbEntity
  8
0
100
AcDbLine
 62
253
  6
CONTINUOUS
 10
-55.5240195424
 20
-1.0785293243
 11
-53.6121600464
 21
-1.0785213243
  0
LINE
  5
571
100
AcDbEntity
  8
0
100
AcDbLine
 62
253
  6
CONTINUOUS
 10
-53.6121600464
 20
-0.4985003243
 11
-56.5114077057
 21
-0.4985003243
  0
LINE
  5
572
100
AcDbEntity
  8
0
100
AcDbLine
 62
253
  6
CONTINUOUS
 10
-53.6121600464
 20
-0.1118213243
 11
-56.5114147035
 21
0.8193036757
  0
LINE
  5
573
100
AcDbEntity
  8
0
100
AcDbLine
 62
253
  6
CONTINUOUS
 10
-54.1823223298
 20
0.6513136757
 11
-53.612168044
 21
0.4682006757
  0
LINE
  5
574
100
AcDbEntity
  8
0
100
AcDbLine
 62
253
  6
CONTINUOUS
 10
-55.6084488185
 20
1.1093256757
 11
-54.7331764959
 21
0.8282356757
  0
LINE
  5
575
100
AcDbEntity
  8
ASSI
100
AcDbLine
 62
253
  6
CONTINUOUS
 10
-55.0010953448
 20
-13.6263829478
 11
-54.9835832683
 21
-14.9761153496
  0
LINE
  5
576
100
AcDbEntity
  8
0
100
AcDbLine
 62
253
  6
CONTINUOUS
 10
-56.7905996417
 20
23.3933826757
 11
-56.7905996417
 21
23.6785266757
  0
LINE
  5
577
100
AcDbEntity
  8
0
100
AcDbLine
 62
253
  6
CONTINUOUS
 10
-56.5123264258
 20
22.3535066757
 11
-56.5123264258
 21
22.0683856757
  0
LINE
  5
578
100
AcDbEntity
  8
0
100
AcDbLine
 62
253
  6
CONTINUOUS
 10
-56.5123264258
 20
17.3960376757
 11
-56.5123264258
 21
17.1890806757
  0
LINE
  5
579
100
AcDbEntity
  8
0
100
AcDbLine
 62
253
  6
CONTINUOUS
 10
-56.5114147035
 20
0.8193036757
 11
-56.5114147035
 21
1.3993546757
  0
LINE
  5
57A
100
AcDbEntity
  8
0
100
AcDbLine
 62
253
  6
CONTINUOUS
 10
-56.5114147035
 20
2.7171726757
 11
-56.5114147035
 21
4.0753876757
  0
LINE
  5
57B
100
AcDbEntity
  8
0
100
AcDbLine
 62
253
  6
CONTINUOUS
 10
-56.5114077057
 20
-0.4985003243
 11
-56.5114077057
 21
-1.3753363243
  0
LINE
  5
57C
100
AcDbEntity
  8
0
100
AcDbLine
 62
253
  6
CONTINUOUS
 10
-56.5114077057
 20
-2.4584723243
 11
-56.5114077057
 21
-3.3353093243
  0
LINE
  5
57D
100
AcDbEntity
  8
0
100
AcDbLine
 62
253
  6
CONTINUOUS
 10
-56.5114077057
 20
-3.9153093243
 11
-56.5114077057
 21
-4.4953303243
  0
LINE
  5
57E
100
AcDbEntity
  8
0
100
AcDbLine
 62
253
  6
CONTINUOUS
 10
-56.5114077057
 20
-4.8820093243
 11
-56.5114077057
 21
-5.4620383243
  0
LINE
  5
57F
100
AcDbEntity
  8
0
100
AcDbLine
 62
253
  6
CONTINUOUS
 10
-56.5114077057
 20
-6.7442953243
 11
-56.5114077057
 21
-7.3243243243
  0
LINE
  5
580
100
AcDbEntity
  8
0
100
AcDbLine
 62
253
  6
CONTINUOUS
 10
-56.508590564
 20
24.6710096757
 11
-56.508590564
 21
22.7751566757
  0
LINE
  5
581
100
AcDbEntity
  8
0
100
AcDbLine
 62
253
  6
CONTINUOUS
 10
-56.5064642118
 20
20.5080276757
 11
-56.5064642118
 21
20.3063906757
  0
LINE
  5
582
100
AcDbEntity
  8
0
100
AcDbLine
 62
253
  6
CONTINUOUS
 10
-56.4968649968
 20
18.9725729516
 11
-56.4968649968
 21
17.8274557298
  0
LINE
  5
583
100
AcDbEntity
  8
0
100
AcDbLine
 62
253
  6
CONTINUOUS
 10
-56.3070149799
 20
22.9767936757
 11
-56.3070149799
 21
24.6710096757
  0
LINE
  5
584
100
AcDbEntity
  8
0
100
AcDbLine
 62
253
  6
CONTINUOUS
 10
-56.2952892911
 20
17.8274557298
 11
-56.2952892911
 21
18.9725729516
  0
LINE
  5
585
100
AcDbEntity
  8
0
100
AcDbLine
 62
253
  6
CONTINUOUS
 10
-55.9750561209
 20
3.9948836757
 11
-55.9750561209
 21
3.2891976757
  0
LINE
  5
586
100
AcDbEntity
  8
0
100
AcDbLine
 62
253
  6
CONTINUOUS
 10
-55.2695420764
 20
3.2892046757
 11
-55.2695420764
 21
3.9948836757
  0
LINE
  5
587
100
AcDbEntity
  8
0
100
AcDbLine
 62
253
  6
CONTINUOUS
 10
-55.126783572
 20
16.4734646757
 11
-55.126783572
 21
17.1944006757
  0
LINE
  5
588
100
AcDbEntity
  8
0
100
AcDbLine
 62
253
  6
CONTINUOUS
 10
-55.1266896006
 20
24.6159766757
 11
-55.1266896006
 21
23.6156896757
  0
LINE
  5
589
100
AcDbEntity
  8
ASSI
100
AcDbLine
 62
7
  6
CONTINUOUS
 10
-55.1121530485
 20
32.2150557711
 11
-55.1121530485
 21
31.5362955803
  0
LINE
  5
58A
100
AcDbEntity
  8
ASSI
100
AcDbLine
 62
7
  6
CONTINUOUS
 10
-55.1121530485
 20
-14.1849442289
 11
-55.1121530485
 21
-14.8637044197
  0
LINE
  5
58B
100
AcDbEntity
  8
0
100
AcDbLine
 62
253
  6
CONTINUOUS
 10
-55.1037087644
 20
18.9340239828
 11
-55.1037087644
 21
18.7672701304
  0
LINE
  5
58C
100
AcDbEntity
  8
0
100
AcDbLine
 62
253
  6
CONTINUOUS
 10
-54.9262486708
 20
23.6156896757
 11
-54.9262486708
 21
24.6159766757
  0
LINE
  5
58D
100
AcDbEntity
  8
0
100
AcDbLine
 62
253
  6
CONTINUOUS
 10
-54.9252079879
 20
16.4734646757
 11
-54.9252079879
 21
17.1944006757
  0
LINE
  5
58E
100
AcDbEntity
  8
ASSI
100
AcDbLine
 62
253
  6
CONTINUOUS
 10
-55.0010953448
 20
30.9777342991
 11
-54.9835832683
 21
32.3274667009
  0
LINE
  5
58F
100
AcDbEntity
  8
0
100
AcDbLine
 62
7
  6
CONTINUOUS
 10
-54.2581685459
 20
15.2455377658
 11
-54.1152091419
 21
15.3884971698
  0
LINE
  5
590
100
AcDbEntity
  8
0
100
AcDbLine
 62
7
  6
CONTINUOUS
 10
-54.2130583935
 20
15.2066436326
 11
-54.0700987763
 21
15.3496032498
  0
LINE
  5
591
100
AcDbEntity
  8
0
100
AcDbLine
 62
7
  6
CONTINUOUS
 10
-54.1679482411
 20
15.1677494994
 11
-54.0249884107
 21
15.3107093298
  0
LINE
  5
592
100
AcDbEntity
  8
0
100
AcDbLine
 62
7
  6
CONTINUOUS
 10
-54.1228380887
 20
15.1288553662
 11
-53.9798780451
 21
15.2718154097
  0
LINE
  5
593
100
AcDbEntity
  8
0
100
AcDbLine
 62
7
  6
CONTINUOUS
 10
-54.0777279363
 20
15.089961233
 11
-53.9347676796
 21
15.2329214897
  0
LINE
  5
594
100
AcDbEntity
  8
0
100
AcDbLine
 62
7
  6
CONTINUOUS
 10
-54.0326177839
 20
15.0510670998
 11
-53.889657314
 21
15.1940275697
  0
LINE
  5
595
100
AcDbEntity
  8
0
100
AcDbLine
 62
7
  6
CONTINUOUS
 10
-53.9875076315
 20
15.0121729666
 11
-53.8445469484
 21
15.1551336497
  0
LINE
  5
596
100
AcDbEntity
  8
0
100
AcDbLine
 62
7
  6
CONTINUOUS
 10
-53.9423974791
 20
14.9732788334
 11
-53.7994365828
 21
15.1162397297
  0
LINE
  5
597
100
AcDbEntity
  8
0
100
AcDbLine
 62
7
  6
CONTINUOUS
 10
-53.8972873267
 20
14.9343847001
 11
-53.7543262172
 21
15.0773458097
  0
LINE
  5
598
100
AcDbEntity
  8
0
100
AcDbLine
 62
7
  6
CONTINUOUS
 10
-53.8521771743
 20
14.8954905669
 11
-53.7092158516
 21
15.0384518897
  0
LINE
  5
599
100
AcDbEntity
  8
0
100
AcDbLine
 62
7
  6
CONTINUOUS
 10
-53.8070670219
 20
14.8565964337
 11
-53.664105486
 21
14.9995579697
  0
LINE
  5
59A
100
AcDbEntity
  8
0
100
AcDbLine
 62
7
  6
CONTINUOUS
 10
-53.7619568695
 20
14.8177023005
 11
-53.6189951204
 21
14.9606640496
  0
LINE
  5
59B
100
AcDbEntity
  8
0
100
AcDbLine
 62
7
  6
CONTINUOUS
 10
-53.7168467171
 20
14.7788081673
 11
-53.6048702674
 21
14.890784617
  0
LINE
  5
59C
100
AcDbEntity
  8
0
100
AcDbLine
 62
7
  6
CONTINUOUS
 10
-53.6717365647
 20
14.7399140341
 11
-53.6048702674
 21
14.8067803314
  0
LINE
  5
59D
100
AcDbEntity
  8
0
100
AcDbLine
 62
7
  6
CONTINUOUS
 10
-53.6266264123
 20
14.7010199009
 11
-53.6048702674
 21
14.7227760458
  0
LINE
  5
59E
100
AcDbEntity
  8
0
100
AcDbLine
 62
253
  6
CONTINUOUS
 10
-54.7331764959
 20
0.8282356757
 11
-54.7331764959
 21
1.3904296757
  0
LINE
  5
59F
100
AcDbEntity
  8
0
100
AcDbLine
 62
253
  6
CONTINUOUS
 10
-54.7331764959
 20
3.8034976757
 11
-54.7331834938
 21
3.2972666757
  0
LINE
  5
5A0
100
AcDbEntity
  8
ASSI
100
AcDbLine
 62
7
  6
CONTINUOUS
 10
-54.6121530485
 20
-14.9739201596
 11
-54.6121530485
 21
-13.6195939348
  0
LINE
  5
5A1
100
AcDbEntity
  8
ASSI
100
AcDbLine
 62
7
  6
CONTINUOUS
 10
-54.6121530485
 20
30.9709452861
 11
-54.6121530485
 21
32.3252712759
  0
LINE
  5
5A2
100
AcDbEntity
  8
0
100
AcDbLine
 62
253
  6
CONTINUOUS
 10
-54.1823223298
 20
1.5673586757
 11
-54.1823223298
 21
0.6513136757
  0
LINE
  5
5A3
100
AcDbEntity
  8
0
100
AcDbLine
 62
253
  6
CONTINUOUS
 10
-53.8137900485
 20
24.6956756757
 11
-53.8137900485
 21
22.9767936757
  0
LINE
  5
5A4
100
AcDbEntity
  8
0
100
AcDbLine
 62
253
  6
CONTINUOUS
 10
-53.6121530485
 20
-6.3931923243
 11
-53.6121600464
 21
-5.8131483243
  0
LINE
  5
5A5
100
AcDbEntity
  8
0
100
AcDbLine
 62
253
  6
CONTINUOUS
 10
-53.6121530485
 20
-4.4953383243
 11
-53.6121600464
 21
-3.9153163243
  0
LINE
  5
5A6
100
AcDbEntity
  8
0
100
AcDbLine
 62
253
  6
CONTINUOUS
 10
-53.6121600464
 20
-2.2069113243
 11
-53.612168044
 21
-1.6269043243
  0
LINE
  5
5A7
100
AcDbEntity
  8
0
100
AcDbLine
 62
253
  6
CONTINUOUS
 10
-53.612168044
 20
0.4682006757
 11
-53.6121600464
 21
-0.1118213243
  0
LINE
  5
5A8
100
AcDbEntity
  8
0
100
AcDbLine
 62
253
  6
CONTINUOUS
 10
-53.6121750418
 20
5.0380566757
 11
-53.612168044
 21
4.3847516757
  0
LINE
  5
5A9
100
AcDbEntity
  8
0
100
AcDbLine
 62
253
  6
CONTINUOUS
 10
-53.612168044
 20
3.2972016757
 11
-53.612168044
 21
2.7171726757
  0
LINE
  5
5AA
100
AcDbEntity
  8
0
100
AcDbLine
 62
253
  6
CONTINUOUS
 10
-53.6121600464
 20
-3.3353093243
 11
-53.6121600464
 21
-2.7552873243
  0
LINE
  5
5AB
100
AcDbEntity
  8
0
100
AcDbLine
 62
253
  6
CONTINUOUS
 10
-53.6121600464
 20
-1.0785213243
 11
-53.6121600464
 21
-0.4985003243
  0
LINE
  5
5AC
100
AcDbEntity
  8
0
100
AcDbLine
 62
253
  6
CONTINUOUS
 10
-53.6121530485
 20
22.7751566757
 11
-53.6121530485
 21
24.6956756757
  0
LINE
  5
5AD
100
AcDbEntity
  8
0
100
AcDbLine
 62
253
  6
CONTINUOUS
 10
-53.6121600464
 20
2.3304936757
 11
-53.612168044
 21
1.7504646757
  0
LINE
  5
5AE
100
AcDbEntity
  8
0
100
AcDbLine
 62
253
  6
CONTINUOUS
 10
-53.6048706876
 20
19.5540001903
 11
-53.6048706876
 21
19.7817229026
  0
LINE
  5
5AF
100
AcDbEntity
  8
0
100
AcDbLine
 62
253
  6
CONTINUOUS
 10
-53.6048702674
 20
14.6822616757
 11
-53.6048702674
 21
14.9484856757
  0
LINE
  5
5B0
100
AcDbEntity
  8
0
100
AcDbLine
 62
253
  6
CONTINUOUS
 10
-53.6048702674
 20
17.1944006757
 11
-53.6048702674
 21
17.3960376757
  0
LINE
  5
5B1
100
AcDbEntity
  8
0
100
AcDbLine
 62
253
  6
CONTINUOUS
 10
-53.6048702674
 20
20.3063906757
 11
-53.6048702674
 21
20.5080276757
  0
LINE
  5
5B2
100
AcDbEntity
  8
0
100
AcDbLine
 62
253
  6
CONTINUOUS
 10
-53.6048702674
 20
22.0648856757
 11
-53.6048702674
 21
22.3500066757
  0
LWPOLYLINE
  5
5B3
100
AcDbEntity
  8
0
100
AcDbPolyline
 62
7
  6
CONTINUOUS
 90
3
 70
0
 43
0.3500000006
 10
-41.9192958527
 20
45.1048444061
 10
-41.9907225037
 20
44.8905599213
 10
-42.1335803375
 20
44.6048442535
  0
LINE
  5
5B4
100
AcDbEntity
  8
0
100
AcDbLine
 62
253
  6
CONTINUOUS
 10
-53.612168044
 20
2.7171726757
 11
-56.5114147035
 21
2.7171726757
  0
LINE
  5
5B5
100
AcDbEntity
  8
0
100
AcDbLine
 62
253
  6
CONTINUOUS
 10
-55.9750561209
 20
3.2891976757
 11
-55.2695420764
 21
3.2892046757
  0
LINE
  5
5B6
100
AcDbEntity
  8
0
100
AcDbLine
 62
253
  6
CONTINUOUS
 10
-54.7331834938
 20
3.2972666757
 11
-53.612168044
 21
3.2972016757
  0
LINE
  5
5B7
100
AcDbEntity
  8
RACCORDO
100
AcDbLine
 62
7
  6
CONTINUOUS
 10
-27.4947006421
 20
3.4810098211
 11
-47.046632807
 21
3.5601876999
  0
LINE
  5
5B8
100
AcDbEntity
  8
SUPERFICI
100
AcDbLine
 62
7
  6
CONTINUOUS
 10
-27.4947006421
 20
3.4810098211
 11
-47.046632807
 21
3.5601876999
  0
LINE
  5
5B9
100
AcDbEntity
  8
0
100
AcDbLine
 62
7
  6
CONTINUOUS
 10
-30.4649905162
 20
3.8479539507
 11
-47.0431972588
 21
3.9538625243
  0
LINE
  5
5BA
100
AcDbEntity
  8
SUPERFICI
100
AcDbLine
 62
7
  6
CONTINUOUS
 10
-30.4649905162
 20
3.8479539507
 11
-47.0431972588
 21
3.9538625243
  0
LINE
  5
5BB
100
AcDbEntity
  8
0
100
AcDbLine
 62
7
  6
CONTINUOUS
 10
-26.5121530485
 20
3.8134580608
 11
-30.4649905162
 21
3.8479539507
  0
LINE
  5
5BC
100
AcDbEntity
  8
SUPERFICI
100
AcDbLine
 62
7
  6
CONTINUOUS
 10
-26.5121530485
 20
3.8134580608
 11
-30.4649905162
 21
3.8479539507
  0
LINE
  5
5BD
100
AcDbEntity
  8
0
100
AcDbLine
 62
253
  6
CONTINUOUS
 10
-52.1132191824
 20
22.8899614547
 11
-52.1132191824
 21
22.4828183387
  0
LINE
  5
5BE
100
AcDbEntity
  8
0
100
AcDbLine
 62
253
  6
CONTINUOUS
 10
-52.1132191824
 20
21.3971043442
 11
-52.1132191824
 21
20.8542470072
  0
LINE
  5
5BF
100
AcDbEntity
  8
0
100
AcDbLine
 62
253
  6
CONTINUOUS
 10
-52.1132191824
 20
20.0399613414
 11
-52.1132191824
 21
19.6328185652
  0
LWPOLYLINE
  5
5C0
100
AcDbEntity
  8
0
100
AcDbPolyline
 62
7
  6
CONTINUOUS
 90
2
 70
0
 43
0.3500000006
 10
-51.3237172852
 20
54.8191317902
 10
-51.3237172852
 20
56.3191277161
  0
LINE
  5
5C1
100
AcDbEntity
  8
0
100
AcDbLine
 62
253
  6
CONTINUOUS
 10
-51.2990575363
 20
21.3971043442
 11
-51.2990575363
 21
21.1256756757
  0
LINE
  5
5C2
100
AcDbEntity
  8
0
100
AcDbLine
 62
253
  6
CONTINUOUS
 10
-51.0276702643
 20
19.6328185652
 11
-51.0276702643
 21
20.2209138248
  0
LINE
  5
5C3
100
AcDbEntity
  8
0
100
AcDbLine
 62
253
  6
CONTINUOUS
 10
-50.2135085616
 20
23.1613898967
 11
-50.2135085616
 21
22.2113898967
  0
LINE
  5
5C4
100
AcDbEntity
  8
0
100
AcDbLine
 62
253
  6
CONTINUOUS
 10
-50.2135085616
 20
20.8542470072
 11
-50.2135085616
 21
21.5328185652
  0
LINE
  5
5C5
100
AcDbEntity
  8
ASSI
100
AcDbLine
 62
7
  6
CONTINUOUS
 10
-42.5121530485
 20
6.2256756757
 11
-40.0121530485
 21
6.2256756757
  0
LINE
  5
5C6
100
AcDbEntity
  8
ASSI
100
AcDbLine
 62
7
  6
CONTINUOUS
 10
-37.5121530485
 20
6.2256756757
 11
-35.0121530485
 21
6.2256756757
  0
LINE
  5
5C7
100
AcDbEntity
  8
ASSI
100
AcDbLine
 62
7
  6
CONTINUOUS
 10
-32.5121530485
 20
6.2256756757
 11
-30.0121530485
 21
6.2256756757
  0
LINE
  5
5C8
100
AcDbEntity
  8
ASSI
100
AcDbLine
 62
253
  6
CONTINUOUS
 10
-42.5121530485
 20
6.6256756757
 11
-40.0121530485
 21
6.6256756757
  0
LINE
  5
5C9
100
AcDbEntity
  8
ASSI
100
AcDbLine
 62
253
  6
CONTINUOUS
 10
-37.5121530485
 20
6.6256756757
 11
-35.0121530485
 21
6.6256756757
  0
LINE
  5
5CA
100
AcDbEntity
  8
ASSI
100
AcDbLine
 62
253
  6
CONTINUOUS
 10
-32.5121530485
 20
6.6256756757
 11
-30.0121530485
 21
6.6256756757
  0
LINE
  5
5CB
100
AcDbEntity
  8
ASSI
100
AcDbLine
 62
7
  6
CONTINUOUS
 10
-49.1121530485
 20
-12.5408938145
 11
-49.1121530485
 21
-11.999773675
  0
LINE
  5
5CC
100
AcDbEntity
  8
RACCORDO
100
AcDbLine
 62
7
  6
CONTINUOUS
 10
-49.1121530485
 20
-11.999773675
 11
-49.1121530485
 21
29.3511250264
  0
LINE
  5
5CD
100
AcDbEntity
  8
SUPERFICI
100
AcDbLine
 62
7
  6
CONTINUOUS
 10
-49.1121530485
 20
-11.999773675
 11
-49.1121530485
 21
29.3511250264
  0
LINE
  5
5CE
100
AcDbEntity
  8
ASSI
100
AcDbLine
 62
7
  6
CONTINUOUS
 10
-49.1121530485
 20
29.3511250264
 11
-49.1121530485
 21
29.8922451659
  0
LINE
  5
5CF
100
AcDbEntity
  8
0
100
AcDbLine
 62
7
  6
CONTINUOUS
 10
-26.5121530485
 20
7.3378932906
 11
-30.4649905162
 21
7.3033974006
  0
LINE
  5
5D0
100
AcDbEntity
  8
SUPERFICI
100
AcDbLine
 62
7
  6
CONTINUOUS
 10
-26.5121530485
 20
7.3378932906
 11
-30.4649905162
 21
7.3033974006
  0
LINE
  5
5D1
100
AcDbEntity
  8
0
100
AcDbLine
 62
7
  6
CONTINUOUS
 10
-30.4649905162
 20
7.3033974006
 11
-47.0431972588
 21
7.197488827
  0
LINE
  5
5D2
100
AcDbEntity
  8
SUPERFICI
100
AcDbLine
 62
7
  6
CONTINUOUS
 10
-30.4649905162
 20
7.3033974006
 11
-47.0431972588
 21
7.197488827
  0
LINE
  5
5D3
100
AcDbEntity
  8
RACCORDO
100
AcDbLine
 62
7
  6
CONTINUOUS
 10
-27.4947006421
 20
7.6703415302
 11
-47.046632807
 21
7.5911636514
  0
LINE
  5
5D4
100
AcDbEntity
  8
SUPERFICI
100
AcDbLine
 62
7
  6
CONTINUOUS
 10
-27.4947006421
 20
7.6703415302
 11
-47.046632807
 21
7.5911636514
  0
LINE
  5
5D5
100
AcDbEntity
  8
0
100
AcDbLine
 62
253
  6
CONTINUOUS
 10
-47.046632807
 20
7.5911636514
 11
-47.0431972588
 21
7.197488827
  0
LINE
  5
5D6
100
AcDbEntity
  8
SUPERFICI
100
AcDbLine
 62
253
  6
CONTINUOUS
 10
-47.046632807
 20
7.5911636514
 11
-47.0431972588
 21
7.197488827
  0
LINE
  5
5D7
100
AcDbEntity
  8
0
100
AcDbLine
 62
253
  6
CONTINUOUS
 10
-47.046632807
 20
3.5601876999
 11
-47.0431972588
 21
3.9538625243
  0
LINE
  5
5D8
100
AcDbEntity
  8
SUPERFICI
100
AcDbLine
 62
253
  6
CONTINUOUS
 10
-47.046632807
 20
3.5601876999
 11
-47.0431972588
 21
3.9538625243
  0
LINE
  5
5D9
100
AcDbEntity
  8
0
100
AcDbLine
 62
253
  6
CONTINUOUS
 10
-54.8029072504
 20
4.4206536757
 11
-53.6121750418
 21
5.0380566757
  0
LINE
  5
5DA
100
AcDbEntity
  8
0
100
AcDbLine
 62
253
  6
CONTINUOUS
 10
-53.612168044
 20
4.3847516757
 11
-54.7331764959
 21
3.8034976757
  0
LINE
  5
5DB
100
AcDbEntity
  8
0
100
AcDbLine
 62
253
  6
CONTINUOUS
 10
-41.3172959595
 20
9.1756756757
 11
-40.1121530485
 21
9.1756756757
  0
LINE
  5
5DC
100
AcDbEntity
  8
0
100
AcDbLine
 62
253
  6
CONTINUOUS
 10
-37.8237244412
 20
9.1756756757
 11
-37.2211530485
 21
9.1756756757
  0
LINE
  5
5DD
100
AcDbEntity
  8
0
100
AcDbLine
 62
253
  6
CONTINUOUS
 10
-36.3172959595
 20
9.1756756757
 11
-35.1121530485
 21
9.1756756757
  0
LINE
  5
5DE
100
AcDbEntity
  8
0
100
AcDbLine
 62
253
  6
CONTINUOUS
 10
-37.6730816559
 20
11.0756756757
 11
-37.0705101375
 21
11.0756756757
  0
LINE
  5
5DF
100
AcDbEntity
  8
0
100
AcDbLine
 62
253
  6
CONTINUOUS
 10
-30.8653673522
 20
11.0756756757
 11
-30.1121530485
 21
11.0756756757
  0
LINE
  5
5E0
100
AcDbEntity
  8
0
100
AcDbLine
 62
253
  6
CONTINUOUS
 10
-56.2105430485
 20
17.1944006757
 11
-53.6048680485
 21
14.9484856757
  0
LINE
  5
5E1
100
AcDbEntity
  8
0
100
AcDbLine
 62
253
  6
CONTINUOUS
 10
-56.5123264258
 20
17.1890806757
 11
-53.6048702674
 21
14.6822616757
  0
LINE
  5
5E2
100
AcDbEntity
  8
0
100
AcDbLine
 62
253
  6
CONTINUOUS
 10
-56.209751614
 20
17.1944006757
 11
-53.6048702674
 21
14.9484856757
  0
LINE
  5
5E3
100
AcDbEntity
  8
0
100
AcDbLine
 62
7
  6
CONTINUOUS
 10
-43.7621530485
 20
3.9329018307
 11
-43.7621530485
 21
7.2184495206
  0
LINE
  5
5E4
100
AcDbEntity
  8
0
100
AcDbLine
 62
7
  6
CONTINUOUS
 10
-43.3121530485
 20
3.930027041
 11
-43.3121530485
 21
7.2213243103
  0
LINE
  5
5E5
100
AcDbEntity
  8
0
100
AcDbLine
 62
253
  6
CONTINUOUS
 10
-56.5114147035
 20
1.3993546757
 11
-53.6121600464
 21
2.3304936757
  0
LINE
  5
5E6
100
AcDbEntity
  8
0
100
AcDbLine
 62
253
  6
CONTINUOUS
 10
-54.7331764959
 20
1.3904296757
 11
-55.6084488185
 21
1.1093256757
  0
LINE
  5
5E7
100
AcDbEntity
  8
0
100
AcDbLine
 62
253
  6
CONTINUOUS
 10
-53.612168044
 20
1.7504646757
 11
-54.1823223298
 21
1.5673586757
  0
LINE
  5
5E8
100
AcDbEntity
  8
RACCORDO
100
AcDbLine
 62
253
  6
CONTINUOUS
 10
-26.5121530485
 20
13.3984939452
 11
-27.4947006421
 21
13.3984939452
  0
LINE
  5
5E9
100
AcDbEntity
  8
SUPERFICI
100
AcDbLine
 62
253
  6
CONTINUOUS
 10
-26.5121530485
 20
13.3984939452
 11
-27.4947006421
 21
13.3984939452
  0
LINE
  5
5EA
100
AcDbEntity
  8
0
100
AcDbLine
 62
253
  6
CONTINUOUS
 10
-56.5123264258
 20
22.0683856757
 11
-55.0568498793
 21
20.6124656757
  0
LINE
  5
5EB
100
AcDbEntity
  8
0
100
AcDbLine
 62
253
  6
CONTINUOUS
 10
-55.0568498793
 20
20.8976326757
 11
-56.5123264258
 21
22.3535066757
  0
LINE
  5
5EC
100
AcDbEntity
  8
0
100
AcDbLine
 62
253
  6
CONTINUOUS
 10
-57.4906523501
 20
24.0936496757
 11
-56.7905996417
 21
23.3933826757
  0
LINE
  5
5ED
100
AcDbEntity
  8
0
100
AcDbLine
 62
253
  6
CONTINUOUS
 10
-51.5704447517
 20
18.2756756757
 11
-52.1132191824
 21
18.8185328428
  0
LINE
  5
5EE
100
AcDbEntity
  8
0
100
AcDbLine
 62
253
  6
CONTINUOUS
 10
-56.7905996417
 20
23.6785266757
 11
-57.4906523501
 21
24.3787696757
  0
LINE
  5
5EF
100
AcDbEntity
  8
0
100
AcDbLine
 62
253
  6
CONTINUOUS
 10
-52.1132191824
 20
19.6328185652
 11
-51.8418319671
 21
19.3613900099
  0
LINE
  5
5F0
100
AcDbEntity
  8
0
100
AcDbLine
 62
253
  6
CONTINUOUS
 10
-51.2990575363
 20
21.3971043442
 11
-51.4347510874
 21
21.623294637
  0
LINE
  5
5F1
100
AcDbEntity
  8
ASSI
100
AcDbLine
 62
7
  6
CONTINUOUS
 10
-42.5121530485
 20
6.6256756757
 11
-42.8115763135
 21
7.2245222055
  0
LINE
  5
5F2
100
AcDbEntity
  8
ASSI
100
AcDbLine
 62
7
  6
CONTINUOUS
 10
-42.5121530485
 20
6.6256756757
 11
-42.5121530485
 21
6.2256756757
  0
LINE
  5
5F3
100
AcDbEntity
  8
0
100
AcDbLine
 62
253
  6
CONTINUOUS
 10
-37.9743672265
 20
10.8042470921
 11
-37.6730816559
 21
11.0756756757
  0
LINE
  5
5F4
100
AcDbEntity
  8
0
100
AcDbLine
 62
253
  6
CONTINUOUS
 10
-37.2211530485
 20
9.1756756757
 11
-36.9198673522
 21
9.4471042309
  0
LINE
  5
5F5
100
AcDbEntity
  8
RACCORDO
100
AcDbLine
 62
253
  6
CONTINUOUS
 10
-49.1121530485
 20
13.7758279805
 11
-27.4947006421
 21
13.3984939452
  0
LINE
  5
5F6
100
AcDbEntity
  8
SUPERFICI
100
AcDbLine
 62
253
  6
CONTINUOUS
 10
-49.1121530485
 20
13.7758279805
 11
-27.4947006421
 21
13.3984939452
  0
LINE
  5
5F7
100
AcDbEntity
  8
RACCORDO
100
AcDbLine
 62
7
  6
CONTINUOUS
 10
-49.1121530485
 20
14.7756756757
 11
-27.4947006421
 21
14.3983416403
  0
LINE
  5
5F8
100
AcDbEntity
  8
SUPERFICI
100
AcDbLine
 62
7
  6
CONTINUOUS
 10
-49.1121530485
 20
14.7756756757
 11
-27.4947006421
 21
14.3983416403
  0
LINE
  5
5F9
100
AcDbEntity
  8
0
100
AcDbLine
 62
253
  6
CONTINUOUS
 10
-37.9743672265
 20
9.3113900099
 11
-37.8237244412
 21
9.1756756757
  0
LINE
  5
5FA
100
AcDbEntity
  8
0
100
AcDbLine
 62
253
  6
CONTINUOUS
 10
-50.2135085616
 20
19.6328185652
 11
-50.756283049
 21
20.1756756757
  0
LINE
  5
5FB
100
AcDbEntity
  8
0
100
AcDbLine
 62
253
  6
CONTINUOUS
 10
-40.714724504
 20
9.1756756757
 11
-40.714724504
 21
11.0756756757
  0
LINE
  5
5FC
100
AcDbEntity
  8
ASSI
100
AcDbLine
 62
7
  6
CONTINUOUS
 10
-40.0121530485
 20
6.6256756757
 11
-40.0121530485
 21
6.2256756757
  0
LINE
  5
5FD
100
AcDbEntity
  8
0
100
AcDbLine
 62
7
  6
CONTINUOUS
 10
-39.2121530485
 20
3.9038345126
 11
-39.2121530485
 21
7.2475168388
  0
LINE
  5
5FE
100
AcDbEntity
  8
ASSI
100
AcDbLine
 62
7
  6
CONTINUOUS
 10
-39.7027996958
 20
7.2443823812
 11
-40.0121530485
 21
6.6256756757
  0
LINE
  5
5FF
100
AcDbEntity
  8
0
100
AcDbLine
 62
253
  6
CONTINUOUS
 10
-54.6233139687
 20
-1.9169043243
 11
-56.5114077057
 21
-2.4584723243
  0
LINE
  5
600
100
AcDbEntity
  8
0
100
AcDbLine
 62
253
  6
CONTINUOUS
 10
-55.5240195424
 20
-2.7552873243
 11
-53.6121600464
 21
-2.2069113243
  0
LINE
  5
601
100
AcDbEntity
  8
0
100
AcDbLine
 62
253
  6
CONTINUOUS
 10
-55.126783572
 20
16.4734646757
 11
-54.9252079879
 21
16.4734646757
  0
LINE
  5
602
100
AcDbEntity
  8
0
100
AcDbLine
 62
253
  6
CONTINUOUS
 10
-56.209751614
 20
17.1944006757
 11
-55.126783572
 21
17.1944006757
  0
LINE
  5
603
100
AcDbEntity
  8
0
100
AcDbLine
 62
253
  6
CONTINUOUS
 10
-54.9256080485
 20
17.1944006757
 11
-53.6048680485
 21
17.1944006757
  0
LINE
  5
604
100
AcDbEntity
  8
0
100
AcDbLine
 62
253
  6
CONTINUOUS
 10
-53.6048702674
 20
17.3960376757
 11
-56.5123264258
 21
17.3960376757
  0
LINE
  5
605
100
AcDbEntity
  8
0
100
AcDbLine
 62
253
  6
CONTINUOUS
 10
-56.4968649968
 20
17.8274557298
 11
-56.2952892911
 21
17.8274557298
  0
LINE
  5
606
100
AcDbEntity
  8
0
100
AcDbLine
 62
253
  6
CONTINUOUS
 10
-52.1132191824
 20
22.4828183387
 11
-51.7061383028
 21
22.2113898967
  0
LINE
  5
607
100
AcDbEntity
  8
0
100
AcDbLine
 62
253
  6
CONTINUOUS
 10
-36.9198673522
 20
9.7185327862
 11
-37.9743672265
 21
10.5328185085
  0
LINE
  5
608
100
AcDbEntity
  8
0
100
AcDbLine
 62
253
  6
CONTINUOUS
 10
-37.0705101375
 20
11.0756756757
 11
-36.9198673522
 21
10.9399613839
  0
LINE
  5
609
100
AcDbEntity
  8
0
100
AcDbLine
 62
253
  6
CONTINUOUS
 10
-50.2135085616
 20
21.5328185652
 11
-50.3492021835
 21
21.6685327862
  0
LINE
  5
60A
100
AcDbEntity
  8
0
100
AcDbLine
 62
253
  6
CONTINUOUS
 10
-51.5704447517
 20
23.7042472337
 11
-52.1132191824
 21
24.2471041177
  0
LINE
  5
60B
100
AcDbEntity
  8
ASSI
100
AcDbLine
 62
7
  6
CONTINUOUS
 10
-37.5121530485
 20
6.6256756757
 11
-37.8274965149
 21
7.2563626084
  0
LINE
  5
60C
100
AcDbEntity
  8
0
100
AcDbLine
 62
7
  6
CONTINUOUS
 10
-38.3121530485
 20
3.8980849332
 11
-38.3121530485
 21
7.2532664182
  0
LINE
  5
60D
100
AcDbEntity
  8
0
100
AcDbLine
 62
253
  6
CONTINUOUS
 10
-37.9743672265
 20
10.5328185085
 11
-37.9743672265
 21
10.8042470921
  0
LINE
  5
60E
100
AcDbEntity
  8
ASSI
100
AcDbLine
 62
7
  6
CONTINUOUS
 10
-37.5121530485
 20
6.6256756757
 11
-37.5121530485
 21
6.2256756757
  0
LINE
  5
60F
100
AcDbEntity
  8
0
100
AcDbLine
 62
253
  6
CONTINUOUS
 10
-36.9198673522
 20
9.4471042309
 11
-36.9198673522
 21
9.7185327862
  0
LINE
  5
610
100
AcDbEntity
  8
0
100
AcDbLine
 62
253
  6
CONTINUOUS
 10
-31.4679387449
 20
9.7185327862
 11
-32.0705101375
 21
9.1756756757
  0
LINE
  5
611
100
AcDbEntity
  8
ASSI
100
AcDbLine
 62
7
  6
CONTINUOUS
 10
-60.6121530485
 20
-9.8243243243
 11
-59.1121530485
 21
-8.9582989205
  0
LINE
  5
612
100
AcDbEntity
  8
0
100
AcDbLine
 62
253
  6
CONTINUOUS
 10
-52.1132191824
 20
18.8185328428
 11
-50.2135085616
 21
18.8185328428
  0
LINE
  5
613
100
AcDbEntity
  8
0
100
AcDbLine
 62
253
  6
CONTINUOUS
 10
-51.8418319671
 20
19.3613900099
 11
-51.2990575363
 21
19.3613900099
  0
LINE
  5
614
100
AcDbEntity
  8
0
100
AcDbLine
 62
253
  6
CONTINUOUS
 10
-56.5064642118
 20
20.3063906757
 11
-53.6048702674
 21
20.3063906757
  0
LINE
  5
615
100
AcDbEntity
  8
0
100
AcDbLine
 62
253
  6
CONTINUOUS
 10
-51.2990575363
 20
20.3113898967
 11
-51.8418319671
 21
20.3113898967
  0
LINE
  5
616
100
AcDbEntity
  8
0
100
AcDbLine
 62
253
  6
CONTINUOUS
 10
-53.6048702674
 20
20.5080276757
 11
-56.5064642118
 21
20.5080276757
  0
LINE
  5
617
100
AcDbEntity
  8
0
100
AcDbLine
 62
253
  6
CONTINUOUS
 10
-50.756283049
 20
20.1756756757
 11
-51.2990575363
 21
20.3113898967
  0
LINE
  5
618
100
AcDbEntity
  8
ASSI
100
AcDbLine
 62
7
  6
CONTINUOUS
 10
-59.1121530485
 20
26.3096502719
 11
-60.6121530485
 21
27.1756756757
  0
LINE
  5
619
100
AcDbEntity
  8
0
100
AcDbLine
 62
253
  6
CONTINUOUS
 10
-50.2135085616
 20
22.2113898967
 11
-51.5704447517
 21
23.1613898967
  0
LINE
  5
61A
100
AcDbEntity
  8
0
100
AcDbLine
 62
253
  6
CONTINUOUS
 10
-35.714724504
 20
9.1756756757
 11
-35.714724504
 21
11.0756756757
  0
LINE
  5
61B
100
AcDbEntity
  8
ASSI
100
AcDbLine
 62
7
  6
CONTINUOUS
 10
-35.0121530485
 20
6.6256756757
 11
-35.0121530485
 21
6.2256756757
  0
LINE
  5
61C
100
AcDbEntity
  8
0
100
AcDbLine
 62
7
  6
CONTINUOUS
 10
-34.2121530485
 20
3.8718924047
 11
-34.2121530485
 21
7.2794589466
  0
LINE
  5
61D
100
AcDbEntity
  8
ASSI
100
AcDbLine
 62
7
  6
CONTINUOUS
 10
-34.6867774635
 20
7.2764268458
 11
-35.0121530485
 21
6.6256756757
  0
LINE
  5
61E
100
AcDbEntity
  8
ASSI
100
AcDbLine
 62
7
  6
CONTINUOUS
 10
-62.9871530485
 20
-14.9521555407
 11
-62.1076051184
 21
-14.4443483065
  0
LINE
  5
61F
100
AcDbEntity
  8
ASSI
100
AcDbLine
 62
253
  6
CONTINUOUS
 10
-62.8906435298
 20
-15.1253606214
 11
-61.8665161501
 21
-14.5340804031
  0
LINE
  5
620
100
AcDbEntity
  8
0
100
AcDbLine
 62
253
  6
CONTINUOUS
 10
-54.5151189335
 20
-6.1031633243
 11
-56.5114077057
 21
-6.7442953243
  0
LINE
  5
621
100
AcDbEntity
  8
0
100
AcDbLine
 62
253
  6
CONTINUOUS
 10
-56.5114077057
 20
-7.3243243243
 11
-53.6121530485
 21
-6.3931923243
  0
LINE
  5
622
100
AcDbEntity
  8
0
100
AcDbLine
 62
253
  6
CONTINUOUS
 10
-51.4347510874
 20
21.623294637
 11
-51.8418319671
 21
21.623294637
  0
LINE
  5
623
100
AcDbEntity
  8
0
100
AcDbLine
 62
253
  6
CONTINUOUS
 10
-50.3492021835
 20
21.6685327862
 11
-51.0276702643
 21
21.6685327862
  0
LINE
  5
624
100
AcDbEntity
  8
0
100
AcDbLine
 62
253
  6
CONTINUOUS
 10
-56.508590564
 20
22.7751566757
 11
-53.6121530485
 21
22.7751566757
  0
LINE
  5
625
100
AcDbEntity
  8
ASSI
100
AcDbLine
 62
7
  6
CONTINUOUS
 10
-62.9872262456
 20
32.3035491524
 11
-62.1076051184
 21
31.7956996578
  0
LINE
  5
626
100
AcDbEntity
  8
ASSI
100
AcDbLine
 62
253
  6
CONTINUOUS
 10
-62.8906435298
 20
32.4767119728
 11
-61.8665161501
 21
31.8854317544
  0
LINE
  5
627
100
AcDbEntity
  8
ASSI
100
AcDbLine
 62
7
  6
CONTINUOUS
 10
-32.5121530485
 20
6.6256756757
 11
-32.8434167164
 21
7.2882030114
  0
LINE
  5
628
100
AcDbEntity
  8
0
100
AcDbLine
 62
7
  6
CONTINUOUS
 10
-33.3121530485
 20
3.8661428253
 11
-33.3121530485
 21
7.2852085261
  0
LINE
  5
629
100
AcDbEntity
  8
ASSI
100
AcDbLine
 62
7
  6
CONTINUOUS
 10
-32.5121530485
 20
6.6256756757
 11
-32.5121530485
 21
6.2256756757
  0
LINE
  5
62A
100
AcDbEntity
  8
0
100
AcDbLine
 62
253
  6
CONTINUOUS
 10
-32.0705101375
 20
9.1756756757
 11
-32.0705101375
 21
11.0756756757
  0
LINE
  5
62B
100
AcDbEntity
  8
0
100
AcDbLine
 62
253
  6
CONTINUOUS
 10
-53.8137286326
 20
22.9767936757
 11
-56.3070149799
 21
22.9767936757
  0
LINE
  5
62C
100
AcDbEntity
  8
0
100
AcDbLine
 62
253
  6
CONTINUOUS
 10
-51.5704447517
 20
23.1613898967
 11
-51.8418319671
 21
23.1613898967
  0
LINE
  5
62D
100
AcDbEntity
  8
0
100
AcDbLine
 62
253
  6
CONTINUOUS
 10
-55.1266896006
 20
23.6156896757
 11
-54.9262486708
 21
23.6156896757
  0
LINE
  5
62E
100
AcDbEntity
  8
0
100
AcDbLine
 62
253
  6
CONTINUOUS
 10
-52.1132191824
 20
24.2471041177
 11
-50.2135085616
 21
24.2471041177
  0
LINE
  5
62F
100
AcDbEntity
  8
0
100
AcDbLine
 62
253
  6
CONTINUOUS
 10
-54.9262486708
 20
24.6159766757
 11
-55.1266896006
 21
24.6159766757
  0
LINE
  5
630
100
AcDbEntity
  8
0
100
AcDbLine
 62
253
  6
CONTINUOUS
 10
-56.3070149799
 20
24.6710096757
 11
-56.508590564
 21
24.6710096757
  0
LINE
  5
631
100
AcDbEntity
  8
0
100
AcDbLine
 62
253
  6
CONTINUOUS
 10
-53.6121530485
 20
24.6956756757
 11
-53.8137286326
 21
24.6956756757
  0
LINE
  5
632
100
AcDbEntity
  8
0
100
AcDbLine
 62
253
  6
CONTINUOUS
 10
-30.1121530485
 20
11.0756756757
 11
-30.1121530485
 21
9.1756756757
  0
LINE
  5
633
100
AcDbEntity
  8
ASSI
100
AcDbLine
 62
7
  6
CONTINUOUS
 10
-30.0121530485
 20
6.6256756757
 11
-30.0121530485
 21
6.2256756757
  0
LINE
  5
634
100
AcDbEntity
  8
ASSI
100
AcDbLine
 62
7
  6
CONTINUOUS
 10
-29.6698225231
 20
7.3103367265
 11
-30.0121530485
 21
6.6256756757
  0
LINE
  5
635
100
AcDbEntity
  8
RACCORDO
100
AcDbLine
 62
253
  6
CONTINUOUS
 10
-49.1121530485
 20
26.2750734781
 11
-59.1121530485
 21
26.3473747244
  0
LINE
  5
636
100
AcDbEntity
  8
SUPERFICI
100
AcDbLine
 62
253
  6
CONTINUOUS
 10
-49.1121530485
 20
26.2750734781
 11
-59.1121530485
 21
26.3473747244
  0
LINE
  5
637
100
AcDbEntity
  8
ASSI
100
AcDbLine
 62
7
  6
CONTINUOUS
 10
-59.1121530485
 20
27.2395156783
 11
-59.6121530485
 21
27.2431307406
  0
LINE
  5
638
100
AcDbEntity
  8
0
100
AcDbLine
 62
7
  6
CONTINUOUS
 10
-29.2121530485
 20
3.8370206038
 11
-29.2121530485
 21
7.3143307475
  0
LINE
  5
639
100
AcDbEntity
  8
0
100
AcDbLine
 62
7
  6
CONTINUOUS
 10
-28.7621530485
 20
3.8330935133
 11
-28.7621530485
 21
7.3182578381
  0
LINE
  5
63A
100
AcDbEntity
  8
0
100
AcDbLine
 62
7
  6
CONTINUOUS
 10
-27.9121530485
 20
3.8256756757
 11
-27.9121530485
 21
7.3256756757
  0
LINE
  5
63B
100
AcDbEntity
  8
SUPERFICI
100
AcDbLine
 62
7
  6
CONTINUOUS
 10
-27.9121530485
 20
3.8256756757
 11
-27.9121530485
 21
7.3256756757
  0
LINE
  5
63C
100
AcDbEntity
  8
RACCORDO
100
AcDbLine
 62
253
  6
CONTINUOUS
 10
-27.4947006421
 20
13.3984939452
 11
-27.4947006421
 21
7.6703415302
  0
LINE
  5
63D
100
AcDbEntity
  8
SUPERFICI
100
AcDbLine
 62
253
  6
CONTINUOUS
 10
-27.4947006421
 20
13.3984939452
 11
-27.4947006421
 21
7.6703415302
  0
LINE
  5
63E
100
AcDbEntity
  8
RACCORDO
100
AcDbLine
 62
253
  6
CONTINUOUS
 10
-27.4947006421
 20
3.4810098211
 11
-27.4947006421
 21
-9.4471425938
  0
LINE
  5
63F
100
AcDbEntity
  8
SUPERFICI
100
AcDbLine
 62
253
  6
CONTINUOUS
 10
-27.4947006421
 20
3.4810098211
 11
-27.4947006421
 21
-9.4471425938
  0
LINE
  5
640
100
AcDbEntity
  8
ASSI
100
AcDbLine
 62
7
  6
CONTINUOUS
 10
-49.1121530485
 20
29.6629443536
 11
-59.6121530485
 21
29.5713122418
  0
LINE
  5
641
100
AcDbEntity
  8
RACCORDO
100
AcDbLine
 62
253
  6
CONTINUOUS
 10
-49.1121530485
 20
27.6890716489
 11
-59.1121530485
 21
27.7613728952
  0
LINE
  5
642
100
AcDbEntity
  8
SUPERFICI
100
AcDbLine
 62
253
  6
CONTINUOUS
 10
-49.1121530485
 20
27.6890716489
 11
-59.1121530485
 21
27.7613728952
  0
LINE
  5
643
100
AcDbEntity
  8
ASSI
100
AcDbLine
 62
7
  6
CONTINUOUS
 10
-59.6121530485
 20
27.9256756757
 11
-59.1121530485
 21
27.9169481432
  0
LINE
  5
644
100
AcDbEntity
  8
DRAFT
100
AcDbLine
 62
7
  6
CONTINUOUS
 10
-59.1121530485
 20
29.5256756757
 11
-49.1121530485
 21
29.3511250264
  0
LINE
  5
645
100
AcDbEntity
  8
SUPERFICI
100
AcDbLine
 62
7
  6
CONTINUOUS
 10
-59.1121530485
 20
29.5256756757
 11
-49.1121530485
 21
29.3511250264
  0
LINE
  5
646
100
AcDbEntity
  8
ASSI
100
AcDbLine
 62
253
  6
CONTINUOUS
 10
-68.4316416791
 20
29.5315010347
 11
-68.9169694907
 21
29.5529431929
  0
LINE
  5
647
100
AcDbEntity
  8
RACCORDO
100
AcDbLine
 62
7
  6
CONTINUOUS
 10
-26.5121530485
 20
13.3984939452
 11
-26.5121530485
 21
7.3378932906
  0
LINE
  5
648
100
AcDbEntity
  8
RACCORDO
100
AcDbLine
 62
7
  6
CONTINUOUS
 10
-26.5121530485
 20
-9.4471425938
 11
-26.5121530485
 21
3.8134580608
  0
LINE
  5
649
100
AcDbEntity
  8
0
100
AcDbLine
 62
7
  6
CONTINUOUS
 10
-26.5121530485
 20
3.8134580608
 11
-26.5121530485
 21
7.3378932906
  0
LINE
  5
64A
100
AcDbEntity
  8
SUPERFICI
100
AcDbLine
 62
7
  6
CONTINUOUS
 10
-26.5121530485
 20
-9.4471425938
 11
-26.5121530485
 21
13.3984939452
  0
LINE
  5
64B
100
AcDbEntity
  8
ASSI
100
AcDbLine
 62
253
  6
CONTINUOUS
 10
-60.6121530485
 20
30.5756754405
 11
-67.7661499266
 21
30.2007503512
  0
LINE
  5
64C
100
AcDbEntity
  8
ASSI
100
AcDbLine
 62
7
  6
CONTINUOUS
 10
-68.1317684262
 20
30.6815893327
 11
-61.9399033332
 21
31.0060912318
  0
LINE
  5
64D
100
AcDbEntity
  8
ASSI
100
AcDbLine
 62
7
  6
CONTINUOUS
 10
-60.6121581565
 20
31.075675408
 11
-60.8212005867
 21
31.0647199584
  0
LINE
  5
64E
100
AcDbEntity
  8
ASSI
100
AcDbLine
 62
7
  6
CONTINUOUS
 10
-49.1418974123
 20
30.1343277972
 11
-59.6121530485
 21
30.0807890858
  0
LINE
  5
64F
100
AcDbEntity
  8
ASSI
100
AcDbLine
 62
253
  6
CONTINUOUS
 10
-59.6121530485
 20
30.5582967632
 11
-60.6121530485
 21
30.5757518281
  0
LINE
  5
650
100
AcDbEntity
  8
ASSI
100
AcDbLine
 62
7
  6
CONTINUOUS
 10
-50.0947006421
 20
30.892092861
 11
-60.6121493488
 21
31.0756756111
  0
LINE
  5
651
100
AcDbEntity
  8
ASSI
100
AcDbLine
 62
253
  6
CONTINUOUS
 10
-54.9835832683
 20
32.3274667009
 11
-59.6121530485
 21
32.408258687
  0
LWPOLYLINE
  5
652
100
AcDbEntity
  8
0
100
AcDbPolyline
 62
7
  6
CONTINUOUS
 90
10
 70
0
 43
0.3500000006
 10
-47.1808627625
 20
55.3191319427
 10
-47.1094315796
 20
55.1762741089
 10
-47.1094315796
 20
55.1048474579
 10
-47.2522894135
 20
54.961989624
 10
-47.3237160645
 20
54.961989624
 10
-47.3951472473
 20
55.033416275
 10
-47.3951472473
 20
55.1048474579
 10
-47.3237160645
 20
55.2477052917
 10
-47.2522894135
 20
55.3191319427
 10
-47.1808627625
 20
55.3191319427
  0
LWPOLYLINE
  5
653
100
AcDbEntity
  8
0
100
AcDbPolyline
 62
7
  6
CONTINUOUS
 90
10
 70
0
 43
0.3500000006
 10
-41.9907225037
 20
45.3191334229
 10
-41.9192958527
 20
45.176275589
 10
-41.9192958527
 20
45.1048444061
 10
-42.0621536865
 20
44.9619911041
 10
-42.1335803375
 20
44.9619911041
 10
-42.2050115204
 20
45.0334177551
 10
-42.2050115204
 20
45.1048444061
 10
-42.1335803375
 20
45.24770224
 10
-42.0621536865
 20
45.3191334229
 10
-41.9907225037
 20
45.3191334229
  0
LINE
  5
654
100
AcDbEntity
  8
ASSI
100
AcDbLine
 62
253
  6
CONTINUOUS
 10
-60.6121530485
 20
32.9757061366
 11
-62.8665161501
 21
32.9363560823
  0
LINE
  5
655
100
AcDbEntity
  8
ASSI
100
AcDbLine
 62
7
  6
CONTINUOUS
 10
-60.6121530485
 20
33.1756756757
 11
-62.8665161501
 21
33.1363256214
  0
LINE
  5
656
100
AcDbEntity
  8
ASSI
100
AcDbLine
 62
253
  6
CONTINUOUS
 10
-59.8086625672
 20
32.520013243
 11
-59.6121530485
 21
32.520013243
  0
LINE
  5
657
100
AcDbEntity
  8
ASSI
100
AcDbLine
 62
253
  6
CONTINUOUS
 10
-62.9156435298
 20
32.520013243
 11
-63.1121530485
 21
32.5200132429
  0
LINE
  5
658
100
AcDbEntity
  8
ASSI
100
AcDbLine
 62
253
  6
CONTINUOUS
 10
-62.9156435298
 20
32.8863636976
 11
-63.1121530485
 21
32.8863636976
  0
LINE
  5
659
100
AcDbEntity
  8
ASSI
100
AcDbLine
 62
253
  6
CONTINUOUS
 10
-59.8086625672
 20
32.912546295
 11
-59.6121530485
 21
32.912546295
  0
LINE
  5
65A
100
AcDbEntity
  8
ASSI
100
AcDbLine
 62
7
  6
CONTINUOUS
 10
-54.8577938353
 20
32.575232962
 11
-59.6121530485
 21
32.6582206107
  0
LINE
  5
65B
100
AcDbEntity
  8
ASSI
100
AcDbLine
 62
253
  6
CONTINUOUS
 10
-59.8577899469
 20
32.9625386797
 11
-60.6121530485
 21
32.9757061366
  0
LINE
  5
65C
100
AcDbEntity
  8
ASSI
100
AcDbLine
 62
7
  6
CONTINUOUS
 10
-59.8577899469
 20
33.1625082188
 11
-60.6121530485
 21
33.1756756757
  0
LWPOLYLINE
  5
65D
100
AcDbEntity
  8
0
100
AcDbPolyline
 62
7
  6
CONTINUOUS
 90
6
 70
0
 43
0.3500000006
 10
-46.9192973785
 20
44.8191332703
 10
-45.8478658905
 20
44.8191332703
 10
-45.6335814056
 20
45.0334177551
 10
-45.6335814056
 20
46.1048447113
 10
-46.0621549072
 20
46.5334182129
 10
-46.490723877
 20
46.5334182129
  0
LWPOLYLINE
  5
65E
100
AcDbEntity
  8
0
100
AcDbPolyline
 62
7
  6
CONTINUOUS
 90
6
 70
0
 43
0.3500000006
 10
-44.7764389343
 20
44.8191332703
 10
-43.7050119781
 20
44.8191332703
 10
-43.4907229614
 20
45.0334177551
 10
-43.4907229614
 20
46.1048447113
 10
-43.919296463
 20
46.5334182129
 10
-44.3478654327
 20
46.5334182129
  0
LWPOLYLINE
  5
65F
100
AcDbEntity
  8
0
100
AcDbPolyline
 62
7
  6
CONTINUOUS
 90
6
 70
0
 43
0.3500000006
 10
-49.9665746613
 20
54.8191317902
 10
-48.8951477051
 20
54.8191317902
 10
-48.6808632202
 20
55.033416275
 10
-48.6808632202
 20
56.1048432312
 10
-49.1094321899
 20
56.5334212646
 10
-49.5380056915
 20
56.5334212646
  0
LWPOLYLINE
  5
660
100
AcDbEntity
  8
0
100
AcDbPolyline
 62
7
  6
CONTINUOUS
 90
6
 70
0
 43
0.3500000006
 10
-46.1094312744
 20
54.8191317902
 10
-45.0380043182
 20
54.8191317902
 10
-44.8237198334
 20
55.033416275
 10
-44.8237198334
 20
56.1048432312
 10
-45.2522888031
 20
56.5334212646
 10
-45.6808623047
 20
56.5334212646
  0
LWPOLYLINE
  5
661
100
AcDbEntity
  8
0
100
AcDbPolyline
 62
7
  6
CONTINUOUS
 90
3
 70
0
 43
0.3500000006
 10
-50.8237171326
 20
55.4619897766
 10
-52.3237175903
 20
55.4619897766
 10
-51.6808596039
 20
57.8191281738
  0
ARC
  5
662
100
AcDbEntity
  8
ASSI
100
AcDbCircle
 62
253
  6
CONTINUOUS
 10
-18494.8223467704
 20
8.675675825
 40
18482.7039468794
100
AcDbArc
 50
359.9353476073
 51
0.0646523918
  0
ARC
  5
663
100
AcDbEntity
  8
ASSI
100
AcDbCircle
 62
253
  6
CONTINUOUS
 10
-1.2349264458
 20
-7669.6890009754
 40
7657.4945109015
100
AcDbArc
 50
89.9219676864
 51
90.0780323254
  0
ARC
  5
664
100
AcDbEntity
  8
ASSI
100
AcDbCircle
 62
253
  6
CONTINUOUS
 10
-1.2349269318
 20
-2947.1766933105
 40
2933.8464582752
100
AcDbArc
 50
89.7966448225
 51
90.2033551894
  0
ARC
  5
665
100
AcDbEntity
  8
ASSI
100
AcDbCircle
 62
253
  6
CONTINUOUS
 10
-46.4712740791
 20
-15.1307027513
 40
34.8765446134
100
AcDbArc
 50
359.9376434835
 51
0.2933216697
  0
ARC
  5
666
100
AcDbEntity
  8
ASSI
100
AcDbCircle
 62
253
  6
CONTINUOUS
 10
-28.6712740768
 20
-15.1307027513
 40
34.8765446111
100
AcDbArc
 50
359.9376434835
 51
0.2933216697
  0
ARC
  5
667
100
AcDbEntity
  8
ASSI
100
AcDbCircle
 62
253
  6
CONTINUOUS
 10
-11.6472003312
 20
-12.8482844088
 40
0.5004157458
100
AcDbArc
 50
180.1276222189
 51
269.9353983487
  0
ARC
  5
668
100
AcDbEntity
  8
ASSI
100
AcDbCircle
 62
7
  6
CONTINUOUS
 10
-5.2349272349
 20
-14.5243243243
 40
0.5
100
AcDbArc
 50
154.1580672368
 51
205.8419327632
  0
ARC
  5
669
100
AcDbEntity
  8
ASSI
100
AcDbCircle
 62
7
  6
CONTINUOUS
 10
-11.8350859476
 20
-13.2244922097
 40
0.4998378818
100
AcDbArc
 50
179.9894848451
 51
270.0181858364
  0
ARC
  5
66A
100
AcDbEntity
  8
ASSI
100
AcDbCircle
 62
253
  6
CONTINUOUS
 10
-5.429595908
 20
-15.0689929974
 40
0.2500338912
100
AcDbArc
 50
180.016489117
 51
269.983510883
  0
ARC
  5
66B
100
AcDbEntity
  8
ASSI
100
AcDbCircle
 62
253
  6
CONTINUOUS
 10
-2.2902583078
 20
-15.0689932515
 40
0.2500336371
100
AcDbArc
 50
270.016430911
 51
359.983569089
  0
ARC
  5
66C
100
AcDbEntity
  8
ASSI
100
AcDbCircle
 62
7
  6
CONTINUOUS
 10
-2.2848876589
 20
-15.0743639004
 40
0.2499612619
100
AcDbArc
 50
269.9996562036
 51
0.0003437964
  0
ARC
  5
66D
100
AcDbEntity
  8
ASSI
100
AcDbCircle
 62
7
  6
CONTINUOUS
 10
-5.434966811
 20
-15.0743639004
 40
0.2499612619
100
AcDbArc
 50
179.9996562077
 51
270.0003437923
  0
ARC
  5
66E
100
AcDbEntity
  8
ASSI
100
AcDbCircle
 62
253
  6
CONTINUOUS
 10
-11.5955344681
 20
-15.5849315575
 40
0.2000430909
100
AcDbArc
 50
180.020958193
 51
269.979041807
  0
ARC
  5
66F
100
AcDbEntity
  8
ASSI
100
AcDbCircle
 62
253
  6
CONTINUOUS
 10
-8.6743200018
 20
-15.5849315575
 40
0.2000430909
100
AcDbArc
 50
270.0209581897
 51
359.9790418103
  0
ARC
  5
670
100
AcDbEntity
  8
ASSI
100
AcDbCircle
 62
7
  6
CONTINUOUS
 10
-11.6349698935
 20
-15.6243669829
 40
0.1999569277
100
AcDbArc
 50
179.9965049109
 51
270.0034950891
  0
ARC
  5
671
100
AcDbEntity
  8
ASSI
100
AcDbCircle
 62
7
  6
CONTINUOUS
 10
-8.6348845331
 20
-15.6243670261
 40
0.1999569277
100
AcDbArc
 50
269.9964925066
 51
0.0035074934
  0
ARC
  5
672
100
AcDbEntity
  8
ASSI
100
AcDbCircle
 62
253
  6
CONTINUOUS
 10
-5.4296703585
 20
-15.0690674479
 40
0.0499898914
100
AcDbArc
 50
179.9971421991
 51
270.0028578008
  0
ARC
  5
673
100
AcDbEntity
  8
ASSI
100
AcDbCircle
 62
253
  6
CONTINUOUS
 10
-2.290184018
 20
-15.0690675412
 40
0.0499897981
100
AcDbArc
 50
269.9970352096
 51
0.0029647904
  0
ARC
  5
674
100
AcDbEntity
  8
ASSI
100
AcDbCircle
 62
253
  6
CONTINUOUS
 10
-1.2349280197
 20
7687.0447321818
 40
7657.4988907556
100
AcDbArc
 50
269.921967731
 51
270.0780322807
  0
ARC
  5
675
100
AcDbEntity
  8
ASSI
100
AcDbCircle
 62
253
  6
CONTINUOUS
 10
-1.2349275369
 20
2964.528040683
 40
2933.8464542963
100
AcDbArc
 50
269.7966448222
 51
270.2033551896
  0
ARC
  5
676
100
AcDbEntity
  8
ASSI
100
AcDbCircle
 62
253
  6
CONTINUOUS
 10
-46.4686553104
 20
32.4820533307
 40
34.8739258838
100
AcDbArc
 50
359.7067270348
 51
0.0623987992
  0
ARC
  5
677
100
AcDbEntity
  8
ASSI
100
AcDbCircle
 62
253
  6
CONTINUOUS
 10
-11.6472003309
 20
30.1996357587
 40
0.5004157457
100
AcDbArc
 50
90.0646016103
 51
179.8723777505
  0
ARC
  5
678
100
AcDbEntity
  8
ASSI
100
AcDbCircle
 62
7
  6
CONTINUOUS
 10
-5.2349272349
 20
31.8756756757
 40
0.5
100
AcDbArc
 50
154.1580672368
 51
205.8419327632
  0
ARC
  5
679
100
AcDbEntity
  8
ASSI
100
AcDbCircle
 62
7
  6
CONTINUOUS
 10
-11.8350868322
 20
30.5758438953
 40
0.4998372685
100
AcDbArc
 50
89.9817053313
 51
180.0193096591
  0
ARC
  5
67A
100
AcDbEntity
  8
ASSI
100
AcDbCircle
 62
253
  6
CONTINUOUS
 10
-2.2902582995
 20
32.4203446111
 40
0.2500336288
100
AcDbArc
 50
0.0164290027
 51
89.9835709973
  0
ARC
  5
67B
100
AcDbEntity
  8
ASSI
100
AcDbCircle
 62
253
  6
CONTINUOUS
 10
-5.4295962512
 20
32.420344692
 40
0.2500335479
100
AcDbArc
 50
90.0170730915
 51
179.9835895316
  0
ARC
  5
67C
100
AcDbEntity
  8
ASSI
100
AcDbCircle
 62
7
  6
CONTINUOUS
 10
-2.2848947074
 20
32.4257082032
 40
0.2499699324
100
AcDbArc
 50
0.0012718308
 51
89.9987281692
  0
ARC
  5
67D
100
AcDbEntity
  8
ASSI
100
AcDbCircle
 62
7
  6
CONTINUOUS
 10
-5.4349597625
 20
32.4257082032
 40
0.2499699324
100
AcDbArc
 50
90.0012718308
 51
179.9987281692
  0
ARC
  5
67E
100
AcDbEntity
  8
ASSI
100
AcDbCircle
 62
253
  6
CONTINUOUS
 10
-11.5955344681
 20
32.9362829088
 40
0.2000430909
100
AcDbArc
 50
90.0209581928
 51
179.9790418072
  0
ARC
  5
67F
100
AcDbEntity
  8
ASSI
100
AcDbCircle
 62
253
  6
CONTINUOUS
 10
-8.6743199527
 20
32.9362829579
 40
0.2000430909
100
AcDbArc
 50
0.020944126
 51
89.979055874
  0
ARC
  5
680
100
AcDbEntity
  8
ASSI
100
AcDbCircle
 62
7
  6
CONTINUOUS
 10
-11.6349698935
 20
32.9757183342
 40
0.1999569277
100
AcDbArc
 50
89.9965049109
 51
180.0034950891
  0
ARC
  5
681
100
AcDbEntity
  8
ASSI
100
AcDbCircle
 62
7
  6
CONTINUOUS
 10
-8.6348845331
 20
32.9757183775
 40
0.1999569277
100
AcDbArc
 50
359.9964925066
 51
90.0035074934
  0
ARC
  5
682
100
AcDbEntity
  8
ASSI
100
AcDbCircle
 62
253
  6
CONTINUOUS
 10
-2.2901840856
 20
32.420418825
 40
0.0499898656
100
AcDbArc
 50
359.9971126105
 51
90.0028873895
  0
ARC
  5
683
100
AcDbEntity
  8
ASSI
100
AcDbCircle
 62
253
  6
CONTINUOUS
 10
-5.4296704218
 20
32.4204188625
 40
0.0499898281
100
AcDbArc
 50
89.9970696677
 51
180.0029303323
  0
ARC
  5
684
100
AcDbEntity
  8
ASSI
100
AcDbCircle
 62
253
  6
CONTINUOUS
 10
18492.3530652542
 20
8.6756755254
 40
18482.7045198327
100
AcDbArc
 50
179.9353476093
 51
180.0646523897
  0
ARC
  5
685
100
AcDbEntity
  8
ASSI
100
AcDbCircle
 62
253
  6
CONTINUOUS
 10
9.1773458638
 20
-12.8482844046
 40
0.5004157457
100
AcDbArc
 50
270.064601301
 51
359.8723774375
  0
ARC
  5
686
100
AcDbEntity
  8
ASSI
100
AcDbCircle
 62
7
  6
CONTINUOUS
 10
2.7650727651
 20
-14.5243243243
 40
0.5
100
AcDbArc
 50
334.1580672368
 51
25.8419327632
  0
ARC
  5
687
100
AcDbEntity
  8
ASSI
100
AcDbCircle
 62
7
  6
CONTINUOUS
 10
9.3652323615
 20
-13.2244925449
 40
0.4998372685
100
AcDbArc
 50
269.9817054314
 51
0.0193097597
  0
ARC
  5
688
100
AcDbEntity
  8
ASSI
100
AcDbCircle
 62
253
  6
CONTINUOUS
 10
-0.179595908
 20
-15.0689929974
 40
0.2500338912
100
AcDbArc
 50
180.016489117
 51
269.983510883
  0
ARC
  5
689
100
AcDbEntity
  8
ASSI
100
AcDbCircle
 62
253
  6
CONTINUOUS
 10
2.9597416922
 20
-15.0689932515
 40
0.2500336371
100
AcDbArc
 50
270.016430911
 51
359.983569089
  0
ARC
  5
68A
100
AcDbEntity
  8
ASSI
100
AcDbCircle
 62
7
  6
CONTINUOUS
 10
2.9651052926
 20
-15.0743568519
 40
0.2499699324
100
AcDbArc
 50
270.0012718308
 51
359.9987281692
  0
ARC
  5
68B
100
AcDbEntity
  8
ASSI
100
AcDbCircle
 62
7
  6
CONTINUOUS
 10
-0.184966811
 20
-15.0743639004
 40
0.2499612619
100
AcDbArc
 50
179.9996562028
 51
270.0003437972
  0
ARC
  5
68C
100
AcDbEntity
  8
ASSI
100
AcDbCircle
 62
253
  6
CONTINUOUS
 10
6.2044655319
 20
-15.5849315575
 40
0.2000430909
100
AcDbArc
 50
180.020958193
 51
269.979041807
  0
ARC
  5
68D
100
AcDbEntity
  8
ASSI
100
AcDbCircle
 62
253
  6
CONTINUOUS
 10
9.1256799982
 20
-15.5849315575
 40
0.2000430909
100
AcDbArc
 50
270.0209581897
 51
359.9790418103
  0
ARC
  5
68E
100
AcDbEntity
  8
ASSI
100
AcDbCircle
 62
7
  6
CONTINUOUS
 10
6.1650301065
 20
-15.6243669829
 40
0.1999569277
100
AcDbArc
 50
179.9965049109
 51
270.0034950891
  0
ARC
  5
68F
100
AcDbEntity
  8
ASSI
100
AcDbCircle
 62
7
  6
CONTINUOUS
 10
9.1651154669
 20
-15.6243670261
 40
0.1999569277
100
AcDbArc
 50
269.9964925066
 51
0.0035074934
  0
ARC
  5
690
100
AcDbEntity
  8
ASSI
100
AcDbCircle
 62
253
  6
CONTINUOUS
 10
-0.1796703585
 20
-15.0690674479
 40
0.0499898914
100
AcDbArc
 50
179.9971421991
 51
270.0028578008
  0
ARC
  5
691
100
AcDbEntity
  8
ASSI
100
AcDbCircle
 62
253
  6
CONTINUOUS
 10
2.959815982
 20
-15.0690675412
 40
0.0499897981
100
AcDbArc
 50
269.9970352096
 51
0.0029647904
  0
ARC
  5
692
100
AcDbEntity
  8
ASSI
100
AcDbCircle
 62
253
  6
CONTINUOUS
 10
26.1861194328
 20
32.4820236343
 40
34.861244482
100
AcDbArc
 50
179.9375626227
 51
180.2933989949
  0
ARC
  5
693
100
AcDbEntity
  8
ASSI
100
AcDbCircle
 62
253
  6
CONTINUOUS
 10
9.1773458641
 20
30.1996357575
 40
0.5004157457
100
AcDbArc
 50
0.1276225288
 51
89.9353986611
  0
ARC
  5
694
100
AcDbEntity
  8
ASSI
100
AcDbCircle
 62
7
  6
CONTINUOUS
 10
2.7650727651
 20
31.8756756757
 40
0.5
100
AcDbArc
 50
334.1580672368
 51
25.8419327632
  0
ARC
  5
695
100
AcDbEntity
  8
ASSI
100
AcDbCircle
 62
7
  6
CONTINUOUS
 10
9.3652314802
 20
30.5758435584
 40
0.4998378819
100
AcDbArc
 50
359.9894851435
 51
90.0181861196
  0
ARC
  5
696
100
AcDbEntity
  8
ASSI
100
AcDbCircle
 62
253
  6
CONTINUOUS
 10
2.9597414381
 20
32.4203443487
 40
0.2500338912
100
AcDbArc
 50
0.016489117
 51
89.983510883
  0
ARC
  5
697
100
AcDbEntity
  8
ASSI
100
AcDbCircle
 62
253
  6
CONTINUOUS
 10
-0.1795961621
 20
32.4203446028
 40
0.2500336371
100
AcDbArc
 50
90.016430911
 51
179.983569089
  0
ARC
  5
698
100
AcDbEntity
  8
ASSI
100
AcDbCircle
 62
7
  6
CONTINUOUS
 10
-0.1849597625
 20
32.4257082032
 40
0.2499699324
100
AcDbArc
 50
90.0012718308
 51
179.9987281692
  0
ARC
  5
699
100
AcDbEntity
  8
ASSI
100
AcDbCircle
 62
7
  6
CONTINUOUS
 10
2.9651052926
 20
32.4257082032
 40
0.2499699324
100
AcDbArc
 50
0.0012718308
 51
89.9987281692
  0
ARC
  5
69A
100
AcDbEntity
  8
ASSI
100
AcDbCircle
 62
253
  6
CONTINUOUS
 10
6.2044654828
 20
32.936282958
 40
0.2000430909
100
AcDbArc
 50
90.0209441219
 51
179.9790558781
  0
ARC
  5
69B
100
AcDbEntity
  8
ASSI
100
AcDbCircle
 62
253
  6
CONTINUOUS
 10
9.1256800473
 20
32.9362829579
 40
0.2000430909
100
AcDbArc
 50
0.020944127
 51
89.979055873
  0
ARC
  5
69C
100
AcDbEntity
  8
ASSI
100
AcDbCircle
 62
7
  6
CONTINUOUS
 10
6.1650301065
 20
32.9757183342
 40
0.1999569277
100
AcDbArc
 50
89.9965049109
 51
180.0034950891
  0
ARC
  5
69D
100
AcDbEntity
  8
ASSI
100
AcDbCircle
 62
7
  6
CONTINUOUS
 10
9.1651154669
 20
32.9757183775
 40
0.1999569277
100
AcDbArc
 50
359.9964925066
 51
90.0035074934
  0
ARC
  5
69E
100
AcDbEntity
  8
ASSI
100
AcDbCircle
 62
253
  6
CONTINUOUS
 10
2.9598158886
 20
32.4204187992
 40
0.0499898914
100
AcDbArc
 50
359.9971421991
 51
90.0028578009
  0
ARC
  5
69F
100
AcDbEntity
  8
ASSI
100
AcDbCircle
 62
253
  6
CONTINUOUS
 10
-0.1796704518
 20
32.4204188926
 40
0.0499897981
100
AcDbArc
 50
89.9970352096
 51
180.0029647904
  0
ARC
  5
6A0
100
AcDbEntity
  8
0
100
AcDbCircle
 62
7
  6
CONTINUOUS
 10
-41.2621530485
 20
5.8256756757
 40
1.75
100
AcDbArc
 50
0.0
 51
37.6855336254
  0
ARC
  5
6A1
100
AcDbEntity
  8
ASSI
100
AcDbCircle
 62
7
  6
CONTINUOUS
 10
-41.2621530485
 20
5.8256756757
 40
1.75
100
AcDbArc
 50
180.0
 51
360.0
  0
ARC
  5
6A2
100
AcDbEntity
  8
0
100
AcDbCircle
 62
7
  6
CONTINUOUS
 10
-41.2621530485
 20
5.8256756757
 40
1.75
100
AcDbArc
 50
142.3144663746
 51
180.0
  0
ARC
  5
6A3
100
AcDbEntity
  8
0
100
AcDbCircle
 62
7
  6
CONTINUOUS
 10
-36.2621530485
 20
5.8256756757
 40
1.75
100
AcDbArc
 50
0.0
 51
37.6855336254
  0
ARC
  5
6A4
100
AcDbEntity
  8
ASSI
100
AcDbCircle
 62
7
  6
CONTINUOUS
 10
-36.2621530485
 20
5.8256756757
 40
1.75
100
AcDbArc
 50
180.0
 51
360.0
  0
ARC
  5
6A5
100
AcDbEntity
  8
0
100
AcDbCircle
 62
7
  6
CONTINUOUS
 10
-36.2621530485
 20
5.8256756757
 40
1.75
100
AcDbArc
 50
142.3144663746
 51
180.0
  0
ARC
  5
6A6
100
AcDbEntity
  8
0
100
AcDbCircle
 62
7
  6
CONTINUOUS
 10
-31.2621530485
 20
5.8256756757
 40
1.75
100
AcDbArc
 50
0.0
 51
37.6855336254
  0
ARC
  5
6A7
100
AcDbEntity
  8
ASSI
100
AcDbCircle
 62
7
  6
CONTINUOUS
 10
-31.2621530485
 20
5.8256756757
 40
1.75
100
AcDbArc
 50
180.0
 51
360.0
  0
ARC
  5
6A8
100
AcDbEntity
  8
0
100
AcDbCircle
 62
7
  6
CONTINUOUS
 10
-31.2621530485
 20
5.8256756757
 40
1.75
100
AcDbArc
 50
142.3144663746
 51
180.0
  0
ARC
  5
6A9
100
AcDbEntity
  8
ASSI
100
AcDbCircle
 62
7
  6
CONTINUOUS
 10
-68.0689615019
 20
-12.1318827375
 40
1.2
100
AcDbArc
 50
182.9907948827
 51
267.0
  0
ARC
  5
6AA
100
AcDbEntity
  8
ASSI
100
AcDbCircle
 62
7
  6
CONTINUOUS
 10
-50.1121530485
 20
-12.5408938145
 40
1.0
100
AcDbArc
 50
271.0
 51
360.0
  0
ARC
  5
6AB
100
AcDbEntity
  8
RACCORDO
100
AcDbCircle
 62
7
  6
CONTINUOUS
 10
-27.5121530485
 20
-9.4471425938
 40
1.0
100
AcDbArc
 50
271.0
 51
360.0
  0
ARC
  5
6AC
100
AcDbEntity
  8
SUPERFICI
100
AcDbCircle
 62
7
  6
CONTINUOUS
 10
-27.5121530485
 20
-9.4471425938
 40
1.0
100
AcDbArc
 50
271.0
 51
360.0
  0
ARC
  5
6AD
100
AcDbEntity
  8
0
100
AcDbCircle
 62
253
  6
CONTINUOUS
 10
-55.6223099464
 20
4.0756839696
 40
0.8890654106
100
AcDbArc
 50
22.8310934301
 51
180.0191582056
  0
ARC
  5
6AE
100
AcDbEntity
  8
RACCORDO
100
AcDbCircle
 62
7
  6
CONTINUOUS
 10
-69.2574680332
 20
2.0647889373
 40
0.5
100
AcDbArc
 50
160.5369868199
 51
180.9482113748
  0
ARC
  5
6AF
100
AcDbEntity
  8
RACCORDO
100
AcDbCircle
 62
7
  6
CONTINUOUS
 10
-69.2476952751
 20
3.2762046698
 40
0.4959350161
100
AcDbArc
 50
169.3528565603
 51
180.7620094593
  0
ARC
  5
6B0
100
AcDbEntity
  8
RACCORDO
100
AcDbCircle
 62
7
  6
CONTINUOUS
 10
-69.2530530649
 20
3.276958555
 40
0.4905302431
100
AcDbArc
 50
161.2411885384
 51
169.3237724756
  0
ARC
  5
6B1
100
AcDbEntity
  8
ASSI
100
AcDbCircle
 62
7
  6
CONTINUOUS
 10
-54.8621565189
 20
-14.9739196796
 40
0.25
100
AcDbArc
 50
271.0
 51
0.000002053
  0
ARC
  5
6B2
100
AcDbEntity
  8
ASSI
100
AcDbCircle
 62
7
  6
CONTINUOUS
 10
-59.8621530485
 20
-15.5611949436
 40
0.25
100
AcDbArc
 50
271.0
 51
360.0
  0
ARC
  5
6B3
100
AcDbEntity
  8
ASSI
100
AcDbCircle
 62
7
  6
CONTINUOUS
 10
-62.8621530485
 20
-15.5350123462
 40
0.25
100
AcDbArc
 50
180.0
 51
269.0
  0
ARC
  5
6B4
100
AcDbEntity
  8
ASSI
100
AcDbCircle
 62
7
  6
CONTINUOUS
 10
-59.8621530485
 20
-15.1686618916
 40
0.25
100
AcDbArc
 50
359.995410117
 51
59.9806292498
  0
ARC
  5
6B5
100
AcDbEntity
  8
ASSI
100
AcDbCircle
 62
7
  6
CONTINUOUS
 10
-62.8621530485
 20
-15.1686618916
 40
0.25
100
AcDbArc
 50
120.0
 51
179.9996250119
  0
ARC
  5
6B6
100
AcDbEntity
  8
ASSI
100
AcDbCircle
 62
253
  6
CONTINUOUS
 10
-62.8656426294
 20
-15.1686624115
 40
0.0500009004
100
AcDbArc
 50
120.0005957136
 51
179.9994042864
  0
ARC
  5
6B7
100
AcDbEntity
  8
ASSI
100
AcDbCircle
 62
253
  6
CONTINUOUS
 10
-59.8586632217
 20
-15.5611943005
 40
0.0500006544
100
AcDbArc
 50
271.000736944
 51
359.999263056
  0
ARC
  5
6B8
100
AcDbEntity
  8
ASSI
100
AcDbCircle
 62
253
  6
CONTINUOUS
 10
-62.8656429049
 20
-15.5350117321
 40
0.0500006249
100
AcDbArc
 50
180.0007037181
 51
268.9992962819
  0
ARC
  5
6B9
100
AcDbEntity
  8
ASSI
100
AcDbCircle
 62
253
  6
CONTINUOUS
 10
-59.8586608263
 20
-15.1686608865
 40
0.0499982591
100
AcDbArc
 50
359.9988481766
 51
60.0011518234
  0
ARC
  5
6BA
100
AcDbEntity
  8
ASSI
100
AcDbCircle
 62
7
  6
CONTINUOUS
 10
-68.0689615027
 20
29.4832340889
 40
1.2
100
AcDbArc
 50
93.0
 51
177.0092051175
  0
ARC
  5
6BB
100
AcDbEntity
  8
ASSI
100
AcDbCircle
 62
7
  6
CONTINUOUS
 10
-50.1121530485
 20
29.8922451659
 40
1.0
100
AcDbArc
 50
0.0
 51
89.0
  0
ARC
  5
6BC
100
AcDbEntity
  8
RACCORDO
100
AcDbCircle
 62
7
  6
CONTINUOUS
 10
-27.5121530485
 20
13.3984939452
 40
1.0
100
AcDbArc
 50
0.0
 51
89.0
  0
ARC
  5
6BD
100
AcDbEntity
  8
SUPERFICI
100
AcDbCircle
 62
7
  6
CONTINUOUS
 10
-27.5121530485
 20
13.3984939452
 40
1.0
100
AcDbArc
 50
0.0
 51
89.0
  0
ARC
  5
6BE
100
AcDbEntity
  8
RACCORDO
100
AcDbCircle
 62
7
  6
CONTINUOUS
 10
-69.278182807
 20
13.8867431892
 40
0.5
100
AcDbArc
 50
179.2525930881
 51
229.5569107483
  0
ARC
  5
6BF
100
AcDbEntity
  8
ASSI
100
AcDbCircle
 62
7
  6
CONTINUOUS
 10
-54.8621566349
 20
32.3252710329
 40
0.25
100
AcDbArc
 50
0.0000550469
 51
89.0
  0
ARC
  5
6C0
100
AcDbEntity
  8
ASSI
100
AcDbCircle
 62
7
  6
CONTINUOUS
 10
-59.8621530485
 20
32.912546295
 40
0.25
100
AcDbArc
 50
0.0
 51
89.0
  0
ARC
  5
6C1
100
AcDbEntity
  8
ASSI
100
AcDbCircle
 62
7
  6
CONTINUOUS
 10
-62.8621530485
 20
32.8863636976
 40
0.25
100
AcDbArc
 50
91.0
 51
180.0
  0
ARC
  5
6C2
100
AcDbEntity
  8
ASSI
100
AcDbCircle
 62
7
  6
CONTINUOUS
 10
-62.8621530485
 20
32.520013243
 40
0.25
100
AcDbArc
 50
179.995410117
 51
239.9806292494
  0
ARC
  5
6C3
100
AcDbEntity
  8
ASSI
100
AcDbCircle
 62
7
  6
CONTINUOUS
 10
-59.8621530485
 20
32.520013243
 40
0.25
100
AcDbArc
 50
299.9955054653
 51
359.9800998866
  0
ARC
  5
6C4
100
AcDbEntity
  8
ASSI
100
AcDbCircle
 62
253
  6
CONTINUOUS
 10
-62.8656428754
 20
32.8863630545
 40
0.0500006544
100
AcDbArc
 50
91.000736944
 51
179.999263056
  0
ARC
  5
6C5
100
AcDbEntity
  8
ASSI
100
AcDbCircle
 62
253
  6
CONTINUOUS
 10
-59.8586632215
 20
32.912545652
 40
0.0500006543
100
AcDbArc
 50
0.0007367612
 51
88.9992632388
  0
ARC
  5
6C6
100
AcDbEntity
  8
ASSI
100
AcDbCircle
 62
253
  6
CONTINUOUS
 10
-59.8586608296
 20
32.5200122398
 40
0.0499982624
100
AcDbArc
 50
299.9988503635
 51
0.0011496365
  0
ARC
  5
6C7
100
AcDbEntity
  8
ASSI
100
AcDbCircle
 62
253
  6
CONTINUOUS
 10
-62.8656452707
 20
32.5200122379
 40
0.0499982591
100
AcDbArc
 50
179.9988481766
 51
240.0011518234
  0
ARC
  5
6C8
100
AcDbEntity
  8
ASSI
100
AcDbCircle
 62
253
  6
CONTINUOUS
 10
415.3488211401
 20
8.6756755255
 40
484.2298025351
100
AcDbArc
 50
177.5315015143
 51
182.4684984499
  0
ARC
  5
6C9
100
AcDbEntity
  8
RACCORDO
100
AcDbCircle
 62
253
  6
CONTINUOUS
 10
361.6395767278
 20
8.6756573451
 40
431.2683645806
100
AcDbArc
 50
179.3106608559
 51
180.5031071581
  0
ARC
  5
6CA
100
AcDbEntity
  8
RACCORDO
100
AcDbCircle
 62
253
  6
CONTINUOUS
 10
340.2059926291
 20
8.675482113
 40
409.9565589081
100
AcDbArc
 50
180.5332127618
 51
180.7549099655
  0
ARC
  5
6CB
100
AcDbEntity
  8
RACCORDO
100
AcDbCircle
 62
253
  6
CONTINUOUS
 10
335.404634757
 20
8.6752327069
 40
405.1841539428
100
AcDbArc
 50
180.7660239053
 51
180.9343204841
  0
ARC
  5
6CC
100
AcDbEntity
  8
ASSI
100
AcDbCircle
 62
253
  6
CONTINUOUS
 10
416.1196477285
 20
8.6756756745
 40
485.4857159186
100
AcDbArc
 50
177.5353584049
 51
182.464641595
  0
LINE
  5
6CD
100
AcDbEntity
  8
DRAFT
100
AcDbLine
 62
7
  6
CONTINUOUS
 10
-7.386062756
 20
5.3745401546
 11
-4.5870212681
 21
5.3735816425
  0
LINE
  5
6CE
100
AcDbEntity
  8
DRAFT
100
AcDbLine
 62
7
  6
CONTINUOUS
 10
-4.5870212681
 20
5.3735816425
 11
-4.5868802668
 21
3.7737226438
  0
LINE
  5
6CF
100
AcDbEntity
  8
DRAFT
100
AcDbLine
 62
7
  6
CONTINUOUS
 10
-4.5868802668
 20
3.7737226438
 11
-3.5370926568
 21
3.7735102538
  0
LINE
  5
6D0
100
AcDbEntity
  8
DRAFT
100
AcDbLine
 62
7
  6
CONTINUOUS
 10
-3.5370926568
 20
3.7735102538
 11
-3.5369493659
 21
2.5736535447
  0
SPLINE
  5
6D1
100
AcDbEntity
  8
DRAFT
100
AcDbSpline
 62
7
  6
CONTINUOUS
 70
0
 71
3
 72
8
 73
4
 74
2
 42
0.0000001
 43
0.0000001
 44
0.0000000001
 12
4.6040442004
 22
-0.00075332
 32
0.0
 13
4.6040442004
 23
0.00075332
 33
0.0
 40
0.0
 40
0.0
 40
0.0
 40
0.0
 40
1.0
 40
1.0
 40
1.0
 40
1.0
 10
-3.5369493659
 20
2.5736535447
 30
0.0
 10
-2.0022679658
 20
2.573402438
 30
0.0
 10
-0.467586504
 20
2.573402438
 30
0.0
 10
1.0670948961
 20
2.5736535447
 30
0.0
 11
-3.5369493659
 21
2.5736535447
 31
0.0
 11
1.0670948961
 21
2.5736535447
 31
0.0
  0
LINE
  5
6D2
100
AcDbEntity
  8
DRAFT
100
AcDbLine
 62
7
  6
CONTINUOUS
 10
1.0670948961
 20
2.5736535447
 11
1.067238187
 21
3.7735102538
  0
LINE
  5
6D3
100
AcDbEntity
  8
DRAFT
100
AcDbLine
 62
7
  6
CONTINUOUS
 10
1.067238187
 20
3.7735102538
 11
2.117025797
 21
3.7737226438
  0
LINE
  5
6D4
100
AcDbEntity
  8
DRAFT
100
AcDbLine
 62
7
  6
CONTINUOUS
 10
2.117025797
 20
3.7737226438
 11
2.1171667983
 21
5.3735816425
  0
LINE
  5
6D5
100
AcDbEntity
  8
DRAFT
100
AcDbLine
 62
7
  6
CONTINUOUS
 10
2.1171667983
 20
5.3735816425
 11
4.9162082861
 21
5.3745401546
  0
SPLINE
  5
6D6
100
AcDbEntity
  8
DRAFT
100
AcDbSpline
 62
7
  6
CONTINUOUS
 70
0
 71
3
 72
8
 73
4
 74
2
 42
0.0000001
 43
0.0000001
 44
0.0000000001
 12
0.0005417633
 22
8.0021561503
 32
0.0
 13
-0.0007715549
 23
8.0021561314
 33
0.0
 40
0.0
 40
0.0
 40
0.0
 40
0.0
 40
1.0
 40
1.0
 40
1.0
 40
1.0
 10
4.9162082861
 20
5.3745401546
 30
0.0
 10
4.9163888739
 20
8.0419255381
 30
0.0
 10
4.9163505968
 20
10.7093109453
 30
0.0
 10
4.9160934118
 20
13.3766963224
 30
0.0
 11
4.9162082861
 21
5.3745401546
 31
0.0
 11
4.9160934118
 21
13.3766963224
 31
0.0
  0
SPLINE
  5
6D7
100
AcDbEntity
  8
DRAFT
100
AcDbSpline
 62
7
  6
CONTINUOUS
 70
0
 71
3
 72
9
 73
5
 74
3
 42
0.0000001
 43
0.0000001
 44
0.0000000001
 12
-12.3020403219
 22
0.0054238151
 32
0.0
 13
-12.3020403219
 23
-0.0054238151
 33
0.0
 40
0.0
 40
0.0
 40
0.0
 40
0.0
 40
0.2499191597
 40
1.0
 40
1.0
 40
1.0
 40
1.0
 10
4.9160934118
 20
13.3766963224
 30
0.0
 10
3.8912548853
 20
13.3771481609
 30
0.0
 10
-0.2094254089
 20
13.3785034508
 30
0.0
 10
-4.3101063009
 20
13.3780524223
 30
0.0
 10
-7.3859478817
 20
13.3766963224
 30
0.0
 11
4.9160934118
 21
13.3766963224
 31
0.0
 11
1.8415777015
 21
13.3777127648
 31
0.0
 11
-7.3859478817
 21
13.3766963224
 31
0.0
  0
SPLINE
  5
6D8
100
AcDbEntity
  8
DRAFT
100
AcDbSpline
 62
7
  6
CONTINUOUS
 70
0
 71
3
 72
8
 73
4
 74
2
 42
0.0000001
 43
0.0000001
 44
0.0000000001
 12
-0.0007715549
 22
-8.0021561314
 32
0.0
 13
0.0005417633
 23
-8.0021561503
 33
0.0
 40
0.0
 40
0.0
 40
0.0
 40
0.0
 40
1.0
 40
1.0
 40
1.0
 40
1.0
 10
-7.3859478817
 20
13.3766963224
 30
0.0
 10
-7.3862050666
 20
10.7093109453
 30
0.0
 10
-7.3862433437
 20
8.0419255381
 30
0.0
 10
-7.386062756
 20
5.3745401546
 30
0.0
 11
-7.3859478817
 21
13.3766963224
 31
0.0
 11
-7.386062756
 21
5.3745401546
 31
0.0
  0
SPLINE
  5
6D9
100
AcDbEntity
  8
RACCORDO
100
AcDbSpline
 62
7
  6
CONTINUOUS
 70
0
 71
3
 72
21
 73
17
 74
15
 42
0.0000001
 43
0.0000001
 44
0.0000000001
 12
-0.6835156872
 22
-0.2346672326
 32
0.0
 13
-0.5113083335
 23
-0.5107114575
 33
0.0
 40
0.0
 40
0.0
 40
0.0
 40
0.0
 40
0.002832977
 40
0.0091336943
 40
0.0187779898
 40
0.031628392
 40
0.0662899449
 40
0.1113685274
 40
0.1649836252
 40
0.2255319398
 40
0.2915691378
 40
0.361985113
 40
0.5123671046
 40
0.671188895
 40
0.8346813245
 40
1.0
 40
1.0
 40
1.0
 40
1.0
 10
-4.5956603871
 20
3.765012131
 30
0.0
 10
-4.5963058485
 20
3.7647905287
 30
0.0
 10
-4.5979611946
 20
3.7632189952
 30
0.0
 10
-4.6014314351
 20
3.7604131434
 30
0.0
 10
-4.6065330568
 20
3.7556618704
 30
0.0
 10
-4.6166254981
 20
3.7463245595
 30
0.0
 10
-4.6327648681
 20
3.7309087761
 30
0.0
 10
-4.6558976386
 20
3.7086277357
 30
0.0
 10
-4.6834062976
 20
3.6818891067
 30
0.0
 10
-4.7144582905
 20
3.6515567553
 30
0.0
 10
-4.748339532
 20
3.6183276662
 30
0.0
 10
-4.7975966037
 20
3.5698710155
 30
0.0
 10
-4.8626657391
 20
3.5056162148
 30
0.0
 10
-4.9435402939
 20
3.4254573229
 30
0.0
 10
-5.0268379581
 20
3.3426320704
 30
0.0
 10
-5.0829218333
 20
3.2866988275
 30
0.0
 10
-5.1110981054
 20
3.2585554469
 30
0.0
 11
-4.5956603871
 21
3.765012131
 31
0.0
 11
-4.5973358539
 21
3.7638355415
 31
0.0
 11
-4.6007945186
 21
3.7608739619
 31
0.0
 11
-4.605962592
 21
3.7561976475
 31
0.0
 11
-4.6127662849
 21
3.7498768536
 31
0.0
 11
-4.6309364026
 21
3.7326343184
 31
0.0
 11
-4.6544020125
 21
3.7100368982
 31
0.0
 11
-4.6821978124
 21
3.6830428635
 31
0.0
 11
-4.713502769
 21
3.6524705712
 31
0.0
 11
-4.7475781834
 21
3.6190579049
 31
0.0
 11
-4.7838571695
 21
3.583372809
 31
0.0
 11
-4.8611961369
 21
3.5070215524
 31
0.0
 11
-4.9427199298
 21
3.4262279469
 31
0.0
 11
-5.0265052846
 21
3.3429214609
 31
0.0
 11
-5.1110981054
 21
3.2585554469
 31
0.0
  0
SPLINE
  5
6DA
100
AcDbEntity
  8
RACCORDO
100
AcDbSpline
 62
7
  6
CONTINUOUS
 70
0
 71
3
 72
21
 73
17
 74
15
 42
0.0000001
 43
0.0000001
 44
0.0000000001
 12
-0.691852672
 22
-0.2043347199
 32
0.0
 13
-0.5104020238
 23
-0.509806406
 33
0.0
 40
0.0
 40
0.0
 40
0.0
 40
0.0
 40
0.0029687191
 40
0.0093828954
 40
0.0191239615
 40
0.0320544355
 40
0.066824272
 40
0.1119510792
 40
0.1655675586
 40
0.2260835349
 40
0.2920669829
 40
0.3624167598
 40
0.5126553846
 40
0.6713459068
 40
0.8347382977
 40
1.0
 40
1.0
 40
1.0
 40
1.0
 10
-4.5958571898
 20
5.3648540068
 30
0.0
 10
-4.5965418285
 20
5.3646518027
 30
0.0
 10
-4.5982934811
 20
5.3630900209
 30
0.0
 10
-4.6018542446
 20
5.360287552
 30
0.0
 10
-4.6070575178
 20
5.355557217
 30
0.0
 10
-4.6172575105
 20
5.3462740845
 30
0.0
 10
-4.6335021277
 20
5.3309419438
 30
0.0
 10
-4.6567174354
 20
5.3087750777
 30
0.0
 10
-4.6842714102
 20
5.2821746461
 30
0.0
 10
-4.7153365845
 20
5.2519953338
 30
0.0
 10
-4.7492061596
 20
5.2189268926
 30
0.0
 10
-4.7984205854
 20
5.1706919667
 30
0.0
 10
-4.863404499
 20
5.1066982279
 30
0.0
 10
-4.944144885
 20
5.02681867
 30
0.0
 10
-5.0272891125
 20
4.9442326763
 30
0.0
 10
-5.0832564404
 20
4.8884348151
 30
0.0
 10
-5.1113730762
 20
4.8603509902
 30
0.0
 11
-4.5958571898
 21
5.3648540068
 31
0.0
 11
-4.5976498014
 21
5.3636822159
 31
0.0
 11
-4.6012162094
 21
5.3607341014
 31
0.0
 11
-4.6064814165
 21
5.3560802088
 31
0.0
 11
-4.6133704256
 21
5.3497910838
 31
0.0
 11
-4.6316727512
 21
5.3326395964
 31
0.0
 11
-4.6552233674
 21
5.3101640085
 31
0.0
 11
-4.6830641019
 21
5.2833137171
 31
0.0
 11
-4.7143815845
 21
5.2528988788
 31
0.0
 11
-4.7484445662
 21
5.2196499009
 31
0.0
 11
-4.7846919059
 21
5.1841294741
 31
0.0
 11
-4.8619277681
 21
5.1080953096
 31
0.0
 11
-4.9433147774
 21
5.0275872689
 31
0.0
 11
-5.0269446777
 21
4.9445238086
 31
0.0
 11
-5.1113730762
 21
4.8603509902
 31
0.0
  0
SPLINE
  5
6DB
100
AcDbEntity
  8
RACCORDO
100
AcDbSpline
 62
7
  6
CONTINUOUS
 70
0
 71
3
 72
21
 73
17
 74
15
 42
0.0000001
 43
0.0000001
 44
0.0000000001
 12
-0.7195652671
 22
-0.1187224159
 32
0.0
 13
-0.5157947119
 23
-0.515582196
 33
0.0
 40
0.0
 40
0.0
 40
0.0
 40
0.0
 40
0.0037672736
 40
0.0108619045
 40
0.0212072862
 40
0.0346751989
 40
0.0703283339
 40
0.1161046711
 40
0.1701572277
 40
0.2309160672
 40
0.2969688655
 40
0.3672322039
 40
0.5168925804
 40
0.6745439996
 40
0.8365073168
 40
1.0
 40
1.0
 40
1.0
 40
1.0
 10
-7.3952844959
 20
5.3658048913
 30
0.0
 10
-7.3961880957
 20
5.3656558047
 30
0.0
 10
-7.3984969928
 20
5.3641847724
 30
0.0
 10
-7.4026851484
 20
5.3612915168
 30
0.0
 10
-7.40857999
 20
5.3565751008
 30
0.0
 10
-7.4196650486
 20
5.3473236177
 30
0.0
 10
-7.436952048
 20
5.3320233866
 30
0.0
 10
-7.4612935443
 20
5.3098455474
 30
0.0
 10
-7.4898767339
 20
5.2832519295
 30
0.0
 10
-7.5218627147
 20
5.2530855192
 30
0.0
 10
-7.5565463318
 20
5.2200354175
 30
0.0
 10
-7.6066806788
 20
5.1718729295
 30
0.0
 10
-7.6725541335
 20
5.1079527875
 30
0.0
 10
-7.7540352084
 20
5.0281085278
 30
0.0
 10
-7.8375736861
 20
4.9455609093
 30
0.0
 10
-7.8936369754
 20
4.8897348641
 30
0.0
 10
-7.9217465292
 20
4.8616368918
 30
0.0
 11
-7.3952844959
 21
5.3658048913
 31
0.0
 11
-7.3977699959
 21
5.3646340951
 31
0.0
 11
-7.4020236469
 21
5.361688345
 31
0.0
 11
-7.4079650638
 21
5.3570381957
 31
0.0
 11
-7.415513861
 21
5.350754202
 31
0.0
 11
-7.4350689378
 21
5.3336170383
 31
0.0
 11
-7.459771436
 21
5.3111603216
 31
0.0
 11
-7.4886540573
 21
5.2843322552
 31
0.0
 11
-7.5209014722
 21
5.2539419282
 31
0.0
 11
-7.5557834607
 21
5.2207187836
 31
0.0
 11
-7.5927426735
 21
5.1852248249
 31
0.0
 11
-7.6710992887
 21
5.1092434569
 31
0.0
 11
-7.7532311023
 21
5.0287858534
 31
0.0
 11
-7.8372561682
 21
4.9457687314
 31
0.0
 11
-7.9217465292
 21
4.8616368918
 31
0.0
  0
SPLINE
  5
6DC
100
AcDbEntity
  8
RACCORDO
100
AcDbSpline
 62
7
  6
CONTINUOUS
 70
0
 71
3
 72
21
 73
17
 74
15
 42
0.0000001
 43
0.0000001
 44
0.0000000001
 12
-0.7191211889
 22
0.1272896014
 32
0.0
 13
-0.5165086966
 23
0.5162912873
 33
0.0
 40
0.0
 40
0.0
 40
0.0
 40
0.0
 40
0.0036408025
 40
0.0106313685
 40
0.020889397
 40
0.0342857449
 40
0.0698427189
 40
0.1155760632
 40
0.1696265751
 40
0.2304127898
 40
0.2965117985
 40
0.3668325329
 40
0.5166189095
 40
0.6743886684
 40
0.8364465275
 40
1.0
 40
1.0
 40
1.0
 40
1.0
 10
-7.3950795196
 20
13.3854171963
 30
0.0
 10
-7.3959522456
 20
13.3855716751
 30
0.0
 10
-7.3981855407
 20
13.3870654334
 30
0.0
 10
-7.4022868889
 20
13.3899550669
 30
0.0
 10
-7.4080975734
 20
13.3946927674
 30
0.0
 10
-7.41908926
 20
13.4039880075
 30
0.0
 10
-7.4362871333
 20
13.4193597211
 30
0.0
 10
-7.4605563068
 20
13.4416324859
 30
0.0
 10
-7.4890995168
 20
13.4683416515
 30
0.0
 10
-7.5210723229
 20
13.4986355627
 30
0.0
 10
-7.5557637049
 20
13.5318194099
 30
0.0
 10
-7.6059312243
 20
13.5801663463
 30
0.0
 10
-7.6718727401
 20
13.6443034719
 30
0.0
 10
-7.7534629541
 20
13.7243790008
 30
0.0
 10
-7.8371253606
 20
13.8071264433
 30
0.0
 10
-7.8932867195
 20
13.863062253
 30
0.0
 10
-7.9214456498
 20
13.8912093306
 30
0.0
 11
-7.3950795196
 21
13.3854171963
 31
0.0
 11
-7.3974647483
 21
13.3865920641
 31
0.0
 11
-7.4016263193
 21
13.3895491727
 31
0.0
 11
-7.4074848088
 21
13.3942181908
 31
0.0
 11
-7.4149607928
 21
13.4005287873
 31
0.0
 11
-7.4344028734
 21
13.4177422643
 31
0.0
 11
-7.4590322406
 21
13.4403008819
 31
0.0
 11
-7.4878753623
 21
13.4672489541
 31
0.0
 11
-7.520110399
 21
13.4977705332
 31
0.0
 11
-7.5550008688
 21
13.5311299491
 31
0.0
 11
-7.591984615
 21
13.5667608571
 31
0.0
 11
-7.6704236888
 21
13.6430055905
 31
0.0
 11
-7.7526664727
 21
13.7237000582
 31
0.0
 11
-7.8368182878
 21
13.8069190014
 31
0.0
 11
-7.9214456498
 21
13.8912093306
 31
0.0
  0
SPLINE
  5
6DD
100
AcDbEntity
  8
RACCORDO
100
AcDbSpline
 62
7
  6
CONTINUOUS
 70
0
 71
3
 72
21
 73
17
 74
15
 42
0.0000001
 43
0.0000001
 44
0.0000000001
 12
0.7191203969
 22
0.1272943299
 32
0.0
 13
0.5165087785
 23
0.5162912679
 33
0.0
 40
0.0
 40
0.0
 40
0.0
 40
0.0
 40
0.0036407956
 40
0.0106313489
 40
0.0208893609
 40
0.0342856917
 40
0.0698426412
 40
0.1155759722
 40
0.1696264749
 40
0.2304126834
 40
0.29651169
 40
0.3668324262
 40
0.5166188155
 40
0.6743885982
 40
0.8364464931
 40
1.0
 40
1.0
 40
1.0
 40
1.0
 10
4.9252250233
 20
13.385417194
 30
0.0
 10
4.9260977468
 20
13.3855716782
 30
0.0
 10
4.9283310347
 20
13.3870654335
 30
0.0
 10
4.9324323773
 20
13.3899550638
 30
0.0
 10
4.9382430544
 20
13.3946927546
 30
0.0
 10
4.9492347334
 20
13.4039879841
 30
0.0
 10
4.9664325951
 20
13.4193596923
 30
0.0
 10
4.9907017591
 20
13.4416324536
 30
0.0
 10
5.0192449699
 20
13.4683416114
 30
0.0
 10
5.0512177826
 20
13.4986355134
 30
0.0
 10
5.0859091724
 20
13.5318193543
 30
0.0
 10
5.1360767235
 20
13.5801662679
 30
0.0
 10
5.202018379
 20
13.6443032726
 30
0.0
 10
5.2836084529
 20
13.7243789757
 30
0.0
 10
5.3672722783
 20
13.8071250299
 30
0.0
 10
5.4234322616
 20
13.8630622531
 30
0.0
 10
5.4515912023
 20
13.8912093356
 30
0.0
 11
4.9252250233
 21
13.385417194
 31
0.0
 11
4.9276102448
 21
13.3865920653
 31
0.0
 11
4.9317718082
 21
13.3895491693
 31
0.0
 11
4.9376302898
 21
13.3942181786
 31
0.0
 11
4.9451062661
 21
13.4005287658
 31
0.0
 11
4.9645483335
 21
13.4177422331
 31
0.0
 11
4.9891776932
 21
13.4403008475
 31
0.0
 11
5.0180208151
 21
13.4672489132
 31
0.0
 11
5.0502558575
 21
13.4977704836
 31
0.0
 11
5.0851463373
 21
13.5311298911
 31
0.0
 11
5.1221301097
 21
13.5667607782
 31
0.0
 11
5.2005692735
 21
13.6430054417
 31
0.0
 11
5.282812222
 21
13.7236997767
 31
0.0
 11
5.3669646235
 21
13.8069181741
 31
0.0
 11
5.4515912023
 21
13.8912093356
 31
0.0
  0
SPLINE
  5
6DE
100
AcDbEntity
  8
RACCORDO
100
AcDbSpline
 62
7
  6
CONTINUOUS
 70
0
 71
3
 72
21
 73
17
 74
15
 42
0.0000001
 43
0.0000001
 44
0.0000000001
 12
0.7195652595
 22
-0.1187224595
 32
0.0
 13
0.515794712
 23
-0.5155821954
 33
0.0
 40
0.0
 40
0.0
 40
0.0
 40
0.0
 40
0.0037672736
 40
0.0108619045
 40
0.0212072862
 40
0.0346751989
 40
0.0703283339
 40
0.1161046711
 40
0.1701572277
 40
0.2309160672
 40
0.2969688655
 40
0.367232204
 40
0.5168925805
 40
0.6745439998
 40
0.836507317
 40
1.0
 40
1.0
 40
1.0
 40
1.0
 10
4.9254300262
 20
5.3658048913
 30
0.0
 10
4.9263336259
 20
5.3656558046
 30
0.0
 10
4.928642523
 20
5.3641847723
 30
0.0
 10
4.9328306785
 20
5.3612915166
 30
0.0
 10
4.9387255201
 20
5.3565751007
 30
0.0
 10
4.9498105788
 20
5.3473236176
 30
0.0
 10
4.9670975782
 20
5.3320233865
 30
0.0
 10
4.9914390745
 20
5.3098455474
 30
0.0
 10
5.0200222643
 20
5.2832519297
 30
0.0
 10
5.0520082453
 20
5.2530855197
 30
0.0
 10
5.0866918627
 20
5.2200354183
 30
0.0
 10
5.1368262104
 20
5.171872931
 30
0.0
 10
5.202699667
 20
5.1079527909
 30
0.0
 10
5.2841807405
 20
5.0281085299
 30
0.0
 10
5.3677192332
 20
4.9455609266
 30
0.0
 10
5.4237825051
 20
4.8897348641
 30
0.0
 10
5.4518920588
 20
4.8616368919
 30
0.0
 11
4.9254300262
 21
5.3658048913
 31
0.0
 11
4.9279155261
 21
5.364634095
 31
0.0
 11
4.9321691771
 21
5.3616883449
 31
0.0
 11
4.9381105939
 21
5.3570381956
 31
0.0
 11
4.9456593912
 21
5.3507542019
 31
0.0
 11
4.9652144679
 21
5.3336170382
 31
0.0
 11
4.9899169663
 21
5.3111603216
 31
0.0
 11
5.0187995877
 21
5.2843322553
 31
0.0
 11
5.0510470029
 21
5.2539419287
 31
0.0
 11
5.0859289916
 21
5.2207187844
 31
0.0
 11
5.1228882049
 21
5.1852248263
 31
0.0
 11
5.2012448216
 21
5.1092434598
 31
0.0
 11
5.2833766371
 21
5.0287858582
 31
0.0
 11
5.3674017085
 21
4.9457687419
 31
0.0
 11
5.4518920588
 21
4.8616368919
 31
0.0
  0
SPLINE
  5
6DF
100
AcDbEntity
  8
ASSI
100
AcDbSpline
 62
253
  6
CONTINUOUS
 70
0
 71
3
 72
14
 73
10
 74
8
 42
0.0000001
 43
0.0000001
 44
0.0000000001
 12
0.0353709844
 22
-0.0353600593
 32
0.0
 13
-0.0000000167
 23
-0.0500144012
 33
0.0
 40
0.0
 40
0.0
 40
0.0
 40
0.0
 40
0.0223888543
 40
0.0813290826
 40
0.1747525517
 40
0.2991802371
 40
0.4499460735
 40
0.6213923018
 40
1.0
 40
1.0
 40
1.0
 40
1.0
 10
6.0044228194
 20
32.9363560823
 30
0.0
 10
6.0046867913
 20
32.9360921919
 30
0.0
 10
6.0044511699
 20
32.9345177835
 30
0.0
 10
6.0049025056
 20
32.9318048709
 30
0.0
 10
6.004871418
 20
32.9270871529
 30
0.0
 10
6.0050632445
 20
32.9209863039
 30
0.0
 10
6.0051405471
 20
32.9135253427
 30
0.0
 10
6.0052558033
 20
32.9018485804
 30
0.0
 10
6.0052803431
 20
32.8926756434
 30
0.0
 10
6.005280341
 20
32.8863636976
 30
0.0
 11
6.0044228194
 21
32.9363560823
 31
0.0
 11
6.0045908385
 21
32.9352489945
 31
0.0
 11
6.0047519976
 21
32.9323055428
 31
0.0
 11
6.004900249
 21
32.9276353764
 31
0.0
 11
6.0050299982
 21
32.921413553
 31
0.0
 11
6.0051363599
 21
32.9138738401
 31
0.0
 11
6.0052153294
 21
32.9052994233
 31
0.0
 11
6.005280341
 21
32.8863636976
 31
0.0
  0
SPLINE
  5
6E0
100
AcDbEntity
  8
ASSI
100
AcDbSpline
 62
253
  6
CONTINUOUS
 70
0
 71
3
 72
18
 73
14
 74
12
 42
0.0000001
 43
0.0000001
 44
0.0000000001
 12
-0.0007594238
 22
0.6698588972
 32
0.0
 13
-0.2988795282
 23
0.5994852346
 33
0.0
 40
0.0
 40
0.0
 40
0.0
 40
0.0
 40
0.1911308635
 40
0.3742063506
 40
0.5429018838
 40
0.6915546454
 40
0.8151476268
 40
0.8662337678
 40
0.9095956099
 40
0.9448847149
 40
0.971822076
 40
0.9902037888
 40
1.0
 40
1.0
 40
1.0
 40
1.0
 10
-12.1301667186
 20
29.5315010325
 30
0.0
 10
-12.1302151017
 20
29.5741779357
 30
0.0
 10
-12.1305088321
 20
29.6577330453
 30
0.0
 10
-12.1315461836
 20
29.7789516681
 30
0.0
 10
-12.1331335004
 20
29.8906793001
 30
0.0
 10
-12.1352124762
 20
29.9891134832
 30
0.0
 10
-12.1373822148
 20
30.0612804125
 30
0.0
 10
-12.1393999631
 20
30.1099215665
 30
0.0
 10
-12.1408689903
 20
30.1388604324
 30
0.0
 10
-12.1424243939
 20
30.1623677028
 30
0.0
 10
-12.1438977714
 20
30.1803537593
 30
0.0
 10
-12.1455641403
 20
30.1924622103
 30
0.0
 10
-12.1466172708
 20
30.1987927886
 30
0.0
 10
-12.1475932332
 20
30.2007503499
 30
0.0
 11
-12.1301667186
 21
29.5315010325
 31
0.0
 11
-12.1306250597
 21
29.6595310038
 31
0.0
 11
-12.1316938261
 21
29.7821611693
 31
0.0
 11
-12.1333354356
 21
29.8951515211
 31
0.0
 11
-12.1354926168
 21
29.9947045912
 31
0.0
 11
-12.1380911922
 21
30.077453711
 31
0.0
 11
-12.1395286178
 21
30.1116440364
 31
0.0
 11
-12.1410418647
 21
30.1406509257
 31
0.0
 11
-12.1426184158
 21
30.1642370303
 31
0.0
 11
-12.1442455857
 21
30.1822077568
 31
0.0
 11
-12.1459093345
 21
30.1944079983
 31
0.0
 11
-12.1475932332
 21
30.2007503499
 31
0.0
  0
SPLINE
  5
6E1
100
AcDbEntity
  8
ASSI
100
AcDbSpline
 62
253
  6
CONTINUOUS
 70
0
 71
3
 72
18
 73
14
 74
12
 42
0.0000001
 43
0.0000001
 44
0.0000000001
 12
0.2988795543
 22
0.5994852205
 32
0.0
 13
0.0007594237
 23
0.6698588963
 33
0.0
 40
0.0
 40
0.0
 40
0.0
 40
0.0
 40
0.0097962112
 40
0.0281779245
 40
0.0551152857
 40
0.0904043905
 40
0.1337662328
 40
0.1848523741
 40
0.3084453561
 40
0.457098118
 40
0.6257936519
 40
0.8088691389
 40
1.0
 40
1.0
 40
1.0
 40
1.0
 10
-12.1475932338
 20
-12.8493989998
 30
0.0
 10
-12.1466172714
 20
-12.8474414385
 30
0.0
 10
-12.1455641409
 20
-12.8411108601
 30
0.0
 10
-12.143897772
 20
-12.829002409
 30
0.0
 10
-12.1424243946
 20
-12.8110163524
 30
0.0
 10
-12.140868991
 20
-12.7875090821
 30
0.0
 10
-12.1393999637
 20
-12.7585702161
 30
0.0
 10
-12.1373822154
 20
-12.7099290619
 30
0.0
 10
-12.1352124768
 20
-12.6377621324
 30
0.0
 10
-12.1331335011
 20
-12.5393279491
 30
0.0
 10
-12.1315461843
 20
-12.427600317
 30
0.0
 10
-12.1305088328
 20
-12.3063816948
 30
0.0
 10
-12.130215102
 20
-12.2228265859
 30
0.0
 10
-12.1301667189
 20
-12.1801496833
 30
0.0
 11
-12.1475932338
 21
-12.8493989998
 31
0.0
 11
-12.1459093351
 21
-12.8430566482
 31
0.0
 11
-12.1442455863
 21
-12.8308564064
 31
0.0
 11
-12.1426184164
 21
-12.8128856798
 31
0.0
 11
-12.1410418653
 21
-12.7892995753
 31
0.0
 11
-12.1395286184
 21
-12.760292686
 31
0.0
 11
-12.1380911928
 21
-12.7261023605
 31
0.0
 11
-12.1354926174
 21
-12.6433532403
 31
0.0
 11
-12.1333354363
 21
-12.5438001702
 31
0.0
 11
-12.1316938268
 21
-12.430809818
 31
0.0
 11
-12.1306250603
 21
-12.3081796528
 31
0.0
 11
-12.1301667189
 21
-12.1801496833
 31
0.0
  0
LINE
  5
6E2
100
AcDbEntity
  8
RACCORDO
100
AcDbLine
 62
253
  6
CONTINUOUS
 10
2.6412435846
 20
3.258411105
 11
1.5872361574
 21
3.2583560665
  0
LINE
  5
6E3
100
AcDbEntity
  8
RACCORDO
100
AcDbLine
 62
253
  6
CONTINUOUS
 10
5.4518918137
 20
4.8610310758
 11
2.6415187341
 21
4.8608629264
  0
SPLINE
  5
6E4
100
AcDbEntity
  8
RACCORDO
100
AcDbSpline
 62
253
  6
CONTINUOUS
 70
0
 71
3
 72
9
 73
5
 74
3
 42
0.0000001
 43
0.0000001
 44
0.0000000001
 12
13.3730352912
 22
0.001349847
 32
0.0
 13
13.3730352912
 23
-0.001349847
 33
0.0
 40
0.0
 40
0.0
 40
0.0
 40
0.0
 40
0.2499469314
 40
1.0
 40
1.0
 40
1.0
 40
1.0
 10
-7.9214449082
 20
13.8925928404
 30
0.0
 10
-6.8072618635
 20
13.8927053037
 30
0.0
 10
-2.3495834224
 20
13.8930425028
 30
0.0
 10
2.1080950527
 20
13.892930326
 30
0.0
 10
5.4515904383
 20
13.8925928404
 30
0.0
 11
-7.9214449082
 21
13.8925928404
 31
0.0
 11
-4.5788957665
 21
13.8928457934
 31
0.0
 11
5.4515904383
 21
13.8925928404
 31
0.0
  0
LINE
  5
6E5
100
AcDbEntity
  8
RACCORDO
100
AcDbLine
 62
253
  6
CONTINUOUS
 10
-5.111373193
 20
4.8608191196
 11
-7.9217462658
 21
4.8609872708
  0
LINE
  5
6E6
100
AcDbEntity
  8
RACCORDO
100
AcDbLine
 62
253
  6
CONTINUOUS
 10
-4.057090626
 20
3.2583511273
 11
-5.1110980527
 21
3.2584061658
  0
LINE
  5
6E7
100
AcDbEntity
  8
RACCORDO
100
AcDbLine
 62
253
  6
CONTINUOUS
 10
1.5869964627
 20
2.0566398107
 11
-4.0568509325
 21
2.0566398107
  0
SPLINE
  5
6E8
100
AcDbEntity
  8
ASSI
100
AcDbSpline
 62
253
  6
CONTINUOUS
 70
0
 71
3
 72
9
 73
5
 74
3
 42
0.0000001
 43
0.0000001
 44
0.0000000001
 12
0.0000000129
 22
-0.0433040273
 32
0.0
 13
-0.0013086549
 23
-0.0432842489
 33
0.0
 40
0.0
 40
0.0
 40
0.0
 40
0.0
 40
0.2987891373
 40
1.0
 40
1.0
 40
1.0
 40
1.0
 10
6.005280341
 20
32.520013243
 30
0.0
 10
6.0052803423
 20
32.5157003186
 30
0.0
 10
6.0052371937
 20
32.5012661219
 30
0.0
 10
6.0051498454
 20
32.4868291013
 30
0.0
 10
6.0048439644
 20
32.4767119728
 30
0.0
 11
6.005280341
 21
32.520013243
 31
0.0
 11
6.0052506117
 21
32.5070745042
 31
0.0
 11
6.0048439644
 21
32.4767119728
 31
0.0
  0
SPLINE
  5
6E9
100
AcDbEntity
  8
ASSI
100
AcDbSpline
 62
253
  6
CONTINUOUS
 70
0
 71
3
 72
9
 73
5
 74
3
 42
0.0000001
 43
0.0000001
 44
0.0000000001
 12
0.0013086735
 22
-0.0432844709
 32
0.0
 13
-0.0000000099
 23
-0.0433042498
 33
0.0
 40
0.0
 40
0.0
 40
0.0
 40
0.0
 40
0.1834825616
 40
1.0
 40
1.0
 40
1.0
 40
1.0
 10
6.0048439644
 20
-15.1253606214
 30
0.0
 10
6.004924004
 20
-15.1280079366
 30
0.0
 10
6.0052199428
 20
-15.1424400635
 30
0.0
 10
6.0052803437
 20
-15.1568756666
 30
0.0
 10
6.005280341
 20
-15.1686618916
 30
0.0
 11
6.0048439644
 21
-15.1253606214
 31
0.0
 11
6.0050246736
 21
-15.1333041409
 31
0.0
 11
6.005280341
 21
-15.1686618916
 31
0.0
  0
SPLINE
  5
6EA
100
AcDbEntity
  8
ASSI
100
AcDbSpline
 62
253
  6
CONTINUOUS
 70
0
 71
3
 72
11
 73
7
 74
5
 42
0.0000001
 43
0.0000001
 44
0.0000000001
 12
-0.290824418
 22
-0.0021981279
 32
0.0
 13
-0.0029298796
 23
-0.2908179665
 33
0.0
 40
0.0
 40
0.0
 40
0.0
 40
0.0
 40
0.2659011537
 40
0.5231711216
 40
0.7669316808
 40
1.0
 40
1.0
 40
1.0
 40
1.0
 10
-11.5951864966
 20
-14.9521555407
 30
0.0
 10
-11.620963346
 20
-14.9523503689
 30
0.0
 10
-11.6720485849
 20
-14.9612987609
 30
0.0
 10
-11.7379685206
 20
-14.9989591109
 30
0.0
 10
-11.783526754
 20
-15.056093452
 30
0.0
 10
-11.7949284149
 20
-15.1027671366
 30
0.0
 10
-11.7951560356
 20
-15.1253606214
 30
0.0
 11
-11.5951864966
 21
-14.9521555407
 31
0.0
 11
-11.6713112014
 21
-14.9657711432
 31
0.0
 11
-11.735973381
 21
-15.0034170314
 31
0.0
 11
-11.779436487
 21
-15.0594246516
 31
0.0
 11
-11.7951560356
 21
-15.1253606214
 31
0.0
  0
SPLINE
  5
6EB
100
AcDbEntity
  8
ASSI
100
AcDbSpline
 62
7
  6
CONTINUOUS
 70
0
 71
3
 72
12
 73
8
 74
6
 42
0.0000001
 43
0.0000001
 44
0.0000000001
 12
0.0092279883
 22
0.2408431399
 32
0.0
 13
0.2395313719
 23
-0.0267450115
 33
0.0
 40
0.0
 40
0.0
 40
0.0
 40
0.0
 40
0.1616128294
 40
0.2604077624
 40
0.3752282587
 40
0.6572300195
 40
1.0
 40
1.0
 40
1.0
 40
1.0
 10
-11.8130322455
 20
-14.5340804031
 30
0.0
 10
-11.8125351251
 20
-14.521105956
 30
0.0
 10
-11.8030431075
 20
-14.5004739089
 30
0.0
 10
-11.7809576328
 20
-14.4798792046
 30
0.0
 10
-11.7467510435
 20
-14.4589415604
 30
0.0
 10
-11.6887335109
 20
-14.4422410962
 30
0.0
 10
-11.6379071174
 20
-14.4412925108
 30
0.0
 10
-11.6105390628
 20
-14.4443483065
 30
0.0
 11
-11.8130322455
 21
-14.5340804031
 31
0.0
 11
-11.7985058341
 21
-14.4979385434
 31
0.0
 11
-11.7814366785
 21
-14.4813363322
 31
0.0
 11
-11.7579763873
 21
-14.4666575677
 31
0.0
 11
-11.6931305155
 21
-14.4462942332
 31
0.0
 11
-11.6105390628
 21
-14.4443483065
 31
0.0
  0
SPLINE
  5
6EC
100
AcDbEntity
  8
ASSI
100
AcDbSpline
 62
253
  6
CONTINUOUS
 70
0
 71
3
 72
14
 73
10
 74
8
 42
0.0000001
 43
0.0000001
 44
0.0000000001
 12
0.0000000047
 22
-0.0500143989
 32
0.0
 13
-0.0353848757
 23
-0.035346155
 33
0.0
 40
0.0
 40
0.0
 40
0.0
 40
0.0
 40
0.3784710411
 40
0.5499082368
 40
0.7006911169
 40
0.825150225
 40
0.9186143814
 40
0.9775915881
 40
1.0
 40
1.0
 40
1.0
 40
1.0
 10
6.005280341
 20
-15.5350123462
 30
0.0
 10
6.0052803416
 20
-15.5413220134
 30
0.0
 10
6.0052558194
 20
-15.5504925222
 30
0.0
 10
6.0051406175
 20
-15.5621671355
 30
0.0
 10
6.0050633631
 20
-15.5696287694
 30
0.0
 10
6.0048714797
 20
-15.5757310531
 30
0.0
 10
6.0049027753
 20
-15.5804507408
 30
0.0
 10
6.0044509451
 20
-15.5831649452
 30
0.0
 10
6.0046871257
 20
-15.5847407139
 30
0.0
 10
6.0044228194
 20
-15.585004731
 30
0.0
 11
6.005280341
 21
-15.5350123462
 31
0.0
 11
6.0052153767
 21
-15.5539412364
 31
0.0
 11
6.0051364426
 21
-15.5625152013
 31
0.0
 11
6.0050301086
 21
-15.5700557667
 31
0.0
 11
6.0049003747
 21
-15.5762791621
 31
0.0
 11
6.004752116
 21
-15.5809513641
 31
0.0
 11
6.0045909159
 21
-15.5838966656
 31
0.0
 11
6.0044228194
 21
-15.585004731
 31
0.0
  0
SPLINE
  5
6ED
100
AcDbEntity
  8
ASSI
100
AcDbSpline
 62
253
  6
CONTINUOUS
 70
0
 71
3
 72
11
 73
7
 74
5
 42
0.0000001
 43
0.0000001
 44
0.0000000001
 12
-0.290824418
 22
-0.0021981279
 32
0.0
 13
-0.0029298796
 23
-0.2908179665
 33
0.0
 40
0.0
 40
0.0
 40
0.0
 40
0.0
 40
0.2659011537
 40
0.5231711216
 40
0.7669316808
 40
1.0
 40
1.0
 40
1.0
 40
1.0
 10
6.2048135034
 20
-14.9521555407
 30
0.0
 10
6.179036654
 20
-14.9523503689
 30
0.0
 10
6.1279514151
 20
-14.9612987609
 30
0.0
 10
6.0620314794
 20
-14.9989591109
 30
0.0
 10
6.016473246
 20
-15.056093452
 30
0.0
 10
6.0050715851
 20
-15.1027671366
 30
0.0
 10
6.0048439644
 20
-15.1253606214
 30
0.0
 11
6.2048135034
 21
-14.9521555407
 31
0.0
 11
6.1286887986
 21
-14.9657711432
 31
0.0
 11
6.064026619
 21
-15.0034170314
 31
0.0
 11
6.020563513
 21
-15.0594246516
 31
0.0
 11
6.0048439644
 21
-15.1253606214
 31
0.0
  0
SPLINE
  5
6EE
100
AcDbEntity
  8
ASSI
100
AcDbSpline
 62
7
  6
CONTINUOUS
 70
0
 71
3
 72
12
 73
8
 74
6
 42
0.0000001
 43
0.0000001
 44
0.0000000001
 12
0.0092279883
 22
0.240843142
 32
0.0
 13
0.2395313741
 23
-0.0267450118
 33
0.0
 40
0.0
 40
0.0
 40
0.0
 40
0.0
 40
0.1616125329
 40
0.2604072651
 40
0.3752276894
 40
0.6572297246
 40
1.0
 40
1.0
 40
1.0
 40
1.0
 10
5.9869677545
 20
-14.5340804031
 30
0.0
 10
5.987464874
 20
-14.5211059797
 30
0.0
 10
5.9969568496
 20
-14.5004739657
 30
0.0
 10
6.0190422772
 20
-14.4798792753
 30
0.0
 10
6.053248849
 20
-14.4589416025
 30
0.0
 10
6.1112664179
 20
-14.442241101
 30
0.0
 10
6.1620928588
 20
-14.4412925081
 30
0.0
 10
6.1894609372
 20
-14.4443483065
 30
0.0
 11
5.9869677545
 21
-14.5340804031
 31
0.0
 11
6.0014941154
 21
-14.4979385997
 31
0.0
 11
6.0185632233
 21
-14.4813364086
 31
0.0
 11
6.0420234878
 21
-14.4666576336
 31
0.0
 11
6.106869413
 21
-14.4462942465
 31
0.0
 11
6.1894609372
 21
-14.4443483065
 31
0.0
  0
SPLINE
  5
6EF
100
AcDbEntity
  8
ASSI
100
AcDbSpline
 62
7
  6
CONTINUOUS
 70
0
 71
3
 72
12
 73
8
 74
6
 42
0.0000001
 43
0.0000001
 44
0.0000000001
 12
0.2395313741
 22
0.0267450118
 32
0.0
 13
0.0092279883
 23
-0.240843142
 33
0.0
 40
0.0
 40
0.0
 40
0.0
 40
0.0
 40
0.3427702754
 40
0.6247723106
 40
0.7395927349
 40
0.8383874671
 40
1.0
 40
1.0
 40
1.0
 40
1.0
 10
-8.659315407
 20
-14.4443483065
 30
0.0
 10
-8.6319473287
 20
-14.4412925081
 30
0.0
 10
-8.5811208878
 20
-14.442241101
 30
0.0
 10
-8.5231033188
 20
-14.4589416025
 30
0.0
 10
-8.4888967471
 20
-14.4798792753
 30
0.0
 10
-8.4668113194
 20
-14.5004739657
 30
0.0
 10
-8.4573193438
 20
-14.5211059797
 30
0.0
 10
-8.4568222243
 20
-14.5340804031
 30
0.0
 11
-8.659315407
 21
-14.4443483065
 31
0.0
 11
-8.5767238828
 21
-14.4462942465
 31
0.0
 11
-8.5118779576
 21
-14.4666576336
 31
0.0
 11
-8.4884176931
 21
-14.4813364086
 31
0.0
 11
-8.4713485852
 21
-14.4979385997
 31
0.0
 11
-8.4568222243
 21
-14.5340804031
 31
0.0
  0
SPLINE
  5
6F0
100
AcDbEntity
  8
ASSI
100
AcDbSpline
 62
253
  6
CONTINUOUS
 70
0
 71
3
 72
11
 73
7
 74
5
 42
0.0000001
 43
0.0000001
 44
0.0000000001
 12
0.290824418
 22
-0.002198128
 32
0.0
 13
0.0029298796
 23
-0.2908179665
 33
0.0
 40
0.0
 40
0.0
 40
0.0
 40
0.0
 40
0.2659011522
 40
0.5231711191
 40
0.7669316794
 40
1.0
 40
1.0
 40
1.0
 40
1.0
 10
-8.6746679732
 20
-14.9521555407
 30
0.0
 10
-8.648891124
 20
-14.9523503689
 30
0.0
 10
-8.5978058853
 20
-14.9612987608
 30
0.0
 10
-8.5318859497
 20
-14.9989591106
 30
0.0
 10
-8.486327716
 20
-15.0560934517
 30
0.0
 10
-8.4749260549
 20
-15.1027671364
 30
0.0
 10
-8.4746984342
 20
-15.1253606214
 30
0.0
 11
-8.6746679732
 21
-14.9521555407
 31
0.0
 11
-8.5985432688
 21
-14.965771143
 31
0.0
 11
-8.5338810894
 21
-15.0034170309
 31
0.0
 11
-8.4904179831
 21
-15.0594246512
 31
0.0
 11
-8.4746984342
 21
-15.1253606214
 31
0.0
  0
SPLINE
  5
6F1
100
AcDbEntity
  8
RACCORDO
100
AcDbSpline
 62
7
  6
CONTINUOUS
 70
0
 71
3
 72
21
 73
17
 74
15
 42
0.0000001
 43
0.0000001
 44
0.0000000001
 12
0.691852679
 22
-0.2043346961
 32
0.0
 13
0.5104020174
 23
-0.5098064123
 33
0.0
 40
0.0
 40
0.0
 40
0.0
 40
0.0
 40
0.0029687192
 40
0.0093828956
 40
0.0191239618
 40
0.0320544359
 40
0.0668242724
 40
0.1119510797
 40
0.1655675592
 40
0.2260835355
 40
0.2920669836
 40
0.3624167606
 40
0.5126553854
 40
0.6713459074
 40
0.8347382981
 40
1.0
 40
1.0
 40
1.0
 40
1.0
 10
2.12600272
 20
5.3648540068
 30
0.0
 10
2.1266873587
 20
5.3646518027
 30
0.0
 10
2.1284390114
 20
5.3630900209
 30
0.0
 10
2.131999775
 20
5.360287552
 30
0.0
 10
2.1372030483
 20
5.355557217
 30
0.0
 10
2.1474030411
 20
5.3462740846
 30
0.0
 10
2.1636476584
 20
5.3309419439
 30
0.0
 10
2.1868629662
 20
5.3087750778
 30
0.0
 10
2.2144169411
 20
5.2821746462
 30
0.0
 10
2.2454821153
 20
5.2519953338
 30
0.0
 10
2.2793516905
 20
5.2189268926
 30
0.0
 10
2.3285661159
 20
5.1706919663
 30
0.0
 10
2.393550028
 20
5.106698226
 30
0.0
 10
2.4742904152
 20
5.0268186695
 30
0.0
 10
2.5574346273
 20
4.9442326605
 30
0.0
 10
2.613401971
 20
4.8884348154
 30
0.0
 10
2.6415186064
 20
4.8603509902
 30
0.0
 11
2.12600272
 21
5.3648540068
 31
0.0
 11
2.1277953317
 21
5.3636822159
 31
0.0
 11
2.1313617398
 21
5.3607341014
 31
0.0
 11
2.136626947
 21
5.3560802088
 31
0.0
 11
2.1435159562
 21
5.3497910838
 31
0.0
 11
2.1618182819
 21
5.3326395964
 31
0.0
 11
2.1853688982
 21
5.3101640086
 31
0.0
 11
2.2132096328
 21
5.2833137172
 31
0.0
 11
2.2445271153
 21
5.2528988789
 31
0.0
 11
2.278590097
 21
5.2196499008
 31
0.0
 11
2.3148374364
 21
5.1841294737
 31
0.0
 11
2.3920732976
 21
5.1080953082
 31
0.0
 11
2.473460305
 21
5.0275872656
 31
0.0
 11
2.557090199
 21
4.9445237993
 31
0.0
 11
2.6415186064
 21
4.8603509902
 31
0.0
  0
SPLINE
  5
6F2
100
AcDbEntity
  8
ASSI
100
AcDbSpline
 62
253
  6
CONTINUOUS
 70
0
 71
3
 72
11
 73
7
 74
5
 42
0.0000001
 43
0.0000001
 44
0.0000000001
 12
0.290824418
 22
-0.002198128
 32
0.0
 13
0.0029298796
 23
-0.2908179665
 33
0.0
 40
0.0
 40
0.0
 40
0.0
 40
0.0
 40
0.2659011522
 40
0.5231711191
 40
0.7669316794
 40
1.0
 40
1.0
 40
1.0
 40
1.0
 10
9.1253320268
 20
-14.9521555407
 30
0.0
 10
9.151108876
 20
-14.9523503689
 30
0.0
 10
9.2021941147
 20
-14.9612987608
 30
0.0
 10
9.2681140503
 20
-14.9989591106
 30
0.0
 10
9.313672284
 20
-15.0560934517
 30
0.0
 10
9.3250739451
 20
-15.1027671364
 30
0.0
 10
9.3253015658
 20
-15.1253606214
 30
0.0
 11
9.1253320268
 21
-14.9521555407
 31
0.0
 11
9.2014567312
 21
-14.965771143
 31
0.0
 11
9.2661189106
 21
-15.0034170309
 31
0.0
 11
9.3095820169
 21
-15.0594246512
 31
0.0
 11
9.3253015658
 21
-15.1253606214
 31
0.0
  0
SPLINE
  5
6F3
100
AcDbEntity
  8
ASSI
100
AcDbSpline
 62
7
  6
CONTINUOUS
 70
0
 71
3
 72
12
 73
8
 74
6
 42
0.0000001
 43
0.0000001
 44
0.0000000001
 12
0.2395313719
 22
0.0267450115
 32
0.0
 13
0.0092279883
 23
-0.2408431399
 33
0.0
 40
0.0
 40
0.0
 40
0.0
 40
0.0
 40
0.3427699806
 40
0.6247717413
 40
0.7395922376
 40
0.8383871706
 40
1.0
 40
1.0
 40
1.0
 40
1.0
 10
9.140684593
 20
-14.4443483065
 30
0.0
 10
9.1680526475
 20
-14.4412925108
 30
0.0
 10
9.218879041
 20
-14.4422410962
 30
0.0
 10
9.2768965737
 20
-14.4589415604
 30
0.0
 10
9.3111031629
 20
-14.4798792046
 30
0.0
 10
9.3331886377
 20
-14.5004739089
 30
0.0
 10
9.3426806553
 20
-14.521105956
 30
0.0
 10
9.3431777757
 20
-14.5340804031
 30
0.0
 11
9.140684593
 21
-14.4443483065
 31
0.0
 11
9.2232760456
 21
-14.4462942332
 31
0.0
 11
9.2881219174
 21
-14.4666575677
 31
0.0
 11
9.3115822086
 21
-14.4813363322
 31
0.0
 11
9.3286513642
 21
-14.4979385434
 31
0.0
 11
9.3431777757
 21
-14.5340804031
 31
0.0
  0
SPLINE
  5
6F4
100
AcDbEntity
  8
RACCORDO
100
AcDbSpline
 62
7
  6
CONTINUOUS
 70
0
 71
3
 72
21
 73
17
 74
15
 42
0.0000001
 43
0.0000001
 44
0.0000000001
 12
0.6835156897
 22
-0.2346672253
 32
0.0
 13
0.5113083338
 23
-0.5107114572
 33
0.0
 40
0.0
 40
0.0
 40
0.0
 40
0.0
 40
0.002832977
 40
0.0091336943
 40
0.0187779899
 40
0.031628392
 40
0.0662899449
 40
0.1113685274
 40
0.1649836253
 40
0.2255319399
 40
0.2915691379
 40
0.3619851131
 40
0.5123671046
 40
0.6711888951
 40
0.8346813245
 40
1.0
 40
1.0
 40
1.0
 40
1.0
 10
2.1258059173
 20
3.765012131
 30
0.0
 10
2.1264513787
 20
3.7647905287
 30
0.0
 10
2.1281067247
 20
3.7632189952
 30
0.0
 10
2.1315769653
 20
3.7604131434
 30
0.0
 10
2.136678587
 20
3.7556618704
 30
0.0
 10
2.1467710282
 20
3.7463245595
 30
0.0
 10
2.1629103983
 20
3.7309087761
 30
0.0
 10
2.1860431688
 20
3.7086277357
 30
0.0
 10
2.2135518278
 20
3.6818891067
 30
0.0
 10
2.2446038207
 20
3.6515567553
 30
0.0
 10
2.2784850622
 20
3.6183276662
 30
0.0
 10
2.3277421339
 20
3.5698710154
 30
0.0
 10
2.3928112692
 20
3.5056162147
 30
0.0
 10
2.473685824
 20
3.4254573228
 30
0.0
 10
2.5569834887
 20
3.3426320708
 30
0.0
 10
2.6130673634
 20
3.2866988275
 30
0.0
 10
2.6412436356
 20
3.2585554469
 30
0.0
 11
2.1258059173
 21
3.765012131
 31
0.0
 11
2.1274813841
 21
3.7638355415
 31
0.0
 11
2.1309400488
 21
3.7608739619
 31
0.0
 11
2.1361081222
 21
3.7561976475
 31
0.0
 11
2.142911815
 21
3.7498768536
 31
0.0
 11
2.1610819327
 21
3.7326343184
 31
0.0
 11
2.1845475427
 21
3.7100368982
 31
0.0
 11
2.2123433426
 21
3.6830428635
 31
0.0
 11
2.2436482992
 21
3.6524705712
 31
0.0
 11
2.2777237136
 21
3.6190579049
 31
0.0
 11
2.3140026997
 21
3.583372809
 31
0.0
 11
2.3913416671
 21
3.5070215524
 31
0.0
 11
2.47286546
 21
3.4262279469
 31
0.0
 11
2.556650815
 21
3.3429214611
 31
0.0
 11
2.6412436356
 21
3.2585554469
 31
0.0
  0
SPLINE
  5
6F5
100
AcDbEntity
  8
ASSI
100
AcDbSpline
 62
253
  6
CONTINUOUS
 70
0
 71
3
 72
11
 73
7
 74
5
 42
0.0000001
 43
0.0000001
 44
0.0000000001
 12
0.0029298744
 22
-0.2908179843
 32
0.0
 13
0.2908244364
 23
-0.0021980406
 33
0.0
 40
0.0
 40
0.0
 40
0.0
 40
0.0
 40
0.2330683041
 40
0.4768288064
 40
0.7340987915
 40
1.0
 40
1.0
 40
1.0
 40
1.0
 10
-11.7951560356
 20
32.4767119728
 30
0.0
 10
-11.7949284153
 20
32.454118488
 30
0.0
 10
-11.7835267683
 20
32.4074448063
 30
0.0
 10
-11.737968548
 20
32.3503104537
 30
0.0
 10
-11.6720486047
 20
32.3126501007
 30
0.0
 10
-11.6209633529
 20
32.3037017151
 30
0.0
 10
-11.5951864965
 20
32.3035068946
 30
0.0
 11
-11.7951560356
 21
32.4767119728
 31
0.0
 11
-11.7794364985
 21
32.4107760004
 31
0.0
 11
-11.7359734114
 21
32.3547683811
 31
0.0
 11
-11.6713112241
 21
32.317122487
 31
0.0
 11
-11.5951864965
 21
32.3035068946
 31
0.0
  0
SPLINE
  5
6F6
100
AcDbEntity
  8
ASSI
100
AcDbSpline
 62
7
  6
CONTINUOUS
 70
0
 71
3
 72
12
 73
8
 74
6
 42
0.0000001
 43
0.0000001
 44
0.0000000001
 12
-0.239530293
 22
-0.0267448911
 32
0.0
 13
-0.0092279467
 23
0.240842055
 33
0.0
 40
0.0
 40
0.0
 40
0.0
 40
0.0
 40
0.3426117859
 40
0.624591816
 40
0.7395308789
 40
0.838274356
 40
1.0
 40
1.0
 40
1.0
 40
1.0
 10
-11.6105390628
 20
31.7956996578
 30
0.0
 10
-11.6378943633
 20
31.7926452862
 30
0.0
 10
-11.6887058562
 20
31.7935922618
 30
0.0
 10
-11.7467183485
 20
31.8102854183
 30
0.0
 10
-11.7809343477
 20
31.8312142095
 30
0.0
 10
-11.8030388134
 20
31.8518095913
 30
0.0
 10
-11.8125347803
 20
31.872448309
 30
0.0
 10
-11.8130322455
 20
31.8854317544
 30
0.0
 11
-11.6105390628
 21
31.7956996578
 31
0.0
 11
-11.6930921023
 21
31.7976414438
 31
0.0
 11
-11.757935986
 21
31.8179926027
 31
0.0
 11
-11.7814248353
 21
31.8326793629
 31
0.0
 11
-11.7984909426
 21
31.849266765
 31
0.0
 11
-11.8130322455
 21
31.8854317544
 31
0.0
  0
SPLINE
  5
6F7
100
AcDbEntity
  8
RACCORDO
100
AcDbSpline
 62
7
  6
CONTINUOUS
 70
0
 71
3
 72
15
 73
11
 74
9
 42
0.0000001
 43
0.0000001
 44
0.0000000001
 12
0.5089441915
 22
-0.5089441992
 32
0.0
 13
0.5092794637
 23
-0.5086087059
 33
0.0
 40
0.0
 40
0.0
 40
0.0
 40
0.0
 40
0.0084537361
 40
0.0306912258
 40
0.0650817968
 40
0.1098751457
 40
0.2237719274
 40
0.3602215082
 40
0.670008626
 40
1.0
 40
1.0
 40
1.0
 40
1.0
 10
1.0759470903
 20
3.7648013504
 30
0.0
 10
1.0773812503
 20
3.7633671905
 30
0.0
 10
1.0829095098
 20
3.7584947479
 30
0.0
 10
1.0941363081
 20
3.7476422871
 30
0.0
 10
1.1116051857
 20
3.7307033547
 30
0.0
 10
1.1445850283
 20
3.6981726699
 30
0.0
 10
1.1950085975
 20
3.6484592835
 30
0.0
 10
1.2904494717
 20
3.5538505269
 30
0.0
 10
1.422526533
 20
3.4225576121
 30
0.0
 10
1.5312168474
 20
3.3141736316
 30
0.0
 10
1.5872361241
 20
3.2582281364
 30
0.0
 11
1.0759470903
 21
3.7648013504
 31
0.0
 11
1.0804089615
 21
3.7606643984
 31
0.0
 11
1.0920375753
 21
3.749666519
 31
0.0
 11
1.1097920178
 21
3.7324188673
 31
0.0
 11
1.1327820469
 21
3.7098159095
 31
0.0
 11
1.1911318552
 21
3.6522340495
 31
0.0
 11
1.2609046784
 21
3.5831179812
 31
0.0
 11
1.4190489839
 21
3.4259350415
 31
0.0
 11
1.5872361241
 21
3.2582281364
 31
0.0
  0
SPLINE
  5
6F8
100
AcDbEntity
  8
ASSI
100
AcDbSpline
 62
253
  6
CONTINUOUS
 70
0
 71
3
 72
11
 73
7
 74
5
 42
0.0000001
 43
0.0000001
 44
0.0000000001
 12
0.290824418
 22
0.0021981279
 32
0.0
 13
0.0029298796
 23
0.2908179665
 33
0.0
 40
0.0
 40
0.0
 40
0.0
 40
0.0
 40
0.2659011524
 40
0.5231711195
 40
0.7669316796
 40
1.0
 40
1.0
 40
1.0
 40
1.0
 10
-8.6746679732
 20
32.303506892
 30
0.0
 10
-8.648891124
 20
32.3037017203
 30
0.0
 10
-8.5978058853
 20
32.3126501121
 30
0.0
 10
-8.5318859496
 20
32.3503104619
 30
0.0
 10
-8.486327716
 20
32.4074448031
 30
0.0
 10
-8.4749260549
 20
32.4541184878
 30
0.0
 10
-8.4746984342
 20
32.4767119728
 30
0.0
 11
-8.6746679732
 21
32.303506892
 31
0.0
 11
-8.5985432688
 21
32.3171224944
 31
0.0
 11
-8.5338810893
 21
32.3547683823
 31
0.0
 11
-8.490417983
 21
32.4107760026
 31
0.0
 11
-8.4746984342
 21
32.4767119728
 31
0.0
  0
SPLINE
  5
6F9
100
AcDbEntity
  8
ASSI
100
AcDbSpline
 62
7
  6
CONTINUOUS
 70
0
 71
3
 72
12
 73
8
 74
6
 42
0.0000001
 43
0.0000001
 44
0.0000000001
 12
-0.0092279883
 22
-0.240843142
 32
0.0
 13
-0.2395313741
 23
0.0267450118
 33
0.0
 40
0.0
 40
0.0
 40
0.0
 40
0.0
 40
0.1616125329
 40
0.2604072651
 40
0.3752276894
 40
0.6572297246
 40
1.0
 40
1.0
 40
1.0
 40
1.0
 10
-8.4568222243
 20
31.8854317544
 30
0.0
 10
-8.4573193438
 20
31.872457331
 30
0.0
 10
-8.4668113194
 20
31.851825317
 30
0.0
 10
-8.4888967471
 20
31.8312306266
 30
0.0
 10
-8.5231033188
 20
31.8102929539
 30
0.0
 10
-8.5811208878
 20
31.7935924523
 30
0.0
 10
-8.6319473287
 20
31.7926438595
 30
0.0
 10
-8.659315407
 20
31.7956996578
 30
0.0
 11
-8.4568222243
 21
31.8854317544
 31
0.0
 11
-8.4713485852
 21
31.849289951
 31
0.0
 11
-8.4884176931
 21
31.8326877599
 31
0.0
 11
-8.5118779576
 21
31.818008985
 31
0.0
 11
-8.5767238828
 21
31.7976455978
 31
0.0
 11
-8.659315407
 21
31.7956996578
 31
0.0
  0
SPLINE
  5
6FA
100
AcDbEntity
  8
RACCORDO
100
AcDbSpline
 62
7
  6
CONTINUOUS
 70
0
 71
3
 72
13
 73
9
 74
7
 42
0.0000001
 43
0.0000001
 44
0.0000000001
 12
0.5096573459
 22
-0.5096571989
 32
0.0
 13
0.509994494
 23
-0.5093198275
 33
0.0
 40
0.0
 40
0.0
 40
0.0
 40
0.0
 40
0.0294474717
 40
0.1079844738
 40
0.22179958
 40
0.3584717046
 40
0.6690924687
 40
1.0
 40
1.0
 40
1.0
 40
1.0
 10
1.0757695256
 20
2.5649789151
 30
0.0
 10
1.0807722324
 20
2.5599762098
 30
0.0
 10
1.0997262203
 20
2.5422522271
 30
0.0
 10
1.1372868532
 20
2.5044442681
 30
0.0
 10
1.1935734145
 20
2.4489428029
 30
0.0
 10
1.2891159981
 20
2.3538358546
 30
0.0
 10
1.42163947
 20
2.2219506164
 30
0.0
 10
1.5307428728
 20
2.1130807799
 30
0.0
 10
1.5869965458
 20
2.0569015243
 30
0.0
 11
1.0757695256
 21
2.5649789151
 31
0.0
 11
1.0910601453
 21
2.5502587192
 31
0.0
 11
1.1313680402
 21
2.5105146914
 31
0.0
 11
1.1896220563
 21
2.4527563734
 31
0.0
 11
1.2594977505
 21
2.3833208786
 31
0.0
 11
1.418150624
 21
2.225354233
 31
0.0
 11
1.5869965458
 21
2.0569015243
 31
0.0
  0
SPLINE
  5
6FB
100
AcDbEntity
  8
ASSI
100
AcDbSpline
 62
7
  6
CONTINUOUS
 70
0
 71
3
 72
12
 73
8
 74
6
 42
0.0000001
 43
0.0000001
 44
0.0000000001
 12
-0.2395313741
 22
-0.0267450118
 32
0.0
 13
-0.0092279883
 23
0.240843142
 33
0.0
 40
0.0
 40
0.0
 40
0.0
 40
0.0
 40
0.3427702754
 40
0.6247723106
 40
0.7395927349
 40
0.8383874671
 40
1.0
 40
1.0
 40
1.0
 40
1.0
 10
6.1894609372
 20
31.7956996578
 30
0.0
 10
6.1620928588
 20
31.7926438595
 30
0.0
 10
6.1112664179
 20
31.7935924523
 30
0.0
 10
6.053248849
 20
31.8102929539
 30
0.0
 10
6.0190422772
 20
31.8312306266
 30
0.0
 10
5.9969568496
 20
31.851825317
 30
0.0
 10
5.987464874
 20
31.872457331
 30
0.0
 10
5.9869677545
 20
31.8854317544
 30
0.0
 11
6.1894609372
 21
31.7956996578
 31
0.0
 11
6.106869413
 21
31.7976455978
 31
0.0
 11
6.0420234878
 21
31.818008985
 31
0.0
 11
6.0185632233
 21
31.8326877599
 31
0.0
 11
6.0014941154
 21
31.849289951
 31
0.0
 11
5.9869677545
 21
31.8854317544
 31
0.0
  0
SPLINE
  5
6FC
100
AcDbEntity
  8
ASSI
100
AcDbSpline
 62
253
  6
CONTINUOUS
 70
0
 71
3
 72
11
 73
7
 74
5
 42
0.0000001
 43
0.0000001
 44
0.0000000001
 12
-0.290824418
 22
0.002198128
 32
0.0
 13
-0.0029298796
 23
0.2908179665
 33
0.0
 40
0.0
 40
0.0
 40
0.0
 40
0.0
 40
0.2659011522
 40
0.5231711191
 40
0.7669316794
 40
1.0
 40
1.0
 40
1.0
 40
1.0
 10
6.2048135034
 20
32.303506892
 30
0.0
 10
6.1790366541
 20
32.3037017203
 30
0.0
 10
6.1279514155
 20
32.3126501121
 30
0.0
 10
6.0620314798
 20
32.3503104619
 30
0.0
 10
6.0164732462
 20
32.407444803
 30
0.0
 10
6.0050715851
 20
32.4541184878
 30
0.0
 10
6.0048439644
 20
32.4767119728
 30
0.0
 11
6.2048135034
 21
32.303506892
 31
0.0
 11
6.128688799
 21
32.3171224944
 31
0.0
 11
6.0640266196
 21
32.3547683823
 31
0.0
 11
6.0205635132
 21
32.4107760025
 31
0.0
 11
6.0048439644
 21
32.4767119728
 31
0.0
  0
SPLINE
  5
6FD
100
AcDbEntity
  8
RACCORDO
100
AcDbSpline
 62
253
  6
CONTINUOUS
 70
0
 71
3
 72
9
 73
5
 74
3
 42
0.0000001
 43
0.0000001
 44
0.0000000001
 12
12.3203039418
 22
0.0053821892
 32
0.0
 13
12.3203039419
 23
-0.0053820951
 33
0.0
 40
0.0
 40
0.0
 40
0.0
 40
0.0
 40
0.2499211954
 40
1.0
 40
1.0
 40
1.0
 40
1.0
 10
-7.395079665
 20
13.3854172293
 30
0.0
 10
-6.368711302
 20
13.3858656037
 30
0.0
 10
-2.2619431374
 20
13.387210384
 30
0.0
 10
1.8448256146
 20
13.386762902
 30
0.0
 10
4.9252252322
 20
13.3854172369
 30
0.0
 11
-7.395079665
 21
13.3854172293
 31
0.0
 11
-4.3159744473
 21
13.3864258361
 31
0.0
 11
4.9252252322
 21
13.3854172369
 31
0.0
  0
SPLINE
  5
6FE
100
AcDbEntity
  8
ASSI
100
AcDbSpline
 62
7
  6
CONTINUOUS
 70
0
 71
3
 72
12
 73
8
 74
6
 42
0.0000001
 43
0.0000001
 44
0.0000000001
 12
-0.0092279467
 22
-0.240842055
 32
0.0
 13
-0.239530293
 23
0.0267448911
 33
0.0
 40
0.0
 40
0.0
 40
0.0
 40
0.0
 40
0.161725644
 40
0.2604691211
 40
0.375408184
 40
0.6573882141
 40
1.0
 40
1.0
 40
1.0
 40
1.0
 10
9.3431777757
 20
31.8854317544
 30
0.0
 10
9.3426803105
 20
31.872448309
 30
0.0
 10
9.3331843436
 20
31.8518095913
 30
0.0
 10
9.3110798778
 20
31.8312142095
 30
0.0
 10
9.2768638786
 20
31.8102854183
 30
0.0
 10
9.2188513863
 20
31.7935922618
 30
0.0
 10
9.1680398935
 20
31.7926452862
 30
0.0
 10
9.140684593
 20
31.7956996578
 30
0.0
 11
9.3431777757
 21
31.8854317544
 31
0.0
 11
9.3286364728
 21
31.849266765
 31
0.0
 11
9.3115703655
 21
31.8326793629
 31
0.0
 11
9.2880815161
 21
31.8179926027
 31
0.0
 11
9.2232376324
 21
31.7976414438
 31
0.0
 11
9.140684593
 21
31.7956996578
 31
0.0
  0
SPLINE
  5
6FF
100
AcDbEntity
  8
ASSI
100
AcDbSpline
 62
253
  6
CONTINUOUS
 70
0
 71
3
 72
11
 73
7
 74
5
 42
0.0000001
 43
0.0000001
 44
0.0000000001
 12
-0.0029298796
 22
-0.290817965
 32
0.0
 13
-0.2908244163
 23
-0.0021981479
 33
0.0
 40
0.0
 40
0.0
 40
0.0
 40
0.0
 40
0.2330683208
 40
0.4768288792
 40
0.7340988449
 40
1.0
 40
1.0
 40
1.0
 40
1.0
 10
9.3253015658
 20
32.4767119728
 30
0.0
 10
9.3250739451
 20
32.4541184879
 30
0.0
 10
9.3136722841
 20
32.4074448035
 30
0.0
 10
9.2681140503
 20
32.350310463
 30
0.0
 10
9.2021941137
 20
32.312650116
 30
0.0
 10
9.1511088762
 20
32.3037017221
 30
0.0
 10
9.1253320268
 20
32.303506892
 30
0.0
 11
9.3253015658
 21
32.4767119728
 31
0.0
 11
9.3095820169
 21
32.4107760028
 31
0.0
 11
9.2661189106
 21
32.3547683837
 31
0.0
 11
9.2014567311
 21
32.3171224974
 31
0.0
 11
9.1253320268
 21
32.303506892
 31
0.0
  0
SPLINE
  5
700
100
AcDbEntity
  8
ASSI
100
AcDbSpline
 62
253
  6
CONTINUOUS
 70
0
 71
3
 72
14
 73
10
 74
8
 42
0.0000001
 43
0.0000001
 44
0.0000000001
 12
0.0000001189
 22
0.249966339
 32
0.0
 13
-0.0492099614
 23
0.2450745811
 33
0.0
 40
0.0
 40
0.0
 40
0.0
 40
0.0
 40
0.3786100409
 40
0.5501099883
 40
0.7009445796
 40
0.8254365358
 40
0.9189015662
 40
0.9778261556
 40
1.0
 40
1.0
 40
1.0
 40
1.0
 10
-11.59475012
 20
32.8863636976
 30
0.0
 10
-11.594750105
 20
32.9179102862
 30
0.0
 10
-11.5947719122
 20
32.9637475555
 30
0.0
 10
-11.5948938421
 20
33.0221493895
 30
0.0
 10
-11.5949550795
 20
33.0593851821
 30
0.0
 10
-11.5951918324
 20
33.0900983235
 30
0.0
 10
-11.5950518529
 20
33.1132049336
 30
0.0
 10
-11.5957066712
 20
33.1276806198
 30
0.0
 10
-11.5952439169
 20
33.1345142062
 30
0.0
 10
-11.5956076416
 20
33.1363256214
 30
0.0
 11
-11.59475012
 21
32.8863636976
 31
0.0
 11
-11.5948151202
 21
32.9810034411
 31
0.0
 11
-11.5948940697
 21
33.0238725824
 31
0.0
 11
-11.5950004128
 21
33.061576003
 31
0.0
 11
-11.5951301537
 21
33.092694531
 31
0.0
 11
-11.5952784074
 21
33.1160571721
 31
0.0
 11
-11.5954396315
 21
33.1307854536
 31
0.0
 11
-11.5956076416
 21
33.1363256214
 31
0.0
  0
SPLINE
  5
701
100
AcDbEntity
  8
ASSI
100
AcDbSpline
 62
253
  6
CONTINUOUS
 70
0
 71
3
 72
14
 73
10
 74
8
 42
0.0000001
 43
0.0000001
 44
0.0000000001
 12
-0.000000141
 22
0.2499663422
 32
0.0
 13
0.0491548559
 23
0.245085643
 33
0.0
 40
0.0
 40
0.0
 40
0.0
 40
0.0
 40
0.3786133066
 40
0.5501125278
 40
0.7009454954
 40
0.8254364819
 40
0.9189015373
 40
0.9778261401
 40
1.0
 40
1.0
 40
1.0
 40
1.0
 10
-8.6751043499
 20
32.8863636976
 30
0.0
 10
-8.6751043677
 20
32.9179105587
 30
0.0
 10
-8.6750825335
 20
32.9637480378
 30
0.0
 10
-8.6749606605
 20
33.0221499547
 30
0.0
 10
-8.6748993429
 20
33.0593854574
 30
0.0
 10
-8.674662894
 20
33.090098424
 30
0.0
 10
-8.6748022393
 20
33.1132048636
 30
0.0
 10
-8.674148644
 20
33.1276807293
 30
0.0
 10
-8.6746101459
 20
33.1345141231
 30
0.0
 10
-8.6742468283
 20
33.1363256214
 30
0.0
 11
-8.6751043499
 21
32.8863636976
 31
0.0
 11
-8.6750393487
 21
32.9810042586
 31
0.0
 11
-8.6749604105
 21
33.023873219
 31
0.0
 11
-8.6748540881
 21
33.0615762343
 31
0.0
 11
-8.6747243768
 21
33.0926945204
 31
0.0
 11
-8.6745761386
 21
33.1160571682
 31
0.0
 11
-8.67441498
 21
33.1307854539
 31
0.0
 11
-8.6742468283
 21
33.1363256214
 31
0.0
  0
LINE
  5
702
100
AcDbEntity
  8
ASSI
100
AcDbLine
 62
7
  6
CONTINUOUS
 10
-10.4883042052
 20
32.303506892
 11
-10.2717978542
 21
32.520013243
  0
SPLINE
  5
703
100
AcDbEntity
  8
ASSI
100
AcDbSpline
 62
253
  6
CONTINUOUS
 70
0
 71
3
 72
14
 73
10
 74
8
 42
0.0000001
 43
0.0000001
 44
0.0000000001
 12
0.049160375
 22
-0.2450845349
 32
0.0
 13
-0.0000001471
 23
-0.2499663411
 33
0.0
 40
0.0
 40
0.0
 40
0.0
 40
0.0
 40
0.0221560165
 40
0.0810435119
 40
0.1744698991
 40
0.2989314089
 40
0.4497489564
 40
0.6212570669
 40
1.0
 40
1.0
 40
1.0
 40
1.0
 10
6.2043923584
 20
33.1363256214
 30
0.0
 10
6.2047554244
 20
33.134515589
 30
0.0
 10
6.2042941338
 20
33.1276868086
 30
0.0
 10
6.2049476563
 20
33.1132187257
 30
0.0
 10
6.2048082515
 20
33.0901210567
 30
0.0
 10
6.2050447795
 20
33.0594150565
 30
0.0
 10
6.2051060887
 20
33.022182552
 30
0.0
 10
6.2052280532
 20
32.9637703806
 30
0.0
 10
6.2052498986
 20
32.9179213593
 30
0.0
 10
6.20524988
 20
32.8863636976
 30
0.0
 11
6.2043923584
 21
33.1363256214
 31
0.0
 11
6.2045603701
 21
33.130789912
 31
0.0
 11
6.2047215348
 21
33.1160709026
 31
0.0
 11
6.2048697587
 21
33.0927179208
 31
0.0
 11
6.2049994943
 21
33.0616070031
 31
0.0
 11
6.2051058427
 21
33.0239078426
 31
0.0
 11
6.205184823
 21
32.9810366604
 31
0.0
 11
6.20524988
 21
32.8863636976
 31
0.0
  0
SPLINE
  5
704
100
AcDbEntity
  8
ASSI
100
AcDbSpline
 62
253
  6
CONTINUOUS
 70
0
 71
3
 72
14
 73
10
 74
8
 42
0.0000001
 43
0.0000001
 44
0.0000000001
 12
-0.0491706112
 22
-0.2450824821
 32
0.0
 13
0.0000001167
 23
-0.2499663418
 33
0.0
 40
0.0
 40
0.0
 40
0.0
 40
0.0
 40
0.0221606293
 40
0.0810577598
 40
0.1744933938
 40
0.2989593438
 40
0.4497753959
 40
0.6212776652
 40
1.0
 40
1.0
 40
1.0
 40
1.0
 10
9.1257531717
 20
33.1363256214
 30
0.0
 10
9.1253899545
 20
33.1345152274
 30
0.0
 10
9.1258514734
 20
33.1276852122
 30
0.0
 10
9.1251977662
 20
33.1132152105
 30
0.0
 10
9.1253372429
 20
33.0901155802
 30
0.0
 10
9.1251007033
 20
33.0594085703
 30
0.0
 10
9.1250394102
 20
33.0221763051
 30
0.0
 10
9.1249174652
 20
32.9637664618
 30
0.0
 10
9.1248956354
 20
32.9179196431
 30
0.0
 10
9.1248956501
 20
32.8863636976
 30
0.0
 11
9.1257531717
 21
33.1363256214
 31
0.0
 11
9.1255851137
 21
33.1307887598
 31
0.0
 11
9.1254239426
 21
33.1160673418
 31
0.0
 11
9.1252757161
 21
33.0927120485
 31
0.0
 11
9.1251459892
 21
33.0616000208
 31
0.0
 11
9.1250396539
 21
33.0239012339
 31
0.0
 11
9.1249606887
 21
32.9810315118
 31
0.0
 11
9.1248956501
 21
32.8863636976
 31
0.0
  0
SPLINE
  5
705
100
AcDbEntity
  8
ASSI
100
AcDbSpline
 62
253
  6
CONTINUOUS
 70
0
 71
3
 72
9
 73
5
 74
3
 42
0.0000001
 43
0.0000001
 44
0.0000000001
 12
0.0000000896
 22
-0.2165058745
 32
0.0
 13
-0.0013063683
 23
-0.2165019332
 33
0.0
 40
0.0
 40
0.0
 40
0.0
 40
0.0
 40
0.2987947629
 40
1.0
 40
1.0
 40
1.0
 40
1.0
 10
6.20524988
 20
32.520013243
 30
0.0
 10
6.2052498889
 20
32.4984496358
 30
0.0
 10
6.2052068079
 20
32.4262811061
 30
0.0
 10
6.2051188534
 20
32.3541120164
 30
0.0
 10
6.2048135093
 20
32.3035079199
 30
0.0
 11
6.20524988
 21
32.520013243
 31
0.0
 11
6.2052201379
 21
32.4553224284
 31
0.0
 11
6.2048135093
 21
32.3035079199
 31
0.0
  0
LINE
  5
706
100
AcDbEntity
  8
ASSI
100
AcDbLine
 62
7
  6
CONTINUOUS
 10
7.3116957948
 20
32.303506892
 11
7.5282021458
 21
32.520013243
  0
LINE
  5
707
100
AcDbEntity
  8
ASSI
100
AcDbLine
 62
7
  6
CONTINUOUS
 10
7.5282021458
 20
-15.1686618916
 11
7.3116957948
 21
-14.9521555407
  0
SPLINE
  5
708
100
AcDbEntity
  8
ASSI
100
AcDbSpline
 62
253
  6
CONTINUOUS
 70
0
 71
3
 72
14
 73
10
 74
8
 42
0.0000001
 43
0.0000001
 44
0.0000000001
 12
-0.0491043212
 22
0.2450957745
 32
0.0
 13
0.0000000526
 23
0.2499663438
 33
0.0
 40
0.0
 40
0.0
 40
0.0
 40
0.0
 40
0.022157059
 40
0.0810464688
 40
0.1744747522
 40
0.2989370018
 40
0.449754176
 40
0.6212612533
 40
1.0
 40
1.0
 40
1.0
 40
1.0
 10
9.1257531717
 20
-15.78497427
 30
0.0
 10
9.1253905026
 20
-15.7831640695
 30
0.0
 10
9.1258506657
 20
-15.776335234
 30
0.0
 10
9.1251981615
 20
-15.7618665752
 30
0.0
 10
9.1253370009
 20
-15.7387686189
 30
0.0
 10
9.1251007305
 20
-15.7080623915
 30
0.0
 10
9.1250393573
 20
-15.6708299558
 30
0.0
 10
9.124917468
 20
-15.6124182439
 30
0.0
 10
9.1248956435
 20
-15.5665696595
 30
0.0
 10
9.1248956501
 20
-15.5350123462
 30
0.0
 11
9.1257531717
 21
-15.78497427
 31
0.0
 11
9.1255850613
 21
-15.7794383029
 31
0.0
 11
9.1254238997
 21
-15.7647188147
 31
0.0
 11
9.125275667
 21
-15.7413653587
 31
0.0
 11
9.1251459491
 21
-15.7102542557
 31
0.0
 11
9.1250396238
 21
-15.672555188
 31
0.0
 11
9.124960672
 21
-15.6296842637
 31
0.0
 11
9.1248956501
 21
-15.5350123462
 31
0.0
  0
SPLINE
  5
709
100
AcDbEntity
  8
ASSI
100
AcDbSpline
 62
253
  6
CONTINUOUS
 70
0
 71
3
 72
14
 73
10
 74
8
 42
0.0000001
 43
0.0000001
 44
0.0000000001
 12
0.0000000323
 22
-0.2499663453
 32
0.0
 13
-0.049087989
 23
-0.2450990475
 33
0.0
 40
0.0
 40
0.0
 40
0.0
 40
0.0
 40
0.3786065168
 40
0.5501055326
 40
0.7009400823
 40
0.8254330677
 40
0.9188998663
 40
0.9778256462
 40
1.0
 40
1.0
 40
1.0
 40
1.0
 10
6.20524988
 20
-15.5350123462
 30
0.0
 10
6.2052498841
 20
-15.566558642
 30
0.0
 10
6.2052280709
 20
-15.612395536
 30
0.0
 10
6.2051062851
 20
-15.6707970095
 30
0.0
 10
6.2050448805
 20
-15.7080327776
 30
0.0
 10
6.2048087403
 20
-15.7387462338
 30
0.0
 10
6.2049473914
 20
-15.7618529736
 30
0.0
 10
6.2042950529
 20
-15.7763293298
 30
0.0
 10
6.2047551899
 20
-15.7831626324
 30
0.0
 10
6.2043923584
 20
-15.78497427
 30
0.0
 11
6.20524988
 21
-15.5350123462
 31
0.0
 11
6.2051849173
 21
-15.6296512112
 31
0.0
 11
6.2051060091
 21
-15.6725201208
 31
0.0
 11
6.2049997062
 21
-15.7102235321
 31
0.0
 11
6.2048700113
 21
-15.7413423184
 31
0.0
 11
6.2047217608
 21
-15.7647054021
 31
0.0
 11
6.2045606245
 21
-15.7794339825
 31
0.0
 11
6.2043923584
 21
-15.78497427
 31
0.0
  0
SPLINE
  5
70A
100
AcDbEntity
  8
ASSI
100
AcDbSpline
 62
253
  6
CONTINUOUS
 70
0
 71
3
 72
14
 73
10
 74
8
 42
0.0000001
 43
0.0000001
 44
0.0000000001
 12
0.0000000323
 22
-0.2499663453
 32
0.0
 13
-0.049087989
 23
-0.2450990475
 33
0.0
 40
0.0
 40
0.0
 40
0.0
 40
0.0
 40
0.3786065168
 40
0.5501055326
 40
0.7009400823
 40
0.8254330677
 40
0.9188998663
 40
0.9778256462
 40
1.0
 40
1.0
 40
1.0
 40
1.0
 10
-11.59475012
 20
-15.5350123462
 30
0.0
 10
-11.5947501159
 20
-15.566558642
 30
0.0
 10
-11.5947719291
 20
-15.612395536
 30
0.0
 10
-11.5948937149
 20
-15.6707970095
 30
0.0
 10
-11.5949551195
 20
-15.7080327776
 30
0.0
 10
-11.5951912597
 20
-15.7387462338
 30
0.0
 10
-11.5950526086
 20
-15.7618529736
 30
0.0
 10
-11.5957049471
 20
-15.7763293298
 30
0.0
 10
-11.5952448101
 20
-15.7831626324
 30
0.0
 10
-11.5956076416
 20
-15.78497427
 30
0.0
 11
-11.59475012
 21
-15.5350123462
 31
0.0
 11
-11.5948150827
 21
-15.6296512112
 31
0.0
 11
-11.5948939909
 21
-15.6725201208
 31
0.0
 11
-11.5950002938
 21
-15.7102235321
 31
0.0
 11
-11.5951299887
 21
-15.7413423184
 31
0.0
 11
-11.5952782392
 21
-15.7647054021
 31
0.0
 11
-11.5954393755
 21
-15.7794339825
 31
0.0
 11
-11.5956076416
 21
-15.78497427
 31
0.0
  0
SPLINE
  5
70B
100
AcDbEntity
  8
ASSI
100
AcDbSpline
 62
253
  6
CONTINUOUS
 70
0
 71
3
 72
14
 73
10
 74
8
 42
0.0000001
 43
0.0000001
 44
0.0000000001
 12
-0.0491043212
 22
0.2450957745
 32
0.0
 13
0.0000000526
 23
0.2499663438
 33
0.0
 40
0.0
 40
0.0
 40
0.0
 40
0.0
 40
0.022157059
 40
0.0810464688
 40
0.1744747522
 40
0.2989370018
 40
0.449754176
 40
0.6212612533
 40
1.0
 40
1.0
 40
1.0
 40
1.0
 10
-8.6742468283
 20
-15.78497427
 30
0.0
 10
-8.6746094974
 20
-15.7831640695
 30
0.0
 10
-8.6741493343
 20
-15.776335234
 30
0.0
 10
-8.6748018385
 20
-15.7618665752
 30
0.0
 10
-8.6746629991
 20
-15.7387686189
 30
0.0
 10
-8.6748992695
 20
-15.7080623915
 30
0.0
 10
-8.6749606427
 20
-15.6708299558
 30
0.0
 10
-8.675082532
 20
-15.6124182439
 30
0.0
 10
-8.6751043565
 20
-15.5665696595
 30
0.0
 10
-8.6751043499
 20
-15.5350123462
 30
0.0
 11
-8.6742468283
 21
-15.78497427
 31
0.0
 11
-8.6744149387
 21
-15.7794383029
 31
0.0
 11
-8.6745761003
 21
-15.7647188147
 31
0.0
 11
-8.674724333
 21
-15.7413653587
 31
0.0
 11
-8.6748540509
 21
-15.7102542557
 31
0.0
 11
-8.6749603762
 21
-15.672555188
 31
0.0
 11
-8.675039328
 21
-15.6296842637
 31
0.0
 11
-8.6751043499
 21
-15.5350123462
 31
0.0
  0
LINE
  5
70C
100
AcDbEntity
  8
ASSI
100
AcDbLine
 62
7
  6
CONTINUOUS
 10
-10.4883042052
 20
-14.9521555407
 11
-10.2717978542
 21
-15.1686618916
  0
SPLINE
  5
70D
100
AcDbEntity
  8
ASSI
100
AcDbSpline
 62
7
  6
CONTINUOUS
 70
0
 71
3
 72
10
 73
6
 74
4
 42
0.0000001
 43
0.0000001
 44
0.0000000001
 12
0.0041283229
 22
0.0124381884
 32
0.0
 13
0.0129404911
 23
0.0020725037
 33
0.0
 40
0.0
 40
0.0
 40
0.0
 40
0.0
 40
0.1072856673
 40
0.3046525265
 40
1.0
 40
1.0
 40
1.0
 40
1.0
 10
-11.8130322455
 20
-13.6584769015
 30
0.0
 10
-11.8128846089
 20
-13.6580320884
 30
0.0
 10
-11.8116397303
 20
-13.6572227737
 30
0.0
 10
-11.807606894
 20
-13.6558801306
 30
0.0
 10
-11.8036720857
 20
-13.6552202505
 30
0.0
 10
-11.8006727065
 20
-13.6547398805
 30
0.0
 11
-11.8130322455
 21
-13.6584769015
 31
0.0
 11
-11.8120098394
 21
-13.657511716
 31
0.0
 11
-11.8095988115
 21
-13.6565750728
 31
0.0
 11
-11.8006727065
 21
-13.6547398805
 31
0.0
  0
SPLINE
  5
70E
100
AcDbEntity
  8
ASSI
100
AcDbSpline
 62
7
  6
CONTINUOUS
 70
0
 71
3
 72
10
 73
6
 74
4
 42
0.0000001
 43
0.0000001
 44
0.0000000001
 12
0.0129404911
 22
-0.0020725037
 32
0.0
 13
0.0041283229
 23
-0.0124381884
 33
0.0
 40
0.0
 40
0.0
 40
0.0
 40
0.0
 40
0.6953474735
 40
0.8927143327
 40
1.0
 40
1.0
 40
1.0
 40
1.0
 10
9.3308182366
 20
-13.6547398805
 30
0.0
 10
9.3338176159
 20
-13.6552202505
 30
0.0
 10
9.3377524242
 20
-13.6558801306
 30
0.0
 10
9.3417852605
 20
-13.6572227737
 30
0.0
 10
9.3430301391
 20
-13.6580320884
 30
0.0
 10
9.3431777757
 20
-13.6584769015
 30
0.0
 11
9.3308182366
 21
-13.6547398805
 31
0.0
 11
9.3397443417
 21
-13.6565750728
 31
0.0
 11
9.3421553695
 21
-13.657511716
 31
0.0
 11
9.3431777757
 21
-13.6584769015
 31
0.0
  0
SPLINE
  5
70F
100
AcDbEntity
  8
ASSI
100
AcDbSpline
 62
7
  6
CONTINUOUS
 70
0
 71
3
 72
10
 73
6
 74
4
 42
0.0000001
 43
0.0000001
 44
0.0000000001
 12
-0.0129404911
 22
0.0020725037
 32
0.0
 13
-0.0041283229
 23
0.0124381884
 33
0.0
 40
0.0
 40
0.0
 40
0.0
 40
0.0
 40
0.6953474735
 40
0.8927143327
 40
1.0
 40
1.0
 40
1.0
 40
1.0
 10
-11.8006727065
 20
31.0060912318
 30
0.0
 10
-11.8036720857
 20
31.0065716019
 30
0.0
 10
-11.807606894
 20
31.007231482
 30
0.0
 10
-11.8116397303
 20
31.008574125
 30
0.0
 10
-11.8128846089
 20
31.0093834398
 30
0.0
 10
-11.8130322455
 20
31.0098282529
 30
0.0
 11
-11.8006727065
 21
31.0060912318
 31
0.0
 11
-11.8095988115
 21
31.0079264242
 31
0.0
 11
-11.8120098394
 21
31.0088630674
 31
0.0
 11
-11.8130322455
 21
31.0098282529
 31
0.0
  0
SPLINE
  5
710
100
AcDbEntity
  8
ASSI
100
AcDbSpline
 62
7
  6
CONTINUOUS
 70
0
 71
3
 72
10
 73
6
 74
4
 42
0.0000001
 43
0.0000001
 44
0.0000000001
 12
-0.0041283229
 22
-0.0124381884
 32
0.0
 13
-0.0129404911
 23
-0.0020725037
 33
0.0
 40
0.0
 40
0.0
 40
0.0
 40
0.0
 40
0.1072856673
 40
0.3046525265
 40
1.0
 40
1.0
 40
1.0
 40
1.0
 10
9.3431777757
 20
31.0098282529
 30
0.0
 10
9.3430301391
 20
31.0093834398
 30
0.0
 10
9.3417852605
 20
31.008574125
 30
0.0
 10
9.3377524242
 20
31.007231482
 30
0.0
 10
9.3338176159
 20
31.0065716019
 30
0.0
 10
9.3308182366
 20
31.0060912318
 30
0.0
 11
9.3431777757
 21
31.0098282529
 31
0.0
 11
9.3421553695
 21
31.0088630674
 31
0.0
 11
9.3397443417
 21
31.0079264242
 31
0.0
 11
9.3308182366
 21
31.0060912318
 31
0.0
  0
LINE
  5
711
100
AcDbEntity
  8
ASSI
100
AcDbLine
 62
7
  6
CONTINUOUS
 10
-9.7815502647
 20
32.303506892
 11
-9.9980566156
 21
32.520013243
  0
LINE
  5
712
100
AcDbEntity
  8
ASSI
100
AcDbLine
 62
7
  6
CONTINUOUS
 10
8.0184497353
 20
32.303506892
 11
7.8019433844
 21
32.520013243
  0
SPLINE
  5
713
100
AcDbEntity
  8
ASSI
100
AcDbSpline
 62
253
  6
CONTINUOUS
 70
0
 71
3
 72
9
 73
5
 74
3
 42
0.0000001
 43
0.0000001
 44
0.0000000001
 12
0.0000009928
 22
-0.2164846565
 32
0.0
 13
0.0013081016
 23
-0.2164807044
 33
0.0
 40
0.0
 40
0.0
 40
0.0
 40
0.0
 40
0.2986608327
 40
1.0
 40
1.0
 40
1.0
 40
1.0
 10
9.1248956381
 20
32.5200332701
 30
0.0
 10
9.124895737
 20
32.4984814409
 30
0.0
 10
9.1249383615
 20
32.4263199842
 30
0.0
 10
9.125025994
 20
32.3541579638
 30
0.0
 10
9.1253318016
 20
32.3035491648
 30
0.0
 11
9.1248956381
 21
32.5200332701
 31
0.0
 11
9.1249252122
 21
32.4553777891
 31
0.0
 11
9.1253318016
 21
32.3035491648
 31
0.0
  0
LINE
  5
714
100
AcDbEntity
  8
ASSI
100
AcDbLine
 62
7
  6
CONTINUOUS
 10
7.8019433844
 20
-15.1686618916
 11
8.0184497353
 21
-14.9521555407
  0
SPLINE
  5
715
100
AcDbEntity
  8
ASSI
100
AcDbSpline
 62
253
  6
CONTINUOUS
 70
0
 71
3
 72
9
 73
5
 74
3
 42
0.0000001
 43
0.0000001
 44
0.0000000001
 12
-0.0000000792
 22
0.2165052661
 32
0.0
 13
0.0013107614
 23
0.2165012983
 33
0.0
 40
0.0
 40
0.0
 40
0.0
 40
0.0
 40
0.2988001338
 40
1.0
 40
1.0
 40
1.0
 40
1.0
 10
9.1248956505
 20
-15.1686602554
 30
0.0
 10
9.1248956426
 20
-15.1470963213
 30
0.0
 10
9.1249389678
 20
-15.0749279957
 30
0.0
 10
9.1250256582
 20
-15.0027591011
 30
0.0
 10
9.1253320268
 20
-14.9521555407
 30
0.0
 11
9.1248956505
 21
-15.1686602554
 31
0.0
 11
9.1249254055
 21
-15.1039684598
 31
0.0
 11
9.1253320268
 21
-14.9521555407
 31
0.0
  0
LINE
  5
716
100
AcDbEntity
  8
ASSI
100
AcDbLine
 62
7
  6
CONTINUOUS
 10
-9.9980566156
 20
-15.1686618916
 11
-9.7815502647
 21
-14.9521555407
  0
SPLINE
  5
717
100
AcDbEntity
  8
ASSI
100
AcDbSpline
 62
253
  6
CONTINUOUS
 70
0
 71
3
 72
9
 73
5
 74
3
 42
0.0000001
 43
0.0000001
 44
0.0000000001
 12
-0.0000000792
 22
0.2165052661
 32
0.0
 13
0.0013107614
 23
0.2165012983
 33
0.0
 40
0.0
 40
0.0
 40
0.0
 40
0.0
 40
0.2988001338
 40
1.0
 40
1.0
 40
1.0
 40
1.0
 10
-8.6751043495
 20
-15.1686602554
 30
0.0
 10
-8.6751043574
 20
-15.1470963213
 30
0.0
 10
-8.6750610322
 20
-15.0749279957
 30
0.0
 10
-8.6749743418
 20
-15.0027591011
 30
0.0
 10
-8.6746679732
 20
-14.9521555407
 30
0.0
 11
-8.6751043495
 21
-15.1686602554
 31
0.0
 11
-8.6750745945
 21
-15.1039684598
 31
0.0
 11
-8.6746679732
 21
-14.9521555407
 31
0.0
  0
LINE
  5
718
100
AcDbEntity
  8
RACCORDO
100
AcDbLine
 62
7
  6
CONTINUOUS
 10
-7.395079665
 20
13.3854172293
 11
-7.3944919723
 21
13.385240413
  0
LINE
  5
719
100
AcDbEntity
  8
RACCORDO
100
AcDbLine
 62
7
  6
CONTINUOUS
 10
4.9246375024
 20
13.385240413
 11
4.9252252322
 21
13.3854172369
  0
SPLINE
  5
71A
100
AcDbEntity
  8
RACCORDO
100
AcDbSpline
 62
253
  6
CONTINUOUS
 70
0
 71
3
 72
8
 73
4
 74
2
 42
0.0000001
 43
0.0000001
 44
0.0000000001
 12
0.0007648298
 22
-8.0192431065
 32
0.0
 13
-0.0005374626
 23
-8.0192431249
 33
0.0
 40
0.0
 40
0.0
 40
0.0
 40
0.0
 40
1.0
 40
1.0
 40
1.0
 40
1.0
 10
4.9246375024
 20
13.385240413
 30
0.0
 10
4.9248924457
 20
10.7121593776
 30
0.0
 10
4.924930324
 20
8.0390783125
 30
0.0
 10
4.9247511698
 20
5.3659972709
 30
0.0
 11
4.9246375024
 21
13.385240413
 31
0.0
 11
4.9247511698
 21
5.3659972709
 31
0.0
  0
LINE
  5
71B
100
AcDbEntity
  8
RACCORDO
100
AcDbLine
 62
253
  6
CONTINUOUS
 10
4.9254301052
 20
5.3658048761
 11
2.12600272
 21
5.3648540068
  0
LINE
  5
71C
100
AcDbEntity
  8
RACCORDO
100
AcDbLine
 62
7
  6
CONTINUOUS
 10
4.9254301052
 20
5.3658048761
 11
4.9247511698
 21
5.3659972709
  0
LINE
  5
71D
100
AcDbEntity
  8
RACCORDO
100
AcDbLine
 62
7
  6
CONTINUOUS
 10
2.1258036434
 20
5.3649447973
 11
2.12600272
 21
5.3648540068
  0
LINE
  5
71E
100
AcDbEntity
  8
RACCORDO
100
AcDbLine
 62
253
  6
CONTINUOUS
 10
2.1258036434
 20
5.3649447973
 11
2.1256635149
 21
3.7650849259
  0
LINE
  5
71F
100
AcDbEntity
  8
RACCORDO
100
AcDbLine
 62
253
  6
CONTINUOUS
 10
2.1258059194
 20
3.7650121302
 11
1.0759470903
 21
3.7648013504
  0
LINE
  5
720
100
AcDbEntity
  8
RACCORDO
100
AcDbLine
 62
253
  6
CONTINUOUS
 10
1.0759120874
 20
3.7648363533
 11
1.0757695256
 21
2.5649789151
  0
SPLINE
  5
721
100
AcDbEntity
  8
RACCORDO
100
AcDbSpline
 62
253
  6
CONTINUOUS
 70
0
 71
3
 72
8
 73
4
 74
2
 42
0.0000001
 43
0.0000001
 44
0.0000000001
 12
-4.6214362608
 22
-0.0007504874
 32
0.0
 13
-4.6214362608
 23
0.0007504868
 33
0.0
 40
0.0
 40
0.0
 40
0.0
 40
0.0
 40
1.0
 40
1.0
 40
1.0
 40
1.0
 10
1.0757909259
 20
2.5649575148
 30
0.0
 10
-0.4646878277
 20
2.5647073523
 30
0.0
 10
-2.0051666422
 20
2.5647073525
 30
0.0
 10
-3.5456453958
 20
2.5649575148
 30
0.0
 11
1.0757909259
 21
2.5649575148
 31
0.0
 11
-3.5456453958
 21
2.5649575148
 31
0.0
  0
LINE
  5
722
100
AcDbEntity
  8
RACCORDO
100
AcDbLine
 62
253
  6
CONTINUOUS
 10
-3.5456239955
 20
2.5649789151
 11
-3.5457665573
 21
3.7648363533
  0
SPLINE
  5
723
100
AcDbEntity
  8
ASSI
100
AcDbSpline
 62
253
  6
CONTINUOUS
 70
0
 71
3
 72
14
 73
10
 74
8
 42
0.0000001
 43
0.0000001
 44
0.0000000001
 12
0.0000000171
 22
0.0500143994
 32
0.0
 13
-0.0353374338
 23
0.0353935859
 33
0.0
 40
0.0
 40
0.0
 40
0.0
 40
0.0
 40
0.3784748159
 40
0.5499130417
 40
0.7006958012
 40
0.8251540306
 40
0.9186156011
 40
0.977592863
 40
1.0
 40
1.0
 40
1.0
 40
1.0
 10
-11.794719659
 20
32.8863636976
 30
0.0
 10
-11.7947196569
 20
32.8926734278
 30
0.0
 10
-11.7947441906
 20
32.9018440073
 30
0.0
 10
-11.79485937
 20
32.9135187219
 30
0.0
 10
-11.7949366837
 20
32.9209803009
 30
0.0
 10
-11.7951284054
 20
32.9270826806
 30
0.0
 10
-11.7950975038
 20
32.9318019325
 30
0.0
 10
-11.7955486007
 20
32.9345167841
 30
0.0
 10
-11.7953132437
 20
32.936091726
 30
0.0
 10
-11.7955771806
 20
32.9363560823
 30
0.0
 11
-11.794719659
 21
32.8863636976
 31
0.0
 11
-11.794784624
 21
32.9052927767
 31
0.0
 11
-11.7948635595
 21
32.9138667932
 31
0.0
 11
-11.7949698951
 21
32.9214073527
 31
0.0
 11
-11.7950996296
 21
32.9276307042
 31
0.0
 11
-11.7952478878
 21
32.9323027767
 31
0.0
 11
-11.7954090855
 21
32.9352480812
 31
0.0
 11
-11.7955771806
 21
32.9363560823
 31
0.0
  0
SPLINE
  5
724
100
AcDbEntity
  8
ASSI
100
AcDbSpline
 62
253
  6
CONTINUOUS
 70
0
 71
3
 72
9
 73
5
 74
3
 42
0.0000001
 43
0.0000001
 44
0.0000000001
 12
0.0013110427
 22
0.0432843983
 32
0.0
 13
0.0000001007
 23
0.0433042489
 33
0.0
 40
0.0
 40
0.0
 40
0.0
 40
0.0
 40
0.1834520378
 40
1.0
 40
1.0
 40
1.0
 40
1.0
 10
-11.7951560356
 20
32.4767119728
 30
0.0
 10
-11.7950758645
 20
32.4793588431
 30
0.0
 10
-11.7947805454
 20
32.4937909873
 30
0.0
 10
-11.7947196864
 20
32.5082265776
 30
0.0
 10
-11.794719659
 20
32.520013243
 30
0.0
 11
-11.7951560356
 21
32.4767119728
 31
0.0
 11
-11.7949754014
 21
32.4846541716
 31
0.0
 11
-11.794719659
 21
32.520013243
 31
0.0
  0
SPLINE
  5
725
100
AcDbEntity
  8
ASSI
100
AcDbSpline
 62
253
  6
CONTINUOUS
 70
0
 71
3
 72
9
 73
5
 74
3
 42
0.0000001
 43
0.0000001
 44
0.0000000001
 12
0.0013086735
 22
-0.0432844709
 32
0.0
 13
-0.0000000099
 23
-0.0433042498
 33
0.0
 40
0.0
 40
0.0
 40
0.0
 40
0.0
 40
0.1834825616
 40
1.0
 40
1.0
 40
1.0
 40
1.0
 10
-11.7951560356
 20
-15.1253606214
 30
0.0
 10
-11.795075996
 20
-15.1280079366
 30
0.0
 10
-11.7947800572
 20
-15.1424400635
 30
0.0
 10
-11.7947196563
 20
-15.1568756666
 30
0.0
 10
-11.794719659
 20
-15.1686618916
 30
0.0
 11
-11.7951560356
 21
-15.1253606214
 31
0.0
 11
-11.7949753264
 21
-15.1333041409
 31
0.0
 11
-11.794719659
 21
-15.1686618916
 31
0.0
  0
SPLINE
  5
726
100
AcDbEntity
  8
ASSI
100
AcDbSpline
 62
253
  6
CONTINUOUS
 70
0
 71
3
 72
14
 73
10
 74
8
 42
0.0000001
 43
0.0000001
 44
0.0000000001
 12
0.0000000047
 22
-0.0500143989
 32
0.0
 13
-0.0353848757
 23
-0.035346155
 33
0.0
 40
0.0
 40
0.0
 40
0.0
 40
0.0
 40
0.3784710411
 40
0.5499082368
 40
0.7006911169
 40
0.825150225
 40
0.9186143814
 40
0.9775915881
 40
1.0
 40
1.0
 40
1.0
 40
1.0
 10
-11.794719659
 20
-15.5350123462
 30
0.0
 10
-11.7947196584
 20
-15.5413220134
 30
0.0
 10
-11.7947441806
 20
-15.5504925222
 30
0.0
 10
-11.7948593825
 20
-15.5621671355
 30
0.0
 10
-11.7949366369
 20
-15.5696287694
 30
0.0
 10
-11.7951285203
 20
-15.5757310531
 30
0.0
 10
-11.7950972247
 20
-15.5804507408
 30
0.0
 10
-11.7955490549
 20
-15.5831649452
 30
0.0
 10
-11.7953128743
 20
-15.5847407139
 30
0.0
 10
-11.7955771806
 20
-15.585004731
 30
0.0
 11
-11.794719659
 21
-15.5350123462
 31
0.0
 11
-11.7947846233
 21
-15.5539412364
 31
0.0
 11
-11.7948635574
 21
-15.5625152013
 31
0.0
 11
-11.7949698914
 21
-15.5700557667
 31
0.0
 11
-11.7950996253
 21
-15.5762791621
 31
0.0
 11
-11.795247884
 21
-15.5809513641
 31
0.0
 11
-11.7954090841
 21
-15.5838966656
 31
0.0
 11
-11.7955771806
 21
-15.585004731
 31
0.0
  0
LINE
  5
727
100
AcDbEntity
  8
RACCORDO
100
AcDbLine
 62
253
  6
CONTINUOUS
 10
-3.5458015602
 20
3.7648013504
 11
-4.5956603895
 21
3.7650121301
  0
LINE
  5
728
100
AcDbEntity
  8
RACCORDO
100
AcDbLine
 62
253
  6
CONTINUOUS
 10
-4.5955179847
 20
3.7650849259
 11
-4.5956581133
 21
5.3649447973
  0
LINE
  5
729
100
AcDbEntity
  8
RACCORDO
100
AcDbLine
 62
253
  6
CONTINUOUS
 10
-4.5958571898
 20
5.3648540068
 11
-7.3952845862
 21
5.365804874
  0
LINE
  5
72A
100
AcDbEntity
  8
RACCORDO
100
AcDbLine
 62
7
  6
CONTINUOUS
 10
-4.5958571898
 20
5.3648540068
 11
-4.5956581133
 21
5.3649447973
  0
LINE
  5
72B
100
AcDbEntity
  8
RACCORDO
100
AcDbLine
 62
7
  6
CONTINUOUS
 10
-7.3946056397
 20
5.3659972709
 11
-7.3952845862
 21
5.365804874
  0
SPLINE
  5
72C
100
AcDbEntity
  8
RACCORDO
100
AcDbSpline
 62
253
  6
CONTINUOUS
 70
0
 71
3
 72
8
 73
4
 74
2
 42
0.0000001
 43
0.0000001
 44
0.0000000001
 12
-0.0005374618
 22
8.0192431249
 32
0.0
 13
0.0007648309
 23
8.0192431065
 33
0.0
 40
0.0
 40
0.0
 40
0.0
 40
0.0
 40
1.0
 40
1.0
 40
1.0
 40
1.0
 10
-7.3946056397
 20
5.3659972709
 30
0.0
 10
-7.3947847936
 20
8.0390783125
 30
0.0
 10
-7.3947469159
 20
10.7121593776
 30
0.0
 10
-7.3944919723
 20
13.385240413
 30
0.0
 11
-7.3946056397
 21
5.3659972709
 31
0.0
 11
-7.3944919723
 21
13.385240413
 31
0.0
  0
SPLINE
  5
72D
100
AcDbEntity
  8
ASSI
100
AcDbSpline
 62
253
  6
CONTINUOUS
 70
0
 71
3
 72
18
 73
14
 74
12
 42
0.0000001
 43
0.0000001
 44
0.0000000001
 12
-0.2727050518
 22
1.1145131131
 32
0.0
 13
-0.0022672771
 23
1.1473893776
 33
0.0
 40
0.0
 40
0.0
 40
0.0
 40
0.0
 40
0.0095615452
 40
0.0278628161
 40
0.054787677
 40
0.0901064155
 40
0.1335285593
 40
0.184694872
 40
0.3084560765
 40
0.457229314
 40
0.6259613415
 40
0.8089850935
 40
1.0
 40
1.0
 40
1.0
 40
1.0
 10
-11.6477645713
 20
-13.3487137672
 30
0.0
 10
-11.6486337318
 20
-13.3451616114
 30
0.0
 10
-11.6494523291
 20
-13.3344737161
 30
0.0
 10
-11.6509252769
 20
-13.3136146076
 30
0.0
 10
-11.6521702847
 20
-13.2828097135
 30
0.0
 10
-11.653530923
 20
-13.242428686
 30
0.0
 10
-11.6548148779
 20
-13.1927565601
 30
0.0
 10
-11.6566027908
 20
-13.1092662753
 30
0.0
 10
-11.6585654726
 20
-12.985476173
 30
0.0
 10
-11.6605135157
 20
-12.8167190649
 30
0.0
 10
-11.6620852906
 20
-12.6252907988
 30
0.0
 10
-11.6632327803
 20
-12.4177036401
 30
0.0
 10
-11.6636814554
 20
-12.2746479009
 30
0.0
 10
-11.6638258167
 20
-12.2015917426
 30
0.0
 11
-11.6477645713
 21
-13.3487137672
 31
0.0
 11
-11.6491873736
 21
-13.3378355829
 31
0.0
 11
-11.6506088059
 21
-13.3168850226
 31
0.0
 11
-11.6520104829
 21
-13.2860234774
 31
0.0
 11
-11.653379159
 21
-13.2455221723
 31
0.0
 11
-11.6547045435
 21
-13.1957176008
 31
0.0
 11
-11.6559765582
 21
-13.1370235844
 31
0.0
 11
-11.6583211646
 21
-12.995040373
 31
0.0
 11
-11.6603365626
 21
-12.8243511052
 31
0.0
 11
-11.6619573611
 21
-12.6307561759
 31
0.0
 11
-11.6631339781
 21
-12.4207595532
 31
0.0
 11
-11.6638258167
 21
-12.2015917426
 31
0.0
  0
SPLINE
  5
72E
100
AcDbEntity
  8
ASSI
100
AcDbSpline
 62
253
  6
CONTINUOUS
 70
0
 71
3
 72
18
 73
14
 74
12
 42
0.0000001
 43
0.0000001
 44
0.0000000001
 12
-0.0022672758
 22
-1.1473893775
 32
0.0
 13
-0.2727050083
 23
-1.1145131235
 33
0.0
 40
0.0
 40
0.0
 40
0.0
 40
0.0
 40
0.1910149067
 40
0.3740386588
 40
0.5427706864
 40
0.6915439239
 40
0.8153051282
 40
0.8664714409
 40
0.9098935846
 40
0.9452123231
 40
0.9721371839
 40
0.9904384548
 40
1.0
 40
1.0
 40
1.0
 40
1.0
 10
9.1939713468
 20
-12.2015917416
 30
0.0
 10
9.1938269857
 20
-12.2746478999
 30
0.0
 10
9.1933783087
 20
-12.4177036392
 30
0.0
 10
9.1922308192
 20
-12.6252907981
 30
0.0
 10
9.1906590448
 20
-12.8167190642
 30
0.0
 10
9.1887110017
 20
-12.9854761721
 30
0.0
 10
9.18674832
 20
-13.1092662744
 30
0.0
 10
9.1849604073
 20
-13.1927565591
 30
0.0
 10
9.1836764525
 20
-13.2424286849
 30
0.0
 10
9.1823158142
 20
-13.2828097124
 30
0.0
 10
9.1810708063
 20
-13.3136146064
 30
0.0
 10
9.1795978585
 20
-13.3344737149
 30
0.0
 10
9.1787792612
 20
-13.3451616101
 30
0.0
 10
9.1779101008
 20
-13.348713766
 30
0.0
 11
9.1939713468
 21
-12.2015917416
 31
0.0
 11
9.193279507
 21
-12.4207595524
 31
0.0
 11
9.1921028898
 21
-12.6307561751
 31
0.0
 11
9.1904820917
 21
-12.8243511045
 31
0.0
 11
9.1884666937
 21
-12.9950403722
 31
0.0
 11
9.1861220875
 21
-13.1370235834
 31
0.0
 11
9.1848500729
 21
-13.1957175998
 31
0.0
 11
9.1835246884
 21
-13.2455221713
 31
0.0
 11
9.1821560123
 21
-13.2860234763
 31
0.0
 11
9.1807543353
 21
-13.3168850214
 31
0.0
 11
9.179332903
 21
-13.3378355816
 31
0.0
 11
9.1779101008
 21
-13.348713766
 31
0.0
  0
SPLINE
  5
72F
100
AcDbEntity
  8
ASSI
100
AcDbSpline
 62
253
  6
CONTINUOUS
 70
0
 71
3
 72
18
 73
14
 74
12
 42
0.0000001
 43
0.0000001
 44
0.0000000001
 12
0.0022672757
 22
1.1473893806
 32
0.0
 13
0.2727050096
 23
1.1145131265
 33
0.0
 40
0.0
 40
0.0
 40
0.0
 40
0.0
 40
0.1910149066
 40
0.3740386587
 40
0.5427706862
 40
0.6915439237
 40
0.8153051281
 40
0.8664714408
 40
0.9098935846
 40
0.9452123231
 40
0.9721371839
 40
0.9904384548
 40
1.0
 40
1.0
 40
1.0
 40
1.0
 10
-11.6638258167
 20
29.5529430897
 30
0.0
 10
-11.6636814555
 20
29.6259992482
 30
0.0
 10
-11.6632327786
 20
29.7690549878
 30
0.0
 10
-11.6620852891
 20
29.9766421472
 30
0.0
 10
-11.6605135147
 20
30.1680704139
 30
0.0
 10
-11.6585654715
 20
30.3368275224
 30
0.0
 10
-11.6566027899
 20
30.4606176249
 30
0.0
 10
-11.6548148772
 20
30.5441079099
 30
0.0
 10
-11.6535309224
 20
30.5937800359
 30
0.0
 10
-11.6521702841
 20
30.6341610635
 30
0.0
 10
-11.6509252762
 20
30.6649659576
 30
0.0
 10
-11.6494523284
 20
30.6858250662
 30
0.0
 10
-11.6486337311
 20
30.6965129614
 30
0.0
 10
-11.6477645707
 20
30.7000651173
 30
0.0
 11
-11.6638258167
 21
29.5529430897
 31
0.0
 11
-11.6631339769
 21
29.772110901
 31
0.0
 11
-11.6619573597
 21
29.9821075243
 31
0.0
 11
-11.6603365616
 21
30.1757024542
 31
0.0
 11
-11.6583211636
 21
30.3463917224
 31
0.0
 11
-11.6559765574
 21
30.4883749341
 31
0.0
 11
-11.6547045428
 21
30.5470689507
 31
0.0
 11
-11.6533791583
 21
30.5968735223
 31
0.0
 11
-11.6520104822
 21
30.6373748275
 31
0.0
 11
-11.6506088052
 21
30.6682363727
 31
0.0
 11
-11.6491873728
 21
30.6891869329
 31
0.0
 11
-11.6477645707
 21
30.7000651173
 31
0.0
  0
SPLINE
  5
730
100
AcDbEntity
  8
ASSI
100
AcDbSpline
 62
253
  6
CONTINUOUS
 70
0
 71
3
 72
18
 73
14
 74
12
 42
0.0000001
 43
0.0000001
 44
0.0000000001
 12
0.2727050513
 22
-1.1145131164
 32
0.0
 13
0.0022672769
 23
-1.1473893808
 33
0.0
 40
0.0
 40
0.0
 40
0.0
 40
0.0
 40
0.0095615452
 40
0.0278628161
 40
0.054787677
 40
0.0901064156
 40
0.1335285593
 40
0.1846948721
 40
0.3084560766
 40
0.4572293142
 40
0.6259613417
 40
0.8089850936
 40
1.0
 40
1.0
 40
1.0
 40
1.0
 10
9.1779101014
 20
30.7000651185
 30
0.0
 10
9.178779262
 20
30.6965129627
 30
0.0
 10
9.1795978592
 20
30.6858250675
 30
0.0
 10
9.1810708071
 20
30.6649659588
 30
0.0
 10
9.1823158149
 20
30.6341610647
 30
0.0
 10
9.1836764532
 20
30.593780037
 30
0.0
 10
9.1849604081
 20
30.5441079109
 30
0.0
 10
9.1867483209
 20
30.4606176259
 30
0.0
 10
9.1887110027
 20
30.3368275232
 30
0.0
 10
9.1906590458
 20
30.1680704146
 30
0.0
 10
9.1922308207
 20
29.976642148
 30
0.0
 10
9.1933783104
 20
29.7690549887
 30
0.0
 10
9.1938269855
 20
29.6259992492
 30
0.0
 10
9.1939713468
 20
29.5529430908
 30
0.0
 11
9.1779101014
 21
30.7000651185
 31
0.0
 11
9.1793329037
 21
30.6891869342
 31
0.0
 11
9.1807543361
 21
30.6682363739
 31
0.0
 11
9.182156013
 21
30.6373748286
 31
0.0
 11
9.1835246891
 21
30.5968735234
 31
0.0
 11
9.1848500736
 21
30.5470689517
 31
0.0
 11
9.1861220884
 21
30.488374935
 31
0.0
 11
9.1884666947
 21
30.3463917232
 31
0.0
 11
9.1904820927
 21
30.175702455
 31
0.0
 11
9.1921028912
 21
29.982107525
 31
0.0
 11
9.1932795082
 21
29.7721109019
 31
0.0
 11
9.1939713468
 21
29.5529430908
 31
0.0
  0
SPLINE
  5
731
100
AcDbEntity
  8
ASSI
100
AcDbSpline
 62
253
  6
CONTINUOUS
 70
0
 71
3
 72
18
 73
14
 74
12
 42
0.0000001
 43
0.0000001
 44
0.0000000001
 12
0.2428766571
 22
0.3997365241
 32
0.0
 13
0.4677337168
 23
0.0018786729
 33
0.0
 40
0.0
 40
0.0
 40
0.0
 40
0.0
 40
0.0083067707
 40
0.0250304712
 40
0.0504440753
 40
0.0844758323
 40
0.1268511227
 40
0.1772112865
 40
0.3002621425
 40
0.449404043
 40
0.6196662501
 40
0.8054813009
 40
1.0
 40
1.0
 40
1.0
 40
1.0
 10
-12.1301667185
 20
29.5315010325
 30
0.0
 10
-12.1294942116
 20
29.5326078724
 30
0.0
 10
-12.1253962808
 20
29.5340058978
 30
0.0
 10
-12.1180648116
 20
29.5358602406
 30
0.0
 10
-12.1061564696
 20
29.5376539101
 30
0.0
 10
-12.0904537831
 20
29.5394894516
 30
0.0
 10
-12.0707417416
 20
29.5412585947
 30
0.0
 10
-12.0371970764
 20
29.5437008821
 30
0.0
 10
-11.9869654645
 20
29.5463485604
 30
0.0
 10
-11.91803109
 20
29.5489306337
 30
0.0
 10
-11.8392845196
 20
29.5509548983
 30
0.0
 10
-11.7534503726
 20
29.5523491864
 30
0.0
 10
-11.6941526172
 20
29.5528208316
 30
0.0
 10
-11.6638249658
 20
29.5529426439
 30
0.0
 11
-12.1301667185
 21
29.5315010325
 31
0.0
 11
-12.1268249475
 21
29.5334831543
 31
0.0
 11
-12.1192547625
 21
29.5354531043
 31
0.0
 11
-12.1075268928
 21
29.5373909781
 31
0.0
 11
-12.0917211301
 21
29.5392773283
 31
0.0
 11
-12.0719842402
 21
29.5410960834
 31
0.0
 11
-12.0484930058
 21
29.5428326851
 31
0.0
 11
-11.9910248555
 21
29.5460024024
 31
0.0
 11
-11.921317004
 21
29.5486800028
 31
0.0
 11
-11.841706483
 21
29.5507725493
 31
0.0
 11
-11.7548057027
 21
29.5522098343
 31
0.0
 11
-11.6638249658
 21
29.5529426439
 31
0.0
  0
SPLINE
  5
732
100
AcDbEntity
  8
ASSI
100
AcDbSpline
 62
253
  6
CONTINUOUS
 70
0
 71
3
 72
18
 73
14
 74
12
 42
0.0000001
 43
0.0000001
 44
0.0000000001
 12
0.2427608349
 22
-0.3998061115
 32
0.0
 13
0.4677330651
 23
-0.0018787182
 33
0.0
 40
0.0
 40
0.0
 40
0.0
 40
0.0
 40
0.0083054546
 40
0.0250277847
 40
0.0504401409
 40
0.0844708176
 40
0.1268452235
 40
0.1772047211
 40
0.3002549777
 40
0.4493973171
 40
0.6196609898
 40
0.8054783856
 40
1.0
 40
1.0
 40
1.0
 40
1.0
 10
-12.1301667189
 20
-12.1801496833
 30
0.0
 10
-12.1294946392
 20
-12.1812565405
 30
0.0
 10
-12.1253969282
 20
-12.1826546768
 30
0.0
 10
-12.1180662975
 20
-12.1845089676
 30
0.0
 10
-12.1061584532
 20
-12.1863026897
 30
0.0
 10
-12.0904563421
 20
-12.1881382526
 30
0.0
 10
-12.0707447261
 20
-12.1899074373
 30
0.0
 10
-12.0372004565
 20
-12.1923497878
 30
0.0
 10
-11.9869690422
 20
-12.1949975397
 30
0.0
 10
-11.9180345652
 20
-12.1975796903
 30
0.0
 10
-11.8392874427
 20
-12.1996040234
 30
0.0
 10
-11.7534523675
 20
-12.200998362
 30
0.0
 10
-11.6941538746
 20
-12.2014700248
 30
0.0
 10
-11.663825811
 20
-12.2015918419
 30
0.0
 11
-12.1301667189
 21
-12.1801496833
 31
0.0
 11
-12.1268256882
 21
-12.1821318359
 31
0.0
 11
-12.1192561856
 21
-12.1841018197
 31
0.0
 11
-12.1075289303
 21
-12.18603973
 31
0.0
 11
-12.0917237036
 21
-12.1879261192
 31
0.0
 11
-12.0719872606
 21
-12.1897449151
 31
0.0
 11
-12.0484963746
 21
-12.1914815592
 31
0.0
 11
-11.9910285902
 21
-12.1946513627
 31
0.0
 11
-11.9213206337
 21
-12.1973290462
 31
0.0
 11
-11.8417095398
 21
-12.1994216652
 31
0.0
 11
-11.7548077845
 21
-12.2008590037
 31
0.0
 11
-11.663825811
 21
-12.2015918419
 31
0.0
  0
SPLINE
  5
733
100
AcDbEntity
  8
ASSI
100
AcDbSpline
 62
253
  6
CONTINUOUS
 70
0
 71
3
 72
18
 73
14
 74
12
 42
0.0000001
 43
0.0000001
 44
0.0000000001
 12
-0.2428766561
 22
-0.3997365248
 32
0.0
 13
-0.4677337169
 23
-0.0018786729
 33
0.0
 40
0.0
 40
0.0
 40
0.0
 40
0.0
 40
0.0083067707
 40
0.0250304711
 40
0.0504440753
 40
0.0844758323
 40
0.1268511227
 40
0.1772112864
 40
0.3002621424
 40
0.449404043
 40
0.6196662501
 40
0.8054813008
 40
1.0
 40
1.0
 40
1.0
 40
1.0
 10
9.6603122487
 20
-12.1801496812
 30
0.0
 10
9.6596397418
 20
-12.181256521
 30
0.0
 10
9.655541811
 20
-12.1826545465
 30
0.0
 10
9.6482103418
 20
-12.1845088893
 30
0.0
 10
9.6363019998
 20
-12.1863025588
 30
0.0
 10
9.6205993132
 20
-12.1881381002
 30
0.0
 10
9.6008872718
 20
-12.1899072434
 30
0.0
 10
9.5673426066
 20
-12.1923495308
 30
0.0
 10
9.5171109946
 20
-12.1949972091
 30
0.0
 10
9.4481766201
 20
-12.1975792823
 30
0.0
 10
9.3694300497
 20
-12.1996035469
 30
0.0
 10
9.2835959028
 20
-12.2009978351
 30
0.0
 10
9.2242981474
 20
-12.2014694802
 30
0.0
 10
9.193970496
 20
-12.2015912925
 30
0.0
 11
9.6603122487
 21
-12.1801496812
 31
0.0
 11
9.6569704777
 21
-12.182131803
 31
0.0
 11
9.6494002927
 21
-12.184101753
 31
0.0
 11
9.637672423
 21
-12.1860396268
 31
0.0
 11
9.6218666603
 21
-12.1879259769
 31
0.0
 11
9.6021297704
 21
-12.189744732
 31
0.0
 11
9.578638536
 21
-12.1914813337
 31
0.0
 11
9.5211703856
 21
-12.194651051
 31
0.0
 11
9.4514625342
 21
-12.1973286514
 31
0.0
 11
9.3718520132
 21
-12.1994211979
 31
0.0
 11
9.2849512328
 21
-12.2008584829
 31
0.0
 11
9.193970496
 21
-12.2015912925
 31
0.0
  0
SPLINE
  5
734
100
AcDbEntity
  8
ASSI
100
AcDbSpline
 62
253
  6
CONTINUOUS
 70
0
 71
3
 72
18
 73
14
 74
12
 42
0.0000001
 43
0.0000001
 44
0.0000000001
 12
-0.242760945
 22
0.3998060451
 32
0.0
 13
-0.4677330655
 23
0.0018787179
 33
0.0
 40
0.0
 40
0.0
 40
0.0
 40
0.0
 40
0.0083054559
 40
0.0250277872
 40
0.0504401445
 40
0.084470822
 40
0.1268452286
 40
0.1772047265
 40
0.3002549833
 40
0.4493973222
 40
0.6196609936
 40
0.8054783876
 40
1.0
 40
1.0
 40
1.0
 40
1.0
 10
9.6603122491
 20
29.5315010347
 30
0.0
 10
9.659640169
 20
29.5326078918
 30
0.0
 10
9.6555424578
 20
29.534006028
 30
0.0
 10
9.6482118263
 20
29.5358603189
 30
0.0
 10
9.6363039815
 20
29.537654041
 30
0.0
 10
9.62060187
 20
29.5394896039
 30
0.0
 10
9.6008902537
 20
29.5412587886
 30
0.0
 10
9.5673459839
 20
29.5437011391
 30
0.0
 10
9.5171145696
 20
29.5463488909
 30
0.0
 10
9.4481800928
 20
29.5489310415
 30
0.0
 10
9.3694329708
 20
29.5509553745
 30
0.0
 10
9.2835978963
 20
29.5523497131
 30
0.0
 10
9.2242994039
 20
29.5528213758
 30
0.0
 10
9.1939713405
 20
29.5529431929
 30
0.0
 11
9.6603122491
 21
29.5315010347
 31
0.0
 11
9.6569712177
 21
29.5334831873
 31
0.0
 11
9.6494017145
 21
29.535453171
 31
0.0
 11
9.6376744587
 21
29.5373910814
 31
0.0
 11
9.6218692315
 21
29.5392774705
 31
0.0
 11
9.6021327882
 21
29.5410962664
 31
0.0
 11
9.578641902
 21
29.5428329105
 31
0.0
 11
9.5211741174
 21
29.546002714
 31
0.0
 11
9.4514661611
 21
29.5486803974
 31
0.0
 11
9.3718550678
 21
29.5507730163
 31
0.0
 11
9.2849533132
 21
29.5522103548
 31
0.0
 11
9.1939713405
 21
29.5529431929
 31
0.0
  0
SPLINE
  5
735
100
AcDbEntity
  8
ASSI
100
AcDbSpline
 62
253
  6
CONTINUOUS
 70
0
 71
3
 72
9
 73
5
 74
3
 42
0.0000001
 43
0.0000001
 44
0.0000000001
 12
0.0000001007
 22
-0.0433040262
 32
0.0
 13
0.0013110356
 23
-0.0432841757
 33
0.0
 40
0.0
 40
0.0
 40
0.0
 40
0.0
 40
0.2986840764
 40
1.0
 40
1.0
 40
1.0
 40
1.0
 10
9.3248651892
 20
32.520013243
 30
0.0
 10
9.3248651992
 20
32.5157018353
 30
0.0
 10
9.3249086437
 20
32.5012676431
 30
0.0
 10
9.3249950824
 20
32.4868306
 30
0.0
 10
9.3253015658
 20
32.4767119728
 30
0.0
 11
9.3248651892
 21
32.520013243
 31
0.0
 11
9.3248949871
 21
32.5070790542
 31
0.0
 11
9.3253015658
 21
32.4767119728
 31
0.0
  0
SPLINE
  5
736
100
AcDbEntity
  8
ASSI
100
AcDbSpline
 62
253
  6
CONTINUOUS
 70
0
 71
3
 72
14
 73
10
 74
8
 42
0.0000001
 43
0.0000001
 44
0.0000000001
 12
-0.0353768578
 22
-0.0353541823
 32
0.0
 13
0.0000000128
 23
-0.0500144006
 33
0.0
 40
0.0
 40
0.0
 40
0.0
 40
0.0
 40
0.0223937944
 40
0.0813434341
 40
0.1747761037
 40
0.2992081645
 40
0.4499725189
 40
0.6214129187
 40
1.0
 40
1.0
 40
1.0
 40
1.0
 10
9.3257227108
 20
32.9363560823
 30
0.0
 10
9.3254586367
 20
32.9360921776
 30
0.0
 10
9.3256944387
 20
32.9345173845
 30
0.0
 10
9.3252429484
 20
32.9318041967
 30
0.0
 10
9.3252741031
 20
32.9270860406
 30
0.0
 10
9.3250822603
 20
32.920985009
 30
0.0
 10
9.3250049714
 20
32.913524091
 30
0.0
 10
9.3248897237
 20
32.9018477964
 30
0.0
 10
9.3248651875
 20
32.8926752996
 30
0.0
 10
9.3248651892
 20
32.8863636976
 30
0.0
 11
9.3257227108
 21
32.9363560823
 31
0.0
 11
9.3255546719
 21
32.9352487476
 31
0.0
 11
9.325393504
 21
32.932304825
 31
0.0
 11
9.3252452516
 21
32.9276341983
 31
0.0
 11
9.3251155086
 21
32.921412156
 31
0.0
 11
9.3250091555
 21
32.9138725172
 31
0.0
 11
9.3249301938
 21
32.9052983919
 31
0.0
 11
9.3248651892
 21
32.8863636976
 31
0.0
  0
SPLINE
  5
737
100
AcDbEntity
  8
ASSI
100
AcDbSpline
 62
253
  6
CONTINUOUS
 70
0
 71
3
 72
14
 73
10
 74
8
 42
0.0000001
 43
0.0000001
 44
0.0000000001
 12
-0.0353890603
 22
0.0353419688
 32
0.0
 13
0.0000000042
 23
0.0500144013
 33
0.0
 40
0.0
 40
0.0
 40
0.0
 40
0.0
 40
0.0223894589
 40
0.0813316649
 40
0.1747572081
 40
0.2991857903
 40
0.4499513862
 40
0.6213965713
 40
1.0
 40
1.0
 40
1.0
 40
1.0
 10
9.3257227108
 20
-15.585004731
 30
0.0
 10
9.3254585968
 20
-15.5847409685
 30
0.0
 10
9.3256945299
 20
-15.5831662057
 30
0.0
 10
9.3252429171
 20
-15.5804534909
 30
0.0
 10
9.3252741501
 20
-15.575735545
 30
0.0
 10
9.3250822662
 20
-15.5696347096
 30
0.0
 10
9.3250049861
 20
-15.562173734
 30
0.0
 10
9.3248897231
 20
-15.5504970729
 30
0.0
 10
9.3248651886
 20
-15.5413242208
 30
0.0
 10
9.3248651892
 20
-15.5350123462
 30
0.0
 11
9.3257227108
 21
-15.585004731
 31
0.0
 11
9.3255546874
 21
-15.5838976132
 31
0.0
 11
9.3253935266
 21
-15.5809540625
 31
0.0
 11
9.3252452752
 21
-15.5762837923
 31
0.0
 11
9.3251155275
 21
-15.570061924
 31
0.0
 11
9.3250091678
 21
-15.5625222231
 31
0.0
 11
9.3249301999
 21
-15.5539478585
 31
0.0
 11
9.3248651892
 21
-15.5350123462
 31
0.0
  0
SPLINE
  5
738
100
AcDbEntity
  8
ASSI
100
AcDbSpline
 62
253
  6
CONTINUOUS
 70
0
 71
3
 72
9
 73
5
 74
3
 42
0.0000001
 43
0.0000001
 44
0.0000000001
 12
-0.00000001
 22
0.0433040274
 32
0.0
 13
0.0013086633
 23
0.0432842487
 33
0.0
 40
0.0
 40
0.0
 40
0.0
 40
0.0
 40
0.2987935853
 40
1.0
 40
1.0
 40
1.0
 40
1.0
 10
9.3248651892
 20
-15.1686618916
 30
0.0
 10
9.3248651882
 20
-15.1643489031
 30
0.0
 10
9.3249083358
 20
-15.1499147063
 30
0.0
 10
9.3249956847
 20
-15.1354776857
 30
0.0
 10
9.3253015658
 20
-15.1253606214
 30
0.0
 11
9.3248651892
 21
-15.1686618916
 31
0.0
 11
9.3248949188
 21
-15.1557229602
 31
0.0
 11
9.3253015658
 21
-15.1253606214
 31
0.0
  0
SPLINE
  5
739
100
AcDbEntity
  8
ASSI
100
AcDbSpline
 62
253
  6
CONTINUOUS
 70
0
 71
3
 72
18
 73
14
 74
12
 42
0.0000001
 43
0.0000001
 44
0.0000000001
 12
-0.2988795543
 22
-0.5994852205
 32
0.0
 13
-0.0007594237
 23
-0.6698588963
 33
0.0
 40
0.0
 40
0.0
 40
0.0
 40
0.0
 40
0.0097962112
 40
0.0281779245
 40
0.0551152857
 40
0.0904043905
 40
0.1337662328
 40
0.1848523741
 40
0.3084453561
 40
0.457098118
 40
0.6257936519
 40
0.8088691389
 40
1.0
 40
1.0
 40
1.0
 40
1.0
 10
9.6777387639
 20
30.2007503512
 30
0.0
 10
9.6767628015
 20
30.1987927899
 30
0.0
 10
9.6757096711
 20
30.1924622114
 30
0.0
 10
9.6740433022
 20
30.1803537603
 30
0.0
 10
9.6725699247
 20
30.1623677037
 30
0.0
 10
9.6710145211
 20
30.1388604334
 30
0.0
 10
9.6695454938
 20
30.1099215675
 30
0.0
 10
9.6675277456
 20
30.0612804133
 30
0.0
 10
9.665358007
 20
29.9891134838
 30
0.0
 10
9.6632790312
 20
29.8906793004
 30
0.0
 10
9.6616917144
 20
29.7789516684
 30
0.0
 10
9.660654363
 20
29.6577330462
 30
0.0
 10
9.6603606322
 20
29.5741779372
 30
0.0
 10
9.6603122491
 20
29.5315010347
 30
0.0
 11
9.6777387639
 21
30.2007503512
 31
0.0
 11
9.6760548652
 21
30.1944079995
 31
0.0
 11
9.6743911164
 21
30.1822077577
 31
0.0
 11
9.6727639466
 21
30.1642370312
 31
0.0
 11
9.6711873955
 21
30.1406509267
 31
0.0
 11
9.6696741486
 21
30.1116440374
 31
0.0
 11
9.668236723
 21
30.0774537118
 31
0.0
 11
9.6656381475
 21
29.9947045916
 31
0.0
 11
9.6634809664
 21
29.8951515215
 31
0.0
 11
9.661839357
 21
29.7821611694
 31
0.0
 11
9.6607705905
 21
29.6595310042
 31
0.0
 11
9.6603122491
 21
29.5315010347
 31
0.0
  0
SPLINE
  5
73A
100
AcDbEntity
  8
ASSI
100
AcDbSpline
 62
253
  6
CONTINUOUS
 70
0
 71
3
 72
18
 73
14
 74
12
 42
0.0000001
 43
0.0000001
 44
0.0000000001
 12
0.0007594238
 22
-0.6698588972
 32
0.0
 13
0.2988795282
 23
-0.5994852346
 33
0.0
 40
0.0
 40
0.0
 40
0.0
 40
0.0
 40
0.1911308635
 40
0.3742063506
 40
0.5429018838
 40
0.6915546455
 40
0.8151476268
 40
0.8662337678
 40
0.9095956099
 40
0.9448847149
 40
0.971822076
 40
0.9902037888
 40
1.0
 40
1.0
 40
1.0
 40
1.0
 10
9.6603122487
 20
-12.1801496812
 30
0.0
 10
9.6603606319
 20
-12.2228265843
 30
0.0
 10
9.6606543622
 20
-12.306381694
 30
0.0
 10
9.6616917137
 20
-12.4276003167
 30
0.0
 10
9.6632790306
 20
-12.5393279488
 30
0.0
 10
9.6653580063
 20
-12.6377621319
 30
0.0
 10
9.6675277449
 20
-12.7099290612
 30
0.0
 10
9.6695454932
 20
-12.7585702152
 30
0.0
 10
9.6710145205
 20
-12.7875090811
 30
0.0
 10
9.6725699241
 20
-12.8110163514
 30
0.0
 10
9.6740433016
 20
-12.8290024079
 30
0.0
 10
9.6757096704
 20
-12.8411108589
 30
0.0
 10
9.676762801
 20
-12.8474414373
 30
0.0
 10
9.6777387633
 20
-12.8493989986
 30
0.0
 11
9.6603122487
 21
-12.1801496812
 31
0.0
 11
9.6607705899
 21
-12.3081796525
 31
0.0
 11
9.6618393563
 21
-12.4308098179
 31
0.0
 11
9.6634809658
 21
-12.5438001697
 31
0.0
 11
9.6656381469
 21
-12.6433532398
 31
0.0
 11
9.6682367224
 21
-12.7261023597
 31
0.0
 11
9.6696741479
 21
-12.760292685
 31
0.0
 11
9.6711873948
 21
-12.7892995743
 31
0.0
 11
9.672763946
 21
-12.8128856789
 31
0.0
 11
9.6743911158
 21
-12.8308564054
 31
0.0
 11
9.6760548646
 21
-12.8430566469
 31
0.0
 11
9.6777387633
 21
-12.8493989986
 31
0.0
  0
SPLINE
  5
73B
100
AcDbEntity
  8
RACCORDO
100
AcDbSpline
 62
7
  6
CONTINUOUS
 70
0
 71
3
 72
13
 73
9
 74
7
 42
0.0000001
 43
0.0000001
 44
0.0000000001
 12
-0.5096363637
 22
-0.5096353757
 32
0.0
 13
-0.5099730876
 23
-0.5092984285
 33
0.0
 40
0.0
 40
0.0
 40
0.0
 40
0.0
 40
0.0303846398
 40
0.1094462858
 40
0.2233673996
 40
0.3599060782
 40
0.6698966439
 40
1.0
 40
1.0
 40
1.0
 40
1.0
 10
-3.5456453958
 20
2.5649575148
 30
0.0
 10
-3.5508071016
 20
2.559795819
 30
0.0
 10
-3.5700125714
 20
2.5418281558
 30
0.0
 10
-3.6078379598
 20
2.5037555537
 30
0.0
 10
-3.6642050511
 20
2.4481702889
 30
0.0
 10
-3.7596313509
 20
2.3531785412
 30
0.0
 10
-3.8918815949
 20
2.2215638258
 30
0.0
 10
-4.0007364061
 20
2.112941898
 30
0.0
 10
-4.0568510154
 20
2.0569015245
 30
0.0
 11
-3.5456453958
 21
2.5649575148
 31
0.0
 11
-3.5614190359
 21
2.5497664298
 31
0.0
 11
-3.6019903792
 21
2.5097544127
 31
0.0
 11
-3.6602952
 21
2.451943713
 31
0.0
 11
-3.7300990053
 21
2.382578192
 31
0.0
 11
-3.8884227147
 21
2.2249380177
 31
0.0
 11
-4.0568510154
 21
2.0569015245
 31
0.0
  0
SPLINE
  5
73C
100
AcDbEntity
  8
RACCORDO
100
AcDbSpline
 62
7
  6
CONTINUOUS
 70
0
 71
3
 72
14
 73
10
 74
8
 42
0.0000001
 43
0.0000001
 44
0.0000000001
 12
-0.5089790627
 22
-0.5089790634
 32
0.0
 13
-0.509314354
 23
-0.508643551
 33
0.0
 40
0.0
 40
0.0
 40
0.0
 40
0.0
 40
0.0291573274
 40
0.0629304554
 40
0.1074836172
 40
0.2212066144
 40
0.35787409
 40
0.6686919625
 40
1.0
 40
1.0
 40
1.0
 40
1.0
 10
-3.5457665573
 20
3.7648363533
 30
0.0
 10
-3.5507133804
 20
3.7598895302
 30
0.0
 10
-3.5620151785
 20
3.7498587136
 30
0.0
 10
-3.5803265713
 20
3.7316947153
 30
0.0
 10
-3.6132439467
 20
3.6994514445
 30
0.0
 10
-3.6635690167
 20
3.6496964358
 30
0.0
 10
-3.7592385674
 20
3.5549400882
 30
0.0
 10
-3.8917408656
 20
3.4231830674
 30
0.0
 10
-4.0008439476
 20
3.3144007019
 30
0.0
 10
-4.0570905939
 20
3.2582281364
 30
0.0
 11
-3.5457665573
 21
3.7648363533
 31
0.0
 11
-3.5610615625
 21
3.7504647887
 31
0.0
 11
-3.5785051253
 21
3.7335325237
 31
0.0
 11
-3.6013784764
 21
3.7110543434
 31
0.0
 11
-3.6596460637
 21
3.6535592591
 31
0.0
 11
-3.7295371488
 21
3.5843301518
 31
0.0
 11
-3.888220294
 21
3.4266151993
 31
0.0
 11
-4.0570905939
 21
3.2582281364
 31
0.0
  0
SPLINE
  5
73D
100
AcDbEntity
  8
ASSI
100
AcDbSpline
 62
253
  6
CONTINUOUS
 70
0
 71
3
 72
9
 73
5
 74
3
 42
0.0000001
 43
0.0000001
 44
0.0000000001
 12
-0.00000001
 22
0.0433040274
 32
0.0
 13
0.0013086633
 23
0.0432842487
 33
0.0
 40
0.0
 40
0.0
 40
0.0
 40
0.0
 40
0.2987935853
 40
1.0
 40
1.0
 40
1.0
 40
1.0
 10
-8.4751348108
 20
-15.1686618916
 30
0.0
 10
-8.4751348118
 20
-15.1643489031
 30
0.0
 10
-8.4750916642
 20
-15.1499147063
 30
0.0
 10
-8.4750043153
 20
-15.1354776857
 30
0.0
 10
-8.4746984342
 20
-15.1253606214
 30
0.0
 11
-8.4751348108
 21
-15.1686618916
 31
0.0
 11
-8.4751050812
 21
-15.1557229602
 31
0.0
 11
-8.4746984342
 21
-15.1253606214
 31
0.0
  0
SPLINE
  5
73E
100
AcDbEntity
  8
ASSI
100
AcDbSpline
 62
253
  6
CONTINUOUS
 70
0
 71
3
 72
14
 73
10
 74
8
 42
0.0000001
 43
0.0000001
 44
0.0000000001
 12
-0.0353890603
 22
0.0353419688
 32
0.0
 13
0.0000000042
 23
0.0500144013
 33
0.0
 40
0.0
 40
0.0
 40
0.0
 40
0.0
 40
0.0223894589
 40
0.0813316649
 40
0.1747572081
 40
0.2991857903
 40
0.4499513862
 40
0.6213965713
 40
1.0
 40
1.0
 40
1.0
 40
1.0
 10
-8.4742772892
 20
-15.585004731
 30
0.0
 10
-8.4745414032
 20
-15.5847409685
 30
0.0
 10
-8.4743054701
 20
-15.5831662057
 30
0.0
 10
-8.4747570829
 20
-15.5804534909
 30
0.0
 10
-8.4747258499
 20
-15.575735545
 30
0.0
 10
-8.4749177338
 20
-15.5696347096
 30
0.0
 10
-8.4749950139
 20
-15.562173734
 30
0.0
 10
-8.4751102769
 20
-15.5504970729
 30
0.0
 10
-8.4751348114
 20
-15.5413242208
 30
0.0
 10
-8.4751348108
 20
-15.5350123462
 30
0.0
 11
-8.4742772892
 21
-15.585004731
 31
0.0
 11
-8.4744453126
 21
-15.5838976132
 31
0.0
 11
-8.4746064734
 21
-15.5809540625
 31
0.0
 11
-8.4747547248
 21
-15.5762837923
 31
0.0
 11
-8.4748844725
 21
-15.570061924
 31
0.0
 11
-8.4749908322
 21
-15.5625222231
 31
0.0
 11
-8.4750698001
 21
-15.5539478585
 31
0.0
 11
-8.4751348108
 21
-15.5350123462
 31
0.0
  0
SPLINE
  5
73F
100
AcDbEntity
  8
ASSI
100
AcDbSpline
 62
253
  6
CONTINUOUS
 70
0
 71
3
 72
14
 73
10
 74
8
 42
0.0000001
 43
0.0000001
 44
0.0000000001
 12
-0.0000000203
 22
0.0500143983
 32
0.0
 13
0.0353703491
 23
0.0353606907
 33
0.0
 40
0.0
 40
0.0
 40
0.0
 40
0.0
 40
0.3784778443
 40
0.5499151366
 40
0.7006962726
 40
0.8251531199
 40
0.9186154914
 40
0.9775909074
 40
1.0
 40
1.0
 40
1.0
 40
1.0
 10
-8.4751348108
 20
32.8863636976
 30
0.0
 10
-8.4751348134
 20
32.8926734781
 30
0.0
 10
-8.475110286
 20
32.901844099
 30
0.0
 10
-8.4749950877
 20
32.9135188051
 30
0.0
 10
-8.4749178164
 20
32.9209803567
 30
0.0
 10
-8.4747259781
 20
32.9270825919
 30
0.0
 10
-8.474757164
 20
32.9318020649
 30
0.0
 10
-8.4743055432
 20
32.9345164419
 30
0.0
 10
-8.474541495
 20
32.9360919487
 30
0.0
 10
-8.4742772892
 20
32.9363560823
 30
0.0
 11
-8.4751348108
 21
32.8863636976
 31
0.0
 11
-8.4750698444
 21
32.9052929278
 31
0.0
 11
-8.4749909085
 21
32.9138668974
 31
0.0
 11
-8.4748845737
 21
32.9214073755
 31
0.0
 11
-8.4747548399
 21
32.9276306577
 31
0.0
 11
-8.4746065822
 21
32.9323027703
 31
0.0
 11
-8.4744453838
 21
32.9352479822
 31
0.0
 11
-8.4742772892
 21
32.9363560823
 31
0.0
  0
SPLINE
  5
740
100
AcDbEntity
  8
ASSI
100
AcDbSpline
 62
253
  6
CONTINUOUS
 70
0
 71
3
 72
9
 73
5
 74
3
 42
0.0000001
 43
0.0000001
 44
0.0000000001
 12
-0.0013086619
 22
0.0432844713
 32
0.0
 13
0.000000012
 23
0.0433042498
 33
0.0
 40
0.0
 40
0.0
 40
0.0
 40
0.0
 40
0.1834851879
 40
1.0
 40
1.0
 40
1.0
 40
1.0
 10
-8.4746984342
 20
32.4767119728
 30
0.0
 10
-8.4747784742
 20
32.4793593259
 30
0.0
 10
-8.4750744163
 20
32.4937914527
 30
0.0
 10
-8.4751348141
 20
32.5082270558
 30
0.0
 10
-8.4751348108
 20
32.520013243
 30
0.0
 11
-8.4746984342
 21
32.4767119728
 31
0.0
 11
-8.4748791462
 21
32.4846556059
 31
0.0
 11
-8.4751348108
 21
32.520013243
 31
0.0
  0
SPLINE
  5
741
100
AcDbEntity
  8
RACCORDO
100
AcDbSpline
 62
7
  6
CONTINUOUS
 70
0
 71
3
 72
9
 73
5
 74
3
 42
0.0000001
 43
0.0000001
 44
0.0000000001
 12
-0.2285475356
 22
-0.2636760438
 32
0.0
 13
0.0032383963
 23
-0.3489248413
 33
0.0
 40
0.0
 40
0.0
 40
0.0
 40
0.0
 40
0.5140991111
 40
1.0
 40
1.0
 40
1.0
 40
1.0
 10
-69.6155077554
 20
5.1985253409
 30
0.0
 10
-69.654673117
 20
5.1533401343
 30
0.0
 10
-69.7147181183
 20
5.0500133975
 30
0.0
 10
-69.7337295782
 20
4.9326118388
 30
0.0
 10
-69.7332050649
 20
4.8760975419
 30
0.0
 11
-69.6155077554
 21
5.1985253409
 31
0.0
 11
-69.7055662019
 21
5.0433798214
 31
0.0
 11
-69.7332050649
 21
4.8760975419
 31
0.0
  0
SPLINE
  5
742
100
AcDbEntity
  8
ASSI
100
AcDbSpline
 62
7
  6
CONTINUOUS
 70
0
 71
3
 72
11
 73
7
 74
5
 42
0.0000001
 43
0.0000001
 44
0.0000000001
 12
0.0756701695
 22
-1.7604416396
 32
0.0
 13
1.7596470824
 23
-0.0923194788
 33
0.0
 40
0.0
 40
0.0
 40
0.0
 40
0.0
 40
0.2500100316
 40
0.5000053562
 40
0.7499975504
 40
1.0
 40
1.0
 40
1.0
 40
1.0
 10
-68.9169695219
 20
-12.2015917416
 30
0.0
 10
-68.9106634215
 20
-12.3483010982
 30
0.0
 10
-68.8428299608
 20
-12.6421961052
 30
0.0
 10
-68.5892956847
 20
-13.0143460067
 30
0.0
 10
-68.2190944674
 20
-13.2706491276
 30
0.0
 10
-67.9258681478
 20
-13.3410204007
 30
0.0
 10
-67.7792294541
 20
-13.348713766
 30
0.0
 11
-68.9169695219
 21
-12.2015917416
 31
0.0
 11
-68.8175285392
 21
-12.6307561751
 31
0.0
 11
-68.5698496909
 21
-12.9950403722
 31
0.0
 11
-68.2074937929
 21
-13.2455221713
 31
0.0
 11
-67.7792294541
 21
-13.348713766
 31
0.0
  0
SPLINE
  5
743
100
AcDbEntity
  8
ASSI
100
AcDbSpline
 62
7
  6
CONTINUOUS
 70
0
 71
3
 72
11
 73
7
 74
5
 42
0.0000001
 43
0.0000001
 44
0.0000000001
 12
-1.7596470841
 22
-0.0923194738
 32
0.0
 13
-0.075670157
 23
-1.7604416415
 33
0.0
 40
0.0
 40
0.0
 40
0.0
 40
0.0
 40
0.2500024496
 40
0.4999946438
 40
0.7499899684
 40
1.0
 40
1.0
 40
1.0
 40
1.0
 10
-67.7792294306
 20
30.7000651185
 30
0.0
 10
-67.9258681244
 20
30.6923717537
 30
0.0
 10
-68.2190944442
 20
30.6220004796
 30
0.0
 10
-68.5892956613
 20
30.3656973578
 30
0.0
 10
-68.842829936
 20
29.993547455
 30
0.0
 10
-68.9106633967
 20
29.6996524476
 30
0.0
 10
-68.9169694962
 20
29.5529430908
 30
0.0
 11
-67.7792294306
 21
30.7000651185
 31
0.0
 11
-68.2074937697
 21
30.5968735234
 31
0.0
 11
-68.5698496674
 21
30.3463917232
 31
0.0
 11
-68.8175285146
 21
29.982107525
 31
0.0
 11
-68.9169694962
 21
29.5529430908
 31
0.0
  0
SPLINE
  5
744
100
AcDbEntity
  8
ASSI
100
AcDbSpline
 62
253
  6
CONTINUOUS
 70
0
 71
3
 72
20
 73
16
 74
14
 42
0.0000001
 43
0.0000001
 44
0.0000000001
 12
-0.0261519982
 22
0.4993521834
 32
0.0
 13
0.4993512461
 23
0.0261698899
 33
0.0
 40
0.0
 40
0.0
 40
0.0
 40
0.0
 40
0.1947180835
 40
0.3822853444
 40
0.5549070707
 40
0.7061950516
 40
0.7720384768
 40
0.8304436687
 40
0.880840218
 40
0.922796821
 40
0.9558954685
 40
0.9798059849
 40
0.9944057611
 40
0.9982407171
 40
1.0
 40
1.0
 40
1.0
 40
1.0
 10
-67.7661499266
 20
30.2007503512
 30
0.0
 10
-67.767847349
 20
30.2331613179
 30
0.0
 10
-67.7710179824
 20
30.2968016021
 30
0.0
 10
-67.7751403404
 20
30.3892013547
 30
0.0
 10
-67.778436886
 20
30.4743907258
 30
0.0
 10
-67.7804861635
 20
30.5393222915
 30
0.0
 10
-67.7815800643
 20
30.5852366747
 30
0.0
 10
-67.7820923033
 20
30.6143394525
 30
0.0
 10
-67.7823285146
 20
30.6394747971
 30
0.0
 10
-67.7823021876
 20
30.6603631602
 30
0.0
 10
-67.7819936773
 20
30.6769156034
 30
0.0
 10
-67.7814908935
 20
30.6887071666
 30
0.0
 10
-67.780747073
 20
30.6959717422
 30
0.0
 10
-67.7800790771
 20
30.6990344946
 30
0.0
 10
-67.7795222621
 20
30.7000497719
 30
0.0
 10
-67.7792294287
 20
30.7000651186
 30
0.0
 11
-67.7661499266
 21
30.2007503512
 31
0.0
 11
-67.770991502
 21
30.2979960565
 31
0.0
 11
-67.7751552801
 21
30.3916940686
 31
0.0
 11
-67.7784651622
 21
30.4779477544
 31
0.0
 11
-67.7807996717
 21
30.5535612417
 31
0.0
 11
-67.7815734094
 21
30.5864762665
 31
0.0
 11
-67.7820729594
 21
30.6156767232
 31
0.0
 11
-67.7822928779
 21
30.6408758791
 31
0.0
 11
-67.7822321361
 21
30.6618556254
 31
0.0
 11
-67.7818900152
 21
30.6784026218
 31
0.0
 11
-67.7812689818
 21
30.6903426134
 31
0.0
 11
-67.7803786083
 21
30.6975885356
 31
0.0
 11
-67.7798357109
 21
30.6994276988
 31
0.0
 11
-67.7792294287
 21
30.7000651186
 31
0.0
  0
SPLINE
  5
745
100
AcDbEntity
  8
ASSI
100
AcDbSpline
 62
7
  6
CONTINUOUS
 70
0
 71
3
 72
21
 73
17
 74
15
 42
0.0000001
 43
0.0000001
 44
0.0000000001
 12
-0.4993233323
 22
-0.026574891
 32
0.0
 13
-0.0
 23
-0.5000300141
 33
0.0
 40
0.0
 40
0.0
 40
0.0
 40
0.0
 40
0.0013706659
 40
0.0050557091
 40
0.0111101809
 40
0.0195275933
 40
0.0433925914
 40
0.0764939753
 40
0.1184819239
 40
0.1689260801
 40
0.2273866984
 40
0.2932927234
 40
0.4447336277
 40
0.6175244721
 40
0.805214679
 40
1.0
 40
1.0
 40
1.0
 40
1.0
 10
-60.6121557495
 20
31.0756755299
 30
0.0
 10
-60.6123838846
 20
31.0756633881
 30
0.0
 10
-60.6124947854
 20
31.0744719856
 30
0.0
 10
-60.6127938044
 20
31.0729662548
 30
0.0
 10
-60.6129580689
 20
31.0697620237
 30
0.0
 10
-60.6132715737
 20
31.0634891528
 30
0.0
 10
-60.6134993547
 20
31.0525113796
 30
0.0
 10
-60.6137041538
 20
31.0360581911
 30
0.0
 10
-60.6138052255
 20
31.0151198407
 30
0.0
 10
-60.6138312049
 20
30.989974817
 30
0.0
 10
-60.6137804064
 20
30.9608361921
 30
0.0
 10
-60.6136151994
 20
30.914866506
 30
0.0
 10
-60.6132353418
 20
30.8498402784
 30
0.0
 10
-60.612643252
 20
30.7645170376
 30
0.0
 10
-60.6122366853
 20
30.6719677835
 30
0.0
 10
-60.6121530485
 20
30.608217997
 30
0.0
 10
-60.6121530485
 20
30.5757518281
 30
0.0
 11
-60.6121557495
 21
31.0756755299
 31
0.0
 11
-60.6124458677
 21
31.0750545879
 31
0.0
 11
-60.6127051222
 21
31.0732302851
 31
0.0
 11
-60.6129344896
 21
31.0702115688
 31
0.0
 11
-60.6131349471
 21
31.0660073862
 31
0.0
 11
-60.6134530393
 21
31.0540784111
 31
0.0
 11
-60.6136673104
 21
31.0375281127
 31
0.0
 11
-60.6137863443
 21
31.0165332156
 31
0.0
 11
-60.613819012
 21
30.9913096446
 31
0.0
 11
-60.6137740949
 21
30.9620776153
 31
0.0
 11
-60.6136589469
 21
30.9291228259
 31
0.0
 11
-60.6132431882
 21
30.8533989697
 31
0.0
 11
-60.6126956354
 21
30.7670000964
 31
0.0
 11
-60.6122891785
 21
30.6731502398
 31
0.0
 11
-60.6121530485
 21
30.5757518281
 31
0.0
  0
SPLINE
  5
746
100
AcDbEntity
  8
ASSI
100
AcDbSpline
 62
7
  6
CONTINUOUS
 70
0
 71
3
 72
21
 73
17
 74
15
 42
0.0000001
 43
0.0000001
 44
0.0000000001
 12
-0.4993991576
 22
0.0265778679
 32
0.0
 13
-0.0
 23
0.5001058905
 33
0.0
 40
0.0
 40
0.0
 40
0.0
 40
0.0
 40
0.0013704397
 40
0.0050554296
 40
0.0111099771
 40
0.0195275861
 40
0.0433933362
 40
0.0764959336
 40
0.1184854348
 40
0.1689313225
 40
0.227393711
 40
0.2933013958
 40
0.4447444245
 40
0.6175349462
 40
0.8052222556
 40
1.0
 40
1.0
 40
1.0
 40
1.0
 10
-60.6121594461
 20
-13.7243239848
 30
0.0
 10
-60.6123875782
 20
-13.7243118437
 30
0.0
 10
-60.612497998
 20
-13.7231200845
 30
0.0
 10
-60.6127967209
 20
-13.7216142708
 30
0.0
 10
-60.6129602304
 20
-13.7184093698
 30
0.0
 10
-60.6132727093
 20
-13.7121353901
 30
0.0
 10
-60.6134993003
 20
-13.7011555237
 30
0.0
 10
-60.6137036705
 20
-13.6846992704
 30
0.0
 10
-60.6138048306
 20
-13.6637569856
 30
0.0
 10
-60.613831131
 20
-13.6386073069
 30
0.0
 10
-60.6137804861
 20
-13.6094633986
 30
0.0
 10
-60.6136151818
 20
-13.5634858115
 30
0.0
 10
-60.6132350163
 20
-13.4984491408
 30
0.0
 10
-60.6126428744
 20
-13.4131131352
 30
0.0
 10
-60.6122365532
 20
-13.3205516356
 30
0.0
 10
-60.6121530485
 20
-13.2567939216
 30
0.0
 10
-60.6121530485
 20
-13.2243240892
 30
0.0
 11
-60.6121594461
 21
-13.7243239848
 31
0.0
 11
-60.6124493186
 21
-13.7237029381
 31
0.0
 11
-60.6127080763
 21
-13.7218783093
 31
0.0
 11
-60.6129367858
 21
-13.7188590444
 31
0.0
 11
-60.6131365137
 21
-13.7146540893
 31
0.0
 11
-60.6134532911
 21
-13.7027228916
 31
0.0
 11
-60.6136669391
 21
-13.6861694663
 31
0.0
 11
-60.6137859707
 21
-13.6651706068
 31
0.0
 11
-60.6138188919
 21
-13.6399423427
 31
0.0
 11
-60.613774134
 21
-13.6107049921
 31
0.0
 11
-60.6136589497
 21
-13.5777443719
 31
0.0
 11
-60.6132429245
 21
-13.5020079639
 31
0.0
 11
-60.6126953006
 21
-13.4155961414
 31
0.0
 11
-60.6122890317
 21
-13.3217334916
 31
0.0
 11
-60.6121530485
 21
-13.2243240892
 31
0.0
  0
LINE
  5
747
100
AcDbEntity
  8
ASSI
100
AcDbLine
 62
7
  6
CONTINUOUS
 10
-61.8665161501
 20
31.0098282529
 11
-61.9399033332
 21
31.0060912318
  0
SPLINE
  5
748
100
AcDbEntity
  8
ASSI
100
AcDbSpline
 62
253
  6
CONTINUOUS
 70
0
 71
3
 72
18
 73
14
 74
12
 42
0.0000001
 43
0.0000001
 44
0.0000000001
 12
-0.2000268721
 22
0.003491482
 32
0.0
 13
0.0034904184
 23
0.2000268907
 33
0.0
 40
0.0
 40
0.0
 40
0.0
 40
0.0
 40
0.0051355832
 40
0.0196489053
 40
0.0435089474
 40
0.0765566639
 40
0.1185583201
 40
0.1690366522
 40
0.2932667776
 40
0.4446560819
 40
0.6175168643
 40
0.8054114679
 40
1.0
 40
1.0
 40
1.0
 40
1.0
 10
-62.8665161501
 20
-15.78497427
 30
0.0
 10
-62.8668585683
 20
-15.7849682931
 30
0.0
 10
-62.8667822835
 20
-15.7829887042
 30
0.0
 10
-62.8672986799
 20
-15.7807344298
 30
0.0
 10
-62.86737056
 20
-15.7756200373
 30
0.0
 10
-62.8676330965
 20
-15.7691821652
 30
0.0
 10
-62.8677620408
 20
-15.7607534276
 30
0.0
 10
-62.8679340949
 20
-15.7463300021
 30
0.0
 10
-62.8679877767
 20
-15.7245665829
 30
0.0
 10
-62.8678845754
 20
-15.6946664069
 30
0.0
 10
-62.867598956
 20
-15.6605124044
 30
0.0
 10
-62.8671438284
 20
-15.6234823015
 30
0.0
 10
-62.8667425486
 20
-15.597979044
 30
0.0
 10
-62.8665161501
 20
-15.585004731
 30
0.0
 11
-62.8665161501
 21
-15.78497427
 31
0.0
 11
-62.8668398339
 21
-15.783999179
 31
0.0
 11
-62.8671281214
 21
-15.7811100298
 31
0.0
 11
-62.8673777986
 21
-15.7763431876
 31
0.0
 11
-62.8675856517
 21
-15.7697350173
 31
0.0
 11
-62.8677488834
 21
-15.7613338633
 31
0.0
 11
-62.8678663623
 21
-15.7512359857
 31
0.0
 11
-62.867961203
 21
-15.726383018
 31
0.0
 11
-62.8678663622
 21
-15.6960966247
 31
0.0
 11
-62.8675856517
 21
-15.6615156954
 31
0.0
 11
-62.8671281214
 21
-15.623928785
 31
0.0
 11
-62.8665161501
 21
-15.585004731
 31
0.0
  0
LINE
  5
749
100
AcDbEntity
  8
ASSI
100
AcDbLine
 62
7
  6
CONTINUOUS
 10
-61.9399033332
 20
-13.6547398805
 11
-61.8665161501
 21
-13.6584769015
  0
LINE
  5
74A
100
AcDbEntity
  8
ASSI
100
AcDbLine
 62
7
  6
CONTINUOUS
 10
-60.6121530485
 20
-15.8243243243
 11
-60.6121530485
 21
-15.6243547853
  0
SPLINE
  5
74B
100
AcDbEntity
  8
ASSI
100
AcDbSpline
 62
7
  6
CONTINUOUS
 70
0
 71
3
 72
10
 73
6
 74
4
 42
0.0000001
 43
0.0000001
 44
0.0000000001
 12
0.0380339309
 22
0.0219589002
 32
0.0
 13
0.041841455
 23
-0.0133441314
 33
0.0
 40
0.0
 40
0.0
 40
0.0
 40
0.0
 40
0.1562586274
 40
0.3725053574
 40
1.0
 40
1.0
 40
1.0
 40
1.0
 10
-62.1076051184
 20
-14.4443483065
 30
0.0
 10
-62.1056240752
 20
-14.4432045506
 30
0.0
 10
-62.1000659532
 20
-14.4421051094
 30
0.0
 10
-62.0854678738
 20
-14.4432511232
 30
0.0
 10
-62.0734861648
 20
-14.4467434757
 30
0.0
 10
-62.0647344018
 20
-14.4495345994
 30
0.0
 11
-62.1076051184
 21
-14.4443483065
 31
0.0
 11
-62.100982192
 21
-14.4425507429
 31
0.0
 11
-62.091493328
 21
-14.4429457146
 31
0.0
 11
-62.0647344018
 21
-14.4495345994
 31
0.0
  0
SPLINE
  5
74C
100
AcDbEntity
  8
ASSI
100
AcDbSpline
 62
7
  6
CONTINUOUS
 70
0
 71
3
 72
10
 73
6
 74
4
 42
0.0000001
 43
0.0000001
 44
0.0000000001
 12
0.2053840236
 22
-0.0655013408
 32
0.0
 13
0.1961778969
 23
-0.0893714471
 33
0.0
 40
0.0
 40
0.0
 40
0.0
 40
0.0
 40
0.2009386342
 40
0.4447871076
 40
1.0
 40
1.0
 40
1.0
 40
1.0
 10
-62.0647344018
 20
-14.4495345994
 30
0.0
 10
-62.0509778734
 20
-14.4539218493
 30
0.0
 10
-62.0211001223
 20
-14.4653738035
 30
0.0
 10
-61.9550067345
 20
-14.4935586554
 30
0.0
 10
-61.9028229827
 20
-14.5175403432
 30
0.0
 10
-61.8665161501
 20
-14.5340804031
 30
0.0
 11
-62.0647344018
 21
-14.4495345994
 31
0.0
 11
-62.0240805287
 21
-14.464490298
 31
0.0
 11
-61.9756444339
 21
-14.4849188865
 31
0.0
 11
-61.8665161501
 21
-14.5340804031
 31
0.0
  0
SPLINE
  5
74D
100
AcDbEntity
  8
ASSI
100
AcDbSpline
 62
253
  6
CONTINUOUS
 70
0
 71
3
 72
18
 73
14
 74
12
 42
0.0000001
 43
0.0000001
 44
0.0000000001
 12
-0.1717708875
 22
-0.0991719681
 32
0.0
 13
0.0991493107
 23
-0.1717839667
 33
0.0
 40
0.0
 40
0.0
 40
0.0
 40
0.0
 40
0.0050557424
 40
0.0195143832
 40
0.0433121005
 40
0.0762867901
 40
0.1182059192
 40
0.1685971851
 40
0.2926641405
 40
0.4439494969
 40
0.6168293837
 40
0.8049344776
 40
1.0
 40
1.0
 40
1.0
 40
1.0
 10
-62.9871530485
 20
-14.9521555407
 30
0.0
 10
-62.987442525
 20
-14.95232267
 30
0.0
 10
-62.9863419951
 20
-14.9539722427
 30
0.0
 10
-62.9857352969
 20
-14.9561549047
 30
0.0
 10
-62.9832769697
 20
-14.9605918831
 30
0.0
 10
-62.9803961452
 20
-14.9662709128
 30
0.0
 10
-62.9764249671
 20
-14.9736089913
 30
0.0
 10
-62.9696084864
 20
-14.9861546038
 30
0.0
 10
-62.9591554284
 20
-15.0050045405
 30
0.0
 10
-62.9446578326
 20
-15.0308427389
 30
0.0
 10
-62.9279567963
 20
-15.0603100606
 30
0.0
 10
-62.909721827
 20
-15.0922312073
 30
0.0
 10
-62.8970904005
 20
-15.1141909117
 30
0.0
 10
-62.8906435298
 20
-15.1253606214
 30
0.0
 11
-62.9871530485
 21
-14.9521555407
 31
0.0
 11
-62.9869278008
 21
-14.9531326911
 31
0.0
 11
-62.9857540682
 21
-14.9557492795
 31
0.0
 11
-62.9836467733
 21
-14.9599728992
 31
0.0
 11
-62.9806208385
 21
-14.965771143
 31
0.0
 11
-62.9766972099
 21
-14.973101523
 31
0.0
 11
-62.9719209277
 21
-14.9818812266
 31
0.0
 11
-62.9600146575
 21
-15.0034170309
 31
0.0
 11
-62.945338065
 21
-15.029589338
 31
0.0
 11
-62.9284372942
 21
-15.0594246512
 31
0.0
 11
-62.9099342196
 21
-15.0918227279
 31
0.0
 11
-62.8906435298
 21
-15.1253606214
 31
0.0
  0
LINE
  5
74E
100
AcDbEntity
  8
ASSI
100
AcDbLine
 62
253
  6
CONTINUOUS
 10
-69.2673270689
 20
-12.1944933565
 11
-68.9169695141
 21
-12.2015917414
  0
SPLINE
  5
74F
100
AcDbEntity
  8
ASSI
100
AcDbSpline
 62
253
  6
CONTINUOUS
 70
0
 71
3
 72
18
 73
14
 74
12
 42
0.0000001
 43
0.0000001
 44
0.0000000001
 12
0.004362873
 22
-0.250033607
 32
0.0
 13
-0.2500335812
 23
-0.0043643524
 33
0.0
 40
0.0
 40
0.0
 40
0.0
 40
0.0
 40
0.1945886021
 40
0.3824833732
 40
0.5553442543
 40
0.7067335488
 40
0.8309635853
 40
0.8814418578
 40
0.9234434799
 40
0.9564911713
 40
0.9803511732
 40
0.9948644545
 40
1.0
 40
1.0
 40
1.0
 40
1.0
 10
-54.9835832683
 20
-14.9761153496
 30
0.0
 10
-54.9833002798
 20
-14.9923332463
 30
0.0
 10
-54.982798697
 20
-15.024212337
 30
0.0
 10
-54.9822298075
 20
-15.0704999923
 30
0.0
 10
-54.9818727997
 20
-15.1131925154
 30
0.0
 10
-54.981743808
 20
-15.150567734
 30
0.0
 10
-54.9818109092
 20
-15.177771994
 30
0.0
 10
-54.9820259712
 20
-15.1958012597
 30
0.0
 10
-54.9821871422
 20
-15.2063371725
 30
0.0
 10
-54.9825153077
 20
-15.2143845019
 30
0.0
 10
-54.9826051347
 20
-15.220777489
 30
0.0
 10
-54.9832506374
 20
-15.2235953153
 30
0.0
 10
-54.9831552486
 20
-15.2260698022
 30
0.0
 10
-54.9835832683
 20
-15.2260772734
 30
0.0
 11
-54.9835832683
 21
-14.9761153496
 31
0.0
 11
-54.9828183304
 21
-15.0247704333
 31
0.0
 11
-54.9822464381
 21
-15.0717541117
 31
0.0
 11
-54.9818955659
 21
-15.1149802966
 31
0.0
 11
-54.9817770236
 21
-15.1528382845
 31
0.0
 11
-54.9818955728
 21
-15.1839044707
 31
0.0
 11
-54.9820424164
 21
-15.1965268024
 31
0.0
 11
-54.982246448
 21
-15.2070282363
 31
0.0
 11
-54.9825062538
 21
-15.2152884428
 31
0.0
 11
-54.9828183374
 21
-15.2212469861
 31
0.0
 11
-54.9831786813
 21
-15.2248584137
 31
0.0
 11
-54.9835832683
 21
-15.2260772734
 31
0.0
  0
SPLINE
  5
750
100
AcDbEntity
  8
ASSI
100
AcDbSpline
 62
253
  6
CONTINUOUS
 70
0
 71
3
 72
21
 73
17
 74
15
 42
0.0000001
 43
0.0000001
 44
0.0000000001
 12
-0.0029531651
 22
-0.3714747735
 32
0.0
 13
-0.3714474221
 23
0.0053889829
 33
0.0
 40
0.0
 40
0.0
 40
0.0
 40
0.0
 40
0.0012741837
 40
0.004898078
 40
0.0108922061
 40
0.0192448962
 40
0.0429631331
 40
0.0758905564
 40
0.117682475
 40
0.1679282588
 40
0.2262049475
 40
0.291945732
 40
0.4431657125
 40
0.6159972747
 40
0.8041698634
 40
1.0
 40
1.0
 40
1.0
 40
1.0
 10
-54.6121531642
 20
32.3252711878
 30
0.0
 10
-54.6121544185
 20
32.3251134121
 30
0.0
 10
-54.6130726486
 20
32.3251449698
 30
0.0
 10
-54.6141179515
 20
32.324903193
 30
0.0
 10
-54.6165076603
 20
32.3248608506
 30
0.0
 10
-54.6211179195
 20
32.3246606934
 30
0.0
 10
-54.6292401846
 20
32.3245534985
 30
0.0
 10
-54.6413935963
 20
32.3244311047
 30
0.0
 10
-54.656881498
 20
32.3243867843
 30
0.0
 10
-54.675489958
 20
32.3243914271
 30
0.0
 10
-54.6970702984
 20
32.3244581439
 30
0.0
 10
-54.7311515447
 20
32.3246325849
 30
0.0
 10
-54.779418106
 20
32.3250036541
 30
0.0
 10
-54.8428429271
 20
32.3256400726
 30
0.0
 10
-54.9117902161
 20
32.3264650879
 30
0.0
 10
-54.9593364018
 20
32.3271149258
 30
0.0
 10
-54.9835832683
 20
32.3274667009
 30
0.0
 11
-54.6121531642
 21
32.3252711878
 31
0.0
 11
-54.6126018255
 21
32.3251203377
 31
0.0
 11
-54.6139410191
 21
32.3249828969
 31
0.0
 11
-54.6161643151
 21
32.3248591399
 31
0.0
 11
-54.6192652835
 21
32.3247493413
 31
0.0
 11
-54.6280745181
 21
32.3245727166
 31
0.0
 11
-54.6403060455
 21
32.3244550221
 31
0.0
 11
-54.6558310715
 21
32.324397099
 31
0.0
 11
-54.6744967024
 21
32.324399367
 31
0.0
 11
-54.6961456151
 21
32.324462158
 31
0.0
 11
-54.7205671221
 21
32.3245847478
 31
0.0
 11
-54.7767417439
 21
32.32500358
 31
0.0
 11
-54.8409431758
 21
32.3256408006
 31
0.0
 11
-54.9108417986
 21
32.326473167
 31
0.0
 11
-54.9835832683
 21
32.3274667009
 31
0.0
  0
SPLINE
  5
751
100
AcDbEntity
  8
ASSI
100
AcDbSpline
 62
253
  6
CONTINUOUS
 70
0
 71
3
 72
18
 73
14
 74
12
 42
0.0000001
 43
0.0000001
 44
0.0000000001
 12
0.0043630533
 22
0.250033613
 32
0.0
 13
-0.2500335903
 23
0.0043643526
 33
0.0
 40
0.0
 40
0.0
 40
0.0
 40
0.0
 40
0.1945885328
 40
0.3824831384
 40
0.5553439218
 40
0.7067332259
 40
0.8309633501
 40
0.8814416814
 40
0.9234433372
 40
0.9564910534
 40
0.9803510951
 40
0.9948644169
 40
1.0
 40
1.0
 40
1.0
 40
1.0
 10
-54.9835832683
 20
32.3274667009
 30
0.0
 10
-54.9833002682
 20
32.3436845922
 30
0.0
 10
-54.9827986653
 20
32.3755636643
 30
0.0
 10
-54.9822297534
 20
32.4218512933
 30
0.0
 10
-54.9818727304
 20
32.4645437966
 30
0.0
 10
-54.9817437313
 20
32.5019190166
 30
0.0
 10
-54.9818108351
 20
32.5291232904
 30
0.0
 10
-54.9820259035
 20
32.5471525721
 30
0.0
 10
-54.9821870844
 20
32.557688494
 30
0.0
 10
-54.9825152553
 20
32.5657358341
 30
0.0
 10
-54.9826051058
 20
32.5721288246
 30
0.0
 10
-54.9832506014
 20
32.5749466676
 30
0.0
 10
-54.9831552455
 20
32.5774211535
 30
0.0
 10
-54.9835832683
 20
32.5774286247
 30
0.0
 11
-54.9835832683
 21
32.3274667009
 31
0.0
 11
-54.9828182994
 21
32.3761217686
 31
0.0
 11
-54.9822463844
 21
32.423105407
 31
0.0
 11
-54.9818954972
 21
32.466331569
 31
0.0
 11
-54.9817769484
 21
32.5041895606
 31
0.0
 11
-54.9818955011
 21
32.5352557699
 31
0.0
 11
-54.9820423503
 21
32.5478781167
 31
0.0
 11
-54.9822463903
 21
32.5583795592
 31
0.0
 11
-54.9825062071
 21
32.5666397719
 31
0.0
 11
-54.9828183039
 21
32.5725983246
 31
0.0
 11
-54.9831786634
 21
32.576209761
 31
0.0
 11
-54.9835832683
 21
32.5774286247
 31
0.0
  0
SPLINE
  5
752
100
AcDbEntity
  8
ASSI
100
AcDbSpline
 62
253
  6
CONTINUOUS
 70
0
 71
3
 72
21
 73
17
 74
15
 42
0.0000001
 43
0.0000001
 44
0.0000000001
 12
0.3714473148
 22
0.0053893892
 32
0.0
 13
0.0062289285
 23
-0.3714341848
 33
0.0
 40
0.0
 40
0.0
 40
0.0
 40
0.0
 40
0.1958208531
 40
0.3839854258
 40
0.5568108921
 40
0.7080277301
 40
0.7737682865
 40
0.8320457573
 40
0.8822933045
 40
0.9240880115
 40
0.9570193241
 40
0.9807424857
 40
0.9890980064
 40
0.9950952129
 40
0.9987224257
 40
1.0
 40
1.0
 40
1.0
 40
1.0
 10
-54.9835832683
 20
-14.9761153496
 30
0.0
 10
-54.9593375582
 20
-14.9757635646
 30
0.0
 10
-54.911793527
 20
-14.9751137754
 30
0.0
 10
-54.8428491531
 20
-14.974288883
 30
0.0
 10
-54.7794264839
 20
-14.9736525374
 30
0.0
 10
-54.7311611119
 20
-14.9732814632
 30
0.0
 10
-54.6970801891
 20
-14.9731069931
 30
0.0
 10
-54.6754995836
 20
-14.973040248
 30
0.0
 10
-54.6568904205
 20
-14.9730355941
 30
0.0
 10
-54.6414016123
 20
-14.9730798601
 30
0.0
 10
-54.6292464182
 20
-14.9732023047
 30
0.0
 10
-54.621123436
 20
-14.9733092908
 30
0.0
 10
-54.6165108696
 20
-14.9735096514
 30
0.0
 10
-54.6141215659
 20
-14.9735515476
 30
0.0
 10
-54.6130724425
 20
-14.9737941653
 30
0.0
 10
-54.6121558202
 20
-14.9737615771
 30
0.0
 10
-54.6121531676
 20
-14.9739197554
 30
0.0
 11
-54.9835832683
 21
-14.9761153496
 31
0.0
 11
-54.9108452668
 21
-14.9751218668
 31
0.0
 11
-54.8409496398
 21
-14.9742896095
 31
0.0
 11
-54.7767504894
 21
-14.9736524555
 31
0.0
 11
-54.7205770505
 21
-14.9732336169
 31
0.0
 11
-54.696155635
 21
-14.9731110053
 31
0.0
 11
-54.6745064377
 21
-14.9730481897
 31
0.0
 11
-54.6558401569
 21
-14.9730458978
 31
0.0
 11
-54.6403140992
 21
-14.9731037932
 31
0.0
 11
-54.6280811299
 21
-14.9732214513
 31
0.0
 11
-54.6192700668
 21
-14.9733980281
 31
0.0
 11
-54.6161680461
 21
-14.9735077994
 31
0.0
 11
-54.6139436037
 21
-14.9736315272
 31
0.0
 11
-54.6126031681
 21
-14.9737689372
 31
0.0
 11
-54.6121531676
 21
-14.9739197554
 31
0.0
  0
LINE
  5
753
100
AcDbEntity
  8
ASSI
100
AcDbLine
 62
253
  6
CONTINUOUS
 10
-68.9169695141
 20
29.5529430917
 11
-69.2673270689
 21
29.5458447078
  0
SPLINE
  5
754
100
AcDbEntity
  8
ASSI
100
AcDbSpline
 62
253
  6
CONTINUOUS
 70
0
 71
3
 72
18
 73
14
 74
12
 42
0.0000001
 43
0.0000001
 44
0.0000000001
 12
0.0034904191
 22
-0.2000268907
 32
0.0
 13
-0.2000268721
 23
-0.003491482
 33
0.0
 40
0.0
 40
0.0
 40
0.0
 40
0.0
 40
0.1945885314
 40
0.3824831333
 40
0.5553439148
 40
0.7067332193
 40
0.8309633457
 40
0.8814416784
 40
0.9234433349
 40
0.9564910517
 40
0.9803510941
 40
0.9948644166
 40
1.0
 40
1.0
 40
1.0
 40
1.0
 10
-59.8577899469
 20
-15.6111873284
 30
0.0
 10
-59.8575635484
 20
-15.6241616413
 30
0.0
 10
-59.8571622686
 20
-15.6496648987
 30
0.0
 10
-59.8567071408
 20
-15.6866950014
 30
0.0
 10
-59.8564215214
 20
-15.7208490037
 30
0.0
 10
-59.8563183201
 20
-15.7507491797
 30
0.0
 10
-59.8563720019
 20
-15.772512599
 30
0.0
 10
-59.856544056
 20
-15.7869360247
 30
0.0
 10
-59.8566730004
 20
-15.7953647624
 30
0.0
 10
-59.8569355369
 20
-15.8018026345
 30
0.0
 10
-59.8570074171
 20
-15.8069170271
 30
0.0
 10
-59.8575238135
 20
-15.8091713016
 30
0.0
 10
-59.8574475287
 20
-15.8111508905
 30
0.0
 10
-59.8577899469
 20
-15.8111568674
 30
0.0
 11
-59.8577899469
 21
-15.6111873284
 31
0.0
 11
-59.8571779756
 21
-15.6501113822
 31
0.0
 11
-59.8567204452
 21
-15.6876982923
 31
0.0
 11
-59.8564397346
 21
-15.7222792214
 31
0.0
 11
-59.8563448938
 21
-15.7525656148
 31
0.0
 11
-59.8564397346
 21
-15.7774185827
 31
0.0
 11
-59.8565572135
 21
-15.7875164604
 31
0.0
 11
-59.8567204451
 21
-15.7959176145
 31
0.0
 11
-59.8569282983
 21
-15.8025257848
 31
0.0
 11
-59.8571779756
 21
-15.8072926271
 31
0.0
 11
-59.8574662631
 21
-15.8101817764
 31
0.0
 11
-59.8577899469
 21
-15.8111568674
 31
0.0
  0
SPLINE
  5
755
100
AcDbEntity
  8
ASSI
100
AcDbSpline
 62
253
  6
CONTINUOUS
 70
0
 71
3
 72
18
 73
14
 74
12
 42
0.0000001
 43
0.0000001
 44
0.0000000001
 12
0.0991493105
 22
0.1717839679
 32
0.0
 13
-0.1717708882
 23
0.0991719686
 33
0.0
 40
0.0
 40
0.0
 40
0.0
 40
0.0
 40
0.1950655215
 40
0.3831706145
 40
0.5560505005
 40
0.7073358561
 40
0.8314028107
 40
0.8817940763
 40
0.9237132052
 40
0.9566878947
 40
0.9804856123
 40
0.9949442541
 40
1.0
 40
1.0
 40
1.0
 40
1.0
 10
-59.8336625672
 20
-15.1253606214
 30
0.0
 10
-59.8272156966
 20
-15.1141909117
 30
0.0
 10
-59.8145842701
 20
-15.0922312073
 30
0.0
 10
-59.7963493003
 20
-15.0603100609
 30
0.0
 10
-59.7796482634
 20
-15.0308427395
 30
0.0
 10
-59.7651506664
 20
-15.0050045418
 30
0.0
 10
-59.7546976067
 20
-14.9861546062
 30
0.0
 10
-59.7478811248
 20
-14.9736089942
 30
0.0
 10
-59.7439099467
 20
-14.9662709159
 30
0.0
 10
-59.7410291217
 20
-14.9605918861
 30
0.0
 10
-59.7385707974
 20
-14.9561549068
 30
0.0
 10
-59.7379640969
 20
-14.9539722444
 30
0.0
 10
-59.7368635719
 20
-14.9523226701
 30
0.0
 10
-59.7371530485
 20
-14.9521555407
 30
0.0
 11
-59.8336625672
 21
-15.1253606214
 31
0.0
 11
-59.8143718774
 21
-15.0918227279
 31
0.0
 11
-59.7958688023
 21
-15.0594246515
 31
0.0
 11
-59.7789680308
 21
-15.0295893388
 31
0.0
 11
-59.7642914369
 21
-15.0034170324
 31
0.0
 11
-59.752385165
 21
-14.9818812292
 31
0.0
 11
-59.7476088821
 21
-14.9731015259
 31
0.0
 11
-59.7436852533
 21
-14.9657711461
 31
0.0
 11
-59.7406593189
 21
-14.959972902
 31
0.0
 11
-59.7385520251
 21
-14.9557492817
 31
0.0
 11
-59.7373782942
 21
-14.9531326923
 31
0.0
 11
-59.7371530485
 21
-14.9521555407
 31
0.0
  0
LINE
  5
756
100
AcDbEntity
  8
ASSI
100
AcDbLine
 62
7
  6
CONTINUOUS
 10
-60.6121530485
 20
33.1756756757
 11
-60.6121530485
 21
32.9757061366
  0
LINE
  5
757
100
AcDbEntity
  8
RACCORDO
100
AcDbLine
 62
253
  6
CONTINUOUS
 10
-69.7256476559
 20
2.0682002135
 11
-69.7254632353
 21
2.0569015715
  0
LINE
  5
758
100
AcDbEntity
  8
RACCORDO
100
AcDbLine
 62
253
  6
CONTINUOUS
 10
-69.7147795299
 20
3.258411105
 11
-69.7404871547
 21
3.2583615051
  0
LINE
  5
759
100
AcDbEntity
  8
RACCORDO
100
AcDbLine
 62
253
  6
CONTINUOUS
 10
-69.7404871547
 20
3.2583615051
 11
-69.7433061015
 21
3.2583560665
  0
SPLINE
  5
75A
100
AcDbEntity
  8
ASSI
100
AcDbSpline
 62
253
  6
CONTINUOUS
 70
0
 71
3
 72
18
 73
14
 74
12
 42
0.0000001
 43
0.0000001
 44
0.0000000001
 12
0.0034904189
 22
0.2000268907
 32
0.0
 13
-0.2000268721
 23
0.003491482
 33
0.0
 40
0.0
 40
0.0
 40
0.0
 40
0.0
 40
0.1945885329
 40
0.3824831386
 40
0.5553439222
 40
0.7067332262
 40
0.8309633503
 40
0.8814416816
 40
0.9234433374
 40
0.9564910536
 40
0.9803510952
 40
0.9948644169
 40
1.0
 40
1.0
 40
1.0
 40
1.0
 10
-59.8577899469
 20
32.9625386797
 30
0.0
 10
-59.8575635484
 20
32.9755129928
 30
0.0
 10
-59.8571622686
 20
33.0010162505
 30
0.0
 10
-59.8567071408
 20
33.0380463537
 30
0.0
 10
-59.8564215215
 20
33.0722003564
 30
0.0
 10
-59.8563183201
 20
33.1021005323
 30
0.0
 10
-59.856372002
 20
33.1238639513
 30
0.0
 10
-59.8565440561
 20
33.1382873767
 30
0.0
 10
-59.8566730005
 20
33.1467161142
 30
0.0
 10
-59.8569355369
 20
33.1531539862
 30
0.0
 10
-59.8570074171
 20
33.1582683786
 30
0.0
 10
-59.8575238135
 20
33.160522653
 30
0.0
 10
-59.8574475287
 20
33.1625022418
 30
0.0
 10
-59.8577899469
 20
33.1625082188
 30
0.0
 11
-59.8577899469
 21
32.9625386797
 31
0.0
 11
-59.8571779756
 21
33.0014627339
 31
0.0
 11
-59.8567204452
 21
33.0390496447
 31
0.0
 11
-59.8564397346
 21
33.0736305742
 31
0.0
 11
-59.8563448938
 21
33.1039169675
 31
0.0
 11
-59.8564397346
 21
33.1287699349
 31
0.0
 11
-59.8565572135
 21
33.1388678124
 31
0.0
 11
-59.8567204452
 21
33.1472689663
 31
0.0
 11
-59.8569282983
 21
33.1538771365
 31
0.0
 11
-59.8571779756
 21
33.1586439787
 31
0.0
 11
-59.8574662631
 21
33.1615331278
 31
0.0
 11
-59.8577899469
 21
33.1625082188
 31
0.0
  0
LINE
  5
75B
100
AcDbEntity
  8
RACCORDO
100
AcDbLine
 62
253
  6
CONTINUOUS
 10
-69.714982947
 20
3.274188331
 11
-69.7147766639
 21
3.25855551
  0
SPLINE
  5
75C
100
AcDbEntity
  8
ASSI
100
AcDbSpline
 62
253
  6
CONTINUOUS
 70
0
 71
3
 72
18
 73
14
 74
12
 42
0.0000001
 43
0.0000001
 44
0.0000000001
 12
0.0991495294
 22
-0.1717838506
 32
0.0
 13
-0.171770895
 23
-0.0991719725
 33
0.0
 40
0.0
 40
0.0
 40
0.0
 40
0.0
 40
0.1950655165
 40
0.383170609
 40
0.5560504914
 40
0.7073358397
 40
0.8314027862
 40
0.8817940482
 40
0.9237131757
 40
0.9566878654
 40
0.9804855845
 40
0.9949442316
 40
1.0
 40
1.0
 40
1.0
 40
1.0
 10
-59.8336625672
 20
32.4767119728
 30
0.0
 10
-59.8272156825
 20
32.4655422709
 30
0.0
 10
-59.814584232
 20
32.4435825796
 30
0.0
 10
-59.796349237
 20
32.4116614466
 30
0.0
 10
-59.7796481863
 20
32.3821941324
 30
0.0
 10
-59.7651505869
 20
32.356355936
 30
0.0
 10
-59.7546975362
 20
32.3375059961
 30
0.0
 10
-59.7478810652
 20
32.3249603781
 30
0.0
 10
-59.7439098986
 20
32.3176222945
 30
0.0
 10
-59.741029078
 20
32.3119432598
 30
0.0
 10
-59.7385707767
 20
32.307506273
 30
0.0
 10
-59.737964064
 20
32.3053236066
 30
0.0
 10
-59.7368635705
 20
32.3036740223
 30
0.0
 10
-59.7371530484
 20
32.3035068921
 30
0.0
 11
-59.8336625672
 21
32.4767119728
 31
0.0
 11
-59.8143718407
 21
32.4431740997
 31
0.0
 11
-59.79586874
 21
32.4107760364
 31
0.0
 11
-59.7789679549
 21
32.3809407306
 31
0.0
 11
-59.7642913599
 21
32.3547684251
 31
0.0
 11
-59.7523850985
 21
32.3332326168
 31
0.0
 11
-59.7476088241
 21
32.3244529093
 31
0.0
 11
-59.743685205
 21
32.3171225242
 31
0.0
 11
-59.7406592811
 21
32.3113242743
 31
0.0
 11
-59.7385519988
 21
32.3071006478
 31
0.0
 11
-59.7373782803
 21
32.3044840514
 31
0.0
 11
-59.7371530484
 21
32.3035068921
 31
0.0
  0
SPLINE
  5
75D
100
AcDbEntity
  8
ASSI
100
AcDbSpline
 62
253
  6
CONTINUOUS
 70
0
 71
3
 72
18
 73
14
 74
12
 42
0.0000001
 43
0.0000001
 44
0.0000000001
 12
-0.0034904191
 22
0.2000268907
 32
0.0
 13
0.2000268721
 23
0.003491482
 33
0.0
 40
0.0
 40
0.0
 40
0.0
 40
0.0
 40
0.1945885314
 40
0.3824831333
 40
0.5553439148
 40
0.7067332193
 40
0.8309633457
 40
0.8814416784
 40
0.9234433349
 40
0.9564910517
 40
0.9803510941
 40
0.9948644166
 40
1.0
 40
1.0
 40
1.0
 40
1.0
 10
-62.8665161501
 20
32.9363560823
 30
0.0
 10
-62.8667425486
 20
32.9493303953
 30
0.0
 10
-62.8671438285
 20
32.9748336526
 30
0.0
 10
-62.8675989562
 20
33.0118637554
 30
0.0
 10
-62.8678845756
 20
33.0460177577
 30
0.0
 10
-62.867987777
 20
33.0759179337
 30
0.0
 10
-62.8679340951
 20
33.097681353
 30
0.0
 10
-62.867762041
 20
33.1121047786
 30
0.0
 10
-62.8676330966
 20
33.1205335163
 30
0.0
 10
-62.8673705602
 20
33.1269713885
 30
0.0
 10
-62.86729868
 20
33.132085781
 30
0.0
 10
-62.8667822836
 20
33.1343400555
 30
0.0
 10
-62.8668585684
 20
33.1363196444
 30
0.0
 10
-62.8665161501
 20
33.1363256214
 30
0.0
 11
-62.8665161501
 21
32.9363560823
 31
0.0
 11
-62.8671281215
 21
32.9752801362
 31
0.0
 11
-62.8675856519
 21
33.0128670462
 31
0.0
 11
-62.8678663625
 21
33.0474479754
 31
0.0
 11
-62.8679612033
 21
33.0777343687
 31
0.0
 11
-62.8678663625
 21
33.1025873366
 31
0.0
 11
-62.8677488836
 21
33.1126852143
 31
0.0
 11
-62.8675856519
 21
33.1210863685
 31
0.0
 11
-62.8673777988
 21
33.1276945387
 31
0.0
 11
-62.8671281215
 21
33.1324613811
 31
0.0
 11
-62.866839834
 21
33.1353505304
 31
0.0
 11
-62.8665161501
 21
33.1363256214
 31
0.0
  0
LINE
  5
75E
100
AcDbEntity
  8
RACCORDO
100
AcDbLine
 62
253
  6
CONTINUOUS
 10
-69.6119305224
 20
4.8610310758
 11
-69.6428260747
 21
4.8609880978
  0
LINE
  5
75F
100
AcDbEntity
  8
RACCORDO
100
AcDbLine
 62
253
  6
CONTINUOUS
 10
-69.6428260747
 20
4.8609880978
 11
-69.6713413932
 21
4.8609484322
  0
LINE
  5
760
100
AcDbEntity
  8
RACCORDO
100
AcDbLine
 62
253
  6
CONTINUOUS
 10
-69.6713413932
 20
4.8609484322
 11
-69.7328146289
 21
4.8608629264
  0
SPLINE
  5
761
100
AcDbEntity
  8
ASSI
100
AcDbSpline
 62
7
  6
CONTINUOUS
 70
0
 71
3
 72
13
 73
9
 74
7
 42
0.0000001
 43
0.0000001
 44
0.0000000001
 12
-0.236060454
 22
-0.1075404758
 32
0.0
 13
-0.2246488791
 23
0.1297010908
 33
0.0
 40
0.0
 40
0.0
 40
0.0
 40
0.0
 40
0.3376350271
 40
0.6419204642
 40
0.7700441436
 40
0.875061718
 40
0.9520696691
 40
1.0
 40
1.0
 40
1.0
 40
1.0
 10
-61.8665161501
 20
31.8854317544
 30
0.0
 10
-61.8930835761
 20
31.8733286106
 30
0.0
 10
-61.9435592636
 20
31.8502778547
 30
0.0
 10
-62.0045538635
 20
31.8234348236
 30
0.0
 10
-62.0477476794
 20
31.8064540605
 30
0.0
 10
-62.0733409497
 20
31.7979059658
 30
0.0
 10
-62.0924262213
 20
31.7934940827
 30
0.0
 10
-62.1040159534
 20
31.7936274524
 30
0.0
 10
-62.1076051184
 20
31.7956996578
 30
0.0
 11
-61.8665161501
 21
31.8854317544
 31
0.0
 11
-61.9462840725
 21
31.849266765
 31
0.0
 11
-62.0187563826
 21
31.8179926027
 31
0.0
 11
-62.0497559722
 21
31.8060081116
 31
0.0
 11
-62.0756811314
 21
31.7976414438
 31
0.0
 11
-62.0953031832
 21
31.7938975319
 31
0.0
 11
-62.1076051184
 21
31.7956996578
 31
0.0
  0
SPLINE
  5
762
100
AcDbEntity
  8
ASSI
100
AcDbSpline
 62
253
  6
CONTINUOUS
 70
0
 71
3
 72
18
 73
14
 74
12
 42
0.0000001
 43
0.0000001
 44
0.0000000001
 12
-0.0991493105
 22
-0.1717839679
 32
0.0
 13
0.1717708882
 23
-0.0991719686
 33
0.0
 40
0.0
 40
0.0
 40
0.0
 40
0.0
 40
0.1950655215
 40
0.3831706145
 40
0.5560505005
 40
0.7073358561
 40
0.8314028107
 40
0.8817940763
 40
0.9237132052
 40
0.9566878947
 40
0.9804856123
 40
0.9949442541
 40
1.0
 40
1.0
 40
1.0
 40
1.0
 10
-62.8906435298
 20
32.4767119728
 30
0.0
 10
-62.8970904005
 20
32.465542263
 30
0.0
 10
-62.909721827
 20
32.4435825586
 30
0.0
 10
-62.9279567968
 20
32.4116614122
 30
0.0
 10
-62.9446578337
 20
32.3821940909
 30
0.0
 10
-62.9591554306
 20
32.3563558932
 30
0.0
 10
-62.9696084904
 20
32.3375059575
 30
0.0
 10
-62.9764249723
 20
32.3249603456
 30
0.0
 10
-62.9803961504
 20
32.3176222673
 30
0.0
 10
-62.9832769754
 20
32.3119432374
 30
0.0
 10
-62.9857352997
 20
32.3075062582
 30
0.0
 10
-62.9863420002
 20
32.3053235957
 30
0.0
 10
-62.9874425252
 20
32.3036740215
 30
0.0
 10
-62.9871530485
 20
32.303506892
 30
0.0
 11
-62.8906435298
 21
32.4767119728
 31
0.0
 11
-62.9099342197
 21
32.4431740793
 31
0.0
 11
-62.9284372948
 21
32.4107760028
 31
0.0
 11
-62.9453380663
 21
32.3809406901
 31
0.0
 11
-62.9600146601
 21
32.3547683837
 31
0.0
 11
-62.9719209321
 21
32.3332325805
 31
0.0
 11
-62.976697215
 21
32.3244528773
 31
0.0
 11
-62.9806208438
 21
32.3171224974
 31
0.0
 11
-62.9836467781
 21
32.3113242533
 31
0.0
 11
-62.985754072
 21
32.3071006331
 31
0.0
 11
-62.9869278029
 21
32.3044840436
 31
0.0
 11
-62.9871530485
 21
32.303506892
 31
0.0
  0
LINE
  5
763
100
AcDbEntity
  8
RACCORDO
100
AcDbLine
 62
253
  6
CONTINUOUS
 10
-69.5972495071
 20
13.8912089773
 11
-69.5975750345
 21
13.864224387
  0
LINE
  5
764
100
AcDbEntity
  8
RACCORDO
100
AcDbLine
 62
253
  6
CONTINUOUS
 10
-69.6121617468
 20
4.888791805
 11
-69.6119224368
 21
4.8616370107
  0
SPLINE
  5
765
100
AcDbEntity
  8
ASSI
100
AcDbSpline
 62
253
  6
CONTINUOUS
 70
0
 71
3
 72
11
 73
7
 74
5
 42
0.0000001
 43
0.0000001
 44
0.0000000001
 12
0.0445214711
 22
-1.0283394222
 32
0.0
 13
1.0278859145
 23
-0.053987734
 33
0.0
 40
0.0
 40
0.0
 40
0.0
 40
0.0
 40
0.2500282611
 40
0.5000348528
 40
0.7500211407
 40
1.0
 40
1.0
 40
1.0
 40
1.0
 10
-68.4316416921
 20
-12.1801496812
 30
0.0
 10
-68.4279311501
 20
-12.2658543204
 30
0.0
 10
-68.3881376424
 20
-12.4375362137
 30
0.0
 10
-68.2395885941
 20
-12.6546505267
 30
0.0
 10
-68.0230720906
 20
-12.8039386499
 30
0.0
 10
-67.8517998663
 20
-12.8449004012
 30
0.0
 10
-67.7661499501
 20
-12.8493989986
 30
0.0
 11
-68.4316416921
 21
-12.1801496812
 31
0.0
 11
-68.3733238085
 21
-12.4308098179
 31
0.0
 11
-68.228253847
 21
-12.6433532398
 31
0.0
 11
-68.0163366181
 21
-12.7892995743
 31
0.0
 11
-67.7661499501
 21
-12.8493989986
 31
0.0
  0
SPLINE
  5
766
100
AcDbEntity
  8
ASSI
100
AcDbSpline
 62
253
  6
CONTINUOUS
 70
0
 71
3
 72
11
 73
7
 74
5
 42
0.0000001
 43
0.0000001
 44
0.0000000001
 12
-1.0278859147
 22
-0.053987728
 32
0.0
 13
-0.0445214629
 23
-1.0283394224
 33
0.0
 40
0.0
 40
0.0
 40
0.0
 40
0.0
 40
0.2499788592
 40
0.4999651467
 40
0.7499717379
 40
1.0
 40
1.0
 40
1.0
 40
1.0
 10
-67.7661499266
 20
30.2007503512
 30
0.0
 10
-67.8517998427
 20
30.1962517543
 30
0.0
 10
-68.0230720664
 20
30.1552900019
 30
0.0
 10
-68.2395885715
 20
30.0060018791
 30
0.0
 10
-68.3881376098
 20
29.788887563
 30
0.0
 10
-68.4279311378
 20
29.6172056742
 30
0.0
 10
-68.4316416791
 20
29.5315010347
 30
0.0
 11
-67.7661499266
 21
30.2007503512
 31
0.0
 11
-68.0163365943
 21
30.1406509267
 31
0.0
 11
-68.2282538225
 21
29.9947045916
 31
0.0
 11
-68.3733237824
 21
29.7821611694
 31
0.0
 11
-68.4316416791
 21
29.5315010347
 31
0.0
  0
LINE
  5
767
100
AcDbEntity
  8
RACCORDO
100
AcDbLine
 62
253
  6
CONTINUOUS
 10
-69.7254618469
 20
2.0566398107
 11
-69.7572745346
 21
2.0565665853
  0
LINE
  5
768
100
AcDbEntity
  8
RACCORDO
100
AcDbLine
 62
253
  6
CONTINUOUS
 10
-69.7781446739
 20
13.8929301111
 11
-69.5980805689
 21
13.892594366
  0
LINE
  5
769
100
AcDbEntity
  8
RACCORDO
100
AcDbLine
 62
253
  6
CONTINUOUS
 10
-69.5980805689
 20
13.892594366
 11
-69.597262441
 21
13.8925928404
  0
SPLINE
  5
76A
100
AcDbEntity
  8
ASSI
100
AcDbSpline
 62
253
  6
CONTINUOUS
 70
0
 71
3
 72
20
 73
16
 74
14
 42
0.0000001
 43
0.0000001
 44
0.0000000001
 12
-0.0261520065
 22
-0.4993521831
 32
0.0
 13
0.4993512462
 23
-0.0261698899
 33
0.0
 40
0.0
 40
0.0
 40
0.0
 40
0.0
 40
0.1947181026
 40
0.3822854044
 40
0.5549071402
 40
0.7061951091
 40
0.7720385247
 40
0.830443712
 40
0.8808402511
 40
0.9227968418
 40
0.9558954823
 40
0.9798059931
 40
0.9944057637
 40
0.9982407178
 40
1.0
 40
1.0
 40
1.0
 40
1.0
 10
-67.7661499501
 20
-12.8493989986
 30
0.0
 10
-67.7678473731
 20
-12.8818099685
 30
0.0
 10
-67.7710180078
 20
-12.9454502626
 30
0.0
 10
-67.7751403675
 20
-13.0378500268
 30
0.0
 10
-67.7784369136
 20
-13.1230394042
 30
0.0
 10
-67.7804861911
 20
-13.1879709679
 30
0.0
 10
-67.7815800912
 20
-13.2338853468
 30
0.0
 10
-67.7820923299
 20
-13.2629881206
 30
0.0
 10
-67.7823285406
 20
-13.2881234607
 30
0.0
 10
-67.7823022129
 20
-13.3090118189
 30
0.0
 10
-67.7819937024
 20
-13.3255642578
 30
0.0
 10
-67.7814909187
 20
-13.3373558181
 30
0.0
 10
-67.7807470982
 20
-13.3446203913
 30
0.0
 10
-67.7800791023
 20
-13.3476831426
 30
0.0
 10
-67.7795222873
 20
-13.3486984192
 30
0.0
 10
-67.7792294541
 20
-13.348713766
 30
0.0
 11
-67.7661499501
 21
-12.8493989986
 31
0.0
 11
-67.7709915273
 21
-12.9466447134
 31
0.0
 11
-67.7751553072
 21
-13.0403427459
 31
0.0
 11
-67.7784651898
 21
-13.1265964364
 31
0.0
 11
-67.780799699
 21
-13.2022099177
 31
0.0
 11
-67.7815734363
 21
-13.2351249378
 31
0.0
 11
-67.7820729859
 21
-13.2643253922
 31
0.0
 11
-67.7822929038
 21
-13.2895245431
 31
0.0
 11
-67.7822321614
 21
-13.3105042831
 31
0.0
 11
-67.7818900403
 21
-13.327051276
 31
0.0
 11
-67.7812690069
 21
-13.3389912649
 31
0.0
 11
-67.7803786335
 21
-13.3462371842
 31
0.0
 11
-67.7798357362
 21
-13.3480763465
 31
0.0
 11
-67.7792294541
 21
-13.348713766
 31
0.0
  0
SPLINE
  5
76B
100
AcDbEntity
  8
RACCORDO
100
AcDbSpline
 62
253
  6
CONTINUOUS
 70
0
 71
3
 72
29
 73
25
 74
23
 42
0.0000001
 43
0.0000001
 44
0.0000000001
 12
0.01745444
 22
1.0002688686
 32
0.0
 13
-1.0002687758
 23
0.0174597564
 33
0.0
 40
0.0
 40
0.0
 40
0.0
 40
0.0
 40
0.1949649921
 40
0.2900959629
 40
0.3824317981
 40
0.4710844487
 40
0.5552007202
 40
0.6339713128
 40
0.7066385247
 40
0.7725035433
 40
0.8309332472
 40
0.881366463
 40
0.9034301333
 40
0.9233199412
 40
0.940988439
 40
0.9563937358
 40
0.9695002302
 40
0.9802779011
 40
0.988704716
 40
0.9947678998
 40
0.9969147374
 40
0.9984779444
 40
0.9994768176
 40
1.0
 40
1.0
 40
1.0
 40
1.0
 10
-27.4947006421
 20
13.3984939452
 30
0.0
 10
-27.4935663072
 20
13.4634997492
 30
0.0
 10
-27.4920412115
 20
13.5602273631
 30
0.0
 10
-27.4903703964
 20
13.6877474194
 30
0.0
 10
-27.4893356127
 20
13.7798202464
 30
0.0
 10
-27.4885183973
 20
13.8682220003
 30
0.0
 10
-27.4879263939
 20
13.9521018019
 30
0.0
 10
-27.487564821
 20
14.0306521535
 30
0.0
 10
-27.4874365671
 20
14.1031169297
 30
0.0
 10
-27.4875416159
 20
14.1687986352
 30
0.0
 10
-27.4878780109
 20
14.2270650176
 30
0.0
 10
-27.4883637112
 20
14.2707232478
 30
0.0
 10
-27.4888871498
 20
14.3015274131
 30
0.0
 10
-27.4893170048
 20
14.3214052343
 30
0.0
 10
-27.4898000019
 20
14.3390606565
 30
0.0
 10
-27.490334421
 20
14.3544516632
 30
0.0
 10
-27.4909172751
 20
14.3675404171
 30
0.0
 10
-27.4915455414
 20
14.3782989958
 30
0.0
 10
-27.4922102359
 20
14.3866956865
 30
0.0
 10
-27.4928431441
 20
14.3922178521
 30
0.0
 10
-27.4933954874
 20
14.3954209953
 30
0.0
 10
-27.4937988908
 20
14.3969600218
 30
0.0
 10
-27.4941232233
 20
14.3978979634
 30
0.0
 10
-27.4945262011
 20
14.3983385955
 30
0.0
 10
-27.4947006421
 20
14.3983416403
 30
0.0
 11
-27.4947006421
 21
13.3984939452
 31
0.0
 11
-27.4916327556
 21
13.5935169169
 31
0.0
 11
-27.4903881791
 21
13.6886798135
 31
0.0
 11
-27.4893531352
 21
13.7810487365
 31
0.0
 11
-27.4885375799
 21
13.8697349729
 31
0.0
 11
-27.4879493684
 21
13.9538846137
 31
0.0
 11
-27.4875941625
 21
14.0326875796
 31
0.0
 11
-27.4874753796
 21
14.1053852979
 31
0.0
 11
-27.4875941625
 21
14.1712779481
 31
0.0
 11
-27.4879493684
 21
14.2297311802
 31
0.0
 11
-27.4885375799
 21
14.2801822068
 31
0.0
 11
-27.4889173813
 21
14.3022519013
 31
0.0
 11
-27.4893531352
 21
14.3221453138
 31
0.0
 11
-27.4898437946
 21
14.3398144412
 31
0.0
 11
-27.4903881791
 21
14.3552166084
 31
0.0
 11
-27.4909849754
 21
14.3683150338
 31
0.0
 11
-27.4916327556
 21
14.3790777672
 31
0.0
 11
-27.4923299308
 21
14.387479254
 31
0.0
 11
-27.4930748506
 21
14.3934990765
 31
0.0
 11
-27.4934646868
 21
14.3956111424
 31
0.0
 11
-27.4938657918
 21
14.3971226944
 31
0.0
 11
-27.4942778749
 21
14.3980330657
 31
0.0
 11
-27.4947006421
 21
14.3983416403
 31
0.0
  0
SPLINE
  5
76C
100
AcDbEntity
  8
RACCORDO
100
AcDbSpline
 62
253
  6
CONTINUOUS
 70
0
 71
3
 72
29
 73
25
 74
23
 42
0.0000001
 43
0.0000001
 44
0.0000000001
 12
1.0002687758
 22
0.0174597564
 32
0.0
 13
-0.01745444
 23
1.0002688686
 33
0.0
 40
0.0
 40
0.0
 40
0.0
 40
0.0
 40
0.0005231824
 40
0.0015220556
 40
0.0030852626
 40
0.0052321002
 40
0.011295284
 40
0.0197220989
 40
0.0304997698
 40
0.0436062642
 40
0.059011561
 40
0.0766800588
 40
0.0965698667
 40
0.118633537
 40
0.1690667528
 40
0.2274964567
 40
0.2933614753
 40
0.3660286872
 40
0.4447992798
 40
0.5289155513
 40
0.6175682019
 40
0.7099040371
 40
0.8050350079
 40
1.0
 40
1.0
 40
1.0
 40
1.0
 10
-27.4947006421
 20
-10.446990289
 30
0.0
 10
-27.4945262011
 20
-10.4469872441
 30
0.0
 10
-27.4941232233
 20
-10.4465466121
 30
0.0
 10
-27.4937988908
 20
-10.4456086705
 30
0.0
 10
-27.4933954874
 20
-10.444069644
 30
0.0
 10
-27.4928431441
 20
-10.4408665007
 30
0.0
 10
-27.4922102359
 20
-10.4353443351
 30
0.0
 10
-27.4915455414
 20
-10.4269476445
 30
0.0
 10
-27.4909172751
 20
-10.4161890657
 30
0.0
 10
-27.490334421
 20
-10.4031003118
 30
0.0
 10
-27.4898000019
 20
-10.3877093051
 30
0.0
 10
-27.4893170048
 20
-10.370053883
 30
0.0
 10
-27.4888871498
 20
-10.3501760618
 30
0.0
 10
-27.4883637112
 20
-10.3193718964
 30
0.0
 10
-27.4878780109
 20
-10.2757136663
 30
0.0
 10
-27.4875416159
 20
-10.2174472839
 30
0.0
 10
-27.4874365671
 20
-10.1517655784
 30
0.0
 10
-27.487564821
 20
-10.0793008022
 30
0.0
 10
-27.4879263939
 20
-10.0007504505
 30
0.0
 10
-27.4885183973
 20
-9.9168706489
 30
0.0
 10
-27.4893356127
 20
-9.828468895
 30
0.0
 10
-27.4903703964
 20
-9.7363960681
 30
0.0
 10
-27.4920412115
 20
-9.6088760118
 30
0.0
 10
-27.4935663072
 20
-9.5121483978
 30
0.0
 10
-27.4947006421
 20
-9.4471425938
 30
0.0
 11
-27.4947006421
 21
-10.446990289
 31
0.0
 11
-27.4942778749
 21
-10.4466817144
 31
0.0
 11
-27.4938657918
 21
-10.4457713431
 31
0.0
 11
-27.4934646868
 21
-10.444259791
 31
0.0
 11
-27.4930748506
 21
-10.4421477252
 31
0.0
 11
-27.4923299308
 21
-10.4361279027
 31
0.0
 11
-27.4916327556
 21
-10.4277264159
 31
0.0
 11
-27.4909849754
 21
-10.4169636825
 31
0.0
 11
-27.4903881791
 21
-10.4038652571
 31
0.0
 11
-27.4898437946
 21
-10.3884630899
 31
0.0
 11
-27.4893531352
 21
-10.3707939625
 31
0.0
 11
-27.4889173813
 21
-10.35090055
 31
0.0
 11
-27.4885375799
 21
-10.3288308554
 31
0.0
 11
-27.4879493684
 21
-10.2783798288
 31
0.0
 11
-27.4875941625
 21
-10.2199265968
 31
0.0
 11
-27.4874753796
 21
-10.1540339466
 31
0.0
 11
-27.4875941625
 21
-10.0813362282
 31
0.0
 11
-27.4879493684
 21
-10.0025332624
 31
0.0
 11
-27.4885375799
 21
-9.9183836216
 31
0.0
 11
-27.4893531352
 21
-9.8296973852
 31
0.0
 11
-27.4903881791
 21
-9.7373284621
 31
0.0
 11
-27.4916327556
 21
-9.6421655656
 31
0.0
 11
-27.4947006421
 21
-9.4471425938
 31
0.0
  0
SPLINE
  5
76D
100
AcDbEntity
  8
SUPERFICI
100
AcDbSpline
 62
253
  6
CONTINUOUS
 70
0
 71
3
 72
23
 73
19
 74
17
 42
0.0000001
 43
0.0000001
 44
0.0000000001
 12
0.0174535943
 22
1.0002204001
 32
0.0
 13
-1.0002203073
 23
0.0174589104
 33
0.0
 40
0.0
 40
0.0
 40
0.0
 40
0.0
 40
0.1949744397
 40
0.3824502477
 40
0.5552274368
 40
0.6340018465
 40
0.7066725797
 40
0.77254079
 40
0.8309733253
 40
0.8814089849
 40
0.9233643809
 40
0.9564395425
 40
0.9695466721
 40
0.9803248652
 40
0.9887520884
 40
0.994815566
 40
0.9985231188
 40
1.0
 40
1.0
 40
1.0
 40
1.0
 10
-27.4947006421
 20
13.3984939452
 30
0.0
 10
-27.4935663072
 20
13.4634997492
 30
0.0
 10
-27.4915560737
 20
13.5910151324
 30
0.0
 10
-27.4892861871
 20
13.7761463687
 30
0.0
 10
-27.4880630219
 20
13.9225387862
 30
0.0
 10
-27.4875647355
 20
14.0306521688
 30
0.0
 10
-27.4874365741
 20
14.1031168733
 30
0.0
 10
-27.4875416555
 20
14.1687988169
 30
0.0
 10
-27.487877875
 20
14.227064456
 30
0.0
 10
-27.4884379012
 20
14.2773572423
 30
0.0
 10
-27.4892145183
 20
14.3191816663
 30
0.0
 10
-27.4900743366
 20
14.3485753317
 30
0.0
 10
-27.4909162694
 20
14.3675281954
 30
0.0
 10
-27.4915478923
 20
14.3783333048
 30
0.0
 10
-27.4922043705
 20
14.3866089141
 30
0.0
 10
-27.4929153616
 20
14.3929261199
 30
0.0
 10
-27.4935564213
 20
14.3960986728
 30
0.0
 10
-27.4942082399
 20
14.3983330454
 30
0.0
 10
-27.4947006421
 20
14.3983416403
 30
0.0
 11
-27.4947006421
 21
13.3984939452
 31
0.0
 11
-27.4916327556
 21
13.5935169169
 31
0.0
 11
-27.4893531352
 21
13.7810487365
 31
0.0
 11
-27.4879493684
 21
13.9538846137
 31
0.0
 11
-27.4875941625
 21
14.0326875796
 31
0.0
 11
-27.4874753796
 21
14.1053852979
 31
0.0
 11
-27.4875941625
 21
14.1712779481
 31
0.0
 11
-27.4879493684
 21
14.2297311802
 31
0.0
 11
-27.4885375799
 21
14.2801822068
 31
0.0
 11
-27.4893531352
 21
14.3221453138
 31
0.0
 11
-27.4903881791
 21
14.3552166084
 31
0.0
 11
-27.4909849754
 21
14.3683150338
 31
0.0
 11
-27.4916327556
 21
14.3790777672
 31
0.0
 11
-27.4923299308
 21
14.387479254
 31
0.0
 11
-27.4930748506
 21
14.3934990765
 31
0.0
 11
-27.4938657918
 21
14.3971226944
 31
0.0
 11
-27.4947006421
 21
14.3983416403
 31
0.0
  0
SPLINE
  5
76E
100
AcDbEntity
  8
SUPERFICI
100
AcDbSpline
 62
253
  6
CONTINUOUS
 70
0
 71
3
 72
23
 73
19
 74
17
 42
0.0000001
 43
0.0000001
 44
0.0000000001
 12
1.0002203073
 22
0.0174589104
 32
0.0
 13
-0.0174535943
 23
1.0002204001
 33
0.0
 40
0.0
 40
0.0
 40
0.0
 40
0.0
 40
0.0014768812
 40
0.005184434
 40
0.0112479116
 40
0.0196751348
 40
0.0304533279
 40
0.0435604575
 40
0.0766356191
 40
0.1185910151
 40
0.1690266747
 40
0.22745921
 40
0.2933274203
 40
0.3659981535
 40
0.4447725632
 40
0.6175497523
 40
0.8050255603
 40
1.0
 40
1.0
 40
1.0
 40
1.0
 10
-27.4947006421
 20
-10.446990289
 30
0.0
 10
-27.4942082399
 20
-10.4469816941
 30
0.0
 10
-27.4935564213
 20
-10.4447473214
 30
0.0
 10
-27.4929153616
 20
-10.4415747685
 30
0.0
 10
-27.4922043705
 20
-10.4352575628
 30
0.0
 10
-27.4915478923
 20
-10.4269819534
 30
0.0
 10
-27.4909162694
 20
-10.4161768441
 30
0.0
 10
-27.4900743366
 20
-10.3972239803
 30
0.0
 10
-27.4892145183
 20
-10.3678303149
 30
0.0
 10
-27.4884379012
 20
-10.3260058909
 30
0.0
 10
-27.487877875
 20
-10.2757131047
 30
0.0
 10
-27.4875416555
 20
-10.2174474655
 30
0.0
 10
-27.4874365741
 20
-10.151765522
 30
0.0
 10
-27.4875647355
 20
-10.0793008174
 30
0.0
 10
-27.4880630219
 20
-9.9711874349
 30
0.0
 10
-27.4892861871
 20
-9.8247950174
 30
0.0
 10
-27.4915560737
 20
-9.639663781
 30
0.0
 10
-27.4935663072
 20
-9.5121483978
 30
0.0
 10
-27.4947006421
 20
-9.4471425938
 30
0.0
 11
-27.4947006421
 21
-10.446990289
 31
0.0
 11
-27.4938657918
 21
-10.4457713431
 31
0.0
 11
-27.4930748506
 21
-10.4421477252
 31
0.0
 11
-27.4923299308
 21
-10.4361279027
 31
0.0
 11
-27.4916327556
 21
-10.4277264159
 31
0.0
 11
-27.4909849754
 21
-10.4169636825
 31
0.0
 11
-27.4903881791
 21
-10.4038652571
 31
0.0
 11
-27.4893531352
 21
-10.3707939625
 31
0.0
 11
-27.4885375799
 21
-10.3288308554
 31
0.0
 11
-27.4879493684
 21
-10.2783798288
 31
0.0
 11
-27.4875941625
 21
-10.2199265968
 31
0.0
 11
-27.4874753796
 21
-10.1540339466
 31
0.0
 11
-27.4875941625
 21
-10.0813362282
 31
0.0
 11
-27.4879493684
 21
-10.0025332624
 31
0.0
 11
-27.4893531352
 21
-9.8296973852
 31
0.0
 11
-27.4916327556
 21
-9.6421655656
 31
0.0
 11
-27.4947006421
 21
-9.4471425938
 31
0.0
  0
SPLINE
  5
76F
100
AcDbEntity
  8
0
100
AcDbSpline
 62
253
  6
CONTINUOUS
 70
0
 71
3
 72
15
 73
11
 74
9
 42
0.0000001
 43
0.0000001
 44
0.0000000001
 12
0.0
 22
2.0772955659
 32
0.0
 13
0.0
 23
-2.0772955659
 33
0.0
 40
0.0
 40
0.0
 40
0.0
 40
0.0
 40
0.1252655343
 40
0.2505793231
 40
0.3752678592
 40
0.4994312422
 40
0.6243838626
 40
0.7493418306
 40
0.8746375061
 40
1.0
 40
1.0
 40
1.0
 40
1.0
 10
-56.2952892911
 20
18.9725729516
 30
0.0
 10
-56.2952892911
 20
19.0593107979
 30
0.0
 10
-56.2772215339
 20
19.233918374
 30
0.0
 10
-56.1674735104
 20
19.4770912225
 30
0.0
 10
-55.9568002888
 20
19.6466835367
 30
0.0
 10
-55.6915441668
 20
19.6919228807
 30
0.0
 10
-55.4347269347
 20
19.6161432227
 30
0.0
 10
-55.2354338789
 20
19.436895599
 30
0.0
 10
-55.1237301504
 20
19.1956780315
 30
0.0
 10
-55.1037087644
 20
19.020828967
 30
0.0
 10
-55.1037087644
 20
18.9340239828
 30
0.0
 11
-56.2952892911
 21
18.9725729516
 31
0.0
 11
-56.2634266311
 21
19.2308277626
 31
0.0
 11
-56.1502935819
 21
19.4652638446
 31
0.0
 11
-55.9473479
 21
19.6261651873
 31
0.0
 11
-55.6935319384
 21
19.6718011651
 31
0.0
 11
-55.4444382991
 21
19.5989542199
 31
0.0
 11
-55.2501991319
 21
19.4267954541
 31
0.0
 11
-55.1373730913
 21
19.1922531744
 31
0.0
 11
-55.1037087644
 21
18.9340239828
 31
0.0
  0
SPLINE
  5
770
100
AcDbEntity
  8
0
100
AcDbSpline
 62
253
  6
CONTINUOUS
 70
0
 71
3
 72
15
 73
11
 74
9
 42
0.0000001
 43
0.0000001
 44
0.0000000001
 12
-0.3234219167
 22
2.5288321036
 32
0.0
 13
0.0
 23
-2.5494362934
 33
0.0
 40
0.0
 40
0.0
 40
0.0
 40
0.0
 40
0.1253890519
 40
0.2506289638
 40
0.375720029
 40
0.5007080199
 40
0.6251710816
 40
0.7496752994
 40
0.874484965
 40
1.0
 40
1.0
 40
1.0
 40
1.0
 10
-54.9121574662
 20
19.0955276075
 30
0.0
 10
-54.9256753221
 20
19.2012235608
 30
0.0
 10
-54.9820775265
 20
19.4108188748
 30
0.0
 10
-55.1719016493
 20
19.6773185767
 30
0.0
 10
-55.4516982316
 20
19.8482071564
 30
0.0
 10
-55.7753166541
 20
19.8955459842
 30
0.0
 10
-56.0912517023
 20
19.8071569447
 30
0.0
 10
-56.3373138189
 20
19.5897141193
 30
0.0
 10
-56.4729937045
 20
19.2934880306
 30
0.0
 10
-56.4968649968
 20
19.0792371468
 30
0.0
 10
-56.4968649968
 20
18.9725729516
 30
0.0
 11
-54.9121574662
 21
19.0955276075
 31
0.0
 11
-54.9996876044
 21
19.4029783262
 31
0.0
 11
-55.1870310261
 21
19.6615099577
 31
0.0
 11
-55.4591927354
 21
19.8276728568
 31
0.0
 11
-55.77456841
 21
19.8728946912
 31
0.0
 11
-56.0796105267
 21
19.7856765572
 31
0.0
 11
-56.318687889
 21
19.5769249224
 31
0.0
 11
-56.4561470793
 21
19.289963564
 31
0.0
 11
-56.4968649968
 21
18.9725729516
 31
0.0
  0
ELLIPSE
  5
771
100
AcDbEntity
  8
RACCORDO
100
AcDbEllipse
 62
7
  6
CONTINUOUS
 10
-10.3846225788
 20
-8.9957710069
 30
0.0
 11
1.8480888181
 21
0.7655034529
 31
0.0
 40
0.9998215708
 41
2.7489566578
 42
2.9141624425
  0
ELLIPSE
  5
772
100
AcDbEntity
  8
RACCORDO
100
AcDbEllipse
 62
7
  6
CONTINUOUS
 10
-10.3846225788
 20
26.3471223582
 30
0.0
 11
-1.8480888181
 21
0.7655034529
 31
0.0
 40
0.9998215708
 41
0.2274302111
 42
0.3926359958
  0
ELLIPSE
  5
773
100
AcDbEntity
  8
RACCORDO
100
AcDbEllipse
 62
7
  6
CONTINUOUS
 10
7.914768109
 20
26.3471223582
 30
0.0
 11
-1.8480888181
 21
-0.7655034529
 31
0.0
 40
0.9998215708
 41
2.7489566578
 42
2.9141624425
  0
ELLIPSE
  5
774
100
AcDbEntity
  8
RACCORDO
100
AcDbEllipse
 62
7
  6
CONTINUOUS
 10
7.914768109
 20
-8.9957710069
 30
0.0
 11
1.8480888181
 21
-0.7655034529
 31
0.0
 40
0.9998215708
 41
0.2274302111
 42
0.3926359958
  0
ELLIPSE
  5
775
100
AcDbEntity
  8
SUPERFICI
100
AcDbEllipse
 62
7
  6
CONTINUOUS
 10
7.914768109
 20
-8.9957710069
 30
0.0
 11
1.8480888181
 21
-0.7655034529
 31
0.0
 40
0.9998215708
 41
6.5106155183
 42
6.675821303
  0
ELLIPSE
  5
776
100
AcDbEntity
  8
SUPERFICI
100
AcDbEllipse
 62
7
  6
CONTINUOUS
 10
7.914768109
 20
26.3471223582
 30
0.0
 11
-1.8480888181
 21
-0.7655034529
 31
0.0
 40
0.9998215708
 41
9.032141965
 42
9.1973477497
  0
ELLIPSE
  5
777
100
AcDbEntity
  8
SUPERFICI
100
AcDbEllipse
 62
7
  6
CONTINUOUS
 10
-10.3846225788
 20
26.3471223582
 30
0.0
 11
-1.8480888181
 21
0.7655034529
 31
0.0
 40
0.9998215708
 41
6.5106155183
 42
6.675821303
  0
ELLIPSE
  5
778
100
AcDbEntity
  8
SUPERFICI
100
AcDbEllipse
 62
7
  6
CONTINUOUS
 10
-10.3846225788
 20
-8.9957710069
 30
0.0
 11
1.8480888181
 21
0.7655034529
 31
0.0
 40
0.9998215708
 41
9.032141965
 42
9.1973477497
  0
ELLIPSE
  5
779
100
AcDbEntity
  8
ASSI
100
AcDbEllipse
 62
7
  6
CONTINUOUS
 10
-2.24019422
 20
31.0599533419
 30
0.0
 11
0.2
 21
0.0
 31
0.0
 40
0.0524077793
 41
-1.5707963268
 42
-0.0174532925
  0
ELLIPSE
  5
77A
100
AcDbEntity
  8
ASSI
100
AcDbEllipse
 62
7
  6
CONTINUOUS
 10
-10.2717978542
 20
30.9577581723
 30
0.0
 11
0.25
 21
0.0
 31
0.0
 40
0.0524077793
 41
-3.1241393611
 42
-1.5707963268
  0
ELLIPSE
  5
77B
100
AcDbEntity
  8
ASSI
100
AcDbEllipse
 62
7
  6
CONTINUOUS
 10
7.5282021458
 20
30.9577581723
 30
0.0
 11
0.25
 21
0.0
 31
0.0
 40
0.0524077793
 41
-3.1241393611
 42
-1.5707963268
  0
ELLIPSE
  5
77C
100
AcDbEntity
  8
ASSI
100
AcDbEllipse
 62
7
  6
CONTINUOUS
 10
7.5282021458
 20
-13.6064068209
 30
0.0
 11
0.25
 21
-0.0
 31
0.0
 40
0.0524077793
 41
1.5707963268
 42
3.1241393611
  0
ELLIPSE
  5
77D
100
AcDbEntity
  8
ASSI
100
AcDbEllipse
 62
7
  6
CONTINUOUS
 10
7.5282021458
 20
-14.879986757
 30
0.0
 11
0.25
 21
-0.0
 31
0.0
 40
0.5773502692
 41
-3.1241393611
 42
-2.617993878
  0
ELLIPSE
  5
77E
100
AcDbEntity
  8
ASSI
100
AcDbEllipse
 62
7
  6
CONTINUOUS
 10
-10.2717978542
 20
-14.879986757
 30
0.0
 11
0.25
 21
0.0
 31
0.0
 40
0.5773502692
 41
-3.1241393611
 42
-2.617993878
  0
ELLIPSE
  5
77F
100
AcDbEntity
  8
ASSI
100
AcDbEllipse
 62
7
  6
CONTINUOUS
 10
-10.2717978542
 20
-13.6064068209
 30
0.0
 11
0.25
 21
0.0
 31
0.0
 40
0.0524077793
 41
1.5707963268
 42
3.1241393611
  0
ELLIPSE
  5
780
100
AcDbEntity
  8
ASSI
100
AcDbEllipse
 62
7
  6
CONTINUOUS
 10
-11.5630703218
 20
-13.6588146002
 30
0.0
 11
0.25
 21
-0.0
 31
0.0
 40
0.0524077793
 41
1.5707963268
 42
2.8253464262
  0
ELLIPSE
  5
781
100
AcDbEntity
  8
ASSI
100
AcDbEllipse
 62
7
  6
CONTINUOUS
 10
-11.5630703218
 20
-14.3026364878
 30
0.0
 11
0.25
 21
-0.0
 31
0.0
 40
0.5773502692
 41
-1.7618311193
 42
-1.5707963268
  0
ELLIPSE
  5
782
100
AcDbEntity
  8
ASSI
100
AcDbEllipse
 62
7
  6
CONTINUOUS
 10
-8.7067841481
 20
-13.6588146002
 30
0.0
 11
0.25
 21
-0.0
 31
0.0
 40
0.0524077793
 41
0.0174532925
 42
1.5707963268
  0
ELLIPSE
  5
783
100
AcDbEntity
  8
ASSI
100
AcDbEllipse
 62
7
  6
CONTINUOUS
 10
-8.7067841481
 20
-14.3026364878
 30
0.0
 11
0.25
 21
-0.0
 31
0.0
 40
0.5773502692
 41
-1.5707963268
 42
-1.3797615343
  0
ELLIPSE
  5
784
100
AcDbEntity
  8
ASSI
100
AcDbEllipse
 62
7
  6
CONTINUOUS
 10
6.2369296782
 20
-13.6588146002
 30
0.0
 11
0.25
 21
-0.0
 31
0.0
 40
0.0524077793
 41
1.5707963268
 42
3.1241393611
  0
ELLIPSE
  5
785
100
AcDbEntity
  8
ASSI
100
AcDbEllipse
 62
7
  6
CONTINUOUS
 10
6.2369296782
 20
-14.3026364878
 30
0.0
 11
0.25
 21
-0.0
 31
0.0
 40
0.5773502692
 41
-1.7618311193
 42
-1.5707963268
  0
ELLIPSE
  5
786
100
AcDbEntity
  8
ASSI
100
AcDbEllipse
 62
7
  6
CONTINUOUS
 10
9.0932158519
 20
-13.6588146002
 30
0.0
 11
0.25
 21
-0.0
 31
0.0
 40
0.0524077793
 41
0.3162462274
 42
1.5707963268
  0
ELLIPSE
  5
787
100
AcDbEntity
  8
ASSI
100
AcDbEllipse
 62
7
  6
CONTINUOUS
 10
9.0932158519
 20
-14.3026364878
 30
0.0
 11
0.25
 21
0.0
 31
0.0
 40
0.5773502692
 41
-1.5707963268
 42
-1.3797615343
  0
ELLIPSE
  5
788
100
AcDbEntity
  8
ASSI
100
AcDbEllipse
 62
7
  6
CONTINUOUS
 10
-8.7067841481
 20
31.0101659516
 30
0.0
 11
0.25
 21
-0.0
 31
0.0
 40
0.0524077793
 41
-1.5707963268
 42
-0.0174532925
  0
ELLIPSE
  5
789
100
AcDbEntity
  8
ASSI
100
AcDbEllipse
 62
7
  6
CONTINUOUS
 10
-8.7067841481
 20
31.6539878392
 30
0.0
 11
0.25
 21
0.0
 31
0.0
 40
0.5773502692
 41
1.3797615343
 42
1.5707963268
  0
ELLIPSE
  5
78A
100
AcDbEntity
  8
ASSI
100
AcDbEllipse
 62
7
  6
CONTINUOUS
 10
-11.5630703218
 20
31.0101659516
 30
0.0
 11
0.25
 21
0.0
 31
0.0
 40
0.0524077793
 41
-2.8253464262
 42
-1.5707963268
  0
ELLIPSE
  5
78B
100
AcDbEntity
  8
ASSI
100
AcDbEllipse
 62
7
  6
CONTINUOUS
 10
-11.5630703218
 20
31.6539878392
 30
0.0
 11
0.25
 21
0.0
 31
0.0
 40
0.5773502692
 41
1.5707963268
 42
1.7618311193
  0
ELLIPSE
  5
78C
100
AcDbEntity
  8
ASSI
100
AcDbEllipse
 62
7
  6
CONTINUOUS
 10
6.2369296782
 20
31.0101659516
 30
0.0
 11
0.25
 21
0.0
 31
0.0
 40
0.0524077793
 41
-3.1241393611
 42
-1.5707963268
  0
ELLIPSE
  5
78D
100
AcDbEntity
  8
ASSI
100
AcDbEllipse
 62
7
  6
CONTINUOUS
 10
6.2369296782
 20
31.6539878392
 30
0.0
 11
0.25
 21
-0.0
 31
0.0
 40
0.5773502692
 41
1.5707963268
 42
1.7618311193
  0
ELLIPSE
  5
78E
100
AcDbEntity
  8
ASSI
100
AcDbEllipse
 62
7
  6
CONTINUOUS
 10
9.0932158519
 20
31.0101659516
 30
0.0
 11
0.25
 21
-0.0
 31
0.0
 40
0.0524077793
 41
-1.5707963268
 42
-0.3162462274
  0
ELLIPSE
  5
78F
100
AcDbEntity
  8
ASSI
100
AcDbEllipse
 62
7
  6
CONTINUOUS
 10
9.0932158519
 20
31.6539878392
 30
0.0
 11
0.25
 21
0.0
 31
0.0
 40
0.5773502692
 41
1.3797615343
 42
1.5707963268
  0
ELLIPSE
  5
790
100
AcDbEntity
  8
ASSI
100
AcDbEllipse
 62
7
  6
CONTINUOUS
 10
-9.9980566156
 20
30.9577581723
 30
0.0
 11
0.25
 21
0.0
 31
0.0
 40
0.0524077793
 41
-1.5707963268
 42
-0.0174532925
  0
ELLIPSE
  5
791
100
AcDbEntity
  8
ASSI
100
AcDbEllipse
 62
7
  6
CONTINUOUS
 10
-9.9980566156
 20
32.2313381084
 30
0.0
 11
0.25
 21
0.0
 31
0.0
 40
0.5773502692
 41
0.0174532925
 42
0.5235987756
  0
ELLIPSE
  5
792
100
AcDbEntity
  8
ASSI
100
AcDbEllipse
 62
7
  6
CONTINUOUS
 10
7.8019433844
 20
32.2313381084
 30
0.0
 11
0.25
 21
0.0
 31
0.0
 40
0.5773502692
 41
0.0174532925
 42
0.5235987756
  0
ELLIPSE
  5
793
100
AcDbEntity
  8
ASSI
100
AcDbEllipse
 62
7
  6
CONTINUOUS
 10
7.8019433844
 20
30.9577581723
 30
0.0
 11
0.25
 21
0.0
 31
0.0
 40
0.0524077793
 41
-1.5707963268
 42
-0.0174532925
  0
ELLIPSE
  5
794
100
AcDbEntity
  8
ASSI
100
AcDbEllipse
 62
7
  6
CONTINUOUS
 10
7.8019433844
 20
-13.6064068209
 30
0.0
 11
0.25
 21
0.0
 31
0.0
 40
0.0524077793
 41
0.0174532925
 42
1.5707963268
  0
ELLIPSE
  5
795
100
AcDbEntity
  8
ASSI
100
AcDbEllipse
 62
7
  6
CONTINUOUS
 10
-9.9980566156
 20
-13.6064068209
 30
0.0
 11
0.25
 21
0.0
 31
0.0
 40
0.0524077793
 41
0.0174532925
 42
1.5707963268
  0
ELLIPSE
  5
796
100
AcDbEntity
  8
ASSI
100
AcDbEllipse
 62
7
  6
CONTINUOUS
 10
-0.2296602498
 20
-13.7086019905
 30
0.0
 11
0.2
 21
0.0
 31
0.0
 40
0.0524077793
 41
1.5707963268
 42
3.1241393611
  0
ELLIPSE
  5
797
100
AcDbEntity
  8
ASSI
100
AcDbEllipse
 62
7
  6
CONTINUOUS
 10
-11.8352698969
 20
30.5760183246
 30
0.0
 11
-0.9888246763
 21
3.0427267403
 31
0.0
 40
0.0489125227
 41
-1.4436485256
 42
-1.4217508691
  0
ELLIPSE
  5
798
100
AcDbEntity
  8
ASSI
100
AcDbEllipse
 62
7
  6
CONTINUOUS
 10
-11.8352698969
 20
-13.2246669732
 30
0.0
 11
0.9888246763
 21
3.0427267403
 31
0.0
 40
0.0489125227
 41
-1.7198418491
 42
-1.697944128
  0
ELLIPSE
  5
799
100
AcDbEntity
  8
ASSI
100
AcDbEllipse
 62
7
  6
CONTINUOUS
 10
9.365415427
 20
-13.2246669732
 30
0.0
 11
-0.9888246763
 21
3.0427267403
 31
0.0
 40
0.0489125227
 41
-4.5852411792
 42
-4.5633435227
  0
ELLIPSE
  5
79A
100
AcDbEntity
  8
ASSI
100
AcDbEllipse
 62
7
  6
CONTINUOUS
 10
3.00980578
 20
-13.7086019905
 30
0.0
 11
0.2
 21
0.0
 31
0.0
 40
0.0524077793
 41
0.0174532925
 42
1.5707963268
  0
ELLIPSE
  5
79B
100
AcDbEntity
  8
ASSI
100
AcDbEllipse
 62
7
  6
CONTINUOUS
 10
9.365415427
 20
30.5760183246
 30
0.0
 11
0.9888246763
 21
3.0427267403
 31
0.0
 40
0.0489125227
 41
1.4217508045
 42
1.4436485256
  0
ELLIPSE
  5
79C
100
AcDbEntity
  8
ASSI
100
AcDbEllipse
 62
7
  6
CONTINUOUS
 10
3.00980578
 20
31.0599533419
 30
0.0
 11
0.2
 21
-0.0
 31
0.0
 40
0.0524077793
 41
-1.5707963268
 42
-0.0174532925
  0
ELLIPSE
  5
79D
100
AcDbEntity
  8
ASSI
100
AcDbEllipse
 62
7
  6
CONTINUOUS
 10
-9.9980566156
 20
-14.879986757
 30
0.0
 11
0.25
 21
0.0
 31
0.0
 40
0.5773502692
 41
-0.5235987756
 42
-0.0174532925
  0
ELLIPSE
  5
79E
100
AcDbEntity
  8
ASSI
100
AcDbEllipse
 62
7
  6
CONTINUOUS
 10
7.8019433844
 20
-14.879986757
 30
0.0
 11
0.25
 21
-0.0
 31
0.0
 40
0.5773502692
 41
-0.5235987756
 42
-0.0174532925
  0
ELLIPSE
  5
79F
100
AcDbEntity
  8
ASSI
100
AcDbEllipse
 62
7
  6
CONTINUOUS
 10
-0.2296602498
 20
31.0599533419
 30
0.0
 11
0.2
 21
-0.0
 31
0.0
 40
0.0524077793
 41
-3.1241393611
 42
-1.5707963268
  0
ELLIPSE
  5
7A0
100
AcDbEntity
  8
ASSI
100
AcDbEllipse
 62
7
  6
CONTINUOUS
 10
-5.4796602498
 20
-13.7086019905
 30
0.0
 11
0.2
 21
0.0
 31
0.0
 40
0.0524077793
 41
1.5707963268
 42
3.1241393611
  0
ELLIPSE
  5
7A1
100
AcDbEntity
  8
ASSI
100
AcDbEllipse
 62
7
  6
CONTINUOUS
 10
-2.24019422
 20
-13.7086019905
 30
0.0
 11
0.2
 21
0.0
 31
0.0
 40
0.0524077793
 41
0.0174532925
 42
1.5707963268
  0
ELLIPSE
  5
7A2
100
AcDbEntity
  8
ASSI
100
AcDbEllipse
 62
7
  6
CONTINUOUS
 10
-5.4796602498
 20
31.0599533419
 30
0.0
 11
0.2
 21
0.0
 31
0.0
 40
0.0524077793
 41
-3.1241393611
 42
-1.5707963268
  0
ELLIPSE
  5
7A3
100
AcDbEntity
  8
ASSI
100
AcDbEllipse
 62
7
  6
CONTINUOUS
 10
7.5282021458
 20
32.2313381084
 30
0.0
 11
0.25
 21
0.0
 31
0.0
 40
0.5773502692
 41
2.617993878
 42
3.1241393611
  0
ELLIPSE
  5
7A4
100
AcDbEntity
  8
ASSI
100
AcDbEllipse
 62
7
  6
CONTINUOUS
 10
-10.2717978542
 20
32.2313381084
 30
0.0
 11
0.25
 21
0.0
 31
0.0
 40
0.5773502692
 41
2.617993878
 42
3.1241393611
  0
ELLIPSE
  5
7A5
100
AcDbEntity
  8
ASSI
100
AcDbEllipse
 62
7
  6
CONTINUOUS
 10
-60.592521957
 20
30.5760183246
 30
0.0
 11
57.2877742299
 21
3.0018677586
 31
0.0
 40
0.0087159045
 41
1.5706822257
 42
1.5925799468
  0
ELLIPSE
  5
7A6
100
AcDbEntity
  8
ASSI
100
AcDbEllipse
 62
7
  6
CONTINUOUS
 10
-37.4644499454
 20
-14.5243243243
 30
0.0
 11
26.3304431995
 21
-0.0
 31
0.0
 40
0.017367588
 41
2.3053277814
 42
2.5701928713
  0
ELLIPSE
  5
7A7
100
AcDbEntity
  8
ASSI
100
AcDbEllipse
 62
7
  6
CONTINUOUS
 10
-37.4644499454
 20
-14.5243243243
 30
0.0
 11
26.3304431995
 21
-0.0
 31
0.0
 40
0.017367588
 41
-2.5701928713
 42
-2.3053277814
  0
ELLIPSE
  5
7A8
100
AcDbEntity
  8
ASSI
100
AcDbEllipse
 62
7
  6
CONTINUOUS
 10
-37.4644499454
 20
31.8756756757
 30
0.0
 11
26.3304431995
 21
0.0
 31
0.0
 40
0.017367588
 41
2.3053277814
 42
2.5701928713
  0
ELLIPSE
  5
7A9
100
AcDbEntity
  8
ASSI
100
AcDbEllipse
 62
7
  6
CONTINUOUS
 10
-37.4644499454
 20
31.8756756757
 30
0.0
 11
26.3304431995
 21
-0.0
 31
0.0
 40
0.017367588
 41
-2.5701928713
 42
-2.3053277814
  0
ELLIPSE
  5
7AA
100
AcDbEntity
  8
ASSI
100
AcDbEllipse
 62
7
  6
CONTINUOUS
 10
-60.592521957
 20
-13.2246669732
 30
0.0
 11
57.2877742299
 21
-3.0018677586
 31
0.0
 40
0.0087159045
 41
-1.5925799468
 42
-1.5706822902
  0
ELLIPSE
  5
7AB
100
AcDbEntity
  8
0
100
AcDbEllipse
 62
7
  6
CONTINUOUS
 10
-47.0328363761
 20
5.5756756757
 30
0.0
 11
1.6218506799
 21
0.0000000008
 31
0.0
 40
0.999997266
 41
1.5771846785
 42
4.7060006278
  0
ELLIPSE
  5
7AC
100
AcDbEntity
  8
RACCORDO
100
AcDbEllipse
 62
7
  6
CONTINUOUS
 10
-27.5121530485
 20
7.4022706414
 30
0.0
 11
0.999996827
 21
0.0094018592
 31
0.0
 40
0.2679374115
 41
-0.0025191125
 42
1.5508239218
  0
ELLIPSE
  5
7AD
100
AcDbEntity
  8
0
100
AcDbEllipse
 62
7
  6
CONTINUOUS
 10
-47.0384706697
 20
5.5756756757
 30
0.0
 11
2.0155265474
 21
-0.0000000001
 31
0.0
 40
0.9999890624
 41
1.5748459681
 42
4.7083393391
  0
ELLIPSE
  5
7AE
100
AcDbEntity
  8
RACCORDO
100
AcDbEllipse
 62
7
  6
CONTINUOUS
 10
-27.5121530485
 20
3.74908071
 30
0.0
 11
0.999996827
 21
-0.0094018592
 31
0.0
 40
0.2679374115
 41
-1.5508239218
 42
0.0025191125
  0
ELLIPSE
  5
7AF
100
AcDbEntity
  8
SUPERFICI
100
AcDbEllipse
 62
7
  6
CONTINUOUS
 10
-47.0328363761
 20
5.5756756757
 30
0.0
 11
1.6218506799
 21
0.0000000008
 31
0.0
 40
0.999997266
 41
1.5771846785
 42
4.7060006278
  0
ELLIPSE
  5
7B0
100
AcDbEntity
  8
SUPERFICI
100
AcDbEllipse
 62
7
  6
CONTINUOUS
 10
-27.5121530485
 20
7.4022706414
 30
0.0
 11
0.999996827
 21
0.0094018592
 31
0.0
 40
0.2679374115
 41
-0.0025191125
 42
1.5508239218
  0
ELLIPSE
  5
7B1
100
AcDbEntity
  8
SUPERFICI
100
AcDbEllipse
 62
7
  6
CONTINUOUS
 10
-27.5121530485
 20
3.74908071
 30
0.0
 11
0.999996827
 21
-0.0094018592
 31
0.0
 40
0.2679374115
 41
-1.5508239218
 42
0.0025191125
  0
ELLIPSE
  5
7B2
100
AcDbEntity
  8
SUPERFICI
100
AcDbEllipse
 62
7
  6
CONTINUOUS
 10
-47.0384706697
 20
5.5756756757
 30
0.0
 11
2.0155265474
 21
-0.0000000001
 31
0.0
 40
0.9999890624
 41
1.5748459681
 42
4.7083393391
  0
ELLIPSE
  5
7B3
100
AcDbEntity
  8
0
100
AcDbEllipse
 62
253
  6
CONTINUOUS
 10
-55.6222975991
 20
3.9948806757
 30
0.0
 11
-0.0
 21
0.352865
 31
0.0
 40
0.9996954135
 41
-1.5707963268
 42
1.5707963268
  0
ENDSEC
  0
SECTION
  2
OBJECTS
  0
DICTIONARY
  5
C
100
AcDbDictionary
280
0
281
1
  3
ACAD_GROUP
350
D
  3
ACAD_MLINESTYLE
350
17
  3
ACAD_LAYOUT
350
1A
  3
ACAD_PLOTSETTINGS
350
19
  3
ACAD_PLOTSTYLENAME
350
E
  0
DICTIONARY
  5
D
102
{ACAD_REACTORS
330
C
102
}
100
AcDbDictionary
280
0
281
1
  0
ACDBDICTIONARYWDFLT
  5
E
102
{ACAD_REACTORS
330
C
102
}
100
AcDbDictionary
281
1
  3
Normal
350
F
100
AcDbDictionaryWithDefault
340
F
  0
DICTIONARY
  5
17
102
{ACAD_REACTORS
330
C
102
}
100
AcDbDictionary
280
0
281
1
  3
Standard
350
18
  0
DICTIONARY
  5
19
102
{ACAD_REACTORS
330
C
102
}
100
AcDbDictionary
281
1
  0
DICTIONARY
  5
1A
102
{ACAD_REACTORS
330
C
102
}
100
AcDbDictionary
281
1
  3
Model
350
7B4
  3
Layout1
350
7B5
  0
ACDBPLACEHOLDER
  5
F
102
{ACAD_REACTORS
330
E
102
}
  0
MLINESTYLE
  5
18
102
{ACAD_REACTORS
330
17
102
}
100
AcDbMlineStyle
  2
STANDARD
 70
0
  3

 62
256
 51
90.0
 52
90.0
 71
2
 49
0.5
 62
256
  6
BYLAYER
 49
-0.5
 62
256
  6
BYLAYER
  0
LAYOUT
  5
7B4
102
{ACAD_REACTORS
330
1A
102
}
100
AcDbPlotSettings
  1

  2
none_device
  4
ISO_A4_(297.00_x_210.00_MM)
  6

 40
0.0
 41
0.0
 42
0.0
 43
0.0
 44
297.0
 45
210.0
 46
0.0
 47
0.0
 48
0.0
 49
0.0
140
0.0
141
0.0
142
1.0
143
1.0
 70
1024
 72
1
 73
0
 74
0
  7

 75
0
147
1.0
148
0.0
149
0.0
100
AcDbLayout
  1
Model
 70
0
 71
0
 10
0.0
 20
0.0
 11
297.0
 21
210.0
 12
0.0
 22
0.0
 32
0.0
 14
0.0
 24
0.0
 34
0.0
 15
0.0
 25
0.0
 35
0.0
146
0.0
 13
0.0
 23
0.0
 33
0.0
 16
1.0
 26
0.0
 36
0.0
 17
0.0
 27
1.0
 37
0.0
 76
0
330
218
345
0
346
0
  0
LAYOUT
  5
7B5
102
{ACAD_REACTORS
330
1A
102
}
100
AcDbPlotSettings
  1

  2
none_device
  4
ISO_A4_(297.00_x_210.00_MM)
  6

 40
0.0
 41
0.0
 42
0.0
 43
0.0
 44
297.0
 45
210.0
 46
0.0
 47
0.0
 48
0.0
 49
0.0
140
0.0
141
0.0
142
1.0
143
1.0
 70
0
 72
1
 73
0
 74
0
  7

 75
0
147
1.0
148
0.0
149
0.0
100
AcDbLayout
  1
Layout1
 70
0
 71
1
 10
0.0
 20
0.0
 11
297.0
 21
210.0
 12
0.0
 22
0.0
 32
0.0
 14
0.0
 24
0.0
 34
0.0
 15
0.0
 25
0.0
 35
0.0
146
0.0
 13
0.0
 23
0.0
 33
0.0
 16
1.0
 26
0.0
 36
0.0
 17
0.0
 27
1.0
 37
0.0
 76
0
330
219
345
0
346
0
  0
ENDSEC
  0
EOF
