  0
SECTION
  2
HEADER
  9
$ACADVER
  1
AC1015
  9
$DWGCODEPAGE
  3
ANSI_1252
  9
$EXTMAX
 10
297.0
 20
210.0
 30
0.0
  9
$EXTMIN
 10
0.0
 20
0.0
 30
0.0
  9
$LIMMIN
 10
0.0
 20
0.0
  9
$LIMMAX
 10
297.0
 20
210.0
  9
$VIEWCTR
 10
148.5
 20
105.0
  9
$VIEWSIZE
 40
210.0
  9
$CLAYER
  8
0
  9
$LTSCALE
 40
16.335
  9
$CELTYPE
  6
BYLAYER
  9
$DIMSCALE
 40
1.0
  9
$DIMASZ
 40
3.0
  9
$DIMEXO
 40
1.85625
  9
$DIMDLI
 40
11.286
  9
$DIMEXE
 40
5.346
  9
$DIMCEN
 40
2.673
  9
$DIMLFAC
 40
1.0
  9
$DIMBLK
  1
_FILLED
  9
$DIMTXT
 40
3.0
  9
$DIMTOL
 70
1
  9
$DIMLIM
 70
0
  9
$DIMTFAC
 40
1.0
  9
$DIMTP
 40
0.01
  9
$DIMTM
 40
0.01
  9
$PDMODE
 70
3
  9
$PDSIZE
 40
3.0
  9
$HANDSEED
  5
359
  9
$TILEMODE
 70
1
  9
$MEASUREMENT
 70
1
  9
$INSUNITS
 70
4
  0
ENDSEC
  0
SECTION
  2
CLASSES
  0
CLASS
  1
ACDBDICTIONARYWDFLT
  2
AcDbDictionaryWithDefault
  3
AutoCAD 2000
 90
0
280
0
281
0
  0
CLASS
  1
ACDBPLACEHOLDER
  2
AcDbPlaceHolder
  3
AutoCAD 2000
 90
0
280
0
281
0
  0
CLASS
  1
LAYOUT
  2
AcDbLayout
  3
AutoCAD 2000
 90
0
280
0
281
0
  0
ENDSEC
  0
SECTION
  2
TABLES
  0
TABLE
  2
VPORT
  5
8
100
AcDbSymbolTable
 70
2
  0
VPORT
  5
1F4
100
AcDbSymbolTableRecord
100
AcDbViewportTableRecord
  2
*ACTIVE
 70
0
 10
0.0
 20
0.0
 11
1.0
 21
1.0
 12
148.5
 22
105.0
 13
0.0
 23
0.0
 14
1.0
 24
1.0
 15
0.0
 25
0.0
 16
0.0
 26
0.0
 36
1.0
 17
0.0
 27
0.0
 37
0.0
 40
210.0
 41
1.4142857143
 42
50.0
 43
0.0
 44
0.0
 50
0.0
 51
0.0
 71
0
 72
100
 73
1
 74
1
 75
0
 76
0
 77
0
 78
0
  0
ENDTAB
  0
TABLE
  2
LTYPE
  5
5
100
AcDbSymbolTable
 70
6
  0
LTYPE
  5
14
100
AcDbSymbolTableRecord
100
AcDbLinetypeTableRecord
  2
BYBLOCK
 70
0
  3

 72
65
 73
0
 40
0.0
  0
LTYPE
  5
15
100
AcDbSymbolTableRecord
100
AcDbLinetypeTableRecord
  2
BYLAYER
 70
0
  3

 72
65
 73
0
 40
0.0
  0
LTYPE
  5
16
100
AcDbSymbolTableRecord
100
AcDbLinetypeTableRecord
  2
CONTINUOUS
 70
64
  3
Solid line
 72
65
 73
0
 40
0.0
  0
LTYPE
  5
1F5
100
AcDbSymbolTableRecord
100
AcDbLinetypeTableRecord
  2
CENTER
 70
64
  3
____ _ ____ _ ____ _ ____ _ ____ _ ____ _ ____
 72
65
 73
4
 40
0.6
 49
0.375
 74
0
 49
-0.075
 74
0
 49
0.075
 74
0
 49
-0.075
 74
0
  0
LTYPE
  5
1F6
100
AcDbSymbolTableRecord
100
AcDbLinetypeTableRecord
  2
HIDDEN
 70
64
  3
- - - - - - - - - - - - - - - - - - - -
 72
65
 73
2
 40
0.2
 49
0.1
 74
0
 49
-0.1
 74
0
  0
LTYPE
  5
1F7
100
AcDbSymbolTableRecord
100
AcDbLinetypeTableRecord
  2
PHANTOM
 70
64
  3
_____ _ _ _____ _ _ _____ _ _ _____
 72
65
 73
6
 40
0.8
 49
0.45
 74
0
 49
-0.05
 74
0
 49
0.1
 74
0
 49
-0.05
 74
0
 49
0.1
 74
0
 49
-0.05
 74
0
  0
LTYPE
  5
1F8
100
AcDbSymbolTableRecord
100
AcDbLinetypeTableRecord
  2
DOT
 70
64
  3
. . . . . . . . . . . . . . . . . . . .
 72
65
 73
2
 40
0.2
 49
0.1
 74
0
 49
-0.1
 74
0
  0
LTYPE
  5
1F9
100
AcDbSymbolTableRecord
100
AcDbLinetypeTableRecord
  2
DASHED
 70
64
  3
- - - - - - - - - - - - - - - - - - - -
 72
65
 73
2
 40
0.2
 49
0.1
 74
0
 49
-0.1
 74
0
  0
ENDTAB
  0
TABLE
  2
LAYER
  5
2
100
AcDbSymbolTable
 70
36
  0
LAYER
  5
10
100
AcDbSymbolTableRecord
100
AcDbLayerTableRecord
  2
0
 70
0
 62
7
  6
CONTINUOUS
370
-3
390
F
  0
LAYER
  5
1FA
100
AcDbSymbolTableRecord
100
AcDbLayerTableRecord
  2
DEFAULT_1
 70
0
 62
7
  6
CENTER
370
-3
390
F
  0
LAYER
  5
1FB
100
AcDbSymbolTableRecord
100
AcDbLayerTableRecord
  2
DEFAULT_2
 70
0
 62
7
  6
HIDDEN
370
-3
390
F
  0
LAYER
  5
1FC
100
AcDbSymbolTableRecord
100
AcDbLayerTableRecord
  2
DEFAULT_3
 70
0
 62
7
  6
PHANTOM
370
-3
390
F
  0
LAYER
  5
1FD
100
AcDbSymbolTableRecord
100
AcDbLayerTableRecord
  2
ASSI
 70
0
 62
7
  6
CONTINUOUS
370
-3
390
F
  0
LAYER
  5
1FE
100
AcDbSymbolTableRecord
100
AcDbLayerTableRecord
  2
COORDINATE
 70
0
 62
7
  6
CONTINUOUS
370
-3
390
F
  0
LAYER
  5
1FF
100
AcDbSymbolTableRecord
100
AcDbLayerTableRecord
  2
COPY_PUBLISH
 70
0
 62
7
  6
CONTINUOUS
370
-3
390
F
  0
LAYER
  5
200
100
AcDbSymbolTableRecord
100
AcDbLayerTableRecord
  2
COSMETIC
 70
0
 62
7
  6
CONTINUOUS
370
-3
390
F
  0
LAYER
  5
201
100
AcDbSymbolTableRecord
100
AcDbLayerTableRecord
  2
COSMETICI
 70
0
 62
7
  6
CONTINUOUS
370
-3
390
F
  0
LAYER
  5
202
100
AcDbSymbolTableRecord
100
AcDbLayerTableRecord
  2
CURVE
 70
0
 62
7
  6
CONTINUOUS
370
-3
390
F
  0
LAYER
  5
203
100
AcDbSymbolTableRecord
100
AcDbLayerTableRecord
  2
DRAFT
 70
0
 62
7
  6
CONTINUOUS
370
-3
390
F
  0
LAYER
  5
204
100
AcDbSymbolTableRecord
100
AcDbLayerTableRecord
  2
IMPORT_IGES
 70
0
 62
7
  6
CONTINUOUS
370
-3
390
F
  0
LAYER
  5
205
100
AcDbSymbolTableRecord
100
AcDbLayerTableRecord
  2
INTFCLR_11
 70
0
 62
7
  6
CONTINUOUS
370
-3
390
F
  0
LAYER
  5
206
100
AcDbSymbolTableRecord
100
AcDbLayerTableRecord
  2
INTF_1
 70
0
 62
7
  6
CONTINUOUS
370
-3
390
F
  0
LAYER
  5
207
100
AcDbSymbolTableRecord
100
AcDbLayerTableRecord
  2
INTF_3
 70
0
 62
7
  6
CONTINUOUS
370
-3
390
F
  0
LAYER
  5
208
100
AcDbSymbolTableRecord
100
AcDbLayerTableRecord
  2
NOTE
 70
0
 62
7
  6
CONTINUOUS
370
-3
390
F
  0
LAYER
  5
209
100
AcDbSymbolTableRecord
100
AcDbLayerTableRecord
  2
PIANI
 70
0
 62
7
  6
CONTINUOUS
370
-3
390
F
  0
LAYER
  5
20A
100
AcDbSymbolTableRecord
100
AcDbLayerTableRecord
  2
PIANI_RIFERIMENTO
 70
0
 62
7
  6
CONTINUOUS
370
-3
390
F
  0
LAYER
  5
20B
100
AcDbSymbolTableRecord
100
AcDbLayerTableRecord
  2
PUNTI
 70
0
 62
7
  6
CONTINUOUS
370
-3
390
F
  0
LAYER
  5
20C
100
AcDbSymbolTableRecord
100
AcDbLayerTableRecord
  2
RACCORDO
 70
0
 62
7
  6
CONTINUOUS
370
-3
390
F
  0
LAYER
  5
20D
100
AcDbSymbolTableRecord
100
AcDbLayerTableRecord
  2
SIMBOLI
 70
0
 62
7
  6
CONTINUOUS
370
-3
390
F
  0
LAYER
  5
20E
100
AcDbSymbolTableRecord
100
AcDbLayerTableRecord
  2
SMUSSO
 70
0
 62
7
  6
CONTINUOUS
370
-3
390
F
  0
LAYER
  5
20F
100
AcDbSymbolTableRecord
100
AcDbLayerTableRecord
  2
SNAPLINE
 70
0
 62
7
  6
CONTINUOUS
370
-3
390
F
  0
LAYER
  5
210
100
AcDbSymbolTableRecord
100
AcDbLayerTableRecord
  2
SUPERFICI
 70
0
 62
7
  6
CONTINUOUS
370
-3
390
F
  0
LAYER
  5
211
100
AcDbSymbolTableRecord
100
AcDbLayerTableRecord
  2
TRASH
 70
0
 62
7
  6
CONTINUOUS
370
-3
390
F
  0
LAYER
  5
212
100
AcDbSymbolTableRecord
100
AcDbLayerTableRecord
  2
___SHELL
 70
0
 62
7
  6
CONTINUOUS
370
-3
390
F
  0
ENDTAB
  0
TABLE
  2
STYLE
  5
3
100
AcDbSymbolTable
 70
1
  0
STYLE
  5
11
100
AcDbSymbolTableRecord
100
AcDbTextStyleTableRecord
  2
STANDARD
 70
0
 40
0.0
 41
0.8
 50
0.0
 71
0
 42
0.2
  3
txt
  4

  0
STYLE
  5
213
100
AcDbSymbolTableRecord
100
AcDbTextStyleTableRecord
  2
TEXTSTYLE_1
 70
0
 40
0.0
 41
0.8
 50
0.0
 71
0
 42
0.2
  3
gdt
  4

  0
ENDTAB
  0
TABLE
  2
VIEW
  5
6
100
AcDbSymbolTable
 70
0
  0
ENDTAB
  0
TABLE
  2
UCS
  5
7
100
AcDbSymbolTable
 70
0
  0
ENDTAB
  0
TABLE
  2
APPID
  5
9
100
AcDbSymbolTable
 70
1
  0
APPID
  5
214
100
AcDbSymbolTableRecord
100
AcDbRegAppTableRecord
  2
ACAD
 70
0
  0
ENDTAB
  0
TABLE
  2
BLOCK_RECORD
  5
1
100
AcDbSymbolTable
 70
0
  0
BLOCK_RECORD
  5
215
100
AcDbSymbolTableRecord
100
AcDbBlockTableRecord
  2
*Model_Space
  0
BLOCK_RECORD
  5
216
100
AcDbSymbolTableRecord
100
AcDbBlockTableRecord
  2
*Paper_Space
  0
BLOCK_RECORD
  5
217
100
AcDbSymbolTableRecord
100
AcDbBlockTableRecord
  2
_FILLED
  0
BLOCK_RECORD
  5
218
100
AcDbSymbolTableRecord
100
AcDbBlockTableRecord
  2
*D0
  0
BLOCK_RECORD
  5
219
100
AcDbSymbolTableRecord
100
AcDbBlockTableRecord
  2
*D1
  0
BLOCK_RECORD
  5
21A
100
AcDbSymbolTableRecord
100
AcDbBlockTableRecord
  2
*D2
  0
ENDTAB
  0
TABLE
  2
DIMSTYLE
  5
A
100
AcDbSymbolTable
 70
1
100
AcDbDimStyleTable
 71
0
  0
DIMSTYLE
105
21B
100
AcDbSymbolTableRecord
100
AcDbDimStyleTableRecord
  2
STANDARD
 70
0
  3

  4

 40
1.0
 41
3.0
 42
0.0625
 43
0.38
 44
0.18
 45
0.0
 46
0.0
 47
0.01
 48
0.01
140
3.0
141
0.09
142
0.0
143
25.4
144
1.0
145
0.0
146
1.0
147
0.09
 71
1.0
 72
0.0
 73
0
 74
0
 75
0
 76
0
 77
1
 78
8
170
0
171
2
172
0
173
0
174
0
175
0
176
0
177
0
178
0
270
2
271
2
272
2
273
2
274
2
275
0
280
0
281
0
282
0
283
1
284
8
285
0
286
0
287
3
288
0
340
11
341
217
342
217
343
217
344
217
  0
DIMSTYLE
105
21C
100
AcDbSymbolTableRecord
100
AcDbDimStyleTableRecord
  2
DIMSTYLE_1
 70
0
  3

  4

 40
1.0
 41
3.0
 42
0.0625
 43
0.38
 44
0.18
 45
0.0
 46
0.0
 47
0.0
 48
0.0
140
3.0
141
0.09
142
0.0
143
25.4
144
1.0
145
0.0
146
1.0
147
0.09
 71
0.0
 72
0.0
 73
0
 74
0
 75
0
 76
0
 77
1
 78
8
170
0
171
2
172
0
173
0
174
0
175
0
176
0
177
0
178
0
270
2
271
1
272
1
273
2
274
2
275
0
280
0
281
0
282
0
283
1
284
8
285
0
286
0
287
3
288
0
340
11
341
217
342
217
343
217
344
217
  0
ENDTAB
  0
ENDSEC
  0
SECTION
  2
BLOCKS
  0
BLOCK
  5
20
100
AcDbEntity
  8
0
100
AcDbBlockBegin
  2
*Model_Space
 70
0
 10
0.0
 20
0.0
 30
0.0
  3
*Model_Space
  1

  0
ENDBLK
  5
21
100
AcDbEntity
  8
0
100
AcDbBlockEnd
  0
BLOCK
  5
1C
100
AcDbEntity
  8
0
100
AcDbBlockBegin
  2
*Paper_Space
 70
0
 10
0.0
 20
0.0
 30
0.0
  3
*Paper_Space
  1

  0
ENDBLK
  5
1D
100
AcDbEntity
  8
0
100
AcDbBlockEnd
  0
BLOCK
  5
21D
100
AcDbEntity
  8
0
100
AcDbBlockBegin
  2
_FILLED
 70
64
 10
0.0
 20
0.0
  3
_FILLED
  1

  0
SOLID
  5
21E
100
AcDbEntity
  8
0
  6
BYBLOCK
 62
0
100
AcDbTrace
 10
0.0
 20
0.0
 11
-1.0
 21
0.3166666667
 12
-1.0
 22
-0.3166666667
 13
-1.0
 23
-0.3166666667
  0
ENDBLK
  5
21F
100
AcDbEntity
  8
0
  6
BYBLOCK
 62
0
100
AcDbBlockEnd
  0
BLOCK
  5
220
100
AcDbEntity
  8
0
100
AcDbBlockBegin
 62
7
  6
CONTINUOUS
  2
*D0
 70
65
 10
0.0
 20
0.0
  3
*D0
  1

  0
LINE
  5
221
100
AcDbEntity
  8
0
100
AcDbLine
 62
7
  6
CONTINUOUS
 10
143.9631042941
 20
128.4878768501
 11
143.9631042941
 21
143.1954461547
  0
LINE
  5
222
100
AcDbEntity
  8
0
100
AcDbLine
 62
7
  6
CONTINUOUS
 10
188.6826884058
 20
128.4878768501
 11
188.6826884058
 21
143.1954461547
  0
LINE
  5
223
100
AcDbEntity
  8
0
100
AcDbLine
 62
7
  6
CONTINUOUS
 10
143.9631042941
 20
141.6954461547
 11
166.32289635
 21
141.6954461547
  0
LINE
  5
224
100
AcDbEntity
  8
0
100
AcDbLine
 62
7
  6
CONTINUOUS
 10
188.6826884058
 20
141.6954461547
 11
166.32289635
 21
141.6954461547
  0
INSERT
  5
225
100
AcDbEntity
  8
0
100
AcDbBlockReference
 62
7
  6
CONTINUOUS
  2
_FILLED
 10
143.9631042941
 20
141.6954461547
 41
3.0
 42
3.0
 43
3.0
 50
180.0
  0
INSERT
  5
226
100
AcDbEntity
  8
0
100
AcDbBlockReference
 62
7
  6
CONTINUOUS
  2
_FILLED
 10
188.6826884058
 20
141.6954461547
 41
3.0
 42
3.0
 43
3.0
  0
ENDBLK
  5
227
100
AcDbEntity
  8
0
  6
BYBLOCK
 62
0
100
AcDbBlockEnd
  0
BLOCK
  5
228
100
AcDbEntity
  8
0
100
AcDbBlockBegin
 62
7
  6
CONTINUOUS
  2
*D1
 70
65
 10
0.0
 20
0.0
  3
*D1
  1

  0
LINE
  5
229
100
AcDbEntity
  8
0
100
AcDbLine
 62
7
  6
CONTINUOUS
 10
188.6833736385
 20
128.4871916175
 11
202.9282159171
 21
128.4871916175
  0
LINE
  5
22A
100
AcDbEntity
  8
0
100
AcDbLine
 62
7
  6
CONTINUOUS
 10
188.6833736385
 20
84.1169373181
 11
202.9282159171
 21
84.1169373181
  0
LINE
  5
22B
100
AcDbEntity
  8
0
100
AcDbLine
 62
7
  6
CONTINUOUS
 10
201.4282159171
 20
128.4871916175
 11
201.4282159171
 21
106.3020644678
  0
LINE
  5
22C
100
AcDbEntity
  8
0
100
AcDbLine
 62
7
  6
CONTINUOUS
 10
201.4282159171
 20
84.1169373181
 11
201.4282159171
 21
106.3020644678
  0
INSERT
  5
22D
100
AcDbEntity
  8
0
100
AcDbBlockReference
 62
7
  6
CONTINUOUS
  2
_FILLED
 10
201.4282159171
 20
128.4871916175
 41
3.0
 42
3.0
 43
3.0
 50
90.0
  0
INSERT
  5
22E
100
AcDbEntity
  8
0
100
AcDbBlockReference
 62
7
  6
CONTINUOUS
  2
_FILLED
 10
201.4282159171
 20
84.1169373181
 41
3.0
 42
3.0
 43
3.0
 50
270.0
  0
ENDBLK
  5
22F
100
AcDbEntity
  8
0
  6
BYBLOCK
 62
0
100
AcDbBlockEnd
  0
BLOCK
  5
230
100
AcDbEntity
  8
0
100
AcDbBlockBegin
 62
7
  6
CONTINUOUS
  2
*D2
 70
65
 10
0.0
 20
0.0
  3
*D2
  1

  0
LINE
  5
231
100
AcDbEntity
  8
0
100
AcDbLine
 62
7
  6
CONTINUOUS
 10
114.1004079661
 20
111.540053298
 11
114.1004079661
 21
143.1954461547
  0
LINE
  5
232
100
AcDbEntity
  8
0
100
AcDbLine
 62
7
  6
CONTINUOUS
 10
107.7116186593
 20
106.8020644678
 11
107.7116186593
 21
143.1954461547
  0
LINE
  5
233
100
AcDbEntity
  8
0
100
AcDbLine
 62
7
  6
CONTINUOUS
 10
114.1004079661
 20
141.6954461547
 11
124.4305619788
 21
141.6954461547
  0
LINE
  5
234
100
AcDbEntity
  8
0
100
AcDbLine
 62
7
  6
CONTINUOUS
 10
124.4305619788
 20
141.6954461547
 11
110.9060133127
 21
141.6954461547
  0
LINE
  5
235
100
AcDbEntity
  8
0
100
AcDbLine
 62
7
  6
CONTINUOUS
 10
107.7116186593
 20
141.6954461547
 11
103.7116186593
 21
141.6954461547
  0
LINE
  5
236
100
AcDbEntity
  8
0
100
AcDbLine
 62
7
  6
CONTINUOUS
 10
103.7116186593
 20
141.6954461547
 11
110.9060133127
 21
141.6954461547
  0
INSERT
  5
237
100
AcDbEntity
  8
0
100
AcDbBlockReference
 62
7
  6
CONTINUOUS
  2
_FILLED
 10
114.1004079661
 20
141.6954461547
 41
3.0
 42
3.0
 43
3.0
 50
180.0
  0
INSERT
  5
238
100
AcDbEntity
  8
0
100
AcDbBlockReference
 62
7
  6
CONTINUOUS
  2
_FILLED
 10
107.7116186593
 20
141.6954461547
 41
3.0
 42
3.0
 43
3.0
  0
ENDBLK
  5
239
100
AcDbEntity
  8
0
  6
BYBLOCK
 62
0
100
AcDbBlockEnd
  0
ENDSEC
  0
SECTION
  2
ENTITIES
  0
DIMENSION
  5
23A
100
AcDbEntity
  8
0
100
AcDbDimension
 62
7
  6
CONTINUOUS
  2
*D0
 10
188.6826884058
 20
141.6954461547
 11
161.9300392071
 21
142.4454461547
 70
160
 71
2
 42
44.7195841117
  3
DIMSTYLE_1
100
AcDbAlignedDimension
 13
143.9631042941
 23
128.4878768501
 14
188.6826884058
 24
128.4878768501
100
AcDbRotatedDimension
  0
DIMENSION
  5
23B
100
AcDbEntity
  8
0
100
AcDbDimension
 62
7
  6
CONTINUOUS
  2
*D1
 10
201.4282159171
 20
84.1169373181
 11
200.6782159171
 21
101.909207325
 70
160
 71
2
 42
44.3702542994
  3
DIMSTYLE_1
100
AcDbAlignedDimension
 13
188.6833736385
 23
128.4871916175
 14
188.6833736385
 24
84.1169373181
 50
270.0
100
AcDbRotatedDimension
  0
DIMENSION
  5
23C
100
AcDbEntity
  8
0
100
AcDbDimension
 62
7
  6
CONTINUOUS
  2
*D2
 10
107.7116186593
 20
141.6954461547
 11
118.0019905502
 21
142.4454461547
 70
160
 71
1
 42
6.3887893068
  3
DIMSTYLE_1
100
AcDbAlignedDimension
 13
114.1004079661
 23
111.540053298
 14
107.7116186593
 24
106.8020644678
 50
180.0
100
AcDbRotatedDimension
  0
LINE
  5
23D
100
AcDbEntity
  8
0
100
AcDbLine
 62
7
  6
CONTINUOUS
 10
114.0975606244
 20
111.0400498285
 11
113.5977182064
 21
111.0394407625
  0
LWPOLYLINE
  5
23E
100
AcDbEntity
  8
RACCORDO
100
AcDbPolyline
 62
253
  6
CONTINUOUS
 90
14
 70
0
 10
144.1578577536
 20
127.1584346564
 10
144.1627054771
 20
127.1604959956
 10
144.172160107
 20
127.162538125
 10
144.186133555
 20
127.1645420185
 10
144.2044956317
 20
127.1664890059
 10
144.227075259
 20
127.1683609473
 10
144.2536620642
 20
127.1701404019
 10
144.28400834
 20
127.1718107907
 10
144.3178313526
 20
127.1733565508
 10
144.3548159754
 20
127.1747632806
 10
144.3946176255
 20
127.1760178735
 10
144.436865474
 20
127.1771086407
 10
144.4811659009
 20
127.1780254198
 10
144.5271061625
 20
127.1787596693
  0
LWPOLYLINE
  5
23F
100
AcDbEntity
  8
RACCORDO
100
AcDbPolyline
 62
253
  6
CONTINUOUS
 90
15
 70
0
 10
144.1578577535
 20
85.4456942792
 10
144.1627044785
 20
85.443632879
 10
144.1721582455
 20
85.4415906852
 10
144.186130972
 20
85.4395867253
 10
144.2044924719
 20
85.4376396704
 10
144.2270716679
 20
85.4357676618
 10
144.2536581859
 20
85.433988141
 10
144.2840043148
 20
85.4323176884
 10
144.3178273147
 20
85.4307718677
 10
144.3548120509
 20
85.4293650816
 10
144.3946139305
 20
85.4281104374
 10
144.4368621127
 20
85.4270196248
 10
144.4811629639
 20
85.4261028071
 10
144.5271037258
 20
85.4253685265
 10
144.6221815392
 20
85.4244731776
  0
LWPOLYLINE
  5
240
100
AcDbEntity
  8
RACCORDO
100
AcDbPolyline
 62
253
  6
CONTINUOUS
 90
16
 70
0
 10
144.1229045108
 20
84.7760523022
 10
144.1257728637
 20
84.723951422
 10
144.1340612309
 20
84.6724191798
 10
144.1476791783
 20
84.6220181938
 10
144.1664780805
 20
84.5732987483
 10
144.1902527494
 20
84.5267927633
 10
144.2187436804
 20
84.4830079905
 10
144.2516398758
 20
84.4424224912
 10
144.288582215
 20
84.4054794327
 10
144.3291673813
 20
84.3725822234
 10
144.3729523066
 20
84.3440900758
 10
144.4194589543
 20
84.3203141312
 10
144.4681795043
 20
84.3015140551
 10
144.5185819951
 20
84.2878951489
 10
144.5701161424
 20
84.2796061305
 10
144.6222192781
 20
84.2767375348
  0
LWPOLYLINE
  5
241
100
AcDbEntity
  8
RACCORDO
100
AcDbPolyline
 62
253
  6
CONTINUOUS
 90
16
 70
0
 10
144.1229045108
 20
127.8280766334
 10
144.1257729975
 20
127.880178756
 10
144.1340617184
 20
127.9317120241
 10
144.1476801766
 20
127.982113794
 10
144.1664796849
 20
128.0308337757
 10
144.190254989
 20
128.0773400412
 10
144.2187465085
 20
128.1211248319
 10
144.2516431711
 20
128.1617101025
 10
144.2885858088
 20
128.1986527402
 10
144.3291710793
 20
128.2315494029
 10
144.37295587
 20
128.2600409225
 10
144.4194621355
 20
128.2838162267
 10
144.4681821172
 20
128.3026157351
 10
144.5185838872
 20
128.3162341933
 10
144.5701171554
 20
128.3245229141
 10
144.6222192782
 20
128.3273914008
  0
LWPOLYLINE
  5
242
100
AcDbEntity
  8
RACCORDO
100
AcDbPolyline
 62
253
  6
CONTINUOUS
 90
16
 70
0
 10
144.1540034039
 20
127.4414463561
 10
144.1527644095
 20
127.4846008554
 10
144.1513625031
 20
127.5262295691
 10
144.1498177221
 20
127.5657171006
 10
144.1481277948
 20
127.6030344787
 10
144.1462949929
 20
127.6382106745
 10
144.1443461686
 20
127.6707172044
 10
144.1422794054
 20
127.7005144682
 10
144.1400966199
 20
127.7276420662
 10
144.1378304142
 20
127.7516903159
 10
144.1354783982
 20
127.7726121933
 10
144.1330429619
 20
127.7904547224
 10
144.1305638778
 20
127.8049492921
 10
144.1280544033
 20
127.8160063653
 10
144.125501281
 20
127.8237154791
 10
144.1229045108
 20
127.8280766334
  0
LINE
  5
243
100
AcDbEntity
  8
RACCORDO
100
AcDbLine
 62
253
  6
CONTINUOUS
 10
144.155988068
 20
127.3504720436
 11
144.1540034039
 21
127.4414463561
  0
LINE
  5
244
100
AcDbEntity
  8
RACCORDO
100
AcDbLine
 62
253
  6
CONTINUOUS
 10
144.6223654982
 20
128.3199904702
 11
144.6222192782
 21
128.3273914008
  0
LINE
  5
245
100
AcDbEntity
  8
RACCORDO
100
AcDbLine
 62
253
  6
CONTINUOUS
 10
144.157277236
 20
127.2558856993
 11
144.155988068
 21
127.3504720436
  0
LINE
  5
246
100
AcDbEntity
  8
0
100
AcDbLine
 62
7
  6
CONTINUOUS
 10
143.9631042941
 20
89.3020644678
 11
143.8958462205
 21
101.5124239415
  0
LINE
  5
247
100
AcDbEntity
  8
RACCORDO
100
AcDbLine
 62
253
  6
CONTINUOUS
 10
144.1578577535
 20
127.1584346564
 11
144.157277236
 21
127.2558856993
  0
LINE
  5
248
100
AcDbEntity
  8
RACCORDO
100
AcDbLine
 62
253
  6
CONTINUOUS
 10
144.1708351278
 20
120.2094724632
 11
144.1578577535
 21
127.1584346564
  0
LINE
  5
249
100
AcDbEntity
  8
RACCORDO
100
AcDbLine
 62
253
  6
CONTINUOUS
 10
144.1786253576
 20
113.2570615629
 11
144.1708351278
 21
120.2094724632
  0
LINE
  5
24A
100
AcDbEntity
  8
RACCORDO
100
AcDbLine
 62
253
  6
CONTINUOUS
 10
144.6325345128
 20
116.7443884958
 11
144.6221815385
 21
127.1796556412
  0
LINE
  5
24B
100
AcDbEntity
  8
RACCORDO
100
AcDbLine
 62
253
  6
CONTINUOUS
 10
144.1812259523
 20
106.3020014558
 11
144.1786253576
 21
113.2570615629
  0
LINE
  5
24C
100
AcDbEntity
  8
RACCORDO
100
AcDbLine
 62
7
  6
CONTINUOUS
 10
143.9631042941
 20
127.9878768501
 11
143.9631042941
 21
123.3020644678
  0
LINE
  5
24D
100
AcDbEntity
  8
RACCORDO
100
AcDbLine
 62
7
  6
CONTINUOUS
 10
143.9631042941
 20
84.6162520855
 11
143.9631042941
 21
89.3020644678
  0
LINE
  5
24E
100
AcDbEntity
  8
0
100
AcDbLine
 62
7
  6
CONTINUOUS
 10
144.0626790747
 20
103.1857279618
 11
144.0626790747
 21
109.4184009738
  0
LINE
  5
24F
100
AcDbEntity
  8
RACCORDO
100
AcDbLine
 62
253
  6
CONTINUOUS
 10
144.6360006134
 20
106.3019956165
 11
144.6325345128
 21
116.7443884958
  0
LINE
  5
250
100
AcDbEntity
  8
RACCORDO
100
AcDbLine
 62
253
  6
CONTINUOUS
 10
144.1786252754
 20
99.3469583372
 11
144.1812259523
 21
106.3020014558
  0
LINE
  5
251
100
AcDbEntity
  8
RACCORDO
100
AcDbLine
 62
253
  6
CONTINUOUS
 10
144.6325344464
 20
95.8596381196
 11
144.6360006134
 21
106.3019956165
  0
LINE
  5
252
100
AcDbEntity
  8
RACCORDO
100
AcDbLine
 62
253
  6
CONTINUOUS
 10
144.1708350382
 20
92.3945900421
 11
144.1786252754
 21
99.3469583372
  0
LINE
  5
253
100
AcDbEntity
  8
RACCORDO
100
AcDbLine
 62
253
  6
CONTINUOUS
 10
144.6221815343
 20
127.1796556396
 11
144.6223654982
 21
128.3199904702
  0
LINE
  5
254
100
AcDbEntity
  8
RACCORDO
100
AcDbLine
 62
253
  6
CONTINUOUS
 10
144.1576555021
 20
85.3965674161
 11
144.1708350382
 21
92.3945900421
  0
LINE
  5
255
100
AcDbEntity
  8
0
100
AcDbLine
 62
7
  6
CONTINUOUS
 10
143.9631042941
 20
123.3020644678
 11
143.8958462205
 21
111.0917049941
  0
LINE
  5
256
100
AcDbEntity
  8
RACCORDO
100
AcDbLine
 62
253
  6
CONTINUOUS
 10
144.1567223763
 20
85.3006452063
 11
144.1576555021
 21
85.3965674161
  0
LWPOLYLINE
  5
257
100
AcDbEntity
  8
RACCORDO
100
AcDbPolyline
 62
253
  6
CONTINUOUS
 90
3
 70
0
 10
144.6222192782
 20
84.2767375349
 10
144.6223652549
 20
84.2841389365
 10
144.6325344464
 20
95.8596381196
  0
LINE
  5
258
100
AcDbEntity
  8
0
100
AcDbLine
 62
7
  6
CONTINUOUS
 10
144.0432572508
 20
102.7027650487
 11
143.9151244968
 21
102.0476510863
  0
LINE
  5
259
100
AcDbEntity
  8
RACCORDO
100
AcDbLine
 62
253
  6
CONTINUOUS
 10
188.1186865374
 20
85.4253692663
 11
188.0236098883
 21
85.4244739555
  0
LINE
  5
25A
100
AcDbEntity
  8
RACCORDO
100
AcDbLine
 62
253
  6
CONTINUOUS
 10
165.791276605
 20
85.4250064012
 11
165.6940485817
 21
85.4242290712
  0
LINE
  5
25B
100
AcDbEntity
  8
RACCORDO
100
AcDbLine
 62
253
  6
CONTINUOUS
 10
144.6222192769
 20
84.2767375336
 11
148.0273411161
 21
84.2873313387
  0
LINE
  5
25C
100
AcDbEntity
  8
RACCORDO
100
AcDbLine
 62
253
  6
CONTINUOUS
 10
148.0273411161
 20
84.2873313387
 11
151.4356132756
 21
84.2938005794
  0
LINE
  5
25D
100
AcDbEntity
  8
RACCORDO
100
AcDbLine
 62
253
  6
CONTINUOUS
 10
174.3948608252
 20
84.2943599116
 11
166.9756907366
 21
84.276188889
  0
LINE
  5
25E
100
AcDbEntity
  8
RACCORDO
100
AcDbLine
 62
253
  6
CONTINUOUS
 10
144.6221815385
 20
85.4244732841
 11
150.0799112832
 21
85.4302039802
  0
LINE
  5
25F
100
AcDbEntity
  8
RACCORDO
100
AcDbLine
 62
253
  6
CONTINUOUS
 10
151.4356132756
 20
84.2938005794
 11
154.845354298
 21
84.2961414187
  0
LINE
  5
260
100
AcDbEntity
  8
RACCORDO
100
AcDbLine
 62
7
  6
CONTINUOUS
 10
144.4624190615
 20
84.1169373181
 11
165.7231426865
 21
84.1169373181
  0
LINE
  5
261
100
AcDbEntity
  8
RACCORDO
100
AcDbLine
 62
7
  6
CONTINUOUS
 10
166.9226500135
 20
84.1169373181
 11
188.1833736385
 21
84.1169373181
  0
LINE
  5
262
100
AcDbEntity
  8
RACCORDO
100
AcDbLine
 62
253
  6
CONTINUOUS
 10
150.0799112832
 20
85.4302039802
 11
155.5427005923
 21
85.4318806404
  0
LINE
  5
263
100
AcDbEntity
  8
RACCORDO
100
AcDbLine
 62
253
  6
CONTINUOUS
 10
155.5427005923
 20
85.4318806404
 11
161.7796506197
 21
85.428842678
  0
LINE
  5
264
100
AcDbEntity
  8
RACCORDO
100
AcDbLine
 62
253
  6
CONTINUOUS
 10
154.845354298
 20
84.2961414187
 11
158.2490268149
 21
84.2943620858
  0
LINE
  5
265
100
AcDbEntity
  8
RACCORDO
100
AcDbLine
 62
253
  6
CONTINUOUS
 10
185.2947309347
 20
85.4278475254
 11
166.9517432188
 21
85.4242285519
  0
LINE
  5
266
100
AcDbEntity
  8
RACCORDO
100
AcDbLine
 62
253
  6
CONTINUOUS
 10
181.8911664848
 20
84.2928381202
 11
174.3948608252
 21
84.2943599116
  0
LINE
  5
267
100
AcDbEntity
  8
RACCORDO
100
AcDbLine
 62
253
  6
CONTINUOUS
 10
161.7796506197
 20
85.428842678
 11
165.694049481
 21
85.424228544
  0
LINE
  5
268
100
AcDbEntity
  8
RACCORDO
100
AcDbLine
 62
253
  6
CONTINUOUS
 10
188.0236111614
 20
85.4244732944
 11
185.2947309347
 21
85.4278475254
  0
LINE
  5
269
100
AcDbEntity
  8
RACCORDO
100
AcDbLine
 62
253
  6
CONTINUOUS
 10
158.2490268149
 20
84.2943620858
 11
161.0305811898
 21
84.289844941
  0
LINE
  5
26A
100
AcDbEntity
  8
RACCORDO
100
AcDbLine
 62
253
  6
CONTINUOUS
 10
161.0305811898
 20
84.289844941
 11
164.0372137652
 21
84.2818458111
  0
LINE
  5
26B
100
AcDbEntity
  8
RACCORDO
100
AcDbLine
 62
253
  6
CONTINUOUS
 10
164.0372137652
 20
84.2818458111
 11
165.6701019627
 21
84.2761888908
  0
LINE
  5
26C
100
AcDbEntity
  8
RACCORDO
100
AcDbLine
 62
253
  6
CONTINUOUS
 10
188.0235734217
 20
84.2767375349
 11
181.8911664848
 21
84.2928381202
  0
LINE
  5
26D
100
AcDbEntity
  8
0
100
AcDbLine
 62
7
  6
CONTINUOUS
 10
144.0432572508
 20
109.901363887
 11
143.9151244968
 21
110.5564778493
  0
LWPOLYLINE
  5
26E
100
AcDbEntity
  8
RACCORDO
100
AcDbPolyline
 62
253
  6
CONTINUOUS
 90
14
 70
0
 10
166.4873810331
 20
127.1588393054
 10
166.4906804684
 20
127.1609251477
 10
166.4988247771
 20
127.1629906378
 10
166.5117345063
 20
127.1650156257
 10
166.5292837139
 20
127.1669803562
 10
166.5513011966
 20
127.1688656622
 10
166.5775721603
 20
127.1706531515
 10
166.6078403158
 20
127.172325386
 10
166.6418103787
 20
127.1738660519
 10
166.6791509502
 20
127.1752601193
 10
166.7194977503
 20
127.176493988
 10
166.7624571713
 20
127.177555621
 10
166.8076101177
 20
127.1784346616
 10
166.8545160949
 20
127.1791225344
  0
LINE
  5
26F
100
AcDbEntity
  8
0
100
AcDbLine
 62
7
  6
CONTINUOUS
 10
166.2227620867
 20
88.8020644678
 11
166.187592402
 21
88.8020644678
  0
LINE
  5
270
100
AcDbEntity
  8
0
100
AcDbLine
 62
7
  6
CONTINUOUS
 10
166.4230306132
 20
88.8020644678
 11
166.458200298
 21
88.8020644678
  0
LWPOLYLINE
  5
271
100
AcDbEntity
  8
RACCORDO
100
AcDbPolyline
 62
253
  6
CONTINUOUS
 90
15
 70
0
 10
166.487381033
 20
85.4452896302
 10
166.4906796908
 20
85.443203747
 10
166.4988233279
 20
85.4411382133
 10
166.5117324966
 20
85.43911318
 10
166.5292812576
 20
85.4371484029
 10
166.5512984084
 20
85.4352630501
 10
166.5775691541
 20
85.4334755147
 10
166.6078372023
 20
85.4318032355
 10
166.6418072639
 20
85.4302625269
 10
166.6791479333
 20
85.4288684199
 10
166.7194949224
 20
85.4276345151
 10
166.7624546137
 20
85.4265728501
 10
166.8076079006
 20
85.4256937825
 10
166.8545142766
 20
85.4250058881
 10
166.951743219
 20
85.4242285327
  0
LWPOLYLINE
  5
272
100
AcDbEntity
  8
0
100
AcDbPolyline
 62
7
  6
CONTINUOUS
 90
3
 70
0
 43
0.3500000006
 10
167.3586117554
 20
142.7311635132
 10
167.2871896362
 20
142.5168790283
 10
167.1443272705
 20
142.2311542969
  0
LINE
  5
273
100
AcDbEntity
  8
RACCORDO
100
AcDbLine
 62
253
  6
CONTINUOUS
 10
165.7231426865
 20
128.4871916175
 11
165.6701019633
 21
128.3279400466
  0
LWPOLYLINE
  5
274
100
AcDbEntity
  8
RACCORDO
100
AcDbPolyline
 62
253
  6
CONTINUOUS
 90
18
 70
0
 10
144.1229045108
 20
84.7760523022
 10
144.1255004474
 20
84.7804119855
 10
144.1280527207
 20
84.7881170003
 10
144.1305613308
 20
84.7991673466
 10
144.1330395189
 20
84.8136529329
 10
144.1354740438
 20
84.8314838507
 10
144.1378251817
 20
84.8523903746
 10
144.1400904183
 20
84.8764161767
 10
144.142272268
 20
84.9035175849
 10
144.1443385504
 20
84.9332938574
 10
144.1462875697
 20
84.9657866536
 10
144.1481210216
 20
85.0009543141
 10
144.149811813
 20
85.0382711193
 10
144.1513577321
 20
85.0777695087
 10
144.1527609907
 20
85.1194170427
 10
144.1540011302
 20
85.1625906833
 10
144.1550756942
 20
85.2073323959
 10
144.1567223763
 20
85.3006452063
  0
LINE
  5
275
100
AcDbEntity
  8
RACCORDO
100
AcDbLine
 62
253
  6
CONTINUOUS
 10
165.6701019627
 20
84.2761888908
 11
165.7231426865
 21
84.1169373181
  0
LINE
  5
276
100
AcDbEntity
  8
RACCORDO
100
AcDbLine
 62
253
  6
CONTINUOUS
 10
166.2227620867
 20
127.9869627654
 11
166.1700258103
 21
127.8286252775
  0
LINE
  5
277
100
AcDbEntity
  8
RACCORDO
100
AcDbLine
 62
253
  6
CONTINUOUS
 10
166.1700258103
 20
84.7755036582
 11
166.2227620867
 21
84.6171661702
  0
LWPOLYLINE
  5
278
100
AcDbEntity
  8
0
100
AcDbPolyline
 62
7
  6
CONTINUOUS
 90
2
 70
0
 43
0.3500000006
 10
162.9300415649
 20
142.4454387817
 10
162.9300415649
 20
143.9454483032
  0
LWPOLYLINE
  5
279
100
AcDbEntity
  8
RACCORDO
100
AcDbPolyline
 62
253
  6
CONTINUOUS
 90
9
 70
0
 10
166.1700258103
 20
127.8286252775
 10
166.1691634348
 20
127.8242742312
 10
166.1683155074
 20
127.8165771934
 10
166.1674820281
 20
127.8055341642
 10
166.1666586018
 20
127.7910565771
 10
166.1658496236
 20
127.7732329986
 10
166.1650682786
 20
127.7523291278
 10
166.1643153472
 20
127.728298065
 10
166.1629032277
 20
127.6714014598
  0
LWPOLYLINE
  5
27A
100
AcDbEntity
  8
0
100
AcDbPolyline
 62
7
  6
CONTINUOUS
 90
2
 70
0
 43
0.3500000006
 10
200.6782086182
 20
102.9092080994
 10
199.1782172241
 20
102.9092080994
  0
LWPOLYLINE
  5
27B
100
AcDbEntity
  8
RACCORDO
100
AcDbPolyline
 62
253
  6
CONTINUOUS
 90
8
 70
0
 10
166.9756907372
 20
84.2761888908
 10
166.9740601394
 20
84.2835784278
 10
166.9723943626
 20
84.2968630613
 10
166.9707230552
 20
84.3159740586
 10
166.9690956343
 20
84.3408129437
 10
166.9675207296
 20
84.3712545125
 10
166.9659659862
 20
84.4071495864
 10
166.9644570015
 20
84.448322265
  0
LWPOLYLINE
  5
27C
100
AcDbEntity
  8
RACCORDO
100
AcDbPolyline
 62
253
  6
CONTINUOUS
 90
16
 70
0
 10
166.4757668896
 20
84.7755036582
 10
166.4785499513
 20
84.7233421656
 10
166.4867733044
 20
84.6717513542
 10
166.5003469999
 20
84.6212957969
 10
166.5191225352
 20
84.5725276549
 10
166.5428944837
 20
84.5259806206
 10
166.5714027468
 20
84.4821640792
 10
166.6043353939
 20
84.441557548
 10
166.6413320577
 20
84.4046054413
 10
166.6819878812
 20
84.3717121888
 10
166.7258579794
 20
84.3432377847
 10
166.7724622677
 20
84.3194938828
 10
166.8212906916
 20
84.30074038
 10
166.8718088784
 20
84.2871825342
 10
166.9234639927
 20
84.2789687336
 10
166.9756907371
 20
84.2761888907
  0
LWPOLYLINE
  5
27D
100
AcDbEntity
  8
RACCORDO
100
AcDbPolyline
 62
253
  6
CONTINUOUS
 90
8
 70
0
 10
166.1643173979
 20
84.8757605885
 10
166.1650700065
 20
84.851751924
 10
166.1658510594
 20
84.8308633664
 10
166.1666597353
 20
84.8130513286
 10
166.1674828653
 20
84.7985826545
 10
166.1683160596
 20
84.7875462921
 10
166.1691637079
 20
84.7798532933
 10
166.1700258103
 20
84.7755036582
  0
LINE
  5
27E
100
AcDbEntity
  8
RACCORDO
100
AcDbLine
 62
253
  6
CONTINUOUS
 10
165.6813356985
 20
128.1558066706
 11
165.6841622555
 21
128.058480075
  0
LINE
  5
27F
100
AcDbEntity
  8
RACCORDO
100
AcDbLine
 62
253
  6
CONTINUOUS
 10
166.9644570015
 20
84.448322265
 11
166.9616304444
 21
84.5456488606
  0
LINE
  5
280
100
AcDbEntity
  8
RACCORDO
100
AcDbLine
 62
253
  6
CONTINUOUS
 10
166.1629057545
 20
84.9326098721
 11
166.1643173979
 21
84.8757605885
  0
LINE
  5
281
100
AcDbEntity
  8
RACCORDO
100
AcDbLine
 62
253
  6
CONTINUOUS
 10
165.6841622555
 20
128.058480075
 11
165.686725151
 21
127.9428403987
  0
LINE
  5
282
100
AcDbEntity
  8
RACCORDO
100
AcDbLine
 62
253
  6
CONTINUOUS
 10
166.9616304444
 20
84.5456488606
 11
166.9590675489
 21
84.661288537
  0
LINE
  5
283
100
AcDbEntity
  8
RACCORDO
100
AcDbLine
 62
253
  6
CONTINUOUS
 10
166.1616485282
 20
85.0002587012
 11
166.1629057545
 21
84.9326098721
  0
LINE
  5
284
100
AcDbEntity
  8
RACCORDO
100
AcDbLine
 62
253
  6
CONTINUOUS
 10
165.686725151
 20
127.9428403987
 11
165.6889830014
 21
127.8111775924
  0
LWPOLYLINE
  5
285
100
AcDbEntity
  8
RACCORDO
100
AcDbPolyline
 62
253
  6
CONTINUOUS
 90
3
 70
0
 10
166.9590675489
 20
84.661288537
 10
166.9568096985
 20
84.7929513432
 10
166.9558263177
 20
84.863987974
  0
LINE
  5
286
100
AcDbEntity
  8
RACCORDO
100
AcDbLine
 62
253
  6
CONTINUOUS
 10
166.1601058768
 20
85.1187497849
 11
166.1616485282
 21
85.0002587012
  0
LINE
  5
287
100
AcDbEntity
  8
RACCORDO
100
AcDbLine
 62
253
  6
CONTINUOUS
 10
165.6889830014
 20
127.8111775924
 11
165.6916668636
 21
127.5894274312
  0
LINE
  5
288
100
AcDbEntity
  8
RACCORDO
100
AcDbLine
 62
253
  6
CONTINUOUS
 10
166.1587887135
 20
85.3001026688
 11
166.1601058768
 21
85.1187497849
  0
LINE
  5
289
100
AcDbEntity
  8
RACCORDO
100
AcDbLine
 62
253
  6
CONTINUOUS
 10
165.6916668636
 20
127.5894274312
 11
165.6938026966
 21
127.2639690085
  0
LINE
  5
28A
100
AcDbEntity
  8
RACCORDO
100
AcDbLine
 62
253
  6
CONTINUOUS
 10
166.4871883079
 20
127.2564117086
 11
166.4860991864
 21
127.4421833684
  0
LINE
  5
28B
100
AcDbEntity
  8
RACCORDO
100
AcDbLine
 62
253
  6
CONTINUOUS
 10
166.153087835
 20
94.7121783693
 11
166.1587887135
 21
85.3001026688
  0
LINE
  5
28C
100
AcDbEntity
  8
RACCORDO
100
AcDbLine
 62
253
  6
CONTINUOUS
 10
166.4927048649
 20
117.8919505664
 11
166.4871883079
 21
127.2564117086
  0
LWPOLYLINE
  5
28D
100
AcDbEntity
  8
0
100
AcDbPolyline
 62
7
  6
CONTINUOUS
 90
2
 70
0
 43
0.3500000006
 10
165.2871890259
 20
142.4454387817
 10
165.2871890259
 20
143.9454483032
  0
LINE
  5
28E
100
AcDbEntity
  8
RACCORDO
100
AcDbLine
 62
253
  6
CONTINUOUS
 10
165.6938026966
 20
127.2639690085
 11
165.694049481
 21
85.424228544
  0
LINE
  5
28F
100
AcDbEntity
  8
RACCORDO
100
AcDbLine
 62
253
  6
CONTINUOUS
 10
166.1508061904
 20
108.6207167114
 11
166.153087835
 21
94.7121783693
  0
LINE
  5
290
100
AcDbEntity
  8
RACCORDO
100
AcDbLine
 62
7
  6
CONTINUOUS
 10
166.2227620867
 20
127.9869627654
 11
166.2227620867
 21
123.8020644678
  0
LINE
  5
291
100
AcDbEntity
  8
RACCORDO
100
AcDbLine
 62
7
  6
CONTINUOUS
 10
166.2227620867
 20
84.6171661702
 11
166.2227620867
 21
88.8020644678
  0
LINE
  5
292
100
AcDbEntity
  8
RACCORDO
100
AcDbLine
 62
7
  6
CONTINUOUS
 10
166.4230306132
 20
127.9869627654
 11
166.4230306132
 21
123.8020644678
  0
LINE
  5
293
100
AcDbEntity
  8
RACCORDO
100
AcDbLine
 62
7
  6
CONTINUOUS
 10
166.4230306132
 20
84.6171661702
 11
166.4230306132
 21
88.8020644678
  0
LINE
  5
294
100
AcDbEntity
  8
RACCORDO
100
AcDbLine
 62
253
  6
CONTINUOUS
 10
166.4949865096
 20
103.9834122243
 11
166.4927048649
 21
117.8919505664
  0
LINE
  5
295
100
AcDbEntity
  8
RACCORDO
100
AcDbLine
 62
253
  6
CONTINUOUS
 10
166.1553694756
 20
122.5258553193
 11
166.1508061904
 21
108.6207167114
  0
LINE
  5
296
100
AcDbEntity
  8
RACCORDO
100
AcDbLine
 62
253
  6
CONTINUOUS
 10
166.4904232243
 20
90.0782736164
 11
166.4949865096
 21
103.9834122243
  0
LINE
  5
297
100
AcDbEntity
  8
RACCORDO
100
AcDbLine
 62
253
  6
CONTINUOUS
 10
166.158788536
 20
127.3039837629
 11
166.1553694756
 21
122.5258553193
  0
LINE
  5
298
100
AcDbEntity
  8
RACCORDO
100
AcDbLine
 62
253
  6
CONTINUOUS
 10
166.4870041639
 20
85.3001451727
 11
166.4904232243
 21
90.0782736164
  0
LINE
  5
299
100
AcDbEntity
  8
RACCORDO
100
AcDbLine
 62
253
  6
CONTINUOUS
 10
165.6940494856
 20
85.4242285449
 11
165.6923557503
 21
85.0936399007
  0
LINE
  5
29A
100
AcDbEntity
  8
RACCORDO
100
AcDbLine
 62
253
  6
CONTINUOUS
 10
166.4860999609
 20
85.1620395839
 11
166.4870041639
 21
85.3001451727
  0
LINE
  5
29B
100
AcDbEntity
  8
RACCORDO
100
AcDbLine
 62
253
  6
CONTINUOUS
 10
166.1601047198
 20
127.4852661495
 11
166.158788536
 21
127.3039837629
  0
LINE
  5
29C
100
AcDbEntity
  8
RACCORDO
100
AcDbLine
 62
253
  6
CONTINUOUS
 10
165.6923557503
 20
85.0936399007
 11
165.6899665039
 21
84.8639910501
  0
LINE
  5
29D
100
AcDbEntity
  8
RACCORDO
100
AcDbLine
 62
253
  6
CONTINUOUS
 10
166.1616462639
 20
127.6037292144
 11
166.1601047198
 21
127.4852661495
  0
LINE
  5
29E
100
AcDbEntity
  8
RACCORDO
100
AcDbLine
 62
253
  6
CONTINUOUS
 10
165.6899665039
 20
84.8639910501
 11
165.6878965074
 21
84.7252766768
  0
LINE
  5
29F
100
AcDbEntity
  8
RACCORDO
100
AcDbLine
 62
253
  6
CONTINUOUS
 10
166.9558261961
 20
127.7401378856
 11
166.9578961925
 21
127.8788522588
  0
LINE
  5
2A0
100
AcDbEntity
  8
RACCORDO
100
AcDbLine
 62
253
  6
CONTINUOUS
 10
166.1629032277
 20
127.6714014598
 11
166.1616462639
 21
127.6037292144
  0
LINE
  5
2A1
100
AcDbEntity
  8
RACCORDO
100
AcDbLine
 62
253
  6
CONTINUOUS
 10
165.6878965074
 20
84.7252766768
 11
165.6854905403
 21
84.6013176699
  0
LINE
  5
2A2
100
AcDbEntity
  8
RACCORDO
100
AcDbLine
 62
253
  6
CONTINUOUS
 10
166.9578961925
 20
127.8788522588
 11
166.9603021596
 21
128.0028112657
  0
LWPOLYLINE
  5
2A3
100
AcDbEntity
  8
RACCORDO
100
AcDbPolyline
 62
253
  6
CONTINUOUS
 90
10
 70
0
 10
165.6854905403
 20
84.6013176699
 10
165.6827720622
 20
84.494567761
 10
165.6813365146
 20
84.4483230613
 10
165.6798272267
 20
84.4071502193
 10
165.6782724387
 20
84.3712558346
 10
165.6766976118
 20
84.3408150026
 10
165.6750702076
 20
84.3159760529
 10
165.6733987861
 20
84.2968643379
 10
165.6717328216
 20
84.2835789296
 10
165.6701019627
 20
84.2761888908
  0
LWPOLYLINE
  5
2A4
100
AcDbEntity
  8
RACCORDO
100
AcDbPolyline
 62
253
  6
CONTINUOUS
 90
10
 70
0
 10
166.9603021596
 20
128.0028112657
 10
166.9630206377
 20
128.1095611747
 10
166.9644561853
 20
128.1558058744
 10
166.9659654732
 20
128.1969787163
 10
166.9675202613
 20
128.2328731011
 10
166.9690950882
 20
128.263313933
 10
166.9707224923
 20
128.2881528828
 10
166.9723939139
 20
128.3072645977
 10
166.9740598783
 20
128.320550006
 10
166.9756907372
 20
128.3279400448
  0
LWPOLYLINE
  5
2A5
100
AcDbEntity
  8
RACCORDO
100
AcDbPolyline
 62
253
  6
CONTINUOUS
 90
16
 70
0
 10
166.4757668896
 20
127.8286252774
 10
166.4785500463
 20
127.8807876664
 10
166.4867736536
 20
127.9323792171
 10
166.5003477167
 20
127.9828353383
 10
166.519123688
 20
128.0316038644
 10
166.542896093
 20
128.0781510978
 10
166.5714047788
 20
128.1219676497
 10
166.6043377611
 20
128.1625740143
 10
166.6413346383
 20
128.1995258166
 10
166.6819905358
 20
128.2324186752
 10
166.7258605365
 20
128.2608926277
 10
166.7724645498
 20
128.2846360699
 10
166.8212925654
 20
128.3033891656
 10
166.8718102348
 20
128.3169466909
 10
166.9234647187
 20
128.325160279
 10
166.9756907372
 20
128.3279400448
  0
LINE
  5
2A6
100
AcDbEntity
  8
RACCORDO
100
AcDbLine
 62
253
  6
CONTINUOUS
 10
143.9631042941
 20
84.6162520855
 11
144.1229045108
 21
84.7760523022
  0
LINE
  5
2A7
100
AcDbEntity
  8
RACCORDO
100
AcDbLine
 62
253
  6
CONTINUOUS
 10
188.1833736385
 20
128.4871916175
 11
188.023573423
 21
128.327391402
  0
LINE
  5
2A8
100
AcDbEntity
  8
RACCORDO
100
AcDbLine
 62
253
  6
CONTINUOUS
 10
144.4624190615
 20
84.1169373181
 11
144.6222192769
 21
84.2767375336
  0
LWPOLYLINE
  5
2A9
100
AcDbEntity
  8
0
100
AcDbPolyline
 62
7
  6
CONTINUOUS
 90
2
 70
0
 43
0.3500000006
 10
200.6782086182
 20
105.2663464966
 10
199.1782172241
 20
105.2663464966
  0
LINE
  5
2AA
100
AcDbEntity
  8
RACCORDO
100
AcDbLine
 62
253
  6
CONTINUOUS
 10
144.1229045108
 20
127.8280766334
 11
143.9631042941
 21
127.9878768501
  0
LINE
  5
2AB
100
AcDbEntity
  8
RACCORDO
100
AcDbLine
 62
253
  6
CONTINUOUS
 10
188.0235734217
 20
84.2767375349
 11
188.1833736385
 21
84.1169373181
  0
LINE
  5
2AC
100
AcDbEntity
  8
RACCORDO
100
AcDbLine
 62
253
  6
CONTINUOUS
 10
144.6222192782
 20
128.3273914008
 11
144.4624190615
 21
128.4871916175
  0
LWPOLYLINE
  5
2AD
100
AcDbEntity
  8
RACCORDO
100
AcDbPolyline
 62
253
  6
CONTINUOUS
 90
16
 70
0
 10
166.1700258103
 20
127.8286252775
 10
166.1672427486
 20
127.88078677
 10
166.1590193955
 20
127.9323775814
 10
166.1454457
 20
127.9828331388
 10
166.1266701647
 20
128.0316012808
 10
166.1028982162
 20
128.078148315
 10
166.0743899531
 20
128.1219648564
 10
166.041457306
 20
128.1625713876
 10
166.0044606422
 20
128.1995234943
 10
165.9638048187
 20
128.2324167469
 10
165.9199347206
 20
128.2608911509
 10
165.8733304322
 20
128.2846350528
 10
165.8245020083
 20
128.3033885556
 10
165.7739838216
 20
128.3169464015
 10
165.7223287072
 20
128.3251602021
 10
165.6701019628
 20
128.327940045
  0
LWPOLYLINE
  5
2AE
100
AcDbEntity
  8
RACCORDO
100
AcDbPolyline
 62
253
  6
CONTINUOUS
 90
8
 70
0
 10
166.481475302
 20
127.7283683472
 10
166.4807226934
 20
127.7523770117
 10
166.4799416405
 20
127.7732655693
 10
166.4791329646
 20
127.791077607
 10
166.4783098346
 20
127.8055462811
 10
166.4774766403
 20
127.8165826436
 10
166.476628992
 20
127.8242756423
 10
166.4757668896
 20
127.8286252774
  0
LINE
  5
2AF
100
AcDbEntity
  8
RACCORDO
100
AcDbLine
 62
253
  6
CONTINUOUS
 10
166.4828869454
 20
127.6715190635
 11
166.481475302
 21
127.7283683472
  0
LINE
  5
2B0
100
AcDbEntity
  8
RACCORDO
100
AcDbLine
 62
253
  6
CONTINUOUS
 10
166.4841441717
 20
127.6038702345
 11
166.4828869454
 21
127.6715190635
  0
LWPOLYLINE
  5
2B1
100
AcDbEntity
  8
RACCORDO
100
AcDbPolyline
 62
253
  6
CONTINUOUS
 90
3
 70
0
 10
166.4860991864
 20
127.4421833684
 10
166.4856868231
 20
127.4853791508
 10
166.4841441717
 20
127.6038702345
  0
LINE
  5
2B2
100
AcDbEntity
  8
RACCORDO
100
AcDbLine
 62
253
  6
CONTINUOUS
 10
166.9558263177
 20
84.863987974
 11
166.9534368159
 21
85.0936322041
  0
LINE
  5
2B3
100
AcDbEntity
  8
RACCORDO
100
AcDbLine
 62
253
  6
CONTINUOUS
 10
166.9534368159
 20
85.0936322041
 11
166.9517432142
 21
85.4242285531
  0
LWPOLYLINE
  5
2B4
100
AcDbEntity
  8
0
100
AcDbPolyline
 62
7
  6
CONTINUOUS
 90
4
 70
0
 43
0.3500000006
 10
168.3586120605
 20
144.8025862427
 10
168.3586120605
 20
145.4454396973
 10
169.8586034546
 20
145.4454396973
 10
169.0014655151
 20
142.4454387817
  0
LINE
  5
2B5
100
AcDbEntity
  8
RACCORDO
100
AcDbLine
 62
253
  6
CONTINUOUS
 10
166.9517432188
 20
85.4242285519
 11
166.9519900341
 21
127.2639643563
  0
LINE
  5
2B6
100
AcDbEntity
  8
RACCORDO
100
AcDbLine
 62
253
  6
CONTINUOUS
 10
166.9519900341
 20
127.2639643563
 11
166.9541261207
 21
127.5894223982
  0
LINE
  5
2B7
100
AcDbEntity
  8
RACCORDO
100
AcDbLine
 62
253
  6
CONTINUOUS
 10
166.9541261207
 20
127.5894223982
 11
166.9558261961
 21
127.7401378856
  0
LINE
  5
2B8
100
AcDbEntity
  8
RACCORDO
100
AcDbLine
 62
253
  6
CONTINUOUS
 10
166.4847082316
 20
85.0377201984
 11
166.4860999609
 21
85.1620395839
  0
LINE
  5
2B9
100
AcDbEntity
  8
RACCORDO
100
AcDbLine
 62
253
  6
CONTINUOUS
 10
166.4835371925
 20
84.965226651
 11
166.4847082316
 21
85.0377201984
  0
LWPOLYLINE
  5
2BA
100
AcDbEntity
  8
RACCORDO
100
AcDbPolyline
 62
253
  6
CONTINUOUS
 90
16
 70
0
 10
166.1700258103
 20
84.7755036582
 10
166.1672426536
 20
84.7233412693
 10
166.1590190463
 20
84.6717497185
 10
166.1454449832
 20
84.6212935973
 10
166.1266690119
 20
84.5725250712
 10
166.1028966069
 20
84.5259778378
 10
166.0743879211
 20
84.482161286
 10
166.0414549388
 20
84.4415549214
 10
166.0044580616
 20
84.404603119
 10
165.9638021641
 20
84.3717102604
 10
165.9199321634
 20
84.3432363079
 10
165.8733281501
 20
84.3194928658
 10
165.8245001345
 20
84.30073977
 10
165.7739824652
 20
84.2871822448
 10
165.7223279812
 20
84.2789686566
 10
165.6701019627
 20
84.2761888908
  0
LINE
  5
2BB
100
AcDbEntity
  8
RACCORDO
100
AcDbLine
 62
253
  6
CONTINUOUS
 10
188.6826884058
 20
127.9878768501
 11
188.5228881891
 21
127.8280766334
  0
LINE
  5
2BC
100
AcDbEntity
  8
RACCORDO
100
AcDbLine
 62
253
  6
CONTINUOUS
 10
188.5228881891
 20
84.7760523022
 11
188.6826884058
 21
84.6162520855
  0
LWPOLYLINE
  5
2BD
100
AcDbEntity
  8
RACCORDO
100
AcDbPolyline
 62
253
  6
CONTINUOUS
 90
10
 70
0
 10
166.4757668896
 20
84.7755036582
 10
166.4766292651
 20
84.7798547045
 10
166.4774771925
 20
84.7875517422
 10
166.4783106718
 20
84.7985947715
 10
166.4791340981
 20
84.8130723585
 10
166.4799430763
 20
84.830895937
 10
166.4807244213
 20
84.8517998079
 10
166.4814773527
 20
84.8758308706
 10
166.4822026509
 20
84.9029422257
 10
166.4835371925
 20
84.965226651
  0
LWPOLYLINE
  5
2BE
100
AcDbEntity
  8
0
100
AcDbPolyline
 62
7
  6
CONTINUOUS
 90
2
 70
0
 43
0.3500000006
 10
200.6782086182
 20
109.3377789001
 10
199.1782172241
 20
109.3377789001
  0
LWPOLYLINE
  5
2BF
100
AcDbEntity
  8
RACCORDO
100
AcDbPolyline
 62
253
  6
CONTINUOUS
 90
8
 70
0
 10
165.6701019628
 20
128.3279400448
 10
165.6717325605
 20
128.3205505079
 10
165.6733983373
 20
128.3072658743
 10
165.6750696447
 20
128.288154877
 10
165.6766970656
 20
128.2633159919
 10
165.6782719703
 20
128.2328744231
 10
165.6798267137
 20
128.1969793492
 10
165.6813356985
 20
128.1558066706
  0
LINE
  5
2C0
100
AcDbEntity
  8
RACCORDO
100
AcDbLine
 62
253
  6
CONTINUOUS
 10
166.4230306132
 20
84.6171661702
 11
166.4757668896
 21
84.7755036582
  0
LINE
  5
2C1
100
AcDbEntity
  8
RACCORDO
100
AcDbLine
 62
253
  6
CONTINUOUS
 10
166.9226500135
 20
84.1169373181
 11
166.9756907366
 21
84.276188889
  0
LINE
  5
2C2
100
AcDbEntity
  8
RACCORDO
100
AcDbLine
 62
253
  6
CONTINUOUS
 10
166.4757668896
 20
127.8286252774
 11
166.4230306132
 21
127.9869627654
  0
LINE
  5
2C3
100
AcDbEntity
  8
RACCORDO
100
AcDbLine
 62
253
  6
CONTINUOUS
 10
166.9756907372
 20
128.3279400448
 11
166.9226500135
 21
128.4871916175
  0
LWPOLYLINE
  5
2C4
100
AcDbEntity
  8
RACCORDO
100
AcDbPolyline
 62
253
  6
CONTINUOUS
 90
18
 70
0
 10
188.5228881891
 20
127.8280766334
 10
188.5202922525
 20
127.8237169501
 10
188.5177399792
 20
127.8160119353
 10
188.5152313691
 20
127.804961589
 10
188.512753181
 20
127.7904760028
 10
188.5103186561
 20
127.7726450849
 10
188.5079675182
 20
127.751738561
 10
188.5057022816
 20
127.7277127589
 10
188.5035204319
 20
127.7006113507
 10
188.5014541495
 20
127.6708350782
 10
188.4995051302
 20
127.638342282
 10
188.4976716783
 20
127.6031746215
 10
188.4959808869
 20
127.5658578163
 10
188.4944349678
 20
127.526359427
 10
188.4930317092
 20
127.4847118929
 10
188.4917915697
 20
127.4415382523
 10
188.4907170058
 20
127.3967965397
 10
188.4890703236
 20
127.3034837293
  0
LWPOLYLINE
  5
2C5
100
AcDbEntity
  8
0
100
AcDbPolyline
 62
7
  6
CONTINUOUS
 90
3
 70
0
 43
0.3500000006
 10
200.3925020142
 20
107.3377782898
 10
200.606786499
 20
107.2663471069
 10
200.892493103
 20
107.1234938049
  0
LWPOLYLINE
  5
2C6
100
AcDbEntity
  8
0
100
AcDbPolyline
 62
7
  6
CONTINUOUS
 90
10
 70
0
 43
0.3500000006
 10
200.1782175293
 20
107.2663471069
 10
200.321079895
 20
107.3377782898
 10
200.3925020142
 20
107.3377782898
 10
200.5353643799
 20
107.1949249878
 10
200.5353643799
 20
107.1234938049
 10
200.4639241333
 20
107.0520626221
 10
200.3925020142
 20
107.0520626221
 10
200.2496396484
 20
107.1234938049
 10
200.1782175293
 20
107.1949249878
 10
200.1782175293
 20
107.2663471069
  0
LWPOLYLINE
  5
2C7
100
AcDbEntity
  8
RACCORDO
100
AcDbPolyline
 62
253
  6
CONTINUOUS
 90
14
 70
0
 10
166.1584116668
 20
85.4452896303
 10
166.1551122315
 20
85.4432037879
 10
166.1469679228
 20
85.4411382978
 10
166.1340581936
 20
85.43911331
 10
166.116508986
 20
85.4371485795
 10
166.0944915033
 20
85.4352632734
 10
166.0682205396
 20
85.4334757841
 10
166.0379523841
 20
85.4318035497
 10
166.0039823212
 20
85.4302628837
 10
165.9666417497
 20
85.4288688163
 10
165.9262949496
 20
85.4276349476
 10
165.8833355286
 20
85.4265733147
 10
165.8381825822
 20
85.425694274
 10
165.791276605
 20
85.4250064012
  0
LINE
  5
2C8
100
AcDbEntity
  8
0
100
AcDbLine
 62
7
  6
CONTINUOUS
 10
166.2227620867
 20
123.8020644678
 11
166.187592402
 21
123.8020644678
  0
LINE
  5
2C9
100
AcDbEntity
  8
0
100
AcDbLine
 62
7
  6
CONTINUOUS
 10
166.4230306132
 20
123.8020644678
 11
166.458200298
 21
123.8020644678
  0
LWPOLYLINE
  5
2CA
100
AcDbEntity
  8
RACCORDO
100
AcDbPolyline
 62
253
  6
CONTINUOUS
 90
15
 70
0
 10
166.1584116669
 20
127.1588393054
 10
166.1551130091
 20
127.1609251886
 10
166.146969372
 20
127.1629907223
 10
166.1340602033
 20
127.1650157556
 10
166.1165114423
 20
127.1669805327
 10
166.0944942915
 20
127.1688658855
 10
166.0682235458
 20
127.1706534209
 10
166.0379554976
 20
127.1723257002
 10
166.0039854361
 20
127.1738664087
 10
165.9666447666
 20
127.1752605157
 10
165.9262977775
 20
127.1764944206
 10
165.8833380863
 20
127.1775560855
 10
165.8381847993
 20
127.1784351532
 10
165.7912784233
 20
127.1791230475
 10
165.6940494809
 20
127.1799004029
  0
LWPOLYLINE
  5
2CB
100
AcDbEntity
  8
0
100
AcDbPolyline
 62
7
  6
CONTINUOUS
 90
10
 70
0
 43
0.3500000006
 10
167.2871896362
 20
142.945447998
 10
167.3586117554
 20
142.8025856323
 10
167.3586117554
 20
142.7311635132
 10
167.2157493896
 20
142.5883011475
 10
167.1443272705
 20
142.5883011475
 10
167.0729051514
 20
142.6597232666
 10
167.0729051514
 20
142.7311635132
 10
167.1443272705
 20
142.8740258789
 10
167.2157493896
 20
142.945447998
 10
167.2871896362
 20
142.945447998
  0
LINE
  5
2CC
100
AcDbEntity
  8
RACCORDO
100
AcDbLine
 62
253
  6
CONTINUOUS
 10
166.8545160949
 20
127.1791225344
 11
166.9517441182
 21
127.1798998645
  0
LINE
  5
2CD
100
AcDbEntity
  8
RACCORDO
100
AcDbLine
 62
253
  6
CONTINUOUS
 10
188.0236111614
 20
127.1796556516
 11
183.2488022
 21
127.1744195496
  0
LINE
  5
2CE
100
AcDbEntity
  8
RACCORDO
100
AcDbLine
 62
253
  6
CONTINUOUS
 10
183.2488022
 20
127.1744195496
 11
178.4678526114
 21
127.1722879204
  0
LINE
  5
2CF
100
AcDbEntity
  8
RACCORDO
100
AcDbLine
 62
253
  6
CONTINUOUS
 10
178.4678526114
 20
127.1722879204
 11
173.6892793981
 21
127.1732566575
  0
LINE
  5
2D0
100
AcDbEntity
  8
RACCORDO
100
AcDbLine
 62
253
  6
CONTINUOUS
 10
173.6892793981
 20
127.1732566575
 11
168.5837479693
 21
127.1777314663
  0
LINE
  5
2D1
100
AcDbEntity
  8
RACCORDO
100
AcDbLine
 62
253
  6
CONTINUOUS
 10
144.6221815385
 20
127.1796556412
 11
165.6940494811
 21
127.1799003837
  0
LINE
  5
2D2
100
AcDbEntity
  8
RACCORDO
100
AcDbLine
 62
253
  6
CONTINUOUS
 10
168.5837479693
 20
127.1777314663
 11
166.9517432189
 21
127.1799003917
  0
LWPOLYLINE
  5
2D3
100
AcDbEntity
  8
RACCORDO
100
AcDbPolyline
 62
253
  6
CONTINUOUS
 90
16
 70
0
 10
188.5228881891
 20
127.8280766334
 10
188.5200198362
 20
127.8801775136
 10
188.5117314691
 20
127.9317097558
 10
188.4981135216
 20
127.9821107418
 10
188.4793146194
 20
128.0308301874
 10
188.4555399505
 20
128.0773361724
 10
188.4270490195
 20
128.1211209451
 10
188.3941528241
 20
128.1617064444
 10
188.3572104849
 20
128.198649503
 10
188.3166253186
 20
128.2315467122
 10
188.2728403933
 20
128.2600388598
 10
188.2263337456
 20
128.2838148045
 10
188.1776131956
 20
128.3026148806
 10
188.1272107048
 20
128.3162337867
 10
188.0756765576
 20
128.3245228052
 10
188.0235734218
 20
128.3273914009
  0
LWPOLYLINE
  5
2D4
100
AcDbEntity
  8
RACCORDO
100
AcDbPolyline
 62
253
  6
CONTINUOUS
 90
16
 70
0
 10
188.491789296
 20
85.1626825795
 10
188.4930282904
 20
85.1195280803
 10
188.4944301968
 20
85.0778993665
 10
188.4959749778
 20
85.038411835
 10
188.4976649051
 20
85.001094457
 10
188.4994977071
 20
84.9659182612
 10
188.5014465313
 20
84.9334117312
 10
188.5035132945
 20
84.9036144674
 10
188.50569608
 20
84.8764868694
 10
188.5079622857
 20
84.8524386197
 10
188.5103143018
 20
84.8315167423
 10
188.512749738
 20
84.8136742132
 10
188.5152288221
 20
84.7991796435
 10
188.5177382966
 20
84.7881225703
 10
188.5202914189
 20
84.7804134566
 10
188.5228881891
 20
84.7760523022
  0
LINE
  5
2D5
100
AcDbEntity
  8
RACCORDO
100
AcDbLine
 62
253
  6
CONTINUOUS
 10
188.0234272017
 20
84.2841384654
 11
188.0235734217
 21
84.2767375349
  0
LINE
  5
2D6
100
AcDbEntity
  8
RACCORDO
100
AcDbLine
 62
253
  6
CONTINUOUS
 10
188.4898046319
 20
85.253656892
 11
188.491789296
 21
85.1626825795
  0
LINE
  5
2D7
100
AcDbEntity
  8
RACCORDO
100
AcDbLine
 62
253
  6
CONTINUOUS
 10
188.4885154639
 20
85.3482432363
 11
188.4898046319
 21
85.253656892
  0
LINE
  5
2D8
100
AcDbEntity
  8
0
100
AcDbLine
 62
7
  6
CONTINUOUS
 10
188.6826884058
 20
123.3020644678
 11
188.7499464794
 21
111.0917049941
  0
LINE
  5
2D9
100
AcDbEntity
  8
RACCORDO
100
AcDbLine
 62
253
  6
CONTINUOUS
 10
188.4879349464
 20
85.4456942792
 11
188.4885154639
 21
85.3482432363
  0
LINE
  5
2DA
100
AcDbEntity
  8
RACCORDO
100
AcDbLine
 62
253
  6
CONTINUOUS
 10
188.4749575721
 20
92.3946564724
 11
188.4879349464
 21
85.4456942792
  0
LINE
  5
2DB
100
AcDbEntity
  8
RACCORDO
100
AcDbLine
 62
253
  6
CONTINUOUS
 10
188.4671673424
 20
99.3470673727
 11
188.4749575721
 21
92.3946564724
  0
LINE
  5
2DC
100
AcDbEntity
  8
RACCORDO
100
AcDbLine
 62
253
  6
CONTINUOUS
 10
188.0132581871
 20
95.8597404398
 11
188.0236111614
 21
85.4244732944
  0
LINE
  5
2DD
100
AcDbEntity
  8
RACCORDO
100
AcDbLine
 62
253
  6
CONTINUOUS
 10
188.4645667476
 20
106.3021274799
 11
188.4671673424
 21
99.3470673727
  0
LINE
  5
2DE
100
AcDbEntity
  8
RACCORDO
100
AcDbLine
 62
253
  6
CONTINUOUS
 10
188.0097920865
 20
106.3021333191
 11
188.0132581871
 21
95.8597404398
  0
LINE
  5
2DF
100
AcDbEntity
  8
0
100
AcDbLine
 62
7
  6
CONTINUOUS
 10
188.5831136252
 20
109.4184009738
 11
188.5831136252
 21
103.1857279618
  0
LINE
  5
2E0
100
AcDbEntity
  8
RACCORDO
100
AcDbLine
 62
7
  6
CONTINUOUS
 10
188.6826884058
 20
127.9878768501
 11
188.6826884058
 21
123.3020644678
  0
LINE
  5
2E1
100
AcDbEntity
  8
RACCORDO
100
AcDbLine
 62
7
  6
CONTINUOUS
 10
188.6826884058
 20
84.6162520855
 11
188.6826884058
 21
89.3020644678
  0
LINE
  5
2E2
100
AcDbEntity
  8
RACCORDO
100
AcDbLine
 62
253
  6
CONTINUOUS
 10
188.0132582535
 20
116.744490816
 11
188.0097920865
 21
106.3021333191
  0
LINE
  5
2E3
100
AcDbEntity
  8
RACCORDO
100
AcDbLine
 62
253
  6
CONTINUOUS
 10
188.4671674245
 20
113.2571705984
 11
188.4645667476
 21
106.3021274799
  0
LINE
  5
2E4
100
AcDbEntity
  8
RACCORDO
100
AcDbLine
 62
253
  6
CONTINUOUS
 10
188.0236111656
 20
85.4244732961
 11
188.0234272017
 21
84.2841384654
  0
LINE
  5
2E5
100
AcDbEntity
  8
RACCORDO
100
AcDbLine
 62
253
  6
CONTINUOUS
 10
188.4749576618
 20
120.2095388935
 11
188.4671674245
 21
113.2571705984
  0
LINE
  5
2E6
100
AcDbEntity
  8
RACCORDO
100
AcDbLine
 62
253
  6
CONTINUOUS
 10
188.4881371978
 20
127.2075615196
 11
188.4749576618
 21
120.2095388935
  0
LINE
  5
2E7
100
AcDbEntity
  8
0
100
AcDbLine
 62
7
  6
CONTINUOUS
 10
188.6826884058
 20
89.3020644678
 11
188.7499464794
 21
101.5124239415
  0
LINE
  5
2E8
100
AcDbEntity
  8
RACCORDO
100
AcDbLine
 62
253
  6
CONTINUOUS
 10
188.4890703236
 20
127.3034837293
 11
188.4881371978
 21
127.2075615196
  0
LWPOLYLINE
  5
2E9
100
AcDbEntity
  8
RACCORDO
100
AcDbPolyline
 62
253
  6
CONTINUOUS
 90
3
 70
0
 10
188.0235734217
 20
128.3273914008
 10
188.0234274451
 20
128.3199899992
 10
188.0132582535
 20
116.744490816
  0
LWPOLYLINE
  5
2EA
100
AcDbEntity
  8
RACCORDO
100
AcDbPolyline
 62
253
  6
CONTINUOUS
 90
16
 70
0
 10
188.5228881891
 20
84.7760523022
 10
188.5200197024
 20
84.7239501796
 10
188.5117309815
 20
84.6724169115
 10
188.4981125233
 20
84.6220151416
 10
188.479313015
 20
84.5732951599
 10
188.4555377109
 20
84.5267888944
 10
188.4270461914
 20
84.4830041037
 10
188.3941495288
 20
84.4424188332
 10
188.3572068911
 20
84.4054761954
 10
188.3166216206
 20
84.3725795327
 10
188.2728368299
 20
84.3440880131
 10
188.2263305644
 20
84.3203127089
 10
188.1776105827
 20
84.3015132006
 10
188.1272088127
 20
84.2878947423
 10
188.0756755445
 20
84.2796060215
 10
188.0235734217
 20
84.2767375349
  0
LINE
  5
2EB
100
AcDbEntity
  8
0
100
AcDbLine
 62
7
  6
CONTINUOUS
 10
188.6025354491
 20
109.901363887
 11
188.7306682031
 21
110.5564778493
  0
LINE
  5
2EC
100
AcDbEntity
  8
RACCORDO
100
AcDbLine
 62
253
  6
CONTINUOUS
 10
144.5271061625
 20
127.1787596693
 11
144.6221828116
 21
127.1796549801
  0
LINE
  5
2ED
100
AcDbEntity
  8
RACCORDO
100
AcDbLine
 62
253
  6
CONTINUOUS
 10
188.023573423
 20
128.327391402
 11
184.6184515838
 21
128.3167975969
  0
LINE
  5
2EE
100
AcDbEntity
  8
RACCORDO
100
AcDbLine
 62
253
  6
CONTINUOUS
 10
184.6184515838
 20
128.3167975969
 11
181.2101794243
 21
128.3103283562
  0
LINE
  5
2EF
100
AcDbEntity
  8
RACCORDO
100
AcDbLine
 62
253
  6
CONTINUOUS
 10
158.2509318747
 20
128.309769024
 11
165.6701019633
 21
128.3279400466
  0
LINE
  5
2F0
100
AcDbEntity
  8
RACCORDO
100
AcDbLine
 62
253
  6
CONTINUOUS
 10
181.2101794243
 20
128.3103283562
 11
177.8004384019
 21
128.3079875169
  0
LINE
  5
2F1
100
AcDbEntity
  8
RACCORDO
100
AcDbLine
 62
7
  6
CONTINUOUS
 10
188.1833736385
 20
128.4871916175
 11
166.9226500135
 21
128.4871916175
  0
LINE
  5
2F2
100
AcDbEntity
  8
RACCORDO
100
AcDbLine
 62
7
  6
CONTINUOUS
 10
165.7231426865
 20
128.4871916175
 11
144.4624190615
 21
128.4871916175
  0
LINE
  5
2F3
100
AcDbEntity
  8
RACCORDO
100
AcDbLine
 62
253
  6
CONTINUOUS
 10
177.8004384019
 20
128.3079875169
 11
174.396765885
 21
128.3097668498
  0
LINE
  5
2F4
100
AcDbEntity
  8
RACCORDO
100
AcDbLine
 62
253
  6
CONTINUOUS
 10
150.7546262151
 20
128.3112908155
 11
158.2509318747
 21
128.309769024
  0
LINE
  5
2F5
100
AcDbEntity
  8
RACCORDO
100
AcDbLine
 62
253
  6
CONTINUOUS
 10
174.396765885
 20
128.3097668498
 11
171.6152115101
 21
128.3142839946
  0
LINE
  5
2F6
100
AcDbEntity
  8
RACCORDO
100
AcDbLine
 62
253
  6
CONTINUOUS
 10
171.6152115101
 20
128.3142839946
 11
168.6085789348
 21
128.3222831246
  0
LINE
  5
2F7
100
AcDbEntity
  8
RACCORDO
100
AcDbLine
 62
253
  6
CONTINUOUS
 10
144.6222192782
 20
128.3273914008
 11
150.7546262151
 21
128.3112908155
  0
LINE
  5
2F8
100
AcDbEntity
  8
RACCORDO
100
AcDbLine
 62
253
  6
CONTINUOUS
 10
168.6085789348
 20
128.3222831246
 11
166.9756907372
 21
128.3279400448
  0
LINE
  5
2F9
100
AcDbEntity
  8
0
100
AcDbLine
 62
7
  6
CONTINUOUS
 10
188.6025354491
 20
102.7027650487
 11
188.7306682031
 21
102.0476510863
  0
LWPOLYLINE
  5
2FA
100
AcDbEntity
  8
RACCORDO
100
AcDbPolyline
 62
253
  6
CONTINUOUS
 90
14
 70
0
 10
188.4879349463
 20
85.4456942792
 10
188.4830872228
 20
85.4436329401
 10
188.4736325929
 20
85.4415908106
 10
188.4596591449
 20
85.4395869171
 10
188.4412970682
 20
85.4376399297
 10
188.4187174409
 20
85.4357679884
 10
188.3921306357
 20
85.4339885338
 10
188.3617843599
 20
85.4323181449
 10
188.3279613474
 20
85.4307723848
 10
188.2909767246
 20
85.429365655
 10
188.2511750744
 20
85.4281110621
 10
188.2089272259
 20
85.427020295
 10
188.164626799
 20
85.4261035159
 10
188.1186865374
 20
85.4253692663
  0
LWPOLYLINE
  5
2FB
100
AcDbEntity
  8
RACCORDO
100
AcDbPolyline
 62
253
  6
CONTINUOUS
 90
15
 70
0
 10
188.4879349464
 20
127.1584346564
 10
188.4830882214
 20
127.1604960566
 10
188.4736344545
 20
127.1625382504
 10
188.4596617279
 20
127.1645422104
 10
188.4413002281
 20
127.1664892652
 10
188.418721032
 20
127.1683612739
 10
188.392134514
 20
127.1701407946
 10
188.3617883851
 20
127.1718112472
 10
188.3279653852
 20
127.173357068
 10
188.290980649
 20
127.174763854
 10
188.2511787694
 20
127.1760184982
 10
188.2089305872
 20
127.1771093108
 10
188.164629736
 20
127.1780261285
 10
188.1186889741
 20
127.1787604091
 10
188.0236111607
 20
127.1796557581
  0
LWPOLYLINE
  5
2FC
100
AcDbEntity
  8
0
100
AcDbPolyline
 62
7
  6
CONTINUOUS
 90
3
 70
0
 43
0.3500000006
 10
200.0353551636
 20
109.8377790527
 10
200.0353551636
 20
108.337778595
 10
197.6782077026
 20
108.9806320496
  0
LWPOLYLINE
  5
2FD
100
AcDbEntity
  8
0
100
AcDbPolyline
 62
7
  6
CONTINUOUS
 90
3
 70
0
 43
0.3500000006
 10
200.0353551636
 20
105.7663466492
 10
200.0353551636
 20
104.2663461914
 10
197.6782077026
 20
104.9092087097
  0
LWPOLYLINE
  5
2FE
100
AcDbEntity
  8
0
100
AcDbPolyline
 62
7
  6
CONTINUOUS
 90
3
 70
0
 43
0.3500000006
 10
200.0353551636
 20
103.409208252
 10
200.0353551636
 20
101.9092077942
 10
197.6782077026
 20
102.5520612488
  0
LWPOLYLINE
  5
2FF
100
AcDbEntity
  8
0
100
AcDbPolyline
 62
7
  6
CONTINUOUS
 90
3
 70
0
 43
0.3500000006
 10
165.7871801147
 20
143.0883103638
 10
164.2871887207
 20
143.0883103638
 10
164.9300421753
 20
145.4454396973
  0
LWPOLYLINE
  5
300
100
AcDbEntity
  8
0
100
AcDbPolyline
 62
7
  6
CONTINUOUS
 90
3
 70
0
 43
0.3500000006
 10
163.4300326538
 20
143.0883103638
 10
161.9300412598
 20
143.0883103638
 10
162.5728947144
 20
145.4454396973
  0
LWPOLYLINE
  5
301
100
AcDbEntity
  8
0
100
AcDbPolyline
 62
7
  6
CONTINUOUS
 90
10
 70
0
 43
0.3500000006
 10
119.0734161987
 20
145.4454396973
 10
118.4305627441
 20
144.8025862427
 10
118.0019937744
 20
143.9454483032
 10
118.0019937744
 20
142.8740258789
 10
118.4305627441
 20
142.4454387817
 10
119.0734161987
 20
142.4454387817
 10
119.5019942322
 20
142.8740258789
 10
119.5019942322
 20
143.7311638184
 10
119.0734161987
 20
144.1597327881
 10
118.1448470764
 20
144.1597327881
  0
LINE
  5
302
100
AcDbEntity
  8
RACCORDO
100
AcDbLine
 62
7
  6
CONTINUOUS
 10
109.3920226189
 20
84.2961507526
 11
112.8116186593
 21
84.1169373181
  0
LINE
  5
303
100
AcDbEntity
  8
RACCORDO
100
AcDbLine
 62
253
  6
CONTINUOUS
 10
108.6290519607
 20
85.4248243873
 11
108.6233649926
 21
85.4244739555
  0
LINE
  5
304
100
AcDbEntity
  8
RACCORDO
100
AcDbLine
 62
253
  6
CONTINUOUS
 10
108.6540995105
 20
85.4261035159
 11
108.6290519607
 21
85.4248243873
  0
LINE
  5
305
100
AcDbEntity
  8
RACCORDO
100
AcDbLine
 62
253
  6
CONTINUOUS
 10
108.9540951156
 20
85.4395869171
 11
108.6540995105
 21
85.4261035159
  0
LINE
  5
306
100
AcDbEntity
  8
RACCORDO
100
AcDbLine
 62
253
  6
CONTINUOUS
 10
109.0955012804
 20
85.4456942792
 11
108.9540951156
 21
85.4395869171
  0
LINE
  5
307
100
AcDbEntity
  8
RACCORDO
100
AcDbLine
 62
253
  6
CONTINUOUS
 10
108.6233467581
 20
85.4244732944
 11
108.2564628232
 21
85.4318954915
  0
LINE
  5
308
100
AcDbEntity
  8
RACCORDO
100
AcDbLine
 62
253
  6
CONTINUOUS
 10
109.7624488811
 20
84.7760523022
 11
112.8116186593
 21
84.6162520855
  0
LWPOLYLINE
  5
309
100
AcDbEntity
  8
RACCORDO
100
AcDbPolyline
 62
7
  6
CONTINUOUS
 90
16
 70
0
 10
108.6419306258
 20
127.2639643563
 10
108.6543299614
 20
127.3473580328
 10
108.6725585554
 20
127.4296700278
 10
108.6965241494
 20
127.510489035
 10
108.726108059
 20
127.5894223982
 10
108.7611695549
 20
127.6660966549
 10
108.8015416725
 20
127.7401378856
 10
108.8470251893
 20
127.8111740006
 10
108.8973950208
 20
127.8788522588
 10
108.9524048256
 20
127.9428369574
 10
109.0117854812
 20
128.0028112657
 10
109.0752432984
 20
128.0584777831
 10
109.1424692252
 20
128.1095611747
 10
109.2131317094
 20
128.1558058744
 10
109.286874728
 20
128.1969787163
 10
109.3633300857
 20
128.2328731011
  0
LWPOLYLINE
  5
30A
100
AcDbEntity
  8
RACCORDO
100
AcDbPolyline
 62
253
  6
CONTINUOUS
 90
22
 70
0
 10
109.0955012804
 20
85.4456942792
 10
109.0993599732
 20
85.3965795316
 10
109.1065782137
 20
85.3482432363
 10
109.1171560017
 20
85.3006853935
 10
109.1311770045
 20
85.253656892
 10
109.1485575548
 20
85.207406843
 10
109.1690466514
 20
85.1626825795
 10
109.1926880726
 20
85.1195280803
 10
109.21943804
 20
85.0778993665
 10
109.2489142179
 20
85.038411835
 10
109.2811599518
 20
85.001094457
 10
109.3161318961
 20
84.9659182612
 10
109.3533176782
 20
84.9334117312
 10
109.3927538689
 20
84.9036144674
 10
109.4344038974
 20
84.8764868694
 10
109.4776456785
 20
84.8524386197
 10
109.522524818
 20
84.8315167423
 10
109.56899571
 20
84.8136742132
 10
109.6162994526
 20
84.7991796435
 10
109.6641830782
 20
84.7881225703
 10
109.7128995544
 20
84.7804134566
 10
109.7624488811
 20
84.7760523022
  0
LWPOLYLINE
  5
30B
100
AcDbEntity
  8
RACCORDO
100
AcDbPolyline
 62
253
  6
CONTINUOUS
 90
22
 70
0
 10
108.6233467853
 20
85.4244732961
 10
108.6298827006
 20
85.3404862459
 10
108.6423080494
 20
85.2571672016
 10
108.6605609852
 20
85.1749265354
 10
108.6845494625
 20
85.0941763182
 10
108.7141556385
 20
85.0153065529
 10
108.7492414278
 20
84.9386850814
 10
108.7896425705
 20
84.8646843234
 10
108.8351609294
 20
84.7936779256
 10
108.8855727798
 20
84.7260184322
 10
108.9406337712
 20
84.6620420478
 10
109.000076184
 20
84.602066672
 10
109.0636067683
 20
84.5463907938
 10
109.1309180743
 20
84.4952909139
 10
109.2016794021
 20
84.4490242398
 10
109.2755337001
 20
84.407825904
 10
109.3521152181
 20
84.3719033734
 10
109.4310513817
 20
84.3414344786
 10
109.5119541126
 20
84.3165710828
 10
109.5944259303
 20
84.2974394763
 10
109.6780614272
 20
84.2841384654
 10
109.7624488811
 20
84.2767375349
  0
LINE
  5
30C
100
AcDbEntity
  8
0
100
AcDbLine
 62
7
  6
CONTINUOUS
 10
108.0929697826
 20
88.840048513
 11
108.2564628263
 21
85.4318954319
  0
LINE
  5
30D
100
AcDbEntity
  8
0
100
AcDbLine
 62
7
  6
CONTINUOUS
 10
107.9556760304
 20
92.3315193457
 11
108.0931313966
 21
88.8366795301
  0
LINE
  5
30E
100
AcDbEntity
  8
0
100
AcDbLine
 62
7
  6
CONTINUOUS
 10
108.0932608601
 20
123.7707403495
 11
107.9556760304
 21
120.2726095899
  0
LINE
  5
30F
100
AcDbEntity
  8
0
100
AcDbLine
 62
7
  6
CONTINUOUS
 10
108.2564628263
 20
127.172233504
 11
108.0929697826
 21
123.7640804227
  0
LINE
  5
310
100
AcDbEntity
  8
RACCORDO
100
AcDbLine
 62
7
  6
CONTINUOUS
 10
108.6354229181
 20
127.1799003907
 11
108.6419306258
 21
127.2639643563
  0
LINE
  5
311
100
AcDbEntity
  8
0
100
AcDbLine
 62
7
  6
CONTINUOUS
 10
107.8488846711
 20
95.824056134
 11
107.9559089332
 21
92.3248569039
  0
LINE
  5
312
100
AcDbEntity
  8
0
100
AcDbLine
 62
7
  6
CONTINUOUS
 10
107.7726068992
 20
99.3173924927
 11
107.8490593727
 21
95.8173917357
  0
LINE
  5
313
100
AcDbEntity
  8
0
100
AcDbLine
 62
7
  6
CONTINUOUS
 10
107.7268511699
 20
102.811261976
 11
107.7727233744
 21
99.3107266963
  0
LINE
  5
314
100
AcDbEntity
  8
0
100
AcDbLine
 62
7
  6
CONTINUOUS
 10
107.7116186731
 20
106.3053979253
 11
107.7269094082
 21
102.8045953406
  0
LINE
  5
315
100
AcDbEntity
  8
0
100
AcDbLine
 62
7
  6
CONTINUOUS
 10
107.7269094082
 20
109.799533595
 11
107.7116186731
 21
106.2987310103
  0
LINE
  5
316
100
AcDbEntity
  8
0
100
AcDbLine
 62
7
  6
CONTINUOUS
 10
107.7727233744
 20
113.2934022393
 11
107.7268511699
 21
109.7928669597
  0
LINE
  5
317
100
AcDbEntity
  8
0
100
AcDbLine
 62
7
  6
CONTINUOUS
 10
107.8490593727
 20
116.7867372
 11
107.7726068992
 21
113.2867364429
  0
LINE
  5
318
100
AcDbEntity
  8
0
100
AcDbLine
 62
7
  6
CONTINUOUS
 10
107.9559089332
 20
120.2792720317
 11
107.8488846711
 21
116.7800728016
  0
LWPOLYLINE
  5
319
100
AcDbEntity
  8
RACCORDO
100
AcDbPolyline
 62
253
  6
CONTINUOUS
 90
13
 70
0
 10
108.6233467585
 20
127.1796556516
 10
108.4872950301
 20
123.7023586235
 10
108.3759188159
 20
120.2239121199
 10
108.2892521049
 20
116.744490816
 10
108.2273225642
 20
113.2641809527
 10
108.1901555203
 20
109.7832473307
 10
108.1777652342
 20
106.3021333191
 10
108.1901545693
 20
102.8210152367
 10
108.2273208317
 20
99.3400696807
 10
108.2892499203
 20
95.8597404398
 10
108.3759166634
 20
92.3802924591
 10
108.4872935532
 20
88.9018118488
 10
108.6233467581
 20
85.4244732944
  0
LWPOLYLINE
  5
31A
100
AcDbEntity
  8
RACCORDO
100
AcDbPolyline
 62
253
  6
CONTINUOUS
 90
13
 70
0
 10
109.0955012804
 20
127.1584346564
 10
108.9593167659
 20
123.6843876036
 10
108.8478799374
 20
120.2095388935
 10
108.761190795
 20
116.7338885261
 10
108.6992333562
 20
113.2571705984
 10
108.6620236035
 20
109.7796510134
 10
108.6496094838
 20
106.3021274799
 10
108.6620228193
 20
102.8245994006
 10
108.6992317879
 20
99.3470673727
 10
108.7611888702
 20
95.8703308966
 10
108.8478782265
 20
92.3946564724
 10
108.9593156966
 20
88.9197775999
 10
109.0955012804
 20
85.4456942792
  0
LWPOLYLINE
  5
31B
100
AcDbEntity
  8
0
100
AcDbPolyline
 62
7
  6
CONTINUOUS
 90
3
 70
0
 43
0.3500000006
 10
121.0734168091
 20
142.7311635132
 10
121.0019946899
 20
142.5168790283
 10
120.8591323242
 20
142.2311542969
  0
LINE
  5
31C
100
AcDbEntity
  8
0
100
AcDbLine
 62
7
  6
CONTINUOUS
 10
111.2822091367
 20
102.7027650487
 11
113.7271277289
 21
102.0476510863
  0
LWPOLYLINE
  5
31D
100
AcDbEntity
  8
RACCORDO
100
AcDbPolyline
 62
253
  6
CONTINUOUS
 90
16
 70
0
 10
109.7624488811
 20
127.8280766334
 10
109.759868714
 20
127.8801775136
 10
109.7576023988
 20
127.9317097558
 10
109.7556746818
 20
127.9821107418
 10
109.7541066129
 20
128.0308301874
 10
109.7529153155
 20
128.0773361724
 10
109.7521137996
 20
128.1211209451
 10
109.7517108206
 20
128.1617064444
 10
109.7517107832
 20
128.198649503
 10
109.7521136923
 20
128.2315467122
 10
109.7529151531
 20
128.2600388598
 10
109.754106419
 20
128.2838148045
 10
109.7556744847
 20
128.3026148806
 10
109.7576022303
 20
128.3162337867
 10
109.7598686109
 20
128.3245228052
 10
109.7624488829
 20
128.3273914009
  0
LINE
  5
31E
100
AcDbEntity
  8
0
100
AcDbLine
 62
7
  6
CONTINUOUS
 10
110.9116186593
 20
109.4184009738
 11
110.9116186593
 21
103.1857279618
  0
LWPOLYLINE
  5
31F
100
AcDbEntity
  8
RACCORDO
100
AcDbPolyline
 62
253
  6
CONTINUOUS
 90
16
 70
0
 10
109.7624488811
 20
84.7760523022
 10
109.7598686556
 20
84.7239501796
 10
109.757602305
 20
84.6724169115
 10
109.7556745734
 20
84.6220151416
 10
109.7541065081
 20
84.5732951599
 10
109.7529152291
 20
84.5267888944
 10
109.752113743
 20
84.4830041037
 10
109.7517108004
 20
84.4424188332
 10
109.7517108008
 20
84.4054761954
 10
109.7521137439
 20
84.3725795327
 10
109.7529152307
 20
84.3440880131
 10
109.7541065103
 20
84.3203127089
 10
109.7556745759
 20
84.3015132006
 10
109.7576023071
 20
84.2878947423
 10
109.7598686569
 20
84.2796060215
 10
109.7624488811
 20
84.2767375349
  0
LINE
  5
320
100
AcDbEntity
  8
0
100
AcDbLine
 62
7
  6
CONTINUOUS
 10
112.3203448625
 20
103.7934892518
 11
110.9116186593
 21
103.7688998445
  0
LINE
  5
321
100
AcDbEntity
  8
RACCORDO
100
AcDbLine
 62
7
  6
CONTINUOUS
 10
112.8116186593
 20
128.4871916175
 11
112.8116186593
 21
123.3020644678
  0
LINE
  5
322
100
AcDbEntity
  8
0
100
AcDbLine
 62
7
  6
CONTINUOUS
 10
112.8116186593
 20
108.3107158363
 11
112.8116186593
 21
107.6520644678
  0
LINE
  5
323
100
AcDbEntity
  8
0
100
AcDbLine
 62
7
  6
CONTINUOUS
 10
112.8116186593
 20
104.9520644678
 11
112.8116186593
 21
104.2934130994
  0
LINE
  5
324
100
AcDbEntity
  8
RACCORDO
100
AcDbLine
 62
7
  6
CONTINUOUS
 10
112.8116186593
 20
84.1169373181
 11
112.8116186593
 21
89.3020644678
  0
LINE
  5
325
100
AcDbEntity
  8
0
100
AcDbLine
 62
7
  6
CONTINUOUS
 10
112.1898516576
 20
105.2520644678
 11
112.5116186593
 21
105.2520644678
  0
LINE
  5
326
100
AcDbEntity
  8
0
100
AcDbLine
 62
7
  6
CONTINUOUS
 10
112.8116186593
 20
123.3020644678
 11
114.0949791541
 21
111.0917049941
  0
LINE
  5
327
100
AcDbEntity
  8
0
100
AcDbLine
 62
7
  6
CONTINUOUS
 10
112.8116186593
 20
89.3020644678
 11
114.0949791541
 21
101.5124239415
  0
LINE
  5
328
100
AcDbEntity
  8
0
100
AcDbLine
 62
7
  6
CONTINUOUS
 10
112.5116186593
 20
107.3520644678
 11
112.1898516576
 21
107.3520644678
  0
LINE
  5
329
100
AcDbEntity
  8
0
100
AcDbLine
 62
7
  6
CONTINUOUS
 10
111.2822091367
 20
109.901363887
 11
113.7271277289
 21
110.5564778493
  0
LINE
  5
32A
100
AcDbEntity
  8
0
100
AcDbLine
 62
7
  6
CONTINUOUS
 10
110.9116186593
 20
108.8352290912
 11
112.3203448625
 21
108.8106396838
  0
LWPOLYLINE
  5
32B
100
AcDbEntity
  8
0
100
AcDbPolyline
 62
7
  6
CONTINUOUS
 90
2
 70
0
 43
0.3500000006
 10
123.0734174194
 20
142.4454387817
 10
123.0734174194
 20
143.9454483032
  0
LINE
  5
32C
100
AcDbEntity
  8
RACCORDO
100
AcDbLine
 62
253
  6
CONTINUOUS
 10
109.0955012804
 20
127.1584346564
 11
108.6732112523
 21
127.1771093108
  0
LWPOLYLINE
  5
32D
100
AcDbEntity
  8
RACCORDO
100
AcDbPolyline
 62
253
  6
CONTINUOUS
 90
4
 70
0
 10
108.6732112523
 20
127.1771093108
 10
108.6393115339
 20
127.1787604091
 10
108.6290341721
 20
127.1793053113
 10
108.6233467742
 20
127.1796557581
  0
LWPOLYLINE
  5
32E
100
AcDbEntity
  8
RACCORDO
100
AcDbPolyline
 62
253
  6
CONTINUOUS
 90
22
 70
0
 10
109.7624488811
 20
127.8280766334
 10
109.7129154603
 20
127.8237169501
 10
109.6642151837
 20
127.8160119353
 10
109.6163480515
 20
127.804961589
 10
109.5690614059
 20
127.7904760028
 10
109.5226079046
 20
127.7726450849
 10
109.4777455203
 20
127.751738561
 10
109.4345222308
 20
127.7277127589
 10
109.3928900585
 20
127.7006113507
 10
109.3534630423
 20
127.6708350782
 10
109.3162735388
 20
127.638342282
 10
109.2812891915
 20
127.6031746215
 10
109.2490269705
 20
127.5658578163
 10
109.2195290758
 20
127.526359427
 10
109.1927533075
 20
127.4847118929
 10
109.1690900355
 20
127.4415382523
 10
109.1485861344
 20
127.3967965397
 10
109.1311947295
 20
127.3505287206
 10
109.1171655671
 20
127.3034837293
 10
109.1065818958
 20
127.2559112105
 10
109.0993604669
 20
127.2075615196
 10
109.0955012804
 20
127.1584346564
  0
LWPOLYLINE
  5
32F
100
AcDbEntity
  8
RACCORDO
100
AcDbPolyline
 62
7
  6
CONTINUOUS
 90
22
 70
0
 10
109.7624488811
 20
128.3273914008
 10
109.6780576143
 20
128.3199899992
 10
109.5944198731
 20
128.3066882722
 10
109.5119473636
 20
128.2875560268
 10
109.4310462296
 20
128.2626926617
 10
109.3521130081
 20
128.2322246047
 10
109.2755333696
 20
128.1963028415
 10
109.2016789392
 20
128.1551043749
 10
109.1309166655
 20
128.1088369549
 10
109.0636045264
 20
128.0577362076
 10
109.0000733971
 20
128.0020595179
 10
108.940630548
 20
127.9420832643
 10
108.8855694487
 20
127.878106217
 10
108.835158023
 20
127.8104467202
 10
108.7896402461
 20
127.7394406762
 10
108.7492393207
 20
127.6654397075
 10
108.7141530798
 20
127.5888163108
 10
108.6845465076
 20
127.5099438782
 10
108.6605584335
 20
127.4291925994
 10
108.6423064946
 20
127.3469533944
 10
108.6298821197
 20
127.263637619
 10
108.6233467858
 20
127.1796556501
  0
LINE
  5
330
100
AcDbEntity
  8
RACCORDO
100
AcDbLine
 62
253
  6
CONTINUOUS
 10
112.8116186593
 20
127.9878768501
 11
109.7624488811
 21
127.8280766334
  0
LINE
  5
331
100
AcDbEntity
  8
RACCORDO
100
AcDbLine
 62
7
  6
CONTINUOUS
 10
112.8116186593
 20
128.4871916175
 11
109.3920226615
 21
128.3079781852
  0
LINE
  5
332
100
AcDbEntity
  8
RACCORDO
100
AcDbLine
 62
253
  6
CONTINUOUS
 10
108.6233467585
 20
127.1796556516
 11
108.2564628231
 21
127.1722334434
  0
LWPOLYLINE
  5
333
100
AcDbEntity
  8
0
100
AcDbPolyline
 62
7
  6
CONTINUOUS
 90
10
 70
0
 43
0.3500000006
 10
121.0019946899
 20
142.945447998
 10
121.0734168091
 20
142.8025856323
 10
121.0734168091
 20
142.7311635132
 10
120.9305635071
 20
142.5883011475
 10
120.8591323242
 20
142.5883011475
 10
120.7877011414
 20
142.6597232666
 10
120.7877011414
 20
142.7311635132
 10
120.8591323242
 20
142.8740258789
 10
120.9305635071
 20
142.945447998
 10
121.0019946899
 20
142.945447998
  0
LWPOLYLINE
  5
334
100
AcDbEntity
  8
0
100
AcDbPolyline
 62
7
  6
CONTINUOUS
 90
3
 70
0
 43
0.3500000006
 10
123.573417572
 20
143.0883103638
 10
122.0734171143
 20
143.0883103638
 10
122.7162796326
 20
145.4454396973
  0
ARC
  5
335
100
AcDbEntity
  8
0
100
AcDbCircle
 62
7
  6
CONTINUOUS
 10
111.5116186593
 20
106.3020644678
 40
1.25
100
AcDbArc
 50
57.1401196211
 51
118.7004074014
  0
ARC
  5
336
100
AcDbEntity
  8
0
100
AcDbCircle
 62
7
  6
CONTINUOUS
 10
111.5116186593
 20
106.3020644678
 40
1.25
100
AcDbArc
 50
241.2995925986
 51
302.8598803789
  0
ARC
  5
337
100
AcDbEntity
  8
RACCORDO
100
AcDbCircle
 62
7
  6
CONTINUOUS
 10
109.4548284225
 20
127.1096228805
 40
1.2
100
AcDbArc
 50
93.0
 51
177.0092051189
  0
ARC
  5
338
100
AcDbEntity
  8
RACCORDO
100
AcDbCircle
 62
7
  6
CONTINUOUS
 10
109.4548284204
 20
85.4945060553
 40
1.2
100
AcDbArc
 50
182.9907948806
 51
267.0
  0
ARC
  5
339
100
AcDbEntity
  8
0
100
AcDbCircle
 62
7
  6
CONTINUOUS
 10
113.5977182064
 20
101.5646881732
 40
0.5
100
AcDbArc
 50
354.0
 51
75.0
  0
ARC
  5
33A
100
AcDbEntity
  8
0
100
AcDbCircle
 62
7
  6
CONTINUOUS
 10
113.5977182064
 20
111.0394407625
 40
0.5
100
AcDbArc
 50
285.0
 51
6.0
  0
ARC
  5
33B
100
AcDbEntity
  8
0
100
AcDbCircle
 62
7
  6
CONTINUOUS
 10
111.4116186593
 20
109.4184009738
 40
0.5
100
AcDbArc
 50
105.0
 51
180.0
  0
ARC
  5
33C
100
AcDbEntity
  8
0
100
AcDbCircle
 62
7
  6
CONTINUOUS
 10
111.4116186593
 20
103.1857279618
 40
0.5
100
AcDbArc
 50
180.0
 51
255.0
  0
ARC
  5
33D
100
AcDbEntity
  8
0
100
AcDbCircle
 62
7
  6
CONTINUOUS
 10
112.3116186593
 20
104.2934130994
 40
0.5
100
AcDbArc
 50
271.0
 51
360.0
  0
ARC
  5
33E
100
AcDbEntity
  8
0
100
AcDbCircle
 62
7
  6
CONTINUOUS
 10
112.3116186593
 20
108.3107158363
 40
0.5
100
AcDbArc
 50
0.0
 51
89.0
  0
ARC
  5
33F
100
AcDbEntity
  8
0
100
AcDbCircle
 62
7
  6
CONTINUOUS
 10
112.5116186593
 20
107.6520644678
 40
0.3
100
AcDbArc
 50
270.0
 51
360.0
  0
ARC
  5
340
100
AcDbEntity
  8
0
100
AcDbCircle
 62
7
  6
CONTINUOUS
 10
112.5116186593
 20
104.9520644678
 40
0.3
100
AcDbArc
 50
0.0
 51
90.0
  0
ELLIPSE
  5
341
100
AcDbEntity
  8
0
100
AcDbEllipse
 62
7
  6
CONTINUOUS
 10
166.458200298
 20
123.0020644678
 30
0.0
 11
-0.0
 21
0.8
 31
0.0
 40
0.0174550649
 41
-1.5366523258
 42
0.0
  0
ELLIPSE
  5
342
100
AcDbEntity
  8
0
100
AcDbEllipse
 62
7
  6
CONTINUOUS
 10
166.458200298
 20
89.6020644678
 30
0.0
 11
-0.0
 21
0.8
 31
0.0
 40
0.0174550649
 41
-3.1415926536
 42
-1.6049403278
  0
ELLIPSE
  5
343
100
AcDbEntity
  8
0
100
AcDbEllipse
 62
7
  6
CONTINUOUS
 10
188.6093175148
 20
109.4184009738
 30
0.0
 11
-0.0
 21
0.5
 31
0.0
 40
0.0524077793
 41
0.2617993878
 42
1.5707963268
  0
ELLIPSE
  5
344
100
AcDbEntity
  8
0
100
AcDbEllipse
 62
7
  6
CONTINUOUS
 10
188.7238861374
 20
101.5646881732
 30
0.0
 11
-0.0
 21
0.5
 31
0.0
 40
0.0524077793
 41
-1.6755160819
 42
-0.2617993878
  0
ELLIPSE
  5
345
100
AcDbEntity
  8
0
100
AcDbEllipse
 62
7
  6
CONTINUOUS
 10
188.7238861374
 20
111.0394407625
 30
0.0
 11
0.0
 21
0.5
 31
0.0
 40
0.0524077793
 41
-2.8797932658
 42
-1.4660765717
  0
ELLIPSE
  5
346
100
AcDbEntity
  8
0
100
AcDbEllipse
 62
7
  6
CONTINUOUS
 10
188.6093175148
 20
103.1857279618
 30
0.0
 11
-0.0
 21
0.5
 31
0.0
 40
0.0524077793
 41
-4.7123889804
 42
-3.4033920414
  0
ELLIPSE
  5
347
100
AcDbEntity
  8
0
100
AcDbEllipse
 62
7
  6
CONTINUOUS
 10
157.9241594996
 20
106.3020644678
 30
0.0
 11
0.0
 21
490.0
 31
0.0
 40
0.0174550649
 41
-1.6049403278
 42
-1.5366523258
  0
ELLIPSE
  5
348
100
AcDbEntity
  8
RACCORDO
100
AcDbEllipse
 62
7
  6
CONTINUOUS
 10
188.1820022328
 20
84.6176234911
 30
0.0
 11
-0.3545231217
 21
0.3545231217
 31
0.0
 40
0.9972646886
 41
-3.9256212891
 42
-2.3575640181
  0
ELLIPSE
  5
349
100
AcDbEntity
  8
RACCORDO
100
AcDbEllipse
 62
7
  6
CONTINUOUS
 10
166.9231067772
 20
84.6176234911
 30
0.0
 11
0.1582391024
 21
0.4751033573
 31
0.0
 40
0.9984778551
 41
-4.3904252413
 42
-2.8205423031
  0
ELLIPSE
  5
34A
100
AcDbEntity
  8
RACCORDO
100
AcDbEllipse
 62
7
  6
CONTINUOUS
 10
166.9231067772
 20
127.9865054445
 30
0.0
 11
-0.1582391023
 21
0.4751033573
 31
0.0
 40
0.9984778551
 41
-0.3210503505
 42
1.2488325878
  0
ELLIPSE
  5
34B
100
AcDbEntity
  8
RACCORDO
100
AcDbEllipse
 62
7
  6
CONTINUOUS
 10
188.1820022328
 20
127.9865054445
 30
0.0
 11
0.3545231217
 21
0.3545231217
 31
0.0
 40
0.9972646886
 41
-0.7840286355
 42
0.7840286355
  0
ELLIPSE
  5
34C
100
AcDbEntity
  8
0
100
AcDbEllipse
 62
7
  6
CONTINUOUS
 10
166.187592402
 20
89.6020644678
 30
0.0
 11
0.0
 21
0.8
 31
0.0
 40
0.0174550649
 41
-4.6782449794
 42
-3.1415926536
  0
ELLIPSE
  5
34D
100
AcDbEntity
  8
0
100
AcDbEllipse
 62
7
  6
CONTINUOUS
 10
166.187592402
 20
123.0020644678
 30
0.0
 11
-0.0
 21
0.8
 31
0.0
 40
0.0174550649
 41
-0.0
 42
1.5366523258
  0
ELLIPSE
  5
34E
100
AcDbEntity
  8
0
100
AcDbEllipse
 62
7
  6
CONTINUOUS
 10
144.0364751851
 20
103.1857279618
 30
0.0
 11
0.0
 21
0.5
 31
0.0
 40
0.0524077793
 41
-2.8797932658
 42
-1.5707963268
  0
ELLIPSE
  5
34F
100
AcDbEntity
  8
0
100
AcDbEllipse
 62
7
  6
CONTINUOUS
 10
143.9219065625
 20
111.0394407625
 30
0.0
 11
0.0
 21
0.5
 31
0.0
 40
0.0524077793
 41
1.4660765717
 42
2.8797932658
  0
ELLIPSE
  5
350
100
AcDbEntity
  8
0
100
AcDbEllipse
 62
7
  6
CONTINUOUS
 10
143.9219065625
 20
101.5646881732
 30
0.0
 11
0.0
 21
0.5
 31
0.0
 40
0.0524077793
 41
0.2617993878
 42
1.6755160819
  0
ELLIPSE
  5
351
100
AcDbEntity
  8
0
100
AcDbEllipse
 62
7
  6
CONTINUOUS
 10
144.0364751851
 20
109.4184009738
 30
0.0
 11
0.0
 21
0.5
 31
0.0
 40
0.0524077793
 41
-1.5707963268
 42
-0.2617993878
  0
ELLIPSE
  5
352
100
AcDbEntity
  8
0
100
AcDbEllipse
 62
7
  6
CONTINUOUS
 10
174.7216332003
 20
106.3020644678
 30
0.0
 11
0.0
 21
490.0
 31
0.0
 40
0.0174550649
 41
1.5366523258
 42
1.6049403278
  0
ELLIPSE
  5
353
100
AcDbEntity
  8
RACCORDO
100
AcDbEllipse
 62
7
  6
CONTINUOUS
 10
144.4637904671
 20
127.9865054445
 30
0.0
 11
0.3545231217
 21
-0.3545231217
 31
0.0
 40
0.9972646886
 41
2.3575640181
 42
3.9256212891
  0
ELLIPSE
  5
354
100
AcDbEntity
  8
RACCORDO
100
AcDbEllipse
 62
7
  6
CONTINUOUS
 10
165.7226859227
 20
127.9865054445
 30
0.0
 11
0.1582391023
 21
0.4751033573
 31
0.0
 40
0.9984778551
 41
-1.2488325878
 42
0.3210503505
  0
ELLIPSE
  5
355
100
AcDbEntity
  8
RACCORDO
100
AcDbEllipse
 62
7
  6
CONTINUOUS
 10
165.7226859227
 20
84.6176234911
 30
0.0
 11
-0.1582391024
 21
0.4751033573
 31
0.0
 40
0.9984778551
 41
-3.4626430041
 42
-1.8927600658
  0
ELLIPSE
  5
356
100
AcDbEntity
  8
RACCORDO
100
AcDbEllipse
 62
7
  6
CONTINUOUS
 10
144.4637904671
 20
84.6176234911
 30
0.0
 11
0.3545231217
 21
0.3545231217
 31
0.0
 40
0.9972646886
 41
-3.9256212891
 42
-2.3575640181
  0
ENDSEC
  0
SECTION
  2
OBJECTS
  0
DICTIONARY
  5
C
100
AcDbDictionary
280
0
281
1
  3
ACAD_GROUP
350
D
  3
ACAD_MLINESTYLE
350
17
  3
ACAD_LAYOUT
350
1A
  3
ACAD_PLOTSETTINGS
350
19
  3
ACAD_PLOTSTYLENAME
350
E
  0
DICTIONARY
  5
D
102
{ACAD_REACTORS
330
C
102
}
100
AcDbDictionary
280
0
281
1
  0
ACDBDICTIONARYWDFLT
  5
E
102
{ACAD_REACTORS
330
C
102
}
100
AcDbDictionary
281
1
  3
Normal
350
F
100
AcDbDictionaryWithDefault
340
F
  0
DICTIONARY
  5
17
102
{ACAD_REACTORS
330
C
102
}
100
AcDbDictionary
280
0
281
1
  3
Standard
350
18
  0
DICTIONARY
  5
19
102
{ACAD_REACTORS
330
C
102
}
100
AcDbDictionary
281
1
  0
DICTIONARY
  5
1A
102
{ACAD_REACTORS
330
C
102
}
100
AcDbDictionary
281
1
  3
Model
350
357
  3
Layout1
350
358
  0
ACDBPLACEHOLDER
  5
F
102
{ACAD_REACTORS
330
E
102
}
  0
MLINESTYLE
  5
18
102
{ACAD_REACTORS
330
17
102
}
100
AcDbMlineStyle
  2
STANDARD
 70
0
  3

 62
256
 51
90.0
 52
90.0
 71
2
 49
0.5
 62
256
  6
BYLAYER
 49
-0.5
 62
256
  6
BYLAYER
  0
LAYOUT
  5
357
102
{ACAD_REACTORS
330
1A
102
}
100
AcDbPlotSettings
  1

  2
none_device
  4
ISO_A4_(297.00_x_210.00_MM)
  6

 40
0.0
 41
0.0
 42
0.0
 43
0.0
 44
297.0
 45
210.0
 46
0.0
 47
0.0
 48
0.0
 49
0.0
140
0.0
141
0.0
142
1.0
143
1.0
 70
1024
 72
1
 73
0
 74
0
  7

 75
0
147
1.0
148
0.0
149
0.0
100
AcDbLayout
  1
Model
 70
0
 71
0
 10
0.0
 20
0.0
 11
297.0
 21
210.0
 12
0.0
 22
0.0
 32
0.0
 14
0.0
 24
0.0
 34
0.0
 15
0.0
 25
0.0
 35
0.0
146
0.0
 13
0.0
 23
0.0
 33
0.0
 16
1.0
 26
0.0
 36
0.0
 17
0.0
 27
1.0
 37
0.0
 76
0
330
215
345
0
346
0
  0
LAYOUT
  5
358
102
{ACAD_REACTORS
330
1A
102
}
100
AcDbPlotSettings
  1

  2
none_device
  4
ISO_A4_(297.00_x_210.00_MM)
  6

 40
0.0
 41
0.0
 42
0.0
 43
0.0
 44
297.0
 45
210.0
 46
0.0
 47
0.0
 48
0.0
 49
0.0
140
0.0
141
0.0
142
1.0
143
1.0
 70
0
 72
1
 73
0
 74
0
  7

 75
0
147
1.0
148
0.0
149
0.0
100
AcDbLayout
  1
Layout1
 70
0
 71
1
 10
0.0
 20
0.0
 11
297.0
 21
210.0
 12
0.0
 22
0.0
 32
0.0
 14
0.0
 24
0.0
 34
0.0
 15
0.0
 25
0.0
 35
0.0
146
0.0
 13
0.0
 23
0.0
 33
0.0
 16
1.0
 26
0.0
 36
0.0
 17
0.0
 27
1.0
 37
0.0
 76
0
330
216
345
0
346
0
  0
ENDSEC
  0
EOF
