  0
SECTION
  2
HEADER
  9
$ACADVER
  1
AC1021
  9
$DWGCODEPAGE
  3
ANSI_1252
  9
$EXTMAX
 10
210.0
 20
297.0
 30
0.0
  9
$EXTMIN
 10
0.0
 20
0.0
 30
0.0
  9
$LIMMIN
 10
0.0
 20
0.0
  9
$LIMMAX
 10
210.0
 20
297.0
  9
$VIEWCTR
 10
105.0
 20
148.5
  9
$VIEWSIZE
 40
297.0
  9
$CLAYER
  8
0
  9
$LTSCALE
 40
19.36
  9
$CELTYPE
  6
BYLAYER
  9
$DIMSCALE
 40
1.0
  9
$DIMASZ
 40
3.0
  9
$DIMEXO
 40
0.5
  9
$DIMDLI
 40
13.376
  9
$DIMEXE
 40
1.5
  9
$DIMCEN
 40
3.168
  9
$DIMLFAC
 40
1.0
  9
$DIMBLK
  1
_FILLED
  9
$DIMALT
 70
0
  9
$DIMALTF
 40
25.4
  9
$DIMTXT
 40
3.0
  9
$DIMTOL
 70
1
  9
$DIMLIM
 70
0
  9
$DIMTFAC
 40
1.0
  9
$DIMTP
 40
0.01
  9
$DIMTM
 40
0.01
  9
$DIMGAP
 40
0.625
  9
$DIMDSEP
 70
44
  9
$AUNITS
 70
0
  9
$PDMODE
 70
3
  9
$PDSIZE
 40
3.0
  9
$HANDSEED
  5
2CF
  9
$TILEMODE
 70
1
  9
$MEASUREMENT
 70
1
  9
$INSUNITS
 70
4
  0
ENDSEC
  0
SECTION
  2
CLASSES
  0
CLASS
  1
ACDBDICTIONARYWDFLT
  2
AcDbDictionaryWithDefault
  3
AutoCAD 2000
 90
0
 91
1
280
0
281
0
  0
CLASS
  1
ACDBPLACEHOLDER
  2
AcDbPlaceHolder
  3
AutoCAD 2000
 90
0
 91
1
280
0
281
0
  0
CLASS
  1
LAYOUT
  2
AcDbLayout
  3
AutoCAD 2000
 90
0
 91
0
280
0
281
0
  0
ENDSEC
  0
SECTION
  2
TABLES
  0
TABLE
  2
VPORT
  5
8
100
AcDbSymbolTable
 70
2
  0
VPORT
  5
1F4
100
AcDbSymbolTableRecord
100
AcDbViewportTableRecord
  2
*ACTIVE
 70
0
 10
0.0
 20
0.0
 11
1.0
 21
1.0
 12
105.0
 22
148.5
 13
0.0
 23
0.0
 14
1.0
 24
1.0
 15
0.0
 25
0.0
 16
0.0
 26
0.0
 36
1.0
 17
0.0
 27
0.0
 37
0.0
 40
297.0
 41
0.7070707071
 42
50.0
 43
0.0
 44
0.0
 50
0.0
 51
0.0
 71
0
 72
100
 73
1
 74
1
 75
0
 76
0
 77
0
 78
0
  0
ENDTAB
  0
TABLE
  2
LTYPE
  5
5
100
AcDbSymbolTable
 70
6
  0
LTYPE
  5
14
100
AcDbSymbolTableRecord
100
AcDbLinetypeTableRecord
  2
BYBLOCK
 70
0
  3

 72
65
 73
0
 40
0.0
  0
LTYPE
  5
15
100
AcDbSymbolTableRecord
100
AcDbLinetypeTableRecord
  2
BYLAYER
 70
0
  3

 72
65
 73
0
 40
0.0
  0
LTYPE
  5
16
100
AcDbSymbolTableRecord
100
AcDbLinetypeTableRecord
  2
CONTINUOUS
 70
64
  3
Solid line
 72
65
 73
0
 40
0.0
  0
LTYPE
  5
1F5
100
AcDbSymbolTableRecord
100
AcDbLinetypeTableRecord
  2
CENTER
 70
64
  3
____ _ ____ _ ____ _ ____ _ ____ _ ____ _ ____
 72
65
 73
4
 40
0.6
 49
0.375
 74
0
 49
-0.075
 74
0
 49
0.075
 74
0
 49
-0.075
 74
0
  0
LTYPE
  5
1F6
100
AcDbSymbolTableRecord
100
AcDbLinetypeTableRecord
  2
HIDDEN
 70
64
  3
- - - - - - - - - - - - - - - - - - - -
 72
65
 73
2
 40
0.2
 49
0.1
 74
0
 49
-0.1
 74
0
  0
LTYPE
  5
1F7
100
AcDbSymbolTableRecord
100
AcDbLinetypeTableRecord
  2
PHANTOM
 70
64
  3
_____ _ _ _____ _ _ _____ _ _ _____
 72
65
 73
6
 40
0.8
 49
0.45
 74
0
 49
-0.05
 74
0
 49
0.1
 74
0
 49
-0.05
 74
0
 49
0.1
 74
0
 49
-0.05
 74
0
  0
LTYPE
  5
1F8
100
AcDbSymbolTableRecord
100
AcDbLinetypeTableRecord
  2
DOT
 70
64
  3
. . . . . . . . . . . . . . . . . . . .
 72
65
 73
2
 40
0.2
 49
0.1
 74
0
 49
-0.1
 74
0
  0
LTYPE
  5
1F9
100
AcDbSymbolTableRecord
100
AcDbLinetypeTableRecord
  2
DASHED
 70
64
  3
- - - - - - - - - - - - - - - - - - - -
 72
65
 73
2
 40
0.2
 49
0.1
 74
0
 49
-0.1
 74
0
  0
ENDTAB
  0
TABLE
  2
LAYER
  5
2
100
AcDbSymbolTable
 70
36
  0
LAYER
  5
10
100
AcDbSymbolTableRecord
100
AcDbLayerTableRecord
  2
0
 70
0
 62
7
  6
CONTINUOUS
370
-3
390
F
  0
LAYER
  5
1FA
100
AcDbSymbolTableRecord
100
AcDbLayerTableRecord
  2
DEFAULT_1
 70
0
 62
7
  6
CENTER
370
-3
390
F
  0
LAYER
  5
1FB
100
AcDbSymbolTableRecord
100
AcDbLayerTableRecord
  2
DEFAULT_2
 70
0
 62
7
  6
HIDDEN
370
-3
390
F
  0
LAYER
  5
1FC
100
AcDbSymbolTableRecord
100
AcDbLayerTableRecord
  2
DEFAULT_3
 70
0
 62
7
  6
PHANTOM
370
-3
390
F
  0
LAYER
  5
1FD
100
AcDbSymbolTableRecord
100
AcDbLayerTableRecord
  2
ASSI
 70
0
 62
7
  6
CONTINUOUS
370
-3
390
F
  0
LAYER
  5
1FE
100
AcDbSymbolTableRecord
100
AcDbLayerTableRecord
  2
COORDINATE
 70
0
 62
7
  6
CONTINUOUS
370
-3
390
F
  0
LAYER
  5
1FF
100
AcDbSymbolTableRecord
100
AcDbLayerTableRecord
  2
COORD_ORIGINE
 70
0
 62
7
  6
CONTINUOUS
370
-3
390
F
  0
LAYER
  5
200
100
AcDbSymbolTableRecord
100
AcDbLayerTableRecord
  2
COSMETICI
 70
0
 62
7
  6
CONTINUOUS
370
-3
390
F
  0
LAYER
  5
201
100
AcDbSymbolTableRecord
100
AcDbLayerTableRecord
  2
CURVE
 70
0
 62
7
  6
CONTINUOUS
370
-3
390
F
  0
LAYER
  5
202
100
AcDbSymbolTableRecord
100
AcDbLayerTableRecord
  2
CURVE_LED_TASTO
 70
0
 62
7
  6
CONTINUOUS
370
-3
390
F
  0
LAYER
  5
203
100
AcDbSymbolTableRecord
100
AcDbLayerTableRecord
  2
DRAFT
 70
0
 62
7
  6
CONTINUOUS
370
-3
390
F
  0
LAYER
  5
204
100
AcDbSymbolTableRecord
100
AcDbLayerTableRecord
  2
IGES_SCRITTE
 70
0
 62
7
  6
CONTINUOUS
370
-3
390
F
  0
LAYER
  5
205
100
AcDbSymbolTableRecord
100
AcDbLayerTableRecord
  2
INTF_1
 70
0
 62
7
  6
CONTINUOUS
370
-3
390
F
  0
LAYER
  5
206
100
AcDbSymbolTableRecord
100
AcDbLayerTableRecord
  2
INTF_11
 70
0
 62
7
  6
CONTINUOUS
370
-3
390
F
  0
LAYER
  5
207
100
AcDbSymbolTableRecord
100
AcDbLayerTableRecord
  2
NOTE
 70
0
 62
7
  6
CONTINUOUS
370
-3
390
F
  0
LAYER
  5
208
100
AcDbSymbolTableRecord
100
AcDbLayerTableRecord
  2
PIANI
 70
0
 62
7
  6
CONTINUOUS
370
-3
390
F
  0
LAYER
  5
209
100
AcDbSymbolTableRecord
100
AcDbLayerTableRecord
  2
PIANI_ORIGINE
 70
0
 62
7
  6
CONTINUOUS
370
-3
390
F
  0
LAYER
  5
20A
100
AcDbSymbolTableRecord
100
AcDbLayerTableRecord
  2
PIANI_RIFERIMENTO
 70
0
 62
7
  6
CONTINUOUS
370
-3
390
F
  0
LAYER
  5
20B
100
AcDbSymbolTableRecord
100
AcDbLayerTableRecord
  2
PUNTI
 70
0
 62
7
  6
CONTINUOUS
370
-3
390
F
  0
LAYER
  5
20C
100
AcDbSymbolTableRecord
100
AcDbLayerTableRecord
  2
RACCORDO
 70
0
 62
7
  6
CONTINUOUS
370
-3
390
F
  0
LAYER
  5
20D
100
AcDbSymbolTableRecord
100
AcDbLayerTableRecord
  2
RGB____0____0____0__
 70
0
 62
7
  6
CONTINUOUS
370
-3
390
F
  0
LAYER
  5
20E
100
AcDbSymbolTableRecord
100
AcDbLayerTableRecord
  2
SIMBOLI
 70
0
 62
7
  6
CONTINUOUS
370
-3
390
F
  0
LAYER
  5
20F
100
AcDbSymbolTableRecord
100
AcDbLayerTableRecord
  2
SMUSSO
 70
0
 62
7
  6
CONTINUOUS
370
-3
390
F
  0
LAYER
  5
210
100
AcDbSymbolTableRecord
100
AcDbLayerTableRecord
  2
SUPERFICI
 70
0
 62
7
  6
CONTINUOUS
370
-3
390
F
  0
LAYER
  5
211
100
AcDbSymbolTableRecord
100
AcDbLayerTableRecord
  2
TRASH
 70
0
 62
7
  6
CONTINUOUS
370
-3
390
F
  0
ENDTAB
  0
TABLE
  2
STYLE
  5
3
100
AcDbSymbolTable
 70
1
  0
STYLE
  5
11
100
AcDbSymbolTableRecord
100
AcDbTextStyleTableRecord
  2
STANDARD
 70
0
 40
0.0
 41
0.8
 50
0.0
 71
0
 42
0.2
  3
txt
  4

  0
STYLE
  5
212
100
AcDbSymbolTableRecord
100
AcDbTextStyleTableRecord
  2
TEXTSTYLE_1
 70
0
 40
0.0
 41
0.8
 50
0.0
 71
0
 42
0.2
  3
gdt
  4

  0
ENDTAB
  0
TABLE
  2
VIEW
  5
6
100
AcDbSymbolTable
 70
0
  0
ENDTAB
  0
TABLE
  2
UCS
  5
7
100
AcDbSymbolTable
 70
0
  0
ENDTAB
  0
TABLE
  2
APPID
  5
9
100
AcDbSymbolTable
 70
1
  0
APPID
  5
213
100
AcDbSymbolTableRecord
100
AcDbRegAppTableRecord
  2
ACAD
 70
0
  0
ENDTAB
  0
TABLE
  2
BLOCK_RECORD
  5
1
100
AcDbSymbolTable
 70
0
  0
BLOCK_RECORD
  5
214
100
AcDbSymbolTableRecord
100
AcDbBlockTableRecord
  2
*Model_Space
  0
BLOCK_RECORD
  5
215
100
AcDbSymbolTableRecord
100
AcDbBlockTableRecord
  2
*Paper_Space
  0
BLOCK_RECORD
  5
216
100
AcDbSymbolTableRecord
100
AcDbBlockTableRecord
  2
_FILLED
  0
BLOCK_RECORD
  5
217
100
AcDbSymbolTableRecord
100
AcDbBlockTableRecord
  2
*D0
  0
BLOCK_RECORD
  5
218
100
AcDbSymbolTableRecord
100
AcDbBlockTableRecord
  2
*D1
  0
BLOCK_RECORD
  5
219
100
AcDbSymbolTableRecord
100
AcDbBlockTableRecord
  2
*D2
  0
ENDTAB
  0
TABLE
  2
DIMSTYLE
  5
A
100
AcDbSymbolTable
 70
1
100
AcDbDimStyleTable
 71
0
  0
DIMSTYLE
105
21A
100
AcDbSymbolTableRecord
100
AcDbDimStyleTableRecord
  2
STANDARD
 70
0
  3

  4

 40
1.0
 41
3.0
 42
0.5
 43
0.38
 44
1.5
 45
0.0
 46
0.0
 47
0.01
 48
0.01
140
3.0
141
0.09
142
0.0
143
25.4
144
1.0
145
0.0
146
1.0
147
0.625
 71
1.0
 72
0.0
 73
0
 74
0
 75
0
 76
0
 77
1
 78
8
170
0
171
1
172
0
173
0
174
0
175
0
176
0
177
0
178
0
270
2
271
2
272
2
273
2
274
2
275
0
280
0
281
0
282
0
283
1
284
8
285
0
286
0
287
3
288
0
340
11
278
44
341
216
342
216
343
216
344
216
  0
DIMSTYLE
105
21B
100
AcDbSymbolTableRecord
100
AcDbDimStyleTableRecord
  2
DIMSTYLE_1
 70
0
  3

  4

 40
1.0
 41
3.0
 42
0.5
 43
0.38
 44
1.5
 45
0.0
 46
0.0
 47
0.0
 48
0.0
140
3.0
141
0.09
142
0.0
143
25.4
144
1.0
145
0.0
146
1.0
147
0.75
 71
0.0
 72
0.0
 73
0
 74
0
 75
0
 76
0
 77
1
 78
8
170
0
171
1
172
0
173
0
174
0
175
0
176
0
177
0
178
0
270
2
271
1
272
1
273
2
274
2
275
0
280
0
281
0
282
0
283
1
284
8
285
0
286
0
287
3
288
0
340
11
278
44
341
216
342
216
343
216
344
216
  0
DIMSTYLE
105
21C
100
AcDbSymbolTableRecord
100
AcDbDimStyleTableRecord
  2
DIMSTYLE_2
 70
0
  3

  4

 40
1.0
 41
3.0
 42
0.5
 43
0.38
 44
1.5
 45
0.0
 46
0.0
 47
0.0
 48
0.0
140
3.0
141
0.09
142
0.0
143
25.4
144
1.0
145
0.0
146
1.0
147
0.75
 71
0.0
 72
0.0
 73
0
 74
0
 75
0
 76
0
 77
1
 78
8
170
0
171
1
172
0
173
0
174
0
175
0
176
0
177
0
178
0
270
2
271
2
272
2
273
2
274
2
275
0
280
0
281
0
282
0
283
1
284
8
285
0
286
0
287
3
288
0
340
11
278
44
341
216
342
216
343
216
344
216
  0
ENDTAB
  0
ENDSEC
  0
SECTION
  2
BLOCKS
  0
BLOCK
  5
20
100
AcDbEntity
  8
0
100
AcDbBlockBegin
  2
*Model_Space
 70
0
 10
0.0
 20
0.0
 30
0.0
  3
*Model_Space
  1

  0
ENDBLK
  5
21
100
AcDbEntity
  8
0
100
AcDbBlockEnd
  0
BLOCK
  5
1C
100
AcDbEntity
  8
0
100
AcDbBlockBegin
  2
*Paper_Space
 70
0
 10
0.0
 20
0.0
 30
0.0
  3
*Paper_Space
  1

  0
ENDBLK
  5
1D
100
AcDbEntity
  8
0
100
AcDbBlockEnd
  0
BLOCK
  5
21D
100
AcDbEntity
  8
0
100
AcDbBlockBegin
  2
_FILLED
 70
64
 10
0.0
 20
0.0
  3
_FILLED
  1

  0
SOLID
  5
21E
100
AcDbEntity
  8
0
  6
BYBLOCK
 62
0
100
AcDbTrace
 10
0.0
 20
0.0
 11
-1.0
 21
0.3166666667
 12
-1.0
 22
-0.3166666667
 13
-1.0
 23
-0.3166666667
  0
ENDBLK
  5
21F
100
AcDbEntity
  8
0
  6
BYBLOCK
 62
0
100
AcDbBlockEnd
  0
BLOCK
  5
220
100
AcDbEntity
  8
0
100
AcDbBlockBegin
 62
7
  6
CONTINUOUS
  2
*D0
 70
65
 10
0.0
 20
0.0
  3
*D0
  1

  0
MTEXT
  5
221
100
AcDbEntity
  8
0
100
AcDbMText
 62
7
  6
CONTINUOUS
  7
STANDARD
 71
2
 72
1
 10
0.0
 20
35.9188675039
 30
0.0
 11
1.0
 21
0.0
 31
0.0
 44
0.9
  1
44,5
 40
3.0
 41
12.8571428571
  0
LINE
  5
222
100
AcDbEntity
  8
0
100
AcDbLine
 62
7
  6
CONTINUOUS
 10
22.25
 20
8.0
 11
22.25
 21
33.6688675039
  0
LINE
  5
223
100
AcDbEntity
  8
0
100
AcDbLine
 62
7
  6
CONTINUOUS
 10
-22.25
 20
8.0
 11
-22.25
 21
33.6688675039
  0
LINE
  5
224
100
AcDbEntity
  8
0
100
AcDbLine
 62
7
  6
CONTINUOUS
 10
22.25
 20
32.1688675039
 11
0.0
 21
32.1688675039
  0
LINE
  5
225
100
AcDbEntity
  8
0
100
AcDbLine
 62
7
  6
CONTINUOUS
 10
-22.25
 20
32.1688675039
 11
0.0
 21
32.1688675039
  0
INSERT
  5
226
100
AcDbEntity
  8
0
100
AcDbBlockReference
 62
7
  6
CONTINUOUS
  2
_FILLED
 10
22.25
 20
32.1688675039
 41
3.0
 42
3.0
 43
3.0
  0
INSERT
  5
227
100
AcDbEntity
  8
0
100
AcDbBlockReference
 62
7
  6
CONTINUOUS
  2
_FILLED
 10
-22.25
 20
32.1688675039
 41
3.0
 42
3.0
 43
3.0
 50
180.0
  0
ENDBLK
  5
228
100
AcDbEntity
  8
0
  6
BYBLOCK
 62
0
100
AcDbBlockEnd
  0
BLOCK
  5
229
100
AcDbEntity
  8
0
100
AcDbBlockBegin
 62
7
  6
CONTINUOUS
  2
*D1
 70
65
 10
0.0
 20
0.0
  3
*D1
  1

  0
MTEXT
  5
22A
100
AcDbEntity
  8
0
100
AcDbMText
 62
7
  6
CONTINUOUS
  7
STANDARD
 71
2
 72
1
 10
-36.2572597565
 20
0.0
 30
0.0
 11
0.0
 21
1.0
 31
0.0
 44
0.9
  1
44,4
 40
3.0
 41
13.1785714286
  0
LINE
  5
22B
100
AcDbEntity
  8
0
100
AcDbLine
 62
7
  6
CONTINUOUS
 10
-22.2264390534
 20
22.1781169517
 11
-34.0072597565
 21
22.1781169517
  0
LINE
  5
22C
100
AcDbEntity
  8
0
100
AcDbLine
 62
7
  6
CONTINUOUS
 10
-22.2264390534
 20
-22.1781169517
 11
-34.0072597565
 21
-22.1781169517
  0
LINE
  5
22D
100
AcDbEntity
  8
0
100
AcDbLine
 62
7
  6
CONTINUOUS
 10
-32.5072597565
 20
22.1781169517
 11
-32.5072597565
 21
-0.0
  0
LINE
  5
22E
100
AcDbEntity
  8
0
100
AcDbLine
 62
7
  6
CONTINUOUS
 10
-32.5072597565
 20
-22.1781169517
 11
-32.5072597565
 21
-0.0
  0
INSERT
  5
22F
100
AcDbEntity
  8
0
100
AcDbBlockReference
 62
7
  6
CONTINUOUS
  2
_FILLED
 10
-32.5072597565
 20
22.1781169517
 41
3.0
 42
3.0
 43
3.0
 50
90.0
  0
INSERT
  5
230
100
AcDbEntity
  8
0
100
AcDbBlockReference
 62
7
  6
CONTINUOUS
  2
_FILLED
 10
-32.5072597565
 20
-22.1781169517
 41
3.0
 42
3.0
 43
3.0
 50
270.0
  0
ENDBLK
  5
231
100
AcDbEntity
  8
0
  6
BYBLOCK
 62
0
100
AcDbBlockEnd
  0
BLOCK
  5
232
100
AcDbEntity
  8
0
100
AcDbBlockBegin
 62
7
  6
CONTINUOUS
  2
*D2
 70
65
 10
0.0
 20
0.0
  3
*D2
  1

  0
MTEXT
  5
233
100
AcDbEntity
  8
0
100
AcDbMText
 62
7
  6
CONTINUOUS
  7
STANDARD
 71
1
 72
1
 10
56.4982806933
 20
35.9046611378
 30
0.0
 11
1.0
 21
0.0
 31
0.0
 44
0.9
  1
6,7
 40
3.0
 41
9.6428571429
  0
LINE
  5
234
100
AcDbEntity
  8
0
100
AcDbLine
 62
7
  6
CONTINUOUS
 10
45.0834178722
 20
8.0
 11
45.0834178722
 21
33.6546611378
  0
LINE
  5
235
100
AcDbEntity
  8
0
100
AcDbLine
 62
7
  6
CONTINUOUS
 10
51.7834346178
 20
0.5
 11
51.7834346178
 21
33.6546611378
  0
LINE
  5
236
100
AcDbEntity
  8
0
100
AcDbLine
 62
7
  6
CONTINUOUS
 10
45.0834178722
 20
32.1546611378
 11
41.0834178722
 21
32.1546611378
  0
LINE
  5
237
100
AcDbEntity
  8
0
100
AcDbLine
 62
7
  6
CONTINUOUS
 10
41.0834178722
 20
32.1546611378
 11
48.433426245
 21
32.1546611378
  0
LINE
  5
238
100
AcDbEntity
  8
0
100
AcDbLine
 62
7
  6
CONTINUOUS
 10
51.7834346178
 20
32.1546611378
 11
62.9268521218
 21
32.1546611378
  0
LINE
  5
239
100
AcDbEntity
  8
0
100
AcDbLine
 62
7
  6
CONTINUOUS
 10
62.9268521218
 20
32.1546611378
 11
48.433426245
 21
32.1546611378
  0
INSERT
  5
23A
100
AcDbEntity
  8
0
100
AcDbBlockReference
 62
7
  6
CONTINUOUS
  2
_FILLED
 10
45.0834178722
 20
32.1546611378
 41
3.0
 42
3.0
 43
3.0
  0
INSERT
  5
23B
100
AcDbEntity
  8
0
100
AcDbBlockReference
 62
7
  6
CONTINUOUS
  2
_FILLED
 10
51.7834346178
 20
32.1546611378
 41
3.0
 42
3.0
 43
3.0
 50
180.0
  0
ENDBLK
  5
23C
100
AcDbEntity
  8
0
  6
BYBLOCK
 62
0
100
AcDbBlockEnd
  0
ENDSEC
  0
SECTION
  2
ENTITIES
  0
DIMENSION
  5
23D
100
AcDbEntity
  8
0
100
AcDbDimension
 62
7
  6
CONTINUOUS
  2
*D0
 10
-22.25
 20
32.1688675039
 11
-0.4285708008
 21
32.1688675039
 70
160
 71
2
 42
44.5
  3
DIMSTYLE_1
100
AcDbAlignedDimension
 13
22.25
 23
7.5
 14
-22.25
 24
7.5
 50
180.0
100
AcDbRotatedDimension
  0
DIMENSION
  5
23E
100
AcDbEntity
  8
0
100
AcDbDimension
 62
7
  6
CONTINUOUS
  2
*D1
 10
-32.5072597565
 20
-22.1781169517
 11
-32.5072597565
 21
-0.4285710192
 70
160
 71
2
 42
44.3562339034
  3
DIMSTYLE_1
100
AcDbAlignedDimension
 13
-21.7264390534
 23
22.1781169517
 14
-21.7264390534
 24
-22.1781169517
 50
270.0
100
AcDbRotatedDimension
  0
DIMENSION
  5
23F
100
AcDbEntity
  8
0
100
AcDbDimension
 62
7
  6
CONTINUOUS
  2
*D2
 10
51.7834346178
 20
32.1546611378
 11
59.2839946289
 21
32.1546611378
 70
160
 71
1
 42
6.7000167456
  3
DIMSTYLE_2
100
AcDbAlignedDimension
 13
45.0834178722
 23
7.5
 14
51.7834346178
 24
-0.0
100
AcDbRotatedDimension
  0
LWPOLYLINE
  5
240
100
AcDbEntity
  8
RACCORDO
100
AcDbPolyline
 62
253
  6
CONTINUOUS
 90
16
 70
0
 10
-22.1575109975
 20
20.8374001219
 10
-22.1540651629
 20
20.8395447469
 10
-22.1455286539
 20
20.841667377
 10
-22.1319890003
 20
20.8437462475
 10
-22.1135850319
 20
20.8457600427
 10
-22.0905054553
 20
20.8476881139
 10
-22.0629869187
 20
20.8495106915
 10
-22.0313115857
 20
20.8512090876
 10
-21.9958042418
 20
20.8527658875
 10
-21.9568289642
 20
20.8541651286
 10
-21.9147853891
 20
20.8553924634
 10
-21.8701046137
 20
20.8564353074
 10
-21.8232447756
 20
20.857282968
 10
-21.7746863561
 20
20.8579267536
 10
-21.7249272527
 20
20.858360063
 10
-21.6744776742
 20
20.8585784533
  0
LWPOLYLINE
  5
241
100
AcDbEntity
  8
RACCORDO
100
AcDbPolyline
 62
253
  6
CONTINUOUS
 90
16
 70
0
 10
-22.1575109976
 20
-20.8374001219
 10
-22.1540662233
 20
-20.8395448065
 10
-22.1455306208
 20
-20.8416674997
 10
-22.131991713
 20
-20.8437464358
 10
-22.1135883261
 20
-20.8457602976
 10
-22.0905091659
 20
-20.8476884354
 10
-22.0629908828
 20
-20.8495110781
 10
-22.0313156456
 20
-20.8512095368
 10
-21.9958082477
 20
-20.8527663956
 10
-21.9568327773
 20
-20.8541656908
 10
-21.9147888833
 20
-20.855393074
 10
-21.8701076781
 20
-20.8564359601
 10
-21.8232473166
 20
-20.8572836553
 10
-21.7746882985
 20
-20.8579274677
 10
-21.7249285413
 20
-20.8583607956
 10
-21.6744782748
 20
-20.8585791958
  0
LWPOLYLINE
  5
242
100
AcDbEntity
  8
RACCORDO
100
AcDbPolyline
 62
253
  6
CONTINUOUS
 90
16
 70
0
 10
-22.169092995
 20
-21.5068527469
 10
-22.1663099113
 20
-21.5590144471
 10
-22.1580864969
 20
-21.6106054408
 10
-22.1445127081
 20
-21.6610611499
 10
-22.1257370518
 20
-21.7098294171
 10
-22.1019649643
 20
-21.7563765394
 10
-22.0734565673
 20
-21.8001931099
 10
-22.0405238116
 20
-21.8407996105
 10
-22.0035270725
 20
-21.8777516425
 10
-21.9628712178
 20
-21.9106447869
 10
-21.9190011483
 20
-21.9391190574
 10
-21.8723969475
 20
-21.9628628205
 10
-21.8235686488
 20
-21.9816162022
 10
-21.7730506143
 20
-21.9951739545
 10
-21.7213956831
 20
-22.0033876937
 10
-21.6691691474
 20
-22.0061675144
  0
LWPOLYLINE
  5
243
100
AcDbEntity
  8
RACCORDO
100
AcDbPolyline
 62
253
  6
CONTINUOUS
 90
16
 70
0
 10
-22.169092995
 20
21.5068527469
 10
-22.1663098383
 20
21.5590151359
 10
-22.1580862309
 20
21.6106066867
 10
-22.1445121678
 20
21.661062808
 10
-22.1257361965
 20
21.7098313341
 10
-22.1019637914
 20
21.7563785675
 10
-22.0734551056
 20
21.8001951194
 10
-22.0405221232
 20
21.840801484
 10
-22.0035252459
 20
21.8777532863
 10
-21.9628693484
 20
21.9106461449
 10
-21.9189993477
 20
21.9391200973
 10
-21.8723953345
 20
21.9628635394
 10
-21.8235673189
 20
21.9816166351
 10
-21.7730496496
 20
21.9951741603
 10
-21.7213951658
 20
22.0033877485
 10
-21.6691691474
 20
22.0061675143
  0
LWPOLYLINE
  5
244
100
AcDbEntity
  8
RACCORDO
100
AcDbPolyline
 62
253
  6
CONTINUOUS
 90
3
 70
0
 10
-21.6691691474
 20
-22.0061554355
 10
-21.6695215599
 20
-21.9987723731
 10
-21.6698568618
 20
-21.9855164094
  0
LWPOLYLINE
  5
245
100
AcDbEntity
  8
RACCORDO
100
AcDbPolyline
 62
253
  6
CONTINUOUS
 90
8
 70
0
 10
-22.1634012312
 20
21.4066858513
 10
-22.1641519228
 20
21.4306888456
 10
-22.164930731
 20
21.4515620366
 10
-22.1657369638
 20
21.4693548672
 10
-22.1665576079
 20
21.483806443
 10
-22.1673883256
 20
21.4948297992
 10
-22.1682334546
 20
21.5025119005
 10
-22.169092995
 20
21.5068527469
  0
LINE
  5
246
100
AcDbEntity
  8
RACCORDO
100
AcDbLine
 62
253
  6
CONTINUOUS
 10
-22.1619930586
 20
21.3498480053
 11
-22.1634012312
 21
21.4066858513
  0
LINE
  5
247
100
AcDbEntity
  8
RACCORDO
100
AcDbLine
 62
253
  6
CONTINUOUS
 10
-22.160739745
 20
21.2822550783
 11
-22.1619930586
 21
21.3498480053
  0
LINE
  5
248
100
AcDbEntity
  8
RACCORDO
100
AcDbLine
 62
253
  6
CONTINUOUS
 10
-21.6698568618
 20
-21.9855164094
 11
-21.6705161335
 21
-21.9416261893
  0
LINE
  5
249
100
AcDbEntity
  8
RACCORDO
100
AcDbLine
 62
253
  6
CONTINUOUS
 10
-22.1592017046
 20
21.163851262
 11
-22.160739745
 21
21.2822550783
  0
LINE
  5
24A
100
AcDbEntity
  8
RACCORDO
100
AcDbLine
 62
253
  6
CONTINUOUS
 10
-21.6705161335
 20
-21.9416261893
 11
-21.6718102349
 21
-21.7880394292
  0
LINE
  5
24B
100
AcDbEntity
  8
RACCORDO
100
AcDbLine
 62
253
  6
CONTINUOUS
 10
-22.1578877
 20
20.9825840335
 11
-22.1592017046
 21
21.163851262
  0
LINE
  5
24C
100
AcDbEntity
  8
DRAFT
100
AcDbLine
 62
7
  6
CONTINUOUS
 10
-22.25
 20
-7.5
 11
-22.2260584537
 21
-20.55
  0
LINE
  5
24D
100
AcDbEntity
  8
RACCORDO
100
AcDbLine
 62
253
  6
CONTINUOUS
 10
-21.6718102349
 20
-21.7880394292
 11
-21.6742770072
 21
-21.0260981648
  0
LINE
  5
24E
100
AcDbEntity
  8
RACCORDO
100
AcDbLine
 62
253
  6
CONTINUOUS
 10
-22.1521762065
 20
11.5783591623
 11
-22.1578877
 21
20.9825840335
  0
LINE
  5
24F
100
AcDbEntity
  8
0
100
AcDbLine
 62
7
  6
CONTINUOUS
 10
-22.25
 20
-7.5
 11
-22.25
 21
-4.5524931981
  0
LINE
  5
250
100
AcDbEntity
  8
0
100
AcDbLine
 62
7
  6
CONTINUOUS
 10
-22.25
 20
4.5524931981
 11
-22.25
 21
7.5
  0
LINE
  5
251
100
AcDbEntity
  8
0
100
AcDbLine
 62
7
  6
CONTINUOUS
 10
-22.239526961
 20
-4.041834413
 11
-22.239526961
 21
4.041834413
  0
LINE
  5
252
100
AcDbEntity
  8
RACCORDO
100
AcDbLine
 62
7
  6
CONTINUOUS
 10
-22.2260584537
 20
21.6778880996
 11
-22.2260584537
 21
20.55
  0
LINE
  5
253
100
AcDbEntity
  8
RACCORDO
100
AcDbLine
 62
7
  6
CONTINUOUS
 10
-22.2260584537
 20
-20.55
 11
-22.2260584537
 21
-21.6778880996
  0
LINE
  5
254
100
AcDbEntity
  8
RACCORDO
100
AcDbLine
 62
253
  6
CONTINUOUS
 10
-22.1498898681
 20
-2.3161697497
 11
-22.1521762065
 21
11.5783591623
  0
LINE
  5
255
100
AcDbEntity
  8
RACCORDO
100
AcDbLine
 62
253
  6
CONTINUOUS
 10
-21.6742770072
 20
-21.0260981648
 11
-21.6744782748
 21
20.8585791938
  0
LINE
  5
256
100
AcDbEntity
  8
RACCORDO
100
AcDbLine
 62
253
  6
CONTINUOUS
 10
-22.154462546
 20
-16.2082190743
 11
-22.1498898681
 21
-2.3161697497
  0
LINE
  5
257
100
AcDbEntity
  8
DRAFT
100
AcDbLine
 62
7
  6
CONTINUOUS
 10
-22.2260584537
 20
20.55
 11
-22.25
 21
7.5
  0
LINE
  5
258
100
AcDbEntity
  8
RACCORDO
100
AcDbLine
 62
253
  6
CONTINUOUS
 10
-22.1578877
 20
-20.9825840335
 11
-22.154462546
 21
-16.2082190743
  0
LINE
  5
259
100
AcDbEntity
  8
RACCORDO
100
AcDbLine
 62
253
  6
CONTINUOUS
 10
-21.6744776742
 20
20.8585784533
 11
-21.6721088464
 21
21.7370075756
  0
LINE
  5
25A
100
AcDbEntity
  8
RACCORDO
100
AcDbLine
 62
253
  6
CONTINUOUS
 10
-21.6721088464
 20
21.7370075756
 11
-21.6708539859
 21
21.9112291245
  0
LINE
  5
25B
100
AcDbEntity
  8
RACCORDO
100
AcDbLine
 62
253
  6
CONTINUOUS
 10
-22.1592017046
 20
-21.163851262
 11
-22.1578877
 21
-20.9825840335
  0
LWPOLYLINE
  5
25C
100
AcDbEntity
  8
RACCORDO
100
AcDbPolyline
 62
253
  6
CONTINUOUS
 90
5
 70
0
 10
-21.6708539859
 20
21.9112291245
 10
-21.670183181
 20
21.9664346188
 10
-21.6698568618
 20
21.9855164078
 10
-21.66952156
 20
21.998772373
 10
-21.6691691474
 20
22.0061554363
  0
LINE
  5
25D
100
AcDbEntity
  8
RACCORDO
100
AcDbLine
 62
253
  6
CONTINUOUS
 10
-22.160739745
 20
-21.2822550783
 11
-22.1592017046
 21
-21.163851262
  0
LINE
  5
25E
100
AcDbEntity
  8
RACCORDO
100
AcDbLine
 62
253
  6
CONTINUOUS
 10
-22.1619930586
 20
-21.3498480053
 11
-22.160739745
 21
-21.2822550783
  0
LINE
  5
25F
100
AcDbEntity
  8
0
100
AcDbLine
 62
7
  6
CONTINUOUS
 10
-22.25
 20
-4.5524931981
 11
-22.2474938389
 21
-4.539931762
  0
LINE
  5
260
100
AcDbEntity
  8
RACCORDO
100
AcDbLine
 62
253
  6
CONTINUOUS
 10
-13.0019142257
 20
-21.9938251464
 11
-21.6691691474
 21
-22.0061675143
  0
LINE
  5
261
100
AcDbEntity
  8
RACCORDO
100
AcDbLine
 62
253
  6
CONTINUOUS
 10
-4.3340690368
 20
-21.9876528356
 11
-13.0019142257
 21
-21.9938251464
  0
LINE
  5
262
100
AcDbEntity
  8
RACCORDO
100
AcDbLine
 62
7
  6
CONTINUOUS
 10
-21.7264390534
 20
-22.1781169517
 11
21.7264390534
 21
-22.1781169517
  0
LINE
  5
263
100
AcDbEntity
  8
RACCORDO
100
AcDbLine
 62
253
  6
CONTINUOUS
 10
4.3339792996
 20
-21.9876528034
 11
-4.3340690368
 21
-21.9876528356
  0
LWPOLYLINE
  5
264
100
AcDbEntity
  8
RACCORDO
100
AcDbPolyline
 62
253
  6
CONTINUOUS
 90
3
 70
0
 10
21.6744782654
 20
-20.858579195
 10
18.7848156384
 20
-20.8567141524
 10
-21.6744782643
 20
-20.8585791951
  0
LINE
  5
265
100
AcDbEntity
  8
RACCORDO
100
AcDbLine
 62
253
  6
CONTINUOUS
 10
13.0018541747
 20
-21.9938250823
 11
4.3339792996
 21
-21.9876528034
  0
LINE
  5
266
100
AcDbEntity
  8
RACCORDO
100
AcDbLine
 62
253
  6
CONTINUOUS
 10
21.6691691474
 20
-22.0061675142
 11
13.0018541747
 21
-21.9938250823
  0
LINE
  5
267
100
AcDbEntity
  8
0
100
AcDbLine
 62
7
  6
CONTINUOUS
 10
-22.25
 20
4.5524931981
 11
-22.2474938389
 21
4.539931762
  0
LWPOLYLINE
  5
268
100
AcDbEntity
  8
RACCORDO
100
AcDbPolyline
 62
253
  6
CONTINUOUS
 90
9
 70
0
 10
-22.169092995
 20
-21.5068527469
 10
-22.1682334546
 20
-21.5025119004
 10
-22.1673883256
 20
-21.4948297991
 10
-22.1665576079
 20
-21.483806443
 10
-22.1657369638
 20
-21.4693548672
 10
-22.164930731
 20
-21.4515620366
 10
-22.1641519228
 20
-21.4306888456
 10
-22.1634012312
 20
-21.4066858514
 10
-22.1619930586
 20
-21.3498480053
  0
LINE
  5
269
100
AcDbEntity
  8
RACCORDO
100
AcDbLine
 62
253
  6
CONTINUOUS
 10
-22.2260584537
 20
-21.6778880996
 11
-22.169092995
 21
-21.5068527469
  0
LINE
  5
26A
100
AcDbEntity
  8
RACCORDO
100
AcDbLine
 62
253
  6
CONTINUOUS
 10
-21.7264390534
 20
-22.1781169517
 11
-21.6691691474
 21
-22.0061675143
  0
LINE
  5
26B
100
AcDbEntity
  8
RACCORDO
100
AcDbLine
 62
253
  6
CONTINUOUS
 10
-22.169092995
 20
21.5068527469
 11
-22.2260584537
 21
21.6778880996
  0
LINE
  5
26C
100
AcDbEntity
  8
RACCORDO
100
AcDbLine
 62
253
  6
CONTINUOUS
 10
-21.6691691474
 20
22.0061675143
 11
-21.7264390534
 21
22.1781169517
  0
LINE
  5
26D
100
AcDbEntity
  8
RACCORDO
100
AcDbLine
 62
253
  6
CONTINUOUS
 10
21.7264390534
 20
22.1781169517
 11
21.6691691474
 21
22.0061675142
  0
LINE
  5
26E
100
AcDbEntity
  8
RACCORDO
100
AcDbLine
 62
253
  6
CONTINUOUS
 10
22.2260584537
 20
21.6778880996
 11
22.1690929949
 21
21.5068527468
  0
LINE
  5
26F
100
AcDbEntity
  8
RACCORDO
100
AcDbLine
 62
253
  6
CONTINUOUS
 10
21.6691691474
 20
-22.0061675142
 11
21.7264390534
 21
-22.1781169517
  0
LINE
  5
270
100
AcDbEntity
  8
RACCORDO
100
AcDbLine
 62
253
  6
CONTINUOUS
 10
22.1690929949
 20
-21.5068527468
 11
22.2260584537
 21
-21.6778880996
  0
LWPOLYLINE
  5
271
100
AcDbEntity
  8
RACCORDO
100
AcDbPolyline
 62
253
  6
CONTINUOUS
 90
9
 70
0
 10
22.1690929949
 20
21.5068527468
 10
22.1682334546
 20
21.5025119003
 10
22.1673883256
 20
21.494829799
 10
22.1665576079
 20
21.4838064429
 10
22.1657369637
 20
21.4693548671
 10
22.164930731
 20
21.4515620365
 10
22.1641519227
 20
21.4306888455
 10
22.1634012311
 20
21.4066858513
 10
22.1619930586
 20
21.3498480052
  0
LINE
  5
272
100
AcDbEntity
  8
0
100
AcDbLine
 62
7
  6
CONTINUOUS
 10
22.25
 20
4.5524931981
 11
22.2474938389
 21
4.539931762
  0
LINE
  5
273
100
AcDbEntity
  8
RACCORDO
100
AcDbLine
 62
253
  6
CONTINUOUS
 10
1.4449668815
 20
20.8511125121
 11
21.6744782654
 21
20.858579195
  0
LINE
  5
274
100
AcDbEntity
  8
RACCORDO
100
AcDbLine
 62
253
  6
CONTINUOUS
 10
-21.6744782643
 20
20.8585791951
 11
1.4449668815
 21
20.8511125121
  0
LINE
  5
275
100
AcDbEntity
  8
0
100
AcDbLine
 62
7
  6
CONTINUOUS
 10
22.25
 20
-4.5524931981
 11
22.2474938389
 21
-4.539931762
  0
LWPOLYLINE
  5
276
100
AcDbEntity
  8
RACCORDO
100
AcDbPolyline
 62
253
  6
CONTINUOUS
 90
16
 70
0
 10
22.1690929949
 20
21.5068527468
 10
22.1663099112
 20
21.559014447
 10
22.1580864968
 20
21.6106054407
 10
22.1445127081
 20
21.6610611498
 10
22.1257370517
 20
21.709829417
 10
22.1019649642
 20
21.7563765393
 10
22.0734565673
 20
21.8001931098
 10
22.0405238116
 20
21.8407996104
 10
22.0035270725
 20
21.8777516424
 10
21.9628712178
 20
21.9106447868
 10
21.9190011482
 20
21.9391190573
 10
21.8723969475
 20
21.9628628204
 10
21.8235686488
 20
21.9816162021
 10
21.7730506142
 20
21.9951739544
 10
21.721395683
 20
22.0033876936
 10
21.6691691474
 20
22.0061675143
  0
LWPOLYLINE
  5
277
100
AcDbEntity
  8
RACCORDO
100
AcDbPolyline
 62
253
  6
CONTINUOUS
 90
3
 70
0
 10
21.6691691474
 20
22.0061554354
 10
21.66952156
 20
21.9987723731
 10
21.669856862
 20
21.9855164093
  0
LWPOLYLINE
  5
278
100
AcDbEntity
  8
RACCORDO
100
AcDbPolyline
 62
253
  6
CONTINUOUS
 90
8
 70
0
 10
22.1634012311
 20
-21.4066858512
 10
22.1641519227
 20
-21.4306888455
 10
22.164930731
 20
-21.4515620365
 10
22.1657369637
 20
-21.4693548671
 10
22.1665576079
 20
-21.4838064429
 10
22.1673883256
 20
-21.4948297991
 10
22.1682334546
 20
-21.5025119004
 10
22.1690929949
 20
-21.5068527468
  0
LINE
  5
279
100
AcDbEntity
  8
RACCORDO
100
AcDbLine
 62
253
  6
CONTINUOUS
 10
22.1619930586
 20
-21.3498480052
 11
22.1634012311
 21
-21.4066858512
  0
LINE
  5
27A
100
AcDbEntity
  8
RACCORDO
100
AcDbLine
 62
253
  6
CONTINUOUS
 10
22.160739745
 20
-21.2822550782
 11
22.1619930586
 21
-21.3498480052
  0
LINE
  5
27B
100
AcDbEntity
  8
RACCORDO
100
AcDbLine
 62
253
  6
CONTINUOUS
 10
21.669856862
 20
21.9855164093
 11
21.6705161339
 21
21.9416261892
  0
LINE
  5
27C
100
AcDbEntity
  8
RACCORDO
100
AcDbLine
 62
253
  6
CONTINUOUS
 10
22.1592017045
 20
-21.1638512619
 11
22.160739745
 21
-21.2822550782
  0
LINE
  5
27D
100
AcDbEntity
  8
RACCORDO
100
AcDbLine
 62
253
  6
CONTINUOUS
 10
21.6705161339
 20
21.9416261892
 11
21.6718102358
 21
21.7880394291
  0
LINE
  5
27E
100
AcDbEntity
  8
RACCORDO
100
AcDbLine
 62
253
  6
CONTINUOUS
 10
22.1578877
 20
-20.9825840334
 11
22.1592017045
 21
-21.1638512619
  0
LINE
  5
27F
100
AcDbEntity
  8
DRAFT
100
AcDbLine
 62
7
  6
CONTINUOUS
 10
22.2260584537
 20
20.55
 11
22.25
 21
7.5
  0
LINE
  5
280
100
AcDbEntity
  8
RACCORDO
100
AcDbLine
 62
253
  6
CONTINUOUS
 10
21.6718102358
 20
21.7880394291
 11
21.6742770087
 21
21.0260981647
  0
LINE
  5
281
100
AcDbEntity
  8
RACCORDO
100
AcDbLine
 62
253
  6
CONTINUOUS
 10
22.1521762072
 20
-11.5783620785
 11
22.1578877
 21
-20.9825840334
  0
LINE
  5
282
100
AcDbEntity
  8
RACCORDO
100
AcDbLine
 62
253
  6
CONTINUOUS
 10
21.6742770087
 20
21.0260981647
 11
21.6744782753
 21
-20.8585791936
  0
LINE
  5
283
100
AcDbEntity
  8
RACCORDO
100
AcDbLine
 62
253
  6
CONTINUOUS
 10
22.1498898678
 20
2.3161655835
 11
22.1521762072
 21
-11.5783620785
  0
LINE
  5
284
100
AcDbEntity
  8
RACCORDO
100
AcDbLine
 62
7
  6
CONTINUOUS
 10
22.2260584537
 20
21.6778880996
 11
22.2260584537
 21
20.55
  0
LINE
  5
285
100
AcDbEntity
  8
RACCORDO
100
AcDbLine
 62
7
  6
CONTINUOUS
 10
22.2260584537
 20
-20.55
 11
22.2260584537
 21
-21.6778880996
  0
LINE
  5
286
100
AcDbEntity
  8
0
100
AcDbLine
 62
7
  6
CONTINUOUS
 10
22.239526961
 20
-4.041834413
 11
22.239526961
 21
4.041834413
  0
LINE
  5
287
100
AcDbEntity
  8
0
100
AcDbLine
 62
7
  6
CONTINUOUS
 10
22.25
 20
-7.5
 11
22.25
 21
-4.5524931981
  0
LINE
  5
288
100
AcDbEntity
  8
0
100
AcDbLine
 62
7
  6
CONTINUOUS
 10
22.25
 20
4.5524931981
 11
22.25
 21
7.5
  0
LINE
  5
289
100
AcDbEntity
  8
RACCORDO
100
AcDbLine
 62
253
  6
CONTINUOUS
 10
22.1544625455
 20
16.2082174077
 11
22.1498898678
 21
2.3161655835
  0
LINE
  5
28A
100
AcDbEntity
  8
DRAFT
100
AcDbLine
 62
7
  6
CONTINUOUS
 10
22.25
 20
-7.5
 11
22.2260584537
 21
-20.55
  0
LINE
  5
28B
100
AcDbEntity
  8
RACCORDO
100
AcDbLine
 62
253
  6
CONTINUOUS
 10
22.1578877
 20
20.9825840333
 11
22.1544625455
 21
16.2082174077
  0
LINE
  5
28C
100
AcDbEntity
  8
RACCORDO
100
AcDbLine
 62
253
  6
CONTINUOUS
 10
21.6744776754
 20
-20.8585784532
 11
21.6721088473
 21
-21.7370075754
  0
LINE
  5
28D
100
AcDbEntity
  8
RACCORDO
100
AcDbLine
 62
253
  6
CONTINUOUS
 10
21.6721088473
 20
-21.7370075754
 11
21.6708539864
 21
-21.9112291244
  0
LINE
  5
28E
100
AcDbEntity
  8
RACCORDO
100
AcDbLine
 62
253
  6
CONTINUOUS
 10
22.1592017045
 20
21.1638512619
 11
22.1578877
 21
20.9825840333
  0
LWPOLYLINE
  5
28F
100
AcDbEntity
  8
RACCORDO
100
AcDbPolyline
 62
253
  6
CONTINUOUS
 90
5
 70
0
 10
21.6708539864
 20
-21.9112291244
 10
21.6701831814
 20
-21.9664346187
 10
21.669856862
 20
-21.9855164077
 10
21.6695215601
 20
-21.998772373
 10
21.6691691474
 20
-22.0061554362
  0
LINE
  5
290
100
AcDbEntity
  8
RACCORDO
100
AcDbLine
 62
253
  6
CONTINUOUS
 10
22.160739745
 20
21.2822550782
 11
22.1592017045
 21
21.1638512619
  0
LINE
  5
291
100
AcDbEntity
  8
RACCORDO
100
AcDbLine
 62
253
  6
CONTINUOUS
 10
22.1619930586
 20
21.3498480052
 11
22.160739745
 21
21.2822550782
  0
LWPOLYLINE
  5
292
100
AcDbEntity
  8
RACCORDO
100
AcDbPolyline
 62
253
  6
CONTINUOUS
 90
16
 70
0
 10
22.1690929949
 20
-21.5068527468
 10
22.1663098383
 20
-21.5590151358
 10
22.1580862309
 20
-21.6106066866
 10
22.1445121678
 20
-21.6610628079
 10
22.1257361965
 20
-21.709831334
 10
22.1019637914
 20
-21.7563785674
 10
22.0734551055
 20
-21.8001951193
 10
22.0405221232
 20
-21.8408014839
 10
22.0035252459
 20
-21.8777532862
 10
21.9628693484
 20
-21.9106461448
 10
21.9189993477
 20
-21.9391200972
 10
21.8723953344
 20
-21.9628635393
 10
21.8235673189
 20
-21.981616635
 10
21.7730496496
 20
-21.9951741602
 10
21.7213951657
 20
-22.0033877484
 10
21.6691691474
 20
-22.0061675142
  0
LINE
  5
293
100
AcDbEntity
  8
RACCORDO
100
AcDbLine
 62
253
  6
CONTINUOUS
 10
13.0018541748
 20
21.9938250823
 11
21.6691691474
 21
22.0061675142
  0
LINE
  5
294
100
AcDbEntity
  8
RACCORDO
100
AcDbLine
 62
253
  6
CONTINUOUS
 10
4.3339792998
 20
21.9876528034
 11
13.0018541748
 21
21.9938250823
  0
LINE
  5
295
100
AcDbEntity
  8
RACCORDO
100
AcDbLine
 62
7
  6
CONTINUOUS
 10
-21.7264390534
 20
22.1781169517
 11
21.7264390534
 21
22.1781169517
  0
LINE
  5
296
100
AcDbEntity
  8
RACCORDO
100
AcDbLine
 62
253
  6
CONTINUOUS
 10
-4.3340690366
 20
21.9876528356
 11
4.3339792998
 21
21.9876528034
  0
LINE
  5
297
100
AcDbEntity
  8
RACCORDO
100
AcDbLine
 62
253
  6
CONTINUOUS
 10
-13.0019142256
 20
21.9938251464
 11
-4.3340690366
 21
21.9876528356
  0
LINE
  5
298
100
AcDbEntity
  8
RACCORDO
100
AcDbLine
 62
253
  6
CONTINUOUS
 10
-21.6691691474
 20
22.0061675143
 11
-13.0019142256
 21
21.9938251464
  0
LWPOLYLINE
  5
299
100
AcDbEntity
  8
RACCORDO
100
AcDbPolyline
 62
253
  6
CONTINUOUS
 90
16
 70
0
 10
22.1575109974
 20
-20.8374001218
 10
22.154065163
 20
-20.8395447468
 10
22.1455286541
 20
-20.8416673768
 10
22.1319890006
 20
-20.8437462473
 10
22.1135850323
 20
-20.8457600425
 10
22.0905054558
 20
-20.8476881137
 10
22.0629869193
 20
-20.8495106914
 10
22.0313115864
 20
-20.8512090875
 10
21.9958042425
 20
-20.8527658874
 10
21.956828965
 20
-20.8541651284
 10
21.91478539
 20
-20.8553924632
 10
21.8701046146
 20
-20.8564353073
 10
21.8232447767
 20
-20.8572829679
 10
21.7746863572
 20
-20.8579267535
 10
21.7249272538
 20
-20.8583600629
 10
21.6744776754
 20
-20.8585784532
  0
LWPOLYLINE
  5
29A
100
AcDbEntity
  8
RACCORDO
100
AcDbPolyline
 62
253
  6
CONTINUOUS
 90
16
 70
0
 10
22.1575109976
 20
20.8374001218
 10
22.1540662232
 20
20.8395448063
 10
22.1455306207
 20
20.8416674995
 10
22.131991713
 20
20.8437464356
 10
22.1135883261
 20
20.8457602974
 10
22.0905091658
 20
20.8476884351
 10
22.0629908828
 20
20.8495110779
 10
22.0313156456
 20
20.8512095366
 10
21.9958082478
 20
20.8527663954
 10
21.9568327774
 20
20.8541656905
 10
21.9147888835
 20
20.8553930738
 10
21.8701076783
 20
20.8564359598
 10
21.8232473169
 20
20.8572836551
 10
21.7746882989
 20
20.8579274675
 10
21.7249285418
 20
20.8583607955
 10
21.6744782753
 20
20.8585791957
  0
LWPOLYLINE
  5
29B
100
AcDbEntity
  8
RACCORDO
100
AcDbPolyline
 62
253
  6
CONTINUOUS
 90
3
 70
0
 10
49.9435732001
 20
-21.9769770563
 10
49.9857104282
 20
-21.9664346217
 10
50.0663552453
 20
-21.9416261893
  0
LWPOLYLINE
  5
29C
100
AcDbEntity
  8
RACCORDO
100
AcDbPolyline
 62
253
  6
CONTINUOUS
 90
22
 70
0
 10
49.7185770859
 20
-21.5068527469
 10
49.7678201198
 20
-21.5025119004
 10
49.8162375293
 20
-21.4948297991
 10
49.8638293144
 20
-21.483806443
 10
49.9108439844
 20
-21.4693548672
 10
49.9570330299
 20
-21.4515620366
 10
50.0016509239
 20
-21.4306888456
 10
50.0446580166
 20
-21.4066858514
 10
50.0860939578
 20
-21.3796024968
 10
50.1253321686
 20
-21.3498480053
 10
50.1623321765
 20
-21.3173871102
 10
50.197134454
 20
-21.2822550783
 10
50.2292338408
 20
-21.2449669334
 10
50.2585927325
 20
-21.2054871542
 10
50.2852487334
 20
-21.163851262
 10
50.3088094957
 20
-21.1206808451
 10
50.3292286847
 20
-21.0759340762
 10
50.3465526352
 20
-21.0296527826
 10
50.3605280034
 20
-20.9825840335
 10
50.3710703416
 20
-20.9349768518
 10
50.3782640977
 20
-20.8865822147
 10
50.3821092715
 20
-20.8374001219
  0
LWPOLYLINE
  5
29D
100
AcDbEntity
  8
RACCORDO
100
AcDbPolyline
 62
7
  6
CONTINUOUS
 90
4
 70
0
 10
49.7360182256
 20
-22.0061554355
 10
49.8200984004
 20
-21.9987723731
 10
49.9034847546
 20
-21.9855164094
 10
49.9435732001
 20
-21.9769770563
  0
LINE
  5
29E
100
AcDbEntity
  8
RACCORDO
100
AcDbLine
 62
7
  6
CONTINUOUS
 10
46.4550281424
 20
-22.1781169517
 11
50.1040220833
 21
-21.9868812826
  0
LINE
  5
29F
100
AcDbEntity
  8
RACCORDO
100
AcDbLine
 62
253
  6
CONTINUOUS
 10
46.4550281424
 20
-21.6778880996
 11
49.7185770859
 21
-21.5068527469
  0
LINE
  5
2A0
100
AcDbEntity
  8
RACCORDO
100
AcDbLine
 62
253
  6
CONTINUOUS
 10
51.2395880641
 20
-20.8510791497
 11
50.8726486588
 21
-20.8585791951
  0
LINE
  5
2A1
100
AcDbEntity
  8
RACCORDO
100
AcDbLine
 62
253
  6
CONTINUOUS
 10
50.3821092715
 20
-20.8374001219
 11
50.7413101957
 21
-20.8527663956
  0
LWPOLYLINE
  5
2A2
100
AcDbEntity
  8
RACCORDO
100
AcDbPolyline
 62
253
  6
CONTINUOUS
 90
3
 70
0
 10
50.7413101957
 20
-20.8527663956
 10
50.8683838695
 20
-20.8583607956
 10
50.8726486718
 20
-20.8585791958
  0
LINE
  5
2A3
100
AcDbEntity
  8
DRAFT
100
AcDbLine
 62
7
  6
CONTINUOUS
 10
45.0834178722
 20
-7.5
 11
46.4550281424
 21
-20.55
  0
LINE
  5
2A4
100
AcDbEntity
  8
0
100
AcDbLine
 62
7
  6
CONTINUOUS
 10
45.0834178722
 20
-7.5
 11
45.0834178722
 21
-4.5524931981
  0
LINE
  5
2A5
100
AcDbEntity
  8
0
100
AcDbLine
 62
7
  6
CONTINUOUS
 10
45.0834178722
 20
4.5524931981
 11
45.0834178722
 21
7.5
  0
LINE
  5
2A6
100
AcDbEntity
  8
DRAFT
100
AcDbLine
 62
7
  6
CONTINUOUS
 10
46.4550281424
 20
20.55
 11
45.0834178722
 21
7.5
  0
LINE
  5
2A7
100
AcDbEntity
  8
0
100
AcDbLine
 62
7
  6
CONTINUOUS
 10
45.0834178722
 20
-4.5524931981
 11
45.2269957436
 21
-4.539931762
  0
LINE
  5
2A8
100
AcDbEntity
  8
0
100
AcDbLine
 62
7
  6
CONTINUOUS
 10
45.6834178722
 20
-4.041834413
 11
45.6834178722
 21
4.041834413
  0
LINE
  5
2A9
100
AcDbEntity
  8
RACCORDO
100
AcDbLine
 62
7
  6
CONTINUOUS
 10
46.4550281424
 20
-20.55
 11
46.4550281424
 21
-22.1781169517
  0
LINE
  5
2AA
100
AcDbEntity
  8
RACCORDO
100
AcDbLine
 62
7
  6
CONTINUOUS
 10
46.4550281424
 20
20.55
 11
46.4550281424
 21
22.1781169517
  0
LINE
  5
2AB
100
AcDbEntity
  8
RACCORDO
100
AcDbLine
 62
253
  6
CONTINUOUS
 10
49.7185770859
 20
-21.5068527469
 11
49.7212621892
 21
-21.5590144471
  0
LWPOLYLINE
  5
2AC
100
AcDbEntity
  8
RACCORDO
100
AcDbPolyline
 62
253
  6
CONTINUOUS
 90
4
 70
0
 10
49.7185770859
 20
21.5068527469
 10
49.7212622207
 20
21.5590151359
 10
49.7238224757
 20
21.6106066867
 10
49.7304824352
 20
21.7563785675
  0
LINE
  5
2AD
100
AcDbEntity
  8
RACCORDO
100
AcDbLine
 62
253
  6
CONTINUOUS
 10
49.7212621892
 20
-21.5590144471
 11
49.7284578721
 21
-21.7098294171
  0
LINE
  5
2AE
100
AcDbEntity
  8
RACCORDO
100
AcDbLine
 62
253
  6
CONTINUOUS
 10
49.7284578721
 20
-21.7098294171
 11
49.7322810754
 21
-21.8001931099
  0
LWPOLYLINE
  5
2AF
100
AcDbEntity
  8
RACCORDO
100
AcDbPolyline
 62
253
  6
CONTINUOUS
 90
9
 70
0
 10
49.7322810754
 20
-21.8001931099
 10
49.735125122
 20
-21.8777516425
 10
49.7361393272
 20
-21.9106447869
 10
49.7368658442
 20
-21.9391190574
 10
49.7372967209
 20
-21.9628628205
 10
49.7374272406
 20
-21.9816162022
 10
49.7372559742
 20
-21.9951739545
 10
49.7367847951
 20
-22.0033876937
 10
49.7360188586
 20
-22.0061675144
  0
LWPOLYLINE
  5
2B0
100
AcDbEntity
  8
RACCORDO
100
AcDbPolyline
 62
253
  6
CONTINUOUS
 90
7
 70
0
 10
49.7361393534
 20
21.9106461449
 10
49.7368658561
 20
21.9391200973
 10
49.737296721
 20
21.9628635394
 10
49.7374272329
 20
21.9816166351
 10
49.7372559637
 20
21.9951741603
 10
49.7367847875
 20
22.0033877485
 10
49.7360188608
 20
22.0061675143
  0
LINE
  5
2B1
100
AcDbEntity
  8
RACCORDO
100
AcDbLine
 62
253
  6
CONTINUOUS
 10
49.7338343843
 20
21.840801484
 11
49.7361393534
 21
21.9106461449
  0
LINE
  5
2B2
100
AcDbEntity
  8
RACCORDO
100
AcDbLine
 62
253
  6
CONTINUOUS
 10
49.7304824352
 20
21.7563785675
 11
49.7338343843
 21
21.840801484
  0
LWPOLYLINE
  5
2B3
100
AcDbEntity
  8
RACCORDO
100
AcDbPolyline
 62
253
  6
CONTINUOUS
 90
10
 70
0
 10
50.3821092715
 20
-20.8374001219
 10
50.5567549472
 20
-16.2082190743
 10
50.6877392076
 20
-11.5783620786
 10
50.7750620527
 20
-6.9478291348
 10
50.8187234873
 20
-2.3161697497
 10
50.8187235066
 20
2.3161655835
 10
50.7750620961
 20
6.9478253852
 10
50.687739251
 20
11.5783591623
 10
50.5567549762
 20
16.2082174078
 10
50.3821092715
 20
20.8374001219
  0
LWPOLYLINE
  5
2B4
100
AcDbEntity
  8
RACCORDO
100
AcDbPolyline
 62
253
  6
CONTINUOUS
 90
22
 70
0
 10
50.3821092715
 20
20.8374001219
 10
50.3782640977
 20
20.8865822147
 10
50.3710703417
 20
20.9349768519
 10
50.3605280035
 20
20.9825840335
 10
50.3465526353
 20
21.0296527826
 10
50.3292286848
 20
21.0759340763
 10
50.3088094957
 20
21.1206808451
 10
50.2852487334
 20
21.163851262
 10
50.2585927325
 20
21.2054871542
 10
50.2292338408
 20
21.2449669334
 10
50.197134454
 20
21.2822550783
 10
50.1623321765
 20
21.3173871102
 10
50.1253321686
 20
21.3498480053
 10
50.0860939578
 20
21.3796024968
 10
50.0446580166
 20
21.4066858513
 10
50.0016509239
 20
21.4306888456
 10
49.9570330299
 20
21.4515620366
 10
49.9108439844
 20
21.4693548672
 10
49.8638293145
 20
21.483806443
 10
49.8162375293
 20
21.4948297992
 10
49.7678201198
 20
21.5025119005
 10
49.7185770859
 20
21.5068527469
  0
LWPOLYLINE
  5
2B5
100
AcDbEntity
  8
RACCORDO
100
AcDbPolyline
 62
253
  6
CONTINUOUS
 90
18
 70
0
 10
50.8726312176
 20
20.8585784533
 10
50.8661012154
 20
20.9426625387
 10
50.8536893661
 20
21.0260981597
 10
50.8354357622
 20
21.1084268426
 10
50.8114490107
 20
21.1892464463
 10
50.7818534684
 20
21.2681757895
 10
50.7467741518
 20
21.3448394146
 10
50.7063854846
 20
21.4188722528
 10
50.6609014069
 20
21.4899028144
 10
50.6105429283
 20
21.5575552942
 10
50.5555621247
 20
21.6214831158
 10
50.496238343
 20
21.681395402
 10
50.4328442229
 20
21.7370075756
 10
50.36566805
 20
21.7880394244
 10
50.2950629282
 20
21.8342426976
 10
50.2213990412
 20
21.8753802627
 10
50.1450419689
 20
21.9112291245
 10
50.0663552574
 20
21.9416261858
  0
LWPOLYLINE
  5
2B6
100
AcDbEntity
  8
RACCORDO
100
AcDbPolyline
 62
253
  6
CONTINUOUS
 90
10
 70
0
 10
50.8726486718
 20
-20.8585791958
 10
51.0473741605
 20
-16.2254288549
 10
51.1784459142
 20
-11.5907034253
 10
51.2658416394
 20
-6.954877487
 10
51.3095420849
 20
-2.3183721545
 10
51.3095420538
 20
2.3183792948
 10
51.2658415359
 20
6.9548841343
 10
51.1784457718
 20
11.5907088426
 10
51.047374059
 20
16.2254320562
 10
50.8726486725
 20
20.8585791938
  0
LWPOLYLINE
  5
2B7
100
AcDbEntity
  8
0
100
AcDbPolyline
 62
7
  6
CONTINUOUS
 90
13
 70
0
 10
51.2395888251
 20
-20.8510791418
 10
51.4027915199
 20
-17.4458312458
 10
51.539830323
 20
-13.957592887
 10
51.6464232884
 20
-10.4682915389
 10
51.7225594835
 20
-6.978192856
 10
51.7682303702
 20
-3.4875625426
 10
51.7834346039
 20
0.0033334894
 10
51.7681721854
 20
3.4942292403
 10
51.7224431153
 20
6.9848587101
 10
51.6462487482
 20
10.4749559874
 10
51.5395976359
 20
13.9642553683
 10
51.4025007125
 20
17.4524911984
 10
51.2395888251
 20
20.8510791418
  0
LINE
  5
2B8
100
AcDbEntity
  8
0
100
AcDbLine
 62
7
  6
CONTINUOUS
 10
45.0834178722
 20
4.5524931981
 11
45.2269957436
 21
4.539931762
  0
LWPOLYLINE
  5
2B9
100
AcDbEntity
  8
RACCORDO
100
AcDbPolyline
 62
253
  6
CONTINUOUS
 90
18
 70
0
 10
50.0663552453
 20
-21.9416261893
 10
50.145041959
 20
-21.9112291283
 10
50.2213990335
 20
-21.8753802668
 10
50.2950629216
 20
-21.834242702
 10
50.3656680436
 20
-21.7880394292
 10
50.4328442166
 20
-21.7370075807
 10
50.496238337
 20
-21.6813954075
 10
50.5555621193
 20
-21.6214831215
 10
50.6105429237
 20
-21.5575552999
 10
50.660901403
 20
-21.48990282
 10
50.7063854813
 20
-21.4188722582
 10
50.746774149
 20
-21.3448394201
 10
50.781853466
 20
-21.2681757954
 10
50.8114490087
 20
-21.1892464528
 10
50.8354357606
 20
-21.108426849
 10
50.8536893651
 20
-21.0260981648
 10
50.8661012156
 20
-20.9426625408
 10
50.8726312184
 20
-20.8585784534
  0
LINE
  5
2BA
100
AcDbEntity
  8
RACCORDO
100
AcDbLine
 62
253
  6
CONTINUOUS
 10
50.8683666637
 20
20.858360063
 11
50.8726312176
 21
20.8585784533
  0
LINE
  5
2BB
100
AcDbEntity
  8
RACCORDO
100
AcDbLine
 62
253
  6
CONTINUOUS
 10
50.3821092715
 20
20.8374001219
 11
50.8683666637
 21
20.858360063
  0
LINE
  5
2BC
100
AcDbEntity
  8
RACCORDO
100
AcDbLine
 62
253
  6
CONTINUOUS
 10
50.8726486588
 20
20.8585791951
 11
51.2395880641
 21
20.8510791497
  0
LINE
  5
2BD
100
AcDbEntity
  8
RACCORDO
100
AcDbLine
 62
253
  6
CONTINUOUS
 10
49.7185770859
 20
21.5068527469
 11
46.4550281424
 21
21.6778880996
  0
LINE
  5
2BE
100
AcDbEntity
  8
RACCORDO
100
AcDbLine
 62
7
  6
CONTINUOUS
 10
50.1040220833
 20
21.9868812826
 11
46.4550281424
 21
22.1781169517
  0
LWPOLYLINE
  5
2BF
100
AcDbEntity
  8
RACCORDO
100
AcDbPolyline
 62
7
  6
CONTINUOUS
 90
4
 70
0
 10
49.9435643631
 20
21.9769790976
 10
49.9034847621
 20
21.9855164078
 10
49.8200984013
 20
21.998772373
 10
49.7360182256
 20
22.0061554363
  0
LWPOLYLINE
  5
2C0
100
AcDbEntity
  8
RACCORDO
100
AcDbPolyline
 62
253
  6
CONTINUOUS
 90
3
 70
0
 10
50.0663552574
 20
21.9416261858
 10
49.9857104401
 20
21.9664346188
 10
49.9435643631
 20
21.9769790976
  0
ARC
  5
2C1
100
AcDbEntity
  8
RACCORDO
100
AcDbCircle
 62
7
  6
CONTINUOUS
 10
50.0412195606
 20
20.7885258082
 40
1.2
100
AcDbArc
 50
2.9880540806
 51
87.0
  0
ARC
  5
2C2
100
AcDbEntity
  8
RACCORDO
100
AcDbCircle
 62
7
  6
CONTINUOUS
 10
50.0412195606
 20
-20.7885258082
 40
1.2
100
AcDbArc
 50
273.0
 51
357.0119459194
  0
ARC
  5
2C3
100
AcDbEntity
  8
0
100
AcDbCircle
 62
7
  6
CONTINUOUS
 10
45.1834178722
 20
4.041834413
 40
0.5
100
AcDbArc
 50
0.0
 51
85.0
  0
ARC
  5
2C4
100
AcDbEntity
  8
0
100
AcDbCircle
 62
7
  6
CONTINUOUS
 10
45.1834178722
 20
-4.041834413
 40
0.5
100
AcDbArc
 50
275.0
 51
360.0
  0
ELLIPSE
  5
2C5
100
AcDbEntity
  8
0
100
AcDbEllipse
 62
7
  6
CONTINUOUS
 10
-22.2482544935
 20
-4.041834413
 30
0.0
 11
-0.0
 21
0.5
 31
0.0
 40
0.0174550649
 41
-3.054326191
 42
-1.5707963268
  0
ELLIPSE
  5
2C6
100
AcDbEntity
  8
0
100
AcDbEllipse
 62
7
  6
CONTINUOUS
 10
-22.2482544935
 20
4.041834413
 30
0.0
 11
-0.0
 21
0.5
 31
0.0
 40
0.0174550649
 41
-1.5707963268
 42
-0.0872664626
  0
ELLIPSE
  5
2C7
100
AcDbEntity
  8
0
100
AcDbEllipse
 62
7
  6
CONTINUOUS
 10
22.2482544935
 20
4.041834413
 30
0.0
 11
0.0
 21
0.5
 31
0.0
 40
0.0174550649
 41
0.0872664626
 42
1.5707963268
  0
ELLIPSE
  5
2C8
100
AcDbEntity
  8
0
100
AcDbEllipse
 62
7
  6
CONTINUOUS
 10
22.2482544935
 20
-4.041834413
 30
0.0
 11
-0.0
 21
0.5
 31
0.0
 40
0.0174550649
 41
-4.7123889804
 42
-3.2288591162
  0
ELLIPSE
  5
2C9
100
AcDbEntity
  8
RACCORDO
100
AcDbEllipse
 62
7
  6
CONTINUOUS
 10
21.7259822897
 20
21.6774307787
 30
0.0
 11
0.1582391023
 21
0.4751033573
 31
0.0
 40
0.9984778551
 41
-1.2488325878
 42
0.3210503505
  0
ELLIPSE
  5
2CA
100
AcDbEntity
  8
RACCORDO
100
AcDbEllipse
 62
7
  6
CONTINUOUS
 10
21.7259822897
 20
-21.6774307787
 30
0.0
 11
-0.1582391023
 21
0.4751033573
 31
0.0
 40
0.9984778551
 41
-3.4626430041
 42
-1.8927600658
  0
ELLIPSE
  5
2CB
100
AcDbEntity
  8
RACCORDO
100
AcDbEllipse
 62
7
  6
CONTINUOUS
 10
-21.7259822897
 20
-21.6774307787
 30
0.0
 11
0.1582391023
 21
0.4751033573
 31
0.0
 40
0.9984778551
 41
-4.3904252414
 42
-2.8205423031
  0
ELLIPSE
  5
2CC
100
AcDbEntity
  8
RACCORDO
100
AcDbEllipse
 62
7
  6
CONTINUOUS
 10
-21.7259822897
 20
21.6774307787
 30
0.0
 11
-0.1582391023
 21
0.4751033573
 31
0.0
 40
0.9984778551
 41
-0.3210503505
 42
1.2488325878
  0
ENDSEC
  0
SECTION
  2
OBJECTS
  0
DICTIONARY
  5
C
100
AcDbDictionary
280
0
281
1
  3
ACAD_GROUP
350
D
  3
ACAD_MLINESTYLE
350
17
  3
ACAD_LAYOUT
350
1A
  3
ACAD_PLOTSETTINGS
350
19
  3
ACAD_PLOTSTYLENAME
350
E
  0
DICTIONARY
  5
D
102
{ACAD_REACTORS
330
C
102
}
100
AcDbDictionary
280
0
281
1
  0
ACDBDICTIONARYWDFLT
  5
E
102
{ACAD_REACTORS
330
C
102
}
100
AcDbDictionary
281
1
  3
Normal
350
F
100
AcDbDictionaryWithDefault
340
F
  0
DICTIONARY
  5
17
102
{ACAD_REACTORS
330
C
102
}
100
AcDbDictionary
280
0
281
1
  3
Standard
350
18
  0
DICTIONARY
  5
19
102
{ACAD_REACTORS
330
C
102
}
100
AcDbDictionary
281
1
  0
DICTIONARY
  5
1A
102
{ACAD_REACTORS
330
C
102
}
100
AcDbDictionary
281
1
  3
Model
350
2CD
  3
Layout1
350
2CE
  0
ACDBPLACEHOLDER
  5
F
102
{ACAD_REACTORS
330
E
102
}
  0
MLINESTYLE
  5
18
102
{ACAD_REACTORS
330
17
102
}
100
AcDbMlineStyle
  2
STANDARD
 70
0
  3

 62
256
 51
90.0
 52
90.0
 71
2
 49
0.5
 62
256
  6
BYLAYER
 49
-0.5
 62
256
  6
BYLAYER
  0
LAYOUT
  5
2CD
102
{ACAD_REACTORS
330
1A
102
}
100
AcDbPlotSettings
  1

  2
none_device
  4

  6

 40
0.0
 41
0.0
 42
0.0
 43
0.0
 44
210.0
 45
297.0
 46
0.0
 47
0.0
 48
0.0
 49
0.0
140
0.0
141
0.0
142
1.0
143
1.0
 70
1024
 72
1
 73
0
 74
0
  7

 75
0
147
1.0
148
0.0
149
0.0
100
AcDbLayout
  1
Model
 70
0
 71
0
 10
0.0
 20
0.0
 11
210.0
 21
297.0
 12
0.0
 22
0.0
 32
0.0
 14
0.0
 24
0.0
 34
0.0
 15
0.0
 25
0.0
 35
0.0
146
0.0
 13
0.0
 23
0.0
 33
0.0
 16
1.0
 26
0.0
 36
0.0
 17
0.0
 27
1.0
 37
0.0
 76
0
330
214
345
0
346
0
  0
LAYOUT
  5
2CE
102
{ACAD_REACTORS
330
1A
102
}
100
AcDbPlotSettings
  1

  2
none_device
  4

  6

 40
0.0
 41
0.0
 42
0.0
 43
0.0
 44
210.0
 45
297.0
 46
0.0
 47
0.0
 48
0.0
 49
0.0
140
0.0
141
0.0
142
1.0
143
1.0
 70
0
 72
1
 73
0
 74
0
  7

 75
0
147
1.0
148
0.0
149
0.0
100
AcDbLayout
  1
Layout1
 70
0
 71
1
 10
0.0
 20
0.0
 11
210.0
 21
297.0
 12
0.0
 22
0.0
 32
0.0
 14
0.0
 24
0.0
 34
0.0
 15
0.0
 25
0.0
 35
0.0
146
0.0
 13
0.0
 23
0.0
 33
0.0
 16
1.0
 26
0.0
 36
0.0
 17
0.0
 27
1.0
 37
0.0
 76
0
330
215
345
0
346
0
  0
ENDSEC
  0
EOF
