  0
SECTION
  2
HEADER
  9
$ACADVER
  1
AC1021
  9
$DWGCODEPAGE
  3
ANSI_1252
  9
$EXTMAX
 10
297.0
 20
210.0
 30
0.0
  9
$EXTMIN
 10
0.0
 20
0.0
 30
0.0
  9
$LIMMIN
 10
0.0
 20
0.0
  9
$LIMMAX
 10
297.0
 20
210.0
  9
$VIEWCTR
 10
148.5
 20
105.0
  9
$VIEWSIZE
 40
210.0
  9
$CLAYER
  8
0
  9
$LTSCALE
 40
16.335
  9
$CELTYPE
  6
BYLAYER
  9
$DIMSCALE
 40
1.0
  9
$DIMASZ
 40
3.0
  9
$DIMEXO
 40
1.85625
  9
$DIMDLI
 40
11.286
  9
$DIMEXE
 40
5.346
  9
$DIMCEN
 40
2.673
  9
$DIMLFAC
 40
1.0
  9
$DIMBLK
  1
_FILLED
  9
$DIMTXT
 40
3.0
  9
$DIMTOL
 70
1
  9
$DIMLIM
 70
0
  9
$DIMTFAC
 40
1.0
  9
$DIMTP
 40
0.01
  9
$DIMTM
 40
0.01
  9
$PDMODE
 70
3
  9
$PDSIZE
 40
3.0
  9
$HANDSEED
  5
448
  9
$TILEMODE
 70
1
  9
$MEASUREMENT
 70
1
  9
$INSUNITS
 70
4
  0
ENDSEC
  0
SECTION
  2
CLASSES
  0
CLASS
  1
ACDBDICTIONARYWDFLT
  2
AcDbDictionaryWithDefault
  3
AutoCAD 2000
 90
0
 91
1
280
0
281
0
  0
CLASS
  1
ACDBPLACEHOLDER
  2
AcDbPlaceHolder
  3
AutoCAD 2000
 90
0
 91
1
280
0
281
0
  0
CLASS
  1
LAYOUT
  2
AcDbLayout
  3
AutoCAD 2000
 90
0
 91
0
280
0
281
0
  0
ENDSEC
  0
SECTION
  2
TABLES
  0
TABLE
  2
VPORT
  5
8
100
AcDbSymbolTable
 70
2
  0
VPORT
  5
1F4
100
AcDbSymbolTableRecord
100
AcDbViewportTableRecord
  2
*ACTIVE
 70
0
 10
0.0
 20
0.0
 11
1.0
 21
1.0
 12
148.5
 22
105.0
 13
0.0
 23
0.0
 14
1.0
 24
1.0
 15
0.0
 25
0.0
 16
0.0
 26
0.0
 36
1.0
 17
0.0
 27
0.0
 37
0.0
 40
210.0
 41
1.4142857143
 42
50.0
 43
0.0
 44
0.0
 50
0.0
 51
0.0
 71
0
 72
100
 73
1
 74
1
 75
0
 76
0
 77
0
 78
0
  0
ENDTAB
  0
TABLE
  2
LTYPE
  5
5
100
AcDbSymbolTable
 70
6
  0
LTYPE
  5
14
100
AcDbSymbolTableRecord
100
AcDbLinetypeTableRecord
  2
BYBLOCK
 70
0
  3

 72
65
 73
0
 40
0.0
  0
LTYPE
  5
15
100
AcDbSymbolTableRecord
100
AcDbLinetypeTableRecord
  2
BYLAYER
 70
0
  3

 72
65
 73
0
 40
0.0
  0
LTYPE
  5
16
100
AcDbSymbolTableRecord
100
AcDbLinetypeTableRecord
  2
CONTINUOUS
 70
64
  3
Solid line
 72
65
 73
0
 40
0.0
  0
LTYPE
  5
1F5
100
AcDbSymbolTableRecord
100
AcDbLinetypeTableRecord
  2
CENTER
 70
64
  3
____ _ ____ _ ____ _ ____ _ ____ _ ____ _ ____
 72
65
 73
4
 40
0.6
 49
0.375
 74
0
 49
-0.075
 74
0
 49
0.075
 74
0
 49
-0.075
 74
0
  0
LTYPE
  5
1F6
100
AcDbSymbolTableRecord
100
AcDbLinetypeTableRecord
  2
HIDDEN
 70
64
  3
- - - - - - - - - - - - - - - - - - - -
 72
65
 73
2
 40
0.2
 49
0.1
 74
0
 49
-0.1
 74
0
  0
LTYPE
  5
1F7
100
AcDbSymbolTableRecord
100
AcDbLinetypeTableRecord
  2
PHANTOM
 70
64
  3
_____ _ _ _____ _ _ _____ _ _ _____
 72
65
 73
6
 40
0.8
 49
0.45
 74
0
 49
-0.05
 74
0
 49
0.1
 74
0
 49
-0.05
 74
0
 49
0.1
 74
0
 49
-0.05
 74
0
  0
LTYPE
  5
1F8
100
AcDbSymbolTableRecord
100
AcDbLinetypeTableRecord
  2
DOT
 70
64
  3
. . . . . . . . . . . . . . . . . . . .
 72
65
 73
2
 40
0.2
 49
0.1
 74
0
 49
-0.1
 74
0
  0
LTYPE
  5
1F9
100
AcDbSymbolTableRecord
100
AcDbLinetypeTableRecord
  2
DASHED
 70
64
  3
- - - - - - - - - - - - - - - - - - - -
 72
65
 73
2
 40
0.2
 49
0.1
 74
0
 49
-0.1
 74
0
  0
ENDTAB
  0
TABLE
  2
LAYER
  5
2
100
AcDbSymbolTable
 70
36
  0
LAYER
  5
10
100
AcDbSymbolTableRecord
100
AcDbLayerTableRecord
  2
0
 70
0
 62
7
  6
CONTINUOUS
370
-3
390
F
  0
LAYER
  5
1FA
100
AcDbSymbolTableRecord
100
AcDbLayerTableRecord
  2
DEFAULT_1
 70
0
 62
7
  6
CENTER
370
-3
390
F
  0
LAYER
  5
1FB
100
AcDbSymbolTableRecord
100
AcDbLayerTableRecord
  2
DEFAULT_2
 70
0
 62
7
  6
HIDDEN
370
-3
390
F
  0
LAYER
  5
1FC
100
AcDbSymbolTableRecord
100
AcDbLayerTableRecord
  2
DEFAULT_3
 70
0
 62
7
  6
PHANTOM
370
-3
390
F
  0
LAYER
  5
1FD
100
AcDbSymbolTableRecord
100
AcDbLayerTableRecord
  2
ASSI
 70
0
 62
7
  6
CONTINUOUS
370
-3
390
F
  0
LAYER
  5
1FE
100
AcDbSymbolTableRecord
100
AcDbLayerTableRecord
  2
COORDINATE
 70
0
 62
7
  6
CONTINUOUS
370
-3
390
F
  0
LAYER
  5
1FF
100
AcDbSymbolTableRecord
100
AcDbLayerTableRecord
  2
COPY_PUBLISH
 70
0
 62
7
  6
CONTINUOUS
370
-3
390
F
  0
LAYER
  5
200
100
AcDbSymbolTableRecord
100
AcDbLayerTableRecord
  2
COSMETICI
 70
0
 62
7
  6
CONTINUOUS
370
-3
390
F
  0
LAYER
  5
201
100
AcDbSymbolTableRecord
100
AcDbLayerTableRecord
  2
CURVE
 70
0
 62
7
  6
CONTINUOUS
370
-3
390
F
  0
LAYER
  5
202
100
AcDbSymbolTableRecord
100
AcDbLayerTableRecord
  2
DRAFT
 70
0
 62
7
  6
CONTINUOUS
370
-3
390
F
  0
LAYER
  5
203
100
AcDbSymbolTableRecord
100
AcDbLayerTableRecord
  2
IMPORT_IGES
 70
0
 62
7
  6
CONTINUOUS
370
-3
390
F
  0
LAYER
  5
204
100
AcDbSymbolTableRecord
100
AcDbLayerTableRecord
  2
INTFCLR_1
 70
0
 62
7
  6
CONTINUOUS
370
-3
390
F
  0
LAYER
  5
205
100
AcDbSymbolTableRecord
100
AcDbLayerTableRecord
  2
INTF_2
 70
0
 62
7
  6
CONTINUOUS
370
-3
390
F
  0
LAYER
  5
206
100
AcDbSymbolTableRecord
100
AcDbLayerTableRecord
  2
INTF_5
 70
0
 62
7
  6
CONTINUOUS
370
-3
390
F
  0
LAYER
  5
207
100
AcDbSymbolTableRecord
100
AcDbLayerTableRecord
  2
INTF_9
 70
0
 62
7
  6
CONTINUOUS
370
-3
390
F
  0
LAYER
  5
208
100
AcDbSymbolTableRecord
100
AcDbLayerTableRecord
  2
NOTE
 70
0
 62
7
  6
CONTINUOUS
370
-3
390
F
  0
LAYER
  5
209
100
AcDbSymbolTableRecord
100
AcDbLayerTableRecord
  2
PIANI
 70
0
 62
7
  6
CONTINUOUS
370
-3
390
F
  0
LAYER
  5
20A
100
AcDbSymbolTableRecord
100
AcDbLayerTableRecord
  2
PUNTI
 70
0
 62
7
  6
CONTINUOUS
370
-3
390
F
  0
LAYER
  5
20B
100
AcDbSymbolTableRecord
100
AcDbLayerTableRecord
  2
RACCORDO
 70
0
 62
7
  6
CONTINUOUS
370
-3
390
F
  0
LAYER
  5
20C
100
AcDbSymbolTableRecord
100
AcDbLayerTableRecord
  2
SIMBOLI
 70
0
 62
7
  6
CONTINUOUS
370
-3
390
F
  0
LAYER
  5
20D
100
AcDbSymbolTableRecord
100
AcDbLayerTableRecord
  2
SMUSSO
 70
0
 62
7
  6
CONTINUOUS
370
-3
390
F
  0
LAYER
  5
20E
100
AcDbSymbolTableRecord
100
AcDbLayerTableRecord
  2
SNAPLINE
 70
0
 62
7
  6
CONTINUOUS
370
-3
390
F
  0
LAYER
  5
20F
100
AcDbSymbolTableRecord
100
AcDbLayerTableRecord
  2
SUPERFICI
 70
0
 62
7
  6
CONTINUOUS
370
-3
390
F
  0
LAYER
  5
210
100
AcDbSymbolTableRecord
100
AcDbLayerTableRecord
  2
TRASH
 70
0
 62
7
  6
CONTINUOUS
370
-3
390
F
  0
LAYER
  5
211
100
AcDbSymbolTableRecord
100
AcDbLayerTableRecord
  2
XSEC_DATUMS
 70
0
 62
7
  6
CONTINUOUS
370
-3
390
F
  0
ENDTAB
  0
TABLE
  2
STYLE
  5
3
100
AcDbSymbolTable
 70
1
  0
STYLE
  5
11
100
AcDbSymbolTableRecord
100
AcDbTextStyleTableRecord
  2
STANDARD
 70
0
 40
0.0
 41
0.8
 50
0.0
 71
0
 42
0.2
  3
txt
  4

  0
STYLE
  5
212
100
AcDbSymbolTableRecord
100
AcDbTextStyleTableRecord
  2
TEXTSTYLE_1
 70
0
 40
0.0
 41
0.8
 50
0.0
 71
0
 42
0.2
  3
gdt
  4

  0
ENDTAB
  0
TABLE
  2
VIEW
  5
6
100
AcDbSymbolTable
 70
0
  0
ENDTAB
  0
TABLE
  2
UCS
  5
7
100
AcDbSymbolTable
 70
0
  0
ENDTAB
  0
TABLE
  2
APPID
  5
9
100
AcDbSymbolTable
 70
1
  0
APPID
  5
213
100
AcDbSymbolTableRecord
100
AcDbRegAppTableRecord
  2
ACAD
 70
0
  0
ENDTAB
  0
TABLE
  2
BLOCK_RECORD
  5
1
100
AcDbSymbolTable
 70
0
  0
BLOCK_RECORD
  5
214
100
AcDbSymbolTableRecord
100
AcDbBlockTableRecord
  2
*Model_Space
  0
BLOCK_RECORD
  5
215
100
AcDbSymbolTableRecord
100
AcDbBlockTableRecord
  2
*Paper_Space
  0
BLOCK_RECORD
  5
216
100
AcDbSymbolTableRecord
100
AcDbBlockTableRecord
  2
_FILLED
  0
BLOCK_RECORD
  5
217
100
AcDbSymbolTableRecord
100
AcDbBlockTableRecord
  2
*D0
  0
BLOCK_RECORD
  5
218
100
AcDbSymbolTableRecord
100
AcDbBlockTableRecord
  2
*D1
  0
BLOCK_RECORD
  5
219
100
AcDbSymbolTableRecord
100
AcDbBlockTableRecord
  2
*D2
  0
ENDTAB
  0
TABLE
  2
DIMSTYLE
  5
A
100
AcDbSymbolTable
 70
1
100
AcDbDimStyleTable
 71
0
  0
DIMSTYLE
105
21A
100
AcDbSymbolTableRecord
100
AcDbDimStyleTableRecord
  2
STANDARD
 70
0
  3

  4

 40
1.0
 41
3.0
 42
0.0625
 43
0.38
 44
0.18
 45
0.0
 46
0.0
 47
0.01
 48
0.01
140
3.0
141
0.09
142
0.0
143
25.4
144
1.0
145
0.0
146
1.0
147
0.09
 71
1.0
 72
0.0
 73
0
 74
0
 75
0
 76
0
 77
1
 78
8
170
0
171
2
172
0
173
0
174
0
175
0
176
0
177
0
178
0
270
2
271
2
272
2
273
2
274
2
275
0
280
0
281
0
282
0
283
1
284
8
285
0
286
0
287
3
288
0
340
11
341
216
342
216
343
216
344
216
  0
DIMSTYLE
105
21B
100
AcDbSymbolTableRecord
100
AcDbDimStyleTableRecord
  2
DIMSTYLE_1
 70
0
  3

  4

 40
1.0
 41
3.0
 42
0.0625
 43
0.38
 44
0.18
 45
0.0
 46
0.0
 47
0.0
 48
0.0
140
3.0
141
0.09
142
0.0
143
25.4
144
1.0
145
0.0
146
1.0
147
0.09
 71
0.0
 72
0.0
 73
0
 74
0
 75
0
 76
0
 77
1
 78
8
170
0
171
2
172
0
173
0
174
0
175
0
176
0
177
0
178
0
270
2
271
1
272
1
273
2
274
2
275
0
280
0
281
0
282
0
283
1
284
8
285
0
286
0
287
3
288
0
340
11
341
216
342
216
343
216
344
216
  0
DIMSTYLE
105
21C
100
AcDbSymbolTableRecord
100
AcDbDimStyleTableRecord
  2
DIMSTYLE_2
 70
0
  3

  4

 40
1.0
 41
3.0
 42
0.0625
 43
0.38
 44
0.18
 45
0.0
 46
0.0
 47
0.0
 48
0.0
140
3.0
141
0.09
142
0.0
143
25.4
144
1.0
145
0.0
146
1.0
147
0.09
 71
0.0
 72
0.0
 73
0
 74
0
 75
0
 76
0
 77
1
 78
8
170
0
171
2
172
0
173
0
174
0
175
0
176
0
177
0
178
0
270
2
271
2
272
2
273
2
274
2
275
0
280
0
281
0
282
0
283
1
284
8
285
0
286
0
287
3
288
0
340
11
341
216
342
216
343
216
344
216
  0
ENDTAB
  0
ENDSEC
  0
SECTION
  2
BLOCKS
  0
BLOCK
  5
20
100
AcDbEntity
  8
0
100
AcDbBlockBegin
  2
*Model_Space
 70
0
 10
0.0
 20
0.0
 30
0.0
  3
*Model_Space
  1

  0
ENDBLK
  5
21
100
AcDbEntity
  8
0
100
AcDbBlockEnd
  0
BLOCK
  5
1C
100
AcDbEntity
  8
0
100
AcDbBlockBegin
  2
*Paper_Space
 70
0
 10
0.0
 20
0.0
 30
0.0
  3
*Paper_Space
  1

  0
ENDBLK
  5
1D
100
AcDbEntity
  8
0
100
AcDbBlockEnd
  0
BLOCK
  5
21D
100
AcDbEntity
  8
0
100
AcDbBlockBegin
  2
_FILLED
 70
64
 10
0.0
 20
0.0
  3
_FILLED
  1

  0
SOLID
  5
21E
100
AcDbEntity
  8
0
  6
BYBLOCK
 62
0
100
AcDbTrace
 10
0.0
 20
0.0
 11
-1.0
 21
0.3166666667
 12
-1.0
 22
-0.3166666667
 13
-1.0
 23
-0.3166666667
  0
ENDBLK
  5
21F
100
AcDbEntity
  8
0
  6
BYBLOCK
 62
0
100
AcDbBlockEnd
  0
BLOCK
  5
220
100
AcDbEntity
  8
0
100
AcDbBlockBegin
 62
7
  6
CONTINUOUS
  2
*D0
 70
65
 10
0.0
 20
0.0
  3
*D0
  1

  0
MTEXT
  5
221
100
AcDbEntity
  8
0
100
AcDbMText
 62
7
  6
CONTINUOUS
  7
STANDARD
 71
2
 72
1
 10
173.4822392642
 20
105.8408510743
 30
0.0
 11
0.0
 21
1.0
 31
0.0
 44
0.9
  1
44,5
 40
3.0
 41
8.5714285714
  0
LINE
  5
222
100
AcDbEntity
  8
0
100
AcDbLine
 62
7
  6
CONTINUOUS
 10
125.5609670637
 20
83.5827895004
 11
178.7322392642
 21
83.5827895004
  0
LINE
  5
223
100
AcDbEntity
  8
0
100
AcDbLine
 62
7
  6
CONTINUOUS
 10
125.5317254279
 20
128.0989126481
 11
178.7322392642
 21
128.0989126481
  0
LINE
  5
224
100
AcDbEntity
  8
0
100
AcDbLine
 62
7
  6
CONTINUOUS
 10
177.2322392642
 20
83.5827895004
 11
177.2322392642
 21
105.8408510743
  0
LINE
  5
225
100
AcDbEntity
  8
0
100
AcDbLine
 62
7
  6
CONTINUOUS
 10
177.2322392642
 20
128.0989126481
 11
177.2322392642
 21
105.8408510743
  0
INSERT
  5
226
100
AcDbEntity
  8
0
100
AcDbBlockReference
 62
7
  6
CONTINUOUS
  2
_FILLED
 10
177.2322392642
 20
83.5827895004
 41
3.0
 42
3.0
 43
3.0
 50
270.0
  0
INSERT
  5
227
100
AcDbEntity
  8
0
100
AcDbBlockReference
 62
7
  6
CONTINUOUS
  2
_FILLED
 10
177.2322392642
 20
128.0989126481
 41
3.0
 42
3.0
 43
3.0
 50
90.0
  0
ENDBLK
  5
228
100
AcDbEntity
  8
0
  6
BYBLOCK
 62
0
100
AcDbBlockEnd
  0
BLOCK
  5
229
100
AcDbEntity
  8
0
100
AcDbBlockBegin
 62
7
  6
CONTINUOUS
  2
*D1
 70
65
 10
0.0
 20
0.0
  3
*D1
  1

  0
MTEXT
  5
22A
100
AcDbEntity
  8
0
100
AcDbMText
 62
7
  6
CONTINUOUS
  7
STANDARD
 71
2
 72
1
 10
146.8822392642
 20
139.927524317
 30
0.0
 11
1.0
 21
0.0
 31
0.0
 44
0.9
  1
44,7
 40
3.0
 41
8.7857142857
  0
LINE
  5
22B
100
AcDbEntity
  8
0
100
AcDbLine
 62
7
  6
CONTINUOUS
 10
124.5322392642
 20
93.177524317
 11
124.5322392642
 21
137.677524317
  0
LINE
  5
22C
100
AcDbEntity
  8
0
100
AcDbLine
 62
7
  6
CONTINUOUS
 10
169.2322392642
 20
93.177524317
 11
169.2322392642
 21
137.677524317
  0
LINE
  5
22D
100
AcDbEntity
  8
0
100
AcDbLine
 62
7
  6
CONTINUOUS
 10
124.5322392642
 20
136.177524317
 11
146.8822392642
 21
136.177524317
  0
LINE
  5
22E
100
AcDbEntity
  8
0
100
AcDbLine
 62
7
  6
CONTINUOUS
 10
169.2322392642
 20
136.177524317
 11
146.8822392642
 21
136.177524317
  0
INSERT
  5
22F
100
AcDbEntity
  8
0
100
AcDbBlockReference
 62
7
  6
CONTINUOUS
  2
_FILLED
 10
124.5322392642
 20
136.177524317
 41
3.0
 42
3.0
 43
3.0
 50
180.0
  0
INSERT
  5
230
100
AcDbEntity
  8
0
100
AcDbBlockReference
 62
7
  6
CONTINUOUS
  2
_FILLED
 10
169.2322392642
 20
136.177524317
 41
3.0
 42
3.0
 43
3.0
  0
ENDBLK
  5
231
100
AcDbEntity
  8
0
  6
BYBLOCK
 62
0
100
AcDbBlockEnd
  0
BLOCK
  5
232
100
AcDbEntity
  8
0
100
AcDbBlockBegin
 62
7
  6
CONTINUOUS
  2
*D2
 70
65
 10
0.0
 20
0.0
  3
*D2
  1

  0
MTEXT
  5
233
100
AcDbEntity
  8
0
100
AcDbMText
 62
7
  6
CONTINUOUS
  7
STANDARD
 71
2
 72
1
 10
107.8818600692
 20
139.927524317
 30
0.0
 11
1.0
 21
0.0
 31
0.0
 44
0.9
  1
10,7
 40
3.0
 41
8.1428571429
  0
LINE
  5
234
100
AcDbEntity
  8
0
100
AcDbLine
 62
7
  6
CONTINUOUS
 10
113.2549055688
 20
119.3743490299
 11
113.2549055688
 21
137.677524317
  0
LINE
  5
235
100
AcDbEntity
  8
0
100
AcDbLine
 62
7
  6
CONTINUOUS
 10
102.5088145697
 20
105.6910108891
 11
102.5088145697
 21
137.677524317
  0
LINE
  5
236
100
AcDbEntity
  8
0
100
AcDbLine
 62
7
  6
CONTINUOUS
 10
113.2549055688
 20
136.177524317
 11
117.2549055688
 21
136.177524317
  0
LINE
  5
237
100
AcDbEntity
  8
0
100
AcDbLine
 62
7
  6
CONTINUOUS
 10
117.2549055688
 20
136.177524317
 11
107.8818600692
 21
136.177524317
  0
LINE
  5
238
100
AcDbEntity
  8
0
100
AcDbLine
 62
7
  6
CONTINUOUS
 10
102.5088145697
 20
136.177524317
 11
98.5088145697
 21
136.177524317
  0
LINE
  5
239
100
AcDbEntity
  8
0
100
AcDbLine
 62
7
  6
CONTINUOUS
 10
98.5088145697
 20
136.177524317
 11
107.8818600692
 21
136.177524317
  0
INSERT
  5
23A
100
AcDbEntity
  8
0
100
AcDbBlockReference
 62
7
  6
CONTINUOUS
  2
_FILLED
 10
113.2549055688
 20
136.177524317
 41
3.0
 42
3.0
 43
3.0
 50
180.0
  0
INSERT
  5
23B
100
AcDbEntity
  8
0
100
AcDbBlockReference
 62
7
  6
CONTINUOUS
  2
_FILLED
 10
102.5088145697
 20
136.177524317
 41
3.0
 42
3.0
 43
3.0
  0
ENDBLK
  5
23C
100
AcDbEntity
  8
0
  6
BYBLOCK
 62
0
100
AcDbBlockEnd
  0
ENDSEC
  0
SECTION
  2
ENTITIES
  0
DIMENSION
  5
23D
100
AcDbEntity
  8
0
100
AcDbDimension
 62
7
  6
CONTINUOUS
  2
*D0
 10
177.2322392642
 20
128.0989126481
 11
176.9025547619
 21
102.0094368017
 70
160
 71
2
 42
44.5161231477
  3
DIMSTYLE_1
100
AcDbAlignedDimension
 13
125.5609670637
 23
83.5827895004
 14
125.5317254279
 24
128.0989126481
 50
90.0
100
AcDbRotatedDimension
  0
DIMENSION
  5
23E
100
AcDbEntity
  8
0
100
AcDbDimension
 62
7
  6
CONTINUOUS
  2
*D1
 10
169.2322392642
 20
136.177524317
 11
142.4893821214
 21
138.427524317
 70
160
 71
2
 42
44.7
  3
DIMSTYLE_2
100
AcDbAlignedDimension
 13
124.5322392642
 23
93.177524317
 14
169.2322392642
 24
93.177524317
100
AcDbRotatedDimension
  0
DIMENSION
  5
23F
100
AcDbEntity
  8
0
100
AcDbDimension
 62
7
  6
CONTINUOUS
  2
*D2
 10
102.5088145697
 20
136.177524317
 11
103.8104314978
 21
138.427524317
 70
160
 71
2
 42
10.7460909991
  3
DIMSTYLE_1
100
AcDbAlignedDimension
 13
113.2549055688
 23
119.3743490299
 14
102.5088145697
 24
105.6910108891
 50
180.0
100
AcDbRotatedDimension
  0
LWPOLYLINE
  5
240
100
AcDbEntity
  8
RACCORDO
100
AcDbPolyline
 62
253
  6
CONTINUOUS
 90
9
 70
0
 10
125.180052931
 20
127.8020540852
 10
125.1789930054
 20
127.7946675436
 10
125.177891196
 20
127.7813906198
 10
125.1767754831
 20
127.7622919584
 10
125.1756946622
 20
127.7374698141
 10
125.174654712
 20
127.7070492638
 10
125.1736185979
 20
127.671179629
 10
125.1726102256
 20
127.6300367933
 10
125.1707225668
 20
127.5327822876
  0
LWPOLYLINE
  5
241
100
AcDbEntity
  8
RACCORDO
100
AcDbPolyline
 62
253
  6
CONTINUOUS
 90
16
 70
0
 10
168.6185281176
 20
83.7528728214
 10
168.6707297438
 20
83.7556748666
 10
168.7223603552
 20
83.7639074559
 10
168.7728552519
 20
83.7774805262
 10
168.8216621736
 20
83.7962456105
 10
168.8682472951
 20
83.8199974464
 10
168.9121010718
 20
83.8484762065
 10
168.9527438761
 20
83.8813703751
 10
168.9897312208
 20
83.9183201594
 10
169.0226585845
 20
83.9589213945
 10
169.0511658642
 20
84.0027299859
 10
169.0749413166
 20
84.0492667829
 10
169.093724951
 20
84.098022808
 10
169.1073113676
 20
84.1484648111
 10
169.1155520073
 20
84.2000411003
 10
169.11835678
 20
84.2521875887
  0
LWPOLYLINE
  5
242
100
AcDbEntity
  8
RACCORDO
100
AcDbPolyline
 62
253
  6
CONTINUOUS
 90
16
 70
0
 10
125.1459504102
 20
83.7528728199
 10
125.0937494402
 20
83.7556747951
 10
125.0421193986
 20
83.7639071922
 10
124.9916249697
 20
83.7774799724
 10
124.9428184173
 20
83.7962446886
 10
124.8962335446
 20
83.8199961087
 10
124.8523798562
 20
83.8484744605
 10
124.8117369852
 20
83.8813682727
 10
124.7747494479
 20
83.9183177816
 10
124.7418217814
 20
83.9589188659
 10
124.7133141198
 20
84.0027274665
 10
124.6895382548
 20
84.0492644433
 10
124.670754226
 20
84.0980208156
 10
124.6571674767
 20
84.1484633289
 10
124.6489266068
 20
84.2000402874
 10
124.6461217477
 20
84.2521875873
  0
LWPOLYLINE
  5
243
100
AcDbEntity
  8
RACCORDO
100
AcDbPolyline
 62
253
  6
CONTINUOUS
 90
7
 70
0
 10
125.1394705051
 20
83.8837579257
 10
125.1405138619
 20
83.8478853228
 10
125.1415612018
 20
83.8174622401
 10
125.1426496281
 20
83.792638039
 10
125.1437731222
 20
83.7735378229
 10
125.1448827415
 20
83.7602598635
 10
125.1459504102
 20
83.7528728199
  0
LINE
  5
244
100
AcDbEntity
  8
RACCORDO
100
AcDbLine
 62
253
  6
CONTINUOUS
 10
124.6909071018
 20
127.1456661968
 11
124.6927928616
 21
127.0780592437
  0
LINE
  5
245
100
AcDbEntity
  8
RACCORDO
100
AcDbLine
 62
253
  6
CONTINUOUS
 10
125.137494508
 20
83.9711178199
 11
125.1394705051
 21
83.8837579257
  0
LINE
  5
246
100
AcDbEntity
  8
RACCORDO
100
AcDbLine
 62
253
  6
CONTINUOUS
 10
124.6927928616
 20
127.0780592437
 11
124.6944067108
 21
127.001305782
  0
LINE
  5
247
100
AcDbEntity
  8
RACCORDO
100
AcDbLine
 62
253
  6
CONTINUOUS
 10
125.1356540682
 20
84.0777946261
 11
125.137494508
 21
83.9711178199
  0
LINE
  5
248
100
AcDbEntity
  8
RACCORDO
100
AcDbLine
 62
253
  6
CONTINUOUS
 10
124.6944067108
 20
127.001305782
 11
124.6957250062
 21
126.9165469124
  0
LINE
  5
249
100
AcDbEntity
  8
RACCORDO
100
AcDbLine
 62
253
  6
CONTINUOUS
 10
125.1332725178
 20
84.2692985355
 11
125.1356540682
 21
84.0777946261
  0
LINE
  5
24A
100
AcDbEntity
  8
RACCORDO
100
AcDbLine
 62
253
  6
CONTINUOUS
 10
124.6957250062
 20
126.9165469124
 11
124.6970833675
 21
126.7785289354
  0
LINE
  5
24B
100
AcDbEntity
  8
RACCORDO
100
AcDbLine
 62
253
  6
CONTINUOUS
 10
125.130502015
 20
84.6505419482
 11
125.1332725178
 21
84.2692985355
  0
LINE
  5
24C
100
AcDbEntity
  8
RACCORDO
100
AcDbLine
 62
7
  6
CONTINUOUS
 10
124.5598835646
 20
84.0795928723
 11
124.5322392642
 21
92.677524317
  0
LINE
  5
24D
100
AcDbEntity
  8
RACCORDO
100
AcDbLine
 62
253
  6
CONTINUOUS
 10
125.129663271
 20
84.9001603985
 11
125.130502015
 21
84.6505419482
  0
LINE
  5
24E
100
AcDbEntity
  8
RACCORDO
100
AcDbLine
 62
253
  6
CONTINUOUS
 10
124.6970833675
 20
126.7785289354
 11
124.6976512442
 21
126.6334361892
  0
LINE
  5
24F
100
AcDbEntity
  8
RACCORDO
100
AcDbLine
 62
253
  6
CONTINUOUS
 10
124.6976512442
 20
126.6334361892
 11
124.7086511775
 21
110.9744947331
  0
LINE
  5
250
100
AcDbEntity
  8
RACCORDO
100
AcDbLine
 62
7
  6
CONTINUOUS
 10
124.5322392642
 20
92.677524317
 11
124.5322392642
 21
105.244653753
  0
LINE
  5
251
100
AcDbEntity
  8
RACCORDO
100
AcDbLine
 62
7
  6
CONTINUOUS
 10
124.5322392642
 20
106.299049953
 11
124.5322392642
 21
114.827524317
  0
LINE
  5
252
100
AcDbEntity
  8
DRAFT
100
AcDbLine
 62
7
  6
CONTINUOUS
 10
124.5322392642
 20
114.827524317
 11
124.5322392642
 21
118.927524317
  0
LINE
  5
253
100
AcDbEntity
  8
RACCORDO
100
AcDbLine
 62
7
  6
CONTINUOUS
 10
124.5322392642
 20
118.927524317
 11
124.5322392642
 21
127.598912413
  0
LINE
  5
254
100
AcDbEntity
  8
RACCORDO
100
AcDbLine
 62
253
  6
CONTINUOUS
 10
124.7086511775
 20
110.9744947331
 11
124.7093903188
 21
106.3580883118
  0
LINE
  5
255
100
AcDbEntity
  8
DRAFT
100
AcDbLine
 62
7
  6
CONTINUOUS
 10
125.7322392642
 20
105.617524317
 11
125.7322392642
 21
105.6445776072
  0
LINE
  5
256
100
AcDbEntity
  8
RACCORDO
100
AcDbLine
 62
253
  6
CONTINUOUS
 10
125.1321088989
 20
105.1956605129
 11
125.1296632252
 21
84.9001603917
  0
LINE
  5
257
100
AcDbEntity
  8
RACCORDO
100
AcDbLine
 62
253
  6
CONTINUOUS
 10
124.6752716441
 20
105.196985976
 11
124.6730714425
 21
96.715701225
  0
LINE
  5
258
100
AcDbEntity
  8
RACCORDO
100
AcDbLine
 62
253
  6
CONTINUOUS
 10
124.6730714425
 20
96.715701225
 11
124.6684329386
 21
89.8908829178
  0
LINE
  5
259
100
AcDbEntity
  8
RACCORDO
100
AcDbLine
 62
253
  6
CONTINUOUS
 10
125.1643516817
 20
126.8221921404
 11
125.1663681214
 21
106.3594147427
  0
LINE
  5
25A
100
AcDbEntity
  8
RACCORDO
100
AcDbLine
 62
253
  6
CONTINUOUS
 10
124.6684329386
 20
89.8908829178
 11
124.6632585305
 21
84.8240157471
  0
LINE
  5
25B
100
AcDbEntity
  8
RACCORDO
100
AcDbLine
 62
253
  6
CONTINUOUS
 10
125.1667929741
 20
127.2146862237
 11
125.1643516817
 21
126.8221921404
  0
LINE
  5
25C
100
AcDbEntity
  8
RACCORDO
100
AcDbLine
 62
253
  6
CONTINUOUS
 10
124.6632585305
 20
84.8240157471
 11
124.6621593661
 21
84.6831342281
  0
LINE
  5
25D
100
AcDbEntity
  8
RACCORDO
100
AcDbLine
 62
253
  6
CONTINUOUS
 10
125.1689986404
 20
127.4172300704
 11
125.1667929741
 21
127.2146862237
  0
LINE
  5
25E
100
AcDbEntity
  8
RACCORDO
100
AcDbLine
 62
253
  6
CONTINUOUS
 10
124.6621593661
 20
84.6831342281
 11
124.661004656
 21
84.5952607693
  0
LINE
  5
25F
100
AcDbEntity
  8
RACCORDO
100
AcDbLine
 62
253
  6
CONTINUOUS
 10
125.1707225668
 20
127.5327822876
 11
125.1689986404
 21
127.4172300704
  0
LINE
  5
260
100
AcDbEntity
  8
RACCORDO
100
AcDbLine
 62
253
  6
CONTINUOUS
 10
124.661004656
 20
84.5952607693
 11
124.6595340846
 21
84.5141766459
  0
LWPOLYLINE
  5
261
100
AcDbEntity
  8
RACCORDO
100
AcDbPolyline
 62
253
  6
CONTINUOUS
 90
12
 70
0
 10
124.6595340846
 20
84.5141766459
 10
124.6577769053
 20
84.4417428712
 10
124.6568052128
 20
84.409273737
 10
124.6557751033
 20
84.3795201385
 10
124.6546874332
 20
84.3524404189
 10
124.653558296
 20
84.3284357382
 10
124.6523865041
 20
84.3075508607
 10
124.6511732451
 20
84.2897410221
 10
124.6499381743
 20
84.2752730888
 10
124.6486878438
 20
84.2642360163
 10
124.6474157016
 20
84.2565408491
 10
124.6461217477
 20
84.2521875873
  0
LINE
  5
262
100
AcDbEntity
  8
RACCORDO
100
AcDbLine
 62
7
  6
CONTINUOUS
 10
155.7956367239
 20
83.6039818967
 11
155.5624197984
 21
83.5827895004
  0
LINE
  5
263
100
AcDbEntity
  8
RACCORDO
100
AcDbLine
 62
7
  6
CONTINUOUS
 10
133.2956367239
 20
83.6039818967
 11
133.0624197984
 21
83.5827895004
  0
LWPOLYLINE
  5
264
100
AcDbEntity
  8
RACCORDO
100
AcDbPolyline
 62
253
  6
CONTINUOUS
 90
14
 70
0
 10
168.7317826554
 20
84.9009663966
 10
168.7785998466
 20
84.9016708111
 10
168.8236970794
 20
84.9025677052
 10
168.8666373638
 20
84.9036483879
 10
168.9070046103
 20
84.9049023876
 10
168.9444076623
 20
84.906317553
 10
168.9784840859
 20
84.9078801713
 10
169.0089036821
 20
84.9095751007
 10
169.0353716865
 20
84.9113859175
 10
169.0576316254
 20
84.913295075
 10
169.0754678009
 20
84.9152840735
 10
169.0887073813
 20
84.9173336397
 10
169.0972220758
 20
84.9194239135
 10
169.1009293773
 20
84.92153464
  0
LINE
  5
265
100
AcDbEntity
  8
RACCORDO
100
AcDbLine
 62
253
  6
CONTINUOUS
 10
168.634815294
 20
84.9001603779
 11
168.7317826554
 21
84.9009663966
  0
LINE
  5
266
100
AcDbEntity
  8
RACCORDO
100
AcDbLine
 62
253
  6
CONTINUOUS
 10
125.1459504102
 20
83.7528728199
 11
128.4199430998
 21
83.7627415527
  0
LINE
  5
267
100
AcDbEntity
  8
RACCORDO
100
AcDbLine
 62
253
  6
CONTINUOUS
 10
128.4199430998
 20
83.7627415527
 11
131.8440042299
 21
83.7691505796
  0
LINE
  5
268
100
AcDbEntity
  8
RACCORDO
100
AcDbLine
 62
253
  6
CONTINUOUS
 10
125.1296632252
 20
84.9001603917
 11
131.837914783
 21
84.9066224169
  0
LINE
  5
269
100
AcDbEntity
  8
RACCORDO
100
AcDbLine
 62
253
  6
CONTINUOUS
 10
131.8440042299
 20
83.7691505796
 11
135.6324582483
 21
83.7716104303
  0
LINE
  5
26A
100
AcDbEntity
  8
RACCORDO
100
AcDbLine
 62
7
  6
CONTINUOUS
 10
168.7035114648
 20
83.5827895004
 11
160.7020587301
 21
83.5827895004
  0
LINE
  5
26B
100
AcDbEntity
  8
DRAFT
100
AcDbLine
 62
7
  6
CONTINUOUS
 10
155.5624197984
 20
83.5827895004
 11
138.2020587301
 21
83.5827895004
  0
LINE
  5
26C
100
AcDbEntity
  8
RACCORDO
100
AcDbLine
 62
7
  6
CONTINUOUS
 10
133.0624197984
 20
83.5827895004
 11
125.0609670637
 21
83.5827895004
  0
LINE
  5
26D
100
AcDbEntity
  8
RACCORDO
100
AcDbLine
 62
7
  6
CONTINUOUS
 10
160.2090341835
 20
83.61185146
 11
156.055444345
 21
83.61185146
  0
LINE
  5
26E
100
AcDbEntity
  8
RACCORDO
100
AcDbLine
 62
7
  6
CONTINUOUS
 10
137.7090341835
 20
83.61185146
 11
133.555444345
 21
83.61185146
  0
LINE
  5
26F
100
AcDbEntity
  8
RACCORDO
100
AcDbLine
 62
253
  6
CONTINUOUS
 10
131.837914783
 20
84.9066224169
 11
159.3431544864
 21
84.9073460412
  0
LINE
  5
270
100
AcDbEntity
  8
RACCORDO
100
AcDbLine
 62
253
  6
CONTINUOUS
 10
135.6324582483
 20
83.7716104303
 11
160.528568608
 21
83.7705873436
  0
LINE
  5
271
100
AcDbEntity
  8
RACCORDO
100
AcDbLine
 62
253
  6
CONTINUOUS
 10
159.3431544864
 20
84.9073460412
 11
163.9574025077
 21
84.9053196949
  0
LINE
  5
272
100
AcDbEntity
  8
RACCORDO
100
AcDbLine
 62
253
  6
CONTINUOUS
 10
163.9574025077
 20
84.9053196949
 11
168.6348152941
 21
84.9001603926
  0
LINE
  5
273
100
AcDbEntity
  8
RACCORDO
100
AcDbLine
 62
253
  6
CONTINUOUS
 10
160.528568608
 20
83.7705873436
 11
163.9453406296
 21
83.7658744316
  0
LWPOLYLINE
  5
274
100
AcDbEntity
  8
RACCORDO
100
AcDbPolyline
 62
253
  6
CONTINUOUS
 90
3
 70
0
 10
163.9453406296
 20
83.7658744316
 10
167.4203967207
 20
83.7568730712
 10
168.6185281188
 20
83.7528728189
  0
LWPOLYLINE
  5
275
100
AcDbEntity
  8
RACCORDO
100
AcDbPolyline
 62
253
  6
CONTINUOUS
 90
15
 70
0
 10
125.129664134
 20
84.9001609291
 10
125.0326976906
 20
84.9009669216
 10
124.9858808975
 20
84.9016713142
 10
124.9407840046
 20
84.9025681807
 10
124.8978439899
 20
84.9036488308
 10
124.8574769319
 20
84.9049027935
 10
124.8200739775
 20
84.9063179184
 10
124.7859975525
 20
84.9078804931
 10
124.7555778491
 20
84.9095753767
 10
124.729109627
 20
84.9113861462
 10
124.7068493568
 20
84.9132952556
 10
124.6890127353
 20
84.9152842062
 10
124.6757725949
 20
84.9173337254
 10
124.6672572295
 20
84.9194239541
 10
124.6635491509
 20
84.9215346382
  0
LINE
  5
276
100
AcDbEntity
  8
RACCORDO
100
AcDbLine
 62
7
  6
CONTINUOUS
 10
137.9688418046
 20
83.6039818967
 11
138.2020587301
 21
83.5827895004
  0
LINE
  5
277
100
AcDbEntity
  8
RACCORDO
100
AcDbLine
 62
7
  6
CONTINUOUS
 10
160.4688418046
 20
83.6039818967
 11
160.7020587301
 21
83.5827895004
  0
LWPOLYLINE
  5
278
100
AcDbEntity
  8
RACCORDO
100
AcDbPolyline
 62
253
  6
CONTINUOUS
 90
4
 70
0
 10
130.5908317441
 20
105.9975347389
 10
130.5878055251
 20
106.0397114008
 10
130.586403342
 20
106.0660438285
 10
130.5841489845
 20
106.1282584995
  0
LWPOLYLINE
  5
279
100
AcDbEntity
  8
RACCORDO
100
AcDbPolyline
 62
253
  6
CONTINUOUS
 90
4
 70
0
 10
130.5841489845
 20
106.1282584995
 10
130.5830935571
 20
106.1632929969
 10
130.5825090049
 20
106.2004613046
 10
130.5809218877
 20
106.2798798801
  0
LWPOLYLINE
  5
27A
100
AcDbEntity
  8
RACCORDO
100
AcDbPolyline
 62
253
  6
CONTINUOUS
 90
3
 70
0
 10
130.5809218877
 20
106.2798798801
 10
130.5805395768
 20
106.3210930747
 10
130.5809480598
 20
106.362568575
  0
LWPOLYLINE
  5
27B
100
AcDbEntity
  8
RACCORDO
100
AcDbPolyline
 62
253
  6
CONTINUOUS
 90
5
 70
0
 10
130.5830933238
 20
105.3917476304
 10
130.5817866992
 20
105.3155688885
 10
130.5809218775
 20
105.2751644228
 10
130.5805396062
 20
105.2339532326
 10
130.5809480598
 20
105.1924800591
  0
LWPOLYLINE
  5
27C
100
AcDbEntity
  8
RACCORDO
100
AcDbPolyline
 62
253
  6
CONTINUOUS
 90
3
 70
0
 10
130.5864029609
 20
105.4889976908
 10
130.5841487391
 20
105.42678192
 10
130.5830933238
 20
105.3917476304
  0
LINE
  5
27D
100
AcDbEntity
  8
RACCORDO
100
AcDbLine
 62
253
  6
CONTINUOUS
 10
130.5878051867
 20
105.5153312265
 11
130.5864029609
 21
105.4889976908
  0
LWPOLYLINE
  5
27E
100
AcDbEntity
  8
RACCORDO
100
AcDbPolyline
 62
7
  6
CONTINUOUS
 90
10
 70
0
 10
130.9981918462
 20
106.2211521248
 10
130.9971049728
 20
106.2176337753
 10
130.9959847479
 20
106.2141214772
 10
130.9948311148
 20
106.210614947
 10
130.993644569
 20
106.2071147098
 10
130.9924245022
 20
106.2036196739
 10
130.9911692218
 20
106.2001271167
 10
130.9898781491
 20
106.1966359243
 10
130.9885518001
 20
106.1931466057
 10
130.9871901436
 20
106.1896588583
  0
LINE
  5
27F
100
AcDbEntity
  8
RACCORDO
100
AcDbLine
 62
7
  6
CONTINUOUS
 10
137.8873843939
 20
127.9702391963
 11
137.9302406928
 21
128.0989126481
  0
LWPOLYLINE
  5
280
100
AcDbEntity
  8
RACCORDO
100
AcDbPolyline
 62
253
  6
CONTINUOUS
 90
13
 70
0
 10
130.9790794446
 20
106.2420227012
 10
130.9643248081
 20
106.202498592
 10
130.9454892149
 20
106.1647478863
 10
130.9227821307
 20
106.1291905824
 10
130.8964559992
 20
106.0962221793
 10
130.8668037073
 20
106.0662096297
 10
130.8341554414
 20
106.0394871472
 10
130.798874559
 20
106.0163520366
 10
130.7613534945
 20
105.997061539
 10
130.7220097547
 20
105.9818302255
 10
130.6812810758
 20
105.9708274674
 10
130.6396205419
 20
105.9641755761
 10
130.597491611
 20
105.9619484685
  0
LWPOLYLINE
  5
281
100
AcDbEntity
  8
RACCORDO
100
AcDbPolyline
 62
7
  6
CONTINUOUS
 90
13
 70
0
 10
130.9871900731
 20
106.1896588781
 10
130.9721611855
 20
106.1562559513
 10
130.9542058219
 20
106.1244832462
 10
130.9335027468
 20
106.094588027
 10
130.9102787341
 20
106.0668283565
 10
130.8847274051
 20
106.0413747475
 10
130.8569805926
 20
106.0183354555
 10
130.8272638152
 20
105.9978982977
 10
130.7958182734
 20
105.9802294607
 10
130.7627829025
 20
105.9654266848
 10
130.7283739241
 20
105.9536308295
 10
130.692901546
 20
105.9449911692
 10
130.6566524673
 20
105.9396135747
  0
LWPOLYLINE
  5
282
100
AcDbEntity
  8
RACCORDO
100
AcDbPolyline
 62
7
  6
CONTINUOUS
 90
10
 70
0
 10
130.9871901433
 20
105.3653896059
 10
130.9885518164
 20
105.3619018894
 10
130.9898781763
 20
105.3584125978
 10
130.9911692542
 20
105.3549214282
 10
130.9924245324
 20
105.3514288886
 10
130.9936445914
 20
105.3479338661
 10
130.9948311297
 20
105.3444336423
 10
130.9959847575
 20
105.340927127
 10
130.9971049775
 20
105.3374148439
 10
130.9981918461
 20
105.3338965094
  0
LWPOLYLINE
  5
283
100
AcDbEntity
  8
RACCORDO
100
AcDbPolyline
 62
253
  6
CONTINUOUS
 90
22
 70
0
 10
130.5809480598
 20
105.1924800591
 10
130.6189523722
 20
105.0829099796
 10
130.6634008947
 20
104.9760642984
 10
130.7142938649
 20
104.8719429975
 10
130.7718299526
 20
104.7700855683
 10
130.8358110637
 20
104.6709524884
 10
130.9056423068
 20
104.5759252261
 10
130.9814483865
 20
104.4850583273
 10
131.0631052599
 20
104.3982972346
 10
131.1496448536
 20
104.3168597718
 10
131.241149495
 20
104.2408510287
 10
131.3375374667
 20
104.1701659255
 10
131.4375944932
 20
104.1057070419
 10
131.541400133
 20
104.047582552
 10
131.6488752746
 20
103.9956843101
 10
131.7585674438
 20
103.9505904241
 10
131.8704950146
 20
103.912436489
 10
131.9846398199
 20
103.8810869509
 10
132.0994943516
 20
103.8567131974
 10
132.2145560487
 20
103.8393723731
 10
132.3303274173
 20
103.8290073788
 10
132.4468084389
 20
103.8256182382
  0
LWPOLYLINE
  5
284
100
AcDbEntity
  8
RACCORDO
100
AcDbPolyline
 62
253
  6
CONTINUOUS
 90
22
 70
0
 10
130.979079445
 20
105.3130259317
 10
131.0090568086
 20
105.2265976584
 10
131.0442730265
 20
105.1416609377
 10
131.0846811637
 20
105.0585464896
 10
131.1302442202
 20
104.9775341773
 10
131.1808469886
 20
104.8990120202
 10
131.2362648537
 20
104.8234549781
 10
131.2963397649
 20
104.7511668254
 10
131.3608886805
 20
104.6824499037
 10
131.4295657653
 20
104.6177233971
 10
131.5021178542
 20
104.5572474027
 10
131.5782954294
 20
104.5012503463
 10
131.6576918728
 20
104.4500349918
 10
131.7400181445
 20
104.403775504
 10
131.8249515229
 20
104.3626413843
 10
131.9119874423
 20
104.3268446638
 10
132.000780227
 20
104.2964755273
 10
132.0909953418
 20
104.271597671
 10
132.182117626
 20
104.2522880706
 10
132.2737430955
 20
104.2385465363
 10
132.3655897471
 20
104.2303306333
 10
132.457325413
 20
104.2275917564
  0
LWPOLYLINE
  5
285
100
AcDbEntity
  8
RACCORDO
100
AcDbPolyline
 62
253
  6
CONTINUOUS
 90
10
 70
0
 10
124.6802242685
 20
127.3027393178
 10
124.6815181353
 20
127.2983863999
 10
124.6827901938
 20
127.2906918677
 10
124.6840404441
 20
127.2796557211
 10
124.6852754371
 20
127.2651890249
 10
124.6864886218
 20
127.2473807143
 10
124.6876603459
 20
127.2264975956
 10
124.6887894223
 20
127.2024949124
 10
124.689877038
 20
127.1754174211
 10
124.6909071018
 20
127.1456661968
  0
LINE
  5
286
100
AcDbEntity
  8
RACCORDO
100
AcDbLine
 62
253
  6
CONTINUOUS
 10
132.4495015554
 20
107.4617894313
 11
132.4482189094
 21
107.5295980389
  0
LINE
  5
287
100
AcDbEntity
  8
RACCORDO
100
AcDbLine
 62
253
  6
CONTINUOUS
 10
132.4482189094
 20
107.5295980389
 11
132.4473286341
 21
107.6060120916
  0
LWPOLYLINE
  5
288
100
AcDbEntity
  8
RACCORDO
100
AcDbPolyline
 62
253
  6
CONTINUOUS
 90
3
 70
0
 10
132.4473286341
 20
107.6060120916
 10
132.4468694551
 20
107.687707706
 10
132.4468085304
 20
107.7294303784
  0
LINE
  5
289
100
AcDbEntity
  8
RACCORDO
100
AcDbLine
 62
253
  6
CONTINUOUS
 10
132.457239412
 20
104.252524317
 11
132.457325413
 21
104.2275917631
  0
LINE
  5
28A
100
AcDbEntity
  8
RACCORDO
100
AcDbLine
 62
253
  6
CONTINUOUS
 10
132.4572392642
 20
107.302524317
 11
132.4573293315
 21
107.3274568717
  0
LINE
  5
28B
100
AcDbEntity
  8
RACCORDO
100
AcDbLine
 62
253
  6
CONTINUOUS
 10
132.4470434111
 20
103.9086294096
 11
132.4468084389
 21
103.8256182382
  0
LINE
  5
28C
100
AcDbEntity
  8
RACCORDO
100
AcDbLine
 62
253
  6
CONTINUOUS
 10
132.4477218727
 20
103.9881163468
 11
132.4470434111
 21
103.9086294096
  0
LWPOLYLINE
  5
28D
100
AcDbEntity
  8
RACCORDO
100
AcDbPolyline
 62
253
  6
CONTINUOUS
 90
11
 70
0
 10
132.4572392642
 20
104.2275917795
 10
132.4561515331
 20
104.2250471894
 10
132.4550756625
 20
104.2181689183
 10
132.4540233839
 20
104.2070319667
 10
132.4530061711
 20
104.1917577718
 10
132.4520351159
 20
104.1725128831
 10
132.4511208067
 20
104.1495071466
 10
132.450273213
 20
104.1229914164
 10
132.449501577
 20
104.0932548197
 10
132.4488143126
 20
104.0606216037
 10
132.4477218727
 20
103.9881163468
  0
LWPOLYLINE
  5
28E
100
AcDbEntity
  8
RACCORDO
100
AcDbPolyline
 62
253
  6
CONTINUOUS
 90
6
 70
0
 10
130.597491611
 20
105.5931001655
 10
130.595986347
 20
105.5904944007
 10
130.5942286154
 20
105.5836092567
 10
130.5924014416
 20
105.5726244186
 10
130.5908314342
 20
105.5575106579
 10
130.5878051867
 20
105.5153312265
  0
LINE
  5
28F
100
AcDbEntity
  8
RACCORDO
100
AcDbLine
 62
253
  6
CONTINUOUS
 10
130.5974916057
 20
105.5931001655
 11
130.6155054561
 21
105.617524317
  0
LWPOLYLINE
  5
290
100
AcDbEntity
  8
RACCORDO
100
AcDbPolyline
 62
253
  6
CONTINUOUS
 90
16
 70
0
 10
125.1665020052
 20
105.5961241428
 10
125.1629239419
 20
105.5935920436
 10
125.1593847076
 20
105.5867468005
 10
125.15592271
 20
105.5756626977
 10
125.1525755185
 20
105.5604600197
 10
125.1493794569
 20
105.5413037455
 10
125.1463692086
 20
105.5184017582
 10
125.1435774408
 20
105.4920025897
 10
125.1410344496
 20
105.4623927227
 10
125.1387678316
 20
105.4298934827
 10
125.1368021839
 20
105.3948575505
 10
125.1351588378
 20
105.3576651348
 10
125.1338556267
 20
105.3187198466
 10
125.1329066931
 20
105.2784443189
 10
125.1323223348
 20
105.2372756205
 10
125.1321088932
 20
105.1956605129
  0
LWPOLYLINE
  5
291
100
AcDbEntity
  8
RACCORDO
100
AcDbPolyline
 62
253
  6
CONTINUOUS
 90
16
 70
0
 10
125.2006487886
 20
105.9589501662
 10
125.1970826302
 20
105.9614827882
 10
125.1935551724
 20
105.9683284878
 10
125.1901046945
 20
105.9794129766
 10
125.1867686406
 20
105.9946159678
 10
125.1835832131
 20
106.0137724813
 10
125.1805829796
 20
106.0366746342
 10
125.1778004983
 20
106.0630738965
 10
125.1752659645
 20
106.0926837881
 10
125.1730068826
 20
106.125182988
 10
125.1710477681
 20
106.1602188209
 10
125.169409881
 20
106.1974110842
 10
125.168110996
 20
106.2363561743
 10
125.1671652086
 20
106.2766314662
 10
125.1665827826
 20
106.3177998999
 10
125.1663700387
 20
106.359414723
  0
LINE
  5
292
100
AcDbEntity
  8
RACCORDO
100
AcDbLine
 62
253
  6
CONTINUOUS
 10
130.6155054561
 20
105.937524317
 11
130.5974916057
 21
105.9619484685
  0
LWPOLYLINE
  5
293
100
AcDbEntity
  8
RACCORDO
100
AcDbPolyline
 62
253
  6
CONTINUOUS
 90
5
 70
0
 10
130.597491611
 20
105.9619484685
 10
130.5959863083
 20
105.9645539583
 10
130.5942286885
 20
105.9714384044
 10
130.5924016883
 20
105.982422231
 10
130.5908317441
 20
105.9975347389
  0
LWPOLYLINE
  5
294
100
AcDbEntity
  8
RACCORDO
100
AcDbPolyline
 62
253
  6
CONTINUOUS
 90
9
 70
0
 10
132.4572392651
 20
107.3274491859
 10
132.4561515266
 20
107.329993866
 10
132.4550756492
 20
107.3368723334
 10
132.4540233646
 20
107.3480095832
 10
132.4530061473
 20
107.3632841715
 10
132.4520350892
 20
107.3825295395
 10
132.4511207792
 20
107.4055358296
 10
132.4502731872
 20
107.4320521743
 10
132.4495015554
 20
107.4617894313
  0
LINE
  5
295
100
AcDbEntity
  8
RACCORDO
100
AcDbLine
 62
253
  6
CONTINUOUS
 10
135.6323303114
 20
107.3278211531
 11
135.6323247034
 21
127.4997772849
  0
LINE
  5
296
100
AcDbEntity
  8
RACCORDO
100
AcDbLine
 62
253
  6
CONTINUOUS
 10
135.6323247034
 20
127.4997772849
 11
135.6324582483
 21
127.7834382038
  0
LWPOLYLINE
  5
297
100
AcDbEntity
  8
RACCORDO
100
AcDbPolyline
 62
253
  6
CONTINUOUS
 90
3
 70
0
 10
135.6323303114
 20
104.227227481
 10
135.6323208175
 20
104.2246830483
 10
135.6324582483
 20
83.7716104303
  0
LINE
  5
298
100
AcDbEntity
  8
RACCORDO
100
AcDbLine
 62
253
  6
CONTINUOUS
 10
124.6461217477
 20
84.2521875873
 11
124.5598835646
 21
84.0795928723
  0
LINE
  5
299
100
AcDbEntity
  8
RACCORDO
100
AcDbLine
 62
253
  6
CONTINUOUS
 10
130.979079445
 20
105.3130259317
 11
130.9981918462
 21
105.3338965093
  0
LINE
  5
29A
100
AcDbEntity
  8
RACCORDO
100
AcDbLine
 62
253
  6
CONTINUOUS
 10
130.9981918462
 20
106.2211521248
 11
130.9790747859
 21
106.2420078677
  0
LINE
  5
29B
100
AcDbEntity
  8
RACCORDO
100
AcDbLine
 62
253
  6
CONTINUOUS
 10
125.1459504102
 20
83.7528728199
 11
125.0609670637
 21
83.5827895004
  0
LINE
  5
29C
100
AcDbEntity
  8
RACCORDO
100
AcDbLine
 62
253
  6
CONTINUOUS
 10
124.5322392642
 20
127.598912413
 11
124.6802242685
 21
127.3027393178
  0
LINE
  5
29D
100
AcDbEntity
  8
RACCORDO
100
AcDbLine
 62
253
  6
CONTINUOUS
 10
125.0317254279
 20
128.0989126481
 11
125.1800529298
 21
127.8020540877
  0
LWPOLYLINE
  5
29E
100
AcDbEntity
  8
RACCORDO
100
AcDbPolyline
 62
253
  6
CONTINUOUS
 90
7
 70
0
 10
140.6676557837
 20
105.9628599311
 10
140.667378538
 20
105.9654570741
 10
140.6674440812
 20
105.9723354816
 10
140.6676574816
 20
105.9833285947
 10
140.6676444775
 20
105.9984437478
 10
140.6675030106
 20
106.0176513603
 10
140.6677350032
 20
106.0669399143
  0
LWPOLYLINE
  5
29F
100
AcDbEntity
  8
RACCORDO
100
AcDbPolyline
 62
253
  6
CONTINUOUS
 90
3
 70
0
 10
140.6677350032
 20
106.0669399143
 10
140.6675416282
 20
106.0965552663
 10
140.6677731469
 20
106.1641510837
  0
LWPOLYLINE
  5
2A0
100
AcDbEntity
  8
RACCORDO
100
AcDbPolyline
 62
253
  6
CONTINUOUS
 90
6
 70
0
 10
140.6677731469
 20
106.1641510837
 10
140.6675688442
 20
106.2013016055
 10
140.6676610257
 20
106.2402975308
 10
140.6680644438
 20
106.2806960643
 10
140.6681650364
 20
106.321898394
 10
140.6676613075
 20
106.3633562681
  0
LWPOLYLINE
  5
2A1
100
AcDbEntity
  8
RACCORDO
100
AcDbPolyline
 62
253
  6
CONTINUOUS
 90
7
 70
0
 10
140.6675416195
 20
105.4585012679
 10
140.6677731095
 20
105.3909055818
 10
140.6675688134
 20
105.3537542539
 10
140.6676610276
 20
105.3147570719
 10
140.6680644767
 20
105.2743569125
 10
140.6681650814
 20
105.2331525711
 10
140.667661308
 20
105.1916923653
  0
LWPOLYLINE
  5
2A2
100
AcDbEntity
  8
RACCORDO
100
AcDbPolyline
 62
253
  6
CONTINUOUS
 90
3
 70
0
 10
140.6675030533
 20
105.5374019333
 10
140.6677349491
 20
105.4881158598
 10
140.6675416195
 20
105.4585012679
  0
LINE
  5
2A3
100
AcDbEntity
  8
RACCORDO
100
AcDbLine
 62
253
  6
CONTINUOUS
 10
138.8072391165
 20
107.302524317
 11
138.8072292385
 21
107.7296927032
  0
LINE
  5
2A4
100
AcDbEntity
  8
RACCORDO
100
AcDbLine
 62
253
  6
CONTINUOUS
 10
138.8072392642
 20
104.252524317
 11
138.8072292389
 21
103.8253559461
  0
LWPOLYLINE
  5
2A5
100
AcDbEntity
  8
RACCORDO
100
AcDbPolyline
 62
253
  6
CONTINUOUS
 90
6
 70
0
 10
140.6676557837
 20
105.592188703
 10
140.6673786785
 20
105.5895918342
 10
140.6674441922
 20
105.5827141261
 10
140.6676574821
 20
105.5717220306
 10
140.6676444608
 20
105.5566081374
 10
140.6675030533
 20
105.5374019333
  0
LWPOLYLINE
  5
2A6
100
AcDbEntity
  8
RACCORDO
100
AcDbPolyline
 62
7
  6
CONTINUOUS
 90
10
 70
0
 10
140.2662866823
 20
105.3338965094
 10
140.2673735514
 20
105.3374148452
 10
140.2684937719
 20
105.3409271298
 10
140.2696474002
 20
105.3444336465
 10
140.2708339388
 20
105.3479338719
 10
140.272053998
 20
105.3514288959
 10
140.2733092773
 20
105.3549214366
 10
140.2746003574
 20
105.3584126065
 10
140.2759267202
 20
105.3619018979
 10
140.2772883971
 20
105.3653896137
  0
LINE
  5
2A7
100
AcDbEntity
  8
RACCORDO
100
AcDbLine
 62
253
  6
CONTINUOUS
 10
124.7093903188
 20
106.3580883118
 11
124.5322392642
 21
106.299049953
  0
LINE
  5
2A8
100
AcDbEntity
  8
RACCORDO
100
AcDbLine
 62
253
  6
CONTINUOUS
 10
125.1092532487
 20
105.9581035425
 11
124.9322849763
 21
105.8991260988
  0
LINE
  5
2A9
100
AcDbEntity
  8
DRAFT
100
AcDbLine
 62
7
  6
CONTINUOUS
 10
125.7322392642
 20
105.8991260988
 11
125.8474573191
 21
105.937524317
  0
LINE
  5
2AA
100
AcDbEntity
  8
RACCORDO
100
AcDbLine
 62
253
  6
CONTINUOUS
 10
124.5322392642
 20
105.244653753
 11
124.6752716441
 21
105.196985976
  0
LINE
  5
2AB
100
AcDbEntity
  8
RACCORDO
100
AcDbLine
 62
253
  6
CONTINUOUS
 10
124.9322849763
 20
105.6445776072
 11
125.075134574
 21
105.5969707452
  0
LWPOLYLINE
  5
2AC
100
AcDbEntity
  8
RACCORDO
100
AcDbPolyline
 62
253
  6
CONTINUOUS
 90
22
 70
0
 10
140.2861091055
 20
106.2428032751
 10
140.2560032764
 20
106.3294473782
 10
140.220643395
 20
106.414564461
 10
140.1800813515
 20
106.497823269
 10
140.1343589032
 20
106.5789439189
 10
140.083596405
 20
106.6575389435
 10
140.0280239601
 20
106.7331346648
 10
139.9678045424
 20
106.8054287311
 10
139.9031254212
 20
106.8741214888
 10
139.8343362956
 20
106.9387978309
 10
139.7616943923
 20
106.9992004779
 10
139.6854519465
 20
107.0551050577
 10
139.6060161574
 20
107.1062149437
 10
139.5236782842
 20
107.1523596214
 10
139.4387621438
 20
107.1933738587
 10
139.351769606
 20
107.2290519745
 10
139.2630471317
 20
107.2593071938
 10
139.1729282698
 20
107.2840796602
 10
139.0819213349
 20
107.3032976206
 10
138.9904268642
 20
107.3169640027
 10
138.8987273038
 20
107.3251227236
 10
138.8071530477
 20
107.3278243997
  0
LWPOLYLINE
  5
2AD
100
AcDbEntity
  8
RACCORDO
100
AcDbPolyline
 62
253
  6
CONTINUOUS
 90
13
 70
0
 10
140.2861091059
 20
105.3122453603
 10
140.3008727413
 20
105.3517539313
 10
140.319714566
 20
105.3894887694
 10
140.3424251558
 20
105.4250302807
 10
140.3687521608
 20
105.457983354
 10
140.3984028431
 20
105.487981411
 10
140.4310472211
 20
105.5146905889
 10
140.4663221813
 20
105.5378138923
 10
140.5038355664
 20
105.5570943473
 10
140.5431701832
 20
105.5723176097
 10
140.5838886353
 20
105.5833144874
 10
140.6255381972
 20
105.5899627984
 10
140.6676557837
 20
105.592188703
  0
LWPOLYLINE
  5
2AE
100
AcDbEntity
  8
RACCORDO
100
AcDbPolyline
 62
7
  6
CONTINUOUS
 90
13
 70
0
 10
140.2772883974
 20
105.3653896136
 10
140.292317261
 20
105.3987925236
 10
140.3102725969
 20
105.4305652147
 10
140.3309756407
 20
105.4604604231
 10
140.3541996191
 20
105.4882200866
 10
140.3797509109
 20
105.5136736929
 10
140.4074976844
 20
105.5367129874
 10
140.4372144217
 20
105.5571501532
 10
140.4686599228
 20
105.5748190041
 10
140.5016952531
 20
105.5896217996
 10
140.5361041917
 20
105.6014176807
 10
140.5715765313
 20
105.6100573729
 10
140.6078255739
 20
105.6154350055
  0
LINE
  5
2AF
100
AcDbEntity
  8
RACCORDO
100
AcDbLine
 62
253
  6
CONTINUOUS
 10
140.6676557892
 20
105.9628599311
 11
140.6489730724
 21
105.937524317
  0
LINE
  5
2B0
100
AcDbEntity
  8
RACCORDO
100
AcDbLine
 62
253
  6
CONTINUOUS
 10
140.2861091055
 20
106.2428032751
 11
140.2662866823
 21
106.2211521248
  0
LWPOLYLINE
  5
2B1
100
AcDbEntity
  8
RACCORDO
100
AcDbPolyline
 62
253
  6
CONTINUOUS
 90
4
 70
0
 10
130.9235939571
 20
105.2980877157
 10
130.8742529164
 20
105.2830962731
 10
130.8445994837
 20
105.2743387122
 10
130.7773451906
 20
105.2535050212
  0
LWPOLYLINE
  5
2B2
100
AcDbEntity
  8
RACCORDO
100
AcDbPolyline
 62
253
  6
CONTINUOUS
 90
6
 70
0
 10
130.7773451906
 20
105.2535050212
 10
130.7404226231
 20
105.242344233
 10
130.7018683491
 20
105.230290797
 10
130.662143919
 20
105.2174701641
 10
130.6216802184
 20
105.2047052321
 10
130.5809480598
 20
105.1924800591
  0
LINE
  5
2B3
100
AcDbEntity
  8
RACCORDO
100
AcDbLine
 62
253
  6
CONTINUOUS
 10
130.8742433038
 20
106.2719553177
 11
130.8445887495
 21
106.2807131784
  0
LINE
  5
2B4
100
AcDbEntity
  8
RACCORDO
100
AcDbLine
 62
253
  6
CONTINUOUS
 10
130.9235877189
 20
106.2569626774
 11
130.8742433038
 21
106.2719553177
  0
LWPOLYLINE
  5
2B5
100
AcDbEntity
  8
RACCORDO
100
AcDbPolyline
 62
253
  6
CONTINUOUS
 90
7
 70
0
 10
130.8445887495
 20
106.2807131784
 10
130.7773341339
 20
106.3015470545
 10
130.7404125716
 20
106.312707542
 10
130.701859958
 20
106.3247604316
 10
130.6621377674
 20
106.3375803308
 10
130.6216768917
 20
106.350344369
 10
130.5809480598
 20
106.362568575
  0
LINE
  5
2B6
100
AcDbEntity
  8
RACCORDO
100
AcDbLine
 62
253
  6
CONTINUOUS
 10
140.2662866823
 20
105.3338965093
 11
140.2861137519
 21
105.3122601267
  0
LINE
  5
2B7
100
AcDbEntity
  8
RACCORDO
100
AcDbLine
 62
253
  6
CONTINUOUS
 10
140.6489730724
 20
105.617524317
 11
140.6676557892
 21
105.592188703
  0
LWPOLYLINE
  5
2B8
100
AcDbEntity
  8
RACCORDO
100
AcDbPolyline
 62
7
  6
CONTINUOUS
 90
13
 70
0
 10
140.2772883987
 20
106.1896590208
 10
140.2923071721
 20
106.1562417184
 10
140.310265815
 20
106.1244735695
 10
140.3309757159
 20
106.0945881128
 10
140.3542029305
 20
106.0668330711
 10
140.3797535859
 20
106.041378433
 10
140.4074978102
 20
106.0183355481
 10
140.4372153604
 20
105.9978996664
 10
140.4686642731
 20
105.9802355556
 10
140.5016953284
 20
105.9654267985
 10
140.5360924305
 20
105.9536145957
 10
140.571560402
 20
105.9449690063
 10
140.607825409
 20
105.9396136392
  0
LWPOLYLINE
  5
2B9
100
AcDbEntity
  8
RACCORDO
100
AcDbPolyline
 62
7
  6
CONTINUOUS
 90
10
 70
0
 10
140.2772883392
 20
106.1896590041
 10
140.2759266859
 20
106.1931467332
 10
140.2746003409
 20
106.1966360341
 10
140.2733092729
 20
106.2001272097
 10
140.2720539982
 20
106.2036197509
 10
140.2708339378
 20
106.2071147716
 10
140.2696473982
 20
106.2106149937
 10
140.2684937706
 20
106.2141215083
 10
140.2673735508
 20
106.2176337909
 10
140.2662866824
 20
106.2211521247
  0
LWPOLYLINE
  5
2BA
100
AcDbEntity
  8
RACCORDO
100
AcDbPolyline
 62
253
  6
CONTINUOUS
 90
22
 70
0
 10
140.6676613075
 20
106.3633562681
 10
140.6296213446
 20
106.4731896792
 10
140.58515174
 20
106.5802548471
 10
140.5342524761
 20
106.6845517688
 10
140.4767199647
 20
106.7865394777
 10
140.4127577517
 20
106.885758936
 10
140.3429765194
 20
106.9808330378
 10
140.2672536327
 20
107.0717047167
 10
140.1857116773
 20
107.1584310437
 10
140.0993291709
 20
107.2398061244
 10
140.0080268009
 20
107.3157232548
 10
139.9118838287
 20
107.3862891509
 10
139.8121166415
 20
107.4506180521
 10
139.7086487741
 20
107.5086016776
 10
139.6015566431
 20
107.5603483233
 10
139.4922859723
 20
107.6052970961
 10
139.3808213962
 20
107.6433136383
 10
139.2671782395
 20
107.674532321
 10
139.1528482787
 20
107.6987953451
 10
139.0383287678
 20
107.716050114
 10
138.9231224267
 20
107.7263492327
 10
138.8072292385
 20
107.7296927032
  0
LINE
  5
2BB
100
AcDbEntity
  8
RACCORDO
100
AcDbLine
 62
7
  6
CONTINUOUS
 10
133.3770941346
 20
127.9702391963
 11
133.3342378357
 21
128.0989126481
  0
LWPOLYLINE
  5
2BC
100
AcDbEntity
  8
RACCORDO
100
AcDbPolyline
 62
253
  6
CONTINUOUS
 90
3
 70
0
 10
140.3382868745
 20
106.2593101065
 10
140.3851570526
 20
106.2743836532
 10
140.413425555
 20
106.2831125931
  0
LWPOLYLINE
  5
2BD
100
AcDbEntity
  8
RACCORDO
100
AcDbPolyline
 62
253
  6
CONTINUOUS
 90
7
 70
0
 10
140.413425555
 20
106.2831125931
 10
140.477756838
 20
106.3036568976
 10
140.5132192369
 20
106.3146242629
 10
140.5503554331
 20
106.3264237347
 10
140.5887392383
 20
106.3389363337
 10
140.6279850567
 20
106.3513977128
 10
140.6676613075
 20
106.3633562681
  0
LINE
  5
2BE
100
AcDbEntity
  8
RACCORDO
100
AcDbLine
 62
253
  6
CONTINUOUS
 10
162.8062781137
 20
106.2471458613
 11
162.8408845714
 21
106.2569609184
  0
LWPOLYLINE
  5
2BF
100
AcDbEntity
  8
RACCORDO
100
AcDbPolyline
 62
253
  6
CONTINUOUS
 90
6
 70
0
 10
153.4783694226
 20
105.3122453603
 10
153.4758272771
 20
105.3116812037
 10
153.4693082151
 20
105.3095101084
 10
153.4589127797
 20
105.3059672156
 10
153.4445215864
 20
105.3014049203
 10
153.426191654
 20
105.2957385273
  0
LWPOLYLINE
  5
2C0
100
AcDbEntity
  8
RACCORDO
100
AcDbPolyline
 62
253
  6
CONTINUOUS
 90
22
 70
0
 10
161.3071491969
 20
104.2275917555
 10
161.398847125
 20
104.2303281537
 10
161.4906595997
 20
104.2385374732
 10
161.582254773
 20
104.2522688976
 10
161.6733504428
 20
104.2715653507
 10
161.7635432817
 20
104.2964277068
 10
161.8523195577
 20
104.3267801445
 10
161.9393454194
 20
104.3625601839
 10
162.0242742546
 20
104.4036782722
 10
162.1066003462
 20
104.44992272
 10
162.1860003159
 20
104.5011244083
 10
162.2621852075
 20
104.5571100039
 10
162.334748281
 20
104.6175775937
 10
162.403439414
 20
104.6822992362
 10
162.4680049491
 20
104.7510154136
 10
162.5280988552
 20
104.8233079841
 10
162.5835372557
 20
104.8988749858
 10
162.6341612987
 20
104.9774130293
 10
162.6797459162
 20
105.0584482369
 10
162.7201749778
 20
105.1415930826
 10
162.7554102565
 20
105.2265675121
 10
162.7854037426
 20
105.3130407664
  0
LWPOLYLINE
  5
2C1
100
AcDbEntity
  8
RACCORDO
100
AcDbPolyline
 62
253
  6
CONTINUOUS
 90
22
 70
0
 10
161.3176700896
 20
103.8256182382
 10
161.4340993789
 20
103.8290027531
 10
161.5498252198
 20
103.83935949
 10
161.6648475935
 20
103.8566884253
 10
161.7796687919
 20
103.881045537
 10
161.8937864674
 20
103.9123748019
 10
162.0056937532
 20
103.9505081952
 10
162.115373241
 20
103.9955816515
 10
162.2228425448
 20
104.0474591953
 10
162.3266475532
 20
104.1055649409
 10
162.4267090467
 20
104.1700068973
 10
162.5231066909
 20
104.2406770272
 10
162.6146248968
 20
104.3166753838
 10
162.7011821631
 20
104.3981071847
 10
162.7828606005
 20
104.4848672023
 10
162.8586901731
 20
104.5757398329
 10
162.9285473504
 20
104.6707802396
 10
162.9925563246
 20
104.7699332705
 10
163.0501187049
 20
104.8718178599
 10
163.1010352313
 20
104.9759736641
 10
163.1455057399
 20
105.0828610579
 10
163.1835304686
 20
105.1924800591
  0
LINE
  5
2C2
100
AcDbEntity
  8
RACCORDO
100
AcDbLine
 62
253
  6
CONTINUOUS
 10
154.9572492895
 20
103.8253559311
 11
161.3176700896
 21
103.8256182382
  0
LINE
  5
2C3
100
AcDbEntity
  8
RACCORDO
100
AcDbLine
 62
253
  6
CONTINUOUS
 10
132.4468084389
 20
103.8256182382
 11
138.807229239
 21
103.8253559311
  0
LWPOLYLINE
  5
2C4
100
AcDbEntity
  8
RACCORDO
100
AcDbPolyline
 62
253
  6
CONTINUOUS
 90
7
 70
0
 10
125.075134574
 20
105.5969707452
 10
125.0758943228
 20
105.5968850547
 10
125.0775493678
 20
105.5968018482
 10
125.0800997091
 20
105.5967211257
 10
125.0835864787
 20
105.5966421458
 10
125.0879685446
 20
105.5965656499
 10
125.0990699283
 20
105.5964269442
  0
LWPOLYLINE
  5
2C5
100
AcDbEntity
  8
RACCORDO
100
AcDbPolyline
 62
7
  6
CONTINUOUS
 90
13
 70
0
 10
130.6566530035
 20
105.6154350011
 10
130.6929020297
 20
105.6100573672
 10
130.7283743558
 20
105.6014176758
 10
130.762783284
 20
105.5896217969
 10
130.7958186074
 20
105.5748190038
 10
130.8272641045
 20
105.5571501551
 10
130.8569808398
 20
105.536712991
 10
130.8847276127
 20
105.5136736975
 10
130.9102789054
 20
105.488220091
 10
130.9335028853
 20
105.4604604261
 10
130.9542059313
 20
105.4305652149
 10
130.9721612693
 20
105.3987925195
 10
130.9871901348
 20
105.3653896036
  0
LWPOLYLINE
  5
2C6
100
AcDbEntity
  8
RACCORDO
100
AcDbPolyline
 62
253
  6
CONTINUOUS
 90
7
 70
0
 10
140.2861091059
 20
105.3122453603
 10
140.2886516464
 20
105.311681262
 10
140.2951715713
 20
105.3095098499
 10
140.3055682408
 20
105.3059664155
 10
140.3199610154
 20
105.3014035969
 10
140.3382927555
 20
105.295736713
 10
140.3851660959
 20
105.2806620397
  0
LWPOLYLINE
  5
2C7
100
AcDbEntity
  8
RACCORDO
100
AcDbPolyline
 62
253
  6
CONTINUOUS
 90
3
 70
0
 10
140.3851660959
 20
105.2806620397
 10
140.4134356478
 20
105.2719328337
 10
140.4777672451
 20
105.2513883917
  0
LWPOLYLINE
  5
2C8
100
AcDbEntity
  8
RACCORDO
100
AcDbPolyline
 62
253
  6
CONTINUOUS
 90
6
 70
0
 10
140.4777672451
 20
105.2513883917
 10
140.5132287108
 20
105.2404213347
 10
140.5503633574
 20
105.2286223973
 10
140.588745063
 20
105.216110502
 10
140.627988217
 20
105.2036499815
 10
140.667661308
 20
105.1916923653
  0
LINE
  5
2C9
100
AcDbEntity
  8
RACCORDO
100
AcDbLine
 62
253
  6
CONTINUOUS
 10
146.8822392642
 20
105.5921896803
 11
146.8822392642
 21
83.7716104293
  0
LWPOLYLINE
  5
2CA
100
AcDbEntity
  8
RACCORDO
100
AcDbPolyline
 62
7
  6
CONTINUOUS
 90
10
 70
0
 10
163.1078260538
 20
105.6154348562
 10
163.112431176
 20
105.6158764336
 10
163.1170269843
 20
105.6162653607
 10
163.1216134785
 20
105.6166016378
 10
163.1261893171
 20
105.6168848695
 10
163.1307558416
 20
105.617115451
 10
163.1353170769
 20
105.617294568
 10
163.1398743646
 20
105.6174226156
 10
163.1444263632
 20
105.6174991986
 10
163.1489730724
 20
105.617524317
  0
LWPOLYLINE
  5
2CB
100
AcDbEntity
  8
RACCORDO
100
AcDbPolyline
 62
7
  6
CONTINUOUS
 90
10
 70
0
 10
153.1566529547
 20
105.9396136301
 10
153.1520477576
 20
105.9391721283
 10
153.1474518816
 20
105.9387832566
 10
153.1428653268
 20
105.938447015
 10
153.1382894371
 20
105.9381637916
 10
153.1337228685
 20
105.9379331984
 10
153.1291615893
 20
105.9377540707
 10
153.1246042556
 20
105.9376260206
 10
153.1200522112
 20
105.937549436
 10
153.1155054561
 20
105.937524317
  0
LWPOLYLINE
  5
2CC
100
AcDbEntity
  8
RACCORDO
100
AcDbPolyline
 62
253
  6
CONTINUOUS
 90
16
 70
0
 10
168.655225279
 20
105.9581035428
 10
168.6970145695
 20
105.9603034332
 10
168.7383463825
 20
105.966859957
 10
168.7787680321
 20
105.9777013701
 10
168.8178367603
 20
105.9927089837
 10
168.8551246773
 20
106.0117184955
 10
168.8902234342
 20
106.0345218179
 10
168.9227485788
 20
106.0608692968
 10
168.9523437762
 20
106.0904724079
 10
168.9786847958
 20
106.1230069665
 10
169.0014830649
 20
106.1581167039
 10
169.0204887645
 20
106.1954170745
 10
169.0354935973
 20
106.23449944
 10
169.0463331455
 20
106.2749356897
 10
169.0528886371
 20
106.3162829471
 10
169.0550882089
 20
106.358088312
  0
LWPOLYLINE
  5
2CD
100
AcDbEntity
  8
RACCORDO
100
AcDbPolyline
 62
253
  6
CONTINUOUS
 90
22
 70
0
 10
138.8071490926
 20
104.2272242346
 10
138.8986848001
 20
104.2299233987
 10
138.9903494835
 20
104.2380754259
 10
139.0818130741
 20
104.2517315286
 10
139.1727929318
 20
104.2709361312
 10
139.2628891752
 20
104.2956928634
 10
139.3515949128
 20
104.3259311401
 10
139.4385772725
 20
104.3615923344
 10
139.5234888593
 20
104.4025903233
 10
139.6058266574
 20
104.4487197917
 10
139.6852662035
 20
104.4998159225
 10
139.7615162898
 20
104.5557090385
 10
139.8341695379
 20
104.6161033419
 10
139.9029731021
 20
104.6807749538
 10
139.967669251
 20
104.7494671789
 10
140.0279080383
 20
104.8217659061
 10
140.0835013637
 20
104.8973718674
 10
140.1342854424
 20
104.9759830857
 10
140.1800296694
 20
105.057126876
 10
140.2206127659
 20
105.1404162242
 10
140.2559917775
 20
105.2255710748
 10
140.2861137519
 20
105.3122601267
  0
LWPOLYLINE
  5
2CE
100
AcDbEntity
  8
RACCORDO
100
AcDbPolyline
 62
253
  6
CONTINUOUS
 90
22
 70
0
 10
138.807229239
 20
103.8253559311
 10
138.9230697938
 20
103.8286946894
 10
139.0382298452
 20
103.8389854122
 10
139.1527094093
 20
103.8562281015
 10
139.2670055561
 20
103.8804742195
 10
139.3806212402
 20
103.9116723121
 10
139.4920653132
 20
103.9496680086
 10
139.6013232069
 20
103.9945960562
 10
139.7084095289
 20
104.0463217209
 10
139.8118769123
 20
104.104286409
 10
139.9116488643
 20
104.1685983066
 10
140.0078019249
 20
104.2391492426
 10
140.099118291
 20
104.3150560842
 10
140.1855189055
 20
104.3964257028
 10
140.2670828749
 20
104.483151239
 10
140.3428296512
 20
104.57402896
 10
140.4126371482
 20
104.6691165621
 10
140.4766275
 20
104.7683563536
 10
140.5341864941
 20
104.8703715141
 10
140.585109408
 20
104.9747031009
 10
140.6296010066
 20
105.0818100522
 10
140.667661308
 20
105.1916923653
  0
LWPOLYLINE
  5
2CF
100
AcDbEntity
  8
RACCORDO
100
AcDbPolyline
 62
253
  6
CONTINUOUS
 90
4
 70
0
 10
130.9790794446
 20
105.3130259329
 10
130.976251986
 20
105.3129600276
 10
130.9692573638
 20
105.3111661384
 10
130.9582004148
 20
105.3079027727
  0
LWPOLYLINE
  5
2D0
100
AcDbEntity
  8
RACCORDO
100
AcDbPolyline
 62
253
  6
CONTINUOUS
 90
4
 70
0
 10
162.7853990839
 20
106.2420227012
 10
162.7882265425
 20
106.2420886065
 10
162.7952211647
 20
106.2438824957
 10
162.8062781137
 20
106.2471458613
  0
LWPOLYLINE
  5
2D1
100
AcDbEntity
  8
RACCORDO
100
AcDbPolyline
 62
253
  6
CONTINUOUS
 90
5
 70
0
 10
168.6808920505
 20
105.596642146
 10
168.6843788201
 20
105.5967211259
 10
168.6869291614
 20
105.5968018484
 10
168.6885842064
 20
105.596885055
 10
168.6893439552
 20
105.5969707455
  0
LWPOLYLINE
  5
2D2
100
AcDbEntity
  8
RACCORDO
100
AcDbPolyline
 62
253
  6
CONTINUOUS
 90
3
 70
0
 10
169.0772492384
 20
105.1967237056
 10
169.085572878
 20
105.1968534358
 10
169.0892068851
 20
105.1969859762
  0
LINE
  5
2D3
100
AcDbEntity
  8
RACCORDO
100
AcDbLine
 62
253
  6
CONTINUOUS
 10
168.6713560185
 20
105.5964938623
 11
168.6808920505
 21
105.596642146
  0
LINE
  5
2D4
100
AcDbEntity
  8
RACCORDO
100
AcDbLine
 62
253
  6
CONTINUOUS
 10
168.651386115
 20
105.5963089712
 11
168.6713560185
 21
105.5964938623
  0
LINE
  5
2D5
100
AcDbEntity
  8
RACCORDO
100
AcDbLine
 62
253
  6
CONTINUOUS
 10
169.025169339
 20
105.1963555733
 11
169.0772492384
 21
105.1967237056
  0
LINE
  5
2D6
100
AcDbEntity
  8
RACCORDO
100
AcDbLine
 62
253
  6
CONTINUOUS
 10
168.6077004779
 20
105.5961358041
 11
168.651386115
 21
105.5963089712
  0
LINE
  5
2D7
100
AcDbEntity
  8
RACCORDO
100
AcDbLine
 62
253
  6
CONTINUOUS
 10
163.1835304686
 20
105.1924800591
 11
169.025169339
 21
105.1963555733
  0
LINE
  5
2D8
100
AcDbEntity
  8
RACCORDO
100
AcDbLine
 62
253
  6
CONTINUOUS
 10
163.1669869228
 20
105.5931001655
 11
168.6077004779
 21
105.5961358041
  0
LINE
  5
2D9
100
AcDbEntity
  8
RACCORDO
100
AcDbLine
 62
253
  6
CONTINUOUS
 10
130.5974916057
 20
105.9619484685
 11
125.1636320865
 21
105.9588572351
  0
LINE
  5
2DA
100
AcDbEntity
  8
RACCORDO
100
AcDbLine
 62
253
  6
CONTINUOUS
 10
154.9573254798
 20
104.2272242316
 11
161.3071491969
 21
104.2275917624
  0
LINE
  5
2DB
100
AcDbEntity
  8
DRAFT
100
AcDbLine
 62
7
  6
CONTINUOUS
 10
161.3072392642
 20
104.252524317
 11
154.957239412
 21
104.252524317
  0
LINE
  5
2DC
100
AcDbEntity
  8
DRAFT
100
AcDbLine
 62
7
  6
CONTINUOUS
 10
138.8072392642
 20
104.252524317
 11
132.457239412
 21
104.252524317
  0
LINE
  5
2DD
100
AcDbEntity
  8
RACCORDO
100
AcDbLine
 62
253
  6
CONTINUOUS
 10
140.667661308
 20
105.1916923653
 11
153.0968172205
 21
105.1916923653
  0
LINE
  5
2DE
100
AcDbEntity
  8
RACCORDO
100
AcDbLine
 62
253
  6
CONTINUOUS
 10
140.6676557892
 20
105.592188703
 11
153.0968227393
 21
105.592188703
  0
LINE
  5
2DF
100
AcDbEntity
  8
RACCORDO
100
AcDbLine
 62
7
  6
CONTINUOUS
 10
166.2322392642
 20
105.617524317
 11
163.1489730724
 21
105.617524317
  0
LINE
  5
2E0
100
AcDbEntity
  8
RACCORDO
100
AcDbLine
 62
7
  6
CONTINUOUS
 10
153.1155054561
 20
105.617524317
 11
150.0322392642
 21
105.617524317
  0
LINE
  5
2E1
100
AcDbEntity
  8
DRAFT
100
AcDbLine
 62
7
  6
CONTINUOUS
 10
150.0322392642
 20
105.617524317
 11
143.7322392642
 21
105.617524317
  0
LINE
  5
2E2
100
AcDbEntity
  8
RACCORDO
100
AcDbLine
 62
7
  6
CONTINUOUS
 10
143.7322392642
 20
105.617524317
 11
140.6489730724
 21
105.617524317
  0
LINE
  5
2E3
100
AcDbEntity
  8
RACCORDO
100
AcDbLine
 62
7
  6
CONTINUOUS
 10
130.6155054561
 20
105.617524317
 11
127.5322392642
 21
105.617524317
  0
LINE
  5
2E4
100
AcDbEntity
  8
DRAFT
100
AcDbLine
 62
7
  6
CONTINUOUS
 10
127.5322392642
 20
105.617524317
 11
125.7322392642
 21
105.617524317
  0
LINE
  5
2E5
100
AcDbEntity
  8
DRAFT
100
AcDbLine
 62
7
  6
CONTINUOUS
 10
166.2322392642
 20
105.617524317
 11
168.0322392642
 21
105.617524317
  0
LINE
  5
2E6
100
AcDbEntity
  8
RACCORDO
100
AcDbLine
 62
7
  6
CONTINUOUS
 10
124.9322849763
 20
105.6445776072
 11
125.7322392642
 21
105.6445776072
  0
LINE
  5
2E7
100
AcDbEntity
  8
RACCORDO
100
AcDbLine
 62
7
  6
CONTINUOUS
 10
168.0322392642
 20
105.6445776072
 11
168.8321935522
 21
105.6445776072
  0
LINE
  5
2E8
100
AcDbEntity
  8
RACCORDO
100
AcDbLine
 62
7
  6
CONTINUOUS
 10
168.8321935522
 20
105.8991260988
 11
168.0322392642
 21
105.8991260988
  0
LINE
  5
2E9
100
AcDbEntity
  8
RACCORDO
100
AcDbLine
 62
7
  6
CONTINUOUS
 10
125.7322392642
 20
105.8991260988
 11
124.9322849763
 21
105.8991260988
  0
LINE
  5
2EA
100
AcDbEntity
  8
DRAFT
100
AcDbLine
 62
7
  6
CONTINUOUS
 10
125.8474573191
 20
105.937524317
 11
127.5322392642
 21
105.937524317
  0
LINE
  5
2EB
100
AcDbEntity
  8
RACCORDO
100
AcDbLine
 62
7
  6
CONTINUOUS
 10
127.5322392642
 20
105.937524317
 11
130.6155054561
 21
105.937524317
  0
LINE
  5
2EC
100
AcDbEntity
  8
RACCORDO
100
AcDbLine
 62
7
  6
CONTINUOUS
 10
140.6489730724
 20
105.937524317
 11
143.7322392642
 21
105.937524317
  0
LINE
  5
2ED
100
AcDbEntity
  8
DRAFT
100
AcDbLine
 62
7
  6
CONTINUOUS
 10
143.7322392642
 20
105.937524317
 11
150.0322392642
 21
105.937524317
  0
LINE
  5
2EE
100
AcDbEntity
  8
RACCORDO
100
AcDbLine
 62
7
  6
CONTINUOUS
 10
150.0322392642
 20
105.937524317
 11
153.1155054561
 21
105.937524317
  0
LINE
  5
2EF
100
AcDbEntity
  8
RACCORDO
100
AcDbLine
 62
7
  6
CONTINUOUS
 10
163.1489730724
 20
105.937524317
 11
166.2322392642
 21
105.937524317
  0
LINE
  5
2F0
100
AcDbEntity
  8
DRAFT
100
AcDbLine
 62
7
  6
CONTINUOUS
 10
166.2322392642
 20
105.937524317
 11
167.9170212093
 21
105.937524317
  0
LINE
  5
2F1
100
AcDbEntity
  8
RACCORDO
100
AcDbLine
 62
253
  6
CONTINUOUS
 10
153.0968227392
 20
105.9628599311
 11
140.6676557892
 21
105.9628599311
  0
LINE
  5
2F2
100
AcDbEntity
  8
RACCORDO
100
AcDbLine
 62
253
  6
CONTINUOUS
 10
132.457325413
 20
104.2275917631
 11
138.8071490926
 21
104.2272242316
  0
LINE
  5
2F3
100
AcDbEntity
  8
RACCORDO
100
AcDbLine
 62
253
  6
CONTINUOUS
 10
168.6008464413
 20
105.9588572353
 11
163.1669869228
 21
105.9619484685
  0
LINE
  5
2F4
100
AcDbEntity
  8
RACCORDO
100
AcDbLine
 62
253
  6
CONTINUOUS
 10
124.7393091902
 20
105.1963555776
 11
130.5809480598
 21
105.1924800591
  0
LINE
  5
2F5
100
AcDbEntity
  8
RACCORDO
100
AcDbLine
 62
253
  6
CONTINUOUS
 10
125.121001719
 20
105.5962598299
 11
130.5974916057
 21
105.5931001655
  0
LWPOLYLINE
  5
2F6
100
AcDbEntity
  8
RACCORDO
100
AcDbPolyline
 62
7
  6
CONTINUOUS
 90
10
 70
0
 10
130.6155054558
 20
105.6175243171
 10
130.6200522172
 20
105.617499198
 10
130.624604268
 20
105.6174226133
 10
130.6291616082
 20
105.6172945627
 10
130.633722894
 20
105.6171154356
 10
130.6382894692
 20
105.6168848426
 10
130.6428653647
 20
105.6166016165
 10
130.647451924
 20
105.6162653683
 10
130.6520478036
 20
105.6158764869
 10
130.6566530035
 20
105.6154349723
  0
LWPOLYLINE
  5
2F7
100
AcDbEntity
  8
RACCORDO
100
AcDbPolyline
 62
7
  6
CONTINUOUS
 90
10
 70
0
 10
153.1155054558
 20
105.6175243171
 10
153.1200522502
 20
105.6174991977
 10
153.124604334
 20
105.6174226118
 10
153.1291617073
 20
105.6172945594
 10
153.1337230283
 20
105.6171154353
 10
153.1382896387
 20
105.6168848448
 10
153.142865564
 20
105.6166016031
 10
153.1474521459
 20
105.6162653154
 10
153.1520480428
 20
105.6158763766
 10
153.1566532545
 20
105.6154347867
  0
LWPOLYLINE
  5
2F8
100
AcDbEntity
  8
RACCORDO
100
AcDbPolyline
 62
7
  6
CONTINUOUS
 90
10
 70
0
 10
140.6489730726
 20
105.937524317
 10
140.6444262896
 20
105.9375494363
 10
140.6398742171
 20
105.9376260218
 10
140.6353168553
 20
105.9377540736
 10
140.6307555446
 20
105.9379331931
 10
140.6261889445
 20
105.9381637789
 10
140.6216130331
 20
105.9384470264
 10
140.6170264697
 20
105.9387833339
 10
140.612430595
 20
105.939172303
 10
140.607825409
 20
105.9396139338
  0
LWPOLYLINE
  5
2F9
100
AcDbEntity
  8
RACCORDO
100
AcDbPolyline
 62
7
  6
CONTINUOUS
 90
10
 70
0
 10
163.1489730726
 20
105.937524317
 10
163.1444263113
 20
105.9375494361
 10
163.1398742607
 20
105.9376260208
 10
163.1353169207
 20
105.9377540713
 10
163.130755635
 20
105.9379331985
 10
163.12618906
 20
105.9381637914
 10
163.1216131647
 20
105.9384470175
 10
163.1170266055
 20
105.938783266
 10
163.1124307262
 20
105.9391721478
 10
163.1078255266
 20
105.9396136628
  0
LINE
  5
2FA
100
AcDbEntity
  8
RACCORDO
100
AcDbLine
 62
253
  6
CONTINUOUS
 10
125.0990699283
 20
105.5964269442
 11
125.121001719
 21
105.5962598299
  0
LWPOLYLINE
  5
2FB
100
AcDbEntity
  8
RACCORDO
100
AcDbPolyline
 62
253
  6
CONTINUOUS
 90
5
 70
0
 10
162.7853990839
 20
105.3130259329
 10
162.7882269646
 20
105.3129601292
 10
162.7952224976
 20
105.3111659474
 10
162.8062807499
 20
105.3079020472
 10
162.8408908095
 20
105.2980859566
  0
LWPOLYLINE
  5
2FC
100
AcDbEntity
  8
RACCORDO
100
AcDbPolyline
 62
253
  6
CONTINUOUS
 90
5
 70
0
 10
130.9790794446
 20
106.2420227012
 10
130.9762515639
 20
106.2420885049
 10
130.9692560309
 20
106.2438826867
 10
130.9581977785
 20
106.2471465869
 10
130.9235877189
 20
106.2569626774
  0
LWPOLYLINE
  5
2FD
100
AcDbEntity
  8
RACCORDO
100
AcDbPolyline
 62
253
  6
CONTINUOUS
 90
4
 70
0
 10
124.675271644
 20
105.196985976
 10
124.6789056511
 20
105.1968534365
 10
124.6872292908
 20
105.1967237073
 10
124.7393091902
 20
105.1963555776
  0
LWPOLYLINE
  5
2FE
100
AcDbEntity
  8
RACCORDO
100
AcDbPolyline
 62
253
  6
CONTINUOUS
 90
16
 70
0
 10
125.1092532487
 20
105.9581035425
 10
125.0674622462
 20
105.9603036137
 10
125.0261289816
 20
105.9668606309
 10
124.9857061793
 20
105.9777027749
 10
124.9466365913
 20
105.9927112915
 10
124.9093481477
 20
106.011721792
 10
124.8742492698
 20
106.0345260539
 10
124.8417243965
 20
106.0608743016
 10
124.8121297737
 20
106.090477942
 10
124.7857895519
 20
106.1230127256
 10
124.7629922363
 20
106.1581222983
 10
124.7439875264
 20
106.1954221039
 10
124.7289835814
 20
106.2345035967
 10
124.7181447398
 20
106.2749387161
 10
124.7115897198
 20
106.3162845752
 10
124.7093903187
 20
106.3580883118
  0
LWPOLYLINE
  5
2FF
100
AcDbEntity
  8
RACCORDO
100
AcDbPolyline
 62
253
  6
CONTINUOUS
 90
13
 70
0
 10
130.597491611
 20
105.5931001655
 10
130.6396205419
 20
105.590873058
 10
130.6812810758
 20
105.5842211667
 10
130.7220097547
 20
105.5732184086
 10
130.7613534946
 20
105.5579870951
 10
130.7988745591
 20
105.5386965975
 10
130.8341554414
 20
105.5155614869
 10
130.8668037073
 20
105.4888390044
 10
130.8964559992
 20
105.4588264548
 10
130.9227821307
 20
105.4258580517
 10
130.9454892149
 20
105.3903007478
 10
130.9643248081
 20
105.3525500421
 10
130.9790794446
 20
105.3130259329
  0
LWPOLYLINE
  5
300
100
AcDbEntity
  8
RACCORDO
100
AcDbPolyline
 62
253
  6
CONTINUOUS
 90
13
 70
0
 10
140.6676557837
 20
105.9628599311
 10
140.6255381972
 20
105.9650858357
 10
140.5838886353
 20
105.9717341467
 10
140.5431701832
 20
105.9827310244
 10
140.5038355664
 20
105.9979542868
 10
140.4663221813
 20
106.0172347418
 10
140.4310472211
 20
106.0403580452
 10
140.3984028431
 20
106.0670672231
 10
140.3687521608
 20
106.0970652801
 10
140.3424251559
 20
106.1300183534
 10
140.319714566
 20
106.1655598647
 10
140.3008727413
 20
106.2032947028
 10
140.2861091059
 20
106.2428032738
  0
LWPOLYLINE
  5
301
100
AcDbEntity
  8
RACCORDO
100
AcDbPolyline
 62
253
  6
CONTINUOUS
 90
13
 70
0
 10
153.0968227448
 20
105.592188703
 10
153.1389403313
 20
105.5899627984
 10
153.1805898932
 20
105.5833144874
 10
153.2213083453
 20
105.5723176097
 10
153.2606429621
 20
105.5570943473
 10
153.2981563472
 20
105.5378138923
 10
153.3334313074
 20
105.5146905889
 10
153.3660756854
 20
105.487981411
 10
153.3957263677
 20
105.457983354
 10
153.4220533726
 20
105.4250302807
 10
153.4447639625
 20
105.3894887694
 10
153.4636057872
 20
105.3517539313
 10
153.4783694226
 20
105.3122453603
  0
LWPOLYLINE
  5
302
100
AcDbEntity
  8
RACCORDO
100
AcDbPolyline
 62
253
  6
CONTINUOUS
 90
6
 70
0
 10
140.2861091059
 20
106.2428032738
 10
140.2886512515
 20
106.2433674303
 10
140.2951703134
 20
106.2455385255
 10
140.3055657488
 20
106.2490814183
 10
140.3199569421
 20
106.2536437135
 10
140.3382868745
 20
106.2593101065
  0
LWPOLYLINE
  5
303
100
AcDbEntity
  8
RACCORDO
100
AcDbPolyline
 62
7
  6
CONTINUOUS
 90
10
 70
0
 10
140.6078255739
 20
105.6154350044
 10
140.612430771
 20
105.615876506
 10
140.617026647
 20
105.6162653776
 10
140.6216132018
 20
105.6166016191
 10
140.6261890915
 20
105.6168848424
 10
140.6307556601
 20
105.6171154357
 10
140.6353169392
 20
105.6172945634
 10
140.639874273
 20
105.6174226135
 10
140.6444263174
 20
105.6174991981
 10
140.6489730724
 20
105.617524317
  0
LWPOLYLINE
  5
304
100
AcDbEntity
  8
RACCORDO
100
AcDbPolyline
 62
7
  6
CONTINUOUS
 90
10
 70
0
 10
130.6566524673
 20
105.939613778
 10
130.652047346
 20
105.9391722004
 10
130.6474515386
 20
105.9387832731
 10
130.6428650453
 20
105.938446996
 10
130.6382892075
 20
105.9381637643
 10
130.6337226837
 20
105.9379331829
 10
130.6291614492
 20
105.937754066
 10
130.6246041623
 20
105.9376260185
 10
130.6200521646
 20
105.9375494355
 10
130.6155054561
 20
105.937524317
  0
LWPOLYLINE
  5
305
100
AcDbEntity
  8
RACCORDO
100
AcDbPolyline
 62
253
  6
CONTINUOUS
 90
16
 70
0
 10
125.075134574
 20
105.5969707452
 10
125.0333452823
 20
105.5947708547
 10
124.9920134683
 20
105.5882143305
 10
124.9515918178
 20
105.5773729169
 10
124.912523089
 20
105.5623653026
 10
124.8752351715
 20
105.5433557901
 10
124.8401364146
 20
105.520552467
 10
124.8076112702
 20
105.4942049875
 10
124.7780160732
 20
105.4646018761
 10
124.7516750542
 20
105.4320673173
 10
124.7288767858
 20
105.39695758
 10
124.7098710869
 20
105.3596572098
 10
124.6948662548
 20
105.320574845
 10
124.6840267071
 20
105.2801385961
 10
124.6774712159
 20
105.2387913397
 10
124.6752716442
 20
105.196985976
  0
LWPOLYLINE
  5
306
100
AcDbEntity
  8
RACCORDO
100
AcDbPolyline
 62
253
  6
CONTINUOUS
 90
22
 70
0
 10
132.4573293316
 20
107.3274568786
 10
132.3656314035
 20
107.3247204804
 10
132.2738189288
 20
107.3165111609
 10
132.1822237555
 20
107.3027797365
 10
132.0911280857
 20
107.2834832834
 10
132.0009352468
 20
107.2586209272
 10
131.9121589708
 20
107.2282684896
 10
131.8251331091
 20
107.1924884502
 10
131.7402042739
 20
107.1513703619
 10
131.6578781823
 20
107.1051259141
 10
131.5784782126
 20
107.0539242258
 10
131.5022933209
 20
106.9979386302
 10
131.4297302475
 20
106.9374710404
 10
131.3610391145
 20
106.8727493979
 10
131.2964735794
 20
106.8040332205
 10
131.2363796733
 20
106.7317406499
 10
131.1809412728
 20
106.6561736483
 10
131.1303172298
 20
106.5776356048
 10
131.0847326123
 20
106.4966003972
 10
131.0443035507
 20
106.4134555514
 10
131.009068272
 20
106.328481122
 10
130.9790747859
 20
106.2420078677
  0
LWPOLYLINE
  5
307
100
AcDbEntity
  8
RACCORDO
100
AcDbPolyline
 62
253
  6
CONTINUOUS
 90
22
 70
0
 10
154.9573294369
 20
107.3278243995
 10
154.8657934228
 20
107.3251252174
 10
154.7741284688
 20
107.3169731396
 10
154.6826646462
 20
107.3033169601
 10
154.5916845932
 20
107.2841122594
 10
154.5015881959
 20
107.2593554148
 10
154.4128823561
 20
107.2291170217
 10
154.3258999448
 20
107.1934557151
 10
154.2409883548
 20
107.1524576261
 10
154.1586506073
 20
107.106328083
 10
154.0792111688
 20
107.0552319172
 10
154.0029612321
 20
106.9993388095
 10
153.9303081536
 20
106.9389445522
 10
153.8615047804
 20
106.874273035
 10
153.7968088301
 20
106.8055809503
 10
153.7365702125
 20
106.7332823734
 10
153.6809770295
 20
106.6576765705
 10
153.6301930651
 20
106.5790655138
 10
153.5844488998
 20
106.4979218359
 10
153.5438658152
 20
106.4146325266
 10
153.5084867861
 20
106.3294776516
 10
153.4783647766
 20
106.2427885073
  0
LWPOLYLINE
  5
308
100
AcDbEntity
  8
RACCORDO
100
AcDbPolyline
 62
253
  6
CONTINUOUS
 90
22
 70
0
 10
132.4468084389
 20
107.7294303959
 10
132.3303791496
 20
107.726045881
 10
132.2146533087
 20
107.7156891441
 10
132.0996309349
 20
107.6983602088
 10
131.9848097366
 20
107.6740030971
 10
131.8706920611
 20
107.6426738322
 10
131.7587847753
 20
107.6045404389
 10
131.6491052875
 20
107.5594669826
 10
131.5416359837
 20
107.5075894388
 10
131.4378309753
 20
107.4494836932
 10
131.3377694818
 20
107.3850417368
 10
131.2413718376
 20
107.3143716069
 10
131.1498536317
 20
107.2383732503
 10
131.0632963654
 20
107.1569414494
 10
130.981617928
 20
107.0701814317
 10
130.9057883554
 20
106.9793088012
 10
130.8359311781
 20
106.8842683945
 10
130.7719222039
 20
106.7851153636
 10
130.7143598236
 20
106.6832307742
 10
130.6634432972
 20
106.57907497
 10
130.6189727886
 20
106.4721875762
 10
130.5809480598
 20
106.362568575
  0
LWPOLYLINE
  5
309
100
AcDbEntity
  8
RACCORDO
100
AcDbPolyline
 62
253
  6
CONTINUOUS
 90
22
 70
0
 10
154.95724929
 20
107.7296927032
 10
154.8414083452
 20
107.7263539091
 10
154.726247955
 20
107.7160631252
 10
154.6117681027
 20
107.6988203494
 10
154.497471713
 20
107.6745741093
 10
154.3838558351
 20
107.643375869
 10
154.2724116314
 20
107.6053800306
 10
154.1631536745
 20
107.5604518444
 10
154.0560673512
 20
107.5087260468
 10
153.9526000273
 20
107.4507612686
 10
153.8528282082
 20
107.3864493334
 10
153.7566753399
 20
107.3158984029
 10
153.6653591855
 20
107.2399916178
 10
153.5789588048
 20
107.1586221246
 10
153.4973950868
 20
107.0718967649
 10
153.4216485288
 20
106.9810192272
 10
153.3518412051
 20
106.8859318261
 10
153.2878509921
 20
106.786692242
 10
153.2302920864
 20
106.6846772177
 10
153.1793692054
 20
106.5803456695
 10
153.1348775895
 20
106.4732386854
 10
153.0968172209
 20
106.3633562681
  0
LWPOLYLINE
  5
30A
100
AcDbEntity
  8
RACCORDO
100
AcDbPolyline
 62
253
  6
CONTINUOUS
 90
5
 70
0
 10
125.1177081809
 20
105.9584322017
 10
125.1142201366
 20
105.9583532086
 10
125.1116688811
 20
105.9582724719
 10
125.1100132518
 20
105.9581892499
 10
125.1092532487
 20
105.9581035425
  0
LWPOLYLINE
  5
30B
100
AcDbEntity
  8
RACCORDO
100
AcDbPolyline
 62
253
  6
CONTINUOUS
 90
3
 70
0
 10
124.7213520869
 20
106.3583508129
 10
124.7130254852
 20
106.3582209684
 10
124.7093903187
 20
106.3580883118
  0
LINE
  5
30C
100
AcDbEntity
  8
RACCORDO
100
AcDbLine
 62
253
  6
CONTINUOUS
 10
125.12724766
 20
105.9585805065
 11
125.1177081809
 21
105.9584322017
  0
LINE
  5
30D
100
AcDbEntity
  8
RACCORDO
100
AcDbLine
 62
253
  6
CONTINUOUS
 10
125.1472244265
 20
105.9587654088
 11
125.12724766
 21
105.9585805065
  0
LINE
  5
30E
100
AcDbEntity
  8
RACCORDO
100
AcDbLine
 62
253
  6
CONTINUOUS
 10
124.7734509215
 20
106.3587192627
 11
124.7213520869
 21
106.3583508129
  0
LINE
  5
30F
100
AcDbEntity
  8
RACCORDO
100
AcDbLine
 62
253
  6
CONTINUOUS
 10
125.1636320865
 20
105.9588572351
 11
125.1472244265
 21
105.9587654088
  0
LINE
  5
310
100
AcDbEntity
  8
RACCORDO
100
AcDbLine
 62
253
  6
CONTINUOUS
 10
130.5809480598
 20
106.362568575
 11
124.7734509215
 21
106.3587192627
  0
LINE
  5
311
100
AcDbEntity
  8
RACCORDO
100
AcDbLine
 62
253
  6
CONTINUOUS
 10
153.0968172209
 20
106.3633562681
 11
140.6676613075
 21
106.3633562681
  0
LINE
  5
312
100
AcDbEntity
  8
DRAFT
100
AcDbLine
 62
7
  6
CONTINUOUS
 10
132.4572392642
 20
107.302524317
 11
138.8072391165
 21
107.302524317
  0
LINE
  5
313
100
AcDbEntity
  8
DRAFT
100
AcDbLine
 62
7
  6
CONTINUOUS
 10
154.9572392642
 20
107.302524317
 11
161.3072391165
 21
107.302524317
  0
LINE
  5
314
100
AcDbEntity
  8
RACCORDO
100
AcDbLine
 62
253
  6
CONTINUOUS
 10
138.8071530477
 20
107.3278244025
 11
132.4573293315
 21
107.3274568717
  0
LINE
  5
315
100
AcDbEntity
  8
RACCORDO
100
AcDbLine
 62
253
  6
CONTINUOUS
 10
138.8072292385
 20
107.7296927032
 11
132.4468084389
 21
107.7294303959
  0
LINE
  5
316
100
AcDbEntity
  8
RACCORDO
100
AcDbLine
 62
253
  6
CONTINUOUS
 10
161.3071531155
 20
107.327456871
 11
154.9573294369
 21
107.3278244025
  0
LINE
  5
317
100
AcDbEntity
  8
RACCORDO
100
AcDbLine
 62
253
  6
CONTINUOUS
 10
161.3176700896
 20
107.7294303959
 11
154.95724929
 21
107.7296927032
  0
LINE
  5
318
100
AcDbEntity
  8
RACCORDO
100
AcDbLine
 62
253
  6
CONTINUOUS
 10
168.9910276063
 20
106.3587192584
 11
163.1835304686
 21
106.362568575
  0
LINE
  5
319
100
AcDbEntity
  8
RACCORDO
100
AcDbLine
 62
253
  6
CONTINUOUS
 10
168.6312813545
 20
105.9586474312
 11
168.6008464413
 21
105.9588572353
  0
LWPOLYLINE
  5
31A
100
AcDbEntity
  8
RACCORDO
100
AcDbPolyline
 62
253
  6
CONTINUOUS
 90
4
 70
0
 10
169.055088209
 20
106.358088312
 10
169.0514530426
 20
106.3582209677
 10
169.0431264409
 20
106.3583508113
 10
168.9910276063
 20
106.3587192584
  0
LWPOLYLINE
  5
31B
100
AcDbEntity
  8
RACCORDO
100
AcDbPolyline
 62
253
  6
CONTINUOUS
 90
16
 70
0
 10
168.6893439552
 20
105.5969707455
 10
168.7311349577
 20
105.5947706743
 10
168.7724682223
 20
105.5882136571
 10
168.8128910246
 20
105.5773715131
 10
168.8519606126
 20
105.5623629965
 10
168.8892490562
 20
105.543352496
 10
168.9243479341
 20
105.5205482341
 10
168.9568728074
 20
105.4941999864
 10
168.9864674302
 20
105.4645963461
 10
169.012807652
 20
105.4320615624
 10
169.0356049676
 20
105.3969519897
 10
169.0546096775
 20
105.3596521841
 10
169.0696136225
 20
105.3205706913
 10
169.0804524641
 20
105.2801355719
 10
169.087007484
 20
105.2387897128
 10
169.0892068851
 20
105.1969859762
  0
LWPOLYLINE
  5
31C
100
AcDbEntity
  8
RACCORDO
100
AcDbPolyline
 62
253
  6
CONTINUOUS
 90
13
 70
0
 10
163.1669869175
 20
105.9619484685
 10
163.1248579866
 20
105.9641755761
 10
163.0831974527
 20
105.9708274674
 10
163.0424687738
 20
105.9818302255
 10
163.0031250339
 20
105.997061539
 10
162.9656039694
 20
106.0163520366
 10
162.9303230871
 20
106.0394871472
 10
162.8976748212
 20
106.0662096297
 10
162.8680225293
 20
106.0962221793
 10
162.8416963977
 20
106.1291905824
 10
162.8189893136
 20
106.1647478863
 10
162.8001537203
 20
106.202498592
 10
162.7853990839
 20
106.2420227012
  0
LWPOLYLINE
  5
31D
100
AcDbEntity
  8
RACCORDO
100
AcDbPolyline
 62
253
  6
CONTINUOUS
 90
7
 70
0
 10
153.4783694226
 20
106.2428032738
 10
153.4758268821
 20
106.243367372
 10
153.4693069572
 20
106.2455387841
 10
153.4589102877
 20
106.2490822184
 10
153.4445175131
 20
106.253645037
 10
153.426185773
 20
106.2593119208
 10
153.3793124327
 20
106.2743865939
  0
LWPOLYLINE
  5
31E
100
AcDbEntity
  8
RACCORDO
100
AcDbPolyline
 62
253
  6
CONTINUOUS
 90
3
 70
0
 10
153.3793124327
 20
106.2743865939
 10
153.3510428808
 20
106.2831157999
 10
153.2867112835
 20
106.3036602418
  0
LWPOLYLINE
  5
31F
100
AcDbEntity
  8
RACCORDO
100
AcDbPolyline
 62
253
  6
CONTINUOUS
 90
3
 70
0
 10
153.426191654
 20
105.2957385273
 10
153.3793214759
 20
105.2806649805
 10
153.3510529734
 20
105.2719360405
  0
LWPOLYLINE
  5
320
100
AcDbEntity
  8
RACCORDO
100
AcDbPolyline
 62
253
  6
CONTINUOUS
 90
7
 70
0
 10
153.3510529734
 20
105.2719360405
 10
153.2867216903
 20
105.2513917359
 10
153.2512592914
 20
105.2404243705
 10
153.2141230951
 20
105.2286248987
 10
153.1757392898
 20
105.2161122997
 10
153.1364934714
 20
105.2036509205
 10
153.0968172205
 20
105.1916923653
  0
LWPOLYLINE
  5
321
100
AcDbEntity
  8
RACCORDO
100
AcDbPolyline
 62
253
  6
CONTINUOUS
 90
4
 70
0
 10
162.8408845714
 20
106.2569609184
 10
162.8902256121
 20
106.271952361
 10
162.9198790448
 20
106.2807099219
 10
162.9871333378
 20
106.3015436129
  0
LWPOLYLINE
  5
322
100
AcDbEntity
  8
RACCORDO
100
AcDbPolyline
 62
253
  6
CONTINUOUS
 90
6
 70
0
 10
162.9871333378
 20
106.3015436129
 10
163.0240559054
 20
106.3127044011
 10
163.0626101793
 20
106.3247578371
 10
163.1023346095
 20
106.3375784699
 10
163.1427983101
 20
106.350343402
 10
163.1835304686
 20
106.362568575
  0
LINE
  5
323
100
AcDbEntity
  8
RACCORDO
100
AcDbLine
 62
253
  6
CONTINUOUS
 10
130.9582004148
 20
105.3079027727
 11
130.9235939571
 21
105.2980877157
  0
LWPOLYLINE
  5
324
100
AcDbEntity
  8
RACCORDO
100
AcDbPolyline
 62
253
  6
CONTINUOUS
 90
7
 70
0
 10
168.655225279
 20
105.9581035428
 10
168.6544652759
 20
105.9581892501
 10
168.6528096466
 20
105.9582724722
 10
168.6502583912
 20
105.9583532088
 10
168.6467703468
 20
105.9584322019
 10
168.6423866763
 20
105.9585087097
 10
168.6312813545
 20
105.9586474312
  0
LWPOLYLINE
  5
325
100
AcDbEntity
  8
RACCORDO
100
AcDbPolyline
 62
7
  6
CONTINUOUS
 90
13
 70
0
 10
163.1078255266
 20
105.9396136328
 10
163.0715765006
 20
105.9449912665
 10
163.0361041745
 20
105.9536309577
 10
163.0016952462
 20
105.9654268365
 10
162.9686599228
 20
105.9802296295
 10
162.9372144255
 20
105.9978984781
 10
162.9074976901
 20
106.0183356421
 10
162.8797509169
 20
106.0413749356
 10
162.854199624
 20
106.0668285422
 10
162.8309756438
 20
106.0945882072
 10
162.8102725977
 20
106.1244834184
 10
162.7923172595
 20
106.156256114
 10
162.7772883938
 20
106.1896590301
  0
LINE
  5
326
100
AcDbEntity
  8
RACCORDO
100
AcDbLine
 62
253
  6
CONTINUOUS
 10
162.8902352247
 20
105.2830933164
 11
162.919889779
 21
105.2743354557
  0
LINE
  5
327
100
AcDbEntity
  8
RACCORDO
100
AcDbLine
 62
253
  6
CONTINUOUS
 10
162.8408908095
 20
105.2980859566
 11
162.8902352247
 21
105.2830933164
  0
LWPOLYLINE
  5
328
100
AcDbEntity
  8
RACCORDO
100
AcDbPolyline
 62
253
  6
CONTINUOUS
 90
6
 70
0
 10
153.2867112835
 20
106.3036602418
 10
153.2512498179
 20
106.3146272987
 10
153.2141151713
 20
106.3264262361
 10
153.1757334659
 20
106.3389381314
 10
153.1364903118
 20
106.3513986518
 10
153.0968172209
 20
106.3633562681
  0
LWPOLYLINE
  5
329
100
AcDbEntity
  8
RACCORDO
100
AcDbPolyline
 62
253
  6
CONTINUOUS
 90
7
 70
0
 10
162.919889779
 20
105.2743354557
 10
162.9871443946
 20
105.2535015796
 10
163.0240659568
 20
105.242341092
 10
163.0626185704
 20
105.2302882025
 10
163.1023407611
 20
105.2174683033
 10
163.1428016368
 20
105.2047042651
 10
163.1835304687
 20
105.1924800591
  0
LWPOLYLINE
  5
32A
100
AcDbEntity
  8
RACCORDO
100
AcDbPolyline
 62
253
  6
CONTINUOUS
 90
7
 70
0
 10
153.0968227448
 20
105.592188703
 10
153.0970999904
 20
105.58959156
 10
153.0970344472
 20
105.5827131525
 10
153.0968210468
 20
105.5717200393
 10
153.0968340509
 20
105.5566048862
 10
153.0969755177
 20
105.5373972737
 10
153.0967435251
 20
105.4881087196
  0
LWPOLYLINE
  5
32B
100
AcDbEntity
  8
RACCORDO
100
AcDbPolyline
 62
253
  6
CONTINUOUS
 90
3
 70
0
 10
153.0967435251
 20
105.4881087196
 10
153.0969369
 20
105.4584933675
 10
153.0967053812
 20
105.3908975499
  0
LWPOLYLINE
  5
32C
100
AcDbEntity
  8
RACCORDO
100
AcDbPolyline
 62
253
  6
CONTINUOUS
 90
6
 70
0
 10
153.0967053812
 20
105.3908975499
 10
153.0969096839
 20
105.3537470281
 10
153.0968175024
 20
105.3147511027
 10
153.0964140843
 20
105.2743525691
 10
153.0963134917
 20
105.2331502394
 10
153.0968172205
 20
105.1916923653
  0
LWPOLYLINE
  5
32D
100
AcDbEntity
  8
RACCORDO
100
AcDbPolyline
 62
253
  6
CONTINUOUS
 90
7
 70
0
 10
153.0969368079
 20
106.0965463354
 10
153.0967053298
 20
106.1641420592
 10
153.0969096378
 20
106.2012935037
 10
153.0968174351
 20
106.2402908509
 10
153.0964139998
 20
106.2806912124
 10
153.0963134157
 20
106.3218957935
 10
153.0968172209
 20
106.3633562681
  0
LWPOLYLINE
  5
32E
100
AcDbEntity
  8
RACCORDO
100
AcDbPolyline
 62
253
  6
CONTINUOUS
 90
3
 70
0
 10
153.0969753813
 20
106.0176460171
 10
153.0967434832
 20
106.0669318075
 10
153.0969368079
 20
106.0965463354
  0
LWPOLYLINE
  5
32F
100
AcDbEntity
  8
RACCORDO
100
AcDbPolyline
 62
253
  6
CONTINUOUS
 90
6
 70
0
 10
153.0968227448
 20
105.9628599311
 10
153.0970997928
 20
105.9654567527
 10
153.0970342636
 20
105.972334344
 10
153.0968209803
 20
105.983326278
 10
153.0968339958
 20
105.998439991
 10
153.0969753813
 20
106.0176460171
  0
LWPOLYLINE
  5
330
100
AcDbEntity
  8
RACCORDO
100
AcDbPolyline
 62
7
  6
CONTINUOUS
 90
10
 70
0
 10
153.4981918462
 20
106.2211521248
 10
153.4971049771
 20
106.2176337889
 10
153.4959847566
 20
106.2141215043
 10
153.4948311283
 20
106.2106149876
 10
153.4936445897
 20
106.2071147622
 10
153.4924245305
 20
106.2036197382
 10
153.4911692512
 20
106.2001271975
 10
153.4898781711
 20
106.1966360276
 10
153.4885518084
 20
106.1931467362
 10
153.4871901316
 20
106.1896590203
  0
LINE
  5
331
100
AcDbEntity
  8
RACCORDO
100
AcDbLine
 62
7
  6
CONTINUOUS
 10
160.4302406928
 20
128.0989126481
 11
160.3873843939
 21
127.9702391963
  0
LWPOLYLINE
  5
332
100
AcDbEntity
  8
RACCORDO
100
AcDbPolyline
 62
253
  6
CONTINUOUS
 90
13
 70
0
 10
153.4783694226
 20
106.2428032738
 10
153.4636057871
 20
106.2032947028
 10
153.4447639625
 20
106.1655598647
 10
153.4220533726
 20
106.1300183534
 10
153.3957263676
 20
106.0970652801
 10
153.3660756854
 20
106.0670672231
 10
153.3334313074
 20
106.0403580452
 10
153.2981563472
 20
106.0172347418
 10
153.2606429621
 20
105.9979542868
 10
153.2213083453
 20
105.9827310244
 10
153.1805898932
 20
105.9717341467
 10
153.1389403313
 20
105.9650858357
 10
153.0968227448
 20
105.9628599311
  0
LWPOLYLINE
  5
333
100
AcDbEntity
  8
RACCORDO
100
AcDbPolyline
 62
7
  6
CONTINUOUS
 90
13
 70
0
 10
153.487190131
 20
106.1896590205
 10
153.4721612674
 20
106.1562561104
 10
153.4542059315
 20
106.1244834192
 10
153.4335028875
 20
106.0945882107
 10
153.4102789091
 20
106.0668285471
 10
153.3847276171
 20
106.0413749407
 10
153.3569808435
 20
106.0183356463
 10
153.3272641061
 20
105.9978984805
 10
153.2958186049
 20
105.9802296297
 10
153.2627832747
 20
105.9654268342
 10
153.2283743363
 20
105.9536309533
 10
153.192901997
 20
105.9449912611
 10
153.1566529547
 20
105.9396136286
  0
LINE
  5
334
100
AcDbEntity
  8
RACCORDO
100
AcDbLine
 62
253
  6
CONTINUOUS
 10
153.0968227393
 20
105.592188703
 11
153.1155054561
 21
105.617524317
  0
LINE
  5
335
100
AcDbEntity
  8
RACCORDO
100
AcDbLine
 62
253
  6
CONTINUOUS
 10
153.478369423
 20
105.312245359
 11
153.4981918462
 21
105.3338965093
  0
LINE
  5
336
100
AcDbEntity
  8
RACCORDO
100
AcDbLine
 62
253
  6
CONTINUOUS
 10
153.4981918462
 20
106.2211521248
 11
153.4783647766
 21
106.2427885073
  0
LINE
  5
337
100
AcDbEntity
  8
RACCORDO
100
AcDbLine
 62
253
  6
CONTINUOUS
 10
153.1155054561
 20
105.937524317
 11
153.0968227392
 21
105.9628599311
  0
LWPOLYLINE
  5
338
100
AcDbEntity
  8
RACCORDO
100
AcDbPolyline
 62
7
  6
CONTINUOUS
 90
13
 70
0
 10
153.4871901424
 20
105.3653895831
 10
153.4721713802
 20
105.3988068705
 10
153.4542127498
 20
105.4305750078
 10
153.4335028625
 20
105.460460456
 10
153.4102756632
 20
105.4882154919
 10
153.384725024
 20
105.5136701267
 10
153.3569808153
 20
105.5367130119
 10
153.3272632791
 20
105.5571488978
 10
153.2958143787
 20
105.5748130156
 10
153.2627833331
 20
105.5896217815
 10
153.228386237
 20
105.6014339948
 10
153.1929182667
 20
105.6100795968
 10
153.1566532545
 20
105.615434979
  0
LWPOLYLINE
  5
339
100
AcDbEntity
  8
RACCORDO
100
AcDbPolyline
 62
7
  6
CONTINUOUS
 90
10
 70
0
 10
153.4871901751
 20
105.3653895923
 10
153.4885518375
 20
105.3619018726
 10
153.489878189
 20
105.3584125793
 10
153.491169261
 20
105.3549214097
 10
153.4924245363
 20
105.351428872
 10
153.4936445949
 20
105.3479338532
 10
153.4948311328
 20
105.344433633
 10
153.4959847595
 20
105.3409271208
 10
153.4971049785
 20
105.3374148408
 10
153.4981918461
 20
105.3338965094
  0
LWPOLYLINE
  5
33A
100
AcDbEntity
  8
RACCORDO
100
AcDbPolyline
 62
253
  6
CONTINUOUS
 90
22
 70
0
 10
153.478369423
 20
105.312245359
 10
153.5084752143
 20
105.2256013551
 10
153.5438350754
 20
105.1404843021
 10
153.5843971278
 20
105.0572254588
 10
153.6301196352
 20
104.9761046987
 10
153.6808822457
 20
104.8975095134
 10
153.7364548314
 20
104.8219136333
 10
153.796674418
 20
104.7496194154
 10
153.8613537379
 20
104.6809265151
 10
153.9301430551
 20
104.616250076
 10
154.0027851288
 20
104.5558473807
 10
154.0790277255
 20
104.4999427904
 10
154.1584636235
 20
104.4488329375
 10
154.2408015485
 20
104.4026883331
 10
154.3257176869
 20
104.3616741946
 10
154.4127101743
 20
104.32599619
 10
154.5014325472
 20
104.2957410865
 10
154.5915512559
 20
104.2709687318
 10
154.6825579966
 20
104.251750869
 10
154.7740522367
 20
104.2380845632
 10
154.8657515282
 20
104.2299258926
 10
154.9573254798
 20
104.2272242344
  0
LWPOLYLINE
  5
33B
100
AcDbEntity
  8
RACCORDO
100
AcDbPolyline
 62
253
  6
CONTINUOUS
 90
22
 70
0
 10
153.0968172205
 20
105.1916923653
 10
153.1348571126
 20
105.0818590668
 10
153.1793266963
 20
104.9747939384
 10
153.2302259899
 20
104.8704969829
 10
153.2877585866
 20
104.7685091407
 10
153.3517209356
 20
104.6692894758
 10
153.4215023392
 20
104.5742151729
 10
153.4972254434
 20
104.4833433092
 10
153.5787676502
 20
104.3966168027
 10
153.665150391
 20
104.3152415938
 10
153.7564529738
 20
104.239324404
 10
153.85259614
 20
104.1687584999
 10
153.9523634617
 20
104.1044296338
 10
154.0558313901
 20
104.0464460964
 10
154.1629235212
 20
103.9946995821
 10
154.2721941303
 20
103.9497509466
 10
154.3836585768
 20
103.9117345453
 10
154.4973015406
 20
103.8805160095
 10
154.6116312598
 20
103.856253107
 10
154.7261504843
 20
103.838998424
 10
154.8413564888
 20
103.828699366
 10
154.9572492895
 20
103.8253559311
  0
LINE
  5
33C
100
AcDbEntity
  8
RACCORDO
100
AcDbLine
 62
253
  6
CONTINUOUS
 10
154.957239412
 20
104.252524317
 11
154.9572492895
 21
103.8253559311
  0
LINE
  5
33D
100
AcDbEntity
  8
RACCORDO
100
AcDbLine
 62
253
  6
CONTINUOUS
 10
154.9572392642
 20
107.302524317
 11
154.9572492901
 21
107.7296926881
  0
LINE
  5
33E
100
AcDbEntity
  8
RACCORDO
100
AcDbLine
 62
253
  6
CONTINUOUS
 10
168.6893439552
 20
105.5969707455
 11
168.8321935522
 21
105.6445776072
  0
LINE
  5
33F
100
AcDbEntity
  8
RACCORDO
100
AcDbLine
 62
253
  6
CONTINUOUS
 10
169.0892068851
 20
105.1969859762
 11
169.2322392642
 21
105.244653753
  0
LINE
  5
340
100
AcDbEntity
  8
DRAFT
100
AcDbLine
 62
7
  6
CONTINUOUS
 10
167.9170212093
 20
105.937524317
 11
168.0322392642
 21
105.8991260988
  0
LINE
  5
341
100
AcDbEntity
  8
RACCORDO
100
AcDbLine
 62
253
  6
CONTINUOUS
 10
168.8321935522
 20
105.8991260988
 11
168.655225279
 21
105.9581035428
  0
LINE
  5
342
100
AcDbEntity
  8
RACCORDO
100
AcDbLine
 62
253
  6
CONTINUOUS
 10
169.2322392642
 20
106.299049953
 11
169.0550882089
 21
106.358088312
  0
LINE
  5
343
100
AcDbEntity
  8
RACCORDO
100
AcDbLine
 62
253
  6
CONTINUOUS
 10
168.5844255982
 20
127.8020540867
 11
168.7327531006
 21
128.0989126481
  0
LINE
  5
344
100
AcDbEntity
  8
RACCORDO
100
AcDbLine
 62
253
  6
CONTINUOUS
 10
169.0842542607
 20
127.3027393193
 11
169.2322392642
 21
127.598912413
  0
LINE
  5
345
100
AcDbEntity
  8
RACCORDO
100
AcDbLine
 62
253
  6
CONTINUOUS
 10
168.7035114648
 20
83.5827895004
 11
168.6185281188
 21
83.7528728189
  0
LINE
  5
346
100
AcDbEntity
  8
RACCORDO
100
AcDbLine
 62
253
  6
CONTINUOUS
 10
169.2045949639
 20
84.0795928723
 11
169.11835678
 21
84.2521875887
  0
LINE
  5
347
100
AcDbEntity
  8
RACCORDO
100
AcDbLine
 62
253
  6
CONTINUOUS
 10
158.1321482171
 20
104.227227481
 11
158.1322203865
 21
84.5270586375
  0
LINE
  5
348
100
AcDbEntity
  8
RACCORDO
100
AcDbLine
 62
253
  6
CONTINUOUS
 10
158.1322203865
 20
84.5270586375
 11
158.1320202802
 21
83.7716104303
  0
LINE
  5
349
100
AcDbEntity
  8
RACCORDO
100
AcDbLine
 62
253
  6
CONTINUOUS
 10
158.1321482171
 20
107.3278211531
 11
158.1320202802
 21
127.7834382038
  0
LWPOLYLINE
  5
34A
100
AcDbEntity
  8
RACCORDO
100
AcDbPolyline
 62
253
  6
CONTINUOUS
 90
11
 70
0
 10
161.3072392642
 20
107.3274568546
 10
161.3083269954
 20
107.3300014447
 10
161.3094028659
 20
107.3368797158
 10
161.3104551446
 20
107.3480166674
 10
161.3114723574
 20
107.3632908623
 10
161.3124434126
 20
107.382535751
 10
161.3133577218
 20
107.4055414875
 10
161.3142053155
 20
107.4320572177
 10
161.3149769515
 20
107.4617938144
 10
161.3156642159
 20
107.4944270304
 10
161.3167566558
 20
107.5669322873
  0
LINE
  5
34B
100
AcDbEntity
  8
RACCORDO
100
AcDbLine
 62
253
  6
CONTINUOUS
 10
162.7853990835
 20
106.2420227024
 11
162.7662866823
 21
106.2211521248
  0
LWPOLYLINE
  5
34C
100
AcDbEntity
  8
RACCORDO
100
AcDbPolyline
 62
253
  6
CONTINUOUS
 90
16
 70
0
 10
168.5638297381
 20
105.9589501663
 10
168.5673961087
 20
105.9614822807
 10
168.570923777
 20
105.9683275508
 10
168.5743744609
 20
105.9794116916
 10
168.5777107135
 20
105.9946144182
 10
168.5808963297
 20
106.0137707504
 10
168.5838967393
 20
106.0366728039
 10
168.5866793819
 20
106.0630720455
 10
168.5892140601
 20
106.0926819908
 10
168.5914732678
 20
106.1251813127
 10
168.5934324878
 20
106.1602173285
 10
168.5950704589
 20
106.1974098275
 10
168.5963694058
 20
106.2363551967
 10
168.5973152322
 20
106.2766308011
 10
168.5978976741
 20
106.3177995698
 10
168.5981104108
 20
106.3594147395
  0
LWPOLYLINE
  5
34D
100
AcDbEntity
  8
RACCORDO
100
AcDbPolyline
 62
253
  6
CONTINUOUS
 90
16
 70
0
 10
168.5979765251
 20
105.5961241429
 10
168.6015543758
 20
105.5935915365
 10
168.605093399
 20
105.5867458641
 10
168.6085551901
 20
105.5756614137
 10
168.6119021824
 20
105.5604584711
 10
168.6150980549
 20
105.5413020157
 10
168.6181081266
 20
105.5183999291
 10
168.6208997327
 20
105.49200074
 10
168.623442579
 20
105.4623909266
 10
168.625709071
 20
105.4298918085
 10
168.6276746128
 20
105.3948560591
 10
168.6293178746
 20
105.357663879
 10
168.6306210237
 20
105.3187188697
 10
168.6315699181
 20
105.2784436542
 10
168.6321542604
 20
105.2372752906
 10
168.6323677092
 20
105.1956605294
  0
LINE
  5
34E
100
AcDbEntity
  8
RACCORDO
100
AcDbLine
 62
253
  6
CONTINUOUS
 10
162.7662866823
 20
105.3338965093
 11
162.7854037426
 21
105.3130407664
  0
LWPOLYLINE
  5
34F
100
AcDbEntity
  8
RACCORDO
100
AcDbPolyline
 62
253
  6
CONTINUOUS
 90
9
 70
0
 10
161.3072392634
 20
104.2275994482
 10
161.3083270019
 20
104.2250547681
 10
161.3094028793
 20
104.2181763007
 10
161.3104551639
 20
104.2070390509
 10
161.3114723812
 20
104.1917644626
 10
161.3124434393
 20
104.1725190946
 10
161.3133577493
 20
104.1495128045
 10
161.3142053413
 20
104.1229964597
 10
161.3149769731
 20
104.0932592028
  0
LINE
  5
350
100
AcDbEntity
  8
RACCORDO
100
AcDbLine
 62
253
  6
CONTINUOUS
 10
161.3149769731
 20
104.0932592028
 11
161.3162596191
 21
104.0254505952
  0
LINE
  5
351
100
AcDbEntity
  8
RACCORDO
100
AcDbLine
 62
253
  6
CONTINUOUS
 10
161.3162596191
 20
104.0254505952
 11
161.3171498943
 21
103.9490365425
  0
LWPOLYLINE
  5
352
100
AcDbEntity
  8
RACCORDO
100
AcDbPolyline
 62
253
  6
CONTINUOUS
 90
3
 70
0
 10
161.3171498943
 20
103.9490365425
 10
161.3176090734
 20
103.8673409281
 10
161.317669998
 20
103.8256182557
  0
LINE
  5
353
100
AcDbEntity
  8
RACCORDO
100
AcDbLine
 62
253
  6
CONTINUOUS
 10
161.3072391165
 20
107.302524317
 11
161.3071531155
 21
107.327456871
  0
LINE
  5
354
100
AcDbEntity
  8
RACCORDO
100
AcDbLine
 62
253
  6
CONTINUOUS
 10
161.3072392642
 20
104.252524317
 11
161.3071491969
 21
104.2275917624
  0
LINE
  5
355
100
AcDbEntity
  8
RACCORDO
100
AcDbLine
 62
253
  6
CONTINUOUS
 10
161.3174351174
 20
107.6464192245
 11
161.3176700896
 21
107.7294303959
  0
LINE
  5
356
100
AcDbEntity
  8
RACCORDO
100
AcDbLine
 62
253
  6
CONTINUOUS
 10
161.3167566558
 20
107.5669322873
 11
161.3174351174
 21
107.6464192245
  0
LWPOLYLINE
  5
357
100
AcDbEntity
  8
RACCORDO
100
AcDbPolyline
 62
7
  6
CONTINUOUS
 90
13
 70
0
 10
162.7772884545
 20
105.3653897538
 10
162.792317342
 20
105.3987926807
 10
162.8102727054
 20
105.430565386
 10
162.8309757803
 20
105.4604606052
 10
162.8541997928
 20
105.4882202758
 10
162.8797511214
 20
105.5136738848
 10
162.9074979336
 20
105.5367131768
 10
162.9372147104
 20
105.5571503346
 10
162.9686602516
 20
105.5748191717
 10
163.0016956218
 20
105.5896219476
 10
163.0361045993
 20
105.6014178031
 10
163.0715769763
 20
105.6100574636
 10
163.1078260538
 20
105.6154350586
  0
LWPOLYLINE
  5
358
100
AcDbEntity
  8
RACCORDO
100
AcDbPolyline
 62
253
  6
CONTINUOUS
 90
6
 70
0
 10
163.1669869175
 20
105.9619484685
 10
163.1684921815
 20
105.9645542334
 10
163.1702499131
 20
105.9714393774
 10
163.1720770869
 20
105.9824242154
 10
163.1736470943
 20
105.9975379762
 10
163.1766733418
 20
106.0397174076
  0
LINE
  5
359
100
AcDbEntity
  8
RACCORDO
100
AcDbLine
 62
253
  6
CONTINUOUS
 10
163.1669869228
 20
105.9619484685
 11
163.1489730724
 21
105.937524317
  0
LINE
  5
35A
100
AcDbEntity
  8
RACCORDO
100
AcDbLine
 62
253
  6
CONTINUOUS
 10
163.1489730724
 20
105.617524317
 11
163.1669869228
 21
105.5931001655
  0
LWPOLYLINE
  5
35B
100
AcDbEntity
  8
RACCORDO
100
AcDbPolyline
 62
253
  6
CONTINUOUS
 90
5
 70
0
 10
163.1669869175
 20
105.5931001655
 10
163.1684922202
 20
105.5904946757
 10
163.17024984
 20
105.5836102297
 10
163.1720768402
 20
105.5726264031
 10
163.1736467843
 20
105.5575138952
  0
LWPOLYLINE
  5
35C
100
AcDbEntity
  8
RACCORDO
100
AcDbPolyline
 62
7
  6
CONTINUOUS
 90
10
 70
0
 10
162.777288385
 20
106.1896590276
 10
162.775926712
 20
106.1931467443
 10
162.7746003522
 20
106.196636036
 10
162.7733092743
 20
106.2001272056
 10
162.7720539962
 20
106.2036197454
 10
162.7708339372
 20
106.2071147678
 10
162.7696473988
 20
106.2106149916
 10
162.768493771
 20
106.214121507
 10
162.767373551
 20
106.2176337902
 10
162.7662866824
 20
106.2211521247
  0
LWPOLYLINE
  5
35D
100
AcDbEntity
  8
RACCORDO
100
AcDbPolyline
 62
253
  6
CONTINUOUS
 90
4
 70
0
 10
163.1736467843
 20
105.5575138952
 10
163.1766730034
 20
105.5153372332
 10
163.1780751865
 20
105.4890048056
 10
163.180329544
 20
105.4267901346
  0
LWPOLYLINE
  5
35E
100
AcDbEntity
  8
RACCORDO
100
AcDbPolyline
 62
253
  6
CONTINUOUS
 90
4
 70
0
 10
163.180329544
 20
105.4267901346
 10
163.1813849713
 20
105.3917556372
 10
163.1819695236
 20
105.3545873295
 10
163.1835566408
 20
105.275168754
  0
LWPOLYLINE
  5
35F
100
AcDbEntity
  8
RACCORDO
100
AcDbPolyline
 62
253
  6
CONTINUOUS
 90
3
 70
0
 10
163.1835566408
 20
105.275168754
 10
163.1839389517
 20
105.2339555594
 10
163.1835304687
 20
105.1924800591
  0
LWPOLYLINE
  5
360
100
AcDbEntity
  8
RACCORDO
100
AcDbPolyline
 62
253
  6
CONTINUOUS
 90
5
 70
0
 10
163.1813852047
 20
106.1633010037
 10
163.1826918293
 20
106.2394797456
 10
163.183556651
 20
106.2798842113
 10
163.1839389223
 20
106.3210954015
 10
163.1835304686
 20
106.362568575
  0
LWPOLYLINE
  5
361
100
AcDbEntity
  8
RACCORDO
100
AcDbPolyline
 62
253
  6
CONTINUOUS
 90
3
 70
0
 10
163.1780755676
 20
106.0660509432
 10
163.1803297894
 20
106.1282667141
 10
163.1813852047
 20
106.1633010037
  0
LINE
  5
362
100
AcDbEntity
  8
RACCORDO
100
AcDbLine
 62
253
  6
CONTINUOUS
 10
163.1766733418
 20
106.0397174076
 11
163.1780755676
 21
106.0660509432
  0
LWPOLYLINE
  5
363
100
AcDbEntity
  8
RACCORDO
100
AcDbPolyline
 62
7
  6
CONTINUOUS
 90
10
 70
0
 10
162.7662866823
 20
105.3338965094
 10
162.7673735556
 20
105.3374148585
 10
162.7684937805
 20
105.3409271564
 10
162.7696474135
 20
105.3444336864
 10
162.7708339592
 20
105.3479339234
 10
162.7720540259
 20
105.3514289591
 10
162.7733093062
 20
105.354921516
 10
162.7746003789
 20
105.3584127082
 10
162.7759267279
 20
105.3619020264
 10
162.7772883844
 20
105.3653897735
  0
LWPOLYLINE
  5
364
100
AcDbEntity
  8
RACCORDO
100
AcDbPolyline
 62
253
  6
CONTINUOUS
 90
13
 70
0
 10
162.7853990839
 20
105.3130259329
 10
162.8001537203
 20
105.3525500421
 10
162.8189893136
 20
105.3903007478
 10
162.8416963977
 20
105.4258580517
 10
162.8680225293
 20
105.4588264548
 10
162.8976748212
 20
105.4888390044
 10
162.9303230871
 20
105.5155614869
 10
162.9656039694
 20
105.5386965975
 10
163.0031250339
 20
105.5579870951
 10
163.0424687738
 20
105.5732184086
 10
163.0831974527
 20
105.5842211667
 10
163.1248579866
 20
105.590873058
 10
163.1669869175
 20
105.5931001655
  0
LWPOLYLINE
  5
365
100
AcDbEntity
  8
RACCORDO
100
AcDbPolyline
 62
253
  6
CONTINUOUS
 90
22
 70
0
 10
162.7853990835
 20
106.2420227024
 10
162.7554217199
 20
106.3284509757
 10
162.720205502
 20
106.4133876964
 10
162.6797973648
 20
106.4965021445
 10
162.6342343083
 20
106.5775144568
 10
162.5836315399
 20
106.6560366139
 10
162.5282136748
 20
106.731593656
 10
162.4681387636
 20
106.8038818087
 10
162.403589848
 20
106.8725987304
 10
162.3349127631
 20
106.937325237
 10
162.2623606743
 20
106.9978012314
 10
162.1861830991
 20
107.0537982878
 10
162.1067866556
 20
107.1050136423
 10
162.0244603839
 20
107.1512731301
 10
161.9395270056
 20
107.1924072498
 10
161.8524910862
 20
107.2282039703
 10
161.7636983015
 20
107.2585731068
 10
161.6734831866
 20
107.2834509631
 10
161.5823609025
 20
107.3027605635
 10
161.490735433
 20
107.3165020978
 10
161.3988887813
 20
107.3247180008
 10
161.3071531155
 20
107.3274568777
  0
LWPOLYLINE
  5
366
100
AcDbEntity
  8
RACCORDO
100
AcDbPolyline
 62
253
  6
CONTINUOUS
 90
22
 70
0
 10
163.1835304686
 20
106.362568575
 10
163.1455261563
 20
106.4721386545
 10
163.1010776338
 20
106.5789843357
 10
163.0501846636
 20
106.6831056366
 10
162.9926485759
 20
106.7849630658
 10
162.9286674648
 20
106.8840961457
 10
162.8588362216
 20
106.979123408
 10
162.783030142
 20
107.0699903068
 10
162.7013732686
 20
107.1567513995
 10
162.6148336749
 20
107.2381888623
 10
162.5233290335
 20
107.3141976054
 10
162.4269410618
 20
107.3848827086
 10
162.3268840353
 20
107.4493415922
 10
162.2230783955
 20
107.5074660821
 10
162.1156032539
 20
107.559364324
 10
162.0059110847
 20
107.60445821
 10
161.8939835138
 20
107.6426121451
 10
161.7798387086
 20
107.6739616832
 10
161.6649841769
 20
107.6983354367
 10
161.5499224798
 20
107.715676261
 10
161.4341511112
 20
107.7260412553
 10
161.3176700896
 20
107.7294303959
  0
LINE
  5
367
100
AcDbEntity
  8
RACCORDO
100
AcDbLine
 62
7
  6
CONTINUOUS
 10
155.8770941346
 20
127.9702391963
 11
155.8342378357
 21
128.0989126481
  0
LWPOLYLINE
  5
368
100
AcDbEntity
  8
RACCORDO
100
AcDbPolyline
 62
253
  6
CONTINUOUS
 90
10
 70
0
 10
169.11835678
 20
84.2521875887
 10
169.1170628262
 20
84.2565408507
 10
169.115790684
 20
84.2642360179
 10
169.1145403534
 20
84.2752730904
 10
169.1133052827
 20
84.2897410236
 10
169.1120920236
 20
84.3075508621
 10
169.1109202318
 20
84.3284357395
 10
169.1097910945
 20
84.3524404203
 10
169.1087034245
 20
84.3795201399
 10
169.107673315
 20
84.4092737384
  0
LINE
  5
369
100
AcDbEntity
  8
DRAFT
100
AcDbLine
 62
7
  6
CONTINUOUS
 10
168.0322392642
 20
105.6445776072
 11
168.0322392642
 21
105.617524317
  0
LWPOLYLINE
  5
36A
100
AcDbEntity
  8
RACCORDO
100
AcDbPolyline
 62
253
  6
CONTINUOUS
 90
14
 70
0
 10
125.0668904769
 20
126.6540344787
 10
125.0200634806
 20
126.653329338
 10
124.9749561558
 20
126.6524313759
 10
124.9320057214
 20
126.6513492963
 10
124.8916284895
 20
126.6500935875
 10
124.8542158308
 20
126.6486764211
 10
124.8201303808
 20
126.6471115333
 10
124.7897025246
 20
126.6454140924
 10
124.7632271953
 20
126.6436005514
 10
124.7409610141
 20
126.6416884888
 10
124.7231198039
 20
126.6396964378
 10
124.7098764971
 20
126.637643707
 10
124.7013594591
 20
126.6355501935
 10
124.6976512442
 20
126.6334361892
  0
LINE
  5
36B
100
AcDbEntity
  8
RACCORDO
100
AcDbLine
 62
253
  6
CONTINUOUS
 10
125.1638756662
 20
126.6548408921
 11
125.0668904769
 21
126.6540344787
  0
LINE
  5
36C
100
AcDbEntity
  8
RACCORDO
100
AcDbLine
 62
253
  6
CONTINUOUS
 10
168.6006028719
 20
126.6548408781
 11
163.0862254762
 21
126.6490833204
  0
LINE
  5
36D
100
AcDbEntity
  8
RACCORDO
100
AcDbLine
 62
253
  6
CONTINUOUS
 10
163.0862254762
 20
126.6490833204
 11
128.695793544
 21
126.6507071146
  0
LINE
  5
36E
100
AcDbEntity
  8
RACCORDO
100
AcDbLine
 62
253
  6
CONTINUOUS
 10
128.695793544
 20
126.6507071146
 11
125.1638756661
 21
126.6548408772
  0
LWPOLYLINE
  5
36F
100
AcDbEntity
  8
RACCORDO
100
AcDbPolyline
 62
253
  6
CONTINUOUS
 90
15
 70
0
 10
168.6006019665
 20
126.6548403401
 10
168.6975862369
 20
126.6540339529
 10
168.7444128347
 20
126.6533288342
 10
168.7895198192
 20
126.6524308998
 10
168.8324699835
 20
126.6513488528
 10
168.8728470265
 20
126.6500931811
 10
168.9102595872
 20
126.6486760552
 10
168.9443450384
 20
126.647111211
 10
168.9747730014
 20
126.645413816
 10
169.0012485482
 20
126.6436003225
 10
169.0235150606
 20
126.6416883079
 10
169.0413567167
 20
126.6396963049
 10
169.0546005834
 20
126.6376436212
 10
169.0631182924
 20
126.6355501528
 10
169.0668272846
 20
126.633436191
  0
LWPOLYLINE
  5
370
100
AcDbEntity
  8
RACCORDO
100
AcDbPolyline
 62
253
  6
CONTINUOUS
 90
7
 70
0
 10
168.5908599405
 20
127.6711796294
 10
168.5898238248
 20
127.7070492637
 10
168.588783873
 20
127.7374698137
 10
168.5877030505
 20
127.7622919582
 10
168.5865873362
 20
127.7813906202
 10
168.5854855253
 20
127.7946675446
 10
168.5844255982
 20
127.8020540867
  0
LINE
  5
371
100
AcDbEntity
  8
RACCORDO
100
AcDbLine
 62
253
  6
CONTINUOUS
 10
169.107673315
 20
84.4092737384
 11
169.1057874905
 21
84.4768858856
  0
LINE
  5
372
100
AcDbEntity
  8
RACCORDO
100
AcDbLine
 62
253
  6
CONTINUOUS
 10
168.5928222339
 20
127.583826821
 11
168.5908599405
 21
127.6711796294
  0
LINE
  5
373
100
AcDbEntity
  8
RACCORDO
100
AcDbLine
 62
253
  6
CONTINUOUS
 10
169.1057874905
 20
84.4768858856
 11
169.1041736151
 21
84.5536448346
  0
LINE
  5
374
100
AcDbEntity
  8
RACCORDO
100
AcDbLine
 62
253
  6
CONTINUOUS
 10
168.5946501258
 20
127.4771583149
 11
168.5928222339
 21
127.583826821
  0
LINE
  5
375
100
AcDbEntity
  8
RACCORDO
100
AcDbLine
 62
253
  6
CONTINUOUS
 10
169.1041736151
 20
84.5536448346
 11
169.1028553335
 21
84.6384092932
  0
LINE
  5
376
100
AcDbEntity
  8
RACCORDO
100
AcDbLine
 62
253
  6
CONTINUOUS
 10
168.5970156746
 20
127.2856682115
 11
168.5946501258
 21
127.4771583149
  0
LINE
  5
377
100
AcDbEntity
  8
RACCORDO
100
AcDbLine
 62
253
  6
CONTINUOUS
 10
169.1028553335
 20
84.6384092932
 11
169.1014970694
 21
84.7764352188
  0
LINE
  5
378
100
AcDbEntity
  8
RACCORDO
100
AcDbLine
 62
253
  6
CONTINUOUS
 10
168.5997685321
 20
126.9044477765
 11
168.5970156746
 21
127.2856682115
  0
LINE
  5
379
100
AcDbEntity
  8
RACCORDO
100
AcDbLine
 62
253
  6
CONTINUOUS
 10
168.6006028264
 20
126.6548408712
 11
168.5997685321
 21
126.9044477765
  0
LINE
  5
37A
100
AcDbEntity
  8
RACCORDO
100
AcDbLine
 62
253
  6
CONTINUOUS
 10
169.1014970694
 20
84.7764352188
 11
169.1009293773
 21
84.92153464
  0
LINE
  5
37B
100
AcDbEntity
  8
RACCORDO
100
AcDbLine
 62
253
  6
CONTINUOUS
 10
169.1009293773
 20
84.92153464
 11
169.092928676
 21
93.9863585214
  0
LWPOLYLINE
  5
37C
100
AcDbEntity
  8
RACCORDO
100
AcDbPolyline
 62
253
  6
CONTINUOUS
 90
3
 70
0
 10
169.092928676
 20
93.9863585214
 10
169.0894488357
 20
102.8700919561
 10
169.0892068851
 20
105.1969859762
  0
LINE
  5
37D
100
AcDbEntity
  8
DRAFT
100
AcDbLine
 62
7
  6
CONTINUOUS
 10
169.2322392642
 20
118.927524317
 11
169.2322392642
 21
114.827524317
  0
LINE
  5
37E
100
AcDbEntity
  8
RACCORDO
100
AcDbLine
 62
7
  6
CONTINUOUS
 10
169.2322392642
 20
105.244653753
 11
169.2322392642
 21
92.677524317
  0
LINE
  5
37F
100
AcDbEntity
  8
RACCORDO
100
AcDbLine
 62
7
  6
CONTINUOUS
 10
169.2322392642
 20
106.299049953
 11
169.2322392642
 21
114.827524317
  0
LINE
  5
380
100
AcDbEntity
  8
RACCORDO
100
AcDbLine
 62
7
  6
CONTINUOUS
 10
169.2322392642
 20
118.927524317
 11
169.2322392642
 21
127.598912413
  0
LINE
  5
381
100
AcDbEntity
  8
RACCORDO
100
AcDbLine
 62
253
  6
CONTINUOUS
 10
168.5981104051
 20
106.3594147395
 11
168.6006028719
 21
126.6548408781
  0
LINE
  5
382
100
AcDbEntity
  8
RACCORDO
100
AcDbLine
 62
253
  6
CONTINUOUS
 10
169.0550882089
 20
106.358088312
 11
169.0584791408
 21
117.0291998284
  0
LINE
  5
383
100
AcDbEntity
  8
RACCORDO
100
AcDbLine
 62
7
  6
CONTINUOUS
 10
169.2045949639
 20
84.0795928723
 11
169.2322392642
 21
92.677524317
  0
LINE
  5
384
100
AcDbEntity
  8
RACCORDO
100
AcDbLine
 62
253
  6
CONTINUOUS
 10
168.6343368668
 20
84.7328017214
 11
168.6323696315
 21
105.1956605097
  0
LINE
  5
385
100
AcDbEntity
  8
RACCORDO
100
AcDbLine
 62
253
  6
CONTINUOUS
 10
169.0584791408
 20
117.0291998284
 11
169.0671180377
 21
126.7309507735
  0
LINE
  5
386
100
AcDbEntity
  8
RACCORDO
100
AcDbLine
 62
253
  6
CONTINUOUS
 10
168.6318803597
 20
84.3402852632
 11
168.6343368668
 21
84.7328017214
  0
LINE
  5
387
100
AcDbEntity
  8
RACCORDO
100
AcDbLine
 62
253
  6
CONTINUOUS
 10
169.0671180377
 20
126.7309507735
 11
169.0682173287
 21
126.8718247045
  0
LINE
  5
388
100
AcDbEntity
  8
RACCORDO
100
AcDbLine
 62
253
  6
CONTINUOUS
 10
168.6296599292
 20
84.1377273474
 11
168.6318803597
 21
84.3402852632
  0
LINE
  5
389
100
AcDbEntity
  8
RACCORDO
100
AcDbLine
 62
253
  6
CONTINUOUS
 10
169.0682173287
 20
126.8718247045
 11
169.0693720732
 21
126.9596926644
  0
LINE
  5
38A
100
AcDbEntity
  8
RACCORDO
100
AcDbLine
 62
253
  6
CONTINUOUS
 10
168.627924185
 20
84.0221663777
 11
168.6296599292
 21
84.1377273474
  0
LINE
  5
38B
100
AcDbEntity
  8
RACCORDO
100
AcDbLine
 62
253
  6
CONTINUOUS
 10
169.0693720732
 20
126.9596926644
 11
169.0708426384
 21
127.0407712027
  0
LWPOLYLINE
  5
38C
100
AcDbEntity
  8
RACCORDO
100
AcDbPolyline
 62
253
  6
CONTINUOUS
 90
12
 70
0
 10
169.0708426384
 20
127.0407712027
 10
169.0725997715
 20
127.1131995881
 10
169.0735714274
 20
127.1456661982
 10
169.0746014912
 20
127.1754174224
 10
169.0756891069
 20
127.2024949137
 10
169.0768181833
 20
127.226497597
 10
169.0779899074
 20
127.2473807158
 10
169.0792030921
 20
127.2651890264
 10
169.0804380851
 20
127.2796557228
 10
169.0816883354
 20
127.2906918693
 10
169.082960394
 20
127.2983864015
 10
169.0842542607
 20
127.3027393193
  0
LWPOLYLINE
  5
38D
100
AcDbEntity
  8
RACCORDO
100
AcDbPolyline
 62
253
  6
CONTINUOUS
 90
16
 70
0
 10
125.180052931
 20
127.8020540852
 10
125.1278513047
 20
127.79925204
 10
125.0762206932
 20
127.7910194506
 10
125.0257257965
 20
127.7774463803
 10
124.9769188748
 20
127.758681296
 10
124.9303337533
 20
127.73492946
 10
124.8864799765
 20
127.7064506998
 10
124.8458371722
 20
127.6735565313
 10
124.8088498275
 20
127.6366067469
 10
124.7759224639
 20
127.5960055118
 10
124.7474151842
 20
127.5521969204
 10
124.7236397319
 20
127.5056601234
 10
124.7048560976
 20
127.4569040984
 10
124.691269681
 20
127.4064620953
 10
124.6830290413
 20
127.3548858061
 10
124.6802242685
 20
127.3027393178
  0
LINE
  5
38E
100
AcDbEntity
  8
RACCORDO
100
AcDbLine
 62
253
  6
CONTINUOUS
 10
168.5844255982
 20
127.8020540867
 11
165.3207515327
 21
127.7922487992
  0
LINE
  5
38F
100
AcDbEntity
  8
RACCORDO
100
AcDbLine
 62
253
  6
CONTINUOUS
 10
165.3207515327
 20
127.7922487992
 11
161.9078120641
 21
127.7858817449
  0
LINE
  5
390
100
AcDbEntity
  8
RACCORDO
100
AcDbLine
 62
253
  6
CONTINUOUS
 10
161.9078120641
 20
127.7858817449
 11
158.1320202802
 21
127.7834382038
  0
LINE
  5
391
100
AcDbEntity
  8
RACCORDO
100
AcDbLine
 62
7
  6
CONTINUOUS
 10
133.6770484432
 20
127.9547912551
 11
137.5874300853
 21
127.9547912551
  0
LINE
  5
392
100
AcDbEntity
  8
RACCORDO
100
AcDbLine
 62
7
  6
CONTINUOUS
 10
156.1770484432
 20
127.9547912551
 11
160.0874300853
 21
127.9547912551
  0
LINE
  5
393
100
AcDbEntity
  8
RACCORDO
100
AcDbLine
 62
7
  6
CONTINUOUS
 10
125.0317254279
 20
128.0989126481
 11
133.3342378357
 21
128.0989126481
  0
LINE
  5
394
100
AcDbEntity
  8
DRAFT
100
AcDbLine
 62
7
  6
CONTINUOUS
 10
137.9302406928
 20
128.0989126481
 11
155.8342378357
 21
128.0989126481
  0
LINE
  5
395
100
AcDbEntity
  8
RACCORDO
100
AcDbLine
 62
7
  6
CONTINUOUS
 10
160.4302406928
 20
128.0989126481
 11
168.7327531006
 21
128.0989126481
  0
LINE
  5
396
100
AcDbEntity
  8
RACCORDO
100
AcDbLine
 62
253
  6
CONTINUOUS
 10
158.1320202802
 20
127.7834382038
 11
133.2438025528
 21
127.7844546009
  0
LINE
  5
397
100
AcDbEntity
  8
RACCORDO
100
AcDbLine
 62
253
  6
CONTINUOUS
 10
133.2438025528
 20
127.7844546009
 11
129.8380710837
 21
127.7891370591
  0
LWPOLYLINE
  5
398
100
AcDbEntity
  8
RACCORDO
100
AcDbPolyline
 62
253
  6
CONTINUOUS
 90
3
 70
0
 10
129.8380710837
 20
127.7891370591
 10
126.3742695961
 20
127.7980799181
 10
125.1800529298
 20
127.8020540877
  0
LWPOLYLINE
  5
399
100
AcDbEntity
  8
RACCORDO
100
AcDbPolyline
 62
253
  6
CONTINUOUS
 90
16
 70
0
 10
168.5844255982
 20
127.8020540867
 10
168.6366265683
 20
127.7992521115
 10
168.6882566098
 20
127.7910197144
 10
168.7387510387
 20
127.7774469341
 10
168.7875575912
 20
127.758682218
 10
168.8341424638
 20
127.7349307979
 10
168.8779961522
 20
127.7064524461
 10
168.9186390232
 20
127.6735586339
 10
168.9556265605
 20
127.636609125
 10
168.988554227
 20
127.5960080407
 10
169.0170618886
 20
127.5521994401
 10
169.0408377536
 20
127.5056624633
 10
169.0596217824
 20
127.456906091
 10
169.0732085317
 20
127.4064635776
 10
169.0814494016
 20
127.3548866192
 10
169.0842542607
 20
127.3027393193
  0
LWPOLYLINE
  5
39A
100
AcDbEntity
  8
RACCORDO
100
AcDbPolyline
 62
253
  6
CONTINUOUS
 90
9
 70
0
 10
168.6185281176
 20
83.7528728214
 10
168.6195957849
 20
83.7602598645
 10
168.6207054028
 20
83.7735378233
 10
168.6218288955
 20
83.7926380388
 10
168.6229173202
 20
83.8174622396
 10
168.6239646585
 20
83.8478853227
 10
168.6250080138
 20
83.8837579261
 10
168.6260233977
 20
83.9249041266
 10
168.627924185
 20
84.0221663777
  0
LINE
  5
39B
100
AcDbEntity
  8
RACCORDO
100
AcDbLine
 62
7
  6
CONTINUOUS
 10
107.7918023863
 20
83.5827895004
 11
104.1888844131
 21
83.7716104303
  0
LINE
  5
39C
100
AcDbEntity
  8
RACCORDO
100
AcDbLine
 62
253
  6
CONTINUOUS
 10
107.8528021702
 20
84.0795928723
 11
104.5594987949
 21
84.2521875887
  0
LWPOLYLINE
  5
39D
100
AcDbEntity
  8
RACCORDO
100
AcDbPolyline
 62
253
  6
CONTINUOUS
 90
22
 70
0
 10
104.546419291
 20
83.7528728214
 10
104.4622015286
 20
83.7602598645
 10
104.3787291435
 20
83.7735378233
 10
104.2964130503
 20
83.7926380388
 10
104.2156594421
 20
83.8174622396
 10
104.1368636747
 20
83.8478853227
 10
104.0604090559
 20
83.8837579261
 10
103.9866675883
 20
83.9249041266
 10
103.9160057388
 20
83.971117821
 10
103.848778415
 20
84.0221663777
 10
103.785316589
 20
84.0777946282
 10
103.7259291489
 20
84.1377273474
 10
103.6709094012
 20
84.2016674604
 10
103.6205261041
 20
84.2692985397
 10
103.5750253047
 20
84.3402852632
 10
103.5346318244
 20
84.4142752418
 10
103.4995446919
 20
84.4908966571
 10
103.4699305039
 20
84.5697763324
 10
103.4459296125
 20
84.6505419598
 10
103.4276606159
 20
84.7328017214
 10
103.4152158504
 20
84.8161447769
 10
103.4086577469
 20
84.9001603984
  0
LWPOLYLINE
  5
39E
100
AcDbEntity
  8
RACCORDO
100
AcDbPolyline
 62
253
  6
CONTINUOUS
 90
22
 70
0
 10
104.5594987949
 20
84.2521875887
 10
104.5100846902
 20
84.2565408507
 10
104.4615035393
 20
84.2642360179
 10
104.4137553422
 20
84.2752730904
 10
104.366589894
 20
84.2897410236
 10
104.3202573996
 20
84.3075508621
 10
104.2755084741
 20
84.3284357395
 10
104.2323884627
 20
84.3524404203
 10
104.1908520202
 20
84.3795201399
 10
104.1515137261
 20
84.4092737384
 10
104.1144062846
 20
84.4417428726
 10
104.0794969915
 20
84.4768858856
 10
104.0473023133
 20
84.5141766473
 10
104.0178655785
 20
84.5536448346
 10
103.9911434585
 20
84.5952607706
 10
103.9675224348
 20
84.6384092932
 10
103.9470468579
 20
84.6831342293
 10
103.9296723771
 20
84.7293917521
 10
103.9156524216
 20
84.7764352188
 10
103.9050714675
 20
84.8240157486
 10
103.8978450386
 20
84.8723822223
 10
103.8939731349
 20
84.92153464
  0
LINE
  5
39F
100
AcDbEntity
  8
RACCORDO
100
AcDbLine
 62
253
  6
CONTINUOUS
 10
103.4086576272
 20
84.9001603779
 11
103.4143817226
 21
84.9004612873
  0
LINE
  5
3A0
100
AcDbEntity
  8
RACCORDO
100
AcDbLine
 62
253
  6
CONTINUOUS
 10
103.4143817226
 20
84.9004612873
 11
103.618004965
 21
84.9095751007
  0
LINE
  5
3A1
100
AcDbEntity
  8
RACCORDO
100
AcDbLine
 62
253
  6
CONTINUOUS
 10
103.618004965
 20
84.9095751007
 11
103.8939731349
 21
84.92153464
  0
LINE
  5
3A2
100
AcDbEntity
  8
RACCORDO
100
AcDbLine
 62
253
  6
CONTINUOUS
 10
103.0533220079
 20
84.9073563345
 11
103.0582136166
 21
84.9073460412
  0
LINE
  5
3A3
100
AcDbEntity
  8
RACCORDO
100
AcDbLine
 62
253
  6
CONTINUOUS
 10
103.0582136166
 20
84.9073460412
 11
103.0946778672
 21
84.9067291503
  0
LINE
  5
3A4
100
AcDbEntity
  8
RACCORDO
100
AcDbLine
 62
253
  6
CONTINUOUS
 10
103.0946778672
 20
84.9067291503
 11
103.4086576249
 21
84.9001603926
  0
LWPOLYLINE
  5
3A5
100
AcDbEntity
  8
RACCORDO
100
AcDbPolyline
 62
253
  6
CONTINUOUS
 90
11
 70
0
 10
104.5440966193
 20
127.8020540867
 10
104.5428765353
 20
127.7992521115
 10
104.5419559976
 20
127.7910197144
 10
104.5413450742
 20
127.7774469341
 10
104.5410504467
 20
127.758682218
 10
104.5410753377
 20
127.7349307979
 10
104.5414194752
 20
127.7064524461
 10
104.5420790956
 20
127.6735586339
 10
104.5430469842
 20
127.636609125
 10
104.5443125553
 20
127.5960080407
 10
104.5476782736
 20
127.5056624633
  0
LWPOLYLINE
  5
3A6
100
AcDbEntity
  8
RACCORDO
100
AcDbPolyline
 62
253
  6
CONTINUOUS
 90
9
 70
0
 10
104.546419291
 20
83.7528728214
 10
104.545199189
 20
83.7556748666
 10
104.5442786426
 20
83.7639074559
 10
104.5436677189
 20
83.7774805262
 10
104.5433730984
 20
83.7962456105
 10
104.5433980027
 20
83.8199974464
 10
104.543742158
 20
83.8484762065
 10
104.5444017981
 20
83.8813703751
 10
104.5453697063
 20
83.9183201594
  0
LWPOLYLINE
  5
3A7
100
AcDbEntity
  8
RACCORDO
100
AcDbPolyline
 62
253
  6
CONTINUOUS
 90
22
 70
0
 10
103.4063452391
 20
126.6548408712
 10
103.4129081253
 20
126.738852956
 10
103.4253571578
 20
126.8221921502
 10
103.4436298823
 20
126.9044477765
 10
103.4676339417
 20
126.9852090522
 10
103.497250726
 20
127.0640842074
 10
103.5323398765
 20
127.1407009738
 10
103.5727347857
 20
127.2146862285
 10
103.6182364233
 20
127.2856682115
 10
103.6686199778
 20
127.3532945825
 10
103.7236394028
 20
127.4172300732
 10
103.7830259533
 20
127.4771583149
 10
103.8464863579
 20
127.532782289
 10
103.9137117445
 20
127.583826821
 10
103.984371169
 20
127.630036794
 10
104.0581097851
 20
127.6711796294
 10
104.1345611553
 20
127.7070492637
 10
104.2133533198
 20
127.7374698137
 10
104.2941030597
 20
127.7622919582
 10
104.3764150813
 20
127.7813906202
 10
104.4598832229
 20
127.7946675446
 10
104.5440966193
 20
127.8020540867
  0
LINE
  5
3A8
100
AcDbEntity
  8
RACCORDO
100
AcDbLine
 62
7
  6
CONTINUOUS
 10
102.5736130548
 20
107.5930698907
 11
102.5753156195
 21
107.5729364554
  0
LINE
  5
3A9
100
AcDbEntity
  8
RACCORDO
100
AcDbLine
 62
7
  6
CONTINUOUS
 10
102.5753156195
 20
107.5729364554
 11
102.5771131737
 21
107.5494696183
  0
LWPOLYLINE
  5
3AA
100
AcDbEntity
  8
RACCORDO
100
AcDbPolyline
 62
253
  6
CONTINUOUS
 90
8
 70
0
 10
102.5777439827
 20
107.559364324
 10
102.5744243123
 20
107.60445821
 10
102.5711064722
 20
107.6426121451
 10
102.567795677
 20
107.6739616832
 10
102.5645391323
 20
107.6983354367
 10
102.5613511957
 20
107.715676261
 10
102.5582180963
 20
107.7260412553
 10
102.5551411684
 20
107.7294303959
  0
LINE
  5
3AB
100
AcDbEntity
  8
RACCORDO
100
AcDbLine
 62
7
  6
CONTINUOUS
 10
102.5771131737
 20
107.5494696183
 11
102.5789781233
 21
107.5227511152
  0
LINE
  5
3AC
100
AcDbEntity
  8
RACCORDO
100
AcDbLine
 62
253
  6
CONTINUOUS
 10
102.6132770098
 20
105.197254274
 11
102.6135982328
 21
105.1924800591
  0
LINE
  5
3AD
100
AcDbEntity
  8
RACCORDO
100
AcDbLine
 62
253
  6
CONTINUOUS
 10
102.5789781233
 20
107.5227511152
 11
102.5777439827
 21
107.559364324
  0
LINE
  5
3AE
100
AcDbEntity
  8
RACCORDO
100
AcDbLine
 62
7
  6
CONTINUOUS
 10
102.5789781233
 20
107.5227511152
 11
102.5808922813
 21
107.4928095236
  0
LINE
  5
3AF
100
AcDbEntity
  8
RACCORDO
100
AcDbLine
 62
7
  6
CONTINUOUS
 10
102.5808922813
 20
107.4928095236
 11
102.5828433851
 21
107.4596426077
  0
LINE
  5
3B0
100
AcDbEntity
  8
RACCORDO
100
AcDbLine
 62
253
  6
CONTINUOUS
 10
102.5808922813
 20
107.4928095236
 11
102.5810631384
 21
107.5074660821
  0
LINE
  5
3B1
100
AcDbEntity
  8
RACCORDO
100
AcDbLine
 62
7
  6
CONTINUOUS
 10
102.5828433851
 20
107.4596426077
 11
102.58581951
 21
107.4038454105
  0
LINE
  5
3B2
100
AcDbEntity
  8
RACCORDO
100
AcDbLine
 62
253
  6
CONTINUOUS
 10
102.6157068558
 20
106.3210954015
 11
102.6135982328
 21
106.362568575
  0
LINE
  5
3B3
100
AcDbEntity
  8
RACCORDO
100
AcDbLine
 62
253
  6
CONTINUOUS
 10
102.58581951
 20
107.4038454105
 11
102.5843312584
 21
107.4493415922
  0
LINE
  5
3B4
100
AcDbEntity
  8
RACCORDO
100
AcDbLine
 62
7
  6
CONTINUOUS
 10
102.58581951
 20
107.4038454105
 11
102.5888241944
 21
107.3408083335
  0
LINE
  5
3B5
100
AcDbEntity
  8
RACCORDO
100
AcDbLine
 62
253
  6
CONTINUOUS
 10
102.5888241944
 20
107.3408083335
 11
102.587538539
 21
107.3848827086
  0
LINE
  5
3B6
100
AcDbEntity
  8
RACCORDO
100
AcDbLine
 62
7
  6
CONTINUOUS
 10
102.5888241944
 20
107.3408083335
 11
102.5918233878
 21
107.2704811516
  0
LINE
  5
3B7
100
AcDbEntity
  8
RACCORDO
100
AcDbLine
 62
7
  6
CONTINUOUS
 10
102.6132770095
 20
106.3577943842
 11
102.6142772442
 21
106.3333660305
  0
LWPOLYLINE
  5
3B8
100
AcDbEntity
  8
RACCORDO
100
AcDbPolyline
 62
253
  6
CONTINUOUS
 90
10
 70
0
 10
103.4086576249
 20
84.9001603926
 10
103.3142161057
 20
87.2318758539
 10
103.2322205055
 20
89.5256725216
 10
103.1621317017
 20
91.7814797961
 10
103.1040294408
 20
93.9740389521
 10
103.0565577641
 20
96.128478339
 10
103.0180454874
 20
98.3203379453
 10
102.9887264814
 20
100.574781449
 10
102.9696192085
 20
102.8665711685
 10
102.9612505795
 20
105.1956605097
  0
LWPOLYLINE
  5
3B9
100
AcDbEntity
  8
RACCORDO
100
AcDbPolyline
 62
253
  6
CONTINUOUS
 90
10
 70
0
 10
103.8939731349
 20
84.92153464
 10
103.8003713971
 20
87.2510401004
 10
103.7181550587
 20
89.5425332238
 10
103.6473241198
 20
91.7960140101
 10
103.5884386787
 20
93.9863585214
 10
103.5409386371
 20
96.1386906956
 10
103.5031436996
 20
98.3283823468
 10
103.4744937677
 20
100.580557413
 10
103.45554894
 20
102.8700919561
 10
103.4458128207
 20
105.2801355719
  0
LINE
  5
3BA
100
AcDbEntity
  8
RACCORDO
100
AcDbLine
 62
7
  6
CONTINUOUS
 10
102.5918233878
 20
107.2704811516
 11
102.5957732675
 21
107.1652464106
  0
LWPOLYLINE
  5
3BB
100
AcDbEntity
  8
SUPERFICI
100
AcDbPolyline
 62
7
  6
CONTINUOUS
 90
5
 70
0
 10
102.68329112
 20
93.9137499968
 10
102.7572049266
 20
91.6428870262
 10
102.8441133008
 20
89.3724790353
 10
102.9440142812
 20
87.10260019
 10
103.0530282308
 20
84.9071513707
  0
LINE
  5
3BC
100
AcDbEntity
  8
RACCORDO
100
AcDbLine
 62
7
  6
CONTINUOUS
 10
102.5957732675
 20
107.1652464106
 11
102.5996034955
 21
107.046923355
  0
LINE
  5
3BD
100
AcDbEntity
  8
RACCORDO
100
AcDbLine
 62
253
  6
CONTINUOUS
 10
102.5996034955
 20
107.046923355
 11
102.5994130382
 21
107.0699903068
  0
LINE
  5
3BE
100
AcDbEntity
  8
SUPERFICI
100
AcDbLine
 62
7
  6
CONTINUOUS
 10
102.6223738504
 20
96.1849935553
 11
102.68329112
 21
93.9137499968
  0
LINE
  5
3BF
100
AcDbEntity
  8
RACCORDO
100
AcDbLine
 62
7
  6
CONTINUOUS
 10
102.5996034955
 20
107.046923355
 11
102.6032330216
 21
106.9155907971
  0
LINE
  5
3C0
100
AcDbEntity
  8
SUPERFICI
100
AcDbLine
 62
7
  6
CONTINUOUS
 10
102.5744550889
 20
98.456543084
 11
102.6223738504
 21
96.1849935553
  0
LINE
  5
3C1
100
AcDbEntity
  8
RACCORDO
100
AcDbLine
 62
7
  6
CONTINUOUS
 10
102.6032330216
 20
106.9155907971
 11
102.6073833257
 21
106.7335379439
  0
LINE
  5
3C2
100
AcDbEntity
  8
RACCORDO
100
AcDbLine
 62
253
  6
CONTINUOUS
 10
102.6073833257
 20
106.7335379439
 11
102.6067341686
 21
106.7849630658
  0
LINE
  5
3C3
100
AcDbEntity
  8
RACCORDO
100
AcDbLine
 62
7
  6
CONTINUOUS
 10
102.6073833257
 20
106.7335379439
 11
102.6109513644
 21
106.5323517222
  0
LINE
  5
3C4
100
AcDbEntity
  8
SUPERFICI
100
AcDbLine
 62
7
  6
CONTINUOUS
 10
102.5395367955
 20
100.7283241938
 11
102.5744550889
 21
98.456543084
  0
LINE
  5
3C5
100
AcDbEntity
  8
RACCORDO
100
AcDbLine
 62
253
  6
CONTINUOUS
 10
102.6109513644
 20
106.5323517222
 11
102.6106136739
 21
106.5789843357
  0
LWPOLYLINE
  5
3C6
100
AcDbEntity
  8
RACCORDO
100
AcDbPolyline
 62
253
  6
CONTINUOUS
 90
4
 70
0
 10
102.9047764141
 20
105.977492341
 10
102.9048626808
 20
105.9717341467
 10
102.9050713424
 20
105.9650858357
 10
102.9053215945
 20
105.9628599311
  0
LWPOLYLINE
  5
3C7
100
AcDbEntity
  8
RACCORDO
100
AcDbPolyline
 62
7
  6
CONTINUOUS
 90
9
 70
0
 10
102.529054509
 20
101.7224074086
 10
102.5559050067
 20
99.6195851781
 10
102.5938111765
 20
97.5168815133
 10
102.6427731191
 20
95.4143192563
 10
102.7027894769
 20
93.3119918261
 10
102.7738555801
 20
91.2100631661
 10
102.855967475
 20
89.1086266209
 10
102.9491237784
 20
87.0077049893
 10
103.0533220079
 20
84.9073563345
  0
LINE
  5
3C8
100
AcDbEntity
  8
RACCORDO
100
AcDbLine
 62
7
  6
CONTINUOUS
 10
102.6109513644
 20
106.5323517222
 11
102.6132849928
 21
106.3573654604
  0
LINE
  5
3C9
100
AcDbEntity
  8
SUPERFICI
100
AcDbLine
 62
7
  6
CONTINUOUS
 10
102.5176209265
 20
103.0002627244
 11
102.5395367955
 21
100.7283241938
  0
LINE
  5
3CA
100
AcDbEntity
  8
RACCORDO
100
AcDbLine
 62
7
  6
CONTINUOUS
 10
102.6132778915
 20
106.3576980909
 11
102.6132770095
 21
106.3577943842
  0
LINE
  5
3CB
100
AcDbEntity
  8
RACCORDO
100
AcDbLine
 62
253
  6
CONTINUOUS
 10
103.4437246695
 20
106.0904724079
 11
103.4430282152
 21
106.1581167039
  0
LINE
  5
3CC
100
AcDbEntity
  8
SUPERFICI
100
AcDbLine
 62
7
  6
CONTINUOUS
 10
102.5124816336
 20
103.9121970611
 11
102.5176209265
 21
103.0002627244
  0
LINE
  5
3CD
100
AcDbEntity
  8
RACCORDO
100
AcDbLine
 62
7
  6
CONTINUOUS
 10
102.5089246205
 20
105.1916188642
 11
102.5144055253
 21
103.9122402494
  0
LWPOLYLINE
  5
3CE
100
AcDbEntity
  8
RACCORDO
100
AcDbPolyline
 62
7
  6
CONTINUOUS
 90
3
 70
0
 10
102.5103399125
 20
104.4833433092
 10
102.5106125467
 20
104.3966168027
 10
102.529054509
 20
101.7224074086
  0
LINE
  5
3CF
100
AcDbEntity
  8
RACCORDO
100
AcDbLine
 62
253
  6
CONTINUOUS
 10
103.4430282152
 20
106.1581167039
 11
103.4428041657
 21
106.23449944
  0
LINE
  5
3D0
100
AcDbEntity
  8
RACCORDO
100
AcDbLine
 62
253
  6
CONTINUOUS
 10
103.4457956056
 20
105.3596521841
 11
103.4458128207
 21
105.2801355719
  0
LWPOLYLINE
  5
3D1
100
AcDbEntity
  8
RACCORDO
100
AcDbPolyline
 62
253
  6
CONTINUOUS
 90
10
 70
0
 10
102.9582988252
 20
106.3594147395
 10
102.9652358449
 20
108.4366797566
 10
102.9813666575
 20
110.5466714648
 10
103.0071164388
 20
112.6893466722
 10
103.04262145
 20
114.8488686454
 10
103.0884721558
 20
117.0409790864
 10
103.1464269643
 20
119.3129829601
 10
103.2181225306
 20
121.680585567
 10
103.3043599376
 20
124.1279066061
 10
103.4063450884
 20
126.6548408781
  0
LINE
  5
3D2
100
AcDbEntity
  8
RACCORDO
100
AcDbLine
 62
7
  6
CONTINUOUS
 10
102.5128878134
 20
107.7296927032
 11
102.5088125359
 21
106.3633562681
  0
LINE
  5
3D3
100
AcDbEntity
  8
SUPERFICI
100
AcDbLine
 62
7
  6
CONTINUOUS
 10
102.5176208652
 20
108.5547768734
 11
102.5124815613
 21
107.6428354455
  0
LINE
  5
3D4
100
AcDbEntity
  8
RACCORDO
100
AcDbLine
 62
253
  6
CONTINUOUS
 10
103.4428041657
 20
106.23449944
 11
103.4495922139
 21
108.4334215188
  0
LWPOLYLINE
  5
3D5
100
AcDbEntity
  8
RACCORDO
100
AcDbPolyline
 62
7
  6
CONTINUOUS
 90
10
 70
0
 10
102.5132604972
 20
107.7297585415
 10
102.529054509
 20
109.8326412241
 10
102.5559050066
 20
111.9354634532
 10
102.5938111764
 20
114.0381671166
 10
102.6427731189
 20
116.1407293719
 10
102.7027894767
 20
118.2430568004
 10
102.7738555798
 20
120.3449854599
 10
102.8559674747
 20
122.4464220064
 10
102.9491237782
 20
124.5473436408
 10
103.0533220079
 20
126.6476922995
  0
LWPOLYLINE
  5
3D6
100
AcDbEntity
  8
RACCORDO
100
AcDbPolyline
 62
253
  6
CONTINUOUS
 90
9
 70
0
 10
103.4495922139
 20
108.4334215188
 10
103.4658759268
 20
110.5413416439
 10
103.4922206814
 20
112.6818486873
 10
103.5275118232
 20
114.8392307987
 10
103.5728640067
 20
117.0291998284
 10
103.6316211955
 20
119.2988913274
 10
103.7048980441
 20
121.664017146
 10
103.791579898
 20
124.1088654339
 10
103.8916667572
 20
126.633436191
  0
LINE
  5
3D7
100
AcDbEntity
  8
SUPERFICI
100
AcDbLine
 62
7
  6
CONTINUOUS
 10
102.5395365712
 20
110.8267065056
 11
102.5176208652
 21
108.5547768734
  0
LINE
  5
3D8
100
AcDbEntity
  8
RACCORDO
100
AcDbLine
 62
7
  6
CONTINUOUS
 10
102.6132778959
 20
105.197350954
 11
102.6121127033
 21
105.1033006789
  0
LINE
  5
3D9
100
AcDbEntity
  8
SUPERFICI
100
AcDbLine
 62
7
  6
CONTINUOUS
 10
102.5744545997
 20
113.0984787194
 11
102.5395365712
 21
110.8267065056
  0
LINE
  5
3DA
100
AcDbEntity
  8
RACCORDO
100
AcDbLine
 62
7
  6
CONTINUOUS
 10
102.6121127033
 20
105.1033006789
 11
102.6088527315
 21
104.8978107062
  0
LINE
  5
3DB
100
AcDbEntity
  8
SUPERFICI
100
AcDbLine
 62
7
  6
CONTINUOUS
 10
102.6223729946
 20
115.3700193555
 11
102.5744545997
 21
113.0984787194
  0
LINE
  5
3DC
100
AcDbEntity
  8
RACCORDO
100
AcDbLine
 62
7
  6
CONTINUOUS
 10
102.6088527315
 20
104.8978107062
 11
102.604970654
 21
104.7106826527
  0
LINE
  5
3DD
100
AcDbEntity
  8
SUPERFICI
100
AcDbLine
 62
7
  6
CONTINUOUS
 10
102.6832897957
 20
117.6412540255
 11
102.6223729946
 21
115.3700193555
  0
LINE
  5
3DE
100
AcDbEntity
  8
RACCORDO
100
AcDbLine
 62
7
  6
CONTINUOUS
 10
102.604970654
 20
104.7106826527
 11
102.600618255
 21
104.542731499
  0
LINE
  5
3DF
100
AcDbEntity
  8
RACCORDO
100
AcDbLine
 62
253
  6
CONTINUOUS
 10
102.600618255
 20
104.542731499
 11
102.6020281955
 21
104.5757398329
  0
LINE
  5
3E0
100
AcDbEntity
  8
SUPERFICI
100
AcDbLine
 62
7
  6
CONTINUOUS
 10
102.7572030321
 20
119.9121081129
 11
102.6832897957
 21
117.6412540255
  0
LINE
  5
3E1
100
AcDbEntity
  8
RACCORDO
100
AcDbLine
 62
7
  6
CONTINUOUS
 10
102.600618255
 20
104.542731499
 11
102.5968920951
 21
104.4225294104
  0
LINE
  5
3E2
100
AcDbEntity
  8
RACCORDO
100
AcDbLine
 62
7
  6
CONTINUOUS
 10
102.5968920951
 20
104.4225294104
 11
102.5930257882
 21
104.3150096795
  0
LINE
  5
3E3
100
AcDbEntity
  8
RACCORDO
100
AcDbLine
 62
253
  6
CONTINUOUS
 10
102.5930257882
 20
104.3150096795
 11
102.593708466
 21
104.3166753838
  0
LINE
  5
3E4
100
AcDbEntity
  8
RACCORDO
100
AcDbLine
 62
7
  6
CONTINUOUS
 10
102.6132770098
 20
105.197254274
 11
102.6142772442
 21
105.2216826036
  0
LINE
  5
3E5
100
AcDbEntity
  8
RACCORDO
100
AcDbLine
 62
7
  6
CONTINUOUS
 10
102.5930257882
 20
104.3150096795
 11
102.5900786902
 21
104.2427115723
  0
LINE
  5
3E6
100
AcDbEntity
  8
RACCORDO
100
AcDbLine
 62
253
  6
CONTINUOUS
 10
102.5875310338
 20
104.1700068973
 11
102.5871139769
 21
104.1775012912
  0
LINE
  5
3E7
100
AcDbEntity
  8
RACCORDO
100
AcDbLine
 62
7
  6
CONTINUOUS
 10
102.5900786902
 20
104.2427115723
 11
102.5871139769
 21
104.1775012912
  0
LWPOLYLINE
  5
3E8
100
AcDbEntity
  8
SUPERFICI
100
AcDbPolyline
 62
7
  6
CONTINUOUS
 90
4
 70
0
 10
103.053028295
 20
126.647898489
 10
102.9440109414
 20
124.4523772012
 10
102.8441107345
 20
122.1825072265
 10
102.7572030321
 20
119.9121081129
  0
LINE
  5
3E9
100
AcDbEntity
  8
RACCORDO
100
AcDbLine
 62
253
  6
CONTINUOUS
 10
102.5843237443
 20
104.1055649409
 11
102.5841596264
 21
104.1193002236
  0
LINE
  5
3EA
100
AcDbEntity
  8
RACCORDO
100
AcDbLine
 62
253
  6
CONTINUOUS
 10
102.6157070961
 20
105.2339555594
 11
102.6135982328
 21
105.1924800591
  0
LINE
  5
3EB
100
AcDbEntity
  8
RACCORDO
100
AcDbLine
 62
7
  6
CONTINUOUS
 10
102.5871139769
 20
104.1775012912
 11
102.5841596264
 21
104.1193002236
  0
LINE
  5
3EC
100
AcDbEntity
  8
RACCORDO
100
AcDbLine
 62
253
  6
CONTINUOUS
 10
102.5810557852
 20
104.0474591953
 11
102.581250659
 21
104.0681267259
  0
LINE
  5
3ED
100
AcDbEntity
  8
RACCORDO
100
AcDbLine
 62
7
  6
CONTINUOUS
 10
102.5841596264
 20
104.1193002236
 11
102.5822135557
 21
104.0844015928
  0
LINE
  5
3EE
100
AcDbEntity
  8
RACCORDO
100
AcDbLine
 62
7
  6
CONTINUOUS
 10
102.5822135557
 20
104.0844015928
 11
102.5802958116
 21
104.0526324829
  0
LINE
  5
3EF
100
AcDbEntity
  8
RACCORDO
100
AcDbLine
 62
253
  6
CONTINUOUS
 10
102.57773695
 20
103.9955816515
 11
102.5784159079
 21
104.0239901147
  0
LINE
  5
3F0
100
AcDbEntity
  8
RACCORDO
100
AcDbLine
 62
7
  6
CONTINUOUS
 10
102.5802958116
 20
104.0526324829
 11
102.5784159079
 21
104.0239901147
  0
LINE
  5
3F1
100
AcDbEntity
  8
RACCORDO
100
AcDbLine
 62
253
  6
CONTINUOUS
 10
102.6132770095
 20
106.3577943842
 11
102.6135982328
 21
106.362568575
  0
LINE
  5
3F2
100
AcDbEntity
  8
RACCORDO
100
AcDbLine
 62
7
  6
CONTINUOUS
 10
102.5784159079
 20
104.0239901147
 11
102.576586112
 21
103.9984685407
  0
LWPOLYLINE
  5
3F3
100
AcDbEntity
  8
RACCORDO
100
AcDbPolyline
 62
253
  6
CONTINUOUS
 90
22
 70
0
 10
103.8916667572
 20
126.633436191
 10
103.8955413865
 20
126.682586525
 10
103.9027701691
 20
126.7309507735
 10
103.9133531049
 20
126.7785289367
 10
103.9273746756
 20
126.8255698633
 10
103.9447503995
 20
126.8718247045
 10
103.9652268315
 20
126.9165469136
 10
103.9888483129
 20
126.9596926644
 10
104.0155705023
 20
127.0013057832
 10
104.0450069305
 20
127.0407712027
 10
104.0772009145
 20
127.0780592451
 10
104.1121091373
 20
127.1131995881
 10
104.1492151777
 20
127.1456661982
 10
104.1885517284
 20
127.1754174224
 10
104.2300860967
 20
127.2024949137
 10
104.2732037835
 20
127.226497597
 10
104.3179501213
 20
127.2473807158
 10
104.3642797776
 20
127.2651890264
 10
104.4114422557
 20
127.2796557228
 10
104.4591873898
 20
127.2906918693
 10
104.5077653457
 20
127.2983864015
 10
104.5571761233
 20
127.3027393193
  0
LWPOLYLINE
  5
3F4
100
AcDbEntity
  8
RACCORDO
100
AcDbPolyline
 62
7
  6
CONTINUOUS
 90
11
 70
0
 10
102.576586112
 20
103.9984685407
 10
102.5748335161
 20
103.9762038267
 10
102.5739931017
 20
103.9662929464
 10
102.5731892069
 20
103.9572922546
 10
102.5724238047
 20
103.9491756464
 10
102.5717013027
 20
103.9419394114
 10
102.5710400737
 20
103.9357017372
 10
102.5704427289
 20
103.9304094277
 10
102.569919938
 20
103.9260759615
 10
102.5695108384
 20
103.9229132424
 10
102.5692254391
 20
103.9208593877
  0
LWPOLYLINE
  5
3F5
100
AcDbEntity
  8
RACCORDO
100
AcDbPolyline
 62
253
  6
CONTINUOUS
 90
4
 70
0
 10
102.9053215957
 20
105.592188703
 10
102.9050713436
 20
105.5899627984
 10
102.904862682
 20
105.5833144874
 10
102.9047764153
 20
105.5775562934
  0
LWPOLYLINE
  5
3F6
100
AcDbEntity
  8
RACCORDO
100
AcDbPolyline
 62
7
  6
CONTINUOUS
 90
15
 70
0
 10
102.6142772442
 20
105.2216826036
 10
102.6194435222
 20
105.2632007745
 10
102.6290237829
 20
105.3043179611
 10
102.6429742926
 20
105.3444158936
 10
102.6611736025
 20
105.3829530649
 10
102.6834845873
 20
105.4195025972
 10
102.7097606382
 20
105.4536741493
 10
102.7396036278
 20
105.4848595745
 10
102.7724667263
 20
105.5125223167
 10
102.8081694736
 20
105.5365388954
 10
102.8462086044
 20
105.5565646251
 10
102.8856025372
 20
105.5721994618
 10
102.9259408369
 20
105.5834692466
 10
102.9673461312
 20
105.5904720201
 10
103.009764856
 20
105.5931001655
  0
LWPOLYLINE
  5
3F7
100
AcDbEntity
  8
RACCORDO
100
AcDbPolyline
 62
253
  6
CONTINUOUS
 90
4
 70
0
 10
102.5713974419
 20
103.9390729547
 10
102.5634263256
 20
103.9086304348
 10
102.5571161725
 20
103.8673409281
 10
102.5551446719
 20
103.8256182557
  0
LWPOLYLINE
  5
3F8
100
AcDbEntity
  8
RACCORDO
100
AcDbPolyline
 62
253
  6
CONTINUOUS
 90
4
 70
0
 10
102.5714033714
 20
107.6159502434
 10
102.563424642
 20
107.6464192245
 10
102.5571136311
 20
107.6877081838
 10
102.5551411686
 20
107.7294303959
  0
LWPOLYLINE
  5
3F9
100
AcDbEntity
  8
RACCORDO
100
AcDbPolyline
 62
7
  6
CONTINUOUS
 90
14
 70
0
 10
102.6194435222
 20
106.2918478595
 10
102.6290237829
 20
106.2507306729
 10
102.6429742926
 20
106.2106327405
 10
102.6611736025
 20
106.1720955692
 10
102.6834845873
 20
106.1355460369
 10
102.7097606382
 20
106.1013744848
 10
102.7396036278
 20
106.0701890596
 10
102.7724667263
 20
106.0425263174
 10
102.8081694736
 20
106.0185097387
 10
102.8462086044
 20
105.998484009
 10
102.8856025372
 20
105.9828491723
 10
102.9259408369
 20
105.9715793875
 10
102.9673461312
 20
105.964576614
 10
103.009764856
 20
105.9619484685
  0
LINE
  5
3FA
100
AcDbEntity
  8
RACCORDO
100
AcDbLine
 62
253
  6
CONTINUOUS
 10
102.6221117609
 20
106.2798842113
 11
102.6157068558
 21
106.3210954015
  0
LWPOLYLINE
  5
3FB
100
AcDbEntity
  8
RACCORDO
100
AcDbPolyline
 62
7
  6
CONTINUOUS
 90
9
 70
0
 10
102.5691087756
 20
107.6349753156
 10
102.5693027676
 20
107.6336489006
 10
102.5696447425
 20
107.6311259998
 10
102.5701304226
 20
107.627264515
 10
102.5707023644
 20
107.6223810612
 10
102.5713448114
 20
107.6165192377
 10
102.5720561846
 20
107.6096072309
 10
102.5728141688
 20
107.6017890184
 10
102.5736130548
 20
107.5930698907
  0
LINE
  5
3FC
100
AcDbEntity
  8
RACCORDO
100
AcDbLine
 62
7
  6
CONTINUOUS
 10
102.6142772442
 20
106.3333660305
 11
102.6194435222
 21
106.2918478595
  0
LWPOLYLINE
  5
3FD
100
AcDbEntity
  8
RACCORDO
100
AcDbPolyline
 62
253
  6
CONTINUOUS
 90
11
 70
0
 10
103.4532893852
 20
105.5969707455
 10
103.452214249
 20
105.5947706743
 10
103.4511891214
 20
105.5882136571
 10
103.4502252308
 20
105.5773715131
 10
103.4493331345
 20
105.5623629965
 10
103.4485226038
 20
105.543352496
 10
103.4478025164
 20
105.5205482341
 10
103.4471807594
 20
105.4941999864
 10
103.4466641429
 20
105.4645963461
 10
103.4462583257
 20
105.4320615624
 10
103.4457956056
 20
105.3596521841
  0
LWPOLYLINE
  5
3FE
100
AcDbEntity
  8
RACCORDO
100
AcDbPolyline
 62
253
  6
CONTINUOUS
 90
4
 70
0
 10
102.5281363112
 20
105.2286248987
 10
102.5174037684
 20
105.2161122997
 10
102.5109489174
 20
105.2036509205
 10
102.5088125371
 20
105.1916923653
  0
LWPOLYLINE
  5
3FF
100
AcDbEntity
  8
RACCORDO
100
AcDbPolyline
 62
253
  6
CONTINUOUS
 90
4
 70
0
 10
102.5281336293
 20
106.3264262361
 10
102.5174024832
 20
106.3389381314
 10
102.5109485742
 20
106.3513986518
 10
102.5088125359
 20
106.3633562681
  0
LWPOLYLINE
  5
400
100
AcDbEntity
  8
RACCORDO
100
AcDbPolyline
 62
253
  6
CONTINUOUS
 90
9
 70
0
 10
103.4503497112
 20
105.9581035428
 10
103.4492746502
 20
105.9603034332
 10
103.4482495835
 20
105.966859957
 10
103.4472857388
 20
105.9777013701
 10
103.4463936744
 20
105.9927089837
 10
103.4455831613
 20
106.0117184955
 10
103.4448630764
 20
106.0345218179
 10
103.444241308
 20
106.0608692968
 10
103.4437246695
 20
106.0904724079
  0
LINE
  5
401
100
AcDbEntity
  8
RACCORDO
100
AcDbLine
 62
253
  6
CONTINUOUS
 10
104.5520294079
 20
127.4064635776
 11
104.5571761233
 21
127.3027393193
  0
LINE
  5
402
100
AcDbEntity
  8
RACCORDO
100
AcDbLine
 62
253
  6
CONTINUOUS
 10
104.5476782736
 20
127.5056624633
 11
104.5520294079
 21
127.4064635776
  0
LINE
  5
403
100
AcDbEntity
  8
RACCORDO
100
AcDbLine
 62
253
  6
CONTINUOUS
 10
104.5453697063
 20
83.9183201594
 11
104.5481847168
 21
84.0027299859
  0
LINE
  5
404
100
AcDbEntity
  8
RACCORDO
100
AcDbLine
 62
253
  6
CONTINUOUS
 10
104.5481847168
 20
84.0027299859
 11
104.5520643574
 21
84.098022808
  0
LWPOLYLINE
  5
405
100
AcDbEntity
  8
RACCORDO
100
AcDbPolyline
 62
253
  6
CONTINUOUS
 90
3
 70
0
 10
104.5520643574
 20
84.098022808
 10
104.5568393546
 20
84.2000411003
 10
104.5594987949
 20
84.2521875887
  0
LWPOLYLINE
  5
406
100
AcDbEntity
  8
RACCORDO
100
AcDbPolyline
 62
253
  6
CONTINUOUS
 90
8
 70
0
 10
102.5551411684
 20
103.8256182382
 10
102.5582167207
 20
103.8290027531
 10
102.5613485383
 20
103.83935949
 10
102.564535304
 20
103.8566884253
 10
102.5677908044
 20
103.881045537
 10
102.5711006988
 20
103.9123748019
 10
102.5744178049
 20
103.9505081952
 10
102.5756990712
 20
103.9869320101
  0
LWPOLYLINE
  5
407
100
AcDbEntity
  8
RACCORDO
100
AcDbPolyline
 62
253
  6
CONTINUOUS
 90
11
 70
0
 10
102.8484241011
 20
105.5575138952
 10
102.8112896751
 20
105.5382886972
 10
102.7764448547
 20
105.5153372332
 10
102.7443195896
 20
105.4890048056
 10
102.7149898771
 20
105.4593683498
 10
102.6888820879
 20
105.4267901346
 10
102.6663624739
 20
105.3917556372
 10
102.6476021693
 20
105.3545873295
 10
102.6327859661
 20
105.315574838
 10
102.622112669
 20
105.275168754
 10
102.6157070961
 20
105.2339555594
  0
LINE
  5
408
100
AcDbEntity
  8
RACCORDO
100
AcDbLine
 62
253
  6
CONTINUOUS
 10
102.5132604972
 20
103.8252900926
 11
102.5551411684
 21
103.8256182382
  0
LINE
  5
409
100
AcDbEntity
  8
RACCORDO
100
AcDbLine
 62
7
  6
CONTINUOUS
 10
102.5128878124
 20
103.8253559311
 11
102.5132604972
 21
103.8252900926
  0
LWPOLYLINE
  5
40A
100
AcDbEntity
  8
RACCORDO
100
AcDbPolyline
 62
253
  6
CONTINUOUS
 90
10
 70
0
 10
102.8484169569
 20
105.9975379762
 10
102.8112817527
 20
106.0167645792
 10
102.7764366956
 20
106.0397174076
 10
102.7443117777
 20
106.0660509432
 10
102.7149828624
 20
106.0956881563
 10
102.6888761805
 20
106.1282667141
 10
102.6663578988
 20
106.1633010037
 10
102.6475989958
 20
106.2004685066
 10
102.6327840546
 20
106.2394797456
 10
102.6221117609
 20
106.2798842113
  0
LWPOLYLINE
  5
40B
100
AcDbEntity
  8
RACCORDO
100
AcDbPolyline
 62
253
  6
CONTINUOUS
 90
6
 70
0
 10
102.6222993093
 20
105.2754574274
 10
102.6104671425
 20
105.2719360405
 10
102.5843328211
 20
105.262029295
 10
102.5617744707
 20
105.2513917359
 10
102.5429923897
 20
105.2404243705
 10
102.5281363112
 20
105.2286248987
  0
LWPOLYLINE
  5
40C
100
AcDbEntity
  8
RACCORDO
100
AcDbPolyline
 62
253
  6
CONTINUOUS
 90
16
 70
0
 10
103.3562783461
 20
105.5961241429
 10
103.3148425718
 20
105.5935915365
 10
103.2738943879
 20
105.5867458641
 10
103.2338781554
 20
105.5756614137
 10
103.1952281218
 20
105.5604584711
 10
103.1583637091
 20
105.5413020157
 10
103.1236849621
 20
105.5183999291
 10
103.0915682071
 20
105.49200074
 10
103.0623619683
 20
105.4623909266
 10
103.0363831857
 20
105.4298918085
 10
103.0139137753
 20
105.3948560591
 10
102.9951975705
 20
105.357663879
 10
102.9804376755
 20
105.3187188697
 10
102.9697942616
 20
105.2784436542
 10
102.9633828287
 20
105.2372752906
 10
102.9612729525
 20
105.1956605294
  0
LINE
  5
40D
100
AcDbEntity
  8
RACCORDO
100
AcDbLine
 62
253
  6
CONTINUOUS
 10
102.6135982328
 20
105.1924800591
 11
102.9612505795
 21
105.1956605097
  0
LINE
  5
40E
100
AcDbEntity
  8
RACCORDO
100
AcDbLine
 62
253
  6
CONTINUOUS
 10
103.4463092164
 20
105.1969859762
 11
108.9084954073
 21
105.244653753
  0
LINE
  5
40F
100
AcDbEntity
  8
RACCORDO
100
AcDbLine
 62
7
  6
CONTINUOUS
 10
102.9053215957
 20
105.592188703
 11
108.9084954073
 21
105.6445776072
  0
LINE
  5
410
100
AcDbEntity
  8
RACCORDO
100
AcDbLine
 62
253
  6
CONTINUOUS
 10
102.9612506165
 20
105.1956605025
 11
103.44630922
 21
105.1969859762
  0
LINE
  5
411
100
AcDbEntity
  8
RACCORDO
100
AcDbLine
 62
7
  6
CONTINUOUS
 10
110.2084954073
 20
105.8991260988
 11
102.9053215945
 21
105.9628599311
  0
LWPOLYLINE
  5
412
100
AcDbEntity
  8
RACCORDO
100
AcDbPolyline
 62
253
  6
CONTINUOUS
 90
16
 70
0
 10
103.3533362651
 20
105.9589501663
 10
103.3118972839
 20
105.9614822807
 10
103.2709458786
 20
105.9683275508
 10
103.2309264537
 20
105.9794116916
 10
103.1922733
 20
105.9946144182
 10
103.1554058815
 20
106.0137707504
 10
103.1207242833
 20
106.0366728039
 10
103.0886048701
 20
106.0630720455
 10
103.0593962016
 20
106.0926819908
 10
103.0334152505
 20
106.1251813127
 10
103.0109439618
 20
106.1602173285
 10
102.9922261939
 20
106.1974098275
 10
102.9774650722
 20
106.2363551967
 10
102.9668207841
 20
106.2766308011
 10
102.9604088416
 20
106.3177995698
 10
102.958298827
 20
106.3594147395
  0
LWPOLYLINE
  5
413
100
AcDbEntity
  8
RACCORDO
100
AcDbPolyline
 62
253
  6
CONTINUOUS
 90
6
 70
0
 10
102.6222992684
 20
106.2795913821
 10
102.6104576845
 20
106.2831157999
 10
102.5843248032
 20
106.2930226924
 10
102.5617682048
 20
106.3036602418
 10
102.5429879892
 20
106.3146272987
 10
102.5281336293
 20
106.3264262361
  0
LINE
  5
414
100
AcDbEntity
  8
RACCORDO
100
AcDbLine
 62
7
  6
CONTINUOUS
 10
108.9084954073
 20
105.6445776072
 11
108.9084954073
 21
92.677524317
  0
LINE
  5
415
100
AcDbEntity
  8
RACCORDO
100
AcDbLine
 62
253
  6
CONTINUOUS
 10
103.4433695461
 20
106.358088312
 11
102.9582988357
 21
106.3594147435
  0
LINE
  5
416
100
AcDbEntity
  8
RACCORDO
100
AcDbLine
 62
253
  6
CONTINUOUS
 10
110.2084954073
 20
106.299049953
 11
103.4433695427
 21
106.358088312
  0
LINE
  5
417
100
AcDbEntity
  8
RACCORDO
100
AcDbLine
 62
253
  6
CONTINUOUS
 10
102.9582988252
 20
106.3594147395
 11
102.6135982328
 21
106.362568575
  0
LINE
  5
418
100
AcDbEntity
  8
DRAFT
100
AcDbLine
 62
7
  6
CONTINUOUS
 10
110.2084954073
 20
118.927524317
 11
110.2084954073
 21
114.827524317
  0
LINE
  5
419
100
AcDbEntity
  8
RACCORDO
100
AcDbLine
 62
7
  6
CONTINUOUS
 10
110.2084954073
 20
105.8991260988
 11
110.2084954073
 21
114.827524317
  0
LINE
  5
41A
100
AcDbEntity
  8
RACCORDO
100
AcDbLine
 62
7
  6
CONTINUOUS
 10
110.2084954073
 20
118.927524317
 11
110.2084954073
 21
128.0989126481
  0
LINE
  5
41B
100
AcDbEntity
  8
RACCORDO
100
AcDbLine
 62
7
  6
CONTINUOUS
 10
107.7918023863
 20
83.5827895004
 11
108.9084954073
 21
92.677524317
  0
LINE
  5
41C
100
AcDbEntity
  8
RACCORDO
100
AcDbLine
 62
7
  6
CONTINUOUS
 10
102.5132604972
 20
107.7297585415
 11
102.5128996904
 21
107.7296946376
  0
LINE
  5
41D
100
AcDbEntity
  8
RACCORDO
100
AcDbLine
 62
253
  6
CONTINUOUS
 10
102.5551411684
 20
107.7294303959
 11
102.5132604972
 21
107.7297585415
  0
LINE
  5
41E
100
AcDbEntity
  8
DRAFT
100
AcDbLine
 62
7
  6
CONTINUOUS
 10
113.2549055688
 20
118.8743490299
 11
113.2549055688
 21
114.8806996042
  0
LINE
  5
41F
100
AcDbEntity
  8
DRAFT
100
AcDbLine
 62
7
  6
CONTINUOUS
 10
110.2084954073
 20
114.827524317
 11
113.2549055688
 21
114.8806996042
  0
LINE
  5
420
100
AcDbEntity
  8
DRAFT
100
AcDbLine
 62
7
  6
CONTINUOUS
 10
110.2084954073
 20
118.927524317
 11
113.2549055688
 21
118.8743490299
  0
LINE
  5
421
100
AcDbEntity
  8
RACCORDO
100
AcDbLine
 62
7
  6
CONTINUOUS
 10
103.0530282307
 20
84.907151371
 11
103.0533220079
 21
84.9073563345
  0
LINE
  5
422
100
AcDbEntity
  8
RACCORDO
100
AcDbLine
 62
7
  6
CONTINUOUS
 10
103.0533220079
 20
126.6476922995
 11
103.0530220275
 21
126.6477674677
  0
LINE
  5
423
100
AcDbEntity
  8
RACCORDO
100
AcDbLine
 62
7
  6
CONTINUOUS
 10
104.1885901871
 20
127.783422784
 11
104.1016041783
 21
127.7756805232
  0
LINE
  5
424
100
AcDbEntity
  8
RACCORDO
100
AcDbLine
 62
253
  6
CONTINUOUS
 10
104.5571761233
 20
127.3027393193
 11
110.2084954073
 21
127.598912413
  0
LINE
  5
425
100
AcDbEntity
  8
RACCORDO
100
AcDbLine
 62
7
  6
CONTINUOUS
 10
104.1888844131
 20
127.7834382038
 11
110.2084954073
 21
128.0989126481
  0
LWPOLYLINE
  5
426
100
AcDbEntity
  8
RACCORDO
100
AcDbPolyline
 62
253
  6
CONTINUOUS
 90
4
 70
0
 10
103.4063450884
 20
126.6548408781
 10
103.0747092729
 20
126.6479756112
 10
103.0589498152
 20
126.647732967
 10
103.0533220079
 20
126.6476922995
  0
LWPOLYLINE
  5
427
100
AcDbEntity
  8
RACCORDO
100
AcDbPolyline
 62
253
  6
CONTINUOUS
 90
4
 70
0
 10
103.4063579949
 20
126.6548403401
 10
103.4120722184
 20
126.6545394213
 10
103.4225619339
 20
126.6540339529
 10
103.8916667572
 20
126.633436191
  0
ARC
  5
428
100
AcDbEntity
  8
RACCORDO
100
AcDbCircle
 62
7
  6
CONTINUOUS
 10
161.3072392642
 20
105.777524317
 40
1.525
100
AcDbArc
 50
270.0
 51
343.0879461817
  0
ARC
  5
429
100
AcDbEntity
  8
RACCORDO
100
AcDbCircle
 62
7
  6
CONTINUOUS
 10
154.9572392642
 20
105.777524317
 40
1.525
100
AcDbArc
 50
196.9120538183
 51
270.0000055526
  0
ARC
  5
42A
100
AcDbEntity
  8
RACCORDO
100
AcDbCircle
 62
7
  6
CONTINUOUS
 10
138.8072392642
 20
105.777524317
 40
1.525
100
AcDbArc
 50
270.0
 51
343.0879461817
  0
ARC
  5
42B
100
AcDbEntity
  8
RACCORDO
100
AcDbCircle
 62
7
  6
CONTINUOUS
 10
132.4572392642
 20
105.777524317
 40
1.525
100
AcDbArc
 50
196.9120538183
 51
270.0000055526
  0
ARC
  5
42C
100
AcDbEntity
  8
RACCORDO
100
AcDbCircle
 62
7
  6
CONTINUOUS
 10
132.4572392642
 20
105.777524317
 40
1.525
100
AcDbArc
 50
90.0
 51
163.0879461817
  0
ARC
  5
42D
100
AcDbEntity
  8
RACCORDO
100
AcDbCircle
 62
7
  6
CONTINUOUS
 10
138.8072392642
 20
105.777524317
 40
1.525
100
AcDbArc
 50
16.9120538183
 51
90.0000055526
  0
ARC
  5
42E
100
AcDbEntity
  8
RACCORDO
100
AcDbCircle
 62
7
  6
CONTINUOUS
 10
154.9572392642
 20
105.777524317
 40
1.525
100
AcDbArc
 50
90.0
 51
163.0879461817
  0
ARC
  5
42F
100
AcDbEntity
  8
RACCORDO
100
AcDbCircle
 62
7
  6
CONTINUOUS
 10
161.3072392642
 20
105.777524317
 40
1.525
100
AcDbArc
 50
16.9120538183
 51
90.0000055526
  0
ARC
  5
430
100
AcDbEntity
  8
RACCORDO
100
AcDbCircle
 62
7
  6
CONTINUOUS
 10
104.2516875645
 20
84.9699658718
 40
1.2
100
AcDbArc
 50
182.9907431861
 51
266.9999999128
  0
ARC
  5
431
100
AcDbEntity
  8
RACCORDO
100
AcDbCircle
 62
7
  6
CONTINUOUS
 10
104.2516873265
 20
126.5850827498
 40
1.2
100
AcDbArc
 50
92.9999887096
 51
177.0092556264
  0
ARC
  5
432
100
AcDbEntity
  8
RACCORDO
100
AcDbCircle
 62
7
  6
CONTINUOUS
 10
102.9088190745
 20
106.3628446404
 40
0.4
100
AcDbArc
 50
179.9267159703
 51
269.4990165057
  0
ARC
  5
433
100
AcDbEntity
  8
RACCORDO
100
AcDbCircle
 62
7
  6
CONTINUOUS
 10
102.9088122106
 20
105.1922039338
 40
0.3999999995
100
AcDbArc
 50
90.5000001053
 51
180.073276816
  0
ARC
  5
434
100
AcDbEntity
  8
RACCORDO
100
AcDbCircle
 62
7
  6
CONTINUOUS
 10
102.9128832772
 20
103.8272491239
 40
0.3999980182
100
AcDbArc
 50
146.4319828041
 51
180.2697969714
  0
ARC
  5
435
100
AcDbEntity
  8
RACCORDO
100
AcDbCircle
 62
7
  6
CONTINUOUS
 10
102.9128832782
 20
107.7277995101
 40
0.3999980182
100
AcDbArc
 50
179.7288190283
 51
213.5687699229
  0
ELLIPSE
  5
436
100
AcDbEntity
  8
RACCORDO
100
AcDbEllipse
 62
7
  6
CONTINUOUS
 10
156.055444345
 20
83.5961123334
 30
0.0
 11
0.3
 21
0.0
 31
0.0
 40
0.0524637553
 41
1.5707963268
 42
2.617993878
  0
ELLIPSE
  5
437
100
AcDbEntity
  8
RACCORDO
100
AcDbEllipse
 62
7
  6
CONTINUOUS
 10
160.2090341835
 20
83.5961123334
 30
0.0
 11
0.3
 21
0.0
 31
0.0
 40
0.0524637553
 41
0.5235987756
 42
1.5707963268
  0
ELLIPSE
  5
438
100
AcDbEntity
  8
RACCORDO
100
AcDbEllipse
 62
7
  6
CONTINUOUS
 10
137.7090341835
 20
83.5961123334
 30
0.0
 11
0.3
 21
0.0
 31
0.0
 40
0.0524637553
 41
0.5235987756
 42
1.5707963268
  0
ELLIPSE
  5
439
100
AcDbEntity
  8
RACCORDO
100
AcDbEllipse
 62
7
  6
CONTINUOUS
 10
133.555444345
 20
83.5961123334
 30
0.0
 11
0.3
 21
0.0
 31
0.0
 40
0.0524637553
 41
1.5707963268
 42
2.617993878
  0
ELLIPSE
  5
43A
100
AcDbEntity
  8
RACCORDO
100
AcDbEllipse
 62
7
  6
CONTINUOUS
 10
168.704425759
 20
84.0802744245
 30
0.0
 11
0.4935682621
 21
0.0814692616
 31
0.0
 40
0.9943281033
 41
-1.7352995412
 42
-0.1658732105
  0
ELLIPSE
  5
43B
100
AcDbEntity
  8
RACCORDO
100
AcDbEllipse
 62
7
  6
CONTINUOUS
 10
125.0600527695
 20
84.0802744245
 30
0.0
 11
0.4935682621
 21
-0.0814692616
 31
0.0
 40
0.9943281033
 41
-2.9757194431
 42
-1.4062931124
  0
ELLIPSE
  5
43C
100
AcDbEntity
  8
RACCORDO
100
AcDbEllipse
 62
7
  6
CONTINUOUS
 10
124.9323763812
 20
105.2445623758
 30
0.0
 11
0.3796255539
 21
-0.1265161514
 31
0.0
 40
0.9996192872
 41
1.8926001863
 42
3.463168079
  0
ELLIPSE
  5
43D
100
AcDbEntity
  8
RACCORDO
100
AcDbEllipse
 62
7
  6
CONTINUOUS
 10
168.8321021472
 20
105.2445623758
 30
0.0
 11
0.3796255538
 21
0.1265161515
 31
0.0
 40
0.9996192872
 41
-0.3215754255
 42
1.2489924672
  0
ELLIPSE
  5
43E
100
AcDbEntity
  8
RACCORDO
100
AcDbEllipse
 62
7
  6
CONTINUOUS
 10
137.5874300853
 20
127.9705135889
 30
0.0
 11
0.3
 21
0.0
 31
0.0
 40
0.0524077793
 41
-1.5707963268
 42
-0.0174532925
  0
ELLIPSE
  5
43F
100
AcDbEntity
  8
RACCORDO
100
AcDbEllipse
 62
7
  6
CONTINUOUS
 10
133.6770484432
 20
127.9705135889
 30
0.0
 11
0.3
 21
0.0
 31
0.0
 40
0.0524077793
 41
-3.1241393611
 42
-1.5707963268
  0
ELLIPSE
  5
440
100
AcDbEntity
  8
RACCORDO
100
AcDbEllipse
 62
7
  6
CONTINUOUS
 10
156.1770484432
 20
127.9705135889
 30
0.0
 11
0.3
 21
-0.0
 31
0.0
 40
0.0524077793
 41
-3.1241393611
 42
-1.5707963268
  0
ELLIPSE
  5
441
100
AcDbEntity
  8
RACCORDO
100
AcDbEllipse
 62
7
  6
CONTINUOUS
 10
160.0874300853
 20
127.9705135889
 30
0.0
 11
0.3
 21
0.0
 31
0.0
 40
0.0524077793
 41
-1.5707963268
 42
-0.0174532925
  0
ELLIPSE
  5
442
100
AcDbEntity
  8
RACCORDO
100
AcDbEllipse
 62
7
  6
CONTINUOUS
 10
168.732067868
 20
127.5982264751
 30
0.0
 11
0.2238673116
 21
0.4480418466
 31
0.0
 40
0.9982882662
 41
-1.1067376861
 42
0.4626886447
  0
ELLIPSE
  5
443
100
AcDbEntity
  8
RACCORDO
100
AcDbEllipse
 62
7
  6
CONTINUOUS
 10
125.0324106605
 20
127.5982264751
 30
0.0
 11
-0.2238673116
 21
0.4480418466
 31
0.0
 40
0.9982882662
 41
-0.4626886447
 42
1.106737686
  0
ELLIPSE
  5
444
100
AcDbEntity
  8
RACCORDO
100
AcDbEllipse
 62
7
  6
CONTINUOUS
 10
124.9323763812
 20
106.2991413301
 30
0.0
 11
0.3796255539
 21
0.1265161514
 31
0.0
 40
0.9996192872
 41
2.8200172283
 42
4.390585121
  0
ELLIPSE
  5
445
100
AcDbEntity
  8
RACCORDO
100
AcDbEllipse
 62
7
  6
CONTINUOUS
 10
168.8321021472
 20
106.2991413301
 30
0.0
 11
0.3796255539
 21
-0.1265161514
 31
0.0
 40
0.9996192872
 41
-1.2489924673
 42
0.3215754254
  0
ENDSEC
  0
SECTION
  2
OBJECTS
  0
DICTIONARY
  5
C
100
AcDbDictionary
280
0
281
1
  3
ACAD_GROUP
350
D
  3
ACAD_MLINESTYLE
350
17
  3
ACAD_LAYOUT
350
1A
  3
ACAD_PLOTSETTINGS
350
19
  3
ACAD_PLOTSTYLENAME
350
E
  0
DICTIONARY
  5
D
102
{ACAD_REACTORS
330
C
102
}
100
AcDbDictionary
280
0
281
1
  0
ACDBDICTIONARYWDFLT
  5
E
102
{ACAD_REACTORS
330
C
102
}
100
AcDbDictionary
281
1
  3
Normal
350
F
100
AcDbDictionaryWithDefault
340
F
  0
DICTIONARY
  5
17
102
{ACAD_REACTORS
330
C
102
}
100
AcDbDictionary
280
0
281
1
  3
Standard
350
18
  0
DICTIONARY
  5
19
102
{ACAD_REACTORS
330
C
102
}
100
AcDbDictionary
281
1
  0
DICTIONARY
  5
1A
102
{ACAD_REACTORS
330
C
102
}
100
AcDbDictionary
281
1
  3
Model
350
446
  3
Layout1
350
447
  0
ACDBPLACEHOLDER
  5
F
102
{ACAD_REACTORS
330
E
102
}
  0
MLINESTYLE
  5
18
102
{ACAD_REACTORS
330
17
102
}
100
AcDbMlineStyle
  2
STANDARD
 70
0
  3

 62
256
 51
90.0
 52
90.0
 71
2
 49
0.5
 62
256
  6
BYLAYER
 49
-0.5
 62
256
  6
BYLAYER
  0
LAYOUT
  5
446
102
{ACAD_REACTORS
330
1A
102
}
100
AcDbPlotSettings
  1

  2
none_device
  4
ISO_A4_(297.00_x_210.00_MM)
  6

 40
0.0
 41
0.0
 42
0.0
 43
0.0
 44
297.0
 45
210.0
 46
0.0
 47
0.0
 48
0.0
 49
0.0
140
0.0
141
0.0
142
1.0
143
1.0
 70
1024
 72
1
 73
0
 74
0
  7

 75
0
147
1.0
148
0.0
149
0.0
100
AcDbLayout
  1
Model
 70
0
 71
0
 10
0.0
 20
0.0
 11
297.0
 21
210.0
 12
0.0
 22
0.0
 32
0.0
 14
0.0
 24
0.0
 34
0.0
 15
0.0
 25
0.0
 35
0.0
146
0.0
 13
0.0
 23
0.0
 33
0.0
 16
1.0
 26
0.0
 36
0.0
 17
0.0
 27
1.0
 37
0.0
 76
0
330
214
345
0
346
0
  0
LAYOUT
  5
447
102
{ACAD_REACTORS
330
1A
102
}
100
AcDbPlotSettings
  1

  2
none_device
  4
ISO_A4_(297.00_x_210.00_MM)
  6

 40
0.0
 41
0.0
 42
0.0
 43
0.0
 44
297.0
 45
210.0
 46
0.0
 47
0.0
 48
0.0
 49
0.0
140
0.0
141
0.0
142
1.0
143
1.0
 70
0
 72
1
 73
0
 74
0
  7

 75
0
147
1.0
148
0.0
149
0.0
100
AcDbLayout
  1
Layout1
 70
0
 71
1
 10
0.0
 20
0.0
 11
297.0
 21
210.0
 12
0.0
 22
0.0
 32
0.0
 14
0.0
 24
0.0
 34
0.0
 15
0.0
 25
0.0
 35
0.0
146
0.0
 13
0.0
 23
0.0
 33
0.0
 16
1.0
 26
0.0
 36
0.0
 17
0.0
 27
1.0
 37
0.0
 76
0
330
215
345
0
346
0
  0
ENDSEC
  0
EOF
