  0
SECTION
  2
HEADER
  9
$ACADVER
  1
AC1021
  9
$DWGCODEPAGE
  3
ANSI_1252
  9
$EXTMAX
 10
297.0
 20
210.0
 30
0.0
  9
$EXTMIN
 10
0.0
 20
0.0
 30
0.0
  9
$LIMMIN
 10
0.0
 20
0.0
  9
$LIMMAX
 10
297.0
 20
210.0
  9
$VIEWCTR
 10
148.5
 20
105.0
  9
$VIEWSIZE
 40
210.0
  9
$CLAYER
  8
0
  9
$LTSCALE
 40
16.335
  9
$CELTYPE
  6
BYLAYER
  9
$DIMSCALE
 40
1.0
  9
$DIMASZ
 40
3.0
  9
$DIMEXO
 40
1.85625
  9
$DIMDLI
 40
11.286
  9
$DIMEXE
 40
5.346
  9
$DIMCEN
 40
2.673
  9
$DIMLFAC
 40
1.0
  9
$DIMBLK
  1
_FILLED
  9
$DIMTXT
 40
3.0
  9
$DIMTOL
 70
1
  9
$DIMLIM
 70
0
  9
$DIMTFAC
 40
1.0
  9
$DIMTP
 40
0.01
  9
$DIMTM
 40
0.01
  9
$PDMODE
 70
3
  9
$PDSIZE
 40
3.0
  9
$HANDSEED
  5
363
  9
$TILEMODE
 70
1
  9
$MEASUREMENT
 70
1
  9
$INSUNITS
 70
4
  0
ENDSEC
  0
SECTION
  2
CLASSES
  0
CLASS
  1
ACDBDICTIONARYWDFLT
  2
AcDbDictionaryWithDefault
  3
AutoCAD 2000
 90
0
 91
1
280
0
281
0
  0
CLASS
  1
ACDBPLACEHOLDER
  2
AcDbPlaceHolder
  3
AutoCAD 2000
 90
0
 91
1
280
0
281
0
  0
CLASS
  1
LAYOUT
  2
AcDbLayout
  3
AutoCAD 2000
 90
0
 91
0
280
0
281
0
  0
ENDSEC
  0
SECTION
  2
TABLES
  0
TABLE
  2
VPORT
  5
8
100
AcDbSymbolTable
 70
2
  0
VPORT
  5
1F4
100
AcDbSymbolTableRecord
100
AcDbViewportTableRecord
  2
*ACTIVE
 70
0
 10
0.0
 20
0.0
 11
1.0
 21
1.0
 12
148.5
 22
105.0
 13
0.0
 23
0.0
 14
1.0
 24
1.0
 15
0.0
 25
0.0
 16
0.0
 26
0.0
 36
1.0
 17
0.0
 27
0.0
 37
0.0
 40
210.0
 41
1.4142857143
 42
50.0
 43
0.0
 44
0.0
 50
0.0
 51
0.0
 71
0
 72
100
 73
1
 74
1
 75
0
 76
0
 77
0
 78
0
  0
ENDTAB
  0
TABLE
  2
LTYPE
  5
5
100
AcDbSymbolTable
 70
6
  0
LTYPE
  5
14
100
AcDbSymbolTableRecord
100
AcDbLinetypeTableRecord
  2
BYBLOCK
 70
0
  3

 72
65
 73
0
 40
0.0
  0
LTYPE
  5
15
100
AcDbSymbolTableRecord
100
AcDbLinetypeTableRecord
  2
BYLAYER
 70
0
  3

 72
65
 73
0
 40
0.0
  0
LTYPE
  5
16
100
AcDbSymbolTableRecord
100
AcDbLinetypeTableRecord
  2
CONTINUOUS
 70
64
  3
Solid line
 72
65
 73
0
 40
0.0
  0
LTYPE
  5
1F5
100
AcDbSymbolTableRecord
100
AcDbLinetypeTableRecord
  2
CENTER
 70
64
  3
____ _ ____ _ ____ _ ____ _ ____ _ ____ _ ____
 72
65
 73
4
 40
0.6
 49
0.375
 74
0
 49
-0.075
 74
0
 49
0.075
 74
0
 49
-0.075
 74
0
  0
LTYPE
  5
1F6
100
AcDbSymbolTableRecord
100
AcDbLinetypeTableRecord
  2
HIDDEN
 70
64
  3
- - - - - - - - - - - - - - - - - - - -
 72
65
 73
2
 40
0.2
 49
0.1
 74
0
 49
-0.1
 74
0
  0
LTYPE
  5
1F7
100
AcDbSymbolTableRecord
100
AcDbLinetypeTableRecord
  2
PHANTOM
 70
64
  3
_____ _ _ _____ _ _ _____ _ _ _____
 72
65
 73
6
 40
0.8
 49
0.45
 74
0
 49
-0.05
 74
0
 49
0.1
 74
0
 49
-0.05
 74
0
 49
0.1
 74
0
 49
-0.05
 74
0
  0
LTYPE
  5
1F8
100
AcDbSymbolTableRecord
100
AcDbLinetypeTableRecord
  2
DOT
 70
64
  3
. . . . . . . . . . . . . . . . . . . .
 72
65
 73
2
 40
0.2
 49
0.1
 74
0
 49
-0.1
 74
0
  0
LTYPE
  5
1F9
100
AcDbSymbolTableRecord
100
AcDbLinetypeTableRecord
  2
DASHED
 70
64
  3
- - - - - - - - - - - - - - - - - - - -
 72
65
 73
2
 40
0.2
 49
0.1
 74
0
 49
-0.1
 74
0
  0
ENDTAB
  0
TABLE
  2
LAYER
  5
2
100
AcDbSymbolTable
 70
36
  0
LAYER
  5
10
100
AcDbSymbolTableRecord
100
AcDbLayerTableRecord
  2
0
 70
0
 62
7
  6
CONTINUOUS
370
-3
390
F
  0
LAYER
  5
1FA
100
AcDbSymbolTableRecord
100
AcDbLayerTableRecord
  2
DEFAULT_1
 70
0
 62
7
  6
CENTER
370
-3
390
F
  0
LAYER
  5
1FB
100
AcDbSymbolTableRecord
100
AcDbLayerTableRecord
  2
DEFAULT_2
 70
0
 62
7
  6
HIDDEN
370
-3
390
F
  0
LAYER
  5
1FC
100
AcDbSymbolTableRecord
100
AcDbLayerTableRecord
  2
DEFAULT_3
 70
0
 62
7
  6
PHANTOM
370
-3
390
F
  0
LAYER
  5
1FD
100
AcDbSymbolTableRecord
100
AcDbLayerTableRecord
  2
ASSI
 70
0
 62
7
  6
CONTINUOUS
370
-3
390
F
  0
LAYER
  5
1FE
100
AcDbSymbolTableRecord
100
AcDbLayerTableRecord
  2
COORDINATE
 70
0
 62
7
  6
CONTINUOUS
370
-3
390
F
  0
LAYER
  5
1FF
100
AcDbSymbolTableRecord
100
AcDbLayerTableRecord
  2
COPY_PUBLISH
 70
0
 62
7
  6
CONTINUOUS
370
-3
390
F
  0
LAYER
  5
200
100
AcDbSymbolTableRecord
100
AcDbLayerTableRecord
  2
COSMETICI
 70
0
 62
7
  6
CONTINUOUS
370
-3
390
F
  0
LAYER
  5
201
100
AcDbSymbolTableRecord
100
AcDbLayerTableRecord
  2
CURVE
 70
0
 62
7
  6
CONTINUOUS
370
-3
390
F
  0
LAYER
  5
202
100
AcDbSymbolTableRecord
100
AcDbLayerTableRecord
  2
DRAFT
 70
0
 62
7
  6
CONTINUOUS
370
-3
390
F
  0
LAYER
  5
203
100
AcDbSymbolTableRecord
100
AcDbLayerTableRecord
  2
IMPORT_IGES
 70
0
 62
7
  6
CONTINUOUS
370
-3
390
F
  0
LAYER
  5
204
100
AcDbSymbolTableRecord
100
AcDbLayerTableRecord
  2
INTF_1
 70
0
 62
7
  6
CONTINUOUS
370
-3
390
F
  0
LAYER
  5
205
100
AcDbSymbolTableRecord
100
AcDbLayerTableRecord
  2
NOTE
 70
0
 62
7
  6
CONTINUOUS
370
-3
390
F
  0
LAYER
  5
206
100
AcDbSymbolTableRecord
100
AcDbLayerTableRecord
  2
PIANI
 70
0
 62
7
  6
CONTINUOUS
370
-3
390
F
  0
LAYER
  5
207
100
AcDbSymbolTableRecord
100
AcDbLayerTableRecord
  2
PUNTI
 70
0
 62
7
  6
CONTINUOUS
370
-3
390
F
  0
LAYER
  5
208
100
AcDbSymbolTableRecord
100
AcDbLayerTableRecord
  2
RACCORDO
 70
0
 62
7
  6
CONTINUOUS
370
-3
390
F
  0
LAYER
  5
209
100
AcDbSymbolTableRecord
100
AcDbLayerTableRecord
  2
SIMBOLI
 70
0
 62
7
  6
CONTINUOUS
370
-3
390
F
  0
LAYER
  5
20A
100
AcDbSymbolTableRecord
100
AcDbLayerTableRecord
  2
SMUSSO
 70
0
 62
7
  6
CONTINUOUS
370
-3
390
F
  0
LAYER
  5
20B
100
AcDbSymbolTableRecord
100
AcDbLayerTableRecord
  2
SNAPLINE
 70
0
 62
7
  6
CONTINUOUS
370
-3
390
F
  0
LAYER
  5
20C
100
AcDbSymbolTableRecord
100
AcDbLayerTableRecord
  2
SUPERFICI
 70
0
 62
7
  6
CONTINUOUS
370
-3
390
F
  0
LAYER
  5
20D
100
AcDbSymbolTableRecord
100
AcDbLayerTableRecord
  2
TRASH
 70
0
 62
7
  6
CONTINUOUS
370
-3
390
F
  0
ENDTAB
  0
TABLE
  2
STYLE
  5
3
100
AcDbSymbolTable
 70
1
  0
STYLE
  5
11
100
AcDbSymbolTableRecord
100
AcDbTextStyleTableRecord
  2
STANDARD
 70
0
 40
0.0
 41
0.8
 50
0.0
 71
0
 42
0.2
  3
txt
  4

  0
STYLE
  5
20E
100
AcDbSymbolTableRecord
100
AcDbTextStyleTableRecord
  2
TEXTSTYLE_1
 70
0
 40
0.0
 41
0.8
 50
0.0
 71
0
 42
0.2
  3
gdt
  4

  0
ENDTAB
  0
TABLE
  2
VIEW
  5
6
100
AcDbSymbolTable
 70
0
  0
ENDTAB
  0
TABLE
  2
UCS
  5
7
100
AcDbSymbolTable
 70
0
  0
ENDTAB
  0
TABLE
  2
APPID
  5
9
100
AcDbSymbolTable
 70
1
  0
APPID
  5
20F
100
AcDbSymbolTableRecord
100
AcDbRegAppTableRecord
  2
ACAD
 70
0
  0
ENDTAB
  0
TABLE
  2
BLOCK_RECORD
  5
1
100
AcDbSymbolTable
 70
0
  0
BLOCK_RECORD
  5
210
100
AcDbSymbolTableRecord
100
AcDbBlockTableRecord
  2
*Model_Space
  0
BLOCK_RECORD
  5
211
100
AcDbSymbolTableRecord
100
AcDbBlockTableRecord
  2
*Paper_Space
  0
BLOCK_RECORD
  5
212
100
AcDbSymbolTableRecord
100
AcDbBlockTableRecord
  2
_FILLED
  0
BLOCK_RECORD
  5
213
100
AcDbSymbolTableRecord
100
AcDbBlockTableRecord
  2
*D0
  0
BLOCK_RECORD
  5
214
100
AcDbSymbolTableRecord
100
AcDbBlockTableRecord
  2
*D1
  0
BLOCK_RECORD
  5
215
100
AcDbSymbolTableRecord
100
AcDbBlockTableRecord
  2
*D2
  0
ENDTAB
  0
TABLE
  2
DIMSTYLE
  5
A
100
AcDbSymbolTable
 70
1
100
AcDbDimStyleTable
 71
0
  0
DIMSTYLE
105
216
100
AcDbSymbolTableRecord
100
AcDbDimStyleTableRecord
  2
STANDARD
 70
0
  3

  4

 40
1.0
 41
3.0
 42
0.0625
 43
0.38
 44
0.18
 45
0.0
 46
0.0
 47
0.01
 48
0.01
140
3.0
141
0.09
142
0.0
143
25.4
144
1.0
145
0.0
146
1.0
147
0.09
 71
1.0
 72
0.0
 73
0
 74
0
 75
0
 76
0
 77
1
 78
8
170
0
171
2
172
0
173
0
174
0
175
0
176
0
177
0
178
0
270
2
271
2
272
2
273
2
274
2
275
0
280
0
281
0
282
0
283
1
284
8
285
0
286
0
287
3
288
0
340
11
341
212
342
212
343
212
344
212
  0
DIMSTYLE
105
217
100
AcDbSymbolTableRecord
100
AcDbDimStyleTableRecord
  2
DIMSTYLE_1
 70
0
  3

  4

 40
1.0
 41
3.0
 42
0.0625
 43
0.38
 44
0.18
 45
0.0
 46
0.0
 47
0.0
 48
0.0
140
3.0
141
0.09
142
0.0
143
25.4
144
1.0
145
0.0
146
1.0
147
0.09
 71
0.0
 72
0.0
 73
0
 74
0
 75
0
 76
0
 77
1
 78
8
170
0
171
2
172
0
173
0
174
0
175
0
176
0
177
0
178
0
270
2
271
2
272
2
273
2
274
2
275
0
280
0
281
0
282
0
283
1
284
8
285
0
286
0
287
3
288
0
340
11
341
212
342
212
343
212
344
212
  0
DIMSTYLE
105
218
100
AcDbSymbolTableRecord
100
AcDbDimStyleTableRecord
  2
DIMSTYLE_2
 70
0
  3

  4

 40
1.0
 41
3.0
 42
0.0625
 43
0.38
 44
0.18
 45
0.0
 46
0.0
 47
0.0
 48
0.0
140
3.0
141
0.09
142
0.0
143
25.4
144
1.0
145
0.0
146
1.0
147
0.09
 71
0.0
 72
0.0
 73
0
 74
0
 75
0
 76
0
 77
1
 78
8
170
0
171
2
172
0
173
0
174
0
175
0
176
0
177
0
178
0
270
2
271
1
272
1
273
2
274
2
275
0
280
0
281
0
282
0
283
1
284
8
285
0
286
0
287
3
288
0
340
11
341
212
342
212
343
212
344
212
  0
ENDTAB
  0
ENDSEC
  0
SECTION
  2
BLOCKS
  0
BLOCK
  5
20
100
AcDbEntity
  8
0
100
AcDbBlockBegin
  2
*Model_Space
 70
0
 10
0.0
 20
0.0
 30
0.0
  3
*Model_Space
  1

  0
ENDBLK
  5
21
100
AcDbEntity
  8
0
100
AcDbBlockEnd
  0
BLOCK
  5
1C
100
AcDbEntity
  8
0
100
AcDbBlockBegin
  2
*Paper_Space
 70
0
 10
0.0
 20
0.0
 30
0.0
  3
*Paper_Space
  1

  0
ENDBLK
  5
1D
100
AcDbEntity
  8
0
100
AcDbBlockEnd
  0
BLOCK
  5
219
100
AcDbEntity
  8
0
100
AcDbBlockBegin
  2
_FILLED
 70
64
 10
0.0
 20
0.0
  3
_FILLED
  1

  0
SOLID
  5
21A
100
AcDbEntity
  8
0
  6
BYBLOCK
 62
0
100
AcDbTrace
 10
0.0
 20
0.0
 11
-1.0
 21
0.3166666667
 12
-1.0
 22
-0.3166666667
 13
-1.0
 23
-0.3166666667
  0
ENDBLK
  5
21B
100
AcDbEntity
  8
0
  6
BYBLOCK
 62
0
100
AcDbBlockEnd
  0
BLOCK
  5
21C
100
AcDbEntity
  8
0
100
AcDbBlockBegin
 62
7
  6
CONTINUOUS
  2
*D0
 70
65
 10
0.0
 20
0.0
  3
*D0
  1

  0
MTEXT
  5
21D
100
AcDbEntity
  8
0
100
AcDbMText
 62
7
  6
CONTINUOUS
  7
STANDARD
 71
2
 72
1
 10
190.8734407484
 20
178.3777000203
 30
0.0
 11
1.0
 21
0.0
 31
0.0
 44
0.9
  1
90
 40
3.0
 41
4.7142857143
  0
LINE
  5
21E
100
AcDbEntity
  8
0
100
AcDbLine
 62
7
  6
CONTINUOUS
 10
235.8734407484
 20
151.8429862514
 11
235.8734407484
 21
176.1277000203
  0
LINE
  5
21F
100
AcDbEntity
  8
0
100
AcDbLine
 62
7
  6
CONTINUOUS
 10
145.8734407484
 20
151.8429860504
 11
145.8734407484
 21
176.1277000203
  0
LINE
  5
220
100
AcDbEntity
  8
0
100
AcDbLine
 62
7
  6
CONTINUOUS
 10
235.8734407484
 20
174.6277000203
 11
190.8734407484
 21
174.6277000203
  0
LINE
  5
221
100
AcDbEntity
  8
0
100
AcDbLine
 62
7
  6
CONTINUOUS
 10
145.8734407484
 20
174.6277000203
 11
190.8734407484
 21
174.6277000203
  0
INSERT
  5
222
100
AcDbEntity
  8
0
100
AcDbBlockReference
 62
7
  6
CONTINUOUS
  2
_FILLED
 10
235.8734407484
 20
174.6277000203
 41
3.0
 42
3.0
 43
3.0
  0
INSERT
  5
223
100
AcDbEntity
  8
0
100
AcDbBlockReference
 62
7
  6
CONTINUOUS
  2
_FILLED
 10
145.8734407484
 20
174.6277000203
 41
3.0
 42
3.0
 43
3.0
 50
180.0
  0
ENDBLK
  5
224
100
AcDbEntity
  8
0
  6
BYBLOCK
 62
0
100
AcDbBlockEnd
  0
BLOCK
  5
225
100
AcDbEntity
  8
0
100
AcDbBlockBegin
 62
7
  6
CONTINUOUS
  2
*D1
 70
65
 10
0.0
 20
0.0
  3
*D1
  1

  0
MTEXT
  5
226
100
AcDbEntity
  8
0
100
AcDbMText
 62
7
  6
CONTINUOUS
  7
STANDARD
 71
2
 72
1
 10
247.6367685791
 20
107.9429860504
 30
0.0
 11
0.0
 21
1.0
 31
0.0
 44
0.9
  1
90
 40
3.0
 41
4.7142857143
  0
LINE
  5
227
100
AcDbEntity
  8
0
100
AcDbLine
 62
7
  6
CONTINUOUS
 10
234.7734407484
 20
152.9429860504
 11
252.8867685791
 21
152.9429860504
  0
LINE
  5
228
100
AcDbEntity
  8
0
100
AcDbLine
 62
7
  6
CONTINUOUS
 10
234.7734407484
 20
62.9429860504
 11
252.8867685791
 21
62.9429860504
  0
LINE
  5
229
100
AcDbEntity
  8
0
100
AcDbLine
 62
7
  6
CONTINUOUS
 10
251.3867685791
 20
152.9429860504
 11
251.3867685791
 21
107.9429860504
  0
LINE
  5
22A
100
AcDbEntity
  8
0
100
AcDbLine
 62
7
  6
CONTINUOUS
 10
251.3867685791
 20
62.9429860504
 11
251.3867685791
 21
107.9429860504
  0
INSERT
  5
22B
100
AcDbEntity
  8
0
100
AcDbBlockReference
 62
7
  6
CONTINUOUS
  2
_FILLED
 10
251.3867685791
 20
152.9429860504
 41
3.0
 42
3.0
 43
3.0
 50
90.0
  0
INSERT
  5
22C
100
AcDbEntity
  8
0
100
AcDbBlockReference
 62
7
  6
CONTINUOUS
  2
_FILLED
 10
251.3867685791
 20
62.9429860504
 41
3.0
 42
3.0
 43
3.0
 50
270.0
  0
ENDBLK
  5
22D
100
AcDbEntity
  8
0
  6
BYBLOCK
 62
0
100
AcDbBlockEnd
  0
BLOCK
  5
22E
100
AcDbEntity
  8
0
100
AcDbBlockBegin
 62
7
  6
CONTINUOUS
  2
*D2
 70
65
 10
0.0
 20
0.0
  3
*D2
  1

  0
MTEXT
  5
22F
100
AcDbEntity
  8
0
100
AcDbMText
 62
7
  6
CONTINUOUS
  7
STANDARD
 71
3
 72
1
 10
116.0417548826
 20
178.7756993428
 30
0.0
 11
1.0
 21
0.0
 31
0.0
 44
0.9
  1
8,6
 40
3.0
 41
6.4285714286
  0
LINE
  5
230
100
AcDbEntity
  8
0
100
AcDbLine
 62
7
  6
CONTINUOUS
 10
126.5609600459
 20
151.0055161575
 11
126.5609600442
 21
176.5256993435
  0
LINE
  5
231
100
AcDbEntity
  8
0
100
AcDbLine
 62
7
  6
CONTINUOUS
 10
117.9928484504
 20
108.4429860194
 11
117.9928484457
 21
176.525699343
  0
LINE
  5
232
100
AcDbEntity
  8
0
100
AcDbLine
 62
7
  6
CONTINUOUS
 10
126.5609600443
 20
175.0256993435
 11
122.276904245
 21
175.0256993433
  0
LINE
  5
233
100
AcDbEntity
  8
0
100
AcDbLine
 62
7
  6
CONTINUOUS
 10
117.9928484458
 20
175.025699343
 11
122.276904245
 21
175.0256993433
  0
LINE
  5
234
100
AcDbEntity
  8
0
100
AcDbLine
 62
7
  6
CONTINUOUS
 10
122.276904245
 20
175.0256993433
 11
109.6131834541
 21
175.0256993428
  0
INSERT
  5
235
100
AcDbEntity
  8
0
100
AcDbBlockReference
 62
7
  6
CONTINUOUS
  2
_FILLED
 10
126.5609600443
 20
175.0256993435
 41
3.0
 42
3.0
 43
3.0
 50
0.0000000039
  0
INSERT
  5
236
100
AcDbEntity
  8
0
100
AcDbBlockReference
 62
7
  6
CONTINUOUS
  2
_FILLED
 10
117.9928484458
 20
175.025699343
 41
3.0
 42
3.0
 43
3.0
 50
180.0000000039
  0
ENDBLK
  5
237
100
AcDbEntity
  8
0
  6
BYBLOCK
 62
0
100
AcDbBlockEnd
  0
ENDSEC
  0
SECTION
  2
ENTITIES
  0
DIMENSION
  5
238
100
AcDbEntity
  8
0
100
AcDbDimension
 62
7
  6
CONTINUOUS
  2
*D0
 10
145.8734407484
 20
174.6277000203
 11
188.5162978913
 21
176.8777000203
 70
160
 71
2
 42
90.0
  3
DIMSTYLE_1
100
AcDbAlignedDimension
 13
235.8734407484
 23
151.8429862514
 14
145.8734407484
 24
151.8429860504
 50
180.0
100
AcDbRotatedDimension
  0
DIMENSION
  5
239
100
AcDbEntity
  8
0
100
AcDbDimension
 62
7
  6
CONTINUOUS
  2
*D1
 10
251.3867685791
 20
62.9429860504
 11
250.1929421029
 21
105.8357082005
 70
160
 71
2
 42
90.0
  3
DIMSTYLE_1
100
AcDbAlignedDimension
 13
234.7734407484
 23
152.9429860504
 14
234.7734407484
 24
62.9429860504
 50
270.0
100
AcDbRotatedDimension
  0
DIMENSION
  5
23A
100
AcDbEntity
  8
0
100
AcDbDimension
 62
7
  6
CONTINUOUS
  2
*D2
 10
117.9928484458
 20
175.025699343
 11
106.3988977398
 21
177.2756993428
 70
160
 71
3
 42
8.5681115985
  3
DIMSTYLE_2
100
AcDbAlignedDimension
 13
126.5609600459
 23
151.0055161575
 14
117.9928484504
 24
108.4429860194
 50
180.0000000039
100
AcDbRotatedDimension
  0
LWPOLYLINE
  5
23B
100
AcDbEntity
  8
0
100
AcDbPolyline
 62
253
  6
CONTINUOUS
 90
25
 70
0
 10
146.0080958734
 20
64.5429860504
 10
146.0176679551
 20
64.5290278169
 10
146.032140427
 20
64.5152003697
 10
146.0514581117
 20
64.501556427
 10
146.075547359
 20
64.4881480073
 10
146.1043163268
 20
64.4750262313
 10
146.1376553312
 20
64.4622411267
 10
146.1754372647
 20
64.4498414378
 10
146.2175180809
 20
64.4378744393
 10
146.2637373433
 20
64.4263857563
 10
146.3139188375
 20
64.4154191902
 10
146.3678712427
 20
64.4050165521
 10
146.4253888612
 20
64.3952175026
 10
146.4862524027
 20
64.3860594015
 10
146.5502298202
 20
64.3775771647
 10
146.617077195
 20
64.3698031313
 10
146.6865396664
 20
64.3627669406
 10
146.7583524032
 20
64.3564954184
 10
146.8322416141
 20
64.3510124755
 10
146.9079255906
 20
64.346339016
 10
146.9851157819
 20
64.3424928578
 10
147.0635178943
 20
64.3394886647
 10
147.142833014
 20
64.3373378904
 10
147.2227587458
 20
64.3360487349
 10
147.3029903668
 20
64.3356261132
  0
LWPOLYLINE
  5
23C
100
AcDbEntity
  8
0
100
AcDbPolyline
 62
253
  6
CONTINUOUS
 90
25
 70
0
 10
146.0080941198
 20
151.340876002
 10
146.017666096
 20
151.3548342158
 10
146.0321384761
 20
151.3686616224
 10
146.0514560828
 20
151.3823054974
 10
146.0755452662
 20
151.3957138163
 10
146.1043141841
 20
151.4088354526
 10
146.1376531525
 20
151.4216203732
 10
146.1754350637
 20
151.4340198287
 10
146.217515871
 20
151.4459865396
 10
146.2637351376
 20
151.4574748766
 10
146.3139166486
 20
151.4684410341
 10
146.3678690826
 20
151.4788431981
 10
146.4253867413
 20
151.4886417048
 10
146.4862503337
 20
151.4977991922
 10
146.550227812
 20
151.5062807427
 10
146.6170752566
 20
151.514054016
 10
146.6865378059
 20
151.5210893726
 10
146.7583506277
 20
151.5273599865
 10
146.8322399297
 20
151.532841948
 10
146.9079240023
 20
151.5375143544
 10
146.9851142936
 20
151.5413593899
 10
147.0635165088
 20
151.5443623936
 10
147.1428317328
 20
151.5465119153
 10
147.2227575694
 20
151.5477997591
 10
147.3029892945
 20
151.5482210148
  0
LWPOLYLINE
  5
23D
100
AcDbEntity
  8
0
100
AcDbPolyline
 62
7
  6
CONTINUOUS
 90
28
 70
0
 10
145.8734407484
 20
64.5429860504
 10
145.8762048214
 20
64.4490272131
 10
145.8844745068
 20
64.3554232073
 10
145.898215656
 20
64.2624972616
 10
145.9174009448
 20
64.1704873441
 10
145.9419768455
 20
64.0797232111
 10
145.9718052949
 20
63.9906748668
 10
146.0066344847
 20
63.9038761227
 10
146.0463194978
 20
63.819549299
 10
146.0908782217
 20
63.7376519908
 10
146.1403524993
 20
63.6581951722
 10
146.1945133656
 20
63.5815957885
 10
146.252892017
 20
63.5084606611
 10
146.3150397281
 20
63.439283261
 10
146.3808701014
 20
63.3740835423
 10
146.4504453302
 20
63.3127605288
 10
146.5237428559
 20
63.2553459441
 10
146.6002917831
 20
63.2022385316
 10
146.679463044
 20
63.1538709559
 10
146.7608592552
 20
63.1104160495
 10
146.8445087402
 20
63.0717890833
 10
146.9304196091
 20
63.0379653332
 10
147.0183462856
 20
63.0090735728
 10
147.1077855754
 20
62.9853244483
 10
147.1983132793
 20
62.9668162642
 10
147.2896103581
 20
62.9535838404
 10
147.3814249098
 20
62.9456370734
 10
147.4734407484
 20
62.9429860504
  0
LINE
  5
23E
100
AcDbEntity
  8
0
100
AcDbLine
 62
7
  6
CONTINUOUS
 10
145.8734407484
 20
151.3429860504
 11
145.8734407484
 21
64.5429860504
  0
LINE
  5
23F
100
AcDbEntity
  8
0
100
AcDbLine
 62
253
  6
CONTINUOUS
 10
146.0080948354
 20
64.5440407212
 11
146.0058479567
 21
107.9429860179
  0
LINE
  5
240
100
AcDbEntity
  8
0
100
AcDbLine
 62
253
  6
CONTINUOUS
 10
147.3029901109
 20
64.3374944513
 11
147.3010085752
 21
89.1667785824
  0
LINE
  5
241
100
AcDbEntity
  8
0
100
AcDbLine
 62
253
  6
CONTINUOUS
 10
147.3010085752
 20
89.1667785824
 11
147.3010999003
 21
131.4912082779
  0
LINE
  5
242
100
AcDbEntity
  8
0
100
AcDbLine
 62
253
  6
CONTINUOUS
 10
147.4734407484
 20
62.9429860504
 11
147.4734407484
 21
64.1669229446
  0
LINE
  5
243
100
AcDbEntity
  8
0
100
AcDbLine
 62
253
  6
CONTINUOUS
 10
147.4734407484
 20
151.7190491562
 11
147.4734407484
 21
152.9429860504
  0
LINE
  5
244
100
AcDbEntity
  8
0
100
AcDbLine
 62
253
  6
CONTINUOUS
 10
146.0058479567
 20
107.9429860179
 11
146.0080954554
 21
151.3408757209
  0
LINE
  5
245
100
AcDbEntity
  8
0
100
AcDbLine
 62
253
  6
CONTINUOUS
 10
147.3010999003
 20
131.4912082779
 11
147.3029892945
 21
151.548221015
  0
LWPOLYLINE
  5
246
100
AcDbEntity
  8
0
100
AcDbPolyline
 62
253
  6
CONTINUOUS
 90
46
 70
0
 10
147.3029892945
 20
151.548221015
 10
147.3033365926
 20
151.5579238154
 10
147.304106683
 20
151.5672786512
 10
147.3052995656
 20
151.5762855329
 10
147.3069517621
 20
151.5849327341
 10
147.3090267509
 20
151.5932320011
 10
147.3114149664
 20
151.6012185522
 10
147.3141427362
 20
151.6089602483
 10
147.3171837327
 20
151.616389243
 10
147.3203494077
 20
151.623337196
 10
147.3235714121
 20
151.6296723881
 10
147.3269180949
 20
151.6355265609
 10
147.3304059554
 20
151.6411265634
 10
147.3341107336
 20
151.646595731
 10
147.3379566895
 20
151.6518107359
 10
147.3417331012
 20
151.6566284299
 10
147.3453407804
 20
151.6609390665
 10
147.3488789154
 20
151.6648524051
 10
147.3524343496
 20
151.6685545556
 10
147.3560060186
 20
151.6720692552
 10
147.3595949868
 20
151.6753727714
 10
147.3632912906
 20
151.6785800065
 10
147.3671478369
 20
151.6817440566
 10
147.3711117188
 20
151.6848118271
 10
147.3751142511
 20
151.6877389333
 10
147.3791282254
 20
151.6905072777
 10
147.3831808501
 20
151.6931349606
 10
147.387285065
 20
151.6956318936
 10
147.3914251737
 20
151.6979920193
 10
147.3956168726
 20
151.7002213972
 10
147.3999201909
 20
151.7023481145
 10
147.404382062
 20
151.7043919998
 10
147.4089555526
 20
151.7063332258
 10
147.4135598908
 20
151.7081403957
 10
147.4181611389
 20
151.7098035315
 10
147.4227932346
 20
151.7113326128
 10
147.4274772206
 20
151.7127261792
 10
147.4322005688
 20
151.7139824462
 10
147.4369758072
 20
151.7151031995
 10
147.4418615615
 20
151.716092333
 10
147.4468837971
 20
151.7169593587
 10
147.4520165486
 20
151.7176947654
 10
147.4572405465
 20
151.7182739124
 10
147.4625493675
 20
151.7186885862
 10
147.4679494348
 20
151.7189470007
 10
147.4734407484
 20
151.7190491562
  0
LWPOLYLINE
  5
247
100
AcDbEntity
  8
0
100
AcDbPolyline
 62
253
  6
CONTINUOUS
 90
46
 70
0
 10
146.0080938627
 20
151.3408757459
 10
146.0116442491
 20
151.424281135
 10
146.0196320234
 20
151.5049849053
 10
146.0316435359
 20
151.5827852584
 10
146.0472768423
 20
151.6575285412
 10
146.0661357422
 20
151.7291049189
 10
146.0878344511
 20
151.7974333725
 10
146.1119727669
 20
151.8624235269
 10
146.1381560055
 20
151.9240060793
 10
146.1660190897
 20
151.9821586133
 10
146.1952489222
 20
152.036946241
 10
146.2255443261
 20
152.088435413
 10
146.256595562
 20
152.1366683975
 10
146.2880269678
 20
152.1816074281
 10
146.3196261344
 20
152.2234536248
 10
146.3513890952
 20
152.2625979531
 10
146.3830376339
 20
152.2990315623
 10
146.4144438771
 20
152.332912802
 10
146.4459567241
 20
152.36484673
 10
146.4774767997
 20
152.3949048505
 10
146.5089236321
 20
152.4231752193
 10
146.5407730177
 20
152.4501950402
 10
146.5729991343
 20
152.4760041372
 10
146.6055125136
 20
152.5005894898
 10
146.6387642471
 20
152.524315198
 10
146.6729125771
 20
152.547271095
 10
146.7077455998
 20
152.5692922601
 10
146.7431984203
 20
152.5903305395
 10
146.7792972538
 20
152.6103950668
 10
146.8159950411
 20
152.6294528526
 10
146.8531186964
 20
152.64741895
 10
146.8905464419
 20
152.6642516512
 10
146.9283469035
 20
152.6799986907
 10
146.966623533
 20
152.6947078069
 10
147.0053042851
 20
152.7083480308
 10
147.0443777916
 20
152.7209118675
 10
147.0840503782
 20
152.7324488971
 10
147.124299757
 20
152.7429251292
 10
147.165094586
 20
152.7523098394
 10
147.2066400636
 20
152.7606188104
 10
147.2488889235
 20
152.7677978758
 10
147.2918412394
 20
152.773802039
 10
147.335776088
 20
152.7786130796
 10
147.380764703
 20
152.7821596751
 10
147.4266676244
 20
152.7843470152
 10
147.4734430439
 20
152.7850921512
  0
LWPOLYLINE
  5
248
100
AcDbEntity
  8
0
100
AcDbPolyline
 62
7
  6
CONTINUOUS
 90
28
 70
0
 10
234.2734407484
 20
62.9429860504
 10
234.3654476063
 20
62.9456364692
 10
234.4572599752
 20
62.9535824753
 10
234.5485635329
 20
62.9668155376
 10
234.6390973526
 20
62.9853247884
 10
234.7285429746
 20
63.0090758599
 10
234.8164882716
 20
63.0379755717
 10
234.9024191964
 20
63.0718094125
 10
234.9860743158
 20
63.1104417041
 10
235.0674688232
 20
63.1538995131
 10
235.1466416312
 20
63.2022722397
 10
235.2231898744
 20
63.2553834063
 10
235.2964777356
 20
63.3127950267
 10
235.3660441022
 20
63.3741141691
 10
235.4318693408
 20
63.4393123943
 10
235.494003608
 20
63.5084771622
 10
235.5523660127
 20
63.58159138
 10
235.6065179121
 20
63.6581777214
 10
235.6559897399
 20
63.7376301656
 10
235.7005486177
 20
63.8195243586
 10
235.7402353904
 20
63.9038490502
 10
235.7750677186
 20
63.9906501056
 10
235.8048971854
 20
64.079697891
 10
235.8294733659
 20
64.1704616116
 10
235.848662714
 20
64.2624839088
 10
235.8624076885
 20
64.3554257848
 10
235.8706774011
 20
64.4490324826
 10
235.8734407484
 20
64.5429860504
  0
LINE
  5
249
100
AcDbEntity
  8
0
100
AcDbLine
 62
253
  6
CONTINUOUS
 10
146.0080948354
 20
64.5440407212
 11
145.8734407484
 21
64.5429860504
  0
LINE
  5
24A
100
AcDbEntity
  8
0
100
AcDbLine
 62
7
  6
CONTINUOUS
 10
147.4734407484
 20
62.9429860504
 11
234.2734407484
 21
62.9429860504
  0
LINE
  5
24B
100
AcDbEntity
  8
0
100
AcDbLine
 62
253
  6
CONTINUOUS
 10
234.273438453
 20
63.1008799477
 11
147.4734407484
 21
63.1008799477
  0
LINE
  5
24C
100
AcDbEntity
  8
0
100
AcDbLine
 62
253
  6
CONTINUOUS
 10
234.2734407484
 20
64.1669229446
 11
147.4734407484
 21
64.1669229446
  0
LINE
  5
24D
100
AcDbEntity
  8
0
100
AcDbLine
 62
253
  6
CONTINUOUS
 10
235.7387860415
 20
64.5450963798
 11
235.8734407484
 21
64.5429860504
  0
LWPOLYLINE
  5
24E
100
AcDbEntity
  8
0
100
AcDbPolyline
 62
253
  6
CONTINUOUS
 90
28
 70
0
 10
147.4734407484
 20
63.1008799477
 10
147.3893146251
 20
63.1032966599
 10
147.3054131044
 20
63.1105394222
 10
147.2220182871
 20
63.1225927527
 10
147.1393840786
 20
63.1394332092
 10
147.0577593891
 20
63.16103116
 10
146.9774331117
 20
63.187329616
 10
146.8987412146
 20
63.21820087
 10
146.8220408282
 20
63.2535039713
 10
146.7475831056
 20
63.2931348067
 10
146.6754883149
 20
63.3370275389
 10
146.6059217855
 20
63.3850779209
 10
146.5392035925
 20
63.4370666893
 10
146.4755958261
 20
63.4928097431
 10
146.4152854487
 20
63.5521808968
 10
146.3584667664
 20
63.6150187635
 10
146.3053278623
 20
63.6810797836
 10
146.2561073294
 20
63.7500312336
 10
146.2110642847
 20
63.8215422597
 10
146.1703030131
 20
63.8954180817
 10
146.1338768485
 20
63.9715115721
 10
146.1018788075
 20
64.0496029764
 10
146.074452988
 20
64.1292924565
 10
146.0516955047
 20
64.2102835395
 10
146.0336330059
 20
64.2924799095
 10
146.0203138129
 20
64.3757045407
 10
146.0117922573
 20
64.4596506988
 10
146.0081088998
 20
64.5440408189
  0
LWPOLYLINE
  5
24F
100
AcDbEntity
  8
0
100
AcDbPolyline
 62
253
  6
CONTINUOUS
 90
28
 70
0
 10
147.4734407484
 20
64.1669229446
 10
147.4634438363
 20
64.1672179235
 10
147.4535467536
 20
64.1680869971
 10
147.4437495002
 20
64.1695301668
 10
147.4340251129
 20
64.1715547941
 10
147.424400555
 20
64.1741535242
 10
147.4149567161
 20
64.1773042855
 10
147.4056897675
 20
64.1810066507
 10
147.396603538
 20
64.1852610594
 10
147.3877904028
 20
64.1900467418
 10
147.3792175373
 20
64.1954134668
 10
147.3709177662
 20
64.2013114834
 10
147.3630819388
 20
64.2075707399
 10
147.3558042422
 20
64.2141066156
 10
147.3489904893
 20
64.221003745
 10
147.3425489688
 20
64.2283459577
 10
147.3363955874
 20
64.2362257397
 10
147.3306144384
 20
64.2445506286
 10
147.3253660899
 20
64.2531270295
 10
147.3206993229
 20
64.2619287763
 10
147.3165653565
 20
64.2709820488
 10
147.3129784162
 20
64.2801717628
 10
147.3099426015
 20
64.2894762572
 10
147.3074538128
 20
64.2989172007
 10
147.3055139767
 20
64.3084444993
 10
147.3041237355
 20
64.3180414558
 10
147.3032824469
 20
64.3277247723
 10
147.3029901109
 20
64.3374944513
  0
LWPOLYLINE
  5
250
100
AcDbEntity
  8
0
100
AcDbPolyline
 62
253
  6
CONTINUOUS
 90
16
 70
0
 10
146.0060168025
 20
85.4737993852
 10
146.0154972375
 20
85.4698055707
 10
146.0298874297
 20
85.4658487733
 10
146.0491324204
 20
85.4619441046
 10
146.0731587102
 20
85.4581064771
 10
146.1018745387
 20
85.4543505474
 10
146.1351702358
 20
85.45069066
 10
146.1729186399
 20
85.4471407924
 10
146.2149755838
 20
85.4437145023
 10
146.2611804456
 20
85.4404248751
 10
146.3113567616
 20
85.4372844745
 10
146.3653129004
 20
85.4343052941
 10
146.4228427952
 20
85.431498712
 10
146.4837267302
 20
85.4288754469
 10
146.54773218
 20
85.4264455174
 10
146.6841188486
 20
85.4222020127
  0
LWPOLYLINE
  5
251
100
AcDbEntity
  8
0
100
AcDbPolyline
 62
253
  6
CONTINUOUS
 90
17
 70
0
 10
146.0060191348
 20
85.3977222626
 10
146.0154997143
 20
85.3937151793
 10
146.0298900361
 20
85.3897453636
 10
146.0491351414
 20
85.3858279769
 10
146.0731615303
 20
85.3819779803
 10
146.1018774426
 20
85.3782100774
 10
146.135173208
 20
85.3745386584
 10
146.1729216649
 20
85.3709777451
 10
146.2149786466
 20
85.3675409371
 10
146.2611835311
 20
85.36424136
 10
146.3113598552
 20
85.3610916154
 10
146.3653159883
 20
85.3581037327
 10
146.4228458638
 20
85.355289123
 10
146.4837297667
 20
85.3526585358
 10
146.5477351723
 20
85.3502220176
 10
146.6146176348
 20
85.3479888738
 10
146.7559819817
 20
85.3441660152
  0
LWPOLYLINE
  5
252
100
AcDbEntity
  8
0
100
AcDbPolyline
 62
253
  6
CONTINUOUS
 90
15
 70
0
 10
146.0060191351
 20
130.4882498381
 10
146.0154997148
 20
130.4922569215
 10
146.0298900368
 20
130.4962267371
 10
146.0491351424
 20
130.5001441238
 10
146.0731615315
 20
130.5039941204
 10
146.101877444
 20
130.5077620233
 10
146.1351732094
 20
130.5114334422
 10
146.1729216664
 20
130.5149943555
 10
146.2149786482
 20
130.5184311636
 10
146.2611835327
 20
130.5217307406
 10
146.3113598569
 20
130.5248804852
 10
146.3653159899
 20
130.5278683679
 10
146.4228458654
 20
130.5306829776
 10
146.4837297682
 20
130.5333135648
 10
146.5477351738
 20
130.535750083
  0
LWPOLYLINE
  5
253
100
AcDbEntity
  8
0
100
AcDbPolyline
 62
253
  6
CONTINUOUS
 90
15
 70
0
 10
146.006016802
 20
130.4121727156
 10
146.0154972368
 20
130.4161665301
 10
146.0298874287
 20
130.4201233275
 10
146.0491324192
 20
130.4240279962
 10
146.0731587088
 20
130.4278656236
 10
146.1018745372
 20
130.4316215534
 10
146.1351702341
 20
130.4352814409
 10
146.1729186381
 20
130.4388313084
 10
146.214975582
 20
130.4422575986
 10
146.2611804437
 20
130.4455472258
 10
146.3113567596
 20
130.4486876264
 10
146.3653128985
 20
130.4516668068
 10
146.4228427933
 20
130.4544733889
 10
146.4837267284
 20
130.4570966541
 10
146.5477321783
 20
130.4595265836
  0
LINE
  5
254
100
AcDbEntity
  8
0
100
AcDbLine
 62
7
  6
CONTINUOUS
 10
186.2573337484
 20
79.0651850504
 11
186.7723437484
 21
79.0651850504
  0
LINE
  5
255
100
AcDbEntity
  8
0
100
AcDbLine
 62
7
  6
CONTINUOUS
 10
187.8891557484
 20
79.0651850504
 11
188.4735637484
 21
79.0651850504
  0
LINE
  5
256
100
AcDbEntity
  8
0
100
AcDbLine
 62
7
  6
CONTINUOUS
 10
188.7881687484
 20
79.0651850504
 11
189.3472577484
 21
79.0651850504
  0
LINE
  5
257
100
AcDbEntity
  8
0
100
AcDbLine
 62
7
  6
CONTINUOUS
 10
190.1589537484
 20
79.0651850504
 11
190.2409167484
 21
79.0651850504
  0
LINE
  5
258
100
AcDbEntity
  8
0
100
AcDbLine
 62
7
  6
CONTINUOUS
 10
191.0558467484
 20
79.0651850504
 11
191.6275527484
 21
79.0651850504
  0
LINE
  5
259
100
AcDbEntity
  8
0
100
AcDbLine
 62
7
  6
CONTINUOUS
 10
191.7193207484
 20
79.0651850504
 11
192.2973877484
 21
79.0651850504
  0
LINE
  5
25A
100
AcDbEntity
  8
0
100
AcDbLine
 62
7
  6
CONTINUOUS
 10
193.4059067484
 20
79.0651850504
 11
194.0218487484
 21
79.0651850504
  0
LINE
  5
25B
100
AcDbEntity
  8
0
100
AcDbLine
 62
7
  6
CONTINUOUS
 10
194.1934595507
 20
79.065184696
 11
194.7755160933
 21
79.065184696
  0
LINE
  5
25C
100
AcDbEntity
  8
0
100
AcDbLine
 62
7
  6
CONTINUOUS
 10
195.6704563703
 20
79.065184696
 11
196.2325889604
 21
79.065184696
  0
LWPOLYLINE
  5
25D
100
AcDbEntity
  8
0
100
AcDbPolyline
 62
7
  6
CONTINUOUS
 90
25
 70
0
 10
194.1934595507
 20
81.8321787094
 10
194.2532135581
 20
81.8408836574
 10
194.3129286378
 20
81.8490824396
 10
194.3726047898
 20
81.8567750507
 10
194.4322038634
 20
81.8640131433
 10
194.4917640093
 20
81.8707450554
 10
194.5513996793
 20
81.8768158095
 10
194.6111230324
 20
81.8822319861
 10
194.6709219095
 20
81.8869869951
 10
194.7308742864
 20
81.8909061009
 10
194.7909917481
 20
81.8939965652
 10
194.8512627095
 20
81.8962511188
 10
194.9117303908
 20
81.8974732301
 10
194.9724566833
 20
81.8976654135
 10
195.0333796957
 20
81.8968251528
 10
195.0943569737
 20
81.8947483719
 10
195.1553952982
 20
81.8915031699
 10
195.2164878883
 20
81.887021456
 10
195.277471947
 20
81.8808948747
 10
195.3384814444
 20
81.8732123347
 10
195.3993824104
 20
81.8638849557
 10
195.4596101375
 20
81.8522377153
 10
195.5189763899
 20
81.8380456353
 10
195.5776694035
 20
81.8215337728
 10
195.6356891782
 20
81.8027021769
  0
LWPOLYLINE
  5
25E
100
AcDbEntity
  8
0
100
AcDbPolyline
 62
7
  6
CONTINUOUS
 90
31
 70
0
 10
195.0901213916
 20
80.6193579638
 10
195.1145353827
 20
80.6201418338
 10
195.1388090607
 20
80.6216950949
 10
195.1629424256
 20
80.6240177487
 10
195.1870093761
 20
80.6270580232
 10
195.2109360136
 20
80.630867696
 10
195.234500642
 20
80.6356020961
 10
195.2577008895
 20
80.6412497686
 10
195.280539128
 20
80.6478221816
 10
195.3028007766
 20
80.6555090535
 10
195.3245262878
 20
80.6643212031
 10
195.3456752092
 20
80.6742478373
 10
195.3659116031
 20
80.6854462623
 10
195.3851973885
 20
80.6979719312
 10
195.4035706463
 20
80.7117694337
 10
195.4208096819
 20
80.7268297868
 10
195.4368377943
 20
80.7432490531
 10
195.4517316845
 20
80.7609312267
 10
195.4654997607
 20
80.7795792175
 10
195.4781341353
 20
80.7991869099
 10
195.4896426958
 20
80.8197604703
 10
195.5000575133
 20
80.841021219
 10
195.5093890074
 20
80.8629489872
 10
195.5176267583
 20
80.8855639837
 10
195.5247715775
 20
80.9086480815
 10
195.5308458706
 20
80.9322162762
 10
195.5358272319
 20
80.9562536016
 10
195.5396492554
 20
80.980496973
 10
195.5422898057
 20
81.0048586955
 10
195.543771018
 20
81.0294264747
 10
195.5440928925
 20
81.0542003168
  0
LINE
  5
25F
100
AcDbEntity
  8
0
100
AcDbLine
 62
253
  6
CONTINUOUS
 10
235.1991463236
 20
85.3502220177
 11
235.062759776
 21
85.3459676334
  0
LINE
  5
260
100
AcDbEntity
  8
0
100
AcDbLine
 62
253
  6
CONTINUOUS
 10
235.1991493186
 20
85.4264455172
 11
235.0627626498
 21
85.4222020125
  0
LWPOLYLINE
  5
261
100
AcDbEntity
  8
0
100
AcDbPolyline
 62
253
  6
CONTINUOUS
 90
25
 70
0
 10
201.4734407484
 20
84.0174709004
 10
201.5749769047
 20
84.0198722652
 10
201.676209006
 20
84.0272884406
 10
201.7771370522
 20
84.0397194653
 10
201.8780033198
 20
84.0571536546
 10
201.9785655324
 20
84.0796028481
 10
202.0780968605
 20
84.10710241
 10
202.1767048354
 20
84.1397508791
 10
202.2742819258
 20
84.1774500296
 10
202.369778708
 20
84.2199401069
 10
202.4631091464
 20
84.2672694874
 10
202.5543592767
 20
84.3193902277
 10
202.6427377822
 20
84.3758980946
 10
202.7282081779
 20
84.4368396273
 10
202.810806949
 20
84.5021687896
 10
202.8898522344
 20
84.5713424528
 10
202.9653141753
 20
84.6444183568
 10
203.0372226307
 20
84.7213392745
 10
203.1049853166
 20
84.8013895543
 10
203.168550667
 20
84.8846202869
 10
203.227970248
 20
84.9709808335
 10
203.2828064742
 20
85.0596028316
 10
203.332913484
 20
85.1501969037
 10
203.378437139
 20
85.2430527361
 10
203.4193774393
 20
85.3381704918
  0
LINE
  5
262
100
AcDbEntity
  8
0
100
AcDbLine
 62
253
  6
CONTINUOUS
 10
235.062759776
 20
85.3459676334
 11
234.9169575213
 21
85.3425909005
  0
LINE
  5
263
100
AcDbEntity
  8
0
100
AcDbLine
 62
253
  6
CONTINUOUS
 10
235.0627626498
 20
85.4222020125
 11
234.9169602364
 21
85.4188329622
  0
LINE
  5
264
100
AcDbEntity
  8
0
100
AcDbLine
 62
253
  6
CONTINUOUS
 10
234.9169575213
 20
85.3425909005
 11
234.7639647939
 21
85.340143355
  0
LINE
  5
265
100
AcDbEntity
  8
0
100
AcDbLine
 62
253
  6
CONTINUOUS
 10
234.9169602364
 20
85.4188329622
 11
234.7639673214
 21
85.4163897851
  0
LINE
  5
266
100
AcDbEntity
  8
0
100
AcDbLine
 62
253
  6
CONTINUOUS
 10
234.7639647939
 20
85.340143355
 11
234.6061165692
 21
85.3386623511
  0
LINE
  5
267
100
AcDbEntity
  8
0
100
AcDbLine
 62
253
  6
CONTINUOUS
 10
234.7639673214
 20
85.4163897851
 11
234.6061188894
 21
85.4149097689
  0
LINE
  5
268
100
AcDbEntity
  8
0
100
AcDbLine
 62
253
  6
CONTINUOUS
 10
234.6061188894
 20
85.4149097689
 11
234.4458240301
 21
85.4144155018
  0
LINE
  5
269
100
AcDbEntity
  8
0
100
AcDbLine
 62
253
  6
CONTINUOUS
 10
234.6061165692
 20
85.3386623511
 11
234.4458219272
 21
85.338170492
  0
LINE
  5
26A
100
AcDbEntity
  8
0
100
AcDbLine
 62
7
  6
CONTINUOUS
 10
192.4586477484
 20
79.6241050504
 11
193.2545147484
 21
79.6241050504
  0
LINE
  5
26B
100
AcDbEntity
  8
0
100
AcDbLine
 62
7
  6
CONTINUOUS
 10
192.5781917484
 20
80.0565950504
 11
193.1377207484
 21
80.0565950504
  0
LINE
  5
26C
100
AcDbEntity
  8
0
100
AcDbLine
 62
7
  6
CONTINUOUS
 10
194.7755160933
 20
80.1608341256
 11
195.0888617107
 21
80.1608341256
  0
LINE
  5
26D
100
AcDbEntity
  8
0
100
AcDbLine
 62
7
  6
CONTINUOUS
 10
194.7561380025
 20
80.6193579638
 11
195.0901213916
 21
80.6193579638
  0
LINE
  5
26E
100
AcDbEntity
  8
0
100
AcDbLine
 62
7
  6
CONTINUOUS
 10
185.3697727484
 20
81.8648880504
 11
186.0046207484
 21
81.8648880504
  0
LINE
  5
26F
100
AcDbEntity
  8
0
100
AcDbLine
 62
7
  6
CONTINUOUS
 10
187.0882717484
 20
81.8648880504
 11
187.6722807484
 21
81.8648880504
  0
LINE
  5
270
100
AcDbEntity
  8
0
100
AcDbLine
 62
7
  6
CONTINUOUS
 10
189.0409657484
 20
81.8648880504
 11
189.6248907484
 21
81.8648880504
  0
LINE
  5
271
100
AcDbEntity
  8
0
100
AcDbLine
 62
7
  6
CONTINUOUS
 10
190.7875347484
 20
81.8648880504
 11
191.3657487484
 21
81.8648880504
  0
LINE
  5
272
100
AcDbEntity
  8
0
100
AcDbLine
 62
7
  6
CONTINUOUS
 10
192.5974857484
 20
81.8648880504
 11
193.1628307484
 21
81.8648880504
  0
LINE
  5
273
100
AcDbEntity
  8
0
100
AcDbLine
 62
7
  6
CONTINUOUS
 10
187.8891557484
 20
81.8650560504
 11
188.4735637484
 21
81.8650560504
  0
LINE
  5
274
100
AcDbEntity
  8
0
100
AcDbLine
 62
253
  6
CONTINUOUS
 10
180.2734407484
 20
84.0174709004
 11
201.4734407484
 21
84.0174709004
  0
LINE
  5
275
100
AcDbEntity
  8
0
100
AcDbLine
 62
253
  6
CONTINUOUS
 10
203.4193774393
 20
85.3381704918
 11
234.4458219274
 21
85.3381765634
  0
LINE
  5
276
100
AcDbEntity
  8
0
100
AcDbLine
 62
7
  6
CONTINUOUS
 10
180.2734407484
 20
85.3929860504
 11
201.4734407484
 21
85.3929860504
  0
LINE
  5
277
100
AcDbEntity
  8
0
100
AcDbLine
 62
253
  6
CONTINUOUS
 10
235.8734407484
 20
85.4737993852
 11
235.7408646949
 21
85.4737993852
  0
LINE
  5
278
100
AcDbEntity
  8
0
100
AcDbLine
 62
253
  6
CONTINUOUS
 10
145.8734407484
 20
85.4737993852
 11
146.006016802
 21
85.4737993852
  0
LINE
  5
279
100
AcDbEntity
  8
0
100
AcDbLine
 62
253
  6
CONTINUOUS
 10
147.2207589086
 20
85.3382919528
 11
178.3275040576
 21
85.3381704918
  0
LINE
  5
27A
100
AcDbEntity
  8
0
100
AcDbLine
 62
253
  6
CONTINUOUS
 10
147.1407626079
 20
85.4149097692
 11
147.3010574667
 21
85.4144155021
  0
LINE
  5
27B
100
AcDbEntity
  8
0
100
AcDbLine
 62
253
  6
CONTINUOUS
 10
147.0613831352
 20
85.3392802716
 11
147.2207589086
 21
85.3382919528
  0
LINE
  5
27C
100
AcDbEntity
  8
0
100
AcDbLine
 62
253
  6
CONTINUOUS
 10
146.9829141763
 20
85.4163897854
 11
147.1407626079
 21
85.4149097692
  0
LINE
  5
27D
100
AcDbEntity
  8
0
100
AcDbLine
 62
253
  6
CONTINUOUS
 10
146.9056653042
 20
85.3412483044
 11
147.0613831352
 21
85.3392802716
  0
LINE
  5
27E
100
AcDbEntity
  8
0
100
AcDbLine
 62
253
  6
CONTINUOUS
 10
146.8299212617
 20
85.4188329625
 11
146.9829141763
 21
85.4163897854
  0
LINE
  5
27F
100
AcDbEntity
  8
0
100
AcDbLine
 62
253
  6
CONTINUOUS
 10
146.7559819817
 20
85.3441660152
 11
146.9056653042
 21
85.3412483044
  0
LINE
  5
280
100
AcDbEntity
  8
0
100
AcDbLine
 62
253
  6
CONTINUOUS
 10
146.6841188486
 20
85.4222020127
 11
146.8299212617
 21
85.4188329625
  0
LWPOLYLINE
  5
281
100
AcDbEntity
  8
0
100
AcDbPolyline
 62
7
  6
CONTINUOUS
 90
10
 70
0
 10
195.2139541785
 20
81.4044138014
 10
195.165281308
 20
81.4093323112
 10
195.1159999988
 20
81.4125789777
 10
195.066110251
 20
81.4141537938
 10
195.0155326776
 20
81.4140775948
 10
194.9643466656
 20
81.4123295421
 10
194.9127903759
 20
81.4088471233
 10
194.8609431957
 20
81.4036095077
 10
194.8087257379
 20
81.3966375461
 10
194.7561380025
 20
81.3879312544
  0
LWPOLYLINE
  5
282
100
AcDbEntity
  8
0
100
AcDbPolyline
 62
7
  6
CONTINUOUS
 90
3
 70
0
 10
195.6959439133
 20
80.3720616135
 10
195.7235780476
 20
80.3588180596
 10
195.749383393
 20
80.3441483264
  0
LWPOLYLINE
  5
283
100
AcDbEntity
  8
0
100
AcDbPolyline
 62
253
  6
CONTINUOUS
 90
16
 70
0
 10
178.3275040576
 20
130.5478016089
 10
178.3034589413
 20
130.4846647549
 10
178.2817622181
 20
130.4229122799
 10
178.2624138882
 20
130.3625442138
 10
178.2455689069
 20
130.3034913392
 10
178.2310723188
 20
130.2458229297
 10
178.2184592574
 20
130.1897467544
 10
178.2077172251
 20
130.1353066549
 10
178.1988587195
 20
130.0824588499
 10
178.1914563669
 20
130.0312796782
 10
178.1854908933
 20
129.9819204791
 10
178.1809815728
 20
129.9342299711
 10
178.1775588532
 20
129.8878305554
 10
178.1750995506
 20
129.8425963762
 10
178.173726849
 20
129.7986533275
 10
178.1734407484
 20
129.7560014281
  0
LINE
  5
284
100
AcDbEntity
  8
0
100
AcDbLine
 62
253
  6
CONTINUOUS
 10
178.8956820547
 20
86.1405906787
 11
178.7484160489
 21
86.1364692758
  0
LINE
  5
285
100
AcDbEntity
  8
0
100
AcDbLine
 62
253
  6
CONTINUOUS
 10
178.7484160489
 20
86.1364692758
 11
178.5913120561
 21
86.1333148906
  0
LINE
  5
286
100
AcDbEntity
  8
0
100
AcDbLine
 62
253
  6
CONTINUOUS
 10
178.5913120561
 20
86.1333148906
 11
178.427058169
 21
86.1311814954
  0
LWPOLYLINE
  5
287
100
AcDbEntity
  8
0
100
AcDbPolyline
 62
253
  6
CONTINUOUS
 90
3
 70
0
 10
178.427058169
 20
86.1311814954
 10
178.2584648171
 20
86.1301055934
 10
178.1734407484
 20
86.1299706726
  0
LINE
  5
288
100
AcDbEntity
  8
0
100
AcDbLine
 62
253
  6
CONTINUOUS
 10
203.4037566981
 20
86.1305097779
 11
203.5734407484
 21
86.1299706726
  0
LINE
  5
289
100
AcDbEntity
  8
0
100
AcDbLine
 62
253
  6
CONTINUOUS
 10
203.2369759889
 20
86.1321178696
 11
203.4037566981
 21
86.1305097779
  0
LINE
  5
28A
100
AcDbEntity
  8
0
100
AcDbLine
 62
253
  6
CONTINUOUS
 10
203.0759522851
 20
86.1347674327
 11
203.2369759889
 21
86.1321178696
  0
LWPOLYLINE
  5
28B
100
AcDbEntity
  8
0
100
AcDbPolyline
 62
7
  6
CONTINUOUS
 90
48
 70
0
 10
195.6356891782
 20
81.8027021769
 10
195.6669479956
 20
81.7900571613
 10
195.6984170722
 20
81.7747482129
 10
195.7300964081
 20
81.7567753841
 10
195.7621314838
 20
81.7362422332
 10
195.7943768189
 20
81.7130453322
 10
195.8263959713
 20
81.6868742776
 10
195.8584334581
 20
81.6576590532
 10
195.8902447623
 20
81.625469891
 10
195.920659891
 20
81.5902067903
 10
195.9497611243
 20
81.551424233
 10
195.9774661821
 20
81.5095680513
 10
196.0023582322
 20
81.4658752266
 10
196.0240993505
 20
81.4200893747
 10
196.0430274611
 20
81.3724671124
 10
196.0587395041
 20
81.325014737
 10
196.0708300466
 20
81.2779811483
 10
196.0797045215
 20
81.2311174223
 10
196.0861761666
 20
81.1856829165
 10
196.0902745511
 20
81.1420385718
 10
196.0919701059
 20
81.0998232682
 10
196.0919873613
 20
81.0592131865
 10
196.0904292384
 20
81.0203041782
 10
196.087192816
 20
80.9830002196
 10
196.0826938614
 20
80.9471896791
 10
196.0769520781
 20
80.9128600028
 10
196.0699477625
 20
80.8800236046
 10
196.0620375713
 20
80.8486063178
 10
196.0532371217
 20
80.8186203918
 10
196.0435307965
 20
80.7900534585
 10
196.0332284008
 20
80.7627944365
 10
196.0223571715
 20
80.7368450713
 10
196.0108898717
 20
80.7122035219
 10
195.9990545949
 20
80.6887533394
 10
195.986880006
 20
80.6664985496
 10
195.9743374401
 20
80.6454350514
 10
195.9615689965
 20
80.625434216
 10
195.9485721224
 20
80.6064869207
 10
195.9353493706
 20
80.5886022308
 10
195.9220504975
 20
80.5716788084
 10
195.9086723031
 20
80.5557518791
 10
195.8952179875
 20
80.5407861726
 10
195.8818469073
 20
80.5265746154
 10
195.8685692353
 20
80.5131058317
 10
195.8553747987
 20
80.5003911681
 10
195.8423924366
 20
80.4882576435
 10
195.8296482313
 20
80.4766944067
 10
195.8171161004
 20
80.4657122895
  0
LWPOLYLINE
  5
28C
100
AcDbEntity
  8
0
100
AcDbPolyline
 62
7
  6
CONTINUOUS
 90
22
 70
0
 10
195.749383393
 20
80.3441483264
 10
195.7733599496
 20
80.3280524441
 10
195.7953895624
 20
80.3102643249
 10
195.8155903864
 20
80.2910501306
 10
195.8343168864
 20
80.2712082482
 10
195.8515459708
 20
80.2508933267
 10
195.8673007312
 20
80.229950751
 10
195.8820049069
 20
80.20871498
 10
195.8957166307
 20
80.1872218835
 10
195.9083777697
 20
80.1654356099
 10
195.9202376641
 20
80.143583019
 10
195.9313238999
 20
80.1216842291
 10
195.941608891
 20
80.0997191266
 10
195.9512592198
 20
80.0778542108
 10
195.9602806424
 20
80.0561330376
 10
195.9686674026
 20
80.0345120446
 10
195.9765688141
 20
80.0130270469
 10
195.9839775248
 20
79.9917169816
 10
195.9909008868
 20
79.970542903
 10
195.9975102708
 20
79.9494238034
 10
196.0037922764
 20
79.9283629031
 10
196.009760304
 20
79.907356979
  0
LWPOLYLINE
  5
28D
100
AcDbEntity
  8
0
100
AcDbPolyline
 62
253
  6
CONTINUOUS
 90
25
 70
0
 10
178.3275040576
 20
85.3381704918
 10
178.368487628
 20
85.2429659203
 10
178.4140536806
 20
85.1500375757
 10
178.4642022156
 20
85.0593852934
 10
178.5190795915
 20
84.9707212757
 10
178.5785394497
 20
84.884333009
 10
178.6421427141
 20
84.8010831865
 10
178.709940255
 20
84.7210219494
 10
178.7818812021
 20
84.644098703
 10
178.8573738684
 20
84.5710249208
 10
178.9364486397
 20
84.5018568433
 10
179.0190751301
 20
84.4365377165
 10
179.1045704951
 20
84.3756094494
 10
179.1929717264
 20
84.3191179098
 10
179.2842418323
 20
84.2670167265
 10
179.3775869923
 20
84.2197094183
 10
179.4731048202
 20
84.1772426251
 10
179.5706977022
 20
84.1395692741
 10
179.6692789767
 20
84.1069523148
 10
179.7687052673
 20
84.0794971597
 10
179.8691199505
 20
84.0570980832
 10
179.9698664934
 20
84.0397013573
 10
180.0707260519
 20
84.0272890215
 10
180.1719174703
 20
84.0198788821
 10
180.2734407484
 20
84.0174709004
  0
LWPOLYLINE
  5
28E
100
AcDbEntity
  8
0
100
AcDbPolyline
 62
253
  6
CONTINUOUS
 90
16
 70
0
 10
178.1734407484
 20
86.1299706726
 10
178.173791116
 20
86.085395235
 10
178.1752694327
 20
86.0397950098
 10
178.1778756986
 20
85.9931700128
 10
178.1815081132
 20
85.9456207626
 10
178.186268477
 20
85.8970467719
 10
178.1924621917
 20
85.8471465533
 10
178.2000623444
 20
85.7958382993
 10
178.209095848
 20
85.7432038636
 10
178.2199488421
 20
85.6891872574
 10
178.232622052
 20
85.6336876473
 10
178.2471147523
 20
85.5768059196
 10
178.2638109066
 20
85.5187886614
 10
178.2828385029
 20
85.4597180821
 10
178.3040695532
 20
85.3995120175
 10
178.3275040576
 20
85.3381704918
  0
LINE
  5
28F
100
AcDbEntity
  8
0
100
AcDbLine
 62
253
  6
CONTINUOUS
 10
178.1734407484
 20
129.7560014281
 11
178.1734407484
 21
86.1299706726
  0
LINE
  5
290
100
AcDbEntity
  8
0
100
AcDbLine
 62
253
  6
CONTINUOUS
 10
202.7429239832
 20
130.2627768991
 11
202.8805444829
 21
130.3228412215
  0
LINE
  5
291
100
AcDbEntity
  8
0
100
AcDbLine
 62
253
  6
CONTINUOUS
 10
202.8805444829
 20
130.3228412215
 11
203.0276072378
 21
130.3857033019
  0
LINE
  5
292
100
AcDbEntity
  8
0
100
AcDbLine
 62
253
  6
CONTINUOUS
 10
203.0276072378
 20
130.3857033019
 11
203.1815351666
 21
130.4502615654
  0
LWPOLYLINE
  5
293
100
AcDbEntity
  8
0
100
AcDbPolyline
 62
253
  6
CONTINUOUS
 90
3
 70
0
 10
203.1815351666
 20
130.4502615654
 10
203.3396308848
 20
130.5153847135
 10
203.4193774394
 20
130.5478013346
  0
LINE
  5
294
100
AcDbEntity
  8
0
100
AcDbLine
 62
253
  6
CONTINUOUS
 10
203.2602340781
 20
85.4031480494
 11
203.4193774393
 21
85.338170571
  0
LINE
  5
295
100
AcDbEntity
  8
0
100
AcDbLine
 62
253
  6
CONTINUOUS
 10
203.1038794622
 20
85.468131236
 11
203.2602340781
 21
85.4031480494
  0
LINE
  5
296
100
AcDbEntity
  8
0
100
AcDbLine
 62
253
  6
CONTINUOUS
 10
202.953053491
 20
85.5319813902
 11
203.1038794622
 21
85.468131236
  0
LINE
  5
297
100
AcDbEntity
  8
0
100
AcDbLine
 62
7
  6
CONTINUOUS
 10
185.3697727484
 20
81.8648880504
 11
186.2573337484
 21
79.0651850504
  0
LINE
  5
298
100
AcDbEntity
  8
0
100
AcDbLine
 62
7
  6
CONTINUOUS
 10
186.0046207484
 20
81.8648880504
 11
186.5382947484
 21
79.9377660504
  0
LINE
  5
299
100
AcDbEntity
  8
0
100
AcDbLine
 62
7
  6
CONTINUOUS
 10
179.4734407484
 20
129.692986427
 11
179.4734407484
 21
86.1929856044
  0
LINE
  5
29A
100
AcDbEntity
  8
0
100
AcDbLine
 62
253
  6
CONTINUOUS
 10
180.2734407484
 20
85.3929860504
 11
180.2734407484
 21
84.0174709004
  0
LINE
  5
29B
100
AcDbEntity
  8
0
100
AcDbLine
 62
253
  6
CONTINUOUS
 10
180.2734407484
 20
130.4929860504
 11
180.2734407484
 21
131.8685012003
  0
LWPOLYLINE
  5
29C
100
AcDbEntity
  8
0
100
AcDbPolyline
 62
253
  6
CONTINUOUS
 90
16
 70
0
 10
179.5321333051
 20
85.8922200046
 10
179.5309977742
 20
85.8874362476
 10
179.5245840658
 20
85.8805299683
 10
179.5129203087
 20
85.8715314556
 10
179.496057657
 20
85.8604801746
 10
179.4740700657
 20
85.8474245931
 10
179.4470539665
 20
85.8324219694
 10
179.4151278447
 20
85.8155381009
 10
179.3784317196
 20
85.7968470356
 10
179.3371265305
 20
85.7764307475
 10
179.2913934309
 20
85.7543787768
 10
179.2414329938
 20
85.7307878374
 10
179.187464332
 20
85.7057613929
 10
179.1297241377
 20
85.6794092024
 10
179.0684656437
 20
85.6518468395
 10
179.0039575131
 20
85.6231951852
  0
LWPOLYLINE
  5
29D
100
AcDbEntity
  8
0
100
AcDbPolyline
 62
7
  6
CONTINUOUS
 90
19
 70
0
 10
195.4148428088
 20
79.9143231021
 10
195.4054329491
 20
79.9374021156
 10
195.394860564
 20
79.9597538773
 10
195.3831256535
 20
79.9813783627
 10
195.3701997674
 20
80.002383419
 10
195.3561113558
 20
80.0226611548
 10
195.3409457696
 20
80.0418879293
 10
195.3247160192
 20
80.060080512
 10
195.3074090943
 20
80.0772220755
 10
195.289071315
 20
80.0929385671
 10
195.269625764
 20
80.1072168155
 10
195.2491493587
 20
80.1200699291
 10
195.2279191719
 20
80.1311632638
 10
195.2058942677
 20
80.1403579653
 10
195.1831155819
 20
80.1477928344
 10
195.1599829952
 20
80.153549711
 10
195.1366298013
 20
80.1576558676
 10
195.1129227064
 20
80.1600840078
 10
195.0888617107
 20
80.1608341256
  0
LINE
  5
29E
100
AcDbEntity
  8
0
100
AcDbLine
 62
7
  6
CONTINUOUS
 10
189.4733727484
 20
80.8933390504
 11
190.1589537484
 21
79.0651850504
  0
LINE
  5
29F
100
AcDbEntity
  8
0
100
AcDbLine
 62
7
  6
CONTINUOUS
 10
189.6248907484
 20
81.8648880504
 11
190.2031267484
 21
80.3104840504
  0
LINE
  5
2A0
100
AcDbEntity
  8
0
100
AcDbLine
 62
7
  6
CONTINUOUS
 10
193.1628307484
 20
81.8648880504
 11
194.0218487484
 21
79.0651850504
  0
LINE
  5
2A1
100
AcDbEntity
  8
0
100
AcDbLine
 62
7
  6
CONTINUOUS
 10
193.2545147484
 20
79.6241050504
 11
193.4059067484
 21
79.0651850504
  0
LWPOLYLINE
  5
2A2
100
AcDbEntity
  8
0
100
AcDbPolyline
 62
253
  6
CONTINUOUS
 90
18
 70
0
 10
179.5321319629
 20
129.9937526409
 10
179.5309964416
 20
129.9985364032
 10
179.5245827524
 20
130.005442684
 10
179.5129190238
 20
130.0144411943
 10
179.4960564095
 20
130.0254924694
 10
179.4740688643
 20
130.0385480413
 10
179.4470528192
 20
130.0535506522
 10
179.4151267587
 20
130.0704345049
 10
179.3784307015
 20
130.0891255516
 10
179.337125586
 20
130.1095418188
 10
179.2913925646
 20
130.1315937666
 10
179.2414322091
 20
130.1551846814
 10
179.1874636315
 20
130.1802111003
 10
179.1297235225
 20
130.2065632645
 10
179.0684651135
 20
130.2341256011
 10
179.0039570666
 20
130.2627772294
 10
178.9364822954
 20
130.2923924917
 10
178.793827994
 20
130.3539907254
  0
LINE
  5
2A3
100
AcDbEntity
  8
0
100
AcDbLine
 62
7
  6
CONTINUOUS
 10
191.3657487484
 20
81.8648880504
 11
191.6275527484
 21
79.0651850504
  0
LINE
  5
2A4
100
AcDbEntity
  8
0
100
AcDbLine
 62
7
  6
CONTINUOUS
 10
190.9357777484
 20
80.8857170504
 11
191.0558467484
 21
79.0651850504
  0
LINE
  5
2A5
100
AcDbEntity
  8
0
100
AcDbLine
 62
7
  6
CONTINUOUS
 10
187.8891557484
 20
81.8650560504
 11
187.8891557484
 21
79.0651850504
  0
LINE
  5
2A6
100
AcDbEntity
  8
0
100
AcDbLine
 62
7
  6
CONTINUOUS
 10
188.4735637484
 20
81.8650560504
 11
188.4735637484
 21
79.0651850504
  0
LINE
  5
2A7
100
AcDbEntity
  8
0
100
AcDbLine
 62
7
  6
CONTINUOUS
 10
189.4733727484
 20
80.8933390504
 11
189.3472577484
 21
79.0651850504
  0
LINE
  5
2A8
100
AcDbEntity
  8
0
100
AcDbLine
 62
7
  6
CONTINUOUS
 10
189.0409657484
 20
81.8648880504
 11
188.7881687484
 21
79.0651850504
  0
LWPOLYLINE
  5
2A9
100
AcDbEntity
  8
0
100
AcDbPolyline
 62
253
  6
CONTINUOUS
 90
16
 70
0
 10
202.2734407484
 20
129.6929860504
 10
202.2762241482
 20
129.6971074533
 10
202.2845624287
 20
129.7012112077
 10
202.298419884
 20
129.7052797407
 10
202.3177371745
 20
129.7092956303
 10
202.3424315804
 20
129.7132416798
 10
202.3723973566
 20
129.7171009915
 10
202.407506185
 20
129.7208570393
 10
202.4476077242
 20
129.7244937393
 10
202.4925302532
 20
129.7279955186
 10
202.542081407
 20
129.7313473819
 10
202.5960489998
 20
129.7345349761
 10
202.654201934
 20
129.7375446514
 10
202.71629119
 20
129.7403635199
 10
202.782050892
 20
129.7429795109
 10
202.8511994468
 20
129.7453814222
  0
LWPOLYLINE
  5
2AA
100
AcDbEntity
  8
0
100
AcDbPolyline
 62
253
  6
CONTINUOUS
 90
18
 70
0
 10
202.2734407484
 20
86.1929860504
 10
202.2762241482
 20
86.1888646475
 10
202.2845624286
 20
86.1847608931
 10
202.2984198837
 20
86.1806923601
 10
202.3177371739
 20
86.1766764705
 10
202.3424315796
 20
86.1727304211
 10
202.3723973555
 20
86.1688711094
 10
202.4075061836
 20
86.1651150616
 10
202.4476077225
 20
86.1614783616
 10
202.4925302512
 20
86.1579765824
 10
202.5420814047
 20
86.154624719
 10
202.5960489973
 20
86.1514371248
 10
202.6542019314
 20
86.1484274495
 10
202.7162911872
 20
86.145608581
 10
202.7820508891
 20
86.14299259
 10
202.8511994439
 20
86.1405906787
 10
202.9234407469
 20
86.1384131324
 10
203.0759522851
 20
86.1347674327
  0
LWPOLYLINE
  5
2AB
100
AcDbEntity
  8
0
100
AcDbPolyline
 62
7
  6
CONTINUOUS
 90
8
 70
0
 10
195.5044020695
 20
79.6395478472
 10
195.4927178902
 20
79.6791114765
 10
195.4807772703
 20
79.718567221
 10
195.4685799812
 20
79.757910026
 10
195.455909539
 20
79.797155466
 10
195.4426937822
 20
79.8363087278
 10
195.4290048721
 20
79.8753646091
 10
195.4148428088
 20
79.9143231021
  0
LINE
  5
2AC
100
AcDbEntity
  8
0
100
AcDbLine
 62
7
  6
CONTINUOUS
 10
195.6704563703
 20
79.065184696
 11
195.5729934393
 21
79.3992426682
  0
LWPOLYLINE
  5
2AD
100
AcDbEntity
  8
0
100
AcDbPolyline
 62
7
  6
CONTINUOUS
 90
4
 70
0
 10
195.5729934393
 20
79.3992426682
 10
195.5498937969
 20
79.4799866521
 10
195.5385754435
 20
79.5200906877
 10
195.5044020695
 20
79.6395478472
  0
LWPOLYLINE
  5
2AE
100
AcDbEntity
  8
0
100
AcDbPolyline
 62
7
  6
CONTINUOUS
 90
3
 70
0
 10
196.009760304
 20
79.907356979
 10
196.0214596635
 20
79.865207837
 10
196.0271909954
 20
79.8440646228
  0
LINE
  5
2AF
100
AcDbEntity
  8
0
100
AcDbLine
 62
7
  6
CONTINUOUS
 10
196.0271909954
 20
79.8440646228
 11
196.1023824222
 21
79.5620856592
  0
LINE
  5
2B0
100
AcDbEntity
  8
0
100
AcDbLine
 62
7
  6
CONTINUOUS
 10
196.1023824222
 20
79.5620856592
 11
196.2325889604
 21
79.065184696
  0
LINE
  5
2B1
100
AcDbEntity
  8
0
100
AcDbLine
 62
7
  6
CONTINUOUS
 10
192.8691777484
 20
81.0956010504
 11
193.1377207484
 21
80.0565950504
  0
LWPOLYLINE
  5
2B2
100
AcDbEntity
  8
0
100
AcDbPolyline
 62
7
  6
CONTINUOUS
 90
19
 70
0
 10
195.5440928925
 20
81.0542003168
 10
195.5426260963
 20
81.0812795951
 10
195.5390094367
 20
81.1082067587
 10
195.5332429137
 20
81.1349818012
 10
195.5253847035
 20
81.1617712336
 10
195.51537663
 20
81.1884085367
 10
195.5030441643
 20
81.2143941408
 10
195.4882594517
 20
81.2399147504
 10
195.4711503469
 20
81.2647836191
 10
195.451925886
 20
81.2879409488
 10
195.4303605536
 20
81.3091851314
 10
195.4066798651
 20
81.3287176689
 10
195.3817694024
 20
81.3460833867
 10
195.3557131877
 20
81.361110081
 10
195.3284271988
 20
81.3739698596
 10
195.3005449519
 20
81.384724015
 10
195.2722776188
 20
81.3933929605
 10
195.2434140277
 20
81.3999562287
 10
195.2139541785
 20
81.4044138014
  0
LINE
  5
2B3
100
AcDbEntity
  8
0
100
AcDbLine
 62
7
  6
CONTINUOUS
 10
195.544092885
 20
81.054200192
 11
195.5440911485
 21
81.0543154732
  0
LINE
  5
2B4
100
AcDbEntity
  8
0
100
AcDbLine
 62
7
  6
CONTINUOUS
 10
194.1934595507
 20
81.8321787094
 11
194.1934595507
 21
79.065184696
  0
LINE
  5
2B5
100
AcDbEntity
  8
0
100
AcDbLine
 62
7
  6
CONTINUOUS
 10
194.7561380025
 20
81.3879312544
 11
194.7561380025
 21
80.6193579638
  0
LINE
  5
2B6
100
AcDbEntity
  8
0
100
AcDbLine
 62
7
  6
CONTINUOUS
 10
194.7755160933
 20
80.1608341256
 11
194.7755160933
 21
79.065184696
  0
LINE
  5
2B7
100
AcDbEntity
  8
0
100
AcDbLine
 62
7
  6
CONTINUOUS
 10
195.6959439133
 20
80.3886054223
 11
195.6959439133
 21
80.3720616135
  0
LWPOLYLINE
  5
2B8
100
AcDbEntity
  8
0
100
AcDbPolyline
 62
253
  6
CONTINUOUS
 90
16
 70
0
 10
202.2147481755
 20
129.9937520896
 10
202.2158837075
 20
129.9985358458
 10
202.222297417
 20
130.0054421243
 10
202.2339611752
 20
130.0144406361
 10
202.2508238281
 20
130.0254919163
 10
202.2728114205
 20
130.038547497
 10
202.2998275209
 20
130.05355012
 10
202.3317536439
 20
130.0704339878
 10
202.3684497701
 20
130.0891250524
 10
202.4097549603
 20
130.1095413399
 10
202.455488061
 20
130.13159331
 10
202.5054484992
 20
130.1551842487
 10
202.5594171619
 20
130.1802106927
 10
202.6171573571
 20
130.2065628827
 10
202.678415852
 20
130.2341252452
 10
202.7429239832
 20
130.2627768991
  0
LINE
  5
2B9
100
AcDbEntity
  8
0
100
AcDbLine
 62
7
  6
CONTINUOUS
 10
187.0882717484
 20
81.8648880504
 11
186.5382947484
 21
79.9377660504
  0
LINE
  5
2BA
100
AcDbEntity
  8
0
100
AcDbLine
 62
7
  6
CONTINUOUS
 10
187.6722807484
 20
81.8648880504
 11
186.7723437484
 21
79.0651850504
  0
LWPOLYLINE
  5
2BB
100
AcDbEntity
  8
0
100
AcDbPolyline
 62
253
  6
CONTINUOUS
 90
16
 70
0
 10
179.4734407484
 20
86.1929860504
 10
179.4706573487
 20
86.1888646475
 10
179.4623190684
 20
86.1847608931
 10
179.4484616133
 20
86.1806923601
 10
179.4291443231
 20
86.1766764705
 10
179.4044499176
 20
86.1727304211
 10
179.3744841418
 20
86.1688711094
 10
179.3393753138
 20
86.1651150616
 10
179.2992737751
 20
86.1614783616
 10
179.2543512465
 20
86.1579765824
 10
179.2048000932
 20
86.1546247191
 10
179.1508325008
 20
86.1514371249
 10
179.0926795669
 20
86.1484274495
 10
179.0305903112
 20
86.145608581
 10
178.9648306094
 20
86.14299259
 10
178.8956820547
 20
86.1405906787
  0
LWPOLYLINE
  5
2BC
100
AcDbEntity
  8
0
100
AcDbPolyline
 62
253
  6
CONTINUOUS
 90
17
 70
0
 10
179.4734407484
 20
129.6929860504
 10
179.4706573487
 20
129.6971074532
 10
179.4623190683
 20
129.7012112076
 10
179.4484616132
 20
129.7052797407
 10
179.429144323
 20
129.7092956302
 10
179.4044499173
 20
129.7132416796
 10
179.3744841414
 20
129.7171009913
 10
179.3393753133
 20
129.7208570392
 10
179.2992737744
 20
129.7244937392
 10
179.2543512456
 20
129.7279955184
 10
179.2048000922
 20
129.7313473817
 10
179.1508324996
 20
129.7345349759
 10
179.0926795655
 20
129.7375446512
 10
179.0305903097
 20
129.7403635198
 10
178.9648306078
 20
129.7429795107
 10
178.8956820529
 20
129.745381422
 10
178.7484160471
 20
129.7495028249
  0
LWPOLYLINE
  5
2BD
100
AcDbEntity
  8
0
100
AcDbPolyline
 62
253
  6
CONTINUOUS
 90
18
 70
0
 10
202.214749466
 20
85.8922194874
 10
202.2158849876
 20
85.8874357256
 10
202.2222986776
 20
85.880529445
 10
202.2339624075
 20
85.8715309347
 10
202.2508250235
 20
85.8604796596
 10
202.2728125709
 20
85.8474240873
 10
202.2998286187
 20
85.8324214759
 10
202.3317546821
 20
85.8155376225
 10
202.3684507427
 20
85.796846575
 10
202.4097558619
 20
85.7764303068
 10
202.4554888872
 20
85.754378358
 10
202.5054492468
 20
85.7307874421
 10
202.5594178287
 20
85.705761022
 10
202.617157942
 20
85.6794088566
 10
202.6784163553
 20
85.6518465188
 10
202.7429244066
 20
85.6231948893
 10
202.8103991819
 20
85.5935796259
 10
202.953053491
 20
85.5319813902
  0
LWPOLYLINE
  5
2BE
100
AcDbEntity
  8
0
100
AcDbPolyline
 62
253
  6
CONTINUOUS
 90
16
 70
0
 10
203.5734407484
 20
129.7560014281
 10
203.5731346775
 20
129.7991744599
 10
203.5717353668
 20
129.8435411229
 10
203.5692428163
 20
129.8891013994
 10
203.5657789266
 20
129.9357054471
 10
203.5612217971
 20
129.983503073
 10
203.5552057265
 20
130.0329437257
 10
203.547742975
 20
130.0842245664
 10
203.5388212823
 20
130.1371483761
 10
203.528038166
 20
130.1915730263
 10
203.5154101009
 20
130.2475085753
 10
203.5009206123
 20
130.3049449083
 10
203.4841177925
 20
130.3637096406
 10
203.4648510058
 20
130.423745294
 10
203.4432708881
 20
130.4851092929
 10
203.4193774393
 20
130.5478016089
  0
LINE
  5
2BF
100
AcDbEntity
  8
0
100
AcDbLine
 62
253
  6
CONTINUOUS
 10
201.4734407484
 20
85.3929860504
 11
201.4734407484
 21
84.0174709004
  0
LINE
  5
2C0
100
AcDbEntity
  8
0
100
AcDbLine
 62
253
  6
CONTINUOUS
 10
201.4734407484
 20
130.4929860504
 11
201.4734407484
 21
131.8685012003
  0
LINE
  5
2C1
100
AcDbEntity
  8
0
100
AcDbLine
 62
7
  6
CONTINUOUS
 10
202.2734407484
 20
86.1929856736
 11
202.2734407484
 21
129.6929862678
  0
LINE
  5
2C2
100
AcDbEntity
  8
0
100
AcDbLine
 62
253
  6
CONTINUOUS
 10
203.5734407484
 20
86.1299706726
 11
203.5734407484
 21
129.7560014281
  0
LINE
  5
2C3
100
AcDbEntity
  8
0
100
AcDbLine
 62
7
  6
CONTINUOUS
 10
192.8691777484
 20
81.0956010504
 11
192.5781917484
 21
80.0565950504
  0
LINE
  5
2C4
100
AcDbEntity
  8
0
100
AcDbLine
 62
7
  6
CONTINUOUS
 10
192.4586477484
 20
79.6241050504
 11
192.2973877484
 21
79.0651850504
  0
LINE
  5
2C5
100
AcDbEntity
  8
0
100
AcDbLine
 62
7
  6
CONTINUOUS
 10
192.5974857484
 20
81.8648880504
 11
191.7193207484
 21
79.0651850504
  0
LINE
  5
2C6
100
AcDbEntity
  8
0
100
AcDbLine
 62
7
  6
CONTINUOUS
 10
190.7875347484
 20
81.8648880504
 11
190.2031267484
 21
80.3104840504
  0
LINE
  5
2C7
100
AcDbEntity
  8
0
100
AcDbLine
 62
7
  6
CONTINUOUS
 10
190.9357777484
 20
80.8857170504
 11
190.2409167484
 21
79.0651850504
  0
LINE
  5
2C8
100
AcDbEntity
  8
0
100
AcDbLine
 62
253
  6
CONTINUOUS
 10
179.0039575131
 20
85.6231951852
 11
178.8663370146
 21
85.563130862
  0
LINE
  5
2C9
100
AcDbEntity
  8
0
100
AcDbLine
 62
253
  6
CONTINUOUS
 10
178.8663370146
 20
85.563130862
 11
178.7192742603
 21
85.500268781
  0
LINE
  5
2CA
100
AcDbEntity
  8
0
100
AcDbLine
 62
253
  6
CONTINUOUS
 10
178.7192742603
 20
85.500268781
 11
178.5653463315
 21
85.4357105171
  0
LWPOLYLINE
  5
2CB
100
AcDbEntity
  8
0
100
AcDbPolyline
 62
253
  6
CONTINUOUS
 90
3
 70
0
 10
178.5653463315
 20
85.4357105171
 10
178.4072506126
 20
85.3705873686
 10
178.3275040574
 20
85.3381707473
  0
LINE
  5
2CC
100
AcDbEntity
  8
0
100
AcDbLine
 62
253
  6
CONTINUOUS
 10
202.8511994468
 20
129.7453814222
 11
202.9984654524
 21
129.749502825
  0
LINE
  5
2CD
100
AcDbEntity
  8
0
100
AcDbLine
 62
253
  6
CONTINUOUS
 10
178.4866474172
 20
130.482824064
 11
178.3275040576
 21
130.5478015426
  0
LINE
  5
2CE
100
AcDbEntity
  8
0
100
AcDbLine
 62
253
  6
CONTINUOUS
 10
178.6430020289
 20
130.4178408781
 11
178.4866474172
 21
130.482824064
  0
LINE
  5
2CF
100
AcDbEntity
  8
0
100
AcDbLine
 62
253
  6
CONTINUOUS
 10
178.793827994
 20
130.3539907254
 11
178.6430020289
 21
130.4178408781
  0
LWPOLYLINE
  5
2D0
100
AcDbEntity
  8
0
100
AcDbPolyline
 62
253
  6
CONTINUOUS
 90
16
 70
0
 10
203.4193774393
 20
85.3381704918
 10
203.4431296379
 20
85.4004422936
 10
203.4646041759
 20
85.4614553668
 10
203.4838010532
 20
85.5212096847
 10
203.5005810665
 20
85.5797977655
 10
203.5150834191
 20
85.6371270405
 10
203.527725721
 20
85.6929198481
 10
203.5385056195
 20
85.7470480817
 10
203.5474254674
 20
85.799639789
 10
203.5549099325
 20
85.8508015375
 10
203.5609925068
 20
85.900494173
 10
203.5656396984
 20
85.9487568008
 10
203.5691756991
 20
85.9958133844
 10
203.571708573
 20
86.0417385675
 10
203.5731302561
 20
86.0864576695
 10
203.5734407484
 20
86.1299706726
  0
LWPOLYLINE
  5
2D1
100
AcDbEntity
  8
0
100
AcDbPolyline
 62
7
  6
CONTINUOUS
 90
10
 70
0
 10
195.8171161004
 20
80.4657122895
 10
195.79293084
 20
80.4449803379
 10
195.7812777105
 20
80.4352304913
 10
195.7696648312
 20
80.4260500124
 10
195.7581826585
 20
80.4172808876
 10
195.746740736
 20
80.4090811172
 10
195.7348452787
 20
80.4020534237
 10
195.7223316917
 20
80.3963987046
 10
195.7093645699
 20
80.39191604
 10
195.6959439133
 20
80.3886054223
  0
LINE
  5
2D2
100
AcDbEntity
  8
0
100
AcDbLine
 62
253
  6
CONTINUOUS
 10
146.5477321783
 20
130.4595265836
 11
146.6841188471
 21
130.4637700883
  0
LINE
  5
2D3
100
AcDbEntity
  8
0
100
AcDbLine
 62
253
  6
CONTINUOUS
 10
146.5477351738
 20
130.535750083
 11
146.6841217213
 21
130.5400044673
  0
LWPOLYLINE
  5
2D4
100
AcDbEntity
  8
0
100
AcDbPolyline
 62
253
  6
CONTINUOUS
 90
25
 70
0
 10
180.2734407484
 20
131.8685012003
 10
180.1720115396
 20
131.8661255768
 10
180.0708047452
 20
131.8587132511
 10
179.9698203653
 20
131.8462641844
 10
179.8687593133
 20
131.8287772163
 10
179.7679206757
 20
131.806253351
 10
179.6682017125
 20
131.7786957577
 10
179.5695822285
 20
131.7460234238
 10
179.4720824188
 20
131.70831705
 10
179.3766601286
 20
131.6658223475
 10
179.2833706444
 20
131.6184863887
 10
179.1921586797
 20
131.5663616683
 10
179.1038162197
 20
131.5098520303
 10
179.018376944
 20
131.4489074045
 10
178.935807173
 20
131.383577358
 10
178.8567978526
 20
131.3144152237
 10
178.7813864895
 20
131.2413702348
 10
178.7095355769
 20
131.1644926473
 10
178.6418235403
 20
131.0844874011
 10
178.5782995032
 20
131.0013068487
 10
178.518914342
 20
130.9149981861
 10
178.4640991114
 20
130.8264087327
 10
178.4139974963
 20
130.7358208496
 10
178.3684658116
 20
130.6429518633
 10
178.3275040576
 20
130.5478016089
  0
LINE
  5
2D5
100
AcDbEntity
  8
0
100
AcDbLine
 62
253
  6
CONTINUOUS
 10
146.6841188471
 20
130.4637700883
 11
146.8299212605
 21
130.4671391385
  0
LINE
  5
2D6
100
AcDbEntity
  8
0
100
AcDbLine
 62
253
  6
CONTINUOUS
 10
146.6841217213
 20
130.5400044673
 11
146.8299239759
 21
130.5433812001
  0
LINE
  5
2D7
100
AcDbEntity
  8
0
100
AcDbLine
 62
253
  6
CONTINUOUS
 10
202.9984654524
 20
129.749502825
 11
203.1555694447
 21
129.7526572102
  0
LINE
  5
2D8
100
AcDbEntity
  8
0
100
AcDbLine
 62
253
  6
CONTINUOUS
 10
146.8299212605
 20
130.4671391385
 11
146.9829141755
 21
130.4695823156
  0
LINE
  5
2D9
100
AcDbEntity
  8
0
100
AcDbLine
 62
253
  6
CONTINUOUS
 10
146.8299239759
 20
130.5433812001
 11
146.9829167032
 21
130.5458287457
  0
LINE
  5
2DA
100
AcDbEntity
  8
0
100
AcDbLine
 62
253
  6
CONTINUOUS
 10
203.1555694447
 20
129.7526572102
 11
203.3198233306
 21
129.7547906053
  0
LINE
  5
2DB
100
AcDbEntity
  8
0
100
AcDbLine
 62
253
  6
CONTINUOUS
 10
146.9829141755
 20
130.4695823156
 11
147.1407626075
 21
130.4710623318
  0
LINE
  5
2DC
100
AcDbEntity
  8
0
100
AcDbLine
 62
253
  6
CONTINUOUS
 10
146.9829167032
 20
130.5458287457
 11
147.1407649278
 21
130.5473097496
  0
LWPOLYLINE
  5
2DD
100
AcDbEntity
  8
0
100
AcDbPolyline
 62
253
  6
CONTINUOUS
 90
3
 70
0
 10
203.3198233306
 20
129.7547906053
 10
203.4884166807
 20
129.7558665074
 10
203.5734407484
 20
129.7560014281
  0
LINE
  5
2DE
100
AcDbEntity
  8
0
100
AcDbLine
 62
253
  6
CONTINUOUS
 10
147.1407626075
 20
130.4710623318
 11
147.3010574667
 21
130.4715565989
  0
LINE
  5
2DF
100
AcDbEntity
  8
0
100
AcDbLine
 62
253
  6
CONTINUOUS
 10
147.1407649278
 20
130.5473097496
 11
147.3010595697
 21
130.5478016087
  0
LINE
  5
2E0
100
AcDbEntity
  8
0
100
AcDbLine
 62
253
  6
CONTINUOUS
 10
235.8734407484
 20
130.4121727156
 11
235.7408646949
 21
130.4121727156
  0
LINE
  5
2E1
100
AcDbEntity
  8
0
100
AcDbLine
 62
253
  6
CONTINUOUS
 10
145.8734407484
 20
130.4121727156
 11
146.006016802
 21
130.4121727156
  0
LINE
  5
2E2
100
AcDbEntity
  8
0
100
AcDbLine
 62
7
  6
CONTINUOUS
 10
201.4734529198
 20
130.4929860504
 11
180.27342405
 21
130.4929860504
  0
LINE
  5
2E3
100
AcDbEntity
  8
0
100
AcDbLine
 62
253
  6
CONTINUOUS
 10
147.3010595695
 20
130.5477947593
 11
178.3275040576
 21
130.5478016089
  0
LINE
  5
2E4
100
AcDbEntity
  8
0
100
AcDbLine
 62
253
  6
CONTINUOUS
 10
201.4734407484
 20
131.8685012003
 11
180.2734407484
 21
131.8685012003
  0
LINE
  5
2E5
100
AcDbEntity
  8
0
100
AcDbLine
 62
253
  6
CONTINUOUS
 10
234.5261225883
 20
130.5476801479
 11
203.4193774393
 21
130.5478016089
  0
LINE
  5
2E6
100
AcDbEntity
  8
0
100
AcDbLine
 62
253
  6
CONTINUOUS
 10
234.606118889
 20
130.4710623316
 11
234.4458240301
 21
130.4715565987
  0
LINE
  5
2E7
100
AcDbEntity
  8
0
100
AcDbLine
 62
253
  6
CONTINUOUS
 10
178.3431247988
 20
129.7554623228
 11
178.1734407484
 21
129.7560014281
  0
LINE
  5
2E8
100
AcDbEntity
  8
0
100
AcDbLine
 62
253
  6
CONTINUOUS
 10
234.6854983617
 20
130.5466918292
 11
234.5261225883
 21
130.5476801479
  0
LINE
  5
2E9
100
AcDbEntity
  8
0
100
AcDbLine
 62
253
  6
CONTINUOUS
 10
234.7639673206
 20
130.4695823154
 11
234.606118889
 21
130.4710623316
  0
LINE
  5
2EA
100
AcDbEntity
  8
0
100
AcDbLine
 62
253
  6
CONTINUOUS
 10
178.509905508
 20
129.7538542312
 11
178.3431247988
 21
129.7554623228
  0
LINE
  5
2EB
100
AcDbEntity
  8
0
100
AcDbLine
 62
253
  6
CONTINUOUS
 10
234.8412161926
 20
130.5447237963
 11
234.6854983617
 21
130.5466918292
  0
LINE
  5
2EC
100
AcDbEntity
  8
0
100
AcDbLine
 62
253
  6
CONTINUOUS
 10
234.9169602352
 20
130.4671391383
 11
234.7639673206
 21
130.4695823154
  0
LINE
  5
2ED
100
AcDbEntity
  8
0
100
AcDbLine
 62
253
  6
CONTINUOUS
 10
234.9908995152
 20
130.5418060855
 11
234.8412161926
 21
130.5447237963
  0
LWPOLYLINE
  5
2EE
100
AcDbEntity
  8
0
100
AcDbPolyline
 62
253
  6
CONTINUOUS
 90
3
 70
0
 10
178.7484160471
 20
129.7495028249
 10
178.6709292118
 20
129.7512046681
 10
178.509905508
 20
129.7538542312
  0
LINE
  5
2EF
100
AcDbEntity
  8
0
100
AcDbLine
 62
253
  6
CONTINUOUS
 10
235.0627626483
 20
130.4637700881
 11
234.9169602352
 21
130.4671391383
  0
LWPOLYLINE
  5
2F0
100
AcDbEntity
  8
0
100
AcDbPolyline
 62
253
  6
CONTINUOUS
 90
25
 70
0
 10
203.4193774393
 20
130.5478016089
 10
203.3783723646
 20
130.643040025
 10
203.3327965848
 20
130.7359844151
 10
203.2826501
 20
130.8266349453
 10
203.2277880188
 20
130.9152735386
 10
203.1683552326
 20
131.0016185865
 10
203.1047864153
 20
131.084825026
 10
203.0370334427
 20
131.1648449775
 10
202.965144439
 20
131.2417267738
 10
202.8896984513
 20
131.3147697837
 10
202.8106581958
 20
131.3839242414
 10
202.7280609563
 20
131.4492404244
 10
202.6425976309
 20
131.5101678393
 10
202.5542336411
 20
131.5666575559
 10
202.4630035654
 20
131.6187590076
 10
202.3697020384
 20
131.6660692793
 10
202.274265657
 20
131.7085366358
 10
202.1767578243
 20
131.7462132451
 10
202.0781633839
 20
131.7788520448
 10
201.9785256879
 20
131.8063671882
 10
201.8778013841
 20
131.8288448339
 10
201.7768452596
 20
131.8462959001
 10
201.6759422433
 20
131.858724078
 10
201.5748074062
 20
131.8661258318
 10
201.4734407484
 20
131.8685012003
  0
LWPOLYLINE
  5
2F1
100
AcDbEntity
  8
0
100
AcDbPolyline
 62
253
  6
CONTINUOUS
 90
16
 70
0
 10
235.7408646944
 20
130.4121727156
 10
235.7313842593
 20
130.41616653
 10
235.7169940672
 20
130.4201233274
 10
235.6977490764
 20
130.4240279961
 10
235.6737227867
 20
130.4278656236
 10
235.6450069582
 20
130.4316215533
 10
235.6117112611
 20
130.4352814408
 10
235.573962857
 20
130.4388313083
 10
235.531905913
 20
130.4422575985
 10
235.4857010513
 20
130.4455472256
 10
235.4355247353
 20
130.4486876262
 10
235.3815685964
 20
130.4516668066
 10
235.3240387017
 20
130.4544733887
 10
235.2631547667
 20
130.4570966539
 10
235.1991493169
 20
130.4595265834
 10
235.0627626483
 20
130.4637700881
  0
LWPOLYLINE
  5
2F2
100
AcDbEntity
  8
0
100
AcDbPolyline
 62
253
  6
CONTINUOUS
 90
17
 70
0
 10
235.7408623621
 20
130.4882498381
 10
235.7313817826
 20
130.4922569215
 10
235.7169914608
 20
130.4962267371
 10
235.6977463555
 20
130.5001441238
 10
235.6737199665
 20
130.5039941205
 10
235.6450040542
 20
130.5077620234
 10
235.6117082889
 20
130.5114334423
 10
235.573959832
 20
130.5149943556
 10
235.5319028503
 20
130.5184311637
 10
235.4856979658
 20
130.5217307408
 10
235.4355216416
 20
130.5248804853
 10
235.3815655086
 20
130.527868368
 10
235.3240356331
 20
130.5306829777
 10
235.2631517302
 20
130.533313565
 10
235.1991463245
 20
130.5357500832
 10
235.1322638621
 20
130.5379832269
 10
234.9908995152
 20
130.5418060855
  0
LINE
  5
2F3
100
AcDbEntity
  8
0
100
AcDbLine
 62
253
  6
CONTINUOUS
 10
234.2734407484
 20
62.9429860504
 11
234.2734407484
 21
64.1669229446
  0
LINE
  5
2F4
100
AcDbEntity
  8
0
100
AcDbLine
 62
253
  6
CONTINUOUS
 10
234.2734407484
 20
151.7190491562
 11
234.2734407484
 21
152.9429860504
  0
LINE
  5
2F5
100
AcDbEntity
  8
0
100
AcDbLine
 62
253
  6
CONTINUOUS
 10
234.443891386
 20
151.5484776491
 11
234.4457816854
 21
84.396614771
  0
LINE
  5
2F6
100
AcDbEntity
  8
0
100
AcDbLine
 62
253
  6
CONTINUOUS
 10
234.4457816854
 20
84.396614771
 11
234.4438922024
 21
64.3377510857
  0
LWPOLYLINE
  5
2F7
100
AcDbEntity
  8
0
100
AcDbPolyline
 62
253
  6
CONTINUOUS
 90
15
 70
0
 10
235.7408623619
 20
85.3977222626
 10
235.7313817822
 20
85.3937151793
 10
235.7169914603
 20
85.3897453636
 10
235.6977463549
 20
85.3858279769
 10
235.6737199658
 20
85.3819779803
 10
235.6450040534
 20
85.3782100774
 10
235.611708288
 20
85.3745386585
 10
235.573959831
 20
85.3709777452
 10
235.5319028493
 20
85.3675409371
 10
235.4856979647
 20
85.3642413601
 10
235.4355216406
 20
85.3610916155
 10
235.3815655075
 20
85.3581037328
 10
235.3240356321
 20
85.3552891231
 10
235.2631517292
 20
85.3526585359
 10
235.1991463236
 20
85.3502220177
  0
LWPOLYLINE
  5
2F8
100
AcDbEntity
  8
0
100
AcDbPolyline
 62
253
  6
CONTINUOUS
 90
15
 70
0
 10
235.7408646949
 20
85.4737993852
 10
235.7313842601
 20
85.4698055707
 10
235.7169940682
 20
85.4658487733
 10
235.6977490776
 20
85.4619441046
 10
235.6737227881
 20
85.4581064771
 10
235.6450069597
 20
85.4543505474
 10
235.6117112628
 20
85.4506906599
 10
235.5739628588
 20
85.4471407923
 10
235.5319059149
 20
85.4437145021
 10
235.4857010532
 20
85.440424875
 10
235.4355247372
 20
85.4372844743
 10
235.3815685984
 20
85.434305294
 10
235.3240387035
 20
85.4314987118
 10
235.2631547685
 20
85.4288754467
 10
235.1991493186
 20
85.4264455172
  0
LWPOLYLINE
  5
2F9
100
AcDbEntity
  8
0
100
AcDbPolyline
 62
7
  6
CONTINUOUS
 90
28
 70
0
 10
147.4734407484
 20
152.9429860504
 10
147.3814338906
 20
152.9403356315
 10
147.2896215216
 20
152.9323896254
 10
147.198317964
 20
152.9191565631
 10
147.1077841443
 20
152.9006473124
 10
147.0183385223
 20
152.8768962409
 10
146.9303932253
 20
152.847996529
 10
146.8444623004
 20
152.8141626882
 10
146.7608071811
 20
152.7755303966
 10
146.6794126737
 20
152.7320725876
 10
146.6002398657
 20
152.683699861
 10
146.5236916225
 20
152.6305886944
 10
146.4504037613
 20
152.573177074
 10
146.3808373947
 20
152.5118579316
 10
146.3150121561
 20
152.4466597064
 10
146.2528778888
 20
152.3774949385
 10
146.1945154842
 20
152.3043807208
 10
146.1403635848
 20
152.2277943793
 10
146.090891757
 20
152.1483419351
 10
146.0463328792
 20
152.0664477422
 10
146.0066461065
 20
151.9821230506
 10
145.9718137782
 20
151.8953219951
 10
145.9419843115
 20
151.8062742097
 10
145.917408131
 20
151.7155104891
 10
145.8982187829
 20
151.623488192
 10
145.8844738084
 20
151.5305463159
 10
145.8762040957
 20
151.4369396181
 10
145.8734407484
 20
151.3429860504
  0
LINE
  5
2FA
100
AcDbEntity
  8
0
100
AcDbLine
 62
253
  6
CONTINUOUS
 10
235.7387866601
 20
151.3419313795
 11
235.8734407484
 21
151.3429862514
  0
LINE
  5
2FB
100
AcDbEntity
  8
0
100
AcDbLine
 62
253
  6
CONTINUOUS
 10
147.4734407484
 20
151.7190491562
 11
234.2734407484
 21
151.7190491562
  0
LINE
  5
2FC
100
AcDbEntity
  8
0
100
AcDbLine
 62
253
  6
CONTINUOUS
 10
147.4734430439
 20
152.785092153
 11
234.2734407484
 21
152.785092153
  0
LINE
  5
2FD
100
AcDbEntity
  8
0
100
AcDbLine
 62
7
  6
CONTINUOUS
 10
147.4734407484
 20
152.9429860504
 11
234.2734407484
 21
152.9429860504
  0
LINE
  5
2FE
100
AcDbEntity
  8
0
100
AcDbLine
 62
253
  6
CONTINUOUS
 10
146.0080954554
 20
151.3408757209
 11
145.8734407484
 21
151.3429860504
  0
LWPOLYLINE
  5
2FF
100
AcDbEntity
  8
0
100
AcDbPolyline
 62
253
  6
CONTINUOUS
 90
28
 70
0
 10
234.2734407484
 20
152.785092153
 10
234.3575668718
 20
152.7826754408
 10
234.4414683925
 20
152.7754326785
 10
234.5248632098
 20
152.763379348
 10
234.6074974183
 20
152.7465388915
 10
234.6891221078
 20
152.7249409408
 10
234.7694483852
 20
152.6986424847
 10
234.8481402823
 20
152.6677712308
 10
234.9248406687
 20
152.6324681294
 10
234.9992983913
 20
152.5928372941
 10
235.071393182
 20
152.5489445619
 10
235.1409597114
 20
152.5008941798
 10
235.2076779044
 20
152.4489054114
 10
235.2712856708
 20
152.3931623577
 10
235.3315960482
 20
152.3337912039
 10
235.3884147304
 20
152.2709533372
 10
235.4415536346
 20
152.2048923171
 10
235.4907741675
 20
152.1359408671
 10
235.5358172122
 20
152.064429841
 10
235.5765784838
 20
151.990554019
 10
235.6130046484
 20
151.9144605287
 10
235.6450026894
 20
151.8363691244
 10
235.6724285089
 20
151.7566796443
 10
235.6951859921
 20
151.6756885612
 10
235.7132484909
 20
151.5934921912
 10
235.726567684
 20
151.51026756
 10
235.7350892396
 20
151.4263214019
 10
235.7387725971
 20
151.3419312818
  0
LWPOLYLINE
  5
300
100
AcDbEntity
  8
0
100
AcDbPolyline
 62
253
  6
CONTINUOUS
 90
28
 70
0
 10
234.2734407484
 20
151.7190491562
 10
234.2834376605
 20
151.7187541772
 10
234.2933347433
 20
151.7178851037
 10
234.3031319967
 20
151.7164419339
 10
234.312856384
 20
151.7144173066
 10
234.3224809419
 20
151.7118185766
 10
234.3319247808
 20
151.7086678153
 10
234.3411917294
 20
151.7049654501
 10
234.3502779589
 20
151.7007110413
 10
234.3590910941
 20
151.6959253589
 10
234.3676639596
 20
151.690558634
 10
234.3759637307
 20
151.6846606173
 10
234.383799558
 20
151.6784013608
 10
234.3910772547
 20
151.6718654851
 10
234.3978910075
 20
151.6649683558
 10
234.4043325281
 20
151.657626143
 10
234.4104859095
 20
151.649746361
 10
234.4162670585
 20
151.6414214721
 10
234.421515407
 20
151.6328450712
 10
234.426182174
 20
151.6240433244
 10
234.4303161404
 20
151.614990052
 10
234.4339030807
 20
151.605800338
 10
234.4369388954
 20
151.5964958436
 10
234.4394276841
 20
151.5870549
 10
234.4413675201
 20
151.5775276015
 10
234.4427577614
 20
151.5679306448
 10
234.44359905
 20
151.5582473283
 10
234.443891386
 20
151.5484776491
  0
LWPOLYLINE
  5
301
100
AcDbEntity
  8
0
100
AcDbPolyline
 62
7
  6
CONTINUOUS
 90
28
 70
0
 10
235.8734407484
 20
151.3429862514
 10
235.8706766641
 20
151.4369450814
 10
235.8624069682
 20
151.5305490789
 10
235.8486658095
 20
151.6234750159
 10
235.829480512
 20
151.715484924
 10
235.8049046037
 20
151.8062490472
 10
235.7750761478
 20
151.8952973813
 10
235.7402469525
 20
151.982096115
 10
235.7005619351
 20
152.066422928
 10
235.6560032078
 20
152.1483202256
 10
235.6065289277
 20
152.2277770339
 10
235.55236806
 20
152.3043764071
 10
235.4939894084
 20
152.3775115241
 10
235.4318416979
 20
152.4466889142
 10
235.3660113258
 20
152.5118886235
 10
235.296436099
 20
152.5732116282
 10
235.2231385762
 20
152.6306262045
 10
235.1465896526
 20
152.683733609
 10
235.067418396
 20
152.7321011774
 10
234.9860221895
 20
152.7755560772
 10
234.9023727096
 20
152.8141830376
 10
234.8164618464
 20
152.8480067825
 10
234.7285351761
 20
152.8768985384
 10
234.6390958929
 20
152.9006476591
 10
234.5485681958
 20
152.9191558403
 10
234.4572711241
 20
152.932388262
 10
234.3654565797
 20
152.9403350277
 10
234.2734407484
 20
152.9429860504
  0
LINE
  5
302
100
AcDbEntity
  8
0
100
AcDbLine
 62
253
  6
CONTINUOUS
 10
235.7387866601
 20
151.3419313795
 11
235.7408623621
 21
85.3977222626
  0
LINE
  5
303
100
AcDbEntity
  8
0
100
AcDbLine
 62
7
  6
CONTINUOUS
 10
235.8734407484
 20
151.3429862514
 11
235.8734407484
 21
64.5429860504
  0
LINE
  5
304
100
AcDbEntity
  8
0
100
AcDbLine
 62
253
  6
CONTINUOUS
 10
235.7408623621
 20
85.3977222626
 11
235.7387860415
 21
64.5450963798
  0
LWPOLYLINE
  5
305
100
AcDbEntity
  8
0
100
AcDbPolyline
 62
253
  6
CONTINUOUS
 90
46
 70
0
 10
234.4438922024
 20
64.3377510857
 10
234.4435449043
 20
64.3280482859
 10
234.4427748141
 20
64.3186934505
 10
234.4415819316
 20
64.3096865691
 10
234.4399297351
 20
64.3010393681
 10
234.4378547463
 20
64.292740101
 10
234.4354665309
 20
64.28475355
 10
234.4327387612
 20
64.2770118538
 10
234.4296977647
 20
64.269582859
 10
234.4265320897
 20
64.2626349059
 10
234.4233100854
 20
64.2562997137
 10
234.4199634025
 20
64.2504455408
 10
234.4164755421
 20
64.2448455382
 10
234.4127707638
 20
64.2393763705
 10
234.4089248079
 20
64.2341613655
 10
234.4051483962
 20
64.2293436714
 10
234.4015407169
 20
64.2250330347
 10
234.3980025819
 20
64.2211196961
 10
234.3944471477
 20
64.2174175455
 10
234.3908754786
 20
64.2139028459
 10
234.3872865104
 20
64.2105993297
 10
234.3835902067
 20
64.2073920946
 10
234.3797336603
 20
64.2042280445
 10
234.3757697785
 20
64.2011602739
 10
234.3717672462
 20
64.1982331677
 10
234.3677532719
 20
64.1954648232
 10
234.3637006471
 20
64.1928371404
 10
234.3595964322
 20
64.1903402073
 10
234.3554563235
 20
64.1879800817
 10
234.3512646246
 20
64.1857507037
 10
234.3469613063
 20
64.1836239864
 10
234.3424994351
 20
64.1815801011
 10
234.3379259446
 20
64.1796388751
 10
234.3333216063
 20
64.1778317052
 10
234.3287203583
 20
64.1761685693
 10
234.3240882625
 20
64.174639488
 10
234.3194042765
 20
64.1732459216
 10
234.3146809283
 20
64.1719896545
 10
234.3099056899
 20
64.1708689012
 10
234.3050199355
 20
64.1698797677
 10
234.2999976999
 20
64.169012742
 10
234.2948649483
 20
64.1682773353
 10
234.2896409504
 20
64.1676981883
 10
234.2843321294
 20
64.1672835145
 10
234.2789320621
 20
64.1670251
 10
234.2734407484
 20
64.1669229446
  0
LWPOLYLINE
  5
306
100
AcDbEntity
  8
0
100
AcDbPolyline
 62
253
  6
CONTINUOUS
 90
46
 70
0
 10
235.7387876342
 20
64.5450963548
 10
235.735237248
 20
64.4616909688
 10
235.7272494742
 20
64.3809872009
 10
235.7152379623
 20
64.3031868497
 10
235.6996046566
 20
64.228443568
 10
235.6807457573
 20
64.1568671909
 10
235.659047049
 20
64.0885387376
 10
235.6349087336
 20
64.023548583
 10
235.6087254954
 20
63.9619660301
 10
235.5808624113
 20
63.9038134956
 10
235.5516325789
 20
63.8490258671
 10
235.5213371749
 20
63.7975366943
 10
235.4902859387
 20
63.749303709
 10
235.4588545327
 20
63.7043646776
 10
235.4272553659
 20
63.6625184802
 10
235.3954924047
 20
63.6233741514
 10
235.3638438658
 20
63.5869405417
 10
235.3324376225
 20
63.5530593016
 10
235.3009247754
 20
63.5211253733
 10
235.2694046998
 20
63.4910672526
 10
235.2379578673
 20
63.4627968836
 10
235.2061084816
 20
63.4357770626
 10
235.173882365
 20
63.4099679654
 10
235.1413689857
 20
63.3853826127
 10
235.1081172522
 20
63.3616569045
 10
235.0739689222
 20
63.3387010073
 10
235.0391358994
 20
63.3166798421
 10
235.0036830788
 20
63.2956415625
 10
234.9675842453
 20
63.2755770351
 10
234.9308864578
 20
63.2565192491
 10
234.8937628024
 20
63.2385531516
 10
234.8563350568
 20
63.2217204503
 10
234.8185345951
 20
63.2059734107
 10
234.7802579654
 20
63.1912642944
 10
234.7415772132
 20
63.1776240705
 10
234.7025037066
 20
63.1650602336
 10
234.6628311199
 20
63.153523204
 10
234.622581741
 20
63.1430469718
 10
234.5817869119
 20
63.1336622616
 10
234.5402414341
 20
63.1253532905
 10
234.4979925742
 20
63.1181742251
 10
234.4550402581
 20
63.1121700618
 10
234.4111054093
 20
63.1073590212
 10
234.3661167942
 20
63.1038124256
 10
234.3202138727
 20
63.1016250855
 10
234.273438453
 20
63.1008799495
  0
LWPOLYLINE
  5
307
100
AcDbEntity
  8
0
100
AcDbPolyline
 62
253
  6
CONTINUOUS
 90
25
 70
0
 10
235.738787377
 20
64.5450960987
 10
235.7292154008
 20
64.5311378844
 10
235.7147430208
 20
64.5173104774
 10
235.6954254141
 20
64.5036666019
 10
235.6713362307
 20
64.4902582827
 10
235.6425673128
 20
64.4771366459
 10
235.6092283444
 20
64.464351725
 10
235.5714464332
 20
64.4519522692
 10
235.5293656259
 20
64.4399855579
 10
235.4831463593
 20
64.4284972208
 10
235.4329648483
 20
64.417531063
 10
235.3790124143
 20
64.4071288989
 10
235.3214947555
 20
64.3973303921
 10
235.2606311632
 20
64.3881729047
 10
235.1966536848
 20
64.3796913542
 10
235.1298062402
 20
64.371918081
 10
235.060343691
 20
64.3648827246
 10
234.9885308691
 20
64.3586121109
 10
234.9146415672
 20
64.3531301497
 10
234.8389574946
 20
64.3484577436
 10
234.7617672033
 20
64.3446127085
 10
234.6833649881
 20
64.3416097053
 10
234.6040497641
 20
64.3394601842
 10
234.5241239274
 20
64.338172341
 10
234.4438922024
 20
64.337751086
  0
LWPOLYLINE
  5
308
100
AcDbEntity
  8
0
100
AcDbPolyline
 62
253
  6
CONTINUOUS
 90
25
 70
0
 10
235.7387856235
 20
151.3429860504
 10
235.7292135418
 20
151.3569442838
 10
235.7147410699
 20
151.370771731
 10
235.6954233852
 20
151.3844156738
 10
235.6713341379
 20
151.3978240934
 10
235.6425651701
 20
151.4109458694
 10
235.6092261657
 20
151.423730974
 10
235.5714442321
 20
151.4361306629
 10
235.529363416
 20
151.4480976615
 10
235.4831441536
 20
151.4595863445
 10
235.4329626594
 20
151.4705529105
 10
235.3790102542
 20
151.4809555487
 10
235.3214926357
 20
151.4907545981
 10
235.2606290942
 20
151.4999126993
 10
235.1966516767
 20
151.5083949361
 10
235.1298043019
 20
151.5161689694
 10
235.0603418305
 20
151.5232051602
 10
234.9885290936
 20
151.5294766823
 10
234.9146398828
 20
151.5349596252
 10
234.8389559063
 20
151.5396330848
 10
234.761765715
 20
151.543479243
 10
234.6833636025
 20
151.5464834361
 10
234.6040484829
 20
151.5486342104
 10
234.5241227511
 20
151.5499233659
 10
234.4438911301
 20
151.5503459876
  0
LINE
  5
309
100
AcDbEntity
  8
0
100
AcDbLine
 62
253
  6
CONTINUOUS
 10
122.1140494161
 20
64.5450963798
 11
123.6535387422
 21
64.5429860504
  0
LINE
  5
30A
100
AcDbEntity
  8
0
100
AcDbLine
 62
7
  6
CONTINUOUS
 10
122.1442794275
 20
63.1008799477
 11
123.9490149322
 21
62.9429860504
  0
LINE
  5
30B
100
AcDbEntity
  8
RACCORDO
100
AcDbLine
 62
7
  6
CONTINUOUS
 10
124.0476261194
 20
64.0429860504
 11
123.9036517789
 21
64.055582173
  0
LINE
  5
30C
100
AcDbEntity
  8
0
100
AcDbLine
 62
7
  6
CONTINUOUS
 10
123.6535387422
 20
64.5429860504
 11
123.7232548038
 21
64.5555064935
  0
LWPOLYLINE
  5
30D
100
AcDbEntity
  8
0
100
AcDbPolyline
 62
253
  6
CONTINUOUS
 90
3
 70
0
 10
122.1140502366
 20
64.5450960987
 10
120.9498738926
 20
64.338172341
 10
120.9474317748
 20
64.337751086
  0
LWPOLYLINE
  5
30E
100
AcDbEntity
  8
RACCORDO
100
AcDbPolyline
 62
253
  6
CONTINUOUS
 90
13
 70
0
 10
124.0128105298
 20
64.2337351484
 10
124.1674697549
 20
64.2570417354
 10
124.3221298896
 20
64.2848846825
 10
124.4766390879
 20
64.3172737143
 10
124.6306548135
 20
64.3540304627
 10
124.7841822906
 20
64.3953528468
 10
124.9375675877
 20
64.4418167271
 10
125.0907780302
 20
64.4933607853
 10
125.2434029965
 20
64.5500701016
 10
125.3952092006
 20
64.6127436644
 10
125.545971208
 20
64.6816579835
 10
125.6954855537
 20
64.756564952
 10
125.8435485424
 20
64.8374785266
  0
LINE
  5
30F
100
AcDbEntity
  8
RACCORDO
100
AcDbLine
 62
253
  6
CONTINUOUS
 10
125.8435485424
 20
64.8374785266
 11
123.9062240856
 21
64.8257745381
  0
LINE
  5
310
100
AcDbEntity
  8
RACCORDO
100
AcDbLine
 62
253
  6
CONTINUOUS
 10
123.8682995596
 20
65.03946434
 11
123.6363115882
 21
65.0597719045
  0
LINE
  5
311
100
AcDbEntity
  8
0
100
AcDbLine
 62
253
  6
CONTINUOUS
 10
121.2575513778
 20
85.4737993852
 11
121.3272753021
 21
85.477306249
  0
LINE
  5
312
100
AcDbEntity
  8
0
100
AcDbLine
 62
253
  6
CONTINUOUS
 10
119.7460174792
 20
85.3977222626
 11
118.5609600503
 21
85.338170492
  0
LINE
  5
313
100
AcDbEntity
  8
0
100
AcDbLine
 62
253
  6
CONTINUOUS
 10
119.7422001514
 20
85.4737993852
 11
118.5571316799
 21
85.4144155018
  0
LINE
  5
314
100
AcDbEntity
  8
0
100
AcDbLine
 62
253
  6
CONTINUOUS
 10
126.5609600473
 20
85.5743768578
 11
123.8295506766
 21
85.5290237557
  0
LINE
  5
315
100
AcDbEntity
  8
0
100
AcDbLine
 62
253
  6
CONTINUOUS
 10
123.8295506766
 20
85.5290237557
 11
121.5550436686
 21
85.493652717
  0
LINE
  5
316
100
AcDbEntity
  8
0
100
AcDbLine
 62
253
  6
CONTINUOUS
 10
121.2575513778
 20
85.4737993852
 11
119.7422001514
 21
85.4737993852
  0
LINE
  5
317
100
AcDbEntity
  8
RACCORDO
100
AcDbLine
 62
253
  6
CONTINUOUS
 10
121.3272753021
 20
85.493652717
 11
121.5550436686
 21
85.493652717
  0
LWPOLYLINE
  5
318
100
AcDbEntity
  8
RACCORDO
100
AcDbPolyline
 62
253
  6
CONTINUOUS
 90
19
 70
0
 10
125.8435484351
 20
64.8374785196
 10
125.8657186092
 20
64.7896636894
 10
125.8855058299
 20
64.7419277362
 10
125.9028157356
 20
64.6944983047
 10
125.9175657785
 20
64.6476015776
 10
125.9296856184
 20
64.6014611973
 10
125.939117458
 20
64.5562971996
 10
125.9458163188
 20
64.512324964
 10
125.9497502554
 20
64.4697541861
 10
125.9509005077
 20
64.4287878788
 10
125.9492615908
 20
64.3896214032
 10
125.9448413205
 20
64.3524415373
 10
125.9376607768
 20
64.3174255852
 10
125.9277542027
 20
64.2847405317
 10
125.9151688412
 20
64.2545422461
 10
125.8999647098
 20
64.2269747382
 10
125.8822143147
 20
64.2021694727
 10
125.8620023045
 20
64.1802447413
 10
125.839425067
 20
64.1613050991
  0
LINE
  5
319
100
AcDbEntity
  8
0
100
AcDbLine
 62
7
  6
CONTINUOUS
 10
124.0187395264
 20
63.7399418088
 11
123.8988405885
 21
64.0688433952
  0
LINE
  5
31A
100
AcDbEntity
  8
0
100
AcDbLine
 62
7
  6
CONTINUOUS
 10
123.8988405885
 20
64.0688433952
 11
123.7232547888
 21
64.555506523
  0
LINE
  5
31B
100
AcDbEntity
  8
0
100
AcDbLine
 62
7
  6
CONTINUOUS
 10
123.7232548128
 20
151.3304657223
 11
123.9489506733
 21
151.9550574764
  0
LINE
  5
31C
100
AcDbEntity
  8
0
100
AcDbLine
 62
7
  6
CONTINUOUS
 10
123.9489506733
 20
151.9550574764
 11
124.0182138053
 21
152.1446003743
  0
LWPOLYLINE
  5
31D
100
AcDbEntity
  8
0
100
AcDbPolyline
 62
7
  6
CONTINUOUS
 90
10
 70
0
 10
123.6535387783
 20
151.3429862514
 10
123.2557115966
 20
149.0346027875
 10
122.8907452902
 20
146.7208152318
 10
122.5586402653
 20
144.4020900243
 10
122.2593439054
 20
142.0788934703
 10
121.9929096392
 20
139.7516921504
 10
121.7594969406
 20
137.4209529228
 10
121.5591592381
 20
135.087142375
 10
121.3918439151
 20
132.7507268215
 10
121.2575513778
 20
130.4121727156
  0
LWPOLYLINE
  5
31E
100
AcDbEntity
  8
0
100
AcDbPolyline
 62
7
  6
CONTINUOUS
 90
10
 70
0
 10
123.7232548417
 20
151.3304658385
 10
123.3254289881
 20
149.0230996309
 10
122.9604638927
 20
146.7103239621
 10
122.6283599631
 20
144.3926058865
 10
122.329064585
 20
142.0704123259
 10
122.0626311883
 20
139.7442104728
 10
121.8292192474
 20
137.4144677932
 10
121.6288821921
 20
135.0816514864
 10
121.4615674077
 20
132.7462284834
 10
121.3272753021
 20
130.4086658517
  0
LWPOLYLINE
  5
31F
100
AcDbEntity
  8
0
100
AcDbPolyline
 62
253
  6
CONTINUOUS
 90
22
 70
0
 10
122.1142460635
 20
151.3419313795
 10
121.9316248391
 20
150.2943279891
 10
121.7564834812
 20
149.2518144145
 10
121.5888211154
 20
148.2144539233
 10
121.42874398
 20
147.1822849457
 10
121.2761441028
 20
146.1553906021
 10
121.1306992907
 20
145.1338989448
 10
120.9924131501
 20
144.117904373
 10
120.8612803403
 20
143.1074249009
 10
120.7369652507
 20
142.1024717253
 10
120.6194649949
 20
141.1030953698
 10
120.5087807666
 20
140.1093481932
 10
120.404583093
 20
139.1212417102
 10
120.3068691345
 20
138.1388220296
 10
120.2156400744
 20
137.1621369827
 10
120.1305724899
 20
136.1911983932
 10
120.0516635956
 20
135.2260484291
 10
119.9789145553
 20
134.2667304028
 10
119.9120078851
 20
133.3132557263
 10
119.8508372293
 20
132.3656540047
 10
119.7955073565
 20
131.4239730997
 10
119.7460174792
 20
130.4882498381
  0
LINE
  5
320
100
AcDbEntity
  8
0
100
AcDbLine
 62
7
  6
CONTINUOUS
 10
123.6535387783
 20
151.3429862514
 11
123.7851221996
 21
152.066422928
  0
LINE
  5
321
100
AcDbEntity
  8
0
100
AcDbLine
 62
7
  6
CONTINUOUS
 10
123.7851221996
 20
152.066422928
 11
123.9246257645
 21
152.8141830376
  0
LINE
  5
322
100
AcDbEntity
  8
0
100
AcDbLine
 62
7
  6
CONTINUOUS
 10
123.9246257645
 20
152.8141830376
 11
123.9490149322
 21
152.9429860504
  0
LINE
  5
323
100
AcDbEntity
  8
0
100
AcDbLine
 62
7
  6
CONTINUOUS
 10
123.9490149322
 20
62.9429860504
 11
123.8149270503
 21
63.6581777214
  0
LINE
  5
324
100
AcDbEntity
  8
0
100
AcDbLine
 62
7
  6
CONTINUOUS
 10
123.8149270503
 20
63.6581777214
 11
123.68733455
 21
64.3554257848
  0
LINE
  5
325
100
AcDbEntity
  8
0
100
AcDbLine
 62
7
  6
CONTINUOUS
 10
123.68733455
 20
64.3554257848
 11
123.6535387422
 21
64.5429860504
  0
LWPOLYLINE
  5
326
100
AcDbEntity
  8
0
100
AcDbPolyline
 62
253
  6
CONTINUOUS
 90
21
 70
0
 10
119.7954606901
 20
84.4628007384
 10
119.8507413957
 20
83.5218508549
 10
119.9118603922
 20
82.5749094334
 10
119.9787117814
 20
81.6220242482
 10
120.051403066
 20
80.6632250205
 10
120.130255153
 20
79.6985234823
 10
120.2152668411
 20
78.7279630674
 10
120.3064409712
 20
77.7515859336
 10
120.4041045281
 20
76.7694040496
 10
120.5082562946
 20
75.7814653504
 10
120.618899163
 20
74.7878160439
 10
120.7363662986
 20
73.7884678053
 10
120.8606564743
 20
72.7834731506
 10
120.9917726291
 20
71.7728827497
 10
121.1300541951
 20
70.756707969
 10
121.2754998757
 20
69.7350063091
 10
121.4281127178
 20
68.7078330216
 10
121.5882386882
 20
67.6751987407
 10
121.7559937093
 20
66.6371480272
 10
121.9312636512
 20
65.5937592408
 10
122.1140494161
 20
64.5450963798
  0
LWPOLYLINE
  5
327
100
AcDbEntity
  8
0
100
AcDbPolyline
 62
7
  6
CONTINUOUS
 90
10
 70
0
 10
121.3272753021
 20
85.477306249
 10
121.4615674061
 20
83.1397436367
 10
121.6288821882
 20
80.8043206532
 10
121.8292192406
 20
78.4715043657
 10
122.0626311781
 20
76.1417617043
 10
122.3290645708
 20
73.8155598694
 10
122.6283599438
 20
71.49336633
 10
122.9604638669
 20
69.1756482798
 10
123.3254289548
 20
66.8628726394
 10
123.7232547996
 20
64.5555064632
  0
LWPOLYLINE
  5
328
100
AcDbEntity
  8
0
100
AcDbPolyline
 62
7
  6
CONTINUOUS
 90
10
 70
0
 10
121.2575513778
 20
85.4737993852
 10
121.3918439136
 20
83.1352453018
 10
121.5591592345
 20
80.798829771
 10
121.7594969343
 20
78.4650192457
 10
121.9929096295
 20
76.1342800406
 10
122.2593438916
 20
73.8070787431
 10
122.5586402469
 20
71.4838822113
 10
122.8907452666
 20
69.165157026
 10
123.2557115671
 20
66.8513694924
 10
123.6535387422
 20
64.5429860504
  0
LINE
  5
329
100
AcDbEntity
  8
0
100
AcDbLine
 62
253
  6
CONTINUOUS
 10
119.7422001514
 20
85.4737993852
 11
119.7954606901
 21
84.4628007384
  0
LWPOLYLINE
  5
32A
100
AcDbEntity
  8
0
100
AcDbPolyline
 62
253
  6
CONTINUOUS
 90
12
 70
0
 10
119.5702902863
 20
126.6697014462
 10
119.429634091
 20
122.9259225619
 10
119.3202315644
 20
119.1810988245
 10
119.24207944
 20
115.4354950479
 10
119.1951809816
 20
111.6893719344
 10
119.1795459849
 20
107.9429860722
 10
119.1951809807
 20
104.1966002188
 10
119.2420794382
 20
100.4504771199
 10
119.3202315622
 20
96.7048733471
 10
119.429634089
 20
92.9600495969
 10
119.570290285
 20
89.216270689
 10
119.7422001514
 20
85.4737993852
  0
LWPOLYLINE
  5
32B
100
AcDbEntity
  8
0
100
AcDbPolyline
 62
7
  6
CONTINUOUS
 90
13
 70
0
 10
121.2575513778
 20
130.4121727156
 10
121.0850147223
 20
126.6696806402
 10
120.9438458708
 20
122.9258892604
 10
120.8340448207
 20
119.1810613484
 10
120.7556085103
 20
115.4354645018
 10
120.7085399951
 20
111.6893566503
 10
120.6928484504
 20
107.9429860504
 10
120.7085399951
 20
104.1966154505
 10
120.7556085103
 20
100.4505075989
 10
120.8340448207
 20
96.7049107523
 10
120.9438458708
 20
92.9600828403
 10
121.0850147223
 20
89.2162914605
 10
121.2575513778
 20
85.4737993852
  0
LWPOLYLINE
  5
32C
100
AcDbEntity
  8
0
100
AcDbPolyline
 62
7
  6
CONTINUOUS
 90
13
 70
0
 10
121.3272753021
 20
130.4086658517
 10
121.1547388518
 20
126.6667593794
 10
121.0135701682
 20
122.9235529894
 10
120.9037692487
 20
119.1793095762
 10
120.8253330316
 20
115.4342968589
 10
120.7782645723
 20
111.6887728899
 10
120.7625730463
 20
107.9429860504
 10
120.7782645723
 20
104.1971992108
 10
120.8253330316
 20
100.4516752419
 10
120.9037692487
 20
96.7066625245
 10
121.0135701682
 20
92.9624191113
 10
121.1547388518
 20
89.2192127213
 10
121.3272753021
 20
85.477306249
  0
LINE
  5
32D
100
AcDbEntity
  8
0
100
AcDbLine
 62
253
  6
CONTINUOUS
 10
119.7460174792
 20
130.4882498381
 11
119.5702902863
 21
126.6697014462
  0
LINE
  5
32E
100
AcDbEntity
  8
RACCORDO
100
AcDbLine
 62
7
  6
CONTINUOUS
 10
126.5609600473
 20
104.090332089
 11
124.7262304118
 21
104.413844426
  0
LINE
  5
32F
100
AcDbEntity
  8
0
100
AcDbLine
 62
253
  6
CONTINUOUS
 10
122.1440276904
 20
63.1121700618
 11
122.1442887444
 21
63.1016250855
  0
LINE
  5
330
100
AcDbEntity
  8
0
100
AcDbLine
 62
253
  6
CONTINUOUS
 10
122.1140502092
 20
64.5450963548
 11
122.1440276904
 21
63.1121700618
  0
LINE
  5
331
100
AcDbEntity
  8
RACCORDO
100
AcDbLine
 62
7
  6
CONTINUOUS
 10
124.5609600473
 20
104.6108059766
 11
124.5609600473
 21
111.2751661241
  0
LINE
  5
332
100
AcDbEntity
  8
0
100
AcDbLine
 62
253
  6
CONTINUOUS
 10
122.1442887444
 20
63.1016250855
 11
122.1442794068
 21
63.1008799495
  0
LINE
  5
333
100
AcDbEntity
  8
0
100
AcDbLine
 62
253
  6
CONTINUOUS
 10
122.1442794275
 20
152.785092153
 11
122.1442389965
 21
152.7826754408
  0
LINE
  5
334
100
AcDbEntity
  8
0
100
AcDbLine
 62
253
  6
CONTINUOUS
 10
122.1442389965
 20
152.7826754408
 11
122.1140722461
 21
151.3419312818
  0
LINE
  5
335
100
AcDbEntity
  8
0
100
AcDbLine
 62
253
  6
CONTINUOUS
 10
124.5609600473
 20
107.9429860504
 11
120.9909600473
 21
107.9429860504
  0
LINE
  5
336
100
AcDbEntity
  8
0
100
AcDbLine
 62
7
  6
CONTINUOUS
 10
123.9490149322
 20
152.9429860504
 11
124.0187395264
 21
152.1460302919
  0
LINE
  5
337
100
AcDbEntity
  8
RACCORDO
100
AcDbLine
 62
7
  6
CONTINUOUS
 10
126.5609600473
 20
64.8429858194
 11
126.5609600473
 21
85.5743768578
  0
LINE
  5
338
100
AcDbEntity
  8
DRAFT
100
AcDbLine
 62
7
  6
CONTINUOUS
 10
126.5609600473
 20
85.5743768578
 11
126.5609600473
 21
104.090332089
  0
LINE
  5
339
100
AcDbEntity
  8
DRAFT
100
AcDbLine
 62
7
  6
CONTINUOUS
 10
126.5609600473
 20
111.7956400118
 11
126.5609600473
 21
130.3115952429
  0
LINE
  5
33A
100
AcDbEntity
  8
RACCORDO
100
AcDbLine
 62
7
  6
CONTINUOUS
 10
126.5609600473
 20
130.3115952429
 11
126.5609600473
 21
151.0429862829
  0
LINE
  5
33B
100
AcDbEntity
  8
0
100
AcDbLine
 62
7
  6
CONTINUOUS
 10
123.9490149322
 20
62.9429860504
 11
124.0187395264
 21
63.7399418088
  0
LINE
  5
33C
100
AcDbEntity
  8
RACCORDO
100
AcDbLine
 62
7
  6
CONTINUOUS
 10
124.7262304118
 20
111.4721276747
 11
126.5609600473
 21
111.7956400118
  0
LINE
  5
33D
100
AcDbEntity
  8
RACCORDO
100
AcDbLine
 62
253
  6
CONTINUOUS
 10
121.3272753021
 20
130.3923193837
 11
121.5550436686
 21
130.3923193837
  0
LINE
  5
33E
100
AcDbEntity
  8
0
100
AcDbLine
 62
253
  6
CONTINUOUS
 10
121.2575513778
 20
130.4121727156
 11
119.7422001514
 21
130.4121727156
  0
LINE
  5
33F
100
AcDbEntity
  8
0
100
AcDbLine
 62
253
  6
CONTINUOUS
 10
126.5609600473
 20
130.3115952429
 11
121.5550436686
 21
130.3923193837
  0
LINE
  5
340
100
AcDbEntity
  8
0
100
AcDbLine
 62
253
  6
CONTINUOUS
 10
119.7422001514
 20
130.4121727156
 11
118.557131685
 21
130.4715565987
  0
LINE
  5
341
100
AcDbEntity
  8
0
100
AcDbLine
 62
253
  6
CONTINUOUS
 10
121.2575513778
 20
130.4121727156
 11
121.3272753021
 21
130.4086658517
  0
LINE
  5
342
100
AcDbEntity
  8
0
100
AcDbLine
 62
253
  6
CONTINUOUS
 10
119.7460174792
 20
130.4882498381
 11
118.5609600473
 21
130.5478016089
  0
LWPOLYLINE
  5
343
100
AcDbEntity
  8
RACCORDO
100
AcDbPolyline
 62
253
  6
CONTINUOUS
 90
19
 70
0
 10
125.8394264198
 20
151.7246688449
 10
125.8620036075
 20
151.7057290809
 10
125.8822155559
 20
151.6838042207
 10
125.8999658784
 20
151.6589988215
 10
125.9151699277
 20
151.6314311771
 10
125.9277551992
 20
151.6012327543
 10
125.937661677
 20
151.5685475657
 10
125.9448421197
 20
151.5335314826
 10
125.9492622864
 20
151.4963514914
 10
125.9509010994
 20
151.4571848976
 10
125.9497507444
 20
151.4162184808
 10
125.9458167085
 20
151.373647603
 10
125.9391177532
 20
151.3296752763
 10
125.9296858256
 20
151.2845111974
 10
125.9175659054
 20
151.2383707457
 10
125.9028157906
 20
151.1914739546
 10
125.8855058218
 20
151.1440444656
 10
125.8657185475
 20
151.096308462
 10
125.8435483298
 20
151.048493588
  0
LWPOLYLINE
  5
344
100
AcDbEntity
  8
RACCORDO
100
AcDbPolyline
 62
253
  6
CONTINUOUS
 90
10
 70
0
 10
125.8435485424
 20
151.0484935741
 10
125.9416573683
 20
150.9895299995
 10
126.0348523432
 20
150.9300890355
 10
126.1232718429
 20
150.8701733763
 10
126.2070872971
 20
150.809613805
 10
126.2864199745
 20
150.7485848276
 10
126.3613346344
 20
150.6876054727
 10
126.4319500454
 20
150.6268513383
 10
126.4984426458
 20
150.5661537899
 10
126.560960046
 20
150.5055161575
  0
LWPOLYLINE
  5
345
100
AcDbEntity
  8
RACCORDO
100
AcDbPolyline
 62
253
  6
CONTINUOUS
 90
13
 70
0
 10
125.8435485424
 20
64.8374785266
 10
125.9250133606
 20
64.8862481652
 10
126.0019047508
 20
64.9344447176
 10
126.0743429214
 20
64.9820648111
 10
126.1422829885
 20
65.0291458231
 10
126.2060194356
 20
65.0756438723
 10
126.2661580239
 20
65.1214340464
 10
126.3228234816
 20
65.1664901618
 10
126.3760832953
 20
65.2108329153
 10
126.426414514
 20
65.2544082695
 10
126.474019184
 20
65.2971967902
 10
126.5188432245
 20
65.3392134104
 10
126.5609600798
 20
65.3804559754
  0
LINE
  5
346
100
AcDbEntity
  8
RACCORDO
100
AcDbLine
 62
253
  6
CONTINUOUS
 10
123.6363116022
 20
150.8262002384
 11
123.8682995596
 21
150.8465077608
  0
LINE
  5
347
100
AcDbEntity
  8
RACCORDO
100
AcDbLine
 62
7
  6
CONTINUOUS
 10
124.0476261194
 20
151.8429860504
 11
123.9036554071
 21
151.8303902452
  0
LINE
  5
348
100
AcDbEntity
  8
0
100
AcDbLine
 62
253
  6
CONTINUOUS
 10
122.1142460635
 20
151.3419313795
 11
123.6535387783
 21
151.3429862514
  0
LINE
  5
349
100
AcDbEntity
  8
RACCORDO
100
AcDbLine
 62
253
  6
CONTINUOUS
 10
125.8435485424
 20
151.0484935741
 11
123.9062240856
 21
151.0601975627
  0
LWPOLYLINE
  5
34A
100
AcDbEntity
  8
RACCORDO
100
AcDbPolyline
 62
253
  6
CONTINUOUS
 90
16
 70
0
 10
124.0128108821
 20
151.6522368927
 10
124.1355814985
 20
151.6340290944
 10
124.2583420225
 20
151.6130149875
 10
124.3810178988
 20
151.5891898259
 10
124.5033551719
 20
151.5626607736
 10
124.6254469503
 20
151.5333111725
 10
124.7477255396
 20
151.5007996996
 10
124.8701781884
 20
151.4651465364
 10
124.9926035523
 20
151.426319905
 10
125.1151316845
 20
151.3838987944
 10
125.2377975521
 20
151.3378918895
 10
125.3602947498
 20
151.2882765703
 10
125.4822489735
 20
151.2345831774
 10
125.6034750101
 20
151.1766496693
 10
125.7239454664
 20
151.1146223939
 10
125.8435485424
 20
151.0484935741
  0
LINE
  5
34B
100
AcDbEntity
  8
0
100
AcDbLine
 62
253
  6
CONTINUOUS
 10
121.0346840703
 20
151.5349596252
 11
120.9478098122
 21
151.5503459876
  0
LINE
  5
34C
100
AcDbEntity
  8
0
100
AcDbLine
 62
253
  6
CONTINUOUS
 10
122.1144236227
 20
151.3429860504
 11
121.0346840703
 21
151.5349596252
  0
LINE
  5
34D
100
AcDbEntity
  8
0
100
AcDbLine
 62
7
  6
CONTINUOUS
 10
123.6535387783
 20
151.3429862514
 11
123.7232548325
 21
151.3304657805
  0
LINE
  5
34E
100
AcDbEntity
  8
0
100
AcDbLine
 62
7
  6
CONTINUOUS
 10
122.1442794275
 20
152.785092153
 11
123.9490149322
 21
152.9429860504
  0
ARC
  5
34F
100
AcDbEntity
  8
0
100
AcDbCircle
 62
7
  6
CONTINUOUS
 10
180.2734407484
 20
129.6929860504
 40
0.8
100
AcDbArc
 50
90.0011959412
 51
179.9999730241
  0
ARC
  5
350
100
AcDbEntity
  8
0
100
AcDbCircle
 62
7
  6
CONTINUOUS
 10
201.4734407484
 20
129.6929860504
 40
0.8
100
AcDbArc
 50
0.0000155758
 51
89.9991282885
  0
ARC
  5
351
100
AcDbEntity
  8
0
100
AcDbCircle
 62
7
  6
CONTINUOUS
 10
201.4734407484
 20
86.1929860504
 40
0.8
100
AcDbArc
 50
270.0010785883
 51
359.9999730189
  0
ARC
  5
352
100
AcDbEntity
  8
0
100
AcDbCircle
 62
7
  6
CONTINUOUS
 10
180.2734407484
 20
86.1929860504
 40
0.8
100
AcDbArc
 50
180.0000319422
 51
269.999393162
  0
ARC
  5
353
100
AcDbEntity
  8
0
100
AcDbCircle
 62
7
  6
CONTINUOUS
 10
286.4696215194
 20
93.7833752519
 40
168.1209091124
100
AcDbArc
 50
182.8793442336
 51
190.1462645046
  0
ARC
  5
354
100
AcDbEntity
  8
0
100
AcDbCircle
 62
7
  6
CONTINUOUS
 10
286.4666734504
 20
93.7863460503
 40
165.12
100
AcDbArc
 50
182.8787323946
 51
190.1014160662
  0
ARC
  5
355
100
AcDbEntity
  8
RACCORDO
100
AcDbCircle
 62
7
  6
CONTINUOUS
 10
286.4666734504
 20
93.7863460503
 40
165.12
100
AcDbArc
 50
190.1014160662
 51
190.5891670948
  0
ARC
  5
356
100
AcDbEntity
  8
RACCORDO
100
AcDbCircle
 62
7
  6
CONTINUOUS
 10
123.4605788527
 20
67.4019367876
 40
4.0200239337
100
AcDbArc
 50
279.9999994914
 51
320.4648724279
  0
ARC
  5
357
100
AcDbEntity
  8
0
100
AcDbCircle
 62
7
  6
CONTINUOUS
 10
122.2575807702
 20
64.3959393309
 40
1.3
100
AcDbArc
 50
190.1465454855
 51
265.0
  0
ARC
  5
358
100
AcDbEntity
  8
RACCORDO
100
AcDbCircle
 62
7
  6
CONTINUOUS
 10
124.7609600473
 20
104.6108059766
 40
0.2
100
AcDbArc
 50
180.0
 51
260.0
  0
ARC
  5
359
100
AcDbEntity
  8
0
100
AcDbCircle
 62
7
  6
CONTINUOUS
 10
286.4696215194
 20
122.1025968489
 40
168.1209091124
100
AcDbArc
 50
169.8537354954
 51
177.1206560437
  0
ARC
  5
35A
100
AcDbEntity
  8
0
100
AcDbCircle
 62
7
  6
CONTINUOUS
 10
286.4666734504
 20
122.0996260504
 40
165.12
100
AcDbArc
 50
169.8985839314
 51
177.1212676054
  0
ARC
  5
35B
100
AcDbEntity
  8
RACCORDO
100
AcDbCircle
 62
7
  6
CONTINUOUS
 10
286.4666734504
 20
122.0996260504
 40
165.12
100
AcDbArc
 50
169.4108329051
 51
169.8985839314
  0
ARC
  5
35C
100
AcDbEntity
  8
RACCORDO
100
AcDbCircle
 62
7
  6
CONTINUOUS
 10
123.4605788527
 20
148.4840353132
 40
4.0200239337
100
AcDbArc
 50
39.5351276004
 51
80.0000000614
  0
ARC
  5
35D
100
AcDbEntity
  8
0
100
AcDbCircle
 62
7
  6
CONTINUOUS
 10
122.2575818931
 20
151.4900390455
 40
1.3
100
AcDbArc
 50
95.0
 51
169.8537354954
  0
ARC
  5
35E
100
AcDbEntity
  8
RACCORDO
100
AcDbCircle
 62
7
  6
CONTINUOUS
 10
124.7609600473
 20
111.2751661241
 40
0.2
100
AcDbArc
 50
100.0
 51
180.0
  0
ARC
  5
35F
100
AcDbEntity
  8
0
100
AcDbCircle
 62
7
  6
CONTINUOUS
 10
567.9928484504
 20
107.9429860504
 40
450.0
100
AcDbArc
 50
177.1206545722
 51
182.8793455314
  0
ARC
  5
360
100
AcDbEntity
  8
0
100
AcDbCircle
 62
7
  6
CONTINUOUS
 10
567.9909600473
 20
107.9429860504
 40
447.0
100
AcDbArc
 50
177.1212676054
 51
182.8787323946
  0
ENDSEC
  0
SECTION
  2
OBJECTS
  0
DICTIONARY
  5
C
100
AcDbDictionary
280
0
281
1
  3
ACAD_GROUP
350
D
  3
ACAD_MLINESTYLE
350
17
  3
ACAD_LAYOUT
350
1A
  3
ACAD_PLOTSETTINGS
350
19
  3
ACAD_PLOTSTYLENAME
350
E
  0
DICTIONARY
  5
D
102
{ACAD_REACTORS
330
C
102
}
100
AcDbDictionary
280
0
281
1
  0
ACDBDICTIONARYWDFLT
  5
E
102
{ACAD_REACTORS
330
C
102
}
100
AcDbDictionary
281
1
  3
Normal
350
F
100
AcDbDictionaryWithDefault
340
F
  0
DICTIONARY
  5
17
102
{ACAD_REACTORS
330
C
102
}
100
AcDbDictionary
280
0
281
1
  3
Standard
350
18
  0
DICTIONARY
  5
19
102
{ACAD_REACTORS
330
C
102
}
100
AcDbDictionary
281
1
  0
DICTIONARY
  5
1A
102
{ACAD_REACTORS
330
C
102
}
100
AcDbDictionary
281
1
  3
Model
350
361
  3
Layout1
350
362
  0
ACDBPLACEHOLDER
  5
F
102
{ACAD_REACTORS
330
E
102
}
  0
MLINESTYLE
  5
18
102
{ACAD_REACTORS
330
17
102
}
100
AcDbMlineStyle
  2
STANDARD
 70
0
  3

 62
256
 51
90.0
 52
90.0
 71
2
 49
0.5
 62
256
  6
BYLAYER
 49
-0.5
 62
256
  6
BYLAYER
  0
LAYOUT
  5
361
102
{ACAD_REACTORS
330
1A
102
}
100
AcDbPlotSettings
  1

  2
none_device
  4
ISO_A4_(297.00_x_210.00_MM)
  6

 40
0.0
 41
0.0
 42
0.0
 43
0.0
 44
297.0
 45
210.0
 46
0.0
 47
0.0
 48
0.0
 49
0.0
140
0.0
141
0.0
142
1.0
143
1.0
 70
1024
 72
1
 73
0
 74
0
  7

 75
0
147
1.0
148
0.0
149
0.0
100
AcDbLayout
  1
Model
 70
0
 71
0
 10
0.0
 20
0.0
 11
297.0
 21
210.0
 12
0.0
 22
0.0
 32
0.0
 14
0.0
 24
0.0
 34
0.0
 15
0.0
 25
0.0
 35
0.0
146
0.0
 13
0.0
 23
0.0
 33
0.0
 16
1.0
 26
0.0
 36
0.0
 17
0.0
 27
1.0
 37
0.0
 76
0
330
210
345
0
346
0
  0
LAYOUT
  5
362
102
{ACAD_REACTORS
330
1A
102
}
100
AcDbPlotSettings
  1

  2
none_device
  4
ISO_A4_(297.00_x_210.00_MM)
  6

 40
0.0
 41
0.0
 42
0.0
 43
0.0
 44
297.0
 45
210.0
 46
0.0
 47
0.0
 48
0.0
 49
0.0
140
0.0
141
0.0
142
1.0
143
1.0
 70
0
 72
1
 73
0
 74
0
  7

 75
0
147
1.0
148
0.0
149
0.0
100
AcDbLayout
  1
Layout1
 70
0
 71
1
 10
0.0
 20
0.0
 11
297.0
 21
210.0
 12
0.0
 22
0.0
 32
0.0
 14
0.0
 24
0.0
 34
0.0
 15
0.0
 25
0.0
 35
0.0
146
0.0
 13
0.0
 23
0.0
 33
0.0
 16
1.0
 26
0.0
 36
0.0
 17
0.0
 27
1.0
 37
0.0
 76
0
330
211
345
0
346
0
  0
ENDSEC
  0
EOF
