  0
SECTION
  2
HEADER
  9
$ACADVER
  1
AC1021
  9
$DWGCODEPAGE
  3
ANSI_1252
  9
$EXTMAX
 10
297.0
 20
210.0
 30
0.0
  9
$EXTMIN
 10
0.0
 20
0.0
 30
0.0
  9
$LIMMIN
 10
0.0
 20
0.0
  9
$LIMMAX
 10
297.0
 20
210.0
  9
$VIEWCTR
 10
148.5
 20
105.0
  9
$VIEWSIZE
 40
210.0
  9
$CLAYER
  8
0
  9
$LTSCALE
 40
16.335
  9
$CELTYPE
  6
BYLAYER
  9
$DIMSCALE
 40
1.0
  9
$DIMASZ
 40
3.0
  9
$DIMEXO
 40
0.5
  9
$DIMDLI
 40
11.286
  9
$DIMEXE
 40
1.5
  9
$DIMCEN
 40
2.673
  9
$DIMLFAC
 40
1.0
  9
$DIMBLK
  1
_FILLED
  9
$DIMALT
 70
0
  9
$DIMALTF
 40
0.0393700787
  9
$DIMTXT
 40
3.0
  9
$DIMTOL
 70
1
  9
$DIMLIM
 70
0
  9
$DIMTFAC
 40
1.0
  9
$DIMTP
 40
0.01
  9
$DIMTM
 40
0.01
  9
$DIMGAP
 40
0.625
  9
$DIMDSEP
 70
44
  9
$AUNITS
 70
0
  9
$PDMODE
 70
3
  9
$PDSIZE
 40
3.0
  9
$HANDSEED
  5
426
  9
$TILEMODE
 70
1
  9
$MEASUREMENT
 70
1
  9
$INSUNITS
 70
4
  0
ENDSEC
  0
SECTION
  2
CLASSES
  0
CLASS
  1
ACDBDICTIONARYWDFLT
  2
AcDbDictionaryWithDefault
  3
AutoCAD 2000
 90
0
 91
1
280
0
281
0
  0
CLASS
  1
ACDBPLACEHOLDER
  2
AcDbPlaceHolder
  3
AutoCAD 2000
 90
0
 91
1
280
0
281
0
  0
CLASS
  1
LAYOUT
  2
AcDbLayout
  3
AutoCAD 2000
 90
0
 91
0
280
0
281
0
  0
ENDSEC
  0
SECTION
  2
TABLES
  0
TABLE
  2
VPORT
  5
8
100
AcDbSymbolTable
 70
2
  0
VPORT
  5
1F4
100
AcDbSymbolTableRecord
100
AcDbViewportTableRecord
  2
*ACTIVE
 70
0
 10
0.0
 20
0.0
 11
1.0
 21
1.0
 12
148.5
 22
105.0
 13
0.0
 23
0.0
 14
1.0
 24
1.0
 15
0.0
 25
0.0
 16
0.0
 26
0.0
 36
1.0
 17
0.0
 27
0.0
 37
0.0
 40
210.0
 41
1.4142857143
 42
50.0
 43
0.0
 44
0.0
 50
0.0
 51
0.0
 71
0
 72
100
 73
1
 74
1
 75
0
 76
0
 77
0
 78
0
  0
ENDTAB
  0
TABLE
  2
LTYPE
  5
5
100
AcDbSymbolTable
 70
6
  0
LTYPE
  5
14
100
AcDbSymbolTableRecord
100
AcDbLinetypeTableRecord
  2
BYBLOCK
 70
0
  3

 72
65
 73
0
 40
0.0
  0
LTYPE
  5
15
100
AcDbSymbolTableRecord
100
AcDbLinetypeTableRecord
  2
BYLAYER
 70
0
  3

 72
65
 73
0
 40
0.0
  0
LTYPE
  5
16
100
AcDbSymbolTableRecord
100
AcDbLinetypeTableRecord
  2
CONTINUOUS
 70
64
  3
Solid line
 72
65
 73
0
 40
0.0
  0
LTYPE
  5
1F5
100
AcDbSymbolTableRecord
100
AcDbLinetypeTableRecord
  2
CENTER
 70
64
  3
____ _ ____ _ ____ _ ____ _ ____ _ ____ _ ____
 72
65
 73
4
 40
0.6
 49
0.375
 74
0
 49
-0.075
 74
0
 49
0.075
 74
0
 49
-0.075
 74
0
  0
LTYPE
  5
1F6
100
AcDbSymbolTableRecord
100
AcDbLinetypeTableRecord
  2
HIDDEN
 70
64
  3
- - - - - - - - - - - - - - - - - - - -
 72
65
 73
2
 40
0.2
 49
0.1
 74
0
 49
-0.1
 74
0
  0
LTYPE
  5
1F7
100
AcDbSymbolTableRecord
100
AcDbLinetypeTableRecord
  2
PHANTOM
 70
64
  3
_____ _ _ _____ _ _ _____ _ _ _____
 72
65
 73
6
 40
0.8
 49
0.45
 74
0
 49
-0.05
 74
0
 49
0.1
 74
0
 49
-0.05
 74
0
 49
0.1
 74
0
 49
-0.05
 74
0
  0
LTYPE
  5
1F8
100
AcDbSymbolTableRecord
100
AcDbLinetypeTableRecord
  2
DOT
 70
64
  3
. . . . . . . . . . . . . . . . . . . .
 72
65
 73
2
 40
0.2
 49
0.1
 74
0
 49
-0.1
 74
0
  0
LTYPE
  5
1F9
100
AcDbSymbolTableRecord
100
AcDbLinetypeTableRecord
  2
DASHED
 70
64
  3
- - - - - - - - - - - - - - - - - - - -
 72
65
 73
2
 40
0.2
 49
0.1
 74
0
 49
-0.1
 74
0
  0
ENDTAB
  0
TABLE
  2
LAYER
  5
2
100
AcDbSymbolTable
 70
36
  0
LAYER
  5
10
100
AcDbSymbolTableRecord
100
AcDbLayerTableRecord
  2
0
 70
0
 62
7
  6
CONTINUOUS
370
-3
390
F
  0
LAYER
  5
1FA
100
AcDbSymbolTableRecord
100
AcDbLayerTableRecord
  2
DEFAULT_1
 70
0
 62
7
  6
CENTER
370
-3
390
F
  0
LAYER
  5
1FB
100
AcDbSymbolTableRecord
100
AcDbLayerTableRecord
  2
DEFAULT_2
 70
0
 62
7
  6
HIDDEN
370
-3
390
F
  0
LAYER
  5
1FC
100
AcDbSymbolTableRecord
100
AcDbLayerTableRecord
  2
DEFAULT_3
 70
0
 62
7
  6
PHANTOM
370
-3
390
F
  0
LAYER
  5
1FD
100
AcDbSymbolTableRecord
100
AcDbLayerTableRecord
  2
ASSI
 70
0
 62
7
  6
CONTINUOUS
370
-3
390
F
  0
LAYER
  5
1FE
100
AcDbSymbolTableRecord
100
AcDbLayerTableRecord
  2
COORDINATE
 70
0
 62
7
  6
CONTINUOUS
370
-3
390
F
  0
LAYER
  5
1FF
100
AcDbSymbolTableRecord
100
AcDbLayerTableRecord
  2
COPY_PUBLISH
 70
0
 62
7
  6
CONTINUOUS
370
-3
390
F
  0
LAYER
  5
200
100
AcDbSymbolTableRecord
100
AcDbLayerTableRecord
  2
COSMETICI
 70
0
 62
7
  6
CONTINUOUS
370
-3
390
F
  0
LAYER
  5
201
100
AcDbSymbolTableRecord
100
AcDbLayerTableRecord
  2
CURVE
 70
0
 62
7
  6
CONTINUOUS
370
-3
390
F
  0
LAYER
  5
202
100
AcDbSymbolTableRecord
100
AcDbLayerTableRecord
  2
DRAFT
 70
0
 62
7
  6
CONTINUOUS
370
-3
390
F
  0
LAYER
  5
203
100
AcDbSymbolTableRecord
100
AcDbLayerTableRecord
  2
IMPORT_IGES
 70
0
 62
7
  6
CONTINUOUS
370
-3
390
F
  0
LAYER
  5
204
100
AcDbSymbolTableRecord
100
AcDbLayerTableRecord
  2
INTF_1
 70
0
 62
7
  6
CONTINUOUS
370
-3
390
F
  0
LAYER
  5
205
100
AcDbSymbolTableRecord
100
AcDbLayerTableRecord
  2
INTF_11
 70
0
 62
7
  6
CONTINUOUS
370
-3
390
F
  0
LAYER
  5
206
100
AcDbSymbolTableRecord
100
AcDbLayerTableRecord
  2
NOTE
 70
0
 62
7
  6
CONTINUOUS
370
-3
390
F
  0
LAYER
  5
207
100
AcDbSymbolTableRecord
100
AcDbLayerTableRecord
  2
PIANI
 70
0
 62
7
  6
CONTINUOUS
370
-3
390
F
  0
LAYER
  5
208
100
AcDbSymbolTableRecord
100
AcDbLayerTableRecord
  2
PUNTI
 70
0
 62
7
  6
CONTINUOUS
370
-3
390
F
  0
LAYER
  5
209
100
AcDbSymbolTableRecord
100
AcDbLayerTableRecord
  2
RACCORDO
 70
0
 62
7
  6
CONTINUOUS
370
-3
390
F
  0
LAYER
  5
20A
100
AcDbSymbolTableRecord
100
AcDbLayerTableRecord
  2
RGB____0____0____0__
 70
0
 62
7
  6
CONTINUOUS
370
-3
390
F
  0
LAYER
  5
20B
100
AcDbSymbolTableRecord
100
AcDbLayerTableRecord
  2
SIMBOLI
 70
0
 62
7
  6
CONTINUOUS
370
-3
390
F
  0
LAYER
  5
20C
100
AcDbSymbolTableRecord
100
AcDbLayerTableRecord
  2
SMUSSO
 70
0
 62
7
  6
CONTINUOUS
370
-3
390
F
  0
LAYER
  5
20D
100
AcDbSymbolTableRecord
100
AcDbLayerTableRecord
  2
SNAPLINE
 70
0
 62
7
  6
CONTINUOUS
370
-3
390
F
  0
LAYER
  5
20E
100
AcDbSymbolTableRecord
100
AcDbLayerTableRecord
  2
SUPERFICI
 70
0
 62
7
  6
CONTINUOUS
370
-3
390
F
  0
LAYER
  5
20F
100
AcDbSymbolTableRecord
100
AcDbLayerTableRecord
  2
TRASH
 70
0
 62
7
  6
CONTINUOUS
370
-3
390
F
  0
ENDTAB
  0
TABLE
  2
STYLE
  5
3
100
AcDbSymbolTable
 70
1
  0
STYLE
  5
11
100
AcDbSymbolTableRecord
100
AcDbTextStyleTableRecord
  2
STANDARD
 70
0
 40
0.0
 41
0.8
 50
0.0
 71
0
 42
0.2
  3
txt
  4

  0
STYLE
  5
210
100
AcDbSymbolTableRecord
100
AcDbTextStyleTableRecord
  2
TEXTSTYLE_1
 70
0
 40
0.0
 41
0.8
 50
0.0
 71
0
 42
0.2
  3
gdt
  4

  0
ENDTAB
  0
TABLE
  2
VIEW
  5
6
100
AcDbSymbolTable
 70
0
  0
ENDTAB
  0
TABLE
  2
UCS
  5
7
100
AcDbSymbolTable
 70
0
  0
ENDTAB
  0
TABLE
  2
APPID
  5
9
100
AcDbSymbolTable
 70
1
  0
APPID
  5
211
100
AcDbSymbolTableRecord
100
AcDbRegAppTableRecord
  2
ACAD
 70
0
  0
ENDTAB
  0
TABLE
  2
BLOCK_RECORD
  5
1
100
AcDbSymbolTable
 70
0
  0
BLOCK_RECORD
  5
212
100
AcDbSymbolTableRecord
100
AcDbBlockTableRecord
  2
*Model_Space
  0
BLOCK_RECORD
  5
213
100
AcDbSymbolTableRecord
100
AcDbBlockTableRecord
  2
*Paper_Space
  0
BLOCK_RECORD
  5
214
100
AcDbSymbolTableRecord
100
AcDbBlockTableRecord
  2
_FILLED
  0
BLOCK_RECORD
  5
215
100
AcDbSymbolTableRecord
100
AcDbBlockTableRecord
  2
*D0
  0
BLOCK_RECORD
  5
216
100
AcDbSymbolTableRecord
100
AcDbBlockTableRecord
  2
*D1
  0
BLOCK_RECORD
  5
217
100
AcDbSymbolTableRecord
100
AcDbBlockTableRecord
  2
*D2
  0
ENDTAB
  0
TABLE
  2
DIMSTYLE
  5
A
100
AcDbSymbolTable
 70
1
100
AcDbDimStyleTable
 71
0
  0
DIMSTYLE
105
218
100
AcDbSymbolTableRecord
100
AcDbDimStyleTableRecord
  2
STANDARD
 70
0
  3

  4

 40
1.0
 41
3.0
 42
0.5
 43
0.38
 44
1.5
 45
0.0
 46
0.0
 47
0.01
 48
0.01
140
3.0
141
0.09
142
0.0
143
25.4
144
1.0
145
0.0
146
1.0
147
0.625
 71
1.0
 72
0.0
 73
0
 74
0
 75
0
 76
0
 77
1
 78
8
170
0
171
2
172
0
173
0
174
0
175
0
176
0
177
0
178
0
270
2
271
2
272
2
273
2
274
2
275
0
280
0
281
0
282
0
283
1
284
8
285
0
286
0
287
3
288
0
340
11
278
44
341
214
342
214
343
214
344
214
  0
DIMSTYLE
105
219
100
AcDbSymbolTableRecord
100
AcDbDimStyleTableRecord
  2
DIMSTYLE_1
 70
0
  3

  4

 40
1.0
 41
3.0
 42
0.5
 43
0.38
 44
1.5
 45
0.0
 46
0.0
 47
0.0
 48
0.0
140
3.0
141
0.09
142
0.0
143
25.4
144
1.0
145
0.0
146
1.0
147
0.75
 71
0.0
 72
0.0
 73
0
 74
0
 75
0
 76
0
 77
1
 78
8
170
0
171
2
172
0
173
0
174
0
175
0
176
0
177
0
178
0
270
2
271
2
272
2
273
2
274
2
275
0
280
0
281
0
282
0
283
1
284
8
285
0
286
0
287
3
288
0
340
11
278
44
341
214
342
214
343
214
344
214
  0
DIMSTYLE
105
21A
100
AcDbSymbolTableRecord
100
AcDbDimStyleTableRecord
  2
DIMSTYLE_2
 70
0
  3

  4

 40
1.0
 41
3.0
 42
0.5
 43
0.38
 44
1.5
 45
0.0
 46
0.0
 47
0.0
 48
0.0
140
3.0
141
0.09
142
0.0
143
25.4
144
1.0
145
0.0
146
1.0
147
0.75
 71
0.0
 72
0.0
 73
0
 74
0
 75
0
 76
0
 77
1
 78
8
170
0
171
2
172
0
173
0
174
0
175
0
176
0
177
0
178
0
270
2
271
1
272
1
273
2
274
2
275
0
280
0
281
0
282
0
283
1
284
8
285
0
286
0
287
3
288
0
340
11
278
44
341
214
342
214
343
214
344
214
  0
ENDTAB
  0
ENDSEC
  0
SECTION
  2
BLOCKS
  0
BLOCK
  5
20
100
AcDbEntity
  8
0
100
AcDbBlockBegin
  2
*Model_Space
 70
0
 10
0.0
 20
0.0
 30
0.0
  3
*Model_Space
  1

  0
ENDBLK
  5
21
100
AcDbEntity
  8
0
100
AcDbBlockEnd
  0
BLOCK
  5
1C
100
AcDbEntity
  8
0
100
AcDbBlockBegin
  2
*Paper_Space
 70
0
 10
0.0
 20
0.0
 30
0.0
  3
*Paper_Space
  1

  0
ENDBLK
  5
1D
100
AcDbEntity
  8
0
100
AcDbBlockEnd
  0
BLOCK
  5
21B
100
AcDbEntity
  8
0
100
AcDbBlockBegin
  2
_FILLED
 70
64
 10
0.0
 20
0.0
  3
_FILLED
  1

  0
SOLID
  5
21C
100
AcDbEntity
  8
0
  6
BYBLOCK
 62
0
100
AcDbTrace
 10
0.0
 20
0.0
 11
-1.0
 21
0.3166666667
 12
-1.0
 22
-0.3166666667
 13
-1.0
 23
-0.3166666667
  0
ENDBLK
  5
21D
100
AcDbEntity
  8
0
  6
BYBLOCK
 62
0
100
AcDbBlockEnd
  0
BLOCK
  5
21E
100
AcDbEntity
  8
0
100
AcDbBlockBegin
 62
7
  6
CONTINUOUS
  2
*D0
 70
65
 10
0.0
 20
0.0
  3
*D0
  1

  0
MTEXT
  5
21F
100
AcDbEntity
  8
0
100
AcDbMText
 62
7
  6
CONTINUOUS
  7
STANDARD
 71
2
 72
1
 10
0.0
 20
61.75
 30
0.0
 11
1.0
 21
0.0
 31
0.0
 44
0.9
  1
90
 40
3.0
 41
7.0714285714
  0
LINE
  5
220
100
AcDbEntity
  8
0
100
AcDbLine
 62
7
  6
CONTINUOUS
 10
44.9999890968
 20
44.5035192549
 11
44.9999890968
 21
59.5
  0
LINE
  5
221
100
AcDbEntity
  8
0
100
AcDbLine
 62
7
  6
CONTINUOUS
 10
-44.9999890968
 20
44.5035192549
 11
-44.9999890968
 21
59.5
  0
LINE
  5
222
100
AcDbEntity
  8
0
100
AcDbLine
 62
7
  6
CONTINUOUS
 10
44.9999890968
 20
58.0
 11
0.0
 21
58.0
  0
LINE
  5
223
100
AcDbEntity
  8
0
100
AcDbLine
 62
7
  6
CONTINUOUS
 10
-44.9999890968
 20
58.0
 11
0.0
 21
58.0
  0
INSERT
  5
224
100
AcDbEntity
  8
0
100
AcDbBlockReference
 62
7
  6
CONTINUOUS
  2
_FILLED
 10
44.9999890968
 20
58.0
 41
3.0
 42
3.0
 43
3.0
  0
INSERT
  5
225
100
AcDbEntity
  8
0
100
AcDbBlockReference
 62
7
  6
CONTINUOUS
  2
_FILLED
 10
-44.9999890968
 20
58.0
 41
3.0
 42
3.0
 43
3.0
 50
180.0
  0
ENDBLK
  5
226
100
AcDbEntity
  8
0
  6
BYBLOCK
 62
0
100
AcDbBlockEnd
  0
BLOCK
  5
227
100
AcDbEntity
  8
0
100
AcDbBlockBegin
 62
7
  6
CONTINUOUS
  2
*D1
 70
65
 10
0.0
 20
0.0
  3
*D1
  1

  0
MTEXT
  5
228
100
AcDbEntity
  8
0
100
AcDbMText
 62
7
  6
CONTINUOUS
  7
STANDARD
 71
3
 72
1
 10
70.04697868
 20
61.75
 30
0.0
 11
1.0
 21
0.0
 31
0.0
 44
0.9
  1
9,1
 40
3.0
 41
8.6785714286
  0
LINE
  5
229
100
AcDbEntity
  8
0
100
AcDbLine
 62
7
  6
CONTINUOUS
 10
83.8123825243
 20
8.448689408
 11
83.8123825243
 21
59.5
  0
LINE
  5
22A
100
AcDbEntity
  8
0
100
AcDbLine
 62
7
  6
CONTINUOUS
 10
74.7429521997
 20
43.3803686145
 11
74.7429521997
 21
59.5
  0
LINE
  5
22B
100
AcDbEntity
  8
0
100
AcDbLine
 62
7
  6
CONTINUOUS
 10
83.8123825243
 20
58.0
 11
87.8123825243
 21
58.0
  0
LINE
  5
22C
100
AcDbEntity
  8
0
100
AcDbLine
 62
7
  6
CONTINUOUS
 10
87.8123825243
 20
58.0
 11
79.277667362
 21
58.0
  0
LINE
  5
22D
100
AcDbEntity
  8
0
100
AcDbLine
 62
7
  6
CONTINUOUS
 10
74.7429521997
 20
58.0
 11
64.2612643943
 21
58.0
  0
LINE
  5
22E
100
AcDbEntity
  8
0
100
AcDbLine
 62
7
  6
CONTINUOUS
 10
64.2612643943
 20
58.0
 11
79.277667362
 21
58.0
  0
INSERT
  5
22F
100
AcDbEntity
  8
0
100
AcDbBlockReference
 62
7
  6
CONTINUOUS
  2
_FILLED
 10
83.8123825243
 20
58.0
 41
3.0
 42
3.0
 43
3.0
 50
180.0
  0
INSERT
  5
230
100
AcDbEntity
  8
0
100
AcDbBlockReference
 62
7
  6
CONTINUOUS
  2
_FILLED
 10
74.7429521997
 20
58.0
 41
3.0
 42
3.0
 43
3.0
  0
ENDBLK
  5
231
100
AcDbEntity
  8
0
  6
BYBLOCK
 62
0
100
AcDbBlockEnd
  0
BLOCK
  5
232
100
AcDbEntity
  8
0
100
AcDbBlockBegin
 62
7
  6
CONTINUOUS
  2
*D2
 70
65
 10
0.0
 20
0.0
  3
*D2
  1

  0
MTEXT
  5
233
100
AcDbEntity
  8
0
100
AcDbMText
 62
7
  6
CONTINUOUS
  7
STANDARD
 71
2
 72
1
 10
88.992962774
 20
-0.0
 30
0.0
 11
0.0
 21
1.0
 31
0.0
 44
0.9
  1
90
 40
3.0
 41
7.0714285714
  0
LINE
  5
234
100
AcDbEntity
  8
0
100
AcDbLine
 62
7
  6
CONTINUOUS
 10
78.8550310937
 20
45.0
 11
94.242962774
 21
45.0
  0
LINE
  5
235
100
AcDbEntity
  8
0
100
AcDbLine
 62
7
  6
CONTINUOUS
 10
78.8550310937
 20
-45.0
 11
94.242962774
 21
-45.0
  0
LINE
  5
236
100
AcDbEntity
  8
0
100
AcDbLine
 62
7
  6
CONTINUOUS
 10
92.742962774
 20
45.0
 11
92.742962774
 21
-0.0
  0
LINE
  5
237
100
AcDbEntity
  8
0
100
AcDbLine
 62
7
  6
CONTINUOUS
 10
92.742962774
 20
-45.0
 11
92.742962774
 21
-0.0
  0
INSERT
  5
238
100
AcDbEntity
  8
0
100
AcDbBlockReference
 62
7
  6
CONTINUOUS
  2
_FILLED
 10
92.742962774
 20
45.0
 41
3.0
 42
3.0
 43
3.0
 50
90.0
  0
INSERT
  5
239
100
AcDbEntity
  8
0
100
AcDbBlockReference
 62
7
  6
CONTINUOUS
  2
_FILLED
 10
92.742962774
 20
-45.0
 41
3.0
 42
3.0
 43
3.0
 50
270.0
  0
ENDBLK
  5
23A
100
AcDbEntity
  8
0
  6
BYBLOCK
 62
0
100
AcDbBlockEnd
  0
ENDSEC
  0
SECTION
  2
ENTITIES
  0
DIMENSION
  5
23B
100
AcDbEntity
  8
0
100
AcDbDimension
 62
7
  6
CONTINUOUS
  2
*D0
 10
-44.9999890968
 20
58.0
 11
-0.4285713773
 21
58.0
 70
160
 71
2
 42
89.9999781935
  3
DIMSTYLE_1
100
AcDbAlignedDimension
 13
44.9999890968
 23
44.0035192549
 14
-44.9999890968
 24
44.0035192549
 50
180.0
100
AcDbRotatedDimension
  0
DIMENSION
  5
23C
100
AcDbEntity
  8
0
100
AcDbDimension
 62
7
  6
CONTINUOUS
  2
*D1
 10
74.7429521997
 20
58.0
 11
66.7255505905
 21
58.0
 70
160
 71
3
 42
9.0694303246
  3
DIMSTYLE_2
100
AcDbAlignedDimension
 13
83.8123825243
 23
7.948689408
 14
74.7429521997
 24
42.8803686145
 50
180.0
100
AcDbRotatedDimension
  0
DIMENSION
  5
23D
100
AcDbEntity
  8
0
100
AcDbDimension
 62
7
  6
CONTINUOUS
  2
*D2
 10
92.742962774
 20
-45.0
 11
92.742962774
 21
-0.4285732977
 70
160
 71
2
 42
90.0
  3
DIMSTYLE_1
100
AcDbAlignedDimension
 13
78.3550310937
 23
45.0
 14
78.3550310937
 24
-45.0
 50
270.0
100
AcDbRotatedDimension
  0
LWPOLYLINE
  5
23E
100
AcDbEntity
  8
RACCORDO
100
AcDbPolyline
 62
253
  6
CONTINUOUS
 90
25
 70
0
 10
-44.8448916334
 20
-43.8457940382
 10
-44.8420222615
 20
-43.9111937679
 10
-44.8349528213
 20
-43.9761384962
 10
-44.8237333959
 20
-44.0403600021
 10
-44.8084421672
 20
-44.1035670584
 10
-44.7891555789
 20
-44.1655310996
 10
-44.7659285769
 20
-44.2260811216
 10
-44.7388370415
 20
-44.2850115167
 10
-44.7080126265
 20
-44.342031171
 10
-44.6736098612
 20
-44.3968505378
 10
-44.6357961505
 20
-44.4492296003
 10
-44.5947276329
 20
-44.4989787119
 10
-44.5505695136
 20
-44.5459035119
 10
-44.503512224
 20
-44.5898145888
 10
-44.4537568112
 20
-44.6305381185
 10
-44.40149726
 20
-44.667918144
 10
-44.3469489572
 20
-44.7018056865
 10
-44.2903441377
 20
-44.7320630073
 10
-44.2319128801
 20
-44.758569305
 10
-44.1719058516
 20
-44.7812148352
 10
-44.1105646285
 20
-44.7999136402
 10
-44.0481125197
 20
-44.8145977175
 10
-43.9847960628
 20
-44.8252047689
 10
-43.9208858728
 20
-44.8316848737
 10
-43.8566450886
 20
-44.8340076387
  0
LWPOLYLINE
  5
23F
100
AcDbEntity
  8
RACCORDO
100
AcDbPolyline
 62
253
  6
CONTINUOUS
 90
25
 70
0
 10
-44.346857488
 20
-43.9268006745
 10
-44.3457642773
 20
-43.9600619029
 10
-44.3426189638
 20
-43.9928581372
 10
-44.3374215476
 20
-44.0251894264
 10
-44.3301337223
 20
-44.0571838394
 10
-44.3207937942
 20
-44.0887133946
 10
-44.3095166828
 20
-44.1193941047
 10
-44.2962727357
 20
-44.1492248706
 10
-44.2810916052
 20
-44.1782069601
 10
-44.2641771674
 20
-44.2059600105
 10
-44.2455118269
 20
-44.2324580308
 10
-44.2251131791
 20
-44.2577272344
 10
-44.2032378862
 20
-44.2814656205
 10
-44.1798674903
 20
-44.30365586
 10
-44.1550204493
 20
-44.3243155172
 10
-44.1290087989
 20
-44.3431949628
 10
-44.1018192161
 20
-44.3602715451
 10
-44.0734650239
 20
-44.3755681309
 10
-44.0442982279
 20
-44.3889033796
 10
-44.0142988184
 20
-44.4002535237
 10
-43.9834868049
 20
-44.4096424938
 10
-43.9522742218
 20
-44.4169604898
 10
-43.9207984138
 20
-44.4221709422
 10
-43.888922036
 20
-44.4253105083
 10
-43.8566450886
 20
-44.4263792099
  0
LINE
  5
240
100
AcDbEntity
  8
RACCORDO
100
AcDbLine
 62
7
  6
CONTINUOUS
 10
-44.9999996007
 20
-44.0035192549
 11
-45.0
 21
-22.5203789087
  0
LINE
  5
241
100
AcDbEntity
  8
DRAFT
100
AcDbLine
 62
7
  6
CONTINUOUS
 10
-45.0
 20
-22.5203789087
 11
-45.0
 21
22.5203789087
  0
LINE
  5
242
100
AcDbEntity
  8
RACCORDO
100
AcDbLine
 62
7
  6
CONTINUOUS
 10
-45.0
 20
22.5203789087
 11
-44.9999996007
 21
44.0035192549
  0
LINE
  5
243
100
AcDbEntity
  8
RACCORDO
100
AcDbLine
 62
253
  6
CONTINUOUS
 10
-44.8474462442
 20
0.0000001319
 11
-44.8448916333
 21
-43.845794038
  0
LINE
  5
244
100
AcDbEntity
  8
RACCORDO
100
AcDbLine
 62
253
  6
CONTINUOUS
 10
-44.3493488952
 20
0.0000000027
 11
-44.346857488
 21
-43.9268006745
  0
LINE
  5
245
100
AcDbEntity
  8
RACCORDO
100
AcDbLine
 62
253
  6
CONTINUOUS
 10
-43.8566450886
 20
-44.4263792099
 11
-43.8566450886
 21
-44.8340076387
  0
LINE
  5
246
100
AcDbEntity
  8
RACCORDO
100
AcDbLine
 62
253
  6
CONTINUOUS
 10
-43.8566450886
 20
44.4263792099
 11
-43.8566450885
 21
44.8340076387
  0
LINE
  5
247
100
AcDbEntity
  8
RACCORDO
100
AcDbLine
 62
253
  6
CONTINUOUS
 10
-44.8448916333
 20
43.8457940385
 11
-44.8474462442
 21
0.0000001319
  0
LINE
  5
248
100
AcDbEntity
  8
RACCORDO
100
AcDbLine
 62
253
  6
CONTINUOUS
 10
-44.346857488
 20
43.9268006745
 11
-44.3493488952
 21
0.0000000027
  0
LWPOLYLINE
  5
249
100
AcDbEntity
  8
RACCORDO
100
AcDbPolyline
 62
7
  6
CONTINUOUS
 90
25
 70
0
 10
-44.9999996007
 20
44.0035192549
 10
-44.9977748504
 20
44.0707188539
 10
-44.9913318173
 20
44.1369798403
 10
-44.9806705013
 20
44.2023024144
 10
-44.965650718
 20
44.2670516876
 10
-44.9464126519
 20
44.3308628896
 10
-44.9233768564
 20
44.3926416351
 10
-44.8966009274
 20
44.4521350291
 10
-44.8660272689
 20
44.5095968339
 10
-44.8319036465
 20
44.5646929375
 10
-44.7940835273
 20
44.6175842029
 10
-44.7527134442
 20
44.668110621
 10
-44.7084807608
 20
44.7154569545
 10
-44.6613423449
 20
44.7595165548
 10
-44.6113413288
 20
44.8003970889
 10
-44.5592944736
 20
44.8376049556
 10
-44.5053599305
 20
44.8710155068
 10
-44.4493795484
 20
44.9007543068
 10
-44.391695634
 20
44.9267030864
 10
-44.3320714853
 20
44.9489183461
 10
-44.2707438044
 20
44.9673442233
 10
-44.2087650051
 20
44.9816938602
 10
-44.1464858918
 20
44.9918717628
 10
-44.0835556601
 20
44.9979737802
 10
-44.0199743099
 20
45.0
  0
LWPOLYLINE
  5
24A
100
AcDbEntity
  8
RACCORDO
100
AcDbPolyline
 62
253
  6
CONTINUOUS
 90
25
 70
0
 10
43.8566450886
 20
-44.8340076387
 10
43.9209228189
 20
-44.8316821307
 10
43.9848265037
 20
-44.8252004766
 10
44.0480938876
 20
-44.8146013812
 10
44.1104260911
 20
-44.7999510384
 10
44.1716109006
 20
-44.7813152536
 10
44.2315161856
 20
-44.7587335475
 10
44.2899431574
 20
-44.7322603731
 10
44.3465901887
 20
-44.7020124516
 10
44.4011758198
 20
-44.6681326608
 10
44.4534518797
 20
-44.6307718195
 10
44.5032209842
 20
-44.5900696518
 10
44.5502931937
 20
-44.5461792985
 10
44.5944692779
 20
-44.4992724169
 10
44.6355567
 20
-44.4495402194
 10
44.6733883293
 20
-44.3971798877
 10
44.7077991906
 20
-44.3423974828
 10
44.738633886
 20
-44.2854182984
 10
44.7657589711
 20
-44.2264834521
 10
44.7890496382
 20
-44.165835588
 10
44.8083996001
 20
-44.1037204579
 10
44.8237259626
 20
-44.0403956035
 10
44.8349551641
 20
-43.976122429
 10
44.8420245055
 20
-43.9111654893
 10
44.8448916334
 20
-43.8457940386
  0
LWPOLYLINE
  5
24B
100
AcDbEntity
  8
RACCORDO
100
AcDbPolyline
 62
253
  6
CONTINUOUS
 90
25
 70
0
 10
43.8566450886
 20
-44.4263792099
 10
43.8889611314
 20
-44.4252978851
 10
43.9208480702
 20
-44.4221559827
 10
43.9523059047
 20
-44.4169534808
 10
43.9834544763
 20
-44.4096581988
 10
44.0141739436
 20
-44.4003022303
 10
44.0441047838
 20
-44.3889819471
 10
44.0732522084
 20
-44.3756673564
 10
44.1016110058
 20
-44.3603882877
 10
44.1288060179
 20
-44.34333084
 10
44.1548139592
 20
-44.3244767469
 10
44.1796581151
 20
-44.3038440603
 10
44.2030331837
 20
-44.2816733673
 10
44.2249257759
 20
-44.2579421435
 10
44.2453492807
 20
-44.2326726769
 10
44.2640385636
 20
-44.2061728034
 10
44.2809719082
 20
-44.1784255881
 10
44.2961710309
 20
-44.1494477439
 10
44.3094359457
 20
-44.1195976312
 10
44.3207425689
 20
-44.0888499025
 10
44.3301149842
 20
-44.0572297301
 10
44.3374254572
 20
-44.0251713312
 10
44.3426314098
 20
-43.9928194348
 10
44.3457754201
 20
-43.9600292313
 10
44.346857488
 20
-43.9268006745
  0
LWPOLYLINE
  5
24C
100
AcDbEntity
  8
RACCORDO
100
AcDbPolyline
 62
253
  6
CONTINUOUS
 90
19
 70
0
 10
44.346857488
 20
-43.926800663
 10
44.3879801891
 20
-43.9265061011
 10
44.4288242517
 20
-43.9256106825
 10
44.4691129252
 20
-43.9241204744
 10
44.5085732222
 20
-43.9220455743
 10
44.5469377684
 20
-43.919400041
 10
44.5839466137
 20
-43.9162018003
 10
44.6193489943
 20
-43.9124725226
 10
44.6529050313
 20
-43.9082374768
 10
44.6843873562
 20
-43.9035253587
 10
44.7135826515
 20
-43.8983680965
 10
44.7402930963
 20
-43.8928006347
 10
44.7643377064
 20
-43.8868606972
 10
44.7855535605
 20
-43.8805885318
 10
44.8037969048
 20
-43.8740266374
 10
44.8189441262
 20
-43.8672194758
 10
44.8308925904
 20
-43.8602131709
 10
44.8395613373
 20
-43.8530551961
 10
44.8448916292
 20
-43.8457940521
  0
LINE
  5
24D
100
AcDbEntity
  8
RACCORDO
100
AcDbLine
 62
7
  6
CONTINUOUS
 10
-44.0199743099
 20
-45.0
 11
44.0199743099
 21
-45.0
  0
LINE
  5
24E
100
AcDbEntity
  8
RACCORDO
100
AcDbLine
 62
253
  6
CONTINUOUS
 10
-43.8566450886
 20
-44.8340076387
 11
43.8566450886
 21
-44.8340076387
  0
LINE
  5
24F
100
AcDbEntity
  8
RACCORDO
100
AcDbLine
 62
253
  6
CONTINUOUS
 10
-43.8566450886
 20
-44.4263792099
 11
43.8566450886
 21
-44.4263792099
  0
LWPOLYLINE
  5
250
100
AcDbEntity
  8
RACCORDO
100
AcDbPolyline
 62
253
  6
CONTINUOUS
 90
19
 70
0
 10
-44.346857488
 20
-43.9268006656
 10
-44.3879796394
 20
-43.9265060638
 10
-44.428823117
 20
-43.9256106103
 10
-44.4691111783
 20
-43.9241203723
 10
-44.5085708443
 20
-43.9220454469
 10
-44.5469347487
 20
-43.9193998932
 10
-44.5839429499
 20
-43.9162016365
 10
-44.6193446922
 20
-43.9124723471
 10
-44.6529001044
 20
-43.9082372936
 10
-44.6843818258
 20
-43.9035251713
 10
-44.7135765463
 20
-43.8983679081
 10
-44.7402864517
 20
-43.8928004481
 10
-44.7643305641
 20
-43.8868605146
 10
-44.7855459683
 20
-43.8805883549
 10
-44.8037889153
 20
-43.8740264672
 10
-44.8189357969
 20
-43.867219313
 10
-44.8308839825
 20
-43.8602130154
 10
-44.8395525151
 20
-43.8530550472
 10
-44.8448826593
 20
-43.8457939085
  0
LWPOLYLINE
  5
251
100
AcDbEntity
  8
RACCORDO
100
AcDbPolyline
 62
7
  6
CONTINUOUS
 90
25
 70
0
 10
-44.0199743099
 20
-45.0
 10
-44.0835731555
 20
-44.9979667472
 10
-44.1465038528
 20
-44.9918646384
 10
-44.2087664018
 20
-44.9816935862
 10
-44.270699556
 20
-44.967361448
 10
-44.3319645619
 20
-44.9489600123
 10
-44.3915451594
 20
-44.926765019
 10
-44.4492228022
 20
-44.9008275483
 10
-44.5052160367
 20
-44.8710958815
 10
-44.5591642417
 20
-44.8376915152
 10
-44.6112197256
 20
-44.8004898697
 10
-44.6612301801
 20
-44.7596146085
 10
-44.7083780595
 20
-44.7155596069
 10
-44.7526204531
 20
-44.6682162185
 10
-44.7940002716
 20
-44.6176920711
 10
-44.8318287016
 20
-44.5648056154
 10
-44.8659567495
 20
-44.5097245395
 10
-44.8965334089
 20
-44.4522803033
 10
-44.9233168471
 20
-44.392787195
 10
-44.9463700299
 20
-44.3309753788
 10
-44.9656299916
 20
-44.2671138133
 10
-44.9806660025
 20
-44.2023252677
 10
-44.991334486
 20
-44.1369839778
 10
-44.9977790188
 20
-44.0707153728
 10
-44.9999996007
 20
-44.0035192549
  0
LINE
  5
252
100
AcDbEntity
  8
0
100
AcDbLine
 62
7
  6
CONTINUOUS
 10
-4.616107
 20
-28.877801
 11
-4.101097
 21
-28.877801
  0
LINE
  5
253
100
AcDbEntity
  8
0
100
AcDbLine
 62
7
  6
CONTINUOUS
 10
-2.984285
 20
-28.877801
 11
-2.399877
 21
-28.877801
  0
LINE
  5
254
100
AcDbEntity
  8
0
100
AcDbLine
 62
7
  6
CONTINUOUS
 10
-2.085272
 20
-28.877801
 11
-1.526183
 21
-28.877801
  0
LINE
  5
255
100
AcDbEntity
  8
0
100
AcDbLine
 62
7
  6
CONTINUOUS
 10
-0.714487
 20
-28.877801
 11
-0.632524
 21
-28.877801
  0
LINE
  5
256
100
AcDbEntity
  8
0
100
AcDbLine
 62
7
  6
CONTINUOUS
 10
0.182406
 20
-28.877801
 11
0.754112
 21
-28.877801
  0
LINE
  5
257
100
AcDbEntity
  8
0
100
AcDbLine
 62
7
  6
CONTINUOUS
 10
0.84588
 20
-28.877801
 11
1.423947
 21
-28.877801
  0
LINE
  5
258
100
AcDbEntity
  8
0
100
AcDbLine
 62
7
  6
CONTINUOUS
 10
2.532466
 20
-28.877801
 11
3.148408
 21
-28.877801
  0
LINE
  5
259
100
AcDbEntity
  8
0
100
AcDbLine
 62
7
  6
CONTINUOUS
 10
3.3200188023
 20
-28.8778013544
 11
3.9020753449
 21
-28.8778013544
  0
LINE
  5
25A
100
AcDbEntity
  8
0
100
AcDbLine
 62
7
  6
CONTINUOUS
 10
4.7970156219
 20
-28.8778013544
 11
5.3591482119
 21
-28.8778013544
  0
LINE
  5
25B
100
AcDbEntity
  8
0
100
AcDbLine
 62
7
  6
CONTINUOUS
 10
1.585207
 20
-28.318881
 11
2.381074
 21
-28.318881
  0
LINE
  5
25C
100
AcDbEntity
  8
0
100
AcDbLine
 62
7
  6
CONTINUOUS
 10
1.704751
 20
-27.886391
 11
2.26428
 21
-27.886391
  0
LINE
  5
25D
100
AcDbEntity
  8
0
100
AcDbLine
 62
7
  6
CONTINUOUS
 10
3.9020753449
 20
-27.7821519248
 11
4.2154209623
 21
-27.7821519248
  0
LWPOLYLINE
  5
25E
100
AcDbEntity
  8
RACCORDO
100
AcDbPolyline
 62
253
  6
CONTINUOUS
 90
16
 70
0
 10
-11.6508701393
 20
22.6310194482
 10
-11.6005357167
 20
22.6897222478
 10
-11.5470675552
 20
22.745075976
 10
-11.4904656547
 20
22.7970807964
 10
-11.4305052031
 20
22.8459304762
 10
-11.3674110126
 20
22.8914315452
 10
-11.3018575197
 20
22.9330033221
 10
-11.2337569237
 20
22.9706031358
 10
-11.1631970252
 20
23.0042739461
 10
-11.0911156629
 20
23.0335635375
 10
-11.0174666569
 20
23.0583767186
 10
-10.9422961872
 20
23.0788089062
 10
-10.8666806325
 20
23.0946937877
 10
-10.7909787855
 20
23.1059759664
 10
-10.7148318535
 20
23.1127109576
 10
-10.6382398365
 20
23.1148987905
  0
LWPOLYLINE
  5
25F
100
AcDbEntity
  8
RACCORDO
100
AcDbPolyline
 62
253
  6
CONTINUOUS
 90
16
 70
0
 10
-11.2624604562
 20
22.2931695584
 10
-11.231521235
 20
22.3290265036
 10
-11.1984536369
 20
22.3630398481
 10
-11.163364947
 20
22.3950812845
 10
-11.1263710508
 20
22.4250267807
 10
-11.0875941518
 20
22.4527626645
 10
-11.0471617849
 20
22.4781852485
 10
-11.0051686287
 20
22.5012137539
 10
-10.9617966892
 20
22.5217280681
 10
-10.9173239915
 20
22.539598285
 10
-10.8719070131
 20
22.5547718971
 10
-10.8257164016
 20
22.5672021431
 10
-10.7790724011
 20
22.5768307257
 10
-10.7321982671
 20
22.5836553704
 10
-10.6852116762
 20
22.5877001985
 10
-10.638277579
 20
22.5889882637
  0
LWPOLYLINE
  5
260
100
AcDbEntity
  8
0
100
AcDbPolyline
 62
7
  6
CONTINUOUS
 90
25
 70
0
 10
3.3200188023
 20
-26.110807341
 10
3.379913229
 20
-26.1020828018
 10
3.439751189
 20
-26.0938685307
 10
3.4995326824
 20
-26.0861645332
 10
3.5592190694
 20
-26.0789195031
 10
3.6188489897
 20
-26.072184756
 10
3.6785383627
 20
-26.0661142308
 10
3.7383002532
 20
-26.0607015346
 10
3.7981215964
 20
-26.05595307
 10
3.8580791179
 20
-26.0520419711
 10
3.9181819434
 20
-26.0489612427
 10
3.9784209471
 20
-26.0467178874
 10
4.0388454768
 20
-26.0455060356
 10
4.0995156422
 20
-26.0453227665
 10
4.1603713337
 20
-26.0461710027
 10
4.2212815704
 20
-26.0482536381
 10
4.2822565951
 20
-26.0515023214
 10
4.343286165
 20
-26.0559853957
 10
4.404208571
 20
-26.0621107917
 10
4.4651521586
 20
-26.0697879108
 10
4.5259885822
 20
-26.079107323
 10
4.5861710958
 20
-26.0907486963
 10
4.6455174505
 20
-26.1049385571
 10
4.7042098952
 20
-26.1214502992
 10
4.7622484297
 20
-26.1402838735
  0
LWPOLYLINE
  5
261
100
AcDbEntity
  8
0
100
AcDbPolyline
 62
7
  6
CONTINUOUS
 90
31
 70
0
 10
4.2166806432
 20
-27.3236280866
 10
4.2404842031
 20
-27.3228715286
 10
4.2641813669
 20
-27.3213804254
 10
4.2877721345
 20
-27.3191547753
 10
4.3112877874
 20
-27.3162593266
 10
4.334697044
 20
-27.3126293258
 10
4.3579060604
 20
-27.3080705175
 10
4.3809308717
 20
-27.3026182096
 10
4.4037554426
 20
-27.2962370812
 10
4.4262378231
 20
-27.2886269275
 10
4.4485028296
 20
-27.279760844
 10
4.4704256457
 20
-27.2696657063
 10
4.4914898718
 20
-27.2581219711
 10
4.5116645288
 20
-27.2450170769
 10
4.5309805958
 20
-27.2304635336
 10
4.5490146107
 20
-27.2145793989
 10
4.5656312828
 20
-27.1972403025
 10
4.5809659028
 20
-27.1785705511
 10
4.5950008806
 20
-27.1590612297
 10
4.6076969648
 20
-27.1387374445
 10
4.6190934068
 20
-27.1175740435
 10
4.6292903716
 20
-27.0959867486
 10
4.638281262
 20
-27.0740624752
 10
4.6460726753
 20
-27.0517142847
 10
4.6527845677
 20
-27.0290971349
 10
4.6584559526
 20
-27.0062356349
 10
4.6630478166
 20
-26.9831051601
 10
4.6665630761
 20
-26.9597868253
 10
4.6690027032
 20
-26.9363076662
 10
4.6703657258
 20
-26.9126406366
 10
4.6706521439
 20
-26.8887857308
  0
LWPOLYLINE
  5
262
100
AcDbEntity
  8
RACCORDO
100
AcDbPolyline
 62
253
  6
CONTINUOUS
 90
17
 70
0
 10
44.431203465
 20
-22.6306824909
 10
44.4715266169
 20
-22.6302605538
 10
44.5110191827
 20
-22.6296730821
 10
44.5494130905
 20
-22.6289240635
 10
44.5864477259
 20
-22.6280185823
 10
44.6218717013
 20
-22.6269627849
 10
44.6554445618
 20
-22.6257638378
 10
44.6869384181
 20
-22.6244298795
 10
44.7161394927
 20
-22.6229699647
 10
44.7428495713
 20
-22.6213940031
 10
44.7668873484
 20
-22.6197126924
 10
44.7880896578
 20
-22.6179374449
 10
44.8063125802
 20
-22.6160803111
 10
44.8214324199
 20
-22.6141538968
 10
44.833346545
 20
-22.6121712785
 10
44.8419740833
 20
-22.610145914
 10
44.8472564721
 20
-22.6080915512
  0
LWPOLYLINE
  5
263
100
AcDbEntity
  8
RACCORDO
100
AcDbPolyline
 62
253
  6
CONTINUOUS
 90
17
 70
0
 10
44.4312063988
 20
-22.542894538
 10
44.4715296113
 20
-22.5424730477
 10
44.5110222338
 20
-22.5418866889
 10
44.5494161932
 20
-22.5411394418
 10
44.5864508739
 20
-22.5402363786
 10
44.6218748872
 20
-22.5391836293
 10
44.6554477773
 20
-22.5379883399
 10
44.6869416538
 20
-22.5366586239
 10
44.7161427385
 20
-22.5352035073
 10
44.7428528165
 20
-22.5336328674
 10
44.7668905816
 20
-22.5319573655
 10
44.7880928672
 20
-22.5301883749
 10
44.8063157536
 20
-22.5283379033
 10
44.8214355451
 20
-22.5264185116
 10
44.8333496098
 20
-22.5244432284
 10
44.8419770757
 20
-22.522425462
 10
44.8472593802
 20
-22.5203789087
  0
LINE
  5
264
100
AcDbEntity
  8
0
100
AcDbLine
 62
7
  6
CONTINUOUS
 10
3.8826972541
 20
-27.3236280866
 11
4.2166806432
 21
-27.3236280866
  0
LINE
  5
265
100
AcDbEntity
  8
0
100
AcDbLine
 62
7
  6
CONTINUOUS
 10
-5.503668
 20
-26.078098
 11
-4.86882
 21
-26.078098
  0
LINE
  5
266
100
AcDbEntity
  8
0
100
AcDbLine
 62
7
  6
CONTINUOUS
 10
-3.785169
 20
-26.078098
 11
-3.20116
 21
-26.078098
  0
LINE
  5
267
100
AcDbEntity
  8
0
100
AcDbLine
 62
7
  6
CONTINUOUS
 10
-1.832475
 20
-26.078098
 11
-1.24855
 21
-26.078098
  0
LINE
  5
268
100
AcDbEntity
  8
0
100
AcDbLine
 62
7
  6
CONTINUOUS
 10
-0.085906
 20
-26.078098
 11
0.492308
 21
-26.078098
  0
LINE
  5
269
100
AcDbEntity
  8
0
100
AcDbLine
 62
7
  6
CONTINUOUS
 10
1.724045
 20
-26.078098
 11
2.28939
 21
-26.078098
  0
LINE
  5
26A
100
AcDbEntity
  8
0
100
AcDbLine
 62
7
  6
CONTINUOUS
 10
-2.984285
 20
-26.07793
 11
-2.399877
 21
-26.07793
  0
LINE
  5
26B
100
AcDbEntity
  8
RACCORDO
100
AcDbLine
 62
253
  6
CONTINUOUS
 10
10.6382398365
 20
-23.1148987905
 11
-10.6382398365
 21
-23.1148987905
  0
LWPOLYLINE
  5
26C
100
AcDbEntity
  8
RACCORDO
100
AcDbPolyline
 62
253
  6
CONTINUOUS
 90
16
 70
0
 10
-10.6382398365
 20
-23.1148987905
 10
-10.71349092
 20
-23.1129194744
 10
-10.7887432805
 20
-23.1063428555
 10
-10.8639969181
 20
-23.0951689046
 10
-10.9396888417
 20
-23.0793863082
 10
-11.0153820424
 20
-23.0590062615
 10
-11.0897654929
 20
-23.0340624693
 10
-11.1628576802
 20
-23.0043550541
 10
-11.2346401174
 20
-22.9700836546
 10
-11.303746316
 20
-22.9318812426
 10
-11.3700385349
 20
-22.8896014802
 10
-11.4336545154
 20
-22.8433904092
 10
-11.4936409925
 20
-22.7943196185
 10
-11.5496802114
 20
-22.7427462394
 10
-11.602089927
 20
-22.6883128948
 10
-11.6508701393
 20
-22.6310194482
  0
LWPOLYLINE
  5
26D
100
AcDbEntity
  8
0
100
AcDbPolyline
 62
7
  6
CONTINUOUS
 90
10
 70
0
 10
4.34051343
 20
-26.5385722489
 10
4.2915841811
 20
-26.5336433491
 10
4.2421123741
 20
-26.5303936039
 10
4.192098009
 20
-26.5288230205
 10
4.14146408
 20
-26.5289170488
 10
4.090287593
 20
-26.5306902422
 10
4.0387995651
 20
-26.5341862576
 10
3.9870770022
 20
-26.5394196405
 10
3.9350428985
 20
-26.5463758253
 10
3.8826972541
 20
-26.5550547959
  0
LWPOLYLINE
  5
26E
100
AcDbEntity
  8
RACCORDO
100
AcDbPolyline
 62
253
  6
CONTINUOUS
 90
13
 70
0
 10
-11.6508701393
 20
-22.6310194482
 10
-11.6951880134
 20
-22.5731806662
 10
-11.7361171448
 20
-22.5128252747
 10
-11.7736575335
 20
-22.4499532241
 10
-11.8080305266
 20
-22.3841672107
 10
-11.839014777
 20
-22.3158644271
 10
-11.865946243
 20
-22.2462365918
 10
-11.8886484722
 20
-22.1752585035
 10
-11.907297917
 20
-22.1029553051
 10
-11.9217598923
 20
-22.0305942865
 10
-11.9319895031
 20
-21.9585978918
 10
-11.9380316445
 20
-21.8865436847
 10
-11.9398863164
 20
-21.8144316658
  0
LWPOLYLINE
  5
26F
100
AcDbEntity
  8
RACCORDO
100
AcDbPolyline
 62
7
  6
CONTINUOUS
 90
25
 70
0
 10
10.5490249234
 20
-22.5
 10
10.6013240094
 20
-22.4983104261
 10
10.6531131864
 20
-22.4932534631
 10
10.7043924545
 20
-22.4848291052
 10
10.7554625192
 20
-22.4729509001
 10
10.8060226751
 20
-22.4577052768
 10
10.8551708052
 20
-22.4393515476
 10
10.9027156104
 20
-22.4179275284
 10
10.94884839
 20
-22.393395362
 10
10.9932409247
 20
-22.365900848
 10
11.0360246785
 20
-22.3353202354
 10
11.0770681874
 20
-22.3017772171
 10
11.1156488412
 20
-22.2657887614
 10
11.1516951091
 20
-22.2272882844
 10
11.1852785217
 20
-22.1863423092
 10
11.2158910611
 20
-22.1436674776
 10
11.2434127797
 20
-22.0993858384
 10
11.2679636251
 20
-22.0533752949
 10
11.2893954213
 20
-22.0059862851
 10
11.3077398797
 20
-21.9570493345
 10
11.3229652891
 20
-21.9067338732
 10
11.3348283398
 20
-21.8558987137
 10
11.3432479286
 20
-21.8048301281
 10
11.3483051588
 20
-21.7532418316
 10
11.3500000304
 20
-21.7011338162
  0
LWPOLYLINE
  5
270
100
AcDbEntity
  8
RACCORDO
100
AcDbPolyline
 62
253
  6
CONTINUOUS
 90
16
 70
0
 10
-11.8147013173
 20
-21.8136609015
 10
-11.774361109
 20
-21.8130665564
 10
-11.7351980169
 20
-21.8123095511
 10
-11.6974905456
 20
-21.811395269
 10
-11.661506848
 20
-21.810330212
 10
-11.6275028187
 20
-21.8091219541
 10
-11.5957202739
 20
-21.8077790877
 10
-11.5663852322
 20
-21.8063111625
 10
-11.5397063068
 20
-21.8047286174
 10
-11.5158732222
 20
-21.8030427066
 10
-11.4950554652
 20
-21.8012654193
 10
-11.477401079
 20
-21.7994093945
 10
-11.4630356112
 20
-21.797487831
 10
-11.4520612204
 20
-21.795514394
 10
-11.4445559499
 20
-21.7935031174
 10
-11.4405731727
 20
-21.791468304
  0
LINE
  5
271
100
AcDbEntity
  8
RACCORDO
100
AcDbLine
 62
253
  6
CONTINUOUS
 10
44.3491668284
 20
-22.5432326076
 11
44.4312063988
 21
-22.542894538
  0
LINE
  5
272
100
AcDbEntity
  8
RACCORDO
100
AcDbLine
 62
253
  6
CONTINUOUS
 10
44.3491640224
 20
-22.6310194482
 11
44.431203465
 21
-22.6306824909
  0
LWPOLYLINE
  5
273
100
AcDbEntity
  8
RACCORDO
100
AcDbPolyline
 62
253
  6
CONTINUOUS
 90
3
 70
0
 10
-11.9398863164
 20
-21.8144316653
 10
-11.8977592502
 20
-21.8143458915
 10
-11.8147013173
 20
-21.8136609015
  0
LINE
  5
274
100
AcDbEntity
  8
RACCORDO
100
AcDbLine
 62
253
  6
CONTINUOUS
 10
11.6508701393
 20
-22.6310194482
 11
44.3491640251
 21
-22.6309807055
  0
LINE
  5
275
100
AcDbEntity
  8
RACCORDO
100
AcDbLine
 62
253
  6
CONTINUOUS
 10
10.6382778217
 20
-22.5889882007
 11
-10.6382479637
 21
-22.5889882007
  0
LINE
  5
276
100
AcDbEntity
  8
RACCORDO
100
AcDbLine
 62
253
  6
CONTINUOUS
 10
-44.8472593806
 20
-22.5203789087
 11
-45.0
 21
-22.5203789087
  0
LINE
  5
277
100
AcDbEntity
  8
RACCORDO
100
AcDbLine
 62
253
  6
CONTINUOUS
 10
44.8472593806
 20
-22.5203789087
 11
45.0
 21
-22.5203789087
  0
LINE
  5
278
100
AcDbEntity
  8
RACCORDO
100
AcDbLine
 62
7
  6
CONTINUOUS
 10
-10.5490249234
 20
-22.5
 11
10.5490249234
 21
-22.5
  0
LWPOLYLINE
  5
279
100
AcDbEntity
  8
RACCORDO
100
AcDbPolyline
 62
253
  6
CONTINUOUS
 90
19
 70
0
 10
-11.6508701393
 20
-22.6310194482
 10
-44.3903234359
 20
-22.6309360285
 10
-44.4312034631
 20
-22.63068249
 10
-44.471526614
 20
-22.6302605529
 10
-44.511019179
 20
-22.6296730812
 10
-44.549413086
 20
-22.6289240627
 10
-44.5864477207
 20
-22.6280185816
 10
-44.6218716955
 20
-22.6269627842
 10
-44.6554445556
 20
-22.6257638372
 10
-44.6869384116
 20
-22.6244298789
 10
-44.716139486
 20
-22.6229699641
 10
-44.7428495646
 20
-22.6213940027
 10
-44.766887342
 20
-22.6197126919
 10
-44.7880896518
 20
-22.6179374446
 10
-44.8063125747
 20
-22.6160803108
 10
-44.8214324152
 20
-22.6141538966
 10
-44.8333465412
 20
-22.6121712784
 10
-44.8419740807
 20
-22.6101459139
 10
-44.8472564707
 20
-22.6080915512
  0
LWPOLYLINE
  5
27A
100
AcDbEntity
  8
RACCORDO
100
AcDbPolyline
 62
253
  6
CONTINUOUS
 90
18
 70
0
 10
-44.3491668284
 20
-22.5432326078
 10
-44.4312063993
 20
-22.5428945383
 10
-44.4715296121
 20
-22.5424730479
 10
-44.5110222349
 20
-22.5418866891
 10
-44.5494161945
 20
-22.541139442
 10
-44.5864508755
 20
-22.5402363788
 10
-44.621874889
 20
-22.5391836295
 10
-44.6554477792
 20
-22.5379883401
 10
-44.6869416558
 20
-22.5366586241
 10
-44.7161427406
 20
-22.5352035075
 10
-44.7428528185
 20
-22.5336328675
 10
-44.7668905836
 20
-22.5319573656
 10
-44.788092869
 20
-22.530188375
 10
-44.8063157552
 20
-22.5283379034
 10
-44.8214355466
 20
-22.5264185116
 10
-44.833349611
 20
-22.5244432285
 10
-44.8419770765
 20
-22.522425462
 10
-44.8472593806
 20
-22.5203789087
  0
LWPOLYLINE
  5
27B
100
AcDbEntity
  8
RACCORDO
100
AcDbPolyline
 62
253
  6
CONTINUOUS
 90
18
 70
0
 10
11.9398863164
 20
-21.8144314823
 10
11.8559314718
 20
-21.8140882205
 10
11.8147008306
 20
-21.8136607821
 10
11.7743604075
 20
-21.8130664553
 10
11.7351970833
 20
-21.8123094669
 10
11.697489368
 20
-21.8113952001
 10
11.6615054199
 20
-21.8103301568
 10
11.6275011389
 20
-21.809121911
 10
11.5957183463
 20
-21.8077790552
 10
11.5663830654
 20
-21.806311139
 10
11.5397039141
 20
-21.8047286015
 10
11.515870621
 20
-21.8030426971
 10
11.4950526767
 20
-21.8012654149
 10
11.4773981278
 20
-21.7994093941
 10
11.4630325248
 20
-21.7974878339
 10
11.4520580285
 20
-21.7955143993
 10
11.4445526841
 20
-21.7935031244
 10
11.4405698658
 20
-21.7914683126
  0
LWPOLYLINE
  5
27C
100
AcDbEntity
  8
RACCORDO
100
AcDbPolyline
 62
253
  6
CONTINUOUS
 90
16
 70
0
 10
-10.6382479775
 20
-22.5889882145
 10
-10.6844147345
 20
-22.5877449773
 10
-10.7308975617
 20
-22.5838047505
 10
-10.7775328892
 20
-22.5770997368
 10
-10.8242305039
 20
-22.567553504
 10
-10.8707255184
 20
-22.5551268985
 10
-10.9165918799
 20
-22.539866936
 10
-10.9616984891
 20
-22.5217708151
 10
-11.0058151674
 20
-22.500883428
 10
-11.0484093575
 20
-22.4774502383
 10
-11.0893164508
 20
-22.4516032205
 10
-11.1284317712
 20
-22.4234522053
 10
-11.1653912464
 20
-22.3933327705
 10
-11.2000443168
 20
-22.3614945546
 10
-11.2324161707
 20
-22.3280488225
 10
-11.2624604562
 20
-22.2931695584
  0
LWPOLYLINE
  5
27D
100
AcDbEntity
  8
0
100
AcDbPolyline
 62
7
  6
CONTINUOUS
 90
48
 70
0
 10
4.7622484297
 20
-26.1402838735
 10
4.7955501559
 20
-26.1538731307
 10
4.8289757704
 20
-26.1703853466
 10
4.8625252733
 20
-26.1898204589
 10
4.896380534
 20
-26.2120605376
 10
4.930359683
 20
-26.2372233566
 10
4.9639171122
 20
-26.2656623805
 10
4.9973346017
 20
-26.297523407
 10
5.0303303713
 20
-26.3326603755
 10
5.0615134722
 20
-26.3709889338
 10
5.0909356845
 20
-26.4131377081
 10
5.118545228
 20
-26.4584777081
 10
5.1427958133
 20
-26.5050382562
 10
5.1631436559
 20
-26.5529471349
 10
5.1801325403
 20
-26.6020763955
 10
5.1938475298
 20
-26.6500720311
 10
5.2039357709
 20
-26.6963042252
 10
5.2107501172
 20
-26.7414029565
 10
5.2154341932
 20
-26.7849040909
 10
5.218167541
 20
-26.8265955373
 10
5.2187706186
 20
-26.866689574
 10
5.2178484241
 20
-26.905358636
 10
5.2154807853
 20
-26.9426590119
 10
5.2115878744
 20
-26.9785345554
 10
5.2065352059
 20
-27.0129890362
 10
5.2003332246
 20
-27.0460030307
 10
5.1929714855
 20
-27.0775960929
 10
5.1847841687
 20
-27.1078304519
 10
5.1757897429
 20
-27.1366861955
 10
5.1659697392
 20
-27.1641833465
 10
5.1556029309
 20
-27.1904440258
 10
5.1447133376
 20
-27.2154747411
 10
5.1332769397
 20
-27.2392690722
 10
5.1215004512
 20
-27.2619297379
 10
5.1094083223
 20
-27.2834531197
 10
5.0969761028
 20
-27.3038429061
 10
5.0843371565
 20
-27.3232127662
 10
5.0714907135
 20
-27.3415634077
 10
5.0584375437
 20
-27.358894177
 10
5.0453133212
 20
-27.3753166935
 10
5.0321112643
 20
-27.3908037354
 10
5.0188381547
 20
-27.4053825658
 10
5.0056500118
 20
-27.419246523
 10
4.9925552975
 20
-27.4324089767
 10
4.9795455498
 20
-27.4448565844
 10
4.9667514023
 20
-27.4567426079
 10
4.9541977971
 20
-27.4680768788
 10
4.941859792
 20
-27.478849584
  0
LWPOLYLINE
  5
27E
100
AcDbEntity
  8
0
100
AcDbPolyline
 62
7
  6
CONTINUOUS
 90
3
 70
0
 10
4.8225031649
 20
-27.5709244369
 10
4.8504347901
 20
-27.5843085944
 10
4.8765536111
 20
-27.5992158224
  0
LWPOLYLINE
  5
27F
100
AcDbEntity
  8
0
100
AcDbPolyline
 62
7
  6
CONTINUOUS
 90
22
 70
0
 10
4.8765536111
 20
-27.5992158224
 10
4.9008596278
 20
-27.6156460876
 10
4.9232778918
 20
-27.6339240211
 10
4.9438833514
 20
-27.6537249096
 10
4.9629008523
 20
-27.6740747262
 10
4.9802483647
 20
-27.6947735377
 10
4.9960079182
 20
-27.716021248
 10
5.0106504482
 20
-27.7374436252
 10
5.0242264861
 20
-27.7589643442
 10
5.0366855003
 20
-27.78065972
 10
5.0483468311
 20
-27.8023844966
 10
5.0592571778
 20
-27.824133638
 10
5.0693698411
 20
-27.8459121776
 10
5.0788640627
 20
-27.8675899721
 10
5.0877517502
 20
-27.889135742
 10
5.0960209961
 20
-27.9105807731
 10
5.1038153201
 20
-27.931888775
 10
5.1111267149
 20
-27.953022568
 10
5.1179631877
 20
-27.9740193406
 10
5.1244922807
 20
-27.9949543527
 10
5.1307019808
 20
-28.0158274203
 10
5.136604301
 20
-28.0366387306
  0
LWPOLYLINE
  5
280
100
AcDbEntity
  8
RACCORDO
100
AcDbPolyline
 62
253
  6
CONTINUOUS
 90
13
 70
0
 10
-11.2624604562
 20
-22.2931695584
 10
-11.2896445675
 20
-22.2577185913
 10
-11.3149542236
 20
-22.2205548862
 10
-11.3382680988
 20
-22.1817682862
 10
-11.3595214019
 20
-22.1413503863
 10
-11.3785348836
 20
-22.0995104899
 10
-11.3950781624
 20
-22.0567037037
 10
-11.4091039043
 20
-22.0130827146
 10
-11.4205798584
 20
-21.9687871502
 10
-11.4294229004
 20
-21.9242946059
 10
-11.4356582011
 20
-21.8798722206
 10
-11.4393568619
 20
-21.8355604888
 10
-11.4405731628
 20
-21.791501964
  0
LWPOLYLINE
  5
281
100
AcDbEntity
  8
RACCORDO
100
AcDbPolyline
 62
7
  6
CONTINUOUS
 90
25
 70
0
 10
-11.3500000304
 20
-21.7011338162
 10
-11.3483133338
 20
-21.7532149459
 10
-11.3432577281
 20
-21.8047950352
 10
-11.3348332135
 20
-21.855874092
 10
-11.3229548361
 20
-21.9067511078
 10
-11.3077075498
 20
-21.9571271031
 10
-11.2893462156
 20
-22.0061051433
 10
-11.2679085355
 20
-22.0534957168
 10
-11.2433568076
 20
-22.0994883805
 10
-11.2158327874
 20
-22.143754821
 10
-11.1852133541
 20
-22.1864259539
 10
-11.1516216286
 20
-22.2273709113
 10
-11.1155687287
 20
-22.2658687184
 10
-11.0769856534
 20
-22.3018503551
 10
-11.0359414038
 20
-22.3353849024
 10
-10.9931541008
 20
-22.3659585498
 10
-10.9487463026
 20
-22.3934508262
 10
-10.902595451
 20
-22.4179822607
 10
-10.8550519923
 20
-22.4394005457
 10
-10.8059446846
 20
-22.4577375369
 10
-10.7554447697
 20
-22.47296142
 10
-10.704416419
 20
-22.4848243794
 10
-10.6531476896
 20
-22.4932438182
 10
-10.6013505244
 20
-22.4983023565
 10
-10.5490249234
 20
-22.5
  0
LINE
  5
282
100
AcDbEntity
  8
RACCORDO
100
AcDbLine
 62
253
  6
CONTINUOUS
 10
-11.9398863164
 20
-21.8144316658
 11
-11.9398863164
 21
21.8144316658
  0
LINE
  5
283
100
AcDbEntity
  8
RACCORDO
100
AcDbLine
 62
253
  6
CONTINUOUS
 10
-11.4405731938
 20
-21.7915019943
 11
-11.4405731783
 21
21.7914779004
  0
LINE
  5
284
100
AcDbEntity
  8
RACCORDO
100
AcDbLine
 62
7
  6
CONTINUOUS
 10
-11.3500000304
 20
21.7011338162
 11
-11.3500000304
 21
-21.7011338162
  0
LINE
  5
285
100
AcDbEntity
  8
RACCORDO
100
AcDbLine
 62
253
  6
CONTINUOUS
 10
-10.6382398365
 20
23.1148987905
 11
-10.6382398365
 21
22.5889882007
  0
LINE
  5
286
100
AcDbEntity
  8
RACCORDO
100
AcDbLine
 62
253
  6
CONTINUOUS
 10
-10.6382398365
 20
-23.1148987905
 11
-10.6382398366
 21
-22.5889882007
  0
LWPOLYLINE
  5
287
100
AcDbEntity
  8
RACCORDO
100
AcDbPolyline
 62
253
  6
CONTINUOUS
 90
13
 70
0
 10
-11.9398863164
 20
21.8144316658
 10
-11.9380955195
 20
21.8858708067
 10
-11.9321482674
 20
21.9573603635
 10
-11.9220445601
 20
22.0289003334
 10
-11.9077700142
 20
22.1008904856
 10
-11.8893390131
 20
22.1729310385
 10
-11.8667947072
 20
22.2438226906
 10
-11.8399427996
 20
22.3135964281
 10
-11.8089775872
 20
22.3822213141
 10
-11.7745251108
 20
22.4484052204
 10
-11.7367940509
 20
22.5117174844
 10
-11.6955757271
 20
22.5725888775
 10
-11.6508701393
 20
22.6310194482
  0
LWPOLYLINE
  5
288
100
AcDbEntity
  8
RACCORDO
100
AcDbPolyline
 62
253
  6
CONTINUOUS
 90
13
 70
0
 10
-11.4405731696
 20
21.7914778918
 10
-11.4393771606
 20
21.835193491
 10
-11.4357322721
 20
21.8792069796
 10
-11.4295774651
 20
21.9233780954
 10
-11.4208398831
 20
21.9676458435
 10
-11.4094844562
 20
22.0117666501
 10
-11.3955635601
 20
22.0553271719
 10
-11.3790758325
 20
22.0982192079
 10
-11.3600617406
 20
22.1402449168
 10
-11.3387585536
 20
22.1808959525
 10
-11.3153462434
 20
22.2199420883
 10
-11.2898752454
 20
22.2573993105
 10
-11.2624604562
 20
22.2931695584
  0
LWPOLYLINE
  5
289
100
AcDbEntity
  8
RACCORDO
100
AcDbPolyline
 62
253
  6
CONTINUOUS
 90
12
 70
0
 10
11.4331268989
 20
22.4508096014
 10
11.4065924351
 20
22.4281049821
 10
11.3818188998
 20
22.4066818451
 10
11.3589848826
 20
22.3866946273
 10
11.3382549913
 20
22.3682874142
 10
11.3197786655
 20
22.3515929015
 10
11.3036890989
 20
22.336731438
 10
11.2901022794
 20
22.3238101582
 10
11.2791161529
 20
22.3129222102
 10
11.2708099172
 20
22.304146084
 10
11.265243451
 20
22.2975450456
 10
11.2624568823
 20
22.2931666812
  0
LINE
  5
28A
100
AcDbEntity
  8
RACCORDO
100
AcDbLine
 62
253
  6
CONTINUOUS
 10
11.4907021604
 20
22.4994005285
 11
11.4331268989
 21
22.4508096014
  0
LINE
  5
28B
100
AcDbEntity
  8
RACCORDO
100
AcDbLine
 62
253
  6
CONTINUOUS
 10
11.552887462
 20
22.5510560054
 11
11.4907021604
 21
22.4994005285
  0
LWPOLYLINE
  5
28C
100
AcDbEntity
  8
RACCORDO
100
AcDbPolyline
 62
253
  6
CONTINUOUS
 90
3
 70
0
 10
11.6508701392
 20
22.6310191921
 10
11.6178928877
 20
22.6042892027
 10
11.552887462
 20
22.5510560054
  0
LINE
  5
28D
100
AcDbEntity
  8
RACCORDO
100
AcDbLine
 62
253
  6
CONTINUOUS
 10
11.6508701394
 20
-22.6310191555
 11
11.5851532863
 21
-22.5775705333
  0
LINE
  5
28E
100
AcDbEntity
  8
RACCORDO
100
AcDbLine
 62
253
  6
CONTINUOUS
 10
11.5851532863
 20
-22.5775705333
 11
11.5213278102
 21
-22.5249364327
  0
LWPOLYLINE
  5
28F
100
AcDbEntity
  8
RACCORDO
100
AcDbPolyline
 62
253
  6
CONTINUOUS
 90
14
 70
0
 10
11.5213278102
 20
-22.5249364327
 10
11.4612308418
 20
-22.4746318553
 10
11.4331266952
 20
-22.4508093994
 10
11.4065921922
 20
-22.4281047504
 10
11.3818186177
 20
-22.4066815842
 10
11.358984562
 20
-22.3866943381
 10
11.3382546338
 20
-22.3682870985
 10
11.3197782732
 20
-22.3515925611
 10
11.3036886747
 20
-22.3367310755
 10
11.2901018266
 20
-22.3238097766
 10
11.2791156755
 20
-22.3129218128
 10
11.2708094194
 20
-22.3041456743
 10
11.2652429374
 20
-22.2975446275
 10
11.2624563579
 20
-22.2931662586
  0
LINE
  5
290
100
AcDbEntity
  8
0
100
AcDbLine
 62
7
  6
CONTINUOUS
 10
-1.400068
 20
-27.049647
 11
-0.714487
 21
-28.877801
  0
LINE
  5
291
100
AcDbEntity
  8
0
100
AcDbLine
 62
7
  6
CONTINUOUS
 10
-1.24855
 20
-26.078098
 11
-0.670314
 21
-27.632502
  0
LINE
  5
292
100
AcDbEntity
  8
0
100
AcDbLine
 62
7
  6
CONTINUOUS
 10
-5.503668
 20
-26.078098
 11
-4.616107
 21
-28.877801
  0
LINE
  5
293
100
AcDbEntity
  8
0
100
AcDbLine
 62
7
  6
CONTINUOUS
 10
-4.86882
 20
-26.078098
 11
-4.335146
 21
-28.00522
  0
LINE
  5
294
100
AcDbEntity
  8
RACCORDO
100
AcDbLine
 62
253
  6
CONTINUOUS
 10
11.4405731942
 20
21.7915025806
 11
11.3500000304
 21
21.7011338162
  0
LINE
  5
295
100
AcDbEntity
  8
RACCORDO
100
AcDbLine
 62
253
  6
CONTINUOUS
 10
10.6382483498
 20
22.5889882007
 11
10.5490249234
 21
22.5
  0
LINE
  5
296
100
AcDbEntity
  8
RACCORDO
100
AcDbLine
 62
253
  6
CONTINUOUS
 10
10.6382778217
 20
-22.5889882007
 11
10.5490249234
 21
-22.5
  0
LINE
  5
297
100
AcDbEntity
  8
RACCORDO
100
AcDbLine
 62
253
  6
CONTINUOUS
 10
11.4405731786
 20
-21.791478323
 11
11.3500000304
 21
-21.7011338162
  0
LWPOLYLINE
  5
298
100
AcDbEntity
  8
0
100
AcDbPolyline
 62
7
  6
CONTINUOUS
 90
19
 70
0
 10
4.5414020591
 20
-28.0286629449
 10
4.5321355564
 20
-28.0059066019
 10
4.5217321442
 20
-27.983848052
 10
4.5101918226
 20
-27.9624873186
 10
4.4975014542
 20
-27.9417311529
 10
4.4836741763
 20
-27.9216728463
 10
4.4687494009
 20
-27.9025922388
 10
4.4527406508
 20
-27.8844552104
 10
4.4356344033
 20
-27.8672959349
 10
4.4174295026
 20
-27.851496709
 10
4.3980382999
 20
-27.8370514436
 10
4.3775484441
 20
-27.8239662887
 10
4.356221726
 20
-27.8126419125
 10
4.3339894809
 20
-27.8032238443
 10
4.3109203736
 20
-27.7955666102
 10
4.2874821895
 20
-27.7896343739
 10
4.2638308572
 20
-27.7854151985
 10
4.2398104481
 20
-27.7829210467
 10
4.2154209623
 20
-27.7821519248
  0
LINE
  5
299
100
AcDbEntity
  8
0
100
AcDbLine
 62
7
  6
CONTINUOUS
 10
2.28939
 20
-26.078098
 11
3.148408
 21
-28.877801
  0
LINE
  5
29A
100
AcDbEntity
  8
0
100
AcDbLine
 62
7
  6
CONTINUOUS
 10
2.381074
 20
-28.318881
 11
2.532466
 21
-28.877801
  0
LINE
  5
29B
100
AcDbEntity
  8
0
100
AcDbLine
 62
7
  6
CONTINUOUS
 10
1.995737
 20
-26.847385
 11
2.26428
 21
-27.886391
  0
LINE
  5
29C
100
AcDbEntity
  8
0
100
AcDbLine
 62
7
  6
CONTINUOUS
 10
0.492308
 20
-26.078098
 11
0.754112
 21
-28.877801
  0
LINE
  5
29D
100
AcDbEntity
  8
0
100
AcDbLine
 62
7
  6
CONTINUOUS
 10
0.062337
 20
-27.057269
 11
0.182406
 21
-28.877801
  0
LINE
  5
29E
100
AcDbEntity
  8
0
100
AcDbLine
 62
7
  6
CONTINUOUS
 10
-2.984285
 20
-26.07793
 11
-2.984285
 21
-28.877801
  0
LINE
  5
29F
100
AcDbEntity
  8
0
100
AcDbLine
 62
7
  6
CONTINUOUS
 10
-2.399877
 20
-26.07793
 11
-2.399877
 21
-28.877801
  0
LINE
  5
2A0
100
AcDbEntity
  8
0
100
AcDbLine
 62
7
  6
CONTINUOUS
 10
-1.400068
 20
-27.049647
 11
-1.526183
 21
-28.877801
  0
LINE
  5
2A1
100
AcDbEntity
  8
0
100
AcDbLine
 62
7
  6
CONTINUOUS
 10
-1.832475
 20
-26.078098
 11
-2.085272
 21
-28.877801
  0
LINE
  5
2A2
100
AcDbEntity
  8
RACCORDO
100
AcDbLine
 62
253
  6
CONTINUOUS
 10
-44.8448916333
 20
-43.845794038
 11
-44.9999996007
 21
-44.0035192549
  0
LINE
  5
2A3
100
AcDbEntity
  8
RACCORDO
100
AcDbLine
 62
253
  6
CONTINUOUS
 10
43.8566450886
 20
44.8340076387
 11
44.0199743099
 21
45.0
  0
LINE
  5
2A4
100
AcDbEntity
  8
RACCORDO
100
AcDbLine
 62
253
  6
CONTINUOUS
 10
-43.8566450886
 20
-44.8340076387
 11
-44.0199743099
 21
-45.0
  0
LINE
  5
2A5
100
AcDbEntity
  8
RACCORDO
100
AcDbLine
 62
253
  6
CONTINUOUS
 10
43.8566450886
 20
-44.8340076387
 11
44.0199743099
 21
-45.0
  0
LINE
  5
2A6
100
AcDbEntity
  8
RACCORDO
100
AcDbLine
 62
253
  6
CONTINUOUS
 10
-43.8566450886
 20
44.8340076387
 11
-44.0199743099
 21
45.0
  0
LINE
  5
2A7
100
AcDbEntity
  8
RACCORDO
100
AcDbLine
 62
253
  6
CONTINUOUS
 10
-44.8448916333
 20
43.8457940385
 11
-44.9999996007
 21
44.0035192549
  0
LWPOLYLINE
  5
2A8
100
AcDbEntity
  8
0
100
AcDbPolyline
 62
7
  6
CONTINUOUS
 90
8
 70
0
 10
4.6307755136
 20
-28.3028024175
 10
4.6191058512
 20
-28.2633001156
 10
4.607183355
 20
-28.2239185206
 10
4.5950077323
 20
-28.1846615565
 10
4.5823633543
 20
-28.1455094835
 10
4.5691783446
 20
-28.1064557269
 10
4.5555245795
 20
-28.0675068779
 10
4.5414020591
 20
-28.0286629449
  0
LINE
  5
2A9
100
AcDbEntity
  8
0
100
AcDbLine
 62
7
  6
CONTINUOUS
 10
4.7970156219
 20
-28.8778013544
 11
4.6993390927
 21
-28.5430010648
  0
LWPOLYLINE
  5
2AA
100
AcDbEntity
  8
0
100
AcDbPolyline
 62
7
  6
CONTINUOUS
 90
4
 70
0
 10
4.6993390927
 20
-28.5430010648
 10
4.6762367738
 20
-28.4622390461
 10
4.6649226796
 20
-28.422147657
 10
4.6307755136
 20
-28.3028024175
  0
LWPOLYLINE
  5
2AB
100
AcDbEntity
  8
0
100
AcDbPolyline
 62
7
  6
CONTINUOUS
 90
3
 70
0
 10
5.136604301
 20
-28.0366387306
 10
5.1481654046
 20
-28.0783287875
 10
5.1538241881
 20
-28.0992075319
  0
LINE
  5
2AC
100
AcDbEntity
  8
0
100
AcDbLine
 62
7
  6
CONTINUOUS
 10
5.1538241881
 20
-28.0992075319
 11
5.2287956061
 21
-28.3803436572
  0
LINE
  5
2AD
100
AcDbEntity
  8
0
100
AcDbLine
 62
7
  6
CONTINUOUS
 10
5.2287956061
 20
-28.3803436572
 11
5.3591482119
 21
-28.8778013544
  0
LWPOLYLINE
  5
2AE
100
AcDbEntity
  8
0
100
AcDbPolyline
 62
7
  6
CONTINUOUS
 90
19
 70
0
 10
4.6706521439
 20
-26.8887857308
 10
4.6692887916
 20
-26.8622147803
 10
4.6657626855
 20
-26.8356476101
 10
4.6600738255
 20
-26.8090842209
 10
4.6522698099
 20
-26.782299168
 10
4.6423030404
 20
-26.7555178923
 10
4.6300307223
 20
-26.7294167479
 10
4.6153450584
 20
-26.7038848863
 10
4.5983538458
 20
-26.6790332021
 10
4.5792376808
 20
-26.6558707216
 10
4.5577892812
 20
-26.6345853818
 10
4.5342159291
 20
-26.6149893511
 10
4.509320068
 20
-26.5975280419
 10
4.4831196852
 20
-26.5823466364
 10
4.4555967932
 20
-26.5693000482
 10
4.4274998735
 20
-26.5583982896
 10
4.39907842
 20
-26.5496447171
 10
4.3700829389
 20
-26.5430360306
 10
4.34051343
 20
-26.5385722489
  0
LINE
  5
2AF
100
AcDbEntity
  8
0
100
AcDbLine
 62
7
  6
CONTINUOUS
 10
3.3200188023
 20
-26.110807341
 11
3.3200188023
 21
-28.8778013544
  0
LINE
  5
2B0
100
AcDbEntity
  8
0
100
AcDbLine
 62
7
  6
CONTINUOUS
 10
3.8826972541
 20
-26.5550547959
 11
3.8826972541
 21
-27.3236280866
  0
LINE
  5
2B1
100
AcDbEntity
  8
0
100
AcDbLine
 62
7
  6
CONTINUOUS
 10
3.9020753449
 20
-27.7821519248
 11
3.9020753449
 21
-28.8778013544
  0
LINE
  5
2B2
100
AcDbEntity
  8
0
100
AcDbLine
 62
7
  6
CONTINUOUS
 10
4.8225031649
 20
-27.554380628
 11
4.8225031649
 21
-27.5709244369
  0
LINE
  5
2B3
100
AcDbEntity
  8
0
100
AcDbLine
 62
7
  6
CONTINUOUS
 10
-3.785169
 20
-26.078098
 11
-4.335146
 21
-28.00522
  0
LINE
  5
2B4
100
AcDbEntity
  8
0
100
AcDbLine
 62
7
  6
CONTINUOUS
 10
-3.20116
 20
-26.078098
 11
-4.101097
 21
-28.877801
  0
LINE
  5
2B5
100
AcDbEntity
  8
RACCORDO
100
AcDbLine
 62
253
  6
CONTINUOUS
 10
44.8448916333
 20
43.845794038
 11
44.9999996007
 21
44.0035192549
  0
LINE
  5
2B6
100
AcDbEntity
  8
RACCORDO
100
AcDbLine
 62
253
  6
CONTINUOUS
 10
44.8448916333
 20
-43.8457940385
 11
44.9999996007
 21
-44.0035192549
  0
LINE
  5
2B7
100
AcDbEntity
  8
0
100
AcDbLine
 62
7
  6
CONTINUOUS
 10
1.995737
 20
-26.847385
 11
1.704751
 21
-27.886391
  0
LINE
  5
2B8
100
AcDbEntity
  8
0
100
AcDbLine
 62
7
  6
CONTINUOUS
 10
1.585207
 20
-28.318881
 11
1.423947
 21
-28.877801
  0
LINE
  5
2B9
100
AcDbEntity
  8
0
100
AcDbLine
 62
7
  6
CONTINUOUS
 10
1.724045
 20
-26.078098
 11
0.84588
 21
-28.877801
  0
LINE
  5
2BA
100
AcDbEntity
  8
0
100
AcDbLine
 62
7
  6
CONTINUOUS
 10
-0.085906
 20
-26.078098
 11
-0.670314
 21
-27.632502
  0
LINE
  5
2BB
100
AcDbEntity
  8
0
100
AcDbLine
 62
7
  6
CONTINUOUS
 10
0.062337
 20
-27.057269
 11
-0.632524
 21
-28.877801
  0
LINE
  5
2BC
100
AcDbEntity
  8
RACCORDO
100
AcDbLine
 62
253
  6
CONTINUOUS
 10
-11.4405731938
 20
-21.7915019943
 11
-11.3500000304
 21
-21.7011338162
  0
LINE
  5
2BD
100
AcDbEntity
  8
RACCORDO
100
AcDbLine
 62
253
  6
CONTINUOUS
 10
-10.6382479637
 20
-22.5889882007
 11
-10.5490249234
 21
-22.5
  0
LWPOLYLINE
  5
2BE
100
AcDbEntity
  8
RACCORDO
100
AcDbPolyline
 62
253
  6
CONTINUOUS
 90
12
 70
0
 10
-11.4331269901
 20
-22.4508096818
 10
-11.4065925424
 20
-22.4281050744
 10
-11.3818190228
 20
-22.4066819491
 10
-11.3589850208
 20
-22.3866947427
 10
-11.3382551438
 20
-22.3682875404
 10
-11.3197788311
 20
-22.3515930376
 10
-11.3036892763
 20
-22.336731583
 10
-11.2901024669
 20
-22.3238103108
 10
-11.2791163488
 20
-22.3129223691
 10
-11.2708101195
 20
-22.3041462476
 10
-11.2652436576
 20
-22.2975452124
 10
-11.2624570911
 20
-22.2931668494
  0
LINE
  5
2BF
100
AcDbEntity
  8
RACCORDO
100
AcDbLine
 62
253
  6
CONTINUOUS
 10
-11.4907022201
 20
-22.4994005858
 11
-11.4331269901
 21
-22.4508096818
  0
LINE
  5
2C0
100
AcDbEntity
  8
RACCORDO
100
AcDbLine
 62
253
  6
CONTINUOUS
 10
-11.5528874931
 20
-22.5510560424
 11
-11.4907022201
 21
-22.4994005858
  0
LINE
  5
2C1
100
AcDbEntity
  8
RACCORDO
100
AcDbLine
 62
253
  6
CONTINUOUS
 10
-11.5528874376
 20
22.5510559617
 11
-11.4907021077
 21
22.4994004591
  0
LWPOLYLINE
  5
2C2
100
AcDbEntity
  8
RACCORDO
100
AcDbPolyline
 62
253
  6
CONTINUOUS
 90
13
 70
0
 10
-11.4907021077
 20
22.4994004591
 10
-11.4331268118
 20
22.450809504
 10
-11.4065923296
 20
22.4281048706
 10
-11.3818187755
 20
22.4066817196
 10
-11.3589847397
 20
22.3866944883
 10
-11.3382548302
 20
22.3682872626
 10
-11.3197784869
 20
22.3515927382
 10
-11.3036889039
 20
22.3367312641
 10
-11.2901020694
 20
22.3238099752
 10
-11.2791159295
 20
22.3129220196
 10
-11.2708096822
 20
22.3041458874
 10
-11.2652432064
 20
22.2975448447
 10
-11.2624566303
 20
22.2931664778
  0
LINE
  5
2C3
100
AcDbEntity
  8
RACCORDO
100
AcDbLine
 62
253
  6
CONTINUOUS
 10
-10.638277515
 20
22.5889882007
 11
-10.5490249234
 21
22.5
  0
LINE
  5
2C4
100
AcDbEntity
  8
RACCORDO
100
AcDbLine
 62
253
  6
CONTINUOUS
 10
-11.4405731783
 20
21.7914779004
 11
-11.3500000304
 21
21.7011338162
  0
LWPOLYLINE
  5
2C5
100
AcDbEntity
  8
RACCORDO
100
AcDbPolyline
 62
7
  6
CONTINUOUS
 90
25
 70
0
 10
11.3500000304
 20
21.7011338162
 10
11.3483133338
 20
21.7532149459
 10
11.3432577281
 20
21.8047950352
 10
11.3348332135
 20
21.855874092
 10
11.3229548361
 20
21.9067511078
 10
11.3077075498
 20
21.9571271031
 10
11.2893462156
 20
22.0061051433
 10
11.2679085355
 20
22.0534957168
 10
11.2433568076
 20
22.0994883805
 10
11.2158327874
 20
22.143754821
 10
11.1852133541
 20
22.1864259539
 10
11.1516216286
 20
22.2273709113
 10
11.1155687287
 20
22.2658687184
 10
11.0769856534
 20
22.3018503551
 10
11.0359414038
 20
22.3353849024
 10
10.9931541008
 20
22.3659585498
 10
10.9487463026
 20
22.3934508262
 10
10.902595451
 20
22.4179822607
 10
10.8550519923
 20
22.4394005457
 10
10.8059446846
 20
22.4577375369
 10
10.7554447697
 20
22.47296142
 10
10.704416419
 20
22.4848243794
 10
10.6531476896
 20
22.4932438182
 10
10.6013505244
 20
22.4983023565
 10
10.5490249234
 20
22.5
  0
LINE
  5
2C6
100
AcDbEntity
  8
RACCORDO
100
AcDbLine
 62
253
  6
CONTINUOUS
 10
10.6382398365
 20
23.1148987905
 11
10.6382398366
 21
22.5889882007
  0
LINE
  5
2C7
100
AcDbEntity
  8
RACCORDO
100
AcDbLine
 62
253
  6
CONTINUOUS
 10
10.6382398365
 20
-23.1148987905
 11
10.6382398365
 21
-22.5889882007
  0
LINE
  5
2C8
100
AcDbEntity
  8
RACCORDO
100
AcDbLine
 62
7
  6
CONTINUOUS
 10
11.3500000304
 20
-21.7011338162
 11
11.3500000304
 21
21.7011338162
  0
LINE
  5
2C9
100
AcDbEntity
  8
RACCORDO
100
AcDbLine
 62
253
  6
CONTINUOUS
 10
11.4405731942
 20
21.7915025806
 11
11.4405731786
 21
-21.791478323
  0
LINE
  5
2CA
100
AcDbEntity
  8
RACCORDO
100
AcDbLine
 62
253
  6
CONTINUOUS
 10
11.9398863164
 20
21.8144316658
 11
11.9398863164
 21
-21.8144316658
  0
LWPOLYLINE
  5
2CB
100
AcDbEntity
  8
RACCORDO
100
AcDbPolyline
 62
253
  6
CONTINUOUS
 90
13
 70
0
 10
11.9398863164
 20
-21.8144316658
 10
11.9380960837
 20
-21.8858793997
 10
11.9321468697
 20
-21.9573807282
 10
11.9220386743
 20
-22.0289356482
 10
11.9077556229
 20
-22.1009480075
 10
11.8893135903
 20
-22.1730139457
 10
11.8667602004
 20
-22.2439219269
 10
11.8399011972
 20
-22.3136982137
 10
11.8089308369
 20
-22.3823165933
 10
11.7744795117
 20
-22.4484868739
 10
11.7367573524
 20
-22.5117790389
 10
11.6955542283
 20
-22.5726232141
 10
11.6508701393
 20
-22.6310194482
  0
LWPOLYLINE
  5
2CC
100
AcDbEntity
  8
RACCORDO
100
AcDbPolyline
 62
253
  6
CONTINUOUS
 90
13
 70
0
 10
11.4405731695
 20
-21.791478314
 10
11.4393770782
 20
-21.8351950726
 10
11.4357316239
 20
-21.8792128622
 10
11.4295752397
 20
-21.923391338
 10
11.4208338934
 20
-21.9676721977
 10
11.4094723185
 20
-22.0118087413
 10
11.3955453026
 20
-22.0553790931
 10
11.3790537098
 20
-22.0982721402
 10
11.3600379978
 20
-22.1402935786
 10
11.3387357052
 20
-22.1809366462
 10
11.3153271949
 20
-22.2199718949
 10
11.2898636444
 20
-22.2574153782
 10
11.2624604562
 20
-22.2931695584
  0
LWPOLYLINE
  5
2CD
100
AcDbEntity
  8
RACCORDO
100
AcDbPolyline
 62
253
  6
CONTINUOUS
 90
3
 70
0
 10
-11.6508701392
 20
-22.6310192088
 10
-11.617892896
 20
-22.6042892244
 10
-11.5528874931
 20
-22.5510560424
  0
LWPOLYLINE
  5
2CE
100
AcDbEntity
  8
RACCORDO
100
AcDbPolyline
 62
253
  6
CONTINUOUS
 90
3
 70
0
 10
-11.6508701394
 20
22.6310191773
 10
-11.58515331
 20
22.5775705708
 10
-11.5528874376
 20
22.5510559617
  0
LWPOLYLINE
  5
2CF
100
AcDbEntity
  8
RACCORDO
100
AcDbPolyline
 62
253
  6
CONTINUOUS
 90
16
 70
0
 10
11.6508701393
 20
-22.6310194482
 10
11.6005262154
 20
-22.6897330709
 10
11.547046493
 20
-22.7450967429
 10
11.490430972
 20
-22.7971106279
 10
11.4304523783
 20
-22.8459696592
 10
11.3673379862
 20
-22.8914792005
 10
11.3017696181
 20
-22.933055073
 10
11.2336617417
 20
-22.9706523064
 10
11.1630998895
 20
-23.00431616
 10
11.0910224815
 20
-23.0335978182
 10
11.0173855973
 20
-23.0584022221
 10
10.9422331574
 20
-23.0788246559
 10
10.8666353432
 20
-23.09470181
 10
10.7909488819
 20
-23.1059792884
 10
10.7148170463
 20
-23.1127116055
 10
10.6382398365
 20
-23.1148987905
  0
LWPOLYLINE
  5
2D0
100
AcDbEntity
  8
RACCORDO
100
AcDbPolyline
 62
253
  6
CONTINUOUS
 90
16
 70
0
 10
11.2624604562
 20
-22.2931695584
 10
11.2315162833
 20
-22.3290319096
 10
11.1984423563
 20
-22.3630507803
 10
11.163345889
 20
-22.3950976714
 10
11.1263413755
 20
-22.4250493663
 10
11.0875522146
 20
-22.4527908018
 10
11.0471103079
 20
-22.478215504
 10
11.005112429
 20
-22.5012424181
 10
10.9617394546
 20
-22.5217530697
 10
10.917269326
 20
-22.5396183739
 10
10.8718600526
 20
-22.5547860446
 10
10.8256811236
 20
-22.5672105208
 10
10.7790482996
 20
-22.5768349611
 10
10.7321831563
 20
-22.5836571171
 10
10.6852047355
 20
-22.5877005909
 10
10.6382778863
 20
-22.5889882642
  0
LWPOLYLINE
  5
2D1
100
AcDbEntity
  8
0
100
AcDbPolyline
 62
7
  6
CONTINUOUS
 90
10
 70
0
 10
4.941859792
 20
-27.478849584
 10
4.9180979654
 20
-27.4991636198
 10
4.9066741438
 20
-27.5087049624
 10
4.8952776457
 20
-27.517686475
 10
4.883993077
 20
-27.526259875
 10
4.8727358317
 20
-27.5342734578
 10
4.861008008
 20
-27.5411500334
 10
4.8486436387
 20
-27.5466972149
 10
4.835808691
 20
-27.5511074107
 10
4.8225031649
 20
-27.554380628
  0
LWPOLYLINE
  5
2D2
100
AcDbEntity
  8
RACCORDO
100
AcDbPolyline
 62
7
  6
CONTINUOUS
 90
25
 70
0
 10
-10.5490249234
 20
22.5
 10
-10.6013240094
 20
22.4983104261
 10
-10.6531131864
 20
22.4932534631
 10
-10.7043924545
 20
22.4848291052
 10
-10.7554625192
 20
22.4729509001
 10
-10.8060226751
 20
22.4577052768
 10
-10.8551708052
 20
22.4393515476
 10
-10.9027156104
 20
22.4179275284
 10
-10.94884839
 20
22.393395362
 10
-10.9932409247
 20
22.365900848
 10
-11.0360246785
 20
22.3353202354
 10
-11.0770681874
 20
22.3017772171
 10
-11.1156488412
 20
22.2657887614
 10
-11.1516951091
 20
22.2272882844
 10
-11.1852785217
 20
22.1863423092
 10
-11.2158910611
 20
22.1436674776
 10
-11.2434127797
 20
22.0993858384
 10
-11.2679636251
 20
22.0533752949
 10
-11.2893954213
 20
22.0059862851
 10
-11.3077398797
 20
21.9570493345
 10
-11.3229652891
 20
21.9067338732
 10
-11.3348283398
 20
21.8558987137
 10
-11.3432479286
 20
21.8048301281
 10
-11.3483051588
 20
21.7532418316
 10
-11.3500000304
 20
21.7011338162
  0
LWPOLYLINE
  5
2D3
100
AcDbEntity
  8
RACCORDO
100
AcDbPolyline
 62
253
  6
CONTINUOUS
 90
16
 70
0
 10
-44.4715296113
 20
22.5424730477
 10
-44.5110222338
 20
22.5418866889
 10
-44.5494161932
 20
22.5411394418
 10
-44.5864508739
 20
22.5402363786
 10
-44.6218748872
 20
22.5391836293
 10
-44.6554477773
 20
22.5379883399
 10
-44.6869416538
 20
22.5366586239
 10
-44.7161427385
 20
22.5352035073
 10
-44.7428528165
 20
22.5336328674
 10
-44.7668905816
 20
22.5319573655
 10
-44.7880928672
 20
22.5301883749
 10
-44.8063157536
 20
22.5283379033
 10
-44.8214355451
 20
22.5264185116
 10
-44.8333496098
 20
22.5244432284
 10
-44.8419770757
 20
22.522425462
 10
-44.8472593802
 20
22.5203789087
  0
LWPOLYLINE
  5
2D4
100
AcDbEntity
  8
RACCORDO
100
AcDbPolyline
 62
253
  6
CONTINUOUS
 90
16
 70
0
 10
-44.4715266169
 20
22.6302605538
 10
-44.5110191827
 20
22.6296730821
 10
-44.5494130905
 20
22.6289240635
 10
-44.5864477259
 20
22.6280185823
 10
-44.6218717013
 20
22.6269627849
 10
-44.6554445618
 20
22.6257638378
 10
-44.6869384181
 20
22.6244298795
 10
-44.7161394927
 20
22.6229699647
 10
-44.7428495713
 20
22.6213940031
 10
-44.7668873484
 20
22.6197126924
 10
-44.7880896578
 20
22.6179374449
 10
-44.8063125802
 20
22.6160803111
 10
-44.8214324199
 20
22.6141538968
 10
-44.833346545
 20
22.6121712785
 10
-44.8419740833
 20
22.610145914
 10
-44.8472564721
 20
22.6080915512
  0
LWPOLYLINE
  5
2D5
100
AcDbEntity
  8
RACCORDO
100
AcDbPolyline
 62
253
  6
CONTINUOUS
 90
16
 70
0
 10
11.8147013173
 20
21.8136609015
 10
11.774361109
 20
21.8130665564
 10
11.7351980169
 20
21.8123095511
 10
11.6974905456
 20
21.811395269
 10
11.661506848
 20
21.810330212
 10
11.6275028187
 20
21.8091219541
 10
11.5957202739
 20
21.8077790877
 10
11.5663852322
 20
21.8063111625
 10
11.5397063068
 20
21.8047286174
 10
11.5158732222
 20
21.8030427066
 10
11.4950554652
 20
21.8012654193
 10
11.477401079
 20
21.7994093945
 10
11.4630356112
 20
21.797487831
 10
11.4520612204
 20
21.795514394
 10
11.4445559499
 20
21.7935031174
 10
11.4405731727
 20
21.791468304
  0
LINE
  5
2D6
100
AcDbEntity
  8
RACCORDO
100
AcDbLine
 62
253
  6
CONTINUOUS
 10
-44.3903234369
 20
22.6309360294
 11
-44.4715266169
 21
22.6302605538
  0
LWPOLYLINE
  5
2D7
100
AcDbEntity
  8
RACCORDO
100
AcDbPolyline
 62
253
  6
CONTINUOUS
 90
3
 70
0
 10
-44.3491668284
 20
22.5432326076
 10
-44.3903263074
 20
22.5431482988
 10
-44.4715296113
 20
22.5424730477
  0
LWPOLYLINE
  5
2D8
100
AcDbEntity
  8
RACCORDO
100
AcDbPolyline
 62
253
  6
CONTINUOUS
 90
3
 70
0
 10
11.9398863164
 20
21.8144316653
 10
11.8977592502
 20
21.8143458915
 10
11.8147013173
 20
21.8136609015
  0
LINE
  5
2D9
100
AcDbEntity
  8
RACCORDO
100
AcDbLine
 62
7
  6
CONTINUOUS
 10
10.5490249234
 20
22.5
 11
-10.5490249234
 21
22.5
  0
LINE
  5
2DA
100
AcDbEntity
  8
RACCORDO
100
AcDbLine
 62
253
  6
CONTINUOUS
 10
-44.8472593806
 20
22.5203789087
 11
-45.0
 21
22.5203789087
  0
LINE
  5
2DB
100
AcDbEntity
  8
RACCORDO
100
AcDbLine
 62
253
  6
CONTINUOUS
 10
44.8472593806
 20
22.5203789087
 11
45.0
 21
22.5203789087
  0
LINE
  5
2DC
100
AcDbEntity
  8
RACCORDO
100
AcDbLine
 62
253
  6
CONTINUOUS
 10
-10.638277515
 20
22.5889882007
 11
10.6382483498
 21
22.5889882007
  0
LINE
  5
2DD
100
AcDbEntity
  8
RACCORDO
100
AcDbLine
 62
253
  6
CONTINUOUS
 10
-44.3903234369
 20
22.6309360294
 11
-11.6508701393
 21
22.6310194482
  0
LINE
  5
2DE
100
AcDbEntity
  8
RACCORDO
100
AcDbLine
 62
253
  6
CONTINUOUS
 10
-10.6382398365
 20
23.1148987905
 11
10.6382398365
 21
23.1148987905
  0
LINE
  5
2DF
100
AcDbEntity
  8
RACCORDO
100
AcDbLine
 62
253
  6
CONTINUOUS
 10
11.6508701393
 20
22.6310194482
 11
44.390323436
 21
22.6309360285
  0
LWPOLYLINE
  5
2E0
100
AcDbEntity
  8
RACCORDO
100
AcDbPolyline
 62
253
  6
CONTINUOUS
 90
18
 70
0
 10
-11.9398863164
 20
21.8144314751
 10
-11.8559314602
 20
21.814088215
 10
-11.8147008113
 20
21.8136607774
 10
-11.7743603797
 20
21.8130664514
 10
-11.7351970463
 20
21.8123094636
 10
-11.6974893213
 20
21.8113951975
 10
-11.6615053633
 20
21.8103301547
 10
-11.6275010722
 20
21.8091219094
 10
-11.5957182698
 20
21.8077790539
 10
-11.5663829794
 20
21.8063111381
 10
-11.5397038191
 20
21.8047286009
 10
-11.5158705177
 20
21.8030426967
 10
-11.4950525659
 20
21.8012654147
 10
-11.4773980106
 20
21.7994093941
 10
-11.4630324021
 20
21.797487834
 10
-11.4520579016
 20
21.7955143995
 10
-11.4445525542
 20
21.7935031247
 10
-11.4405697342
 20
21.7914683129
  0
LWPOLYLINE
  5
2E1
100
AcDbEntity
  8
RACCORDO
100
AcDbPolyline
 62
253
  6
CONTINUOUS
 90
18
 70
0
 10
44.3491668284
 20
22.5432326078
 10
44.4312063993
 20
22.5428945383
 10
44.4715296121
 20
22.5424730479
 10
44.5110222349
 20
22.5418866891
 10
44.5494161945
 20
22.541139442
 10
44.5864508755
 20
22.5402363788
 10
44.621874889
 20
22.5391836295
 10
44.6554477792
 20
22.5379883401
 10
44.6869416558
 20
22.5366586241
 10
44.7161427406
 20
22.5352035075
 10
44.7428528185
 20
22.5336328675
 10
44.7668905836
 20
22.5319573656
 10
44.788092869
 20
22.530188375
 10
44.8063157552
 20
22.5283379034
 10
44.8214355466
 20
22.5264185116
 10
44.833349611
 20
22.5244432285
 10
44.8419770765
 20
22.522425462
 10
44.8472593806
 20
22.5203789087
  0
LWPOLYLINE
  5
2E2
100
AcDbEntity
  8
RACCORDO
100
AcDbPolyline
 62
253
  6
CONTINUOUS
 90
17
 70
0
 10
44.390323436
 20
22.6309360285
 10
44.4715266144
 20
22.630260553
 10
44.5110191794
 20
22.6296730813
 10
44.5494130865
 20
22.6289240628
 10
44.5864477213
 20
22.6280185816
 10
44.6218716961
 20
22.6269627842
 10
44.6554445562
 20
22.6257638372
 10
44.6869384122
 20
22.624429879
 10
44.7161394867
 20
22.6229699642
 10
44.7428495653
 20
22.6213940027
 10
44.7668873427
 20
22.619712692
 10
44.7880896524
 20
22.6179374446
 10
44.8063125752
 20
22.6160803108
 10
44.8214324157
 20
22.6141538966
 10
44.8333465416
 20
22.6121712784
 10
44.8419740809
 20
22.6101459139
 10
44.8472564709
 20
22.6080915512
  0
LWPOLYLINE
  5
2E3
100
AcDbEntity
  8
RACCORDO
100
AcDbPolyline
 62
253
  6
CONTINUOUS
 90
19
 70
0
 10
10.6382483643
 20
22.5889882152
 10
10.676715819
 20
22.5881359839
 10
10.7154117654
 20
22.5854182408
 10
10.7542428309
 20
22.5807958157
 10
10.7931257458
 20
22.5742318686
 10
10.8319446709
 20
22.5656973591
 10
10.8705528884
 20
22.5551781022
 10
10.9089196706
 20
22.5426339888
 10
10.9468568292
 20
22.5280769593
 10
10.9839944177
 20
22.5116255258
 10
11.0202146712
 20
22.4933355559
 10
11.0554498652
 20
22.473245342
 10
11.0894395556
 20
22.4515208389
 10
11.1221086996
 20
22.4282487309
 10
11.153400919
 20
22.4035096171
 10
11.183124088
 20
22.377511642
 10
11.2112016764
 20
22.3504045167
 10
11.2376538005
 20
22.3222556523
 10
11.2624604562
 20
22.2931695584
  0
LWPOLYLINE
  5
2E4
100
AcDbEntity
  8
RACCORDO
100
AcDbPolyline
 62
253
  6
CONTINUOUS
 90
19
 70
0
 10
10.6382398365
 20
23.1148987905
 10
10.7007582081
 20
23.1135143027
 10
10.7633777917
 20
23.1089711462
 10
10.8260985874
 20
23.1012693073
 10
10.8891229599
 20
23.0904407128
 10
10.9522485445
 20
23.07645338
 10
11.0148682464
 20
23.059211415
 10
11.0770886005
 20
23.0386008559
 10
11.138803072
 20
23.0147355464
 10
11.1990849617
 20
22.9878612907
 10
11.2578604952
 20
22.9578939809
 10
11.3152034469
 20
22.9249175634
 10
11.3704084412
 20
22.8894299332
 10
11.4234055531
 20
22.8513651828
 10
11.4742647076
 20
22.8107890491
 10
11.5224903035
 20
22.7683969267
 10
11.5679171406
 20
22.7244205793
 10
11.6107104192
 20
22.6786281106
 10
11.6508701393
 20
22.6310194482
  0
LWPOLYLINE
  5
2E5
100
AcDbEntity
  8
RACCORDO
100
AcDbPolyline
 62
253
  6
CONTINUOUS
 90
13
 70
0
 10
11.2624604562
 20
22.2931695584
 10
11.2896570916
 20
22.2577012617
 10
11.3149747533
 20
22.2205228219
 10
11.3382926682
 20
22.1817246482
 10
11.3595465832
 20
22.1412989693
 10
11.3785580167
 20
22.0994554024
 10
11.3950975047
 20
22.0566490021
 10
11.4091180459
 20
22.0130339616
 10
11.4205886139
 20
21.9687488509
 10
11.4294275683
 20
21.9242670198
 10
11.4356602311
 20
21.8798540396
 10
11.4393573464
 20
21.8355517292
 10
11.4405731626
 20
21.7915025498
  0
LWPOLYLINE
  5
2E6
100
AcDbEntity
  8
RACCORDO
100
AcDbPolyline
 62
253
  6
CONTINUOUS
 90
13
 70
0
 10
11.6508701393
 20
22.6310194482
 10
11.6952101593
 20
22.5731452066
 10
11.7361548599
 20
22.5127619778
 10
11.7737042411
 20
22.449869712
 10
11.8080779375
 20
22.3840713952
 10
11.8390563145
 20
22.3157639309
 10
11.8659804685
 20
22.2461381702
 10
11.8886745647
 20
22.1751706289
 10
11.907314438
 20
22.1028847331
 10
11.9217686897
 20
22.0305417553
 10
11.9319935202
 20
21.958562133
 10
11.9380327291
 20
21.8865254363
 10
11.9398863164
 20
21.8144316658
  0
LWPOLYLINE
  5
2E7
100
AcDbEntity
  8
RACCORDO
100
AcDbPolyline
 62
253
  6
CONTINUOUS
 90
25
 70
0
 10
44.8448916334
 20
43.8457940382
 10
44.8420222615
 20
43.9111937679
 10
44.8349528213
 20
43.9761384962
 10
44.8237333959
 20
44.0403600021
 10
44.8084421672
 20
44.1035670584
 10
44.7891555789
 20
44.1655310996
 10
44.7659285769
 20
44.2260811216
 10
44.7388370415
 20
44.2850115167
 10
44.7080126265
 20
44.342031171
 10
44.6736098612
 20
44.3968505378
 10
44.6357961505
 20
44.4492296003
 10
44.5947276329
 20
44.4989787119
 10
44.5505695136
 20
44.5459035119
 10
44.503512224
 20
44.5898145888
 10
44.4537568112
 20
44.6305381185
 10
44.40149726
 20
44.667918144
 10
44.3469489572
 20
44.7018056865
 10
44.2903441377
 20
44.7320630073
 10
44.2319128801
 20
44.758569305
 10
44.1719058516
 20
44.7812148352
 10
44.1105646285
 20
44.7999136402
 10
44.0481125197
 20
44.8145977175
 10
43.9847960628
 20
44.8252047689
 10
43.9208858728
 20
44.8316848737
 10
43.8566450886
 20
44.8340076387
  0
LWPOLYLINE
  5
2E8
100
AcDbEntity
  8
RACCORDO
100
AcDbPolyline
 62
253
  6
CONTINUOUS
 90
25
 70
0
 10
44.346857488
 20
43.9268006745
 10
44.3457642773
 20
43.9600619029
 10
44.3426189638
 20
43.9928581372
 10
44.3374215476
 20
44.0251894264
 10
44.3301337223
 20
44.0571838394
 10
44.3207937942
 20
44.0887133946
 10
44.3095166828
 20
44.1193941047
 10
44.2962727357
 20
44.1492248706
 10
44.2810916052
 20
44.1782069601
 10
44.2641771674
 20
44.2059600105
 10
44.2455118269
 20
44.2324580308
 10
44.2251131791
 20
44.2577272344
 10
44.2032378862
 20
44.2814656205
 10
44.1798674903
 20
44.30365586
 10
44.1550204493
 20
44.3243155172
 10
44.1290087989
 20
44.3431949628
 10
44.1018192161
 20
44.3602715451
 10
44.0734650239
 20
44.3755681309
 10
44.0442982279
 20
44.3889033796
 10
44.0142988184
 20
44.4002535237
 10
43.9834868049
 20
44.4096424938
 10
43.9522742218
 20
44.4169604898
 10
43.9207984138
 20
44.4221709422
 10
43.888922036
 20
44.4253105083
 10
43.8566450886
 20
44.4263792099
  0
LINE
  5
2E9
100
AcDbEntity
  8
RACCORDO
100
AcDbLine
 62
253
  6
CONTINUOUS
 10
43.8566450886
 20
-44.4263792099
 11
43.8566450885
 21
-44.8340076387
  0
LINE
  5
2EA
100
AcDbEntity
  8
RACCORDO
100
AcDbLine
 62
253
  6
CONTINUOUS
 10
43.8566450886
 20
44.4263792099
 11
43.8566450886
 21
44.8340076387
  0
LINE
  5
2EB
100
AcDbEntity
  8
RACCORDO
100
AcDbLine
 62
253
  6
CONTINUOUS
 10
44.3481971776
 20
34.5017285393
 11
44.346857488
 21
43.9268006745
  0
LINE
  5
2EC
100
AcDbEntity
  8
RACCORDO
100
AcDbLine
 62
253
  6
CONTINUOUS
 10
44.8462670871
 20
34.446380284
 11
44.8448916333
 21
43.845794038
  0
LINE
  5
2ED
100
AcDbEntity
  8
RACCORDO
100
AcDbLine
 62
7
  6
CONTINUOUS
 10
44.9999996007
 20
44.0035192549
 11
45.0
 21
22.5203789087
  0
LINE
  5
2EE
100
AcDbEntity
  8
DRAFT
100
AcDbLine
 62
7
  6
CONTINUOUS
 10
45.0
 20
22.5203789087
 11
45.0
 21
-22.5203789087
  0
LINE
  5
2EF
100
AcDbEntity
  8
RACCORDO
100
AcDbLine
 62
7
  6
CONTINUOUS
 10
45.0
 20
-22.5203789087
 11
44.9999996007
 21
-44.0035192549
  0
LINE
  5
2F0
100
AcDbEntity
  8
RACCORDO
100
AcDbLine
 62
253
  6
CONTINUOUS
 10
44.346857488
 20
-43.9268006745
 11
44.3481971776
 21
34.5017285393
  0
LINE
  5
2F1
100
AcDbEntity
  8
RACCORDO
100
AcDbLine
 62
253
  6
CONTINUOUS
 10
44.8448916333
 20
-43.8457940385
 11
44.8462670871
 21
34.446380284
  0
LWPOLYLINE
  5
2F2
100
AcDbEntity
  8
RACCORDO
100
AcDbPolyline
 62
7
  6
CONTINUOUS
 90
25
 70
0
 10
44.9999996007
 20
-44.0035192549
 10
44.9977748504
 20
-44.0707188539
 10
44.9913318173
 20
-44.1369798403
 10
44.9806705013
 20
-44.2023024144
 10
44.965650718
 20
-44.2670516876
 10
44.9464126519
 20
-44.3308628896
 10
44.9233768564
 20
-44.3926416351
 10
44.8966009274
 20
-44.4521350291
 10
44.8660272689
 20
-44.5095968339
 10
44.8319036465
 20
-44.5646929375
 10
44.7940835273
 20
-44.6175842029
 10
44.7527134442
 20
-44.668110621
 10
44.7084807608
 20
-44.7154569545
 10
44.6613423449
 20
-44.7595165548
 10
44.6113413288
 20
-44.8003970889
 10
44.5592944736
 20
-44.8376049556
 10
44.5053599305
 20
-44.8710155068
 10
44.4493795484
 20
-44.9007543068
 10
44.391695634
 20
-44.9267030864
 10
44.3320714853
 20
-44.9489183461
 10
44.2707438044
 20
-44.9673442233
 10
44.2087650051
 20
-44.9816938602
 10
44.1464858918
 20
-44.9918717628
 10
44.0835556601
 20
-44.9979737802
 10
44.0199743099
 20
-45.0
  0
LWPOLYLINE
  5
2F3
100
AcDbEntity
  8
RACCORDO
100
AcDbPolyline
 62
253
  6
CONTINUOUS
 90
25
 70
0
 10
-43.8566450886
 20
44.8340076387
 10
-43.9209228189
 20
44.8316821307
 10
-43.9848265037
 20
44.8252004766
 10
-44.0480938876
 20
44.8146013812
 10
-44.1104260911
 20
44.7999510384
 10
-44.1716109006
 20
44.7813152536
 10
-44.2315161856
 20
44.7587335475
 10
-44.2899431574
 20
44.7322603731
 10
-44.3465901887
 20
44.7020124516
 10
-44.4011758198
 20
44.6681326608
 10
-44.4534518797
 20
44.6307718195
 10
-44.5032209842
 20
44.5900696518
 10
-44.5502931937
 20
44.5461792985
 10
-44.5944692779
 20
44.4992724169
 10
-44.6355567
 20
44.4495402194
 10
-44.6733883293
 20
44.3971798877
 10
-44.7077991906
 20
44.3423974828
 10
-44.738633886
 20
44.2854182984
 10
-44.7657589711
 20
44.2264834521
 10
-44.7890496382
 20
44.165835588
 10
-44.8083996001
 20
44.1037204579
 10
-44.8237259626
 20
44.0403956035
 10
-44.8349551641
 20
43.976122429
 10
-44.8420245055
 20
43.9111654893
 10
-44.8448916334
 20
43.8457940386
  0
LWPOLYLINE
  5
2F4
100
AcDbEntity
  8
RACCORDO
100
AcDbPolyline
 62
253
  6
CONTINUOUS
 90
25
 70
0
 10
-43.8566450886
 20
44.4263792099
 10
-43.8889611314
 20
44.4252978851
 10
-43.9208480702
 20
44.4221559827
 10
-43.9523059047
 20
44.4169534808
 10
-43.9834544763
 20
44.4096581988
 10
-44.0141739436
 20
44.4003022303
 10
-44.0441047838
 20
44.3889819471
 10
-44.0732522084
 20
44.3756673564
 10
-44.1016110058
 20
44.3603882877
 10
-44.1288060179
 20
44.34333084
 10
-44.1548139592
 20
44.3244767469
 10
-44.1796581151
 20
44.3038440603
 10
-44.2030331837
 20
44.2816733673
 10
-44.2249257759
 20
44.2579421435
 10
-44.2453492807
 20
44.2326726769
 10
-44.2640385636
 20
44.2061728034
 10
-44.2809719082
 20
44.1784255881
 10
-44.2961710309
 20
44.1494477439
 10
-44.3094359457
 20
44.1195976312
 10
-44.3207425689
 20
44.0888499025
 10
-44.3301149842
 20
44.0572297301
 10
-44.3374254572
 20
44.0251713312
 10
-44.3426314098
 20
43.9928194348
 10
-44.3457754201
 20
43.9600292313
 10
-44.346857488
 20
43.9268006745
  0
LWPOLYLINE
  5
2F5
100
AcDbEntity
  8
RACCORDO
100
AcDbPolyline
 62
253
  6
CONTINUOUS
 90
19
 70
0
 10
-44.346857488
 20
43.926800663
 10
-44.3879801891
 20
43.9265061011
 10
-44.4288242517
 20
43.9256106825
 10
-44.4691129252
 20
43.9241204745
 10
-44.5085732223
 20
43.9220455743
 10
-44.5469377684
 20
43.919400041
 10
-44.5839466137
 20
43.9162018003
 10
-44.6193489944
 20
43.9124725226
 10
-44.6529050313
 20
43.9082374769
 10
-44.6843873562
 20
43.9035253587
 10
-44.7135826516
 20
43.8983680965
 10
-44.7402930964
 20
43.8928006347
 10
-44.7643377064
 20
43.8868606972
 10
-44.7855535605
 20
43.8805885318
 10
-44.8037969048
 20
43.8740266374
 10
-44.8189441262
 20
43.8672194758
 10
-44.8308925904
 20
43.8602131709
 10
-44.8395613373
 20
43.8530551961
 10
-44.8448916292
 20
43.8457940521
  0
LINE
  5
2F6
100
AcDbEntity
  8
RACCORDO
100
AcDbLine
 62
253
  6
CONTINUOUS
 10
43.8566450886
 20
44.4263792099
 11
-43.8566450886
 21
44.4263792099
  0
LINE
  5
2F7
100
AcDbEntity
  8
RACCORDO
100
AcDbLine
 62
253
  6
CONTINUOUS
 10
43.8566450886
 20
44.8340076387
 11
-43.8566450886
 21
44.8340076387
  0
LINE
  5
2F8
100
AcDbEntity
  8
RACCORDO
100
AcDbLine
 62
7
  6
CONTINUOUS
 10
44.0199743099
 20
45.0
 11
-44.0199743099
 21
45.0
  0
LWPOLYLINE
  5
2F9
100
AcDbEntity
  8
RACCORDO
100
AcDbPolyline
 62
253
  6
CONTINUOUS
 90
19
 70
0
 10
44.346857488
 20
43.9268006656
 10
44.3879796394
 20
43.9265060638
 10
44.428823117
 20
43.9256106103
 10
44.4691111783
 20
43.9241203723
 10
44.5085708443
 20
43.9220454469
 10
44.5469347487
 20
43.9193998932
 10
44.5839429499
 20
43.9162016365
 10
44.6193446922
 20
43.9124723471
 10
44.6529001044
 20
43.9082372936
 10
44.6843818258
 20
43.9035251713
 10
44.7135765463
 20
43.8983679081
 10
44.7402864517
 20
43.8928004481
 10
44.7643305641
 20
43.8868605146
 10
44.7855459683
 20
43.8805883549
 10
44.8037889153
 20
43.8740264672
 10
44.8189357969
 20
43.867219313
 10
44.8308839825
 20
43.8602130154
 10
44.8395525151
 20
43.8530550472
 10
44.8448826593
 20
43.8457939085
  0
LWPOLYLINE
  5
2FA
100
AcDbEntity
  8
RACCORDO
100
AcDbPolyline
 62
7
  6
CONTINUOUS
 90
25
 70
0
 10
44.0199743099
 20
45.0
 10
44.0835731555
 20
44.9979667472
 10
44.1465038528
 20
44.9918646384
 10
44.2087664018
 20
44.9816935862
 10
44.270699556
 20
44.967361448
 10
44.3319645619
 20
44.9489600123
 10
44.3915451594
 20
44.926765019
 10
44.4492228022
 20
44.9008275483
 10
44.5052160367
 20
44.8710958815
 10
44.5591642417
 20
44.8376915152
 10
44.6112197256
 20
44.8004898697
 10
44.6612301801
 20
44.7596146085
 10
44.7083780595
 20
44.7155596069
 10
44.7526204531
 20
44.6682162185
 10
44.7940002716
 20
44.6176920711
 10
44.8318287016
 20
44.5648056154
 10
44.8659567495
 20
44.5097245395
 10
44.8965334089
 20
44.4522803033
 10
44.9233168471
 20
44.392787195
 10
44.9463700299
 20
44.3309753788
 10
44.9656299916
 20
44.2671138133
 10
44.9806660025
 20
44.2023252677
 10
44.991334486
 20
44.1369839778
 10
44.9977790188
 20
44.0707153728
 10
44.9999996007
 20
44.0035192549
  0
LINE
  5
2FB
100
AcDbEntity
  8
RACCORDO
100
AcDbLine
 62
7
  6
CONTINUOUS
 10
80.2523324653
 20
-44.8340076387
 11
78.3550310937
 21
-45.0
  0
LINE
  5
2FC
100
AcDbEntity
  8
RACCORDO
100
AcDbLine
 62
253
  6
CONTINUOUS
 10
80.3431776265
 20
-43.845794038
 11
78.5413738832
 21
-44.0035192549
  0
LINE
  5
2FD
100
AcDbEntity
  8
0
100
AcDbLine
 62
7
  6
CONTINUOUS
 10
77.8471939016
 20
-43.7
 11
77.8533240398
 21
-43.7
  0
LINE
  5
2FE
100
AcDbEntity
  8
SUPERFICI
100
AcDbLine
 62
7
  6
CONTINUOUS
 10
77.4963325163
 20
-43.682811234
 11
77.8471939016
 21
-43.7
  0
LINE
  5
2FF
100
AcDbEntity
  8
RACCORDO
100
AcDbLine
 62
253
  6
CONTINUOUS
 10
77.6000880367
 20
-43.6865350401
 11
77.8533240399
 21
-43.7
  0
LINE
  5
300
100
AcDbEntity
  8
SUPERFICI
100
AcDbLine
 62
7
  6
CONTINUOUS
 10
77.1497055832
 20
-43.6539349483
 11
77.4963325163
 21
-43.682811234
  0
LWPOLYLINE
  5
301
100
AcDbEntity
  8
RACCORDO
100
AcDbPolyline
 62
253
  6
CONTINUOUS
 90
25
 70
0
 10
78.2056126935
 20
-44.6460533149
 10
78.2061913896
 20
-44.6461015835
 10
78.2068028691
 20
-44.6459386768
 10
78.2074507183
 20
-44.6455455221
 10
78.2081380004
 20
-44.6449033966
 10
78.2088689682
 20
-44.6439921075
 10
78.2096495026
 20
-44.6427876614
 10
78.2104853048
 20
-44.6412676857
 10
78.2113800745
 20
-44.6394044894
 10
78.2123379673
 20
-44.6371592972
 10
78.2133658499
 20
-44.6344970999
 10
78.2144697225
 20
-44.6313842977
 10
78.2156537051
 20
-44.6277774714
 10
78.2169239063
 20
-44.6236439511
 10
78.2182871272
 20
-44.6189473008
 10
78.2197493146
 20
-44.6136341617
 10
78.2213171219
 20
-44.6076691618
 10
78.222997857
 20
-44.6010126503
 10
78.2248003695
 20
-44.5935945011
 10
78.2267334679
 20
-44.585371809
 10
78.228802934
 20
-44.5763085142
 10
78.2310167202
 20
-44.5663251275
 10
78.2333857241
 20
-44.555364691
 10
78.2359204941
 20
-44.5433677909
 10
78.2415478181
 20
-44.5158138229
  0
LINE
  5
302
100
AcDbEntity
  8
RACCORDO
100
AcDbLine
 62
253
  6
CONTINUOUS
 10
78.2079564283
 20
-43.9489881854
 11
78.2512915886
 21
-43.9545455124
  0
LINE
  5
303
100
AcDbEntity
  8
RACCORDO
100
AcDbLine
 62
253
  6
CONTINUOUS
 10
78.2512915886
 20
-43.9545455124
 11
78.3344394806
 21
-43.9654816286
  0
LWPOLYLINE
  5
304
100
AcDbEntity
  8
RACCORDO
100
AcDbPolyline
 62
253
  6
CONTINUOUS
 90
12
 70
0
 10
74.9218272429
 20
43.1443663553
 10
75.1481210826
 20
43.2217736469
 10
75.3790524513
 20
43.2939001481
 10
75.6143364072
 20
43.3606405127
 10
75.8539062031
 20
43.4219423909
 10
76.0972488248
 20
43.4776333696
 10
76.3433775773
 20
43.5274746384
 10
76.591941012
 20
43.5714014285
 10
76.8426387909
 20
43.6093586588
 10
77.0945217643
 20
43.6412146784
 10
77.3470457971
 20
43.66693539
 10
77.6000880561
 20
43.6865350413
  0
LINE
  5
305
100
AcDbEntity
  8
SUPERFICI
100
AcDbLine
 62
7
  6
CONTINUOUS
 10
75.1801868976
 20
43.2517748211
 11
74.9440403637
 21
43.1730771635
  0
LINE
  5
306
100
AcDbEntity
  8
RACCORDO
100
AcDbLine
 62
253
  6
CONTINUOUS
 10
74.9411944748
 20
43.1713765197
 11
74.9444612574
 21
43.1728755978
  0
LWPOLYLINE
  5
307
100
AcDbEntity
  8
RACCORDO
100
AcDbPolyline
 62
7
  6
CONTINUOUS
 90
13
 70
0
 10
74.9444612574
 20
43.1728755978
 10
75.1687728658
 20
43.2474390214
 10
75.3975926419
 20
43.3167892487
 10
75.6306416767
 20
43.3808249511
 10
75.8678409218
 20
43.4394916297
 10
76.1087022286
 20
43.4926282472
 10
76.3523035948
 20
43.5400160911
 10
76.5983063902
 20
43.5815910373
 10
76.846416086
 20
43.6172969752
 10
77.0957411518
 20
43.6470117788
 10
77.3457634501
 20
43.6707002253
 10
77.596353069
 20
43.688368885
 10
77.8471939016
 20
43.7
  0
LINE
  5
308
100
AcDbEntity
  8
RACCORDO
100
AcDbLine
 62
253
  6
CONTINUOUS
 10
78.188454592
 20
44.6404360501
 11
78.2056131639
 21
44.6460534381
  0
LWPOLYLINE
  5
309
100
AcDbEntity
  8
RACCORDO
100
AcDbPolyline
 62
253
  6
CONTINUOUS
 90
13
 70
0
 10
74.9326529645
 20
42.6667588741
 10
75.1648279061
 20
42.7421544665
 10
75.4016264447
 20
42.8122883283
 10
75.6427638658
 20
42.8770569329
 10
75.8882007348
 20
42.9364129288
 10
76.1373979904
 20
42.9901817044
 10
76.3892871099
 20
43.0381197861
 10
76.6435194444
 20
43.0801695646
 10
76.8997903331
 20
43.1162812569
 10
77.1570550827
 20
43.1463254885
 10
77.4147370826
 20
43.1702793081
 10
77.6727460277
 20
43.1881710764
 10
77.9307593915
 20
43.1999994174
  0
LWPOLYLINE
  5
30A
100
AcDbEntity
  8
RACCORDO
100
AcDbPolyline
 62
253
  6
CONTINUOUS
 90
13
 70
0
 10
74.9337211466
 20
42.4321251337
 10
75.1681154133
 20
42.5058838783
 10
75.4071496112
 20
42.5743886041
 10
75.6505396864
 20
42.6375352849
 10
75.8982446106
 20
42.6952734336
 10
76.149727873
 20
42.747430745
 10
76.4039281691
 20
42.793770379
 10
76.6604956234
 20
42.8342330233
 10
76.9191279647
 20
42.8687674645
 10
77.178793752
 20
42.8972489423
 10
77.4389211218
 20
42.9196533648
 10
77.6994155379
 20
42.9360037232
 10
77.9599541897
 20
42.9462954714
  0
LINE
  5
30B
100
AcDbEntity
  8
RACCORDO
100
AcDbLine
 62
253
  6
CONTINUOUS
 10
75.1658168858
 20
43.246163483
 11
75.1687728658
 21
43.2474390214
  0
LINE
  5
30C
100
AcDbEntity
  8
SUPERFICI
100
AcDbLine
 62
7
  6
CONTINUOUS
 10
75.4976995062
 20
43.346233425
 11
75.1801868976
 21
43.2517748211
  0
LWPOLYLINE
  5
30D
100
AcDbEntity
  8
RACCORDO
100
AcDbPolyline
 62
253
  6
CONTINUOUS
 90
4
 70
0
 10
74.7429522763
 20
-42.43331537
 10
74.7444463449
 20
-42.4331879856
 10
74.748913687
 20
-42.4330618701
 10
74.7563098057
 20
-42.4329382795
  0
LWPOLYLINE
  5
30E
100
AcDbEntity
  8
RACCORDO
100
AcDbPolyline
 62
253
  6
CONTINUOUS
 90
3
 70
0
 10
74.7429521997
 20
-42.6672957805
 10
74.7444367577
 20
-42.6672384151
 10
74.7488757406
 20
-42.6671816174
  0
LINE
  5
30F
100
AcDbEntity
  8
RACCORDO
100
AcDbLine
 62
253
  6
CONTINUOUS
 10
74.7563098057
 20
-42.4329382795
 11
74.7795652573
 21
-42.4327035601
  0
LINE
  5
310
100
AcDbEntity
  8
RACCORDO
100
AcDbLine
 62
253
  6
CONTINUOUS
 10
74.7488757406
 20
-42.6671816174
 11
74.7793366027
 21
-42.6670201908
  0
LINE
  5
311
100
AcDbEntity
  8
RACCORDO
100
AcDbLine
 62
253
  6
CONTINUOUS
 10
74.7795652573
 20
-42.4327035601
 11
74.8804675383
 21
-42.4322410852
  0
LINE
  5
312
100
AcDbEntity
  8
RACCORDO
100
AcDbLine
 62
253
  6
CONTINUOUS
 10
74.8804675383
 20
-42.4322410852
 11
74.9337211438
 21
-42.4321251336
  0
LINE
  5
313
100
AcDbEntity
  8
RACCORDO
100
AcDbLine
 62
253
  6
CONTINUOUS
 10
74.7793366027
 20
-42.6670201908
 11
74.9326529619
 21
-42.6667588741
  0
LINE
  5
314
100
AcDbEntity
  8
RACCORDO
100
AcDbLine
 62
253
  6
CONTINUOUS
 10
76.3506735663
 20
-43.5395274817
 11
76.3523035673
 21
-43.5400160861
  0
LINE
  5
315
100
AcDbEntity
  8
RACCORDO
100
AcDbLine
 62
253
  6
CONTINUOUS
 10
80.7916256092
 20
-43.9268006656
 11
80.3431768392
 21
-43.8457939085
  0
LINE
  5
316
100
AcDbEntity
  8
RACCORDO
100
AcDbLine
 62
253
  6
CONTINUOUS
 10
78.223084818
 20
-43.8679118883
 11
78.3461952059
 21
-43.8904815641
  0
LINE
  5
317
100
AcDbEntity
  8
RACCORDO
100
AcDbLine
 62
253
  6
CONTINUOUS
 10
78.5413738412
 20
-44.0035194839
 11
78.3344389496
 21
-43.96548541
  0
LINE
  5
318
100
AcDbEntity
  8
RACCORDO
100
AcDbLine
 62
253
  6
CONTINUOUS
 10
76.1068265043
 20
-43.492016571
 11
76.108702195
 21
-43.4926282402
  0
LINE
  5
319
100
AcDbEntity
  8
RACCORDO
100
AcDbLine
 62
253
  6
CONTINUOUS
 10
75.8657280643
 20
-43.4387454981
 11
75.8678408822
 21
-43.4394916204
  0
LINE
  5
31A
100
AcDbEntity
  8
RACCORDO
100
AcDbLine
 62
253
  6
CONTINUOUS
 10
75.628271577
 20
-43.3799256455
 11
75.6306416372
 21
-43.3808249408
  0
LWPOLYLINE
  5
31B
100
AcDbEntity
  8
SUPERFICI
100
AcDbPolyline
 62
7
  6
CONTINUOUS
 90
6
 70
0
 10
75.4976995031
 20
-43.3462334241
 10
75.8201261849
 20
-43.4296678563
 10
76.1452406359
 20
-43.501800357
 10
76.4734672872
 20
-43.5629869041
 10
76.8080610607
 20
-43.6137831739
 10
77.1497055832
 20
-43.6539349483
  0
LINE
  5
31C
100
AcDbEntity
  8
RACCORDO
100
AcDbLine
 62
7
  6
CONTINUOUS
 10
78.4117996932
 20
-44.7
 11
78.2056126117
 21
-44.6460532936
  0
LINE
  5
31D
100
AcDbEntity
  8
RACCORDO
100
AcDbLine
 62
253
  6
CONTINUOUS
 10
75.3949377258
 20
-43.3157134487
 11
75.3975926102
 21
-43.3167892395
  0
LINE
  5
31E
100
AcDbEntity
  8
SUPERFICI
100
AcDbLine
 62
7
  6
CONTINUOUS
 10
75.1801868959
 20
-43.2517748205
 11
75.4976995031
 21
-43.3462334241
  0
LINE
  5
31F
100
AcDbEntity
  8
RACCORDO
100
AcDbLine
 62
253
  6
CONTINUOUS
 10
75.1658181354
 20
-43.2461638805
 11
75.1687728474
 21
-43.2474390155
  0
LWPOLYLINE
  5
320
100
AcDbEntity
  8
RACCORDO
100
AcDbPolyline
 62
253
  6
CONTINUOUS
 90
13
 70
0
 10
74.9337211466
 20
-42.4321251337
 10
75.1681155462
 20
-42.5058839183
 10
75.4071498397
 20
-42.5743886665
 10
75.650539971
 20
-42.6375353549
 10
75.8982448956
 20
-42.6952734963
 10
76.1497281148
 20
-42.7474307921
 10
76.4039283662
 20
-42.7937704125
 10
76.660495789
 20
-42.8342330475
 10
76.9191280979
 20
-42.8687674807
 10
77.1787938522
 20
-42.8972489521
 10
77.4389211888
 20
-42.9196533697
 10
77.6994155714
 20
-42.9360037249
 10
77.9599541897
 20
-42.9462954714
  0
LWPOLYLINE
  5
321
100
AcDbEntity
  8
RACCORDO
100
AcDbPolyline
 62
253
  6
CONTINUOUS
 90
13
 70
0
 10
74.9326529645
 20
-42.6667588741
 10
75.164827904
 20
-42.7421544658
 10
75.4016264412
 20
-42.8122883273
 10
75.6427638614
 20
-42.8770569318
 10
75.8882007304
 20
-42.9364129277
 10
76.1373979866
 20
-42.9901817037
 10
76.3892871069
 20
-43.0381197855
 10
76.6435194418
 20
-43.0801695642
 10
76.8997903311
 20
-43.1162812567
 10
77.1570550812
 20
-43.1463254884
 10
77.4147370815
 20
-43.170279308
 10
77.6727460272
 20
-43.1881710764
 10
77.9307593915
 20
-43.1999994174
  0
LINE
  5
322
100
AcDbEntity
  8
RACCORDO
100
AcDbLine
 62
253
  6
CONTINUOUS
 10
78.1884546165
 20
-44.640435957
 11
78.2056131916
 21
-44.6460533321
  0
LWPOLYLINE
  5
323
100
AcDbEntity
  8
RACCORDO
100
AcDbPolyline
 62
7
  6
CONTINUOUS
 90
13
 70
0
 10
74.9444612574
 20
-43.1728755978
 10
75.1687728474
 20
-43.2474390155
 10
75.3975926102
 20
-43.3167892395
 10
75.6306416372
 20
-43.3808249408
 10
75.8678408822
 20
-43.4394916204
 10
76.108702195
 20
-43.4926282402
 10
76.3523035673
 20
-43.5400160861
 10
76.5983063671
 20
-43.5815910337
 10
76.8464160674
 20
-43.6172969728
 10
77.0957411378
 20
-43.6470117773
 10
77.3457634407
 20
-43.6707002246
 10
77.5963530643
 20
-43.6883688847
 10
77.8471939016
 20
-43.7
  0
LINE
  5
324
100
AcDbEntity
  8
RACCORDO
100
AcDbLine
 62
253
  6
CONTINUOUS
 10
74.9411944748
 20
-43.1713765197
 11
74.9444612574
 21
-43.1728755978
  0
LINE
  5
325
100
AcDbEntity
  8
SUPERFICI
100
AcDbLine
 62
7
  6
CONTINUOUS
 10
74.9440403627
 20
-43.1730771631
 11
75.1801868959
 21
-43.2517748205
  0
LWPOLYLINE
  5
326
100
AcDbEntity
  8
RACCORDO
100
AcDbPolyline
 62
253
  6
CONTINUOUS
 90
12
 70
0
 10
74.9218272429
 20
-43.1443663553
 10
75.1481210063
 20
-43.221773622
 10
75.3790523198
 20
-43.293900109
 10
75.6143362433
 20
-43.3606404685
 10
75.853906039
 20
-43.4219423512
 10
76.0972486854
 20
-43.4776333395
 10
76.3433774636
 20
-43.5274746168
 10
76.5919409164
 20
-43.5714014128
 10
76.842638714
 20
-43.6093586481
 10
77.0945217064
 20
-43.6412146718
 10
77.3470457583
 20
-43.6669353865
 10
77.6000880367
 20
-43.6865350401
  0
LWPOLYLINE
  5
327
100
AcDbEntity
  8
RACCORDO
100
AcDbPolyline
 62
253
  6
CONTINUOUS
 90
7
 70
0
 10
74.9444612574
 20
-43.1728755978
 10
74.9439501786
 20
-43.1726879342
 10
74.9434257434
 20
-43.1724761353
 10
74.9428879535
 20
-43.1722396522
 10
74.9423368109
 20
-43.17197793
 10
74.9417723173
 20
-43.171690408
 10
74.9411944748
 20
-43.1713765197
  0
LINE
  5
328
100
AcDbEntity
  8
RACCORDO
100
AcDbLine
 62
7
  6
CONTINUOUS
 10
74.9158444775
 20
-43.1612325096
 11
74.9444655871
 21
-43.1728631393
  0
LWPOLYLINE
  5
329
100
AcDbEntity
  8
RACCORDO
100
AcDbPolyline
 62
253
  6
CONTINUOUS
 90
7
 70
0
 10
74.9411944748
 20
43.1713765197
 10
74.9417723163
 20
43.1716904086
 10
74.9423368092
 20
43.1719779306
 10
74.9428879517
 20
43.1722396526
 10
74.9434257417
 20
43.1724761354
 10
74.9439501776
 20
43.172687934
 10
74.9444612574
 20
43.1728755978
  0
LWPOLYLINE
  5
32A
100
AcDbEntity
  8
RACCORDO
100
AcDbPolyline
 62
253
  6
CONTINUOUS
 90
13
 70
0
 10
74.9411944748
 20
-43.1713765197
 10
74.9394136782
 20
-43.1702490705
 10
74.9376659111
 20
-43.1689138812
 10
74.9359509696
 20
-43.1673726325
 10
74.9342699753
 20
-43.1656278365
 10
74.9326214151
 20
-43.1636804855
 10
74.9310011574
 20
-43.1615294312
 10
74.9294088392
 20
-43.1591758062
 10
74.9278444977
 20
-43.1566207939
 10
74.9263046363
 20
-43.1538621693
 10
74.9247880047
 20
-43.1508993029
 10
74.9232955839
 20
-43.1477338354
 10
74.9218272429
 20
-43.1443663553
  0
LWPOLYLINE
  5
32B
100
AcDbEntity
  8
RACCORDO
100
AcDbPolyline
 62
253
  6
CONTINUOUS
 90
4
 70
0
 10
74.8486773442
 20
43.1002524313
 10
74.8715489644
 20
43.1171955954
 10
74.8960077547
 20
43.1319457741
 10
74.9218272303
 20
43.1443663828
  0
LWPOLYLINE
  5
32C
100
AcDbEntity
  8
RACCORDO
100
AcDbPolyline
 62
253
  6
CONTINUOUS
 90
4
 70
0
 10
74.8486773314
 20
-43.1002525079
 10
74.8715489405
 20
-43.1171956815
 10
74.8960077188
 20
-43.1319458701
 10
74.9218271815
 20
-43.1443664892
  0
LWPOLYLINE
  5
32D
100
AcDbEntity
  8
RACCORDO
100
AcDbPolyline
 62
7
  6
CONTINUOUS
 90
4
 70
0
 10
74.8392086455
 20
-43.1096951752
 10
74.8629354545
 20
-43.1294801597
 10
74.8885713554
 20
-43.1467202152
 10
74.9158444775
 20
-43.1612325096
  0
LWPOLYLINE
  5
32E
100
AcDbEntity
  8
RACCORDO
100
AcDbPolyline
 62
253
  6
CONTINUOUS
 90
6
 70
0
 10
78.119207287
 20
44.5845340761
 10
78.1301425757
 20
44.5989189894
 10
78.1427284614
 20
44.6118782237
 10
78.1567818119
 20
44.6232232144
 10
78.1720981427
 20
44.6327888853
 10
78.188454592
 20
44.6404360501
  0
LINE
  5
32F
100
AcDbEntity
  8
0
100
AcDbLine
 62
7
  6
CONTINUOUS
 10
82.8107329947
 20
-28.877801
 11
82.9111198771
 21
-28.877801
  0
LWPOLYLINE
  5
330
100
AcDbEntity
  8
RACCORDO
100
AcDbPolyline
 62
253
  6
CONTINUOUS
 90
6
 70
0
 10
78.119207299
 20
-44.5845340422
 10
78.1301425889
 20
-44.5989189445
 10
78.1427284767
 20
-44.6118781674
 10
78.1567818299
 20
-44.6232231462
 10
78.1720981639
 20
-44.6327888048
 10
78.1884546165
 20
-44.640435957
  0
LINE
  5
331
100
AcDbEntity
  8
0
100
AcDbLine
 62
7
  6
CONTINUOUS
 10
83.0335854811
 20
-26.078098
 11
83.1338380056
 21
-26.078098
  0
LINE
  5
332
100
AcDbEntity
  8
SUPERFICI
100
AcDbLine
 62
7
  6
CONTINUOUS
 10
83.136170029
 20
-26.0452484808
 11
83.0359189094
 21
-26.0452484808
  0
LINE
  5
333
100
AcDbEntity
  8
RACCORDO
100
AcDbLine
 62
253
  6
CONTINUOUS
 10
80.6223170088
 20
-24.070301097
 11
80.7474100832
 21
-24.0778008693
  0
LWPOLYLINE
  5
334
100
AcDbEntity
  8
RACCORDO
100
AcDbPolyline
 62
253
  6
CONTINUOUS
 90
8
 70
0
 10
74.7811738968
 20
-43.0357861566
 10
74.7974656198
 20
-43.0616773955
 10
74.8163122459
 20
-43.0857751426
 10
74.8375176287
 20
-43.1078286007
 10
74.8608610729
 20
-43.1276082481
 10
74.8860996317
 20
-43.144908228
 10
74.9129706345
 20
-43.1595484909
 10
74.9411944212
 20
-43.1713766681
  0
LWPOLYLINE
  5
335
100
AcDbEntity
  8
RACCORDO
100
AcDbPolyline
 62
253
  6
CONTINUOUS
 90
13
 70
0
 10
74.9218272429
 20
43.1443663553
 10
74.923296081
 20
43.1477349237
 10
74.9247889196
 20
43.1509011612
 10
74.9263058888
 20
43.153864516
 10
74.9278460117
 20
43.1566233877
 10
74.929410533
 20
43.1591784392
 10
74.9310029348
 20
43.1615319243
 10
74.9326231812
 20
43.1636826998
 10
74.9342716321
 20
43.1656296707
 10
74.9359523983
 20
43.1673740139
 10
74.9376669851
 20
43.1689147759
 10
74.9394142764
 20
43.1702494906
 10
74.9411944748
 20
43.1713765197
  0
LWPOLYLINE
  5
336
100
AcDbEntity
  8
RACCORDO
100
AcDbPolyline
 62
253
  6
CONTINUOUS
 90
6
 70
0
 10
74.7649196121
 20
42.9887576409
 10
74.7770377848
 20
43.0139606338
 10
74.7916182881
 20
43.0379265827
 10
74.8085261087
 20
43.0604335664
 10
74.8276046824
 20
43.0812731732
 10
74.8486773442
 20
43.1002524313
  0
LINE
  5
337
100
AcDbEntity
  8
RACCORDO
100
AcDbLine
 62
253
  6
CONTINUOUS
 10
74.7429521997
 20
-22.8076446486
 11
74.7441873621
 21
-22.807621043
  0
LINE
  5
338
100
AcDbEntity
  8
RACCORDO
100
AcDbLine
 62
253
  6
CONTINUOUS
 10
74.7429521997
 20
-21.9188168495
 11
74.7441926459
 21
-21.9187943477
  0
LINE
  5
339
100
AcDbEntity
  8
RACCORDO
100
AcDbLine
 62
253
  6
CONTINUOUS
 10
74.7429521998
 20
-21.2704938486
 11
74.7441963028
 21
-21.2704723139
  0
LINE
  5
33A
100
AcDbEntity
  8
RACCORDO
100
AcDbLine
 62
253
  6
CONTINUOUS
 10
74.7441873621
 20
-22.807621043
 11
74.7733256408
 21
-22.8075304747
  0
LINE
  5
33B
100
AcDbEntity
  8
RACCORDO
100
AcDbLine
 62
253
  6
CONTINUOUS
 10
74.7441926459
 20
-21.9187943477
 11
74.7734534135
 21
-21.9187080303
  0
LINE
  5
33C
100
AcDbEntity
  8
RACCORDO
100
AcDbLine
 62
253
  6
CONTINUOUS
 10
74.7441963028
 20
-21.2704723139
 11
74.7866659993
 21
-21.270370809
  0
LINE
  5
33D
100
AcDbEntity
  8
RACCORDO
100
AcDbLine
 62
253
  6
CONTINUOUS
 10
74.7733256408
 20
-22.8075304747
 11
74.9806567054
 21
-22.8073899216
  0
LINE
  5
33E
100
AcDbEntity
  8
RACCORDO
100
AcDbLine
 62
253
  6
CONTINUOUS
 10
74.7734534135
 20
-21.9187080303
 11
74.9815113182
 21
-21.9185744023
  0
LINE
  5
33F
100
AcDbEntity
  8
RACCORDO
100
AcDbLine
 62
253
  6
CONTINUOUS
 10
74.7866659993
 20
-21.270370809
 11
74.9821020196
 21
-21.2702620638
  0
LINE
  5
340
100
AcDbEntity
  8
RACCORDO
100
AcDbLine
 62
253
  6
CONTINUOUS
 10
82.7915693496
 20
-22.5203789087
 11
81.0457360813
 21
-22.5203789087
  0
LINE
  5
341
100
AcDbEntity
  8
RACCORDO
100
AcDbLine
 62
253
  6
CONTINUOUS
 10
83.2473640996
 20
-22.5432326078
 11
82.7915693496
 21
-22.5203789087
  0
LINE
  5
342
100
AcDbEntity
  8
RACCORDO
100
AcDbLine
 62
253
  6
CONTINUOUS
 10
83.2429521815
 20
-22.6310194473
 11
82.7871623427
 21
-22.6080915512
  0
LINE
  5
343
100
AcDbEntity
  8
RACCORDO
100
AcDbLine
 62
253
  6
CONTINUOUS
 10
80.7113694066
 20
-22.4521762792
 11
80.8366409655
 21
-22.4584709197
  0
LINE
  5
344
100
AcDbEntity
  8
RACCORDO
100
AcDbLine
 62
253
  6
CONTINUOUS
 10
80.7087948647
 20
-22.5033846583
 11
81.0457360813
 21
-22.5203789087
  0
LWPOLYLINE
  5
345
100
AcDbEntity
  8
RACCORDO
100
AcDbPolyline
 62
253
  6
CONTINUOUS
 90
10
 70
0
 10
74.9821020196
 20
-21.2702620638
 10
75.5618188061
 20
-21.3637479109
 10
76.1465076651
 20
-21.4503128465
 10
76.7355927883
 20
-21.529872976
 10
77.3288575457
 20
-21.6023861691
 10
77.9253789469
 20
-21.6677195268
 10
78.5235070497
 20
-21.7256923539
 10
79.1223013624
 20
-21.7762337434
 10
79.7215513712
 20
-21.8193395917
 10
80.320696536
 20
-21.8549701508
  0
LWPOLYLINE
  5
346
100
AcDbEntity
  8
RACCORDO
100
AcDbPolyline
 62
253
  6
CONTINUOUS
 90
10
 70
0
 10
74.9815113182
 20
-21.9185744023
 10
75.5569744506
 20
-22.0145874979
 10
76.1375902915
 20
-22.1035344509
 10
76.7227729749
 20
-22.1853269685
 10
77.3123088135
 20
-22.2599215235
 10
77.9052507632
 20
-22.3271770153
 10
78.4998965546
 20
-22.3869006906
 10
79.095279432
 20
-22.4390174955
 10
79.6911899611
 20
-22.4835241436
 10
80.287055133
 20
-22.5203789262
  0
LWPOLYLINE
  5
347
100
AcDbEntity
  8
RACCORDO
100
AcDbPolyline
 62
253
  6
CONTINUOUS
 90
10
 70
0
 10
74.9806567054
 20
-22.8073899216
 10
75.5499447686
 20
-22.9066563133
 10
76.1246290486
 20
-22.9986652387
 10
76.7041105174
 20
-23.0833221801
 10
77.288179902
 20
-23.1605815852
 10
77.8758579365
 20
-23.2302907756
 10
78.4653716841
 20
-23.2922400594
 10
79.0557189898
 20
-23.3463485619
 10
79.6466921006
 20
-23.3926141031
 10
80.2377012885
 20
-23.4309921914
  0
LWPOLYLINE
  5
348
100
AcDbEntity
  8
RACCORDO
100
AcDbPolyline
 62
253
  6
CONTINUOUS
 90
6
 70
0
 10
74.7649196286
 20
-42.9887576748
 10
74.7770377995
 20
-43.0139606758
 10
74.7916182988
 20
-43.037926633
 10
74.8085261133
 20
-43.0604336251
 10
74.8276046791
 20
-43.0812732407
 10
74.8486773314
 20
-43.1002525079
  0
LWPOLYLINE
  5
349
100
AcDbEntity
  8
RACCORDO
100
AcDbPolyline
 62
253
  6
CONTINUOUS
 90
4
 70
0
 10
74.9218272429
 20
-43.1443663553
 10
74.9197190645
 20
-43.1394230371
 10
74.917720827
 20
-43.1340180785
 10
74.9158326426
 20
-43.1281398226
  0
LWPOLYLINE
  5
34A
100
AcDbEntity
  8
RACCORDO
100
AcDbPolyline
 62
253
  6
CONTINUOUS
 90
3
 70
0
 10
74.7484952692
 20
42.9355833222
 10
74.7553759827
 20
42.9625509804
 10
74.7649196121
 20
42.9887576409
  0
LWPOLYLINE
  5
34B
100
AcDbEntity
  8
RACCORDO
100
AcDbPolyline
 62
253
  6
CONTINUOUS
 90
40
 70
0
 10
74.9158326426
 20
-43.1281398226
 10
74.9140509735
 20
-43.1217600364
 10
74.9123796236
 20
-43.1148824869
 10
74.910829737
 20
-43.1075545673
 10
74.9094048501
 20
-43.0997822747
 10
74.9081017729
 20
-43.0915609484
 10
74.9069215635
 20
-43.0829404301
 10
74.9058656187
 20
-43.0739322666
 10
74.9049329304
 20
-43.0645419242
 10
74.9041209287
 20
-43.054823727
 10
74.9034302807
 20
-43.0448006617
 10
74.902860723
 20
-43.0344782152
 10
74.9024082648
 20
-43.0238925702
 10
74.9020721888
 20
-43.0130755224
 10
74.9018536274
 20
-43.0020269865
 10
74.9017513683
 20
-42.9907349527
 10
74.9017657296
 20
-42.9792098748
 10
74.9018968841
 20
-42.9674651547
 10
74.9021434318
 20
-42.9554888266
 10
74.9025076113
 20
-42.9433009228
 10
74.9029872187
 20
-42.9309074036
 10
74.9035741955
 20
-42.9182704041
 10
74.9042642451
 20
-42.9054023304
 10
74.9050613454
 20
-42.8923145943
 10
74.9059698629
 20
-42.8789620293
 10
74.9069907576
 20
-42.8653172892
 10
74.9081227224
 20
-42.8514262338
 10
74.909366719
 20
-42.8373533861
 10
74.9107229854
 20
-42.8231067485
 10
74.9121908142
 20
-42.8087041519
 10
74.9137697474
 20
-42.7942294132
 10
74.9154610529
 20
-42.7796934366
 10
74.9172629094
 20
-42.7651154273
 10
74.9191702595
 20
-42.7505953283
 10
74.9211869002
 20
-42.7361393021
 10
74.923308466
 20
-42.7217723008
 10
74.925517751
 20
-42.7076248406
 10
74.9278089094
 20
-42.6937505405
 10
74.9301873787
 20
-42.6801244411
 10
74.9326529645
 20
-42.6667588741
  0
LWPOLYLINE
  5
34C
100
AcDbEntity
  8
RACCORDO
100
AcDbPolyline
 62
7
  6
CONTINUOUS
 90
7
 70
0
 10
74.7492975615
 20
-42.9508795315
 10
74.7571668022
 20
-42.9807529325
 10
74.7680668198
 20
-43.0096586686
 10
74.7818820187
 20
-43.0372901919
 10
74.7984658875
 20
-43.0633544679
 10
74.8176425532
 20
-43.0875750829
 10
74.8392086455
 20
-43.1096951752
  0
LWPOLYLINE
  5
34D
100
AcDbEntity
  8
RACCORDO
100
AcDbPolyline
 62
253
  6
CONTINUOUS
 90
3
 70
0
 10
74.7484952823
 20
-42.9355833397
 10
74.7553759987
 20
-42.9625510061
 10
74.7649196286
 20
-42.9887576748
  0
LWPOLYLINE
  5
34E
100
AcDbEntity
  8
RACCORDO
100
AcDbPolyline
 62
253
  6
CONTINUOUS
 90
12
 70
0
 10
74.7445134084
 20
42.9198959698
 10
74.7491806059
 20
42.950123286
 10
74.7569052185
 20
42.9797180372
 10
74.7676068527
 20
43.0083722162
 10
74.7811741318
 20
43.0357876052
 10
74.7974658547
 20
43.0616788797
 10
74.8163124662
 20
43.0857765782
 10
74.8375178209
 20
43.107829906
 10
74.860861225
 20
43.1276093457
 10
74.8860997331
 20
43.1449090458
 10
74.9129706764
 20
43.1595489629
 10
74.9411943969
 20
43.1713767357
  0
LINE
  5
34F
100
AcDbEntity
  8
RACCORDO
100
AcDbLine
 62
253
  6
CONTINUOUS
 10
77.9599541897
 20
42.9462954714
 11
78.2230848139
 21
43.8679118876
  0
LINE
  5
350
100
AcDbEntity
  8
RACCORDO
100
AcDbLine
 62
7
  6
CONTINUOUS
 10
77.8471939016
 20
43.7
 11
78.0968354676
 21
44.5427758029
  0
LWPOLYLINE
  5
351
100
AcDbEntity
  8
RACCORDO
100
AcDbPolyline
 62
253
  6
CONTINUOUS
 90
4
 70
0
 10
78.0977625578
 20
44.535003544
 10
78.1028986277
 20
44.5523421476
 10
78.1100817101
 20
44.5689327929
 10
78.119207287
 20
44.5845340761
  0
LINE
  5
352
100
AcDbEntity
  8
RACCORDO
100
AcDbLine
 62
253
  6
CONTINUOUS
 10
80.2377012885
 20
23.4309921914
 11
80.622317003
 21
24.0703010966
  0
LINE
  5
353
100
AcDbEntity
  8
RACCORDO
100
AcDbLine
 62
253
  6
CONTINUOUS
 10
80.320696536
 20
21.8549701508
 11
80.7113694068
 21
22.4521762792
  0
LINE
  5
354
100
AcDbEntity
  8
RACCORDO
100
AcDbLine
 62
253
  6
CONTINUOUS
 10
80.320696536
 20
-21.8549701508
 11
80.7113694068
 21
-22.4521762792
  0
LINE
  5
355
100
AcDbEntity
  8
RACCORDO
100
AcDbLine
 62
253
  6
CONTINUOUS
 10
80.2377012885
 20
-23.4309921914
 11
80.622317003
 21
-24.0703010967
  0
LINE
  5
356
100
AcDbEntity
  8
RACCORDO
100
AcDbLine
 62
7
  6
CONTINUOUS
 10
77.8471939016
 20
-43.7
 11
78.0968354676
 21
-44.5427758029
  0
LWPOLYLINE
  5
357
100
AcDbEntity
  8
RACCORDO
100
AcDbPolyline
 62
253
  6
CONTINUOUS
 90
4
 70
0
 10
78.0977625729
 20
-44.5350035405
 10
78.1028986405
 20
-44.5523421343
 10
78.1100817219
 20
-44.5689327695
 10
78.119207299
 20
-44.5845340422
  0
LINE
  5
358
100
AcDbEntity
  8
RACCORDO
100
AcDbLine
 62
253
  6
CONTINUOUS
 10
77.9599541897
 20
-42.9462954714
 11
78.2230848139
 21
-43.8679118876
  0
LWPOLYLINE
  5
359
100
AcDbEntity
  8
RACCORDO
100
AcDbPolyline
 62
253
  6
CONTINUOUS
 90
10
 70
0
 10
78.0968354676
 20
-44.5427758029
 10
78.0965758481
 20
-44.5417699984
 10
78.0964056633
 20
-44.5408035292
 10
78.0963255791
 20
-44.5398727962
 10
78.0963362092
 20
-44.5389706859
 10
78.0964384617
 20
-44.5380961103
 10
78.0966325673
 20
-44.5372591837
 10
78.0969180733
 20
-44.5364660735
 10
78.0972948159
 20
-44.5357138267
 10
78.0977625849
 20
-44.5350035377
  0
LINE
  5
35A
100
AcDbEntity
  8
RACCORDO
100
AcDbLine
 62
7
  6
CONTINUOUS
 10
74.7445425516
 20
-42.9203552753
 11
74.7492975615
 21
-42.9508795315
  0
LWPOLYLINE
  5
35B
100
AcDbEntity
  8
RACCORDO
100
AcDbPolyline
 62
7
  6
CONTINUOUS
 90
4
 70
0
 10
74.74754834
 20
42.9421651235
 10
74.7443732752
 20
42.9190153138
 10
74.7431797228
 20
42.9015214567
 10
74.7429521997
 20
42.8898218882
  0
LINE
  5
35C
100
AcDbEntity
  8
RACCORDO
100
AcDbLine
 62
253
  6
CONTINUOUS
 10
74.7443411862
 20
42.9081043832
 11
74.7484952692
 21
42.9355833222
  0
LINE
  5
35D
100
AcDbEntity
  8
RACCORDO
100
AcDbLine
 62
253
  6
CONTINUOUS
 10
74.7443411939
 20
-42.9081043921
 11
74.7484952823
 21
-42.9355833397
  0
LINE
  5
35E
100
AcDbEntity
  8
RACCORDO
100
AcDbLine
 62
7
  6
CONTINUOUS
 10
74.7443732752
 20
-42.9190153196
 11
74.74754834
 21
-42.9421651207
  0
LINE
  5
35F
100
AcDbEntity
  8
RACCORDO
100
AcDbLine
 62
7
  6
CONTINUOUS
 10
74.7429521997
 20
-42.8895038765
 11
74.7445425516
 21
-42.9203552753
  0
LINE
  5
360
100
AcDbEntity
  8
RACCORDO
100
AcDbLine
 62
253
  6
CONTINUOUS
 10
74.7429521997
 20
-42.8803686145
 11
74.7429521997
 21
-42.8895038765
  0
LWPOLYLINE
  5
361
100
AcDbEntity
  8
RACCORDO
100
AcDbPolyline
 62
7
  6
CONTINUOUS
 90
3
 70
0
 10
74.7429521997
 20
-42.8898219709
 10
74.7431797228
 20
-42.9015214901
 10
74.7443732752
 20
-42.9190153196
  0
LINE
  5
362
100
AcDbEntity
  8
RACCORDO
100
AcDbLine
 62
253
  6
CONTINUOUS
 10
74.9714920678
 20
29.7893818078
 11
74.9625512144
 21
34.1881211111
  0
LINE
  5
363
100
AcDbEntity
  8
RACCORDO
100
AcDbLine
 62
253
  6
CONTINUOUS
 10
74.9915928979
 20
4.0058300883
 11
74.9714920678
 21
29.7893818078
  0
LINE
  5
364
100
AcDbEntity
  8
RACCORDO
100
AcDbLine
 62
7
  6
CONTINUOUS
 10
74.7429521997
 20
-42.8884682225
 11
74.7429521997
 21
-4.0204738956
  0
LINE
  5
365
100
AcDbEntity
  8
RACCORDO
100
AcDbLine
 62
7
  6
CONTINUOUS
 10
74.7429521997
 20
4.0204738976
 11
74.7429521997
 21
42.8893506799
  0
LINE
  5
366
100
AcDbEntity
  8
RACCORDO
100
AcDbLine
 62
253
  6
CONTINUOUS
 10
74.9806567054
 20
-22.8073899216
 11
74.9915928967
 21
-4.005830094
  0
LWPOLYLINE
  5
367
100
AcDbEntity
  8
RACCORDO
100
AcDbPolyline
 62
253
  6
CONTINUOUS
 90
3
 70
0
 10
74.9626390515
 20
-34.1486000317
 10
74.9674740324
 20
-31.9736990564
 10
74.9806567054
 20
-22.8073899216
  0
LINE
  5
368
100
AcDbEntity
  8
RACCORDO
100
AcDbLine
 62
253
  6
CONTINUOUS
 10
74.7429521997
 20
42.8803686145
 11
74.7445134084
 21
42.9198959698
  0
LWPOLYLINE
  5
369
100
AcDbEntity
  8
RACCORDO
100
AcDbPolyline
 62
253
  6
CONTINUOUS
 90
16
 70
0
 10
74.9916314623
 20
4.0058233631
 10
74.988353675
 20
3.9856167578
 10
74.985471189
 20
3.9656235667
 10
74.9830143965
 20
3.9460545927
 10
74.9810092014
 20
3.927116166
 10
74.9794767458
 20
3.9090079684
 10
74.9784331876
 20
3.891920928
 10
74.9778895297
 20
3.876035206
 10
74.9778515044
 20
3.8615182973
 10
74.9783195126
 20
3.8485232645
 10
74.9792886197
 20
3.8371871236
 10
74.9807486077
 20
3.8276294001
 10
74.9826840829
 20
3.819950868
 10
74.9850746382
 20
3.8142324877
 10
74.987895068
 20
3.8105345524
 10
74.9911156347
 20
3.8088960522
  0
LINE
  5
36A
100
AcDbEntity
  8
RACCORDO
100
AcDbLine
 62
7
  6
CONTINUOUS
 10
76.4950411457
 20
-3.5437134076
 11
74.9082225138
 21
-3.8235123459
  0
LINE
  5
36B
100
AcDbEntity
  8
RACCORDO
100
AcDbLine
 62
253
  6
CONTINUOUS
 10
76.5017657686
 20
-3.7405063924
 11
74.9915928967
 21
-4.005830094
  0
LINE
  5
36C
100
AcDbEntity
  8
RACCORDO
100
AcDbLine
 62
253
  6
CONTINUOUS
 10
74.9915929471
 20
-4.0058255728
 11
74.7429521004
 21
-4.0204736885
  0
LINE
  5
36D
100
AcDbEntity
  8
RACCORDO
100
AcDbLine
 62
253
  6
CONTINUOUS
 10
76.7443885313
 20
-3.2482502678
 11
76.7429524509
 21
-3.2482701106
  0
LWPOLYLINE
  5
36E
100
AcDbEntity
  8
RACCORDO
100
AcDbPolyline
 62
253
  6
CONTINUOUS
 90
3
 70
0
 10
76.916650404
 20
-3.2481056686
 10
76.8931227354
 20
-3.2481094595
 10
76.7443885313
 20
-3.2482502678
  0
LWPOLYLINE
  5
36F
100
AcDbEntity
  8
RACCORDO
100
AcDbPolyline
 62
253
  6
CONTINUOUS
 90
16
 70
0
 10
74.9916318048
 20
-4.0058233724
 10
74.9883540339
 20
-3.9856168264
 10
74.9854715592
 20
-3.9656236925
 10
74.9830147725
 20
-3.9460547716
 10
74.9810095771
 20
-3.9271163921
 10
74.9794771152
 20
-3.9090082342
 10
74.9784335444
 20
-3.8919212243
 10
74.9778898677
 20
-3.8760355224
 10
74.9778518173
 20
-3.8615186221
 10
74.9783197944
 20
-3.8485235848
 10
74.9792888647
 20
-3.8371874261
 10
74.9807488106
 20
-3.8276296706
 10
74.982684239
 20
-3.8199510923
 10
74.9850747432
 20
-3.8142326515
 10
74.9878951186
 20
-3.8105346417
 10
74.9911156281
 20
-3.8088960534
  0
LINE
  5
370
100
AcDbEntity
  8
RACCORDO
100
AcDbLine
 62
253
  6
CONTINUOUS
 10
74.9431278883
 20
40.4396140754
 11
74.9329376157
 21
42.5878268474
  0
LINE
  5
371
100
AcDbEntity
  8
RACCORDO
100
AcDbLine
 62
253
  6
CONTINUOUS
 10
74.9329376157
 20
42.5878268474
 11
74.9326529645
 21
42.6667588741
  0
LWPOLYLINE
  5
372
100
AcDbEntity
  8
RACCORDO
100
AcDbPolyline
 62
253
  6
CONTINUOUS
 90
3
 70
0
 10
74.9625512144
 20
34.1881211111
 10
74.9570967311
 20
36.3166325187
 10
74.9431278883
 20
40.4396140754
  0
LINE
  5
373
100
AcDbEntity
  8
RACCORDO
100
AcDbLine
 62
7
  6
CONTINUOUS
 10
76.7429521997
 20
3.2482818658
 11
76.7429521997
 21
-3.2482701106
  0
LINE
  5
374
100
AcDbEntity
  8
RACCORDO
100
AcDbLine
 62
253
  6
CONTINUOUS
 10
76.9166504416
 20
3.2481056688
 11
76.9166504416
 21
-3.2481056688
  0
LWPOLYLINE
  5
375
100
AcDbEntity
  8
RACCORDO
100
AcDbPolyline
 62
253
  6
CONTINUOUS
 90
3
 70
0
 10
74.9432098163
 20
-40.4241897391
 10
74.9508970838
 20
-38.3739370751
 10
74.9626390515
 20
-34.1486000317
  0
LINE
  5
376
100
AcDbEntity
  8
RACCORDO
100
AcDbLine
 62
253
  6
CONTINUOUS
 10
74.9326529645
 20
-42.6667588741
 11
74.9432098163
 21
-40.4241897391
  0
LWPOLYLINE
  5
377
100
AcDbEntity
  8
RACCORDO
100
AcDbPolyline
 62
253
  6
CONTINUOUS
 90
19
 70
0
 10
76.9166504416
 20
-3.2481056688
 10
76.9150816093
 20
-3.2870236657
 10
76.9106157689
 20
-3.3252624658
 10
76.903253602
 20
-3.3628201266
 10
76.8929244916
 20
-3.399899246
 10
76.8797007142
 20
-3.4362932111
 10
76.8637973872
 20
-3.4713865243
 10
76.8451744552
 20
-3.5051615472
 10
76.8238740372
 20
-3.5376325484
 10
76.8002344147
 20
-3.5682327023
 10
76.7742036204
 20
-3.5969435516
 10
76.7458356858
 20
-3.6237814518
 10
76.7156275093
 20
-3.6482330106
 10
76.6835597694
 20
-3.6702498153
 10
76.6496533501
 20
-3.689880054
 10
76.6144648255
 20
-3.7067566424
 10
76.5781798131
 20
-3.7207580498
 10
76.5406133552
 20
-3.7320076257
 10
76.5017657686
 20
-3.7405063924
  0
LWPOLYLINE
  5
378
100
AcDbEntity
  8
RACCORDO
100
AcDbPolyline
 62
253
  6
CONTINUOUS
 90
16
 70
0
 10
76.5017658405
 20
3.7405063928
 10
76.4984134196
 20
3.7202416471
 10
76.4953937129
 20
3.7001936534
 10
76.4927387552
 20
3.6805750917
 10
76.4904767116
 20
3.6615940862
 10
76.4886315789
 20
3.6434519976
 10
76.4872229315
 20
3.626341287
 10
76.4862657129
 20
3.610443474
 10
76.4857700777
 20
3.595927211
 10
76.485741284
 20
3.5829464945
 10
76.486179637
 20
3.5716390309
 10
76.4870804866
 20
3.5621247758
 10
76.4884342759
 20
3.5545046616
 10
76.4902266432
 20
3.5488595265
 10
76.492438574
 20
3.5452492572
 10
76.4950466031
 20
3.5437121533
  0
LINE
  5
379
100
AcDbEntity
  8
RACCORDO
100
AcDbLine
 62
253
  6
CONTINUOUS
 10
76.7429521997
 20
-0.0
 11
81.4005225741
 21
-0.0
  0
LWPOLYLINE
  5
37A
100
AcDbEntity
  8
RACCORDO
100
AcDbPolyline
 62
253
  6
CONTINUOUS
 90
16
 70
0
 10
76.5017657667
 20
-3.7405063923
 10
76.4984133581
 20
-3.7202416474
 10
76.4953936637
 20
-3.7001936594
 10
76.4927387179
 20
-3.6805751076
 10
76.4904766859
 20
-3.6615941159
 10
76.4886315643
 20
-3.6434520444
 10
76.4872229273
 20
-3.6263413536
 10
76.4862657184
 20
-3.6104435627
 10
76.485770092
 20
-3.5959273235
 10
76.4857413062
 20
-3.5829466319
 10
76.4861796663
 20
-3.5716391937
 10
76.4870805219
 20
-3.5621249642
 10
76.4884343163
 20
-3.5545048752
 10
76.4902266877
 20
-3.5488597646
 10
76.4924386217
 20
-3.5452495186
 10
76.495046653
 20
-3.5437124366
  0
LWPOLYLINE
  5
37B
100
AcDbEntity
  8
0
100
AcDbPolyline
 62
7
  6
CONTINUOUS
 90
25
 70
0
 10
77.9341195074
 20
43.15383836
 10
77.9285968113
 20
43.2299921896
 10
77.9260943208
 20
43.2604891963
 10
77.9232704948
 20
43.2913697146
 10
77.9201349666
 20
43.3225397652
 10
77.9167264032
 20
43.3538095273
 10
77.9131152087
 20
43.3848998388
 10
77.9093503758
 20
43.415687924
 10
77.9054592907
 20
43.4459430807
 10
77.901489686
 20
43.475237348
 10
77.8974951601
 20
43.5033952812
 10
77.8935191863
 20
43.5302373554
 10
77.8895973702
 20
43.5553835462
 10
77.8857353777
 20
43.578688338
 10
77.8819651341
 20
43.6001086173
 10
77.878356625
 20
43.6194897939
 10
77.8749087208
 20
43.6368207006
 10
77.8716078028
 20
43.6520752534
 10
77.8685008353
 20
43.6651537125
 10
77.8656049836
 20
43.6760814214
 10
77.8628854954
 20
43.6849050137
 10
77.8603086308
 20
43.6916336009
 10
77.8578571159
 20
43.6963334909
 10
77.8555314089
 20
43.6990954607
 10
77.8533240399
 20
43.7
  0
LWPOLYLINE
  5
37C
100
AcDbEntity
  8
0
100
AcDbPolyline
 62
7
  6
CONTINUOUS
 90
10
 70
0
 10
80.2377012885
 20
23.4309921914
 10
80.1009433723
 20
25.6063318533
 10
79.9347021931
 20
27.7824923743
 10
79.7392192026
 20
29.9579751647
 10
79.5149094935
 20
32.1299148628
 10
79.2618941133
 20
34.2981427315
 10
78.9798346015
 20
36.4651357294
 10
78.6686393867
 20
38.6306065529
 10
78.3286293003
 20
40.7915549707
 10
77.9599541897
 20
42.9462954714
  0
LINE
  5
37D
100
AcDbEntity
  8
0
100
AcDbLine
 62
7
  6
CONTINUOUS
 10
80.2909128581
 20
22.4460949145
 11
80.2377012885
 21
23.4309921914
  0
LINE
  5
37E
100
AcDbEntity
  8
0
100
AcDbLine
 62
7
  6
CONTINUOUS
 10
80.320696536
 20
21.8549701508
 11
80.2909128581
 21
22.4460949145
  0
LWPOLYLINE
  5
37F
100
AcDbEntity
  8
RACCORDO
100
AcDbPolyline
 62
253
  6
CONTINUOUS
 90
10
 70
0
 10
81.2750398771
 20
-0.0
 10
81.2680755603
 20
2.4953686965
 10
81.247185975
 20
4.9909535539
 10
81.2123740074
 20
7.4866078314
 10
81.1636413076
 20
9.9822436498
 10
81.1009912973
 20
12.4776552478
 10
81.0244324592
 20
14.9725189385
 10
80.9339727914
 20
17.4666288459
 10
80.8296165196
 20
19.9598969429
 10
80.7113694068
 20
22.4521762792
  0
LWPOLYLINE
  5
380
100
AcDbEntity
  8
RACCORDO
100
AcDbPolyline
 62
253
  6
CONTINUOUS
 90
10
 70
0
 10
81.4005225741
 20
0.0000000001
 10
81.3935486317
 20
2.4961871164
 10
81.3726530268
 20
4.9924483762
 10
81.3378341177
 20
7.4887079755
 10
81.2890874784
 20
9.9850189039
 10
81.2264128524
 20
12.4811764004
 10
81.1498222243
 20
14.9767170263
 10
81.0593272687
 20
17.4714339557
 10
80.954931258
 20
19.9653779272
 10
80.8366409656
 20
22.4584709197
  0
LWPOLYLINE
  5
381
100
AcDbEntity
  8
0
100
AcDbPolyline
 62
7
  6
CONTINUOUS
 90
10
 70
0
 10
80.8558556664
 20
-0.0
 10
80.8492486799
 20
2.4289396872
 10
80.8294232474
 20
4.8580174531
 10
80.7963803749
 20
7.2871289148
 10
80.7501197309
 20
9.7162321294
 10
80.6906430048
 20
12.1451601406
 10
80.6179573061
 20
14.5736210738
 10
80.5320690994
 20
17.0014480779
 10
80.4329808047
 20
19.4285992306
 10
80.320696536
 20
21.8549701508
  0
LWPOLYLINE
  5
382
100
AcDbEntity
  8
0
100
AcDbPolyline
 62
7
  6
CONTINUOUS
 90
9
 70
0
 10
80.4329808047
 20
-19.4285992305
 10
80.5320690994
 20
-17.0014480778
 10
80.6179573061
 20
-14.5736210736
 10
80.6906430048
 20
-12.1451601405
 10
80.7501197309
 20
-9.7162321294
 10
80.7963803749
 20
-7.2871289149
 10
80.8294232474
 20
-4.8580174532
 10
80.8492486799
 20
-2.4289396872
 10
80.8558556664
 20
-0.0
  0
LWPOLYLINE
  5
383
100
AcDbEntity
  8
RACCORDO
100
AcDbPolyline
 62
253
  6
CONTINUOUS
 90
9
 70
0
 10
80.8296165327
 20
-19.9598966481
 10
80.9339728047
 20
-17.4666285061
 10
81.0244324637
 20
-14.9725188035
 10
81.1009912818
 20
-12.4776558028
 10
81.1636412742
 20
-9.9822451452
 10
81.2123739743
 20
-7.4866098122
 10
81.2471859552
 20
-4.9909553297
 10
81.268075554
 20
-2.495369812
 10
81.2750398771
 20
-0.0
  0
LINE
  5
384
100
AcDbEntity
  8
0
100
AcDbLine
 62
7
  6
CONTINUOUS
 10
80.3023061817
 20
-22.2237610349
 11
80.4329808047
 21
-19.4285992305
  0
LINE
  5
385
100
AcDbEntity
  8
0
100
AcDbLine
 62
7
  6
CONTINUOUS
 10
80.2488275621
 20
-23.2317047727
 11
80.3023061817
 21
-22.2237610349
  0
LINE
  5
386
100
AcDbEntity
  8
0
100
AcDbLine
 62
7
  6
CONTINUOUS
 10
80.2377012885
 20
-23.4309921914
 11
80.2488275621
 21
-23.2317047727
  0
LWPOLYLINE
  5
387
100
AcDbEntity
  8
0
100
AcDbPolyline
 62
7
  6
CONTINUOUS
 90
7
 70
0
 10
77.9285968113
 20
-43.2299921896
 10
77.9341195074
 20
-43.15383836
 10
77.938079212
 20
-43.1092325277
 10
77.9426405875
 20
-43.0661789829
 10
77.947805625
 20
-43.024674308
 10
77.9535762237
 20
-42.9847146011
 10
77.9599541897
 20
-42.9462954714
  0
LWPOLYLINE
  5
388
100
AcDbEntity
  8
RACCORDO
100
AcDbPolyline
 62
253
  6
CONTINUOUS
 90
3
 70
0
 10
76.9166504416
 20
3.2481056688
 10
76.7443882896
 20
3.2482502675
 10
76.7429521997
 20
3.2482701106
  0
LINE
  5
389
100
AcDbEntity
  8
RACCORDO
100
AcDbLine
 62
253
  6
CONTINUOUS
 10
74.9915928979
 20
4.0058300883
 11
76.5017657686
 21
3.7405063924
  0
LINE
  5
38A
100
AcDbEntity
  8
RACCORDO
100
AcDbLine
 62
7
  6
CONTINUOUS
 10
74.9082225174
 20
3.8235123453
 11
76.4950409452
 21
3.543713443
  0
LWPOLYLINE
  5
38B
100
AcDbEntity
  8
RACCORDO
100
AcDbPolyline
 62
253
  6
CONTINUOUS
 90
19
 70
0
 10
76.5017657686
 20
3.7405063924
 10
76.5405786295
 20
3.73202247
 10
76.5781241741
 20
3.7207818902
 10
76.6144020947
 20
3.706783619
 10
76.6496057409
 20
3.6898995966
 10
76.6835411234
 20
3.6702560326
 10
76.7156265153
 20
3.6482341086
 10
76.745825915
 20
3.6237965525
 10
76.7741737426
 20
3.5969808972
 10
76.8001932676
 20
3.5682819404
 10
76.823842792
 20
3.5376668398
 10
76.8451619627
 20
3.5051705063
 10
76.8637956881
 20
3.4713905814
 10
76.8796911359
 20
3.4363403354
 10
76.8928990673
 20
3.4000099012
 10
76.9032196803
 20
3.3629630231
 10
76.9105858053
 20
3.3253890463
 10
76.9150629535
 20
3.2871026156
 10
76.9166504416
 20
3.2481056688
  0
LINE
  5
38C
100
AcDbEntity
  8
RACCORDO
100
AcDbLine
 62
253
  6
CONTINUOUS
 10
80.3045899543
 20
44.4495402194
 11
80.3129576644
 21
44.3423974828
  0
LWPOLYLINE
  5
38D
100
AcDbEntity
  8
RACCORDO
100
AcDbPolyline
 62
253
  6
CONTINUOUS
 90
15
 70
0
 10
80.5583002589
 20
25.0852093906
 10
80.4849392355
 20
26.1415335623
 10
80.4014725336
 20
27.2389433265
 10
80.3072452251
 20
28.3755356638
 10
80.2013470212
 20
29.5522870452
 10
80.0825072044
 20
30.7730310143
 10
79.949908183
 20
32.0358961153
 10
79.802478086
 20
33.3411167438
 10
79.6382544823
 20
34.6954050342
 10
79.4562255404
 20
36.0966933356
 10
79.2552775425
 20
37.5443107773
 10
79.0328880224
 20
39.0465548318
 10
78.7872855863
 20
40.6046064044
 10
78.5177410582
 20
42.2126615574
 10
78.2230848139
 20
43.8679118876
  0
LWPOLYLINE
  5
38E
100
AcDbEntity
  8
RACCORDO
100
AcDbPolyline
 62
253
  6
CONTINUOUS
 90
15
 70
0
 10
80.6832650495
 20
25.0940008521
 10
80.6098489576
 20
26.1510551397
 10
80.5263669403
 20
27.2488645594
 10
80.4320782696
 20
28.386322814
 10
80.3260571587
 20
29.5642992572
 10
80.2071216615
 20
30.7856315
 10
80.0743867631
 20
32.0494328103
 10
79.926752363
 20
33.3562446662
 10
79.762476331
 20
34.7109978738
 10
79.5803213048
 20
36.1133091749
 10
79.379057622
 20
37.5630488823
 10
79.1566226366
 20
39.0654546133
 10
78.911251468
 20
40.6220181968
 10
78.6416399522
 20
42.2305034029
 10
78.3447107835
 20
43.8987385392
  0
LINE
  5
38F
100
AcDbEntity
  8
RACCORDO
100
AcDbLine
 62
253
  6
CONTINUOUS
 10
80.3129576644
 20
44.3423974828
 11
80.3211554146
 21
44.2264834521
  0
LINE
  5
390
100
AcDbEntity
  8
RACCORDO
100
AcDbLine
 62
253
  6
CONTINUOUS
 10
80.3211554146
 20
44.2264834521
 11
80.3290197707
 21
44.1037204579
  0
LINE
  5
391
100
AcDbEntity
  8
RACCORDO
100
AcDbLine
 62
253
  6
CONTINUOUS
 10
80.6326437945
 20
23.8964786663
 11
80.5583002589
 21
25.0852093906
  0
LINE
  5
392
100
AcDbEntity
  8
RACCORDO
100
AcDbLine
 62
253
  6
CONTINUOUS
 10
80.7577546141
 20
23.9037019758
 11
80.6832650495
 21
25.0940008521
  0
LINE
  5
393
100
AcDbEntity
  8
RACCORDO
100
AcDbLine
 62
253
  6
CONTINUOUS
 10
80.3290197707
 20
44.1037204579
 11
80.3363452692
 21
43.976122429
  0
LINE
  5
394
100
AcDbEntity
  8
RACCORDO
100
AcDbLine
 62
253
  6
CONTINUOUS
 10
80.6816451074
 20
23.0251998707
 11
80.6326437945
 21
23.8964786663
  0
LINE
  5
395
100
AcDbEntity
  8
RACCORDO
100
AcDbLine
 62
253
  6
CONTINUOUS
 10
80.806831786
 20
23.031923192
 11
80.7577546141
 21
23.9037019758
  0
LINE
  5
396
100
AcDbEntity
  8
RACCORDO
100
AcDbLine
 62
253
  6
CONTINUOUS
 10
80.3363452692
 20
43.976122429
 11
80.3431776249
 21
43.8457940386
  0
LINE
  5
397
100
AcDbEntity
  8
RACCORDO
100
AcDbLine
 62
253
  6
CONTINUOUS
 10
80.7113694068
 20
22.4521762792
 11
80.6816451074
 21
23.0251998707
  0
LINE
  5
398
100
AcDbEntity
  8
RACCORDO
100
AcDbLine
 62
253
  6
CONTINUOUS
 10
80.8366409656
 20
22.4584709197
 11
80.806831786
 21
23.031923192
  0
LWPOLYLINE
  5
399
100
AcDbEntity
  8
RACCORDO
100
AcDbPolyline
 62
253
  6
CONTINUOUS
 90
12
 70
0
 10
82.7871623428
 20
22.6080915512
 10
82.964009873
 20
18.7693858765
 10
83.1051002551
 20
15.0170795117
 10
83.2148404972
 20
11.2637237866
 10
83.2932338801
 20
7.509584833
 10
83.3402771258
 20
3.754924456
 10
83.3559603957
 20
0.0000001319
 10
83.3402771307
 20
-3.7549241486
 10
83.2932338899
 20
-7.5095844529
 10
83.2148405092
 20
-11.2637233922
 10
83.1051002658
 20
-15.0170791905
 10
82.9640098797
 20
-18.7693856868
  0
LWPOLYLINE
  5
39A
100
AcDbEntity
  8
RACCORDO
100
AcDbPolyline
 62
253
  6
CONTINUOUS
 90
9
 70
0
 10
80.9549312712
 20
-19.9653776322
 10
81.059327282
 20
-17.4714336157
 10
81.1498222289
 20
-14.9767168912
 10
81.2264128369
 20
-12.4811769556
 10
81.2890874451
 20
-9.9850203998
 10
81.3378340845
 20
-7.4887099568
 10
81.372653007
 20
-4.9924501525
 10
81.3935486254
 20
-2.4961882322
 10
81.4005225741
 20
0.0000000001
  0
LINE
  5
39B
100
AcDbEntity
  8
RACCORDO
100
AcDbLine
 62
253
  6
CONTINUOUS
 10
82.9640098797
 20
-18.7693856868
 11
82.7871623428
 21
-22.6080915512
  0
LINE
  5
39C
100
AcDbEntity
  8
RACCORDO
100
AcDbLine
 62
253
  6
CONTINUOUS
 10
80.699944027
 20
-22.6770325689
 11
80.8296165327
 21
-19.9598966481
  0
LINE
  5
39D
100
AcDbEntity
  8
RACCORDO
100
AcDbLine
 62
253
  6
CONTINUOUS
 10
80.8251707587
 20
-22.6836391145
 11
80.9549312712
 21
-19.9653776322
  0
LINE
  5
39E
100
AcDbEntity
  8
RACCORDO
100
AcDbLine
 62
253
  6
CONTINUOUS
 10
80.3431776249
 20
-43.8457940382
 11
80.3327666799
 21
-44.0403600021
  0
LINE
  5
39F
100
AcDbEntity
  8
RACCORDO
100
AcDbLine
 62
253
  6
CONTINUOUS
 10
80.652788575
 20
-23.5480728014
 11
80.699944027
 21
-22.6770325689
  0
LINE
  5
3A0
100
AcDbEntity
  8
RACCORDO
100
AcDbLine
 62
253
  6
CONTINUOUS
 10
80.7779190109
 20
-23.5551821885
 11
80.8251707587
 21
-22.6836391145
  0
LWPOLYLINE
  5
3A1
100
AcDbEntity
  8
RACCORDO
100
AcDbPolyline
 62
253
  6
CONTINUOUS
 90
10
 70
0
 10
82.7871623428
 20
-22.6080915512
 10
82.6506358039
 20
-24.9810868824
 10
82.4803104215
 20
-27.3519082004
 10
82.2761866203
 20
-29.7200634304
 10
82.0382101218
 20
-32.0850471668
 10
81.7664360576
 20
-34.4463804566
 10
81.4610289547
 20
-36.8036105772
 10
81.1220439248
 20
-39.1562580461
 10
80.7494266779
 20
-41.5038168431
 10
80.3431776265
 20
-43.845794038
  0
LINE
  5
3A2
100
AcDbEntity
  8
RACCORDO
100
AcDbLine
 62
253
  6
CONTINUOUS
 10
80.622317003
 20
-24.0703010967
 11
80.652788575
 21
-23.5480728014
  0
LINE
  5
3A3
100
AcDbEntity
  8
RACCORDO
100
AcDbLine
 62
253
  6
CONTINUOUS
 10
80.7474100832
 20
-24.0778008693
 11
80.7779190109
 21
-23.5551821885
  0
LINE
  5
3A4
100
AcDbEntity
  8
RACCORDO
100
AcDbLine
 62
253
  6
CONTINUOUS
 10
80.3327666799
 20
-44.0403600021
 11
80.3251418424
 21
-44.1655310996
  0
LINE
  5
3A5
100
AcDbEntity
  8
RACCORDO
100
AcDbLine
 62
253
  6
CONTINUOUS
 10
80.3251418424
 20
-44.1655310996
 11
80.3171344791
 21
-44.2850115167
  0
LINE
  5
3A6
100
AcDbEntity
  8
RACCORDO
100
AcDbLine
 62
7
  6
CONTINUOUS
 10
83.0359189551
 20
-26.0452478368
 11
83.0364272736
 21
-26.0380796398
  0
LWPOLYLINE
  5
3A7
100
AcDbEntity
  8
RACCORDO
100
AcDbPolyline
 62
253
  6
CONTINUOUS
 90
17
 70
0
 10
80.3171344791
 20
-44.2850115167
 10
80.3088147988
 20
-44.3968505378
 10
80.3046193163
 20
-44.4492296003
 10
80.3003888613
 20
-44.4989787119
 10
80.2961809872
 20
-44.5459035119
 10
80.2920017085
 20
-44.5898145888
 10
80.2878469334
 20
-44.6305381185
 10
80.2837614771
 20
-44.667918144
 10
80.279757935
 20
-44.7018056865
 10
80.2758371619
 20
-44.7320630073
 10
80.2720288937
 20
-44.758569305
 10
80.2683521359
 20
-44.7812148352
 10
80.2648131373
 20
-44.7999136402
 10
80.2614245873
 20
-44.8145977175
 10
80.2582020643
 20
-44.8252047689
 10
80.2551646924
 20
-44.8316848737
 10
80.2523324653
 20
-44.8340076387
  0
LWPOLYLINE
  5
3A8
100
AcDbEntity
  8
RACCORDO
100
AcDbPolyline
 62
253
  6
CONTINUOUS
 90
9
 70
0
 10
78.3344389496
 20
-43.96548541
 10
78.335572435
 20
-43.9570945097
 10
78.3367482946
 20
-43.9487162759
 10
78.3379665304
 20
-43.9403507021
 10
78.3392260615
 20
-43.931995603
 10
78.3405279725
 20
-43.9236531508
 10
78.3418755144
 20
-43.9153298744
 10
78.3432697735
 20
-43.9070279452
 10
78.3447096696
 20
-43.8987451774
  0
LINE
  5
3A9
100
AcDbEntity
  8
RACCORDO
100
AcDbLine
 62
253
  6
CONTINUOUS
 10
78.3273467034
 20
-44.0140925983
 11
78.334438931
 21
-43.9654854066
  0
LINE
  5
3AA
100
AcDbEntity
  8
RACCORDO
100
AcDbLine
 62
253
  6
CONTINUOUS
 10
78.3191106101
 20
-44.068561595
 11
78.3273467034
 21
-44.0140925983
  0
LINE
  5
3AB
100
AcDbEntity
  8
RACCORDO
100
AcDbLine
 62
253
  6
CONTINUOUS
 10
78.3144681391
 20
-44.0984982935
 11
78.3191106101
 21
-44.068561595
  0
LINE
  5
3AC
100
AcDbEntity
  8
RACCORDO
100
AcDbLine
 62
253
  6
CONTINUOUS
 10
78.2047419334
 20
-43.9692052842
 11
78.2079564575
 21
-43.9489881894
  0
LINE
  5
3AD
100
AcDbEntity
  8
RACCORDO
100
AcDbLine
 62
253
  6
CONTINUOUS
 10
74.7429521077
 20
4.0204736932
 11
74.9915929374
 21
4.0058255594
  0
LWPOLYLINE
  5
3AE
100
AcDbEntity
  8
RACCORDO
100
AcDbPolyline
 62
253
  6
CONTINUOUS
 90
43
 70
0
 10
74.9326529645
 20
42.6667588741
 10
74.9302005571
 20
42.6800403489
 10
74.9278293477
 20
42.6936214033
 10
74.9255394915
 20
42.7074896282
 10
74.9233242823
 20
42.7216717012
 10
74.9211907801
 20
42.7361114837
 10
74.9191598872
 20
42.7506718068
 10
74.9172363925
 20
42.7653260531
 10
74.9154160616
 20
42.7800678776
 10
74.9137063606
 20
42.7947928397
 10
74.9121093343
 20
42.8094794349
 10
74.9106235019
 20
42.8241163199
 10
74.9092510748
 20
42.8386179112
 10
74.9079926958
 20
42.8529658974
 10
74.9068482162
 20
42.8671491307
 10
74.9058186544
 20
42.8810974391
 10
74.9049048618
 20
42.89478187
 10
74.9041063688
 20
42.9082084104
 10
74.9034221896
 20
42.9213623934
 10
74.9028503447
 20
42.9342398832
 10
74.9023931241
 20
42.9468234534
 10
74.9020559129
 20
42.9590805594
 10
74.9018429557
 20
42.9709785383
 10
74.9017497125
 20
42.9825422713
 10
74.9017684121
 20
42.9938233361
 10
74.901896063
 20
43.0048036019
 10
74.9021351407
 20
43.0154894989
 10
74.9024861756
 20
43.0259572249
 10
74.9029472825
 20
43.0362205046
 10
74.9035199721
 20
43.0462346793
 10
74.904209904
 20
43.0559807083
 10
74.9050172598
 20
43.0654560855
 10
74.905941493
 20
43.0746321967
 10
74.9069871461
 20
43.0834565208
 10
74.908155077
 20
43.0919214247
 10
74.9094440645
 20
43.1000137892
 10
74.9108555058
 20
43.1076852927
 10
74.9123920706
 20
43.1149371439
 10
74.9140507562
 20
43.1217613324
 10
74.9158244466
 20
43.1281124887
 10
74.917710679
 20
43.1339844946
 10
74.9197116491
 20
43.139399893
 10
74.9218272429
 20
43.1443663553
  0
LWPOLYLINE
  5
3AF
100
AcDbEntity
  8
0
100
AcDbPolyline
 62
7
  6
CONTINUOUS
 90
6
 70
0
 10
77.9599541897
 20
42.9462954714
 10
77.9535762237
 20
42.9847146011
 10
77.947805625
 20
43.024674308
 10
77.9426405875
 20
43.0661789829
 10
77.938079212
 20
43.1092325277
 10
77.9341195074
 20
43.15383836
  0
LINE
  5
3B0
100
AcDbEntity
  8
RACCORDO
100
AcDbLine
 62
253
  6
CONTINUOUS
 10
78.2079564575
 20
43.9489881893
 11
78.2049014835
 21
43.9682063704
  0
LINE
  5
3B1
100
AcDbEntity
  8
RACCORDO
100
AcDbLine
 62
253
  6
CONTINUOUS
 10
78.3220442044
 20
44.0493588836
 11
78.3134452569
 21
44.105039812
  0
LINE
  5
3B2
100
AcDbEntity
  8
RACCORDO
100
AcDbLine
 62
253
  6
CONTINUOUS
 10
78.3294900734
 20
43.9995998168
 11
78.3220442044
 21
44.0493588836
  0
LINE
  5
3B3
100
AcDbEntity
  8
RACCORDO
100
AcDbLine
 62
253
  6
CONTINUOUS
 10
78.334439818
 20
43.9654793067
 11
78.3294900734
 21
43.9995998168
  0
LWPOLYLINE
  5
3B4
100
AcDbEntity
  8
RACCORDO
100
AcDbPolyline
 62
253
  6
CONTINUOUS
 90
10
 70
0
 10
78.2079564575
 20
-43.9489881894
 10
78.2094028181
 20
-43.9399927297
 10
78.2109060947
 20
-43.9309938769
 10
78.2124663944
 20
-43.9219910387
 10
78.2140818573
 20
-43.9129815914
 10
78.2157545469
 20
-43.9039670308
 10
78.2174904742
 20
-43.8949528458
 10
78.2192917325
 20
-43.8859403765
 10
78.2211564734
 20
-43.8769269389
 10
78.2230848139
 20
-43.8679118876
  0
LINE
  5
3B5
100
AcDbEntity
  8
RACCORDO
100
AcDbLine
 62
253
  6
CONTINUOUS
 10
78.3040156083
 20
-44.1641632423
 11
78.3144681391
 21
-44.0984982935
  0
LINE
  5
3B6
100
AcDbEntity
  8
RACCORDO
100
AcDbLine
 62
253
  6
CONTINUOUS
 10
78.1917032841
 20
-44.0495189788
 11
78.2047419334
 21
-43.9692052842
  0
LINE
  5
3B7
100
AcDbEntity
  8
RACCORDO
100
AcDbLine
 62
253
  6
CONTINUOUS
 10
78.2950838379
 20
-44.2185376432
 11
78.3040156083
 21
-44.1641632423
  0
LINE
  5
3B8
100
AcDbEntity
  8
RACCORDO
100
AcDbLine
 62
253
  6
CONTINUOUS
 10
78.1778124397
 20
-44.132700103
 11
78.1917032841
 21
-44.0495189788
  0
LINE
  5
3B9
100
AcDbEntity
  8
RACCORDO
100
AcDbLine
 62
253
  6
CONTINUOUS
 10
78.2851873303
 20
-44.277163389
 11
78.2950838379
 21
-44.2185376432
  0
LWPOLYLINE
  5
3BA
100
AcDbEntity
  8
0
100
AcDbPolyline
 62
7
  6
CONTINUOUS
 90
10
 70
0
 10
77.9599541897
 20
-42.9462954714
 10
78.3286293004
 20
-40.7915549704
 10
78.6686393868
 20
-38.6306065524
 10
78.9798346015
 20
-36.4651357289
 10
79.2618941133
 20
-34.2981427312
 10
79.5149094934
 20
-32.1299148632
 10
79.7392192026
 20
-29.9579751654
 10
79.9347021931
 20
-27.7824923749
 10
80.1009433722
 20
-25.6063318537
 10
80.2377012885
 20
-23.4309921914
  0
LINE
  5
3BB
100
AcDbEntity
  8
RACCORDO
100
AcDbLine
 62
253
  6
CONTINUOUS
 10
78.1640284254
 20
-44.2127278956
 11
78.1778124397
 21
-44.132700103
  0
LINE
  5
3BC
100
AcDbEntity
  8
RACCORDO
100
AcDbLine
 62
253
  6
CONTINUOUS
 10
78.2743889002
 20
-44.3393572735
 11
78.2851873303
 21
-44.277163389
  0
LINE
  5
3BD
100
AcDbEntity
  8
RACCORDO
100
AcDbLine
 62
253
  6
CONTINUOUS
 10
78.1516670034
 20
-44.2824589143
 11
78.1640284254
 21
-44.2127278956
  0
LWPOLYLINE
  5
3BE
100
AcDbEntity
  8
RACCORDO
100
AcDbPolyline
 62
253
  6
CONTINUOUS
 90
22
 70
0
 10
78.2230848139
 20
-43.8679118876
 10
78.3450994808
 20
-43.1943976726
 10
78.4679049615
 20
-42.499688032
 10
78.5912524191
 20
-41.7836837803
 10
78.7146607092
 20
-41.0476296942
 10
78.8380882276
 20
-40.2901321106
 10
78.9618763219
 20
-39.5071134667
 10
79.0856708736
 20
-38.6985028876
 10
79.2091009112
 20
-37.8642328147
 10
79.3323463859
 20
-37.0001820954
 10
79.4549523428
 20
-36.106166595
 10
79.5763983629
 20
-35.1823110665
 10
79.6966087727
 20
-34.2249376443
 10
79.8150617101
 20
-33.2332694151
 10
79.9310510831
 20
-32.2082060133
 10
80.044099617
 20
-31.1486188391
 10
80.1535539736
 20
-30.0546219714
 10
80.2587138224
 20
-28.9265633466
 10
80.3589467662
 20
-27.7637516944
 10
80.4535108682
 20
-26.5662548123
 10
80.5415772979
 20
-25.3349093206
 10
80.622317003
 20
-24.0703010967
  0
LWPOLYLINE
  5
3BF
100
AcDbEntity
  8
RACCORDO
100
AcDbPolyline
 62
253
  6
CONTINUOUS
 90
22
 70
0
 10
78.3447096696
 20
-43.8987451774
 10
78.4682736244
 20
-43.2165378692
 10
78.591179996
 20
-42.5212753367
 10
78.7146441605
 20
-41.8046594386
 10
78.8381546595
 20
-41.0680299646
 10
78.9616702201
 20
-40.3099833249
 10
79.0855554924
 20
-39.5263619988
 10
79.2094555763
 20
-38.7171174661
 10
79.3329835959
 20
-37.8822215433
 10
79.4563169863
 20
-37.0175310338
 10
79.5790228366
 20
-36.1228083785
 10
79.7005789303
 20
-35.1982096326
 10
79.8208809465
 20
-34.2401699247
 10
79.9394310303
 20
-33.2477200681
 10
80.0555329697
 20
-32.2217551753
 10
80.168680089
 20
-31.1615042335
 10
80.2782489238
 20
-30.0666862368
 10
80.3835213452
 20
-28.9375376813
 10
80.48380406
 20
-27.7740713758
 10
80.5783790523
 20
-26.5762919857
 10
80.6665021831
 20
-25.3441968508
 10
80.7474100832
 20
-24.0778008693
  0
LINE
  5
3C0
100
AcDbEntity
  8
RACCORDO
100
AcDbLine
 62
253
  6
CONTINUOUS
 10
78.2629267589
 20
-44.4033234011
 11
78.2743889002
 21
-44.3393572735
  0
LINE
  5
3C1
100
AcDbEntity
  8
RACCORDO
100
AcDbLine
 62
253
  6
CONTINUOUS
 10
78.1419701026
 20
-44.3356956286
 11
78.1516670034
 21
-44.2824589143
  0
LINE
  5
3C2
100
AcDbEntity
  8
RACCORDO
100
AcDbLine
 62
253
  6
CONTINUOUS
 10
78.2552727598
 20
-44.4447413345
 11
78.2629267589
 21
-44.4033234011
  0
LINE
  5
3C3
100
AcDbEntity
  8
RACCORDO
100
AcDbLine
 62
253
  6
CONTINUOUS
 10
78.1327178356
 20
-44.3849930235
 11
78.1419701026
 21
-44.3356956286
  0
LINE
  5
3C4
100
AcDbEntity
  8
RACCORDO
100
AcDbLine
 62
253
  6
CONTINUOUS
 10
78.2479913924
 20
-44.4830535323
 11
78.2552727598
 21
-44.4447413345
  0
LINE
  5
3C5
100
AcDbEntity
  8
RACCORDO
100
AcDbLine
 62
253
  6
CONTINUOUS
 10
78.127368002
 20
-44.41261392
 11
78.1327178356
 21
-44.3849930235
  0
LINE
  5
3C6
100
AcDbEntity
  8
RACCORDO
100
AcDbLine
 62
253
  6
CONTINUOUS
 10
78.2415478181
 20
-44.5158138229
 11
78.2479913924
 21
-44.4830535323
  0
LINE
  5
3C7
100
AcDbEntity
  8
RACCORDO
100
AcDbLine
 62
253
  6
CONTINUOUS
 10
78.1226896928
 20
-44.4360984745
 11
78.127368002
 21
-44.41261392
  0
LINE
  5
3C8
100
AcDbEntity
  8
RACCORDO
100
AcDbLine
 62
253
  6
CONTINUOUS
 10
78.1186247187
 20
-44.4558384878
 11
78.1226896928
 21
-44.4360984745
  0
LWPOLYLINE
  5
3C9
100
AcDbEntity
  8
RACCORDO
100
AcDbPolyline
 62
253
  6
CONTINUOUS
 90
6
 70
0
 10
78.1092748589
 20
-44.4980235818
 10
78.1105749382
 20
-44.4925132758
 10
78.1119693383
 20
-44.4864546951
 10
78.1134654617
 20
-44.4797923087
 10
78.1150690521
 20
-44.4724990929
 10
78.1186247187
 20
-44.4558384878
  0
LWPOLYLINE
  5
3CA
100
AcDbEntity
  8
RACCORDO
100
AcDbPolyline
 62
253
  6
CONTINUOUS
 90
18
 70
0
 10
78.1135631421
 20
44.4793583275
 10
78.1119683964
 20
44.4864538682
 10
78.1104874686
 20
44.4928868907
 10
78.1091135262
 20
44.4986977524
 10
78.1078405916
 20
44.5039153673
 10
78.1066597851
 20
44.5086003001
 10
78.1055649462
 20
44.5127837421
 10
78.104550944
 20
44.5164953278
 10
78.103611786
 20
44.5197860247
 10
78.1027426604
 20
44.5226829379
 10
78.1019387618
 20
44.5252106218
 10
78.1011952311
 20
44.5274101608
 10
78.1005088487
 20
44.5293047297
 10
78.0998746712
 20
44.5309149015
 10
78.0992863847
 20
44.5322717896
 10
78.0987399618
 20
44.5333960562
 10
78.098233065
 20
44.5343010981
 10
78.0977625849
 20
44.5350035377
  0
LINE
  5
3CB
100
AcDbEntity
  8
RACCORDO
100
AcDbLine
 62
253
  6
CONTINUOUS
 10
78.1171380674
 20
44.4628788822
 11
78.1135631421
 21
44.4793583275
  0
LWPOLYLINE
  5
3CC
100
AcDbEntity
  8
RACCORDO
100
AcDbPolyline
 62
253
  6
CONTINUOUS
 90
22
 70
0
 10
78.2342220613
 20
44.5514351031
 10
78.2316338109
 20
44.563503052
 10
78.229227397
 20
44.5744090829
 10
78.2269925711
 20
44.5842568671
 10
78.2249200503
 20
44.5931011359
 10
78.2229968535
 20
44.6010076697
 10
78.2212105051
 20
44.6080787289
 10
78.219553248
 20
44.6143619943
 10
78.2180164548
 20
44.6198980763
 10
78.2165894297
 20
44.6247620023
 10
78.2152623953
 20
44.6290007923
 10
78.2140295643
 20
44.6326508225
 10
78.2128877635
 20
44.6357628502
 10
78.2118300015
 20
44.6383797128
 10
78.2108473125
 20
44.6405436797
 10
78.2099343538
 20
44.6423003616
 10
78.2090848562
 20
44.6436853745
 10
78.208292749
 20
44.6447288322
 10
78.2075542771
 20
44.6454612095
 10
78.2068650394
 20
44.6459094175
 10
78.2062196733
 20
44.6460984776
 10
78.2056134541
 20
44.646053514
  0
LWPOLYLINE
  5
3CD
100
AcDbEntity
  8
RACCORDO
100
AcDbPolyline
 62
253
  6
CONTINUOUS
 90
10
 70
0
 10
78.2230848139
 20
43.8679118876
 10
78.2211579201
 20
43.8769196877
 10
78.2192941907
 20
43.8859279612
 10
78.2174935133
 20
43.8949373256
 10
78.2157576568
 20
43.9039507239
 10
78.2140846176
 20
43.9129664981
 10
78.2124686415
 20
43.9219782808
 10
78.2109077511
 20
43.9309842801
 10
78.2094037247
 20
43.9399873904
 10
78.2079564575
 20
43.9489881893
  0
LINE
  5
3CE
100
AcDbEntity
  8
RACCORDO
100
AcDbLine
 62
253
  6
CONTINUOUS
 10
78.1212840292
 20
44.4429966504
 11
78.1171380674
 21
44.4628788822
  0
LINE
  5
3CF
100
AcDbEntity
  8
RACCORDO
100
AcDbLine
 62
253
  6
CONTINUOUS
 10
78.2400332942
 20
44.5233441961
 11
78.2342220613
 21
44.5514351031
  0
LINE
  5
3D0
100
AcDbEntity
  8
RACCORDO
100
AcDbLine
 62
253
  6
CONTINUOUS
 10
78.1261057027
 20
44.4190235049
 11
78.1212840292
 21
44.4429966504
  0
LINE
  5
3D1
100
AcDbEntity
  8
RACCORDO
100
AcDbLine
 62
253
  6
CONTINUOUS
 10
78.2466548016
 20
44.4899257795
 11
78.2400332942
 21
44.5233441961
  0
LINE
  5
3D2
100
AcDbEntity
  8
RACCORDO
100
AcDbLine
 62
253
  6
CONTINUOUS
 10
78.1316101373
 20
44.3907598039
 11
78.1261057027
 21
44.4190235049
  0
LINE
  5
3D3
100
AcDbEntity
  8
RACCORDO
100
AcDbLine
 62
253
  6
CONTINUOUS
 10
78.2539997272
 20
44.4515385337
 11
78.2466548016
 21
44.4899257795
  0
LINE
  5
3D4
100
AcDbEntity
  8
RACCORDO
100
AcDbLine
 62
253
  6
CONTINUOUS
 10
78.1377240576
 20
44.3585286338
 11
78.1316101373
 21
44.3907598039
  0
LINE
  5
3D5
100
AcDbEntity
  8
RACCORDO
100
AcDbLine
 62
253
  6
CONTINUOUS
 10
78.2616171757
 20
44.4104705711
 11
78.2539997272
 21
44.4515385337
  0
LINE
  5
3D6
100
AcDbEntity
  8
RACCORDO
100
AcDbLine
 62
253
  6
CONTINUOUS
 10
78.1472520055
 20
44.3068727389
 11
78.1377240576
 21
44.3585286338
  0
LINE
  5
3D7
100
AcDbEntity
  8
RACCORDO
100
AcDbLine
 62
253
  6
CONTINUOUS
 10
78.2725604879
 20
44.3497015654
 11
78.2616171757
 21
44.4104705711
  0
LINE
  5
3D8
100
AcDbEntity
  8
RACCORDO
100
AcDbLine
 62
253
  6
CONTINUOUS
 10
78.1591042739
 20
44.2407407765
 11
78.1472520055
 21
44.3068727389
  0
LWPOLYLINE
  5
3D9
100
AcDbEntity
  8
RACCORDO
100
AcDbPolyline
 62
253
  6
CONTINUOUS
 90
9
 70
0
 10
78.3447107835
 20
43.8987385392
 10
78.3432716728
 20
43.9070165342
 10
78.3418778706
 20
43.9153155563
 10
78.3405303574
 20
43.9236382915
 10
78.3392281459
 20
43.931982068
 10
78.3379682821
 20
43.9403388547
 10
78.3367497805
 20
43.9487059791
 10
78.3355736227
 20
43.9570861269
 10
78.3344398069
 20
43.9654793047
  0
LWPOLYLINE
  5
3DA
100
AcDbEntity
  8
RACCORDO
100
AcDbPolyline
 62
253
  6
CONTINUOUS
 90
10
 70
0
 10
80.3431776265
 20
43.8457940385
 10
80.7494266219
 20
41.5038172084
 10
81.1220438346
 20
39.1562586394
 10
81.4610288521
 20
36.8036112606
 10
81.7664359746
 20
34.446381028
 10
82.0382100801
 20
32.0850474864
 10
82.2761866106
 20
29.7200635476
 10
82.4803104242
 20
27.3519082284
 10
82.6506358099
 20
24.9810868712
 10
82.7871623428
 20
22.6080915512
  0
LINE
  5
3DB
100
AcDbEntity
  8
RACCORDO
100
AcDbLine
 62
253
  6
CONTINUOUS
 10
78.2827202343
 20
44.2915264839
 11
78.2725604879
 21
44.3497015654
  0
LINE
  5
3DC
100
AcDbEntity
  8
RACCORDO
100
AcDbLine
 62
253
  6
CONTINUOUS
 10
78.1725725375
 20
44.1634084526
 11
78.1591042739
 21
44.2407407765
  0
LINE
  5
3DD
100
AcDbEntity
  8
RACCORDO
100
AcDbLine
 62
253
  6
CONTINUOUS
 10
78.2951097372
 20
44.2183685541
 11
78.2827202343
 21
44.2915264839
  0
LINE
  5
3DE
100
AcDbEntity
  8
RACCORDO
100
AcDbLine
 62
253
  6
CONTINUOUS
 10
78.1865607874
 20
44.0806126732
 11
78.1725725375
 21
44.1634084526
  0
LINE
  5
3DF
100
AcDbEntity
  8
RACCORDO
100
AcDbLine
 62
253
  6
CONTINUOUS
 10
78.306117335
 20
44.1511499437
 11
78.2951097372
 21
44.2183685541
  0
LINE
  5
3E0
100
AcDbEntity
  8
RACCORDO
100
AcDbLine
 62
253
  6
CONTINUOUS
 10
78.2016628176
 20
43.9883883301
 11
78.1865607874
 21
44.0806126732
  0
LINE
  5
3E1
100
AcDbEntity
  8
RACCORDO
100
AcDbLine
 62
253
  6
CONTINUOUS
 10
78.2049014835
 20
43.9682063704
 11
78.2016628176
 21
43.9883883301
  0
LINE
  5
3E2
100
AcDbEntity
  8
RACCORDO
100
AcDbLine
 62
253
  6
CONTINUOUS
 10
78.3134452569
 20
44.105039812
 11
78.306117335
 21
44.1511499437
  0
LWPOLYLINE
  5
3E3
100
AcDbEntity
  8
RACCORDO
100
AcDbPolyline
 62
253
  6
CONTINUOUS
 90
10
 70
0
 10
74.9806567054
 20
22.8073899216
 10
75.5499447685
 20
22.9066563132
 10
76.1246290483
 20
22.9986652387
 10
76.7041105171
 20
23.0833221801
 10
77.2881799017
 20
23.1605815851
 10
77.8758579363
 20
23.2302907756
 10
78.4653716839
 20
23.2922400594
 10
79.0557189896
 20
23.3463485618
 10
79.6466921006
 20
23.3926141031
 10
80.2377012885
 20
23.4309921914
  0
LWPOLYLINE
  5
3E4
100
AcDbEntity
  8
RACCORDO
100
AcDbPolyline
 62
253
  6
CONTINUOUS
 90
10
 70
0
 10
74.9815113182
 20
21.9185744023
 10
75.5569744506
 20
22.0145874979
 10
76.1375902915
 20
22.1035344509
 10
76.7227729749
 20
22.1853269685
 10
77.3123088135
 20
22.2599215235
 10
77.9052507632
 20
22.3271770153
 10
78.4998965546
 20
22.3869006906
 10
79.095279432
 20
22.4390174955
 10
79.6911899611
 20
22.4835241436
 10
80.287055133
 20
22.5203789262
  0
LWPOLYLINE
  5
3E5
100
AcDbEntity
  8
RACCORDO
100
AcDbPolyline
 62
253
  6
CONTINUOUS
 90
10
 70
0
 10
74.9821020196
 20
21.2702620638
 10
75.5618172001
 20
21.3637476626
 10
76.1465049655
 20
21.4503124644
 10
76.7355895249
 20
21.5298725563
 10
77.3288544459
 20
21.60238581
 10
77.9253765676
 20
21.6677192812
 10
78.5235053989
 20
21.7256922043
 10
79.1223002598
 20
21.7762336572
 10
79.7215508193
 20
21.8193395555
 10
80.320696536
 20
21.8549701508
  0
LINE
  5
3E6
100
AcDbEntity
  8
RACCORDO
100
AcDbLine
 62
253
  6
CONTINUOUS
 10
80.6223170526
 20
24.0703010996
 11
80.7474100829
 21
24.0778008692
  0
LINE
  5
3E7
100
AcDbEntity
  8
RACCORDO
100
AcDbLine
 62
253
  6
CONTINUOUS
 10
81.0457360813
 20
22.5203789087
 11
80.7087948834
 21
22.5033846483
  0
LINE
  5
3E8
100
AcDbEntity
  8
RACCORDO
100
AcDbLine
 62
253
  6
CONTINUOUS
 10
83.2429521997
 20
22.6310194482
 11
82.7871623428
 21
22.6080915512
  0
LINE
  5
3E9
100
AcDbEntity
  8
RACCORDO
100
AcDbLine
 62
253
  6
CONTINUOUS
 10
83.2473640943
 20
22.5432326076
 11
82.7915693495
 21
22.5203789087
  0
LINE
  5
3EA
100
AcDbEntity
  8
RACCORDO
100
AcDbLine
 62
253
  6
CONTINUOUS
 10
80.7113694068
 20
22.4521762792
 11
80.8366409656
 21
22.4584709197
  0
LINE
  5
3EB
100
AcDbEntity
  8
RACCORDO
100
AcDbLine
 62
253
  6
CONTINUOUS
 10
82.7915693496
 20
22.5203789087
 11
81.0457360813
 21
22.5203789087
  0
LWPOLYLINE
  5
3EC
100
AcDbEntity
  8
RACCORDO
100
AcDbPolyline
 62
253
  6
CONTINUOUS
 90
4
 70
0
 10
74.7429521997
 20
21.2704938486
 10
74.7441963027
 20
21.2704723139
 10
74.747918293
 20
21.2704509577
 10
74.9821020196
 20
21.2702620638
  0
LWPOLYLINE
  5
3ED
100
AcDbEntity
  8
RACCORDO
100
AcDbPolyline
 62
253
  6
CONTINUOUS
 90
4
 70
0
 10
74.7429521997
 20
21.9188168495
 10
74.7441926459
 20
21.9187943477
 10
74.7479037263
 20
21.9187720321
 10
74.9815113182
 20
21.9185744023
  0
LWPOLYLINE
  5
3EE
100
AcDbEntity
  8
RACCORDO
100
AcDbPolyline
 62
253
  6
CONTINUOUS
 90
4
 70
0
 10
74.7429522196
 20
22.8076446486
 10
74.744187381
 20
22.807621043
 10
74.7478826962
 20
22.8075976318
 10
74.9806567074
 20
22.8073899216
  0
LWPOLYLINE
  5
3EF
100
AcDbEntity
  8
RACCORDO
100
AcDbPolyline
 62
253
  6
CONTINUOUS
 90
16
 70
0
 10
78.0977625849
 20
-44.5350035377
 10
78.0982112058
 20
-44.5343365054
 10
78.0986907252
 20
-44.5334901951
 10
78.0992034913
 20
-44.5324520494
 10
78.0997506429
 20
-44.5312127086
 10
78.1003357659
 20
-44.529756243
 10
78.1009655586
 20
-44.5280566015
 10
78.1016444814
 20
-44.5260970659
 10
78.1023745694
 20
-44.523859549
 10
78.1031599776
 20
-44.5213100785
 10
78.1040043934
 20
-44.5184294909
 10
78.104911777
 20
-44.5151958864
 10
78.1058877038
 20
-44.5115657432
 10
78.1069369222
 20
-44.5075132629
 10
78.1080638972
 20
-44.5030146553
 10
78.1092748589
 20
-44.4980235818
  0
LINE
  5
3F0
100
AcDbEntity
  8
RACCORDO
100
AcDbLine
 62
7
  6
CONTINUOUS
 10
74.9442407989
 20
-43.1731471597
 11
74.9444612574
 21
-43.1728755978
  0
LINE
  5
3F1
100
AcDbEntity
  8
RACCORDO
100
AcDbLine
 62
7
  6
CONTINUOUS
 10
74.9444612574
 20
43.1728755978
 11
74.9442410042
 21
43.1731472314
  0
LWPOLYLINE
  5
3F2
100
AcDbEntity
  8
RACCORDO
100
AcDbPolyline
 62
253
  6
CONTINUOUS
 90
13
 70
0
 10
78.0977625849
 20
44.5350035377
 10
78.0974292652
 20
44.535482799
 10
78.0971376095
 20
44.5359962518
 10
78.0968882801
 20
44.5365403732
 10
78.0966805388
 20
44.5371061337
 10
78.0965164721
 20
44.5376954011
 10
78.0964010799
 20
44.5383204655
 10
78.0963348255
 20
44.538975876
 10
78.0963188617
 20
44.5396585133
 10
78.0963594264
 20
44.5403830851
 10
78.0964592872
 20
44.5411508494
 10
78.0966176336
 20
44.5419501881
 10
78.0968354676
 20
44.5427758029
  0
LWPOLYLINE
  5
3F3
100
AcDbEntity
  8
RACCORDO
100
AcDbPolyline
 62
253
  6
CONTINUOUS
 90
15
 70
0
 10
80.2523324653
 20
44.8340076387
 10
80.255168579
 20
44.8316821307
 10
80.2582056222
 20
44.8252004766
 10
80.2614244044
 20
44.8146013812
 10
80.2648049405
 20
44.7999510384
 10
80.2683347654
 20
44.7813152536
 10
80.2720061018
 20
44.7587335475
 10
80.2758131514
 20
44.7322603731
 10
80.2797336088
 20
44.7020124516
 10
80.2837362316
 20
44.6681326608
 10
80.2878200631
 20
44.6307718195
 10
80.2919731225
 20
44.5900696518
 10
80.2961513056
 20
44.5461792985
 10
80.3003590578
 20
44.4992724169
 10
80.3045899543
 20
44.4495402194
  0
LWPOLYLINE
  5
3F4
100
AcDbEntity
  8
0
100
AcDbPolyline
 62
7
  6
CONTINUOUS
 90
24
 70
0
 10
77.8533240399
 20
-43.7
 10
77.8555314089
 20
-43.6990954607
 10
77.8578571159
 20
-43.6963334909
 10
77.8603086308
 20
-43.6916336009
 10
77.8628854954
 20
-43.6849050137
 10
77.8656049836
 20
-43.6760814214
 10
77.8685008353
 20
-43.6651537125
 10
77.8716078028
 20
-43.6520752534
 10
77.8749087208
 20
-43.6368207006
 10
77.878356625
 20
-43.6194897939
 10
77.8819651341
 20
-43.6001086173
 10
77.8857353777
 20
-43.578688338
 10
77.8895973702
 20
-43.5553835462
 10
77.8935191863
 20
-43.5302373554
 10
77.8974951601
 20
-43.5033952812
 10
77.901489686
 20
-43.475237348
 10
77.9054592907
 20
-43.4459430807
 10
77.9093503758
 20
-43.415687924
 10
77.9131152087
 20
-43.3848998388
 10
77.9167264032
 20
-43.3538095273
 10
77.9201349666
 20
-43.3225397652
 10
77.9232704948
 20
-43.2913697146
 10
77.9260943208
 20
-43.2604891963
 10
77.9285968113
 20
-43.2299921896
  0
LINE
  5
3F5
100
AcDbEntity
  8
RACCORDO
100
AcDbLine
 62
253
  6
CONTINUOUS
 10
75.3949355753
 20
43.3157128267
 11
75.3975926419
 21
43.3167892487
  0
LINE
  5
3F6
100
AcDbEntity
  8
RACCORDO
100
AcDbLine
 62
7
  6
CONTINUOUS
 10
78.4117996932
 20
44.7
 11
78.2056135245
 21
44.6460535324
  0
LINE
  5
3F7
100
AcDbEntity
  8
SUPERFICI
100
AcDbLine
 62
7
  6
CONTINUOUS
 10
75.8201261888
 20
43.4296678573
 11
75.4976995062
 21
43.346233425
  0
LINE
  5
3F8
100
AcDbEntity
  8
RACCORDO
100
AcDbLine
 62
253
  6
CONTINUOUS
 10
75.6282688972
 20
43.3799249451
 11
75.6306416767
 21
43.3808249511
  0
LINE
  5
3F9
100
AcDbEntity
  8
RACCORDO
100
AcDbLine
 62
253
  6
CONTINUOUS
 10
75.8657253796
 20
43.4387448692
 11
75.8678409218
 21
43.4394916297
  0
LINE
  5
3FA
100
AcDbEntity
  8
RACCORDO
100
AcDbLine
 62
253
  6
CONTINUOUS
 10
76.1068242257
 20
43.4920160974
 11
76.1087022286
 21
43.4926282472
  0
LINE
  5
3FB
100
AcDbEntity
  8
RACCORDO
100
AcDbLine
 62
253
  6
CONTINUOUS
 10
78.5413738412
 20
44.0035194839
 11
78.334439818
 21
43.9654793067
  0
LINE
  5
3FC
100
AcDbEntity
  8
RACCORDO
100
AcDbLine
 62
253
  6
CONTINUOUS
 10
78.2230848124
 20
43.8679118873
 11
78.3461952059
 21
43.8904815641
  0
LINE
  5
3FD
100
AcDbEntity
  8
RACCORDO
100
AcDbLine
 62
253
  6
CONTINUOUS
 10
80.7916255952
 20
43.926800663
 11
80.3431776239
 21
43.8457940521
  0
LINE
  5
3FE
100
AcDbEntity
  8
RACCORDO
100
AcDbLine
 62
253
  6
CONTINUOUS
 10
76.350671708
 20
43.5395271435
 11
76.3523035948
 21
43.5400160911
  0
LINE
  5
3FF
100
AcDbEntity
  8
RACCORDO
100
AcDbLine
 62
253
  6
CONTINUOUS
 10
78.2261076577
 20
43.9512900926
 11
78.334439482
 21
43.9654816289
  0
LINE
  5
400
100
AcDbEntity
  8
RACCORDO
100
AcDbLine
 62
253
  6
CONTINUOUS
 10
78.2079564557
 20
43.9489881891
 11
78.2261076577
 21
43.9512900926
  0
LWPOLYLINE
  5
401
100
AcDbEntity
  8
SUPERFICI
100
AcDbPolyline
 62
7
  6
CONTINUOUS
 90
6
 70
0
 10
77.4963325182
 20
43.6828112341
 10
77.1497055863
 20
43.6539349486
 10
76.8080610647
 20
43.6137831744
 10
76.4734672917
 20
43.5629869049
 10
76.1452406403
 20
43.5018003579
 10
75.8201261888
 20
43.4296678573
  0
LINE
  5
402
100
AcDbEntity
  8
RACCORDO
100
AcDbLine
 62
253
  6
CONTINUOUS
 10
77.6000880561
 20
43.6865350413
 11
77.8533240399
 21
43.7
  0
LINE
  5
403
100
AcDbEntity
  8
SUPERFICI
100
AcDbLine
 62
7
  6
CONTINUOUS
 10
77.8471939016
 20
43.7
 11
77.4963325182
 21
43.6828112341
  0
LINE
  5
404
100
AcDbEntity
  8
0
100
AcDbLine
 62
7
  6
CONTINUOUS
 10
77.8533240398
 20
43.7
 11
77.8471939016
 21
43.7
  0
LINE
  5
405
100
AcDbEntity
  8
RACCORDO
100
AcDbLine
 62
253
  6
CONTINUOUS
 10
74.7664124843
 20
42.6670719255
 11
74.9326529824
 21
42.6667588742
  0
LINE
  5
406
100
AcDbEntity
  8
RACCORDO
100
AcDbLine
 62
253
  6
CONTINUOUS
 10
74.7951929229
 20
42.43259477
 11
74.9337211443
 21
42.4321251336
  0
LWPOLYLINE
  5
407
100
AcDbEntity
  8
RACCORDO
100
AcDbPolyline
 62
253
  6
CONTINUOUS
 90
4
 70
0
 10
74.7429521997
 20
42.6672957805
 10
74.7444367711
 20
42.6672384024
 10
74.7488757652
 20
42.6671815942
 10
74.7664124843
 20
42.6670719255
  0
LWPOLYLINE
  5
408
100
AcDbEntity
  8
RACCORDO
100
AcDbPolyline
 62
253
  6
CONTINUOUS
 90
6
 70
0
 10
74.7429521997
 20
42.43331537
 10
74.7444462766
 20
42.4331879858
 10
74.7489136269
 20
42.4330618705
 10
74.7563097533
 20
42.4329382801
 10
74.7665609868
 20
42.4328184457
 10
74.7951929229
 20
42.43259477
  0
LINE
  5
409
100
AcDbEntity
  8
RACCORDO
100
AcDbLine
 62
253
  6
CONTINUOUS
 10
80.3431776265
 20
43.8457940385
 11
78.5413738832
 21
44.0035192549
  0
LINE
  5
40A
100
AcDbEntity
  8
RACCORDO
100
AcDbLine
 62
7
  6
CONTINUOUS
 10
80.2523324653
 20
44.8340076387
 11
78.3550310937
 21
45.0
  0
ARC
  5
40B
100
AcDbEntity
  8
RACCORDO
100
AcDbCircle
 62
7
  6
CONTINUOUS
 10
-366.1876174757
 20
-0.0
 40
450.0
100
AcDbArc
 50
357.1173180382
 51
2.882682159
  0
ARC
  5
40C
100
AcDbEntity
  8
DRAFT
100
AcDbCircle
 62
7
  6
CONTINUOUS
 10
-366.1876174757
 20
-0.0
 40
447.8
100
AcDbArc
 50
357.1173130894
 51
2.8826869106
  0
ARC
  5
40D
100
AcDbEntity
  8
0
100
AcDbCircle
 62
7
  6
CONTINUOUS
 10
-83.3726775238
 20
-14.2411105033
 40
166.926732391
100
AcDbArc
 50
354.9696557406
 51
355.9448854597
  0
ARC
  5
40E
100
AcDbEntity
  8
RACCORDO
100
AcDbCircle
 62
7
  6
CONTINUOUS
 10
-83.3726775238
 20
-14.2411105033
 40
166.826732391
100
AcDbArc
 50
349.5756088776
 51
357.1173264383
  0
ARC
  5
40F
100
AcDbEntity
  8
RACCORDO
100
AcDbCircle
 62
7
  6
CONTINUOUS
 10
-83.3726775238
 20
-14.2411105033
 40
164.626732391
100
AcDbArc
 50
349.2315617336
 51
357.1173130894
  0
ARC
  5
410
100
AcDbEntity
  8
RACCORDO
100
AcDbCircle
 62
7
  6
CONTINUOUS
 10
80.2087545939
 20
-44.3359102896
 40
0.5
100
AcDbArc
 50
275.0
 51
349.5756088776
  0
ARC
  5
411
100
AcDbEntity
  8
RACCORDO
100
AcDbCircle
 62
7
  6
CONTINUOUS
 10
75.0429521997
 20
-42.8898529836
 40
0.3
100
AcDbArc
 50
180.0
 51
250.7489922919
  0
ARC
  5
412
100
AcDbEntity
  8
RACCORDO
100
AcDbCircle
 62
7
  6
CONTINUOUS
 10
75.0429521997
 20
-42.8833544108
 40
0.3
100
AcDbArc
 50
186.0188222184
 51
210.0941098785
  0
ARC
  5
413
100
AcDbEntity
  8
RACCORDO
100
AcDbCircle
 62
7
  6
CONTINUOUS
 10
74.9429521997
 20
-42.4113525438
 40
0.2
100
AcDbArc
 50
162.0999324144
 51
180.0
  0
ARC
  5
414
100
AcDbEntity
  8
RACCORDO
100
AcDbCircle
 62
7
  6
CONTINUOUS
 10
78.2406584267
 20
-44.5001735008
 40
0.15
100
AcDbArc
 50
196.5000002343
 51
255.3378254412
  0
ARC
  5
415
100
AcDbEntity
  8
RACCORDO
100
AcDbCircle
 62
7
  6
CONTINUOUS
 10
76.4429633031
 20
-3.2482681528
 40
0.2999960812
100
AcDbArc
 50
279.9989319461
 51
359.9996260689
  0
ARC
  5
416
100
AcDbEntity
  8
RACCORDO
100
AcDbCircle
 62
7
  6
CONTINUOUS
 10
74.9429521997
 20
-23.8465394526
 40
0.2
100
AcDbArc
 50
174.0666377965
 51
180.0
  0
ARC
  5
417
100
AcDbEntity
  8
RACCORDO
100
AcDbCircle
 62
7
  6
CONTINUOUS
 10
74.9429521997
 20
-8.8465394526
 40
0.2
100
AcDbArc
 50
174.0666377965
 51
180.0
  0
ARC
  5
418
100
AcDbEntity
  8
RACCORDO
100
AcDbCircle
 62
7
  6
CONTINUOUS
 10
74.9429521997
 20
-4.0204738877
 40
0.2
100
AcDbArc
 50
100.0
 51
180.0
  0
ARC
  5
419
100
AcDbEntity
  8
RACCORDO
100
AcDbCircle
 62
7
  6
CONTINUOUS
 10
-83.3726775238
 20
14.2411105033
 40
166.826732391
100
AcDbArc
 50
2.8826740684
 51
10.4243911224
  0
ARC
  5
41A
100
AcDbEntity
  8
RACCORDO
100
AcDbCircle
 62
7
  6
CONTINUOUS
 10
-83.3726775238
 20
14.2411105033
 40
164.626732391
100
AcDbArc
 50
2.8826869106
 51
10.7684382664
  0
ARC
  5
41B
100
AcDbEntity
  8
RACCORDO
100
AcDbCircle
 62
7
  6
CONTINUOUS
 10
76.4429633031
 20
3.2482681528
 40
0.2999960812
100
AcDbArc
 50
0.0003739311
 51
80.0011069269
  0
ARC
  5
41C
100
AcDbEntity
  8
RACCORDO
100
AcDbCircle
 62
7
  6
CONTINUOUS
 10
74.9429521997
 20
9.1534605474
 40
0.2
100
AcDbArc
 50
174.0572213099
 51
180.0
  0
ARC
  5
41D
100
AcDbEntity
  8
RACCORDO
100
AcDbCircle
 62
7
  6
CONTINUOUS
 10
74.9429522019
 20
4.0204738873
 40
0.2
100
AcDbArc
 50
179.9999970267
 51
259.99998577
  0
ARC
  5
41E
100
AcDbEntity
  8
RACCORDO
100
AcDbCircle
 62
7
  6
CONTINUOUS
 10
74.9429521997
 20
24.1534605474
 40
0.2
100
AcDbArc
 50
174.0572213122
 51
180.0
  0
ARC
  5
41F
100
AcDbEntity
  8
RACCORDO
100
AcDbCircle
 62
7
  6
CONTINUOUS
 10
75.0429521997
 20
42.8895038752
 40
0.3
100
AcDbArc
 50
109.1658155462
 51
179.9999997508
  0
ARC
  5
420
100
AcDbEntity
  8
RACCORDO
100
AcDbCircle
 62
7
  6
CONTINUOUS
 10
75.0429521997
 20
42.8833544108
 40
0.3
100
AcDbArc
 50
149.9058901215
 51
173.9811777816
  0
ARC
  5
421
100
AcDbEntity
  8
RACCORDO
100
AcDbCircle
 62
7
  6
CONTINUOUS
 10
74.9429521997
 20
42.4113525438
 40
0.2
100
AcDbArc
 50
180.0
 51
197.9000680981
  0
ARC
  5
422
100
AcDbEntity
  8
RACCORDO
100
AcDbCircle
 62
7
  6
CONTINUOUS
 10
80.2087559696
 20
44.3359029681
 40
0.5000000001
100
AcDbArc
 50
10.4252447841
 51
85.0002301434
  0
ARC
  5
423
100
AcDbEntity
  8
RACCORDO
100
AcDbCircle
 62
7
  6
CONTINUOUS
 10
78.2406584267
 20
44.5001735008
 40
0.15
100
AcDbArc
 50
104.6621745588
 51
163.4999997657
  0
ENDSEC
  0
SECTION
  2
OBJECTS
  0
DICTIONARY
  5
C
100
AcDbDictionary
280
0
281
1
  3
ACAD_GROUP
350
D
  3
ACAD_MLINESTYLE
350
17
  3
ACAD_LAYOUT
350
1A
  3
ACAD_PLOTSETTINGS
350
19
  3
ACAD_PLOTSTYLENAME
350
E
  0
DICTIONARY
  5
D
102
{ACAD_REACTORS
330
C
102
}
100
AcDbDictionary
280
0
281
1
  0
ACDBDICTIONARYWDFLT
  5
E
102
{ACAD_REACTORS
330
C
102
}
100
AcDbDictionary
281
1
  3
Normal
350
F
100
AcDbDictionaryWithDefault
340
F
  0
DICTIONARY
  5
17
102
{ACAD_REACTORS
330
C
102
}
100
AcDbDictionary
280
0
281
1
  3
Standard
350
18
  0
DICTIONARY
  5
19
102
{ACAD_REACTORS
330
C
102
}
100
AcDbDictionary
281
1
  0
DICTIONARY
  5
1A
102
{ACAD_REACTORS
330
C
102
}
100
AcDbDictionary
281
1
  3
Model
350
424
  3
Layout1
350
425
  0
ACDBPLACEHOLDER
  5
F
102
{ACAD_REACTORS
330
E
102
}
  0
MLINESTYLE
  5
18
102
{ACAD_REACTORS
330
17
102
}
100
AcDbMlineStyle
  2
STANDARD
 70
0
  3

 62
256
 51
90.0
 52
90.0
 71
2
 49
0.5
 62
256
  6
BYLAYER
 49
-0.5
 62
256
  6
BYLAYER
  0
LAYOUT
  5
424
102
{ACAD_REACTORS
330
1A
102
}
100
AcDbPlotSettings
  1

  2
none_device
  4
ISO_A4_(297.00_x_210.00_MM)
  6

 40
0.0
 41
0.0
 42
0.0
 43
0.0
 44
297.0
 45
210.0
 46
0.0
 47
0.0
 48
0.0
 49
0.0
140
0.0
141
0.0
142
1.0
143
1.0
 70
1024
 72
1
 73
0
 74
0
  7

 75
0
147
1.0
148
0.0
149
0.0
100
AcDbLayout
  1
Model
 70
0
 71
0
 10
0.0
 20
0.0
 11
297.0
 21
210.0
 12
0.0
 22
0.0
 32
0.0
 14
0.0
 24
0.0
 34
0.0
 15
0.0
 25
0.0
 35
0.0
146
0.0
 13
0.0
 23
0.0
 33
0.0
 16
1.0
 26
0.0
 36
0.0
 17
0.0
 27
1.0
 37
0.0
 76
0
330
212
345
0
346
0
  0
LAYOUT
  5
425
102
{ACAD_REACTORS
330
1A
102
}
100
AcDbPlotSettings
  1

  2
none_device
  4
ISO_A4_(297.00_x_210.00_MM)
  6

 40
0.0
 41
0.0
 42
0.0
 43
0.0
 44
297.0
 45
210.0
 46
0.0
 47
0.0
 48
0.0
 49
0.0
140
0.0
141
0.0
142
1.0
143
1.0
 70
0
 72
1
 73
0
 74
0
  7

 75
0
147
1.0
148
0.0
149
0.0
100
AcDbLayout
  1
Layout1
 70
0
 71
1
 10
0.0
 20
0.0
 11
297.0
 21
210.0
 12
0.0
 22
0.0
 32
0.0
 14
0.0
 24
0.0
 34
0.0
 15
0.0
 25
0.0
 35
0.0
146
0.0
 13
0.0
 23
0.0
 33
0.0
 16
1.0
 26
0.0
 36
0.0
 17
0.0
 27
1.0
 37
0.0
 76
0
330
213
345
0
346
0
  0
ENDSEC
  0
EOF
