  0
SECTION
  2
HEADER
  9
$ACADVER
  1
AC1015
  9
$DWGCODEPAGE
  3
ANSI_1252
  9
$EXTMAX
 10
297.0
 20
210.0
 30
0.0
  9
$EXTMIN
 10
0.0
 20
0.0
 30
0.0
  9
$LIMMIN
 10
0.0
 20
0.0
  9
$LIMMAX
 10
297.0
 20
210.0
  9
$VIEWCTR
 10
148.5
 20
105.0
  9
$VIEWSIZE
 40
210.0
  9
$CLAYER
  8
0
  9
$LTSCALE
 40
16.335
  9
$CELTYPE
  6
BYLAYER
  9
$DIMSCALE
 40
1.0
  9
$DIMASZ
 40
3.0
  9
$DIMEXO
 40
1.85625
  9
$DIMDLI
 40
11.286
  9
$DIMEXE
 40
5.346
  9
$DIMCEN
 40
2.673
  9
$DIMLFAC
 40
1.0
  9
$DIMBLK
  1
_FILLED
  9
$DIMTXT
 40
3.0
  9
$DIMTOL
 70
1
  9
$DIMLIM
 70
0
  9
$DIMTFAC
 40
1.0
  9
$DIMTP
 40
0.01
  9
$DIMTM
 40
0.01
  9
$PDMODE
 70
3
  9
$PDSIZE
 40
3.0
  9
$HANDSEED
  5
308
  9
$TILEMODE
 70
1
  9
$MEASUREMENT
 70
1
  9
$INSUNITS
 70
4
  0
ENDSEC
  0
SECTION
  2
CLASSES
  0
CLASS
  1
ACDBDICTIONARYWDFLT
  2
AcDbDictionaryWithDefault
  3
AutoCAD 2000
 90
0
280
0
281
0
  0
CLASS
  1
ACDBPLACEHOLDER
  2
AcDbPlaceHolder
  3
AutoCAD 2000
 90
0
280
0
281
0
  0
CLASS
  1
LAYOUT
  2
AcDbLayout
  3
AutoCAD 2000
 90
0
280
0
281
0
  0
ENDSEC
  0
SECTION
  2
TABLES
  0
TABLE
  2
VPORT
  5
8
100
AcDbSymbolTable
 70
2
  0
VPORT
  5
1F4
100
AcDbSymbolTableRecord
100
AcDbViewportTableRecord
  2
*ACTIVE
 70
0
 10
0.0
 20
0.0
 11
1.0
 21
1.0
 12
148.5
 22
105.0
 13
0.0
 23
0.0
 14
1.0
 24
1.0
 15
0.0
 25
0.0
 16
0.0
 26
0.0
 36
1.0
 17
0.0
 27
0.0
 37
0.0
 40
210.0
 41
1.4142857143
 42
50.0
 43
0.0
 44
0.0
 50
0.0
 51
0.0
 71
0
 72
100
 73
1
 74
1
 75
0
 76
0
 77
0
 78
0
  0
ENDTAB
  0
TABLE
  2
LTYPE
  5
5
100
AcDbSymbolTable
 70
6
  0
LTYPE
  5
14
100
AcDbSymbolTableRecord
100
AcDbLinetypeTableRecord
  2
BYBLOCK
 70
0
  3

 72
65
 73
0
 40
0.0
  0
LTYPE
  5
15
100
AcDbSymbolTableRecord
100
AcDbLinetypeTableRecord
  2
BYLAYER
 70
0
  3

 72
65
 73
0
 40
0.0
  0
LTYPE
  5
16
100
AcDbSymbolTableRecord
100
AcDbLinetypeTableRecord
  2
CONTINUOUS
 70
64
  3
Solid line
 72
65
 73
0
 40
0.0
  0
LTYPE
  5
1F5
100
AcDbSymbolTableRecord
100
AcDbLinetypeTableRecord
  2
CENTER
 70
64
  3
____ _ ____ _ ____ _ ____ _ ____ _ ____ _ ____
 72
65
 73
4
 40
0.6
 49
0.375
 74
0
 49
-0.075
 74
0
 49
0.075
 74
0
 49
-0.075
 74
0
  0
LTYPE
  5
1F6
100
AcDbSymbolTableRecord
100
AcDbLinetypeTableRecord
  2
HIDDEN
 70
64
  3
- - - - - - - - - - - - - - - - - - - -
 72
65
 73
2
 40
0.2
 49
0.1
 74
0
 49
-0.1
 74
0
  0
LTYPE
  5
1F7
100
AcDbSymbolTableRecord
100
AcDbLinetypeTableRecord
  2
PHANTOM
 70
64
  3
_____ _ _ _____ _ _ _____ _ _ _____
 72
65
 73
6
 40
0.8
 49
0.45
 74
0
 49
-0.05
 74
0
 49
0.1
 74
0
 49
-0.05
 74
0
 49
0.1
 74
0
 49
-0.05
 74
0
  0
LTYPE
  5
1F8
100
AcDbSymbolTableRecord
100
AcDbLinetypeTableRecord
  2
DOT
 70
64
  3
. . . . . . . . . . . . . . . . . . . .
 72
65
 73
2
 40
0.2
 49
0.1
 74
0
 49
-0.1
 74
0
  0
LTYPE
  5
1F9
100
AcDbSymbolTableRecord
100
AcDbLinetypeTableRecord
  2
DASHED
 70
64
  3
- - - - - - - - - - - - - - - - - - - -
 72
65
 73
2
 40
0.2
 49
0.1
 74
0
 49
-0.1
 74
0
  0
ENDTAB
  0
TABLE
  2
LAYER
  5
2
100
AcDbSymbolTable
 70
36
  0
LAYER
  5
10
100
AcDbSymbolTableRecord
100
AcDbLayerTableRecord
  2
0
 70
0
 62
7
  6
CONTINUOUS
370
-3
390
F
  0
LAYER
  5
1FA
100
AcDbSymbolTableRecord
100
AcDbLayerTableRecord
  2
DEFAULT_1
 70
0
 62
7
  6
CENTER
370
-3
390
F
  0
LAYER
  5
1FB
100
AcDbSymbolTableRecord
100
AcDbLayerTableRecord
  2
DEFAULT_2
 70
0
 62
7
  6
HIDDEN
370
-3
390
F
  0
LAYER
  5
1FC
100
AcDbSymbolTableRecord
100
AcDbLayerTableRecord
  2
DEFAULT_3
 70
0
 62
7
  6
PHANTOM
370
-3
390
F
  0
LAYER
  5
1FD
100
AcDbSymbolTableRecord
100
AcDbLayerTableRecord
  2
ASSI
 70
0
 62
7
  6
CONTINUOUS
370
-3
390
F
  0
LAYER
  5
1FE
100
AcDbSymbolTableRecord
100
AcDbLayerTableRecord
  2
COORDINATE
 70
0
 62
7
  6
CONTINUOUS
370
-3
390
F
  0
LAYER
  5
1FF
100
AcDbSymbolTableRecord
100
AcDbLayerTableRecord
  2
COPY_PUBLISH
 70
0
 62
7
  6
CONTINUOUS
370
-3
390
F
  0
LAYER
  5
200
100
AcDbSymbolTableRecord
100
AcDbLayerTableRecord
  2
COSMETIC
 70
0
 62
7
  6
CONTINUOUS
370
-3
390
F
  0
LAYER
  5
201
100
AcDbSymbolTableRecord
100
AcDbLayerTableRecord
  2
COSMETICI
 70
0
 62
7
  6
CONTINUOUS
370
-3
390
F
  0
LAYER
  5
202
100
AcDbSymbolTableRecord
100
AcDbLayerTableRecord
  2
CURVE
 70
0
 62
7
  6
CONTINUOUS
370
-3
390
F
  0
LAYER
  5
203
100
AcDbSymbolTableRecord
100
AcDbLayerTableRecord
  2
DRAFT
 70
0
 62
7
  6
CONTINUOUS
370
-3
390
F
  0
LAYER
  5
204
100
AcDbSymbolTableRecord
100
AcDbLayerTableRecord
  2
IMPORT_IGES
 70
0
 62
7
  6
CONTINUOUS
370
-3
390
F
  0
LAYER
  5
205
100
AcDbSymbolTableRecord
100
AcDbLayerTableRecord
  2
INTFCLR_1
 70
0
 62
7
  6
CONTINUOUS
370
-3
390
F
  0
LAYER
  5
206
100
AcDbSymbolTableRecord
100
AcDbLayerTableRecord
  2
NOTE
 70
0
 62
7
  6
CONTINUOUS
370
-3
390
F
  0
LAYER
  5
207
100
AcDbSymbolTableRecord
100
AcDbLayerTableRecord
  2
PIANI
 70
0
 62
7
  6
CONTINUOUS
370
-3
390
F
  0
LAYER
  5
208
100
AcDbSymbolTableRecord
100
AcDbLayerTableRecord
  2
PUNTI
 70
0
 62
7
  6
CONTINUOUS
370
-3
390
F
  0
LAYER
  5
209
100
AcDbSymbolTableRecord
100
AcDbLayerTableRecord
  2
RACCORDO
 70
0
 62
7
  6
CONTINUOUS
370
-3
390
F
  0
LAYER
  5
20A
100
AcDbSymbolTableRecord
100
AcDbLayerTableRecord
  2
SIMBOLI
 70
0
 62
7
  6
CONTINUOUS
370
-3
390
F
  0
LAYER
  5
20B
100
AcDbSymbolTableRecord
100
AcDbLayerTableRecord
  2
SMUSSO
 70
0
 62
7
  6
CONTINUOUS
370
-3
390
F
  0
LAYER
  5
20C
100
AcDbSymbolTableRecord
100
AcDbLayerTableRecord
  2
SNAPLINE
 70
0
 62
7
  6
CONTINUOUS
370
-3
390
F
  0
LAYER
  5
20D
100
AcDbSymbolTableRecord
100
AcDbLayerTableRecord
  2
SUPERFICI
 70
0
 62
7
  6
CONTINUOUS
370
-3
390
F
  0
LAYER
  5
20E
100
AcDbSymbolTableRecord
100
AcDbLayerTableRecord
  2
TRASH
 70
0
 62
7
  6
CONTINUOUS
370
-3
390
F
  0
LAYER
  5
20F
100
AcDbSymbolTableRecord
100
AcDbLayerTableRecord
  2
XSEC_DATUMS
 70
0
 62
7
  6
CONTINUOUS
370
-3
390
F
  0
ENDTAB
  0
TABLE
  2
STYLE
  5
3
100
AcDbSymbolTable
 70
1
  0
STYLE
  5
11
100
AcDbSymbolTableRecord
100
AcDbTextStyleTableRecord
  2
STANDARD
 70
0
 40
0.0
 41
0.8
 50
0.0
 71
0
 42
0.2
  3
txt
  4

  0
STYLE
  5
210
100
AcDbSymbolTableRecord
100
AcDbTextStyleTableRecord
  2
TEXTSTYLE_1
 70
0
 40
0.0
 41
0.8
 50
0.0
 71
0
 42
0.2
  3
gdt
  4

  0
ENDTAB
  0
TABLE
  2
VIEW
  5
6
100
AcDbSymbolTable
 70
0
  0
ENDTAB
  0
TABLE
  2
UCS
  5
7
100
AcDbSymbolTable
 70
0
  0
ENDTAB
  0
TABLE
  2
APPID
  5
9
100
AcDbSymbolTable
 70
1
  0
APPID
  5
211
100
AcDbSymbolTableRecord
100
AcDbRegAppTableRecord
  2
ACAD
 70
0
  0
ENDTAB
  0
TABLE
  2
BLOCK_RECORD
  5
1
100
AcDbSymbolTable
 70
0
  0
BLOCK_RECORD
  5
212
100
AcDbSymbolTableRecord
100
AcDbBlockTableRecord
  2
*Model_Space
  0
BLOCK_RECORD
  5
213
100
AcDbSymbolTableRecord
100
AcDbBlockTableRecord
  2
*Paper_Space
  0
BLOCK_RECORD
  5
214
100
AcDbSymbolTableRecord
100
AcDbBlockTableRecord
  2
_FILLED
  0
BLOCK_RECORD
  5
215
100
AcDbSymbolTableRecord
100
AcDbBlockTableRecord
  2
*D0
  0
BLOCK_RECORD
  5
216
100
AcDbSymbolTableRecord
100
AcDbBlockTableRecord
  2
*D1
  0
BLOCK_RECORD
  5
217
100
AcDbSymbolTableRecord
100
AcDbBlockTableRecord
  2
*D2
  0
ENDTAB
  0
TABLE
  2
DIMSTYLE
  5
A
100
AcDbSymbolTable
 70
1
100
AcDbDimStyleTable
 71
0
  0
DIMSTYLE
105
218
100
AcDbSymbolTableRecord
100
AcDbDimStyleTableRecord
  2
STANDARD
 70
0
  3

  4

 40
1.0
 41
3.0
 42
0.0625
 43
0.38
 44
0.18
 45
0.0
 46
0.0
 47
0.01
 48
0.01
140
3.0
141
0.09
142
0.0
143
25.4
144
1.0
145
0.0
146
1.0
147
0.09
 71
1.0
 72
0.0
 73
0
 74
0
 75
0
 76
0
 77
1
 78
8
170
0
171
2
172
0
173
0
174
0
175
0
176
0
177
0
178
0
270
2
271
2
272
2
273
2
274
2
275
0
280
0
281
0
282
0
283
1
284
8
285
0
286
0
287
3
288
0
340
11
341
214
342
214
343
214
344
214
  0
DIMSTYLE
105
219
100
AcDbSymbolTableRecord
100
AcDbDimStyleTableRecord
  2
DIMSTYLE_1
 70
0
  3

  4

 40
1.0
 41
3.0
 42
0.0625
 43
0.38
 44
0.18
 45
0.0
 46
0.0
 47
0.0
 48
0.0
140
3.0
141
0.09
142
0.0
143
25.4
144
1.0
145
0.0
146
1.0
147
0.09
 71
0.0
 72
0.0
 73
0
 74
0
 75
0
 76
0
 77
1
 78
8
170
0
171
2
172
0
173
0
174
0
175
0
176
0
177
0
178
0
270
2
271
2
272
2
273
2
274
2
275
0
280
0
281
0
282
0
283
1
284
8
285
0
286
0
287
3
288
0
340
11
341
214
342
214
343
214
344
214
  0
DIMSTYLE
105
21A
100
AcDbSymbolTableRecord
100
AcDbDimStyleTableRecord
  2
DIMSTYLE_2
 70
0
  3

  4

 40
1.0
 41
3.0
 42
0.0625
 43
0.38
 44
0.18
 45
0.0
 46
0.0
 47
0.0
 48
0.0
140
3.0
141
0.09
142
0.0
143
25.4
144
1.0
145
0.0
146
1.0
147
0.09
 71
0.0
 72
0.0
 73
0
 74
0
 75
0
 76
0
 77
1
 78
8
170
0
171
2
172
0
173
0
174
0
175
0
176
0
177
0
178
0
270
2
271
1
272
1
273
2
274
2
275
0
280
0
281
0
282
0
283
1
284
8
285
0
286
0
287
3
288
0
340
11
341
214
342
214
343
214
344
214
  0
ENDTAB
  0
ENDSEC
  0
SECTION
  2
BLOCKS
  0
BLOCK
  5
20
100
AcDbEntity
  8
0
100
AcDbBlockBegin
  2
*Model_Space
 70
0
 10
0.0
 20
0.0
 30
0.0
  3
*Model_Space
  1

  0
ENDBLK
  5
21
100
AcDbEntity
  8
0
100
AcDbBlockEnd
  0
BLOCK
  5
1C
100
AcDbEntity
  8
0
100
AcDbBlockBegin
  2
*Paper_Space
 70
0
 10
0.0
 20
0.0
 30
0.0
  3
*Paper_Space
  1

  0
ENDBLK
  5
1D
100
AcDbEntity
  8
0
100
AcDbBlockEnd
  0
BLOCK
  5
21B
100
AcDbEntity
  8
0
100
AcDbBlockBegin
  2
_FILLED
 70
64
 10
0.0
 20
0.0
  3
_FILLED
  1

  0
SOLID
  5
21C
100
AcDbEntity
  8
0
  6
BYBLOCK
 62
0
100
AcDbTrace
 10
0.0
 20
0.0
 11
-1.0
 21
0.3166666667
 12
-1.0
 22
-0.3166666667
 13
-1.0
 23
-0.3166666667
  0
ENDBLK
  5
21D
100
AcDbEntity
  8
0
  6
BYBLOCK
 62
0
100
AcDbBlockEnd
  0
BLOCK
  5
21E
100
AcDbEntity
  8
0
100
AcDbBlockBegin
 62
7
  6
CONTINUOUS
  2
*D0
 70
65
 10
0.0
 20
0.0
  3
*D0
  1

  0
LINE
  5
21F
100
AcDbEntity
  8
0
100
AcDbLine
 62
7
  6
CONTINUOUS
 10
-45.0
 20
44.5013704652
 11
-45.0
 21
59.5
  0
LINE
  5
220
100
AcDbEntity
  8
0
100
AcDbLine
 62
7
  6
CONTINUOUS
 10
45.0
 20
44.5013704652
 11
45.0
 21
59.5
  0
LINE
  5
221
100
AcDbEntity
  8
0
100
AcDbLine
 62
7
  6
CONTINUOUS
 10
-45.0
 20
58.0
 11
0.0
 21
58.0
  0
LINE
  5
222
100
AcDbEntity
  8
0
100
AcDbLine
 62
7
  6
CONTINUOUS
 10
45.0
 20
58.0
 11
0.0
 21
58.0
  0
INSERT
  5
223
100
AcDbEntity
  8
0
100
AcDbBlockReference
 62
7
  6
CONTINUOUS
  2
_FILLED
 10
-45.0
 20
58.0
 41
3.0
 42
3.0
 43
3.0
 50
180.0
  0
INSERT
  5
224
100
AcDbEntity
  8
0
100
AcDbBlockReference
 62
7
  6
CONTINUOUS
  2
_FILLED
 10
45.0
 20
58.0
 41
3.0
 42
3.0
 43
3.0
  0
ENDBLK
  5
225
100
AcDbEntity
  8
0
  6
BYBLOCK
 62
0
100
AcDbBlockEnd
  0
BLOCK
  5
226
100
AcDbEntity
  8
0
100
AcDbBlockBegin
 62
7
  6
CONTINUOUS
  2
*D1
 70
65
 10
0.0
 20
0.0
  3
*D1
  1

  0
LINE
  5
227
100
AcDbEntity
  8
0
100
AcDbLine
 62
7
  6
CONTINUOUS
 10
44.5013704652
 20
45.0
 11
62.0057643263
 21
45.0
  0
LINE
  5
228
100
AcDbEntity
  8
0
100
AcDbLine
 62
7
  6
CONTINUOUS
 10
44.5013704652
 20
-45.0
 11
62.0057643263
 21
-45.0
  0
LINE
  5
229
100
AcDbEntity
  8
0
100
AcDbLine
 62
7
  6
CONTINUOUS
 10
60.5057643263
 20
45.0
 11
60.5057643263
 21
0.0
  0
LINE
  5
22A
100
AcDbEntity
  8
0
100
AcDbLine
 62
7
  6
CONTINUOUS
 10
60.5057643263
 20
-45.0
 11
60.5057643263
 21
0.0
  0
INSERT
  5
22B
100
AcDbEntity
  8
0
100
AcDbBlockReference
 62
7
  6
CONTINUOUS
  2
_FILLED
 10
60.5057643263
 20
45.0
 41
3.0
 42
3.0
 43
3.0
 50
90.0
  0
INSERT
  5
22C
100
AcDbEntity
  8
0
100
AcDbBlockReference
 62
7
  6
CONTINUOUS
  2
_FILLED
 10
60.5057643263
 20
-45.0
 41
3.0
 42
3.0
 43
3.0
 50
270.0
  0
ENDBLK
  5
22D
100
AcDbEntity
  8
0
  6
BYBLOCK
 62
0
100
AcDbBlockEnd
  0
BLOCK
  5
22E
100
AcDbEntity
  8
0
100
AcDbBlockBegin
 62
7
  6
CONTINUOUS
  2
*D2
 70
65
 10
0.0
 20
0.0
  3
*D2
  1

  0
LINE
  5
22F
100
AcDbEntity
  8
0
100
AcDbLine
 62
7
  6
CONTINUOUS
 10
-63.0023841391
 20
43.597075387
 11
-63.0023841468
 21
59.5000000021
  0
LINE
  5
230
100
AcDbEntity
  8
0
100
AcDbLine
 62
7
  6
CONTINUOUS
 10
-71.5736632365
 20
0.4999997802
 11
-71.5736632653
 21
59.4999999979
  0
LINE
  5
231
100
AcDbEntity
  8
0
100
AcDbLine
 62
7
  6
CONTINUOUS
 10
-63.0023841461
 20
58.0000000021
 11
-59.0023841461
 21
58.000000004
  0
LINE
  5
232
100
AcDbEntity
  8
0
100
AcDbLine
 62
7
  6
CONTINUOUS
 10
-59.0023841461
 20
58.000000004
 11
-67.2880237054
 21
58.0
  0
LINE
  5
233
100
AcDbEntity
  8
0
100
AcDbLine
 62
7
  6
CONTINUOUS
 10
-71.5736632646
 20
57.9999999979
 11
-75.5736632646
 21
57.999999996
  0
LINE
  5
234
100
AcDbEntity
  8
0
100
AcDbLine
 62
7
  6
CONTINUOUS
 10
-75.5736632646
 20
57.999999996
 11
-67.2880237054
 21
58.0
  0
INSERT
  5
235
100
AcDbEntity
  8
0
100
AcDbBlockReference
 62
7
  6
CONTINUOUS
  2
_FILLED
 10
-63.0023841461
 20
58.0000000021
 41
3.0
 42
3.0
 43
3.0
 50
180.000000028
  0
INSERT
  5
236
100
AcDbEntity
  8
0
100
AcDbBlockReference
 62
7
  6
CONTINUOUS
  2
_FILLED
 10
-71.5736632646
 20
57.9999999979
 41
3.0
 42
3.0
 43
3.0
 50
0.000000028
  0
ENDBLK
  5
237
100
AcDbEntity
  8
0
  6
BYBLOCK
 62
0
100
AcDbBlockEnd
  0
ENDSEC
  0
SECTION
  2
ENTITIES
  0
DIMENSION
  5
238
100
AcDbEntity
  8
0
100
AcDbDimension
 62
7
  6
CONTINUOUS
  2
*D0
 10
45.0
 20
58.0
 11
-2.3571428571
 21
58.75
 70
160
 71
2
 42
90.0
  3
DIMSTYLE_1
100
AcDbAlignedDimension
 13
-45.0
 23
44.5013704652
 14
45.0
 24
44.5013704652
100
AcDbRotatedDimension
  0
DIMENSION
  5
239
100
AcDbEntity
  8
0
100
AcDbDimension
 62
7
  6
CONTINUOUS
  2
*D1
 10
60.5057643263
 20
-45.0
 11
59.7557643263
 21
-2.3571428571
 70
160
 71
2
 42
90.0
  3
DIMSTYLE_1
100
AcDbAlignedDimension
 13
44.5013704652
 23
45.0
 14
44.5013704652
 24
-45.0
 50
270.0
100
AcDbRotatedDimension
  0
DIMENSION
  5
23A
100
AcDbEntity
  8
0
100
AcDbDimension
 62
7
  6
CONTINUOUS
  2
*D2
 10
-71.5736632646
 20
57.9999999979
 11
-70.5023094207
 21
58.75
 70
160
 71
2
 42
8.5712791185
  3
DIMSTYLE_2
100
AcDbAlignedDimension
 13
-63.0023841391
 23
43.597075387
 14
-71.5736632365
 24
0.4999997802
 50
180.000000028
100
AcDbRotatedDimension
  0
LINE
  5
23B
100
AcDbEntity
  8
RACCORDO
100
AcDbLine
 62
7
  6
CONTINUOUS
 10
-45.0
 20
-44.0013704652
 11
-45.0
 21
44.0013704652
  0
LINE
  5
23C
100
AcDbEntity
  8
RACCORDO
100
AcDbLine
 62
253
  6
CONTINUOUS
 10
-43.8781758769
 20
-44.6316825048
 11
-43.8781758769
 21
-44.8768054117
  0
LINE
  5
23D
100
AcDbEntity
  8
RACCORDO
100
AcDbLine
 62
253
  6
CONTINUOUS
 10
-43.8781758769
 20
44.6316825048
 11
-43.8781758772
 21
44.8768054117
  0
LINE
  5
23E
100
AcDbEntity
  8
RACCORDO
100
AcDbLine
 62
7
  6
CONTINUOUS
 10
-44.0013704652
 20
-45.0
 11
44.0013704652
 21
-45.0
  0
LINE
  5
23F
100
AcDbEntity
  8
RACCORDO
100
AcDbLine
 62
253
  6
CONTINUOUS
 10
-43.8781758769
 20
-44.8768054117
 11
43.8781758769
 21
-44.8768054117
  0
LINE
  5
240
100
AcDbEntity
  8
RACCORDO
100
AcDbLine
 62
253
  6
CONTINUOUS
 10
-43.8781758769
 20
-44.6316825048
 11
43.8781758769
 21
-44.6316825048
  0
LWPOLYLINE
  5
241
100
AcDbEntity
  8
0
100
AcDbPolyline
 62
7
  6
CONTINUOUS
 90
10
 70
0
 43
0.3500000006
 10
-1.9285714102
 20
58.7499994812
 10
-1.0714285848
 20
59.6071464844
 10
-0.8571428254
 20
60.4642844238
 10
-0.8571428254
 20
61.321431427
 10
-1.2857142735
 20
61.7500003967
 10
-1.9285714102
 20
61.7500003967
 10
-2.3571427875
 20
61.321431427
 10
-2.3571427875
 20
60.4642844238
 10
-1.9285714102
 20
60.0357154541
 10
-1.0000000219
 20
60.0357154541
  0
LINE
  5
242
100
AcDbEntity
  8
0
100
AcDbLine
 62
7
  6
CONTINUOUS
 10
5.6391482119
 20
-28.8778013544
 11
5.0770156219
 21
-28.8778013544
  0
LINE
  5
243
100
AcDbEntity
  8
0
100
AcDbLine
 62
7
  6
CONTINUOUS
 10
4.1820753449
 20
-28.8778013544
 11
3.6000188023
 21
-28.8778013544
  0
LINE
  5
244
100
AcDbEntity
  8
0
100
AcDbLine
 62
7
  6
CONTINUOUS
 10
3.298408
 20
-28.877801
 11
2.682466
 21
-28.877801
  0
LINE
  5
245
100
AcDbEntity
  8
0
100
AcDbLine
 62
7
  6
CONTINUOUS
 10
1.573947
 20
-28.877801
 11
0.99588
 21
-28.877801
  0
LINE
  5
246
100
AcDbEntity
  8
0
100
AcDbLine
 62
7
  6
CONTINUOUS
 10
0.694112
 20
-28.877801
 11
0.122406
 21
-28.877801
  0
LINE
  5
247
100
AcDbEntity
  8
0
100
AcDbLine
 62
7
  6
CONTINUOUS
 10
-0.692524
 20
-28.877801
 11
-0.774487
 21
-28.877801
  0
LINE
  5
248
100
AcDbEntity
  8
0
100
AcDbLine
 62
7
  6
CONTINUOUS
 10
-1.586183
 20
-28.877801
 11
-2.145272
 21
-28.877801
  0
LINE
  5
249
100
AcDbEntity
  8
0
100
AcDbLine
 62
7
  6
CONTINUOUS
 10
-2.449877
 20
-28.877801
 11
-3.034285
 21
-28.877801
  0
LINE
  5
24A
100
AcDbEntity
  8
0
100
AcDbLine
 62
7
  6
CONTINUOUS
 10
-4.231097
 20
-28.877801
 11
-4.746107
 21
-28.877801
  0
LINE
  5
24B
100
AcDbEntity
  8
0
100
AcDbLine
 62
7
  6
CONTINUOUS
 10
2.531074
 20
-28.318881
 11
1.735207
 21
-28.318881
  0
LINE
  5
24C
100
AcDbEntity
  8
0
100
AcDbLine
 62
7
  6
CONTINUOUS
 10
2.41428
 20
-27.886391
 11
1.854751
 21
-27.886391
  0
LINE
  5
24D
100
AcDbEntity
  8
0
100
AcDbLine
 62
7
  6
CONTINUOUS
 10
4.4954209623
 20
-27.7821519248
 11
4.1820753449
 21
-27.7821519248
  0
LINE
  5
24E
100
AcDbEntity
  8
0
100
AcDbLine
 62
7
  6
CONTINUOUS
 10
4.4966806432
 20
-27.3236280866
 11
4.1626972541
 21
-27.3236280866
  0
LINE
  5
24F
100
AcDbEntity
  8
0
100
AcDbLine
 62
7
  6
CONTINUOUS
 10
2.43939
 20
-26.078098
 11
1.874045
 21
-26.078098
  0
LINE
  5
250
100
AcDbEntity
  8
0
100
AcDbLine
 62
7
  6
CONTINUOUS
 10
0.432308
 20
-26.078098
 11
-0.145906
 21
-26.078098
  0
LINE
  5
251
100
AcDbEntity
  8
0
100
AcDbLine
 62
7
  6
CONTINUOUS
 10
-1.30855
 20
-26.078098
 11
-1.892475
 21
-26.078098
  0
LINE
  5
252
100
AcDbEntity
  8
0
100
AcDbLine
 62
7
  6
CONTINUOUS
 10
-3.33116
 20
-26.078098
 11
-3.915169
 21
-26.078098
  0
LINE
  5
253
100
AcDbEntity
  8
0
100
AcDbLine
 62
7
  6
CONTINUOUS
 10
-4.99882
 20
-26.078098
 11
-5.633668
 21
-26.078098
  0
LINE
  5
254
100
AcDbEntity
  8
0
100
AcDbLine
 62
7
  6
CONTINUOUS
 10
-2.449877
 20
-26.07793
 11
-3.034285
 21
-26.07793
  0
LINE
  5
255
100
AcDbEntity
  8
0
100
AcDbLine
 62
7
  6
CONTINUOUS
 10
-22.6
 20
-21.7010963722
 11
-22.6
 21
21.7010963722
  0
LINE
  5
256
100
AcDbEntity
  8
RACCORDO
100
AcDbLine
 62
253
  6
CONTINUOUS
 10
-21.9426456448
 20
23.1675430277
 11
-21.9426456448
 21
22.6415492726
  0
LINE
  5
257
100
AcDbEntity
  8
RACCORDO
100
AcDbLine
 62
253
  6
CONTINUOUS
 10
-21.9426456448
 20
-23.1675430277
 11
-21.9426456448
 21
-22.6415492726
  0
LINE
  5
258
100
AcDbEntity
  8
RACCORDO
100
AcDbLine
 62
253
  6
CONTINUOUS
 10
21.9426456448
 20
-23.1675430277
 11
-21.9426456448
 21
-23.1675430277
  0
LINE
  5
259
100
AcDbEntity
  8
RACCORDO
100
AcDbLine
 62
253
  6
CONTINUOUS
 10
44.4427701044
 20
-22.6676475367
 11
22.9679615936
 21
-22.6677048937
  0
LINE
  5
25A
100
AcDbEntity
  8
RACCORDO
100
AcDbLine
 62
253
  6
CONTINUOUS
 10
-22.9679615936
 20
-22.6677048937
 11
-44.4427701041
 21
-22.6676473889
  0
LINE
  5
25B
100
AcDbEntity
  8
RACCORDO
100
AcDbLine
 62
253
  6
CONTINUOUS
 10
21.9426840308
 20
-22.6415492726
 11
-21.9426540141
 21
-22.6415492726
  0
LINE
  5
25C
100
AcDbEntity
  8
0
100
AcDbLine
 62
7
  6
CONTINUOUS
 10
21.8010963722
 20
-22.5
 11
-21.8010963722
 21
-22.5
  0
LINE
  5
25D
100
AcDbEntity
  8
0
100
AcDbLine
 62
7
  6
CONTINUOUS
 10
-4.746107
 20
-28.877801
 11
-5.633668
 21
-26.078098
  0
LINE
  5
25E
100
AcDbEntity
  8
0
100
AcDbLine
 62
7
  6
CONTINUOUS
 10
-4.465146
 20
-28.00522
 11
-4.99882
 21
-26.078098
  0
LINE
  5
25F
100
AcDbEntity
  8
0
100
AcDbLine
 62
7
  6
CONTINUOUS
 10
-0.774487
 20
-28.877801
 11
-1.460068
 21
-27.049647
  0
LINE
  5
260
100
AcDbEntity
  8
0
100
AcDbLine
 62
7
  6
CONTINUOUS
 10
-0.730314
 20
-27.632502
 11
-1.30855
 21
-26.078098
  0
LINE
  5
261
100
AcDbEntity
  8
0
100
AcDbLine
 62
7
  6
CONTINUOUS
 10
0.694112
 20
-28.877801
 11
0.432308
 21
-26.078098
  0
LINE
  5
262
100
AcDbEntity
  8
0
100
AcDbLine
 62
7
  6
CONTINUOUS
 10
0.122406
 20
-28.877801
 11
0.002337
 21
-27.057269
  0
LINE
  5
263
100
AcDbEntity
  8
0
100
AcDbLine
 62
7
  6
CONTINUOUS
 10
-3.034285
 20
-28.877801
 11
-3.034285
 21
-26.07793
  0
LINE
  5
264
100
AcDbEntity
  8
0
100
AcDbLine
 62
7
  6
CONTINUOUS
 10
-2.449877
 20
-28.877801
 11
-2.449877
 21
-26.07793
  0
LWPOLYLINE
  5
265
100
AcDbEntity
  8
0
100
AcDbPolyline
 62
7
  6
CONTINUOUS
 90
13
 70
0
 43
0.3500000006
 10
0.0
 20
59.6071464844
 10
0.0
 20
60.8928533936
 10
0.2142857063
 20
61.321431427
 10
0.6428571367
 20
61.7500003967
 10
0.8571428254
 20
61.7500003967
 10
1.2857142735
 20
61.321431427
 10
1.5000000329
 20
60.8928533936
 10
1.5000000329
 20
59.6071464844
 10
1.2857142735
 20
59.1785684509
 10
0.8571428254
 20
58.7499994812
 10
0.6428571367
 20
58.7499994812
 10
0.2142857063
 20
59.1785684509
 10
0.0
 20
59.6071464844
  0
LINE
  5
266
100
AcDbEntity
  8
0
100
AcDbLine
 62
7
  6
CONTINUOUS
 10
-1.586183
 20
-28.877801
 11
-1.460068
 21
-27.049647
  0
LINE
  5
267
100
AcDbEntity
  8
0
100
AcDbLine
 62
7
  6
CONTINUOUS
 10
-2.145272
 20
-28.877801
 11
-1.892475
 21
-26.078098
  0
LINE
  5
268
100
AcDbEntity
  8
RACCORDO
100
AcDbLine
 62
253
  6
CONTINUOUS
 10
-44.8700585586
 20
-43.8714290238
 11
-45.0
 21
-44.0013704652
  0
LINE
  5
269
100
AcDbEntity
  8
RACCORDO
100
AcDbLine
 62
253
  6
CONTINUOUS
 10
43.8781758769
 20
44.8768054117
 11
44.0013704652
 21
45.0
  0
LINE
  5
26A
100
AcDbEntity
  8
0
100
AcDbLine
 62
253
  6
CONTINUOUS
 10
-22.7449737308
 20
-21.8461021525
 11
-22.6
 21
-21.7010963722
  0
LINE
  5
26B
100
AcDbEntity
  8
0
100
AcDbLine
 62
253
  6
CONTINUOUS
 10
21.9426540141
 20
22.6415492726
 11
21.8010963722
 21
22.5
  0
LINE
  5
26C
100
AcDbEntity
  8
0
100
AcDbLine
 62
253
  6
CONTINUOUS
 10
-21.9426540141
 20
-22.6415492726
 11
-21.8010963722
 21
-22.5
  0
LINE
  5
26D
100
AcDbEntity
  8
0
100
AcDbLine
 62
253
  6
CONTINUOUS
 10
22.7449737296
 20
21.8461028089
 11
22.6
 21
21.7010963722
  0
LINE
  5
26E
100
AcDbEntity
  8
RACCORDO
100
AcDbLine
 62
253
  6
CONTINUOUS
 10
-43.8781758769
 20
-44.8768054117
 11
-44.0013704652
 21
-45.0
  0
LINE
  5
26F
100
AcDbEntity
  8
RACCORDO
100
AcDbLine
 62
253
  6
CONTINUOUS
 10
44.8700585586
 20
43.8714290238
 11
45.0
 21
44.0013704652
  0
LWPOLYLINE
  5
270
100
AcDbEntity
  8
0
100
AcDbPolyline
 62
7
  6
CONTINUOUS
 90
13
 70
0
 43
0.3500000006
 10
58.8986221619
 20
-0.0000003204
 10
57.612906189
 20
-0.0000003204
 10
57.1843372192
 20
0.2142864304
 10
56.7557637177
 20
0.642857666
 10
56.7557637177
 20
0.8571421509
 10
57.1843372192
 20
1.2857133865
 10
57.612906189
 20
1.5000001373
 10
58.8986221619
 20
1.5000001373
 10
59.3271911316
 20
1.2857133865
 10
59.7557646332
 20
0.8571421509
 10
59.7557646332
 20
0.642857666
 10
59.3271911316
 20
0.2142864304
 10
58.8986221619
 20
-0.0000003204
  0
LINE
  5
271
100
AcDbEntity
  8
0
100
AcDbLine
 62
253
  6
CONTINUOUS
 10
21.9426840308
 20
-22.6415492726
 11
21.8010963722
 21
-22.5
  0
LINE
  5
272
100
AcDbEntity
  8
0
100
AcDbLine
 62
253
  6
CONTINUOUS
 10
-21.9426840308
 20
22.6415492726
 11
-21.8010963722
 21
22.5
  0
LINE
  5
273
100
AcDbEntity
  8
RACCORDO
100
AcDbLine
 62
253
  6
CONTINUOUS
 10
43.8781758769
 20
-44.8768054117
 11
44.0013704652
 21
-45.0
  0
LINE
  5
274
100
AcDbEntity
  8
RACCORDO
100
AcDbLine
 62
253
  6
CONTINUOUS
 10
-44.8700585586
 20
43.8714290238
 11
-45.0
 21
44.0013704652
  0
LINE
  5
275
100
AcDbEntity
  8
0
100
AcDbLine
 62
253
  6
CONTINUOUS
 10
-22.7449737716
 20
21.8460808361
 11
-22.6
 21
21.7010963722
  0
LINE
  5
276
100
AcDbEntity
  8
0
100
AcDbLine
 62
253
  6
CONTINUOUS
 10
22.7449737709
 20
-21.8460811902
 11
22.6
 21
-21.7010963722
  0
LINE
  5
277
100
AcDbEntity
  8
RACCORDO
100
AcDbLine
 62
253
  6
CONTINUOUS
 10
44.8700585586
 20
-43.8714290238
 11
45.0
 21
-44.0013704652
  0
LINE
  5
278
100
AcDbEntity
  8
RACCORDO
100
AcDbLine
 62
253
  6
CONTINUOUS
 10
-43.8781758769
 20
44.8768054117
 11
-44.0013704652
 21
45.0
  0
LINE
  5
279
100
AcDbEntity
  8
0
100
AcDbLine
 62
7
  6
CONTINUOUS
 10
3.298408
 20
-28.877801
 11
2.43939
 21
-26.078098
  0
LINE
  5
27A
100
AcDbEntity
  8
0
100
AcDbLine
 62
7
  6
CONTINUOUS
 10
2.682466
 20
-28.877801
 11
2.531074
 21
-28.318881
  0
LINE
  5
27B
100
AcDbEntity
  8
0
100
AcDbLine
 62
7
  6
CONTINUOUS
 10
2.41428
 20
-27.886391
 11
2.145737
 21
-26.847385
  0
LINE
  5
27C
100
AcDbEntity
  8
0
100
AcDbLine
 62
7
  6
CONTINUOUS
 10
3.6000188023
 20
-28.8778013544
 11
3.6000188023
 21
-26.110807341
  0
LINE
  5
27D
100
AcDbEntity
  8
0
100
AcDbLine
 62
7
  6
CONTINUOUS
 10
4.1626972541
 20
-27.3236280866
 11
4.1626972541
 21
-26.5550547959
  0
LINE
  5
27E
100
AcDbEntity
  8
0
100
AcDbLine
 62
7
  6
CONTINUOUS
 10
4.1820753449
 20
-28.8778013544
 11
4.1820753449
 21
-27.7821519248
  0
LINE
  5
27F
100
AcDbEntity
  8
0
100
AcDbLine
 62
7
  6
CONTINUOUS
 10
5.1025031649
 20
-27.5709244369
 11
5.1025031649
 21
-27.554380628
  0
LINE
  5
280
100
AcDbEntity
  8
0
100
AcDbLine
 62
7
  6
CONTINUOUS
 10
-4.465146
 20
-28.00522
 11
-3.915169
 21
-26.078098
  0
LINE
  5
281
100
AcDbEntity
  8
0
100
AcDbLine
 62
7
  6
CONTINUOUS
 10
-4.231097
 20
-28.877801
 11
-3.33116
 21
-26.078098
  0
LINE
  5
282
100
AcDbEntity
  8
0
100
AcDbLine
 62
7
  6
CONTINUOUS
 10
1.854751
 20
-27.886391
 11
2.145737
 21
-26.847385
  0
LINE
  5
283
100
AcDbEntity
  8
0
100
AcDbLine
 62
7
  6
CONTINUOUS
 10
1.573947
 20
-28.877801
 11
1.735207
 21
-28.318881
  0
LINE
  5
284
100
AcDbEntity
  8
0
100
AcDbLine
 62
7
  6
CONTINUOUS
 10
0.99588
 20
-28.877801
 11
1.874045
 21
-26.078098
  0
LINE
  5
285
100
AcDbEntity
  8
0
100
AcDbLine
 62
7
  6
CONTINUOUS
 10
-0.730314
 20
-27.632502
 11
-0.145906
 21
-26.078098
  0
LINE
  5
286
100
AcDbEntity
  8
0
100
AcDbLine
 62
7
  6
CONTINUOUS
 10
-0.692524
 20
-28.877801
 11
0.002337
 21
-27.057269
  0
LINE
  5
287
100
AcDbEntity
  8
RACCORDO
100
AcDbLine
 62
253
  6
CONTINUOUS
 10
21.9426456448
 20
23.1675430277
 11
21.9426456448
 21
22.6415492726
  0
LINE
  5
288
100
AcDbEntity
  8
RACCORDO
100
AcDbLine
 62
253
  6
CONTINUOUS
 10
21.9426456448
 20
-23.1675430277
 11
21.9426456448
 21
-22.6415492726
  0
LINE
  5
289
100
AcDbEntity
  8
0
100
AcDbLine
 62
7
  6
CONTINUOUS
 10
22.6
 20
21.7010963722
 11
22.6
 21
-21.7010963722
  0
LINE
  5
28A
100
AcDbEntity
  8
0
100
AcDbLine
 62
7
  6
CONTINUOUS
 10
-21.8010963722
 20
22.5
 11
21.8010963722
 21
22.5
  0
LINE
  5
28B
100
AcDbEntity
  8
RACCORDO
100
AcDbLine
 62
253
  6
CONTINUOUS
 10
-21.9426840308
 20
22.6415492726
 11
21.9426540141
 21
22.6415492726
  0
LINE
  5
28C
100
AcDbEntity
  8
RACCORDO
100
AcDbLine
 62
253
  6
CONTINUOUS
 10
-44.4427701042
 20
22.6676474049
 11
-22.9679615936
 21
22.6677048937
  0
LINE
  5
28D
100
AcDbEntity
  8
RACCORDO
100
AcDbLine
 62
253
  6
CONTINUOUS
 10
22.9679615936
 20
22.6677048937
 11
44.4427701039
 21
22.667647257
  0
LINE
  5
28E
100
AcDbEntity
  8
RACCORDO
100
AcDbLine
 62
253
  6
CONTINUOUS
 10
-21.9426456448
 20
23.1675430277
 11
21.9426456448
 21
23.1675430277
  0
LINE
  5
28F
100
AcDbEntity
  8
RACCORDO
100
AcDbLine
 62
253
  6
CONTINUOUS
 10
43.8781758769
 20
-44.6316825048
 11
43.8781758772
 21
-44.8768054117
  0
LINE
  5
290
100
AcDbEntity
  8
RACCORDO
100
AcDbLine
 62
253
  6
CONTINUOUS
 10
43.8781758769
 20
44.6316825048
 11
43.8781758769
 21
44.8768054117
  0
LINE
  5
291
100
AcDbEntity
  8
RACCORDO
100
AcDbLine
 62
253
  6
CONTINUOUS
 10
43.8781758769
 20
44.6316825048
 11
-43.8781758769
 21
44.6316825048
  0
LWPOLYLINE
  5
292
100
AcDbEntity
  8
0
100
AcDbPolyline
 62
7
  6
CONTINUOUS
 90
10
 70
0
 43
0.3500000006
 10
59.7557646332
 20
-1.9285708809
 10
58.8986221619
 20
-1.0714295425
 10
58.0414796906
 20
-0.8571427917
 10
57.1843372192
 20
-0.8571427917
 10
56.7557637177
 20
-1.2857140274
 10
56.7557637177
 20
-1.9285708809
 10
57.1843372192
 20
-2.3571432495
 10
58.0414796906
 20
-2.3571432495
 10
58.4700486603
 20
-1.9285708809
 10
58.4700486603
 20
-1.0000006256
  0
LINE
  5
293
100
AcDbEntity
  8
RACCORDO
100
AcDbLine
 62
7
  6
CONTINUOUS
 10
45.0
 20
-44.0013704652
 11
45.0
 21
44.0013704652
  0
LINE
  5
294
100
AcDbEntity
  8
RACCORDO
100
AcDbLine
 62
253
  6
CONTINUOUS
 10
43.8781758769
 20
44.8768054117
 11
-43.8781758769
 21
44.8768054117
  0
LINE
  5
295
100
AcDbEntity
  8
RACCORDO
100
AcDbLine
 62
7
  6
CONTINUOUS
 10
-44.0013704652
 20
45.0
 11
44.0013704652
 21
45.0
  0
LWPOLYLINE
  5
296
100
AcDbEntity
  8
0
100
AcDbPolyline
 62
7
  6
CONTINUOUS
 90
10
 70
0
 43
0.3500000006
 10
-65.3594507446
 20
61.7500003967
 10
-66.0023087311
 20
61.1071469421
 10
-66.4308822327
 20
60.249999939
 10
-66.4308822327
 20
59.1785684509
 10
-66.0023087311
 20
58.7499994812
 10
-65.3594507446
 20
58.7499994812
 10
-64.9308817749
 20
59.1785684509
 10
-64.9308817749
 20
60.0357154541
 10
-65.3594507446
 20
60.4642844238
 10
-66.2880243988
 20
60.4642844238
  0
LINE
  5
297
100
AcDbEntity
  8
RACCORDO
100
AcDbLine
 62
7
  6
CONTINUOUS
 10
-68.1530768988
 20
-44.8768054117
 11
-65.8023841196
 21
-45.0
  0
LINE
  5
298
100
AcDbEntity
  8
RACCORDO
100
AcDbLine
 62
253
  6
CONTINUOUS
 10
-68.2818145245
 20
-43.8714290238
 11
-65.8023841196
 21
-44.0013704652
  0
LWPOLYLINE
  5
299
100
AcDbEntity
  8
0
100
AcDbPolyline
 62
7
  6
CONTINUOUS
 90
3
 70
0
 43
0.3500000006
 10
-67.4308825378
 20
59.0357151489
 10
-67.5023091888
 20
58.8214306641
 10
-67.6451670227
 20
58.5357149963
  0
LWPOLYLINE
  5
29A
100
AcDbEntity
  8
0
100
AcDbPolyline
 62
7
  6
CONTINUOUS
 90
4
 70
0
 43
0.3500000006
 10
-70.5023101044
 20
59.1785684509
 10
-70.5023101044
 20
60.0357154541
 10
-70.0737366028
 20
60.4642844238
 10
-69.4308786163
 20
60.4642844238
  0
LINE
  5
29B
100
AcDbEntity
  8
DRAFT
100
AcDbLine
 62
7
  6
CONTINUOUS
 10
-63.0023841196
 20
-3.8526539614
 11
-65.0023841196
 21
-3.5
  0
LINE
  5
29C
100
AcDbEntity
  8
RACCORDO
100
AcDbLine
 62
7
  6
CONTINUOUS
 10
-65.8023841196
 20
-45.0
 11
-65.8023841196
 21
45.0
  0
LINE
  5
29D
100
AcDbEntity
  8
DRAFT
100
AcDbLine
 62
7
  6
CONTINUOUS
 10
-65.0023841196
 20
3.5
 11
-65.0023841196
 21
-3.5
  0
LINE
  5
29E
100
AcDbEntity
  8
RACCORDO
100
AcDbLine
 62
7
  6
CONTINUOUS
 10
-63.0023841196
 20
43.5000000005
 11
-63.0023841196
 21
43.0970752324
  0
LINE
  5
29F
100
AcDbEntity
  8
DRAFT
100
AcDbLine
 62
7
  6
CONTINUOUS
 10
-63.0023841196
 20
43.0970752324
 11
-63.0023841196
 21
3.8526539614
  0
LINE
  5
2A0
100
AcDbEntity
  8
DRAFT
100
AcDbLine
 62
7
  6
CONTINUOUS
 10
-63.0023841196
 20
-3.8526539614
 11
-63.0023841196
 21
-43.0970750476
  0
LINE
  5
2A1
100
AcDbEntity
  8
RACCORDO
100
AcDbLine
 62
7
  6
CONTINUOUS
 10
-63.0023841196
 20
-43.0970750476
 11
-63.0023841196
 21
-43.5000000137
  0
LINE
  5
2A2
100
AcDbEntity
  8
DRAFT
100
AcDbLine
 62
7
  6
CONTINUOUS
 10
-63.0023841196
 20
3.8526539614
 11
-65.0023841196
 21
3.5
  0
LWPOLYLINE
  5
2A3
100
AcDbEntity
  8
0
100
AcDbPolyline
 62
7
  6
CONTINUOUS
 90
10
 70
0
 43
0.3500000006
 10
-67.5023091888
 20
59.2499996338
 10
-67.4308825378
 20
59.1071463318
 10
-67.4308825378
 20
59.0357151489
 10
-67.5737358398
 20
58.8928527832
 10
-67.6451670227
 20
58.8928527832
 10
-67.7165936737
 20
58.9642839661
 10
-67.7165936737
 20
59.0357151489
 10
-67.6451670227
 20
59.1785684509
 10
-67.5737358398
 20
59.2499996338
 10
-67.5023091888
 20
59.2499996338
  0
LINE
  5
2A4
100
AcDbEntity
  8
RACCORDO
100
AcDbLine
 62
253
  6
CONTINUOUS
 10
-68.2818145245
 20
43.8714290238
 11
-65.8023841196
 21
44.0013704652
  0
LINE
  5
2A5
100
AcDbEntity
  8
RACCORDO
100
AcDbLine
 62
7
  6
CONTINUOUS
 10
-68.1530768988
 20
44.8768054117
 11
-65.8023841196
 21
45.0
  0
LWPOLYLINE
  5
2A6
100
AcDbEntity
  8
0
100
AcDbPolyline
 62
7
  6
CONTINUOUS
 90
13
 70
0
 43
0.3500000006
 10
-70.0737366028
 20
60.4642844238
 10
-70.3594522705
 20
60.6785689087
 10
-70.3594522705
 20
61.321431427
 10
-70.0737366028
 20
61.7500003967
 10
-69.4308786163
 20
61.7500003967
 10
-69.1451674805
 20
61.321431427
 10
-69.1451674805
 20
60.6785689087
 10
-69.4308786163
 20
60.4642844238
 10
-69.0023096466
 20
60.0357154541
 10
-69.0023096466
 20
59.1785684509
 10
-69.4308786163
 20
58.7499994812
 10
-70.0737366028
 20
58.7499994812
 10
-70.5023101044
 20
59.1785684509
  0
ARC
  5
2A7
100
AcDbEntity
  8
RACCORDO
100
AcDbCircle
 62
253
  6
CONTINUOUS
 10
8566.4588322909
 20
0.0
 40
8589.7309630426
100
AcDbArc
 50
179.8541186808
 51
180.1458813192
  0
ARC
  5
2A8
100
AcDbEntity
  8
RACCORDO
100
AcDbCircle
 62
253
  6
CONTINUOUS
 10
-8566.4588322907
 20
0.0
 40
8589.7309630425
100
AcDbArc
 50
359.8541186808
 51
0.1458813192
  0
ARC
  5
2A9
100
AcDbEntity
  8
RACCORDO
100
AcDbCircle
 62
253
  6
CONTINUOUS
 10
8629.8389799945
 20
-0.0000000349
 40
8585.4261340389
100
AcDbArc
 50
179.8487248029
 51
180.1512751985
  0
ARC
  5
2AA
100
AcDbEntity
  8
RACCORDO
100
AcDbCircle
 62
253
  6
CONTINUOUS
 10
-8629.8389455986
 20
0.000000002
 40
8585.4260996431
100
AcDbArc
 50
359.8487248017
 51
0.1512751984
  0
ARC
  5
2AB
100
AcDbEntity
  8
RACCORDO
100
AcDbCircle
 62
253
  6
CONTINUOUS
 10
8618.70962388
 20
-0.0
 40
8573.9971890514
100
AcDbArc
 50
179.8486237562
 51
180.1513762438
  0
ARC
  5
2AC
100
AcDbEntity
  8
RACCORDO
100
AcDbCircle
 62
253
  6
CONTINUOUS
 10
-8618.7096061077
 20
-0.0
 40
8573.9971712791
100
AcDbArc
 50
359.8486237559
 51
0.1513762441
  0
ARC
  5
2AD
100
AcDbEntity
  8
RACCORDO
100
AcDbCircle
 62
253
  6
CONTINUOUS
 10
-8547.8876187459
 20
0.0000027015
 40
8570.6604347211
100
AcDbArc
 50
359.85395644
 51
0.1460436684
  0
ARC
  5
2AE
100
AcDbEntity
  8
RACCORDO
100
AcDbCircle
 62
253
  6
CONTINUOUS
 10
8547.8874669292
 20
-0.0000026638
 40
8570.6602829045
100
AcDbArc
 50
179.8539564401
 51
180.1460436668
  0
ARC
  5
2AF
100
AcDbEntity
  8
RACCORDO
100
AcDbCircle
 62
253
  6
CONTINUOUS
 10
3190.3786072373
 20
14.397550883
 40
3145.9467075106
100
AcDbArc
 50
179.4622280975
 51
179.8493801046
  0
ARC
  5
2B0
100
AcDbEntity
  8
RACCORDO
100
AcDbCircle
 62
253
  6
CONTINUOUS
 10
-3190.3785846157
 20
-14.3975510408
 40
3145.9466848885
100
AcDbArc
 50
359.4622280965
 51
359.8493801039
  0
ARC
  5
2B1
100
AcDbEntity
  8
RACCORDO
100
AcDbCircle
 62
253
  6
CONTINUOUS
 10
-3179.4054391677
 20
-14.397324356
 40
3134.6739503713
100
AcDbArc
 50
359.4612624109
 51
359.8491094731
  0
ARC
  5
2B2
100
AcDbEntity
  8
RACCORDO
100
AcDbCircle
 62
253
  6
CONTINUOUS
 10
3179.4054391677
 20
14.397324356
 40
3134.6739503712
100
AcDbArc
 50
179.4612624109
 51
179.8491094731
  0
ARC
  5
2B3
100
AcDbEntity
  8
RACCORDO
100
AcDbCircle
 62
253
  6
CONTINUOUS
 10
-3167.3960595087
 20
14.5356168162
 40
3122.9638772103
100
AcDbArc
 50
0.1491953082
 51
0.5391964915
  0
ARC
  5
2B4
100
AcDbEntity
  8
RACCORDO
100
AcDbCircle
 62
253
  6
CONTINUOUS
 10
3167.3960510439
 20
-14.5356168893
 40
3122.9638687451
100
AcDbArc
 50
180.1491953097
 51
180.5391964916
  0
ARC
  5
2B5
100
AcDbEntity
  8
RACCORDO
100
AcDbCircle
 62
253
  6
CONTINUOUS
 10
-3156.511587073
 20
14.5351044406
 40
3111.7798157832
100
AcDbArc
 50
0.1494637779
 51
0.5401643381
  0
ARC
  5
2B6
100
AcDbEntity
  8
RACCORDO
100
AcDbCircle
 62
253
  6
CONTINUOUS
 10
3156.511587073
 20
-14.5351044406
 40
3111.7798157831
100
AcDbArc
 50
180.1494637779
 51
180.5401643381
  0
ARC
  5
2B7
100
AcDbEntity
  8
RACCORDO
100
AcDbCircle
 62
253
  6
CONTINUOUS
 10
-21.9426023043
 20
21.8659189292
 40
1.3016268661
100
AcDbArc
 50
90.0019077883
 51
141.9761528865
  0
ARC
  5
2B8
100
AcDbEntity
  8
RACCORDO
100
AcDbCircle
 62
253
  6
CONTINUOUS
 10
21.9426023158
 20
-21.8659189527
 40
1.301626866
100
AcDbArc
 50
270.0019072831
 51
321.9761533916
  0
ARC
  5
2B9
100
AcDbEntity
  8
RACCORDO
100
AcDbCircle
 62
253
  6
CONTINUOUS
 10
-21.9426490403
 20
-21.8660176901
 40
1.3015253376
100
AcDbArc
 50
218.021689574
 51
270.0001494779
  0
ARC
  5
2BA
100
AcDbEntity
  8
RACCORDO
100
AcDbCircle
 62
253
  6
CONTINUOUS
 10
21.9426490403
 20
21.8660176901
 40
1.3015253376
100
AcDbArc
 50
38.0216895741
 51
90.0001494778
  0
ARC
  5
2BB
100
AcDbEntity
  8
RACCORDO
100
AcDbCircle
 62
253
  6
CONTINUOUS
 10
-21.9459484839
 20
21.8669628832
 40
1.2983445474
100
AcDbArc
 50
141.9214833894
 51
179.84961878
  0
ARC
  5
2BC
100
AcDbEntity
  8
RACCORDO
100
AcDbCircle
 62
253
  6
CONTINUOUS
 10
21.9459489265
 20
21.8669630366
 40
1.2983441044
100
AcDbArc
 50
0.1503745021
 51
38.078523329
  0
ARC
  5
2BD
100
AcDbEntity
  8
RACCORDO
100
AcDbCircle
 62
253
  6
CONTINUOUS
 10
21.9459529992
 20
-21.866964448
 40
1.2983400281
100
AcDbArc
 50
321.921414857
 51
359.8496873123
  0
ARC
  5
2BE
100
AcDbEntity
  8
RACCORDO
100
AcDbCircle
 62
253
  6
CONTINUOUS
 10
-21.9459564841
 20
-21.8669656557
 40
1.29833654
100
AcDbArc
 50
180.1502597935
 51
218.0786380376
  0
ARC
  5
2BF
100
AcDbEntity
  8
RACCORDO
100
AcDbCircle
 62
253
  6
CONTINUOUS
 10
21.9447451938
 20
-21.8393682418
 40
0.8021589513
100
AcDbArc
 50
269.8527864041
 51
321.751267772
  0
ARC
  5
2C0
100
AcDbEntity
  8
RACCORDO
100
AcDbCircle
 62
253
  6
CONTINUOUS
 10
-21.9447451763
 20
21.8393682172
 40
0.8021589513
100
AcDbArc
 50
89.8527876617
 51
141.7512671671
  0
ARC
  5
2C1
100
AcDbEntity
  8
RACCORDO
100
AcDbCircle
 62
253
  6
CONTINUOUS
 10
21.944705623
 20
21.8394297665
 40
0.802122144
100
AcDbArc
 50
38.2435310688
 51
90.1465460626
  0
ARC
  5
2C2
100
AcDbEntity
  8
RACCORDO
100
AcDbCircle
 62
253
  6
CONTINUOUS
 10
-21.944705623
 20
-21.8394297665
 40
0.802122144
100
AcDbArc
 50
218.2435310688
 51
270.1465460629
  0
ARC
  5
2C3
100
AcDbEntity
  8
RACCORDO
100
AcDbCircle
 62
253
  6
CONTINUOUS
 10
21.9496011379
 20
21.844118745
 40
0.7953750362
100
AcDbArc
 50
0.1429224114
 51
38.1965409658
  0
ARC
  5
2C4
100
AcDbEntity
  8
RACCORDO
100
AcDbCircle
 62
253
  6
CONTINUOUS
 10
-21.9496011548
 20
21.844118738
 40
0.7953750273
100
AcDbArc
 50
141.803457883
 51
179.8586584952
  0
ARC
  5
2C5
100
AcDbEntity
  8
RACCORDO
100
AcDbCircle
 62
253
  6
CONTINUOUS
 10
-21.9496011511
 20
-21.8441187492
 40
0.7953750232
100
AcDbArc
 50
180.142874868
 51
218.196541315
  0
ARC
  5
2C6
100
AcDbEntity
  8
RACCORDO
100
AcDbCircle
 62
253
  6
CONTINUOUS
 10
21.9496011707
 20
-21.8441187437
 40
0.7953750112
100
AcDbArc
 50
321.8034574988
 51
359.8586334172
  0
ARC
  5
2C7
100
AcDbEntity
  8
RACCORDO
100
AcDbCircle
 62
7
  6
CONTINUOUS
 10
96.2183076479
 20
-14.2336437913
 40
167.4332498099
100
AcDbArc
 50
182.8873441217
 51
190.4602411505
  0
ARC
  5
2C8
100
AcDbEntity
  8
0
100
AcDbCircle
 62
7
  6
CONTINUOUS
 10
96.2183076479
 20
-14.2336437913
 40
167.4332498099
100
AcDbArc
 50
184.0677903884
 51
185.0176525292
  0
ARC
  5
2C9
100
AcDbEntity
  8
RACCORDO
100
AcDbCircle
 62
253
  6
CONTINUOUS
 10
96.201773647
 20
-14.2337394729
 40
167.1324128339
100
AcDbArc
 50
182.8873454031
 51
190.2143127298
  0
ARC
  5
2CA
100
AcDbEntity
  8
RACCORDO
100
AcDbCircle
 62
253
  6
CONTINUOUS
 10
-66.0656327382
 20
-38.3428072504
 40
5.6639988607
100
AcDbArc
 50
272.6639254538
 51
287.2566577254
  0
ARC
  5
2CB
100
AcDbEntity
  8
RACCORDO
100
AcDbCircle
 62
7
  6
CONTINUOUS
 10
-66.0738639361
 20
-39.3198565139
 40
5.1872524353
100
AcDbArc
 50
273.0000000399
 51
306.3076478614
  0
ARC
  5
2CC
100
AcDbEntity
  8
RACCORDO
100
AcDbCircle
 62
7
  6
CONTINUOUS
 10
-68.137377362
 20
-44.577209968
 40
0.3000000001
100
AcDbArc
 50
190.4615209043
 51
267.0003041861
  0
ARC
  5
2CD
100
AcDbEntity
  8
RACCORDO
100
AcDbCircle
 62
7
  6
CONTINUOUS
 10
96.2183076479
 20
14.2336437913
 40
167.4332498099
100
AcDbArc
 50
169.5397588495
 51
177.1126559741
  0
ARC
  5
2CE
100
AcDbEntity
  8
RACCORDO
100
AcDbCircle
 62
253
  6
CONTINUOUS
 10
96.2017635626
 20
14.2337406309
 40
167.1324027039
100
AcDbArc
 50
169.7856870479
 51
177.1126548193
  0
ARC
  5
2CF
100
AcDbEntity
  8
RACCORDO
100
AcDbCircle
 62
253
  6
CONTINUOUS
 10
-66.0703132755
 20
38.3161481844
 40
5.6908476941
100
AcDbArc
 50
72.7777457145
 51
87.3014761726
  0
ARC
  5
2D0
100
AcDbEntity
  8
RACCORDO
100
AcDbCircle
 62
7
  6
CONTINUOUS
 10
-66.0738639361
 20
39.3198565139
 40
5.1872524353
100
AcDbArc
 50
53.692351894
 51
86.9999997364
  0
ARC
  5
2D1
100
AcDbEntity
  8
RACCORDO
100
AcDbCircle
 62
7
  6
CONTINUOUS
 10
-68.137376112
 20
44.5772165512
 40
0.3
100
AcDbArc
 50
93.0
 51
169.5397588495
  0
ARC
  5
2D2
100
AcDbEntity
  8
RACCORDO
100
AcDbCircle
 62
7
  6
CONTINUOUS
 10
378.4263367637
 20
-0.0
 40
450.0
100
AcDbArc
 50
177.1126435736
 51
182.8873564621
  0
ARC
  5
2D3
100
AcDbEntity
  8
RACCORDO
100
AcDbCircle
 62
253
  6
CONTINUOUS
 10
378.4106359771
 20
-0.0
 40
449.7000000003
100
AcDbArc
 50
177.1126362257
 51
182.8873637743
  0
SPLINE
  5
2D4
100
AcDbEntity
  8
0
100
AcDbSpline
 62
7
  6
CONTINUOUS
 70
0
 71
3
 72
9
 73
5
 74
3
 42
0.0000001
 43
0.0000001
 44
0.0000000001
 12
-0.150947431
 22
0.4016990041
 32
0.0
 13
-0.4290746418
 23
0.0000000102
 33
0.0
 40
0.0
 40
0.0
 40
0.0
 40
0.0
 40
0.6439295069
 40
1.0
 40
1.0
 40
1.0
 40
1.0
 10
4.8214020964
 20
-28.0286629707
 30
0.0
 10
4.7890022614
 20
-27.9424410235
 30
0.0
 10
4.6927867367
 20
-27.8129762663
 30
0.0
 10
4.5463479105
 20
-27.782151926
 30
0.0
 10
4.4954209707
 20
-27.7821519248
 30
0.0
 11
4.8214020964
 21
-28.0286629707
 31
0.0
 11
4.6442653792
 21
-27.8166094453
 31
0.0
 11
4.4954209707
 21
-27.7821519248
 31
0.0
  0
SPLINE
  5
2D5
100
AcDbEntity
  8
0
100
AcDbSpline
 62
7
  6
CONTINUOUS
 70
0
 71
3
 72
9
 73
5
 74
3
 42
0.0000001
 43
0.0000001
 44
0.0000000001
 12
-0.2450341588
 22
0.8522808229
 32
0.0
 13
-0.3119406011
 23
0.830132881
 33
0.0
 40
0.0
 40
0.0
 40
0.0
 40
0.0
 40
0.4412847678
 40
1.0
 40
1.0
 40
1.0
 40
1.0
 10
5.0770156219
 20
-28.8778013544
 30
0.0
 10
5.0409723412
 20
-28.7524351727
 30
0.0
 10
4.9558677864
 20
-28.4695061707
 30
0.0
 10
4.8794973874
 20
-28.1832656107
 30
0.0
 10
4.8214020656
 20
-28.0286629823
 30
0.0
 11
5.0770156219
 21
-28.8778013544
 31
0.0
 11
4.9675624756
 21
-28.5020857877
 31
0.0
 11
4.8214020656
 21
-28.0286629823
 31
0.0
  0
SPLINE
  5
2D6
100
AcDbEntity
  8
0
100
AcDbSpline
 62
7
  6
CONTINUOUS
 70
0
 71
3
 72
9
 73
5
 74
3
 42
0.0000001
 43
0.0000001
 44
0.0000000001
 12
0.2059760197
 22
-0.7560376969
 32
0.0
 13
0.2053816146
 23
-0.756199398
 33
0.0
 40
0.0
 40
0.0
 40
0.0
 40
0.0
 40
0.8019701629
 40
1.0
 40
1.0
 40
1.0
 40
1.0
 10
5.4393791201
 20
-28.1201001343
 30
0.0
 10
5.4944413274
 20
-28.3222066926
 30
0.0
 10
5.5592396694
 20
-28.5752516282
 30
0.0
 10
5.6255909827
 20
-28.8278846732
 30
0.0
 10
5.6391482119
 20
-28.8778013544
 30
0.0
 11
5.4393791201
 21
-28.1201001343
 31
0.0
 11
5.5993728042
 21
-28.727810759
 31
0.0
 11
5.6391482119
 21
-28.8778013544
 31
0.0
  0
SPLINE
  5
2D7
100
AcDbEntity
  8
0
100
AcDbSpline
 62
7
  6
CONTINUOUS
 70
0
 71
3
 72
8
 73
4
 74
2
 42
0.0000001
 43
0.0000001
 44
0.0000000001
 12
0.0564626721
 22
-0.0225144905
 32
0.0
 13
0.0507842667
 23
-0.0322135246
 33
0.0
 40
0.0
 40
0.0
 40
0.0
 40
0.0
 40
1.0
 40
1.0
 40
1.0
 40
1.0
 10
5.1025031649
 20
-27.5709244369
 30
0.0
 10
5.1213240556
 20
-27.578429267
 30
0.0
 10
5.1391731073
 20
-27.5876716966
 30
0.0
 10
5.1561011962
 20
-27.5984095381
 30
0.0
 11
5.1025031649
 21
-27.5709244369
 31
0.0
 11
5.1561011962
 21
-27.5984095381
 31
0.0
  0
SPLINE
  5
2D8
100
AcDbEntity
  8
0
100
AcDbSpline
 62
7
  6
CONTINUOUS
 70
0
 71
3
 72
9
 73
5
 74
3
 42
0.0000001
 43
0.0000001
 44
0.0000000001
 12
0.493901508
 22
-0.3132920773
 32
0.0
 13
0.1553990546
 23
-0.570394327
 33
0.0
 40
0.0
 40
0.0
 40
0.0
 40
0.0
 40
0.7323111603
 40
1.0
 40
1.0
 40
1.0
 40
1.0
 10
5.1561011962
 20
-27.5984095381
 30
0.0
 10
5.2766643916
 20
-27.6748852996
 30
0.0
 10
5.3775071296
 20
-27.8828966938
 30
0.0
 10
5.4255129221
 20
-28.0692040692
 30
0.0
 10
5.4393791196
 20
-28.1201001344
 30
0.0
 11
5.1561011962
 21
-27.5984095381
 31
0.0
 11
5.3960255387
 21
-27.9679040072
 31
0.0
 11
5.4393791196
 21
-28.1201001344
 31
0.0
  0
SPLINE
  5
2D9
100
AcDbEntity
  8
0
100
AcDbSpline
 62
7
  6
CONTINUOUS
 70
0
 71
3
 72
17
 73
13
 74
11
 42
0.0000001
 43
0.0000001
 44
0.0000000001
 12
1.6407456971
 22
-0.5919068171
 32
0.0
 13
-1.7299063008
 23
-0.2232137162
 33
0.0
 40
0.0
 40
0.0
 40
0.0
 40
0.0
 40
0.0799592658
 40
0.1896575095
 40
0.3223975712
 40
0.39860673
 40
0.4833866361
 40
0.5877248038
 40
0.6789936784
 40
0.8312459153
 40
0.9440218895
 40
1.0
 40
1.0
 40
1.0
 40
1.0
 10
5.0422488775
 20
-26.140284035
 30
0.0
 10
5.0859798179
 20
-26.1560601798
 30
0.0
 10
5.1836344263
 20
-26.2099202383
 30
0.0
 10
5.325664752
 20
-26.3348013094
 30
0.0
 10
5.4262584299
 20
-26.4944905445
 30
0.0
 10
5.4798168525
 20
-26.6574351189
 30
0.0
 10
5.5019150414
 20
-26.8107834593
 30
0.0
 10
5.4977219253
 20
-26.9749694039
 30
0.0
 10
5.4530896147
 20
-27.1727887701
 30
0.0
 10
5.352899701
 20
-27.3624114407
 30
0.0
 10
5.2168310745
 20
-27.4855954586
 30
0.0
 10
5.1347821269
 20
-27.5502156007
 30
0.0
 10
5.1025031649
 20
-27.554380628
 30
0.0
 11
5.0422488775
 21
-26.140284035
 31
0.0
 11
5.1658152505
 21
-26.2049593012
 31
0.0
 11
5.3093165211
 21
-26.3315244248
 31
0.0
 11
5.4328597228
 21
-26.5273405045
 31
0.0
 11
5.4746806357
 21
-26.6535180467
 31
0.0
 11
5.496552337
 21
-26.7997688004
 31
0.0
 11
5.4912179657
 21
-26.9816822186
 31
0.0
 11
5.4556842217
 21
-27.1368613706
 31
0.0
 11
5.3293192036
 21
-27.3704357284
 31
0.0
 11
5.1880584592
 21
-27.5073295791
 31
0.0
 11
5.1025031649
 21
-27.554380628
 31
0.0
  0
SPLINE
  5
2DA
100
AcDbEntity
  8
0
100
AcDbSpline
 62
7
  6
CONTINUOUS
 70
0
 71
3
 72
9
 73
5
 74
3
 42
0.0000001
 43
0.0000001
 44
0.0000000001
 12
1.436600024
 22
0.2113483259
 32
0.0
 13
1.3656711375
 23
-0.4933863861
 33
0.0
 40
0.0
 40
0.0
 40
0.0
 40
0.0
 40
0.7042579857
 40
1.0
 40
1.0
 40
1.0
 40
1.0
 10
3.6000188023
 20
-26.110807341
 30
0.0
 10
3.9372644821
 20
-26.0611927589
 30
0.0
 10
4.4237114545
 20
-26.0123623572
 30
0.0
 10
4.9076200997
 20
-26.091645674
 30
0.0
 10
5.0422488774
 20
-26.1402840352
 30
0.0
 11
3.6000188023
 21
-26.110807341
 31
0.0
 11
4.6211738542
 21
-26.055956112
 31
0.0
 11
5.0422488774
 21
-26.1402840352
 31
0.0
  0
SPLINE
  5
2DB
100
AcDbEntity
  8
0
100
AcDbSpline
 62
7
  6
CONTINUOUS
 70
0
 71
3
 72
9
 73
5
 74
3
 42
0.0000001
 43
0.0000001
 44
0.0000000001
 12
-0.4560153753
 22
0.0529262338
 32
0.0
 13
-0.4525354897
 23
-0.0772181404
 33
0.0
 40
0.0
 40
0.0
 40
0.0
 40
0.0
 40
0.7295958417
 40
1.0
 40
1.0
 40
1.0
 40
1.0
 10
4.6205134463
 20
-26.5385722509
 30
0.0
 10
4.5096111391
 20
-26.5257006642
 30
0.0
 10
4.3548035276
 20
-26.5252045027
 30
0.0
 10
4.2034864135
 20
-26.5480947605
 30
0.0
 10
4.1626972541
 20
-26.5550547959
 30
0.0
 11
4.6205134463
 21
-26.5385722509
 31
0.0
 11
4.2855751868
 21
-26.5374254965
 31
0.0
 11
4.1626972541
 21
-26.5550547959
 31
0.0
  0
SPLINE
  5
2DC
100
AcDbEntity
  8
0
100
AcDbSpline
 62
7
  6
CONTINUOUS
 70
0
 71
3
 72
9
 73
5
 74
3
 42
0.0000001
 43
0.0000001
 44
0.0000000001
 12
-0.0077114955
 22
0.5161129887
 32
0.0
 13
-0.5127681841
 23
0.0595131168
 33
0.0
 40
0.0
 40
0.0
 40
0.0
 40
0.0
 40
0.498858368
 40
1.0
 40
1.0
 40
1.0
 40
1.0
 10
4.9506521588
 20
-26.8887857257
 30
0.0
 10
4.9493698442
 20
-26.802963298
 30
0.0
 10
4.8794958735
 20
-26.6239753908
 30
0.0
 10
4.7061699412
 20
-26.5485137509
 30
0.0
 10
4.6205134463
 20
-26.5385722507
 30
0.0
 11
4.9506521588
 21
-26.8887857257
 31
0.0
 11
4.8539103931
 21
-26.6501475803
 31
0.0
 11
4.6205134463
 21
-26.5385722507
 31
0.0
  0
SPLINE
  5
2DD
100
AcDbEntity
  8
0
100
AcDbSpline
 62
7
  6
CONTINUOUS
 70
0
 71
3
 72
9
 73
5
 74
3
 42
0.0000001
 43
0.0000001
 44
0.0000000001
 12
0.6971121553
 22
0.0155705102
 32
0.0
 13
-0.0104189781
 23
0.6973243265
 33
0.0
 40
0.0
 40
0.0
 40
0.0
 40
0.0
 40
0.4795375417
 40
1.0
 40
1.0
 40
1.0
 40
1.0
 10
4.4966806463
 20
-27.3236280865
 30
0.0
 10
4.6081111294
 20
-27.3211392051
 30
0.0
 10
4.8669268821
 20
-27.2739986449
 30
0.0
 10
4.9524596969
 20
-27.0097627705
 30
0.0
 10
4.9506521346
 20
-26.8887857261
 30
0.0
 11
4.4966806463
 21
-27.3236280865
 31
0.0
 11
4.8164873738
 21
-27.2260054432
 31
0.0
 11
4.9506521346
 21
-26.8887857261
 31
0.0
  0
SPLINE
  5
2DE
100
AcDbEntity
  8
RACCORDO
100
AcDbSpline
 62
253
  6
CONTINUOUS
 70
0
 71
3
 72
11
 73
7
 74
5
 42
0.0000001
 43
0.0000001
 44
0.0000000001
 12
1.0939762035
 22
-0.0000377934
 32
0.0
 13
-0.010244236
 23
1.0939282385
 33
0.0
 40
0.0
 40
0.0
 40
0.0
 40
0.0
 40
0.2518132804
 40
0.5024878192
 40
0.7516926537
 40
1.0
 40
1.0
 40
1.0
 40
1.0
 10
43.8781758769
 20
-44.6316825048
 30
0.0
 10
43.9700017891
 20
-44.6316856771
 30
0.0
 10
44.1553859713
 20
-44.5942209145
 30
0.0
 10
44.3868757931
 20
-44.4343345128
 30
0.0
 10
44.537895756
 20
-44.1988617765
 30
0.0
 10
44.5713176045
 20
-44.0151715791
 30
0.0
 10
44.5704696982
 20
-43.9246281065
 30
0.0
 11
43.8781758769
 21
-44.6316825048
 31
0.0
 11
44.1481115835
 21
-44.5767034389
 31
0.0
 11
44.3739897462
 21
-44.4211970574
 31
0.0
 11
44.5212664327
 21
-44.1917771157
 31
0.0
 11
44.5704696982
 21
-43.9246281065
 31
0.0
  0
SPLINE
  5
2DF
100
AcDbEntity
  8
RACCORDO
100
AcDbSpline
 62
253
  6
CONTINUOUS
 70
0
 71
3
 72
11
 73
7
 74
5
 42
0.0000001
 43
0.0000001
 44
0.0000000001
 12
-0.0103372645
 22
-1.0939274238
 32
0.0
 13
1.093976262
 23
-0.0000764711
 33
0.0
 40
0.0
 40
0.0
 40
0.0
 40
0.0
 40
0.2483065073
 40
0.4975112282
 40
0.7481857848
 40
1.0
 40
1.0
 40
1.0
 40
1.0
 10
-44.5704696982
 20
-43.9246281065
 30
0.0
 10
-44.5713253015
 20
-44.0151712058
 30
0.0
 10
-44.5378900311
 20
-44.1988610759
 30
0.0
 10
-44.3868770857
 20
-44.4343324605
 30
0.0
 10
-44.1553871233
 20
-44.5942280108
 30
0.0
 10
-43.9700021349
 20
-44.631676086
 30
0.0
 10
-43.8781758769
 20
-44.6316825048
 30
0.0
 11
-44.5704696982
 21
-43.9246281065
 31
0.0
 11
-44.5212653522
 21
-44.1917759987
 31
0.0
 11
-44.3739899469
 21
-44.421196633
 31
0.0
 11
-44.1481128983
 21
-44.5767046939
 31
0.0
 11
-43.8781758769
 21
-44.6316825048
 31
0.0
  0
SPLINE
  5
2E0
100
AcDbEntity
  8
RACCORDO
100
AcDbSpline
 62
253
  6
CONTINUOUS
 70
0
 71
3
 72
11
 73
7
 74
5
 42
0.0000001
 43
0.0000001
 44
0.0000000001
 12
-0.0090968725
 22
-1.5601337982
 32
0.0
 13
1.5601597461
 23
-0.0013371162
 33
0.0
 40
0.0
 40
0.0
 40
0.0
 40
0.0
 40
0.2494342068
 40
0.4990858824
 40
0.7492754921
 40
1.0
 40
1.0
 40
1.0
 40
1.0
 10
-44.8700585586
 20
-43.8714290238
 30
0.0
 10
-44.8708149157
 20
-44.001145936
 30
0.0
 10
-44.8213326635
 20
-44.2638091196
 30
0.0
 10
-44.6028484551
 20
-44.5982899551
 30
0.0
 10
-44.2719854842
 20
-44.8238270642
 30
0.0
 10
-44.0085659718
 20
-44.8766936624
 30
0.0
 10
-43.8781758769
 20
-44.8768054117
 30
0.0
 11
-44.8700585586
 21
-43.8714290238
 31
0.0
 11
-44.7973631015
 21
-44.2537362496
 31
0.0
 11
-44.5843983344
 21
-44.579855306
 31
0.0
 11
-44.2615921356
 21
-44.7993052406
 31
0.0
 11
-43.8781758769
 21
-44.8768054117
 31
0.0
  0
SPLINE
  5
2E1
100
AcDbEntity
  8
RACCORDO
100
AcDbSpline
 62
253
  6
CONTINUOUS
 70
0
 71
3
 72
11
 73
7
 74
5
 42
0.0000001
 43
0.0000001
 44
0.0000000001
 12
-1.5601598294
 22
-0.0012521934
 32
0.0
 13
0.00903875
 23
-1.5601341488
 33
0.0
 40
0.0
 40
0.0
 40
0.0
 40
0.0
 40
0.2507235208
 40
0.5009133858
 40
0.7505648805
 40
1.0
 40
1.0
 40
1.0
 40
1.0
 10
-43.8781758769
 20
44.8768054117
 30
0.0
 10
-44.0085654654
 20
44.8767007602
 30
0.0
 10
-44.2719846872
 20
44.8238239883
 30
0.0
 10
-44.602846979
 20
44.5982919702
 30
0.0
 10
-44.8213345733
 20
44.2638097105
 30
0.0
 10
-44.8708100858
 20
44.0011464398
 30
0.0
 10
-44.8700585586
 20
43.8714290238
 30
0.0
 11
-43.8781758769
 21
44.8768054117
 31
0.0
 11
-44.2615906839
 21
44.7993058154
 31
0.0
 11
-44.5843975791
 21
44.5798561908
 31
0.0
 11
-44.7973625426
 21
44.253737596
 31
0.0
 11
-44.8700585586
 21
43.8714290238
 31
0.0
  0
SPLINE
  5
2E2
100
AcDbEntity
  8
RACCORDO
100
AcDbSpline
 62
253
  6
CONTINUOUS
 70
0
 71
3
 72
11
 73
7
 74
5
 42
0.0000001
 43
0.0000001
 44
0.0000000001
 12
1.5601598294
 22
0.0012521934
 32
0.0
 13
-0.00903875
 23
1.5601341488
 33
0.0
 40
0.0
 40
0.0
 40
0.0
 40
0.0
 40
0.2507235208
 40
0.5009133858
 40
0.7505648805
 40
1.0
 40
1.0
 40
1.0
 40
1.0
 10
43.8781758769
 20
-44.8768054117
 30
0.0
 10
44.0085654654
 20
-44.8767007602
 30
0.0
 10
44.2719846872
 20
-44.8238239883
 30
0.0
 10
44.602846979
 20
-44.5982919702
 30
0.0
 10
44.8213345733
 20
-44.2638097105
 30
0.0
 10
44.8708100858
 20
-44.0011464398
 30
0.0
 10
44.8700585586
 20
-43.8714290238
 30
0.0
 11
43.8781758769
 21
-44.8768054117
 31
0.0
 11
44.2615906839
 21
-44.7993058154
 31
0.0
 11
44.5843975791
 21
-44.5798561908
 31
0.0
 11
44.7973625426
 21
-44.253737596
 31
0.0
 11
44.8700585586
 21
-43.8714290238
 31
0.0
  0
SPLINE
  5
2E3
100
AcDbEntity
  8
RACCORDO
100
AcDbSpline
 62
253
  6
CONTINUOUS
 70
0
 71
3
 72
11
 73
7
 74
5
 42
0.0000001
 43
0.0000001
 44
0.0000000001
 12
0.0090968725
 22
1.5601337982
 32
0.0
 13
-1.5601597461
 23
0.0013371162
 33
0.0
 40
0.0
 40
0.0
 40
0.0
 40
0.0
 40
0.2494342068
 40
0.4990858824
 40
0.7492754921
 40
1.0
 40
1.0
 40
1.0
 40
1.0
 10
44.8700585586
 20
43.8714290238
 30
0.0
 10
44.8708149157
 20
44.001145936
 30
0.0
 10
44.8213326635
 20
44.2638091196
 30
0.0
 10
44.6028484551
 20
44.5982899551
 30
0.0
 10
44.2719854842
 20
44.8238270642
 30
0.0
 10
44.0085659718
 20
44.8766936624
 30
0.0
 10
43.8781758769
 20
44.8768054117
 30
0.0
 11
44.8700585586
 21
43.8714290238
 31
0.0
 11
44.7973631015
 21
44.2537362496
 31
0.0
 11
44.5843983344
 21
44.579855306
 31
0.0
 11
44.2615921356
 21
44.7993052406
 31
0.0
 11
43.8781758769
 21
44.8768054117
 31
0.0
  0
SPLINE
  5
2E4
100
AcDbEntity
  8
RACCORDO
100
AcDbSpline
 62
253
  6
CONTINUOUS
 70
0
 71
3
 72
13
 73
9
 74
7
 42
0.0000001
 43
0.0000001
 44
0.0000000001
 12
-0.3097026276
 22
-0.0028326007
 32
0.0
 13
-0.0862794014
 23
-0.2974552169
 33
0.0
 40
0.0
 40
0.0
 40
0.0
 40
0.0
 40
0.3594637566
 40
0.6696706049
 40
0.7929532182
 40
0.8896584024
 40
0.9579009014
 40
1.0
 40
1.0
 40
1.0
 40
1.0
 10
-44.5704696982
 20
43.9246280943
 30
0.0
 10
-44.6075786548
 20
43.9242886885
 30
0.0
 10
-44.6766879744
 20
43.921433029
 30
0.0
 10
-44.758216094
 20
43.9122812798
 30
0.0
 10
-44.811827142
 20
43.9013605335
 30
0.0
 10
-44.8405061231
 20
43.8927080344
 30
0.0
 10
-44.8597828577
 20
43.8840331218
 30
0.0
 10
-44.8688477969
 20
43.8756032227
 30
0.0
 10
-44.8700585586
 20
43.8714290238
 30
0.0
 11
-44.5704696982
 21
43.9246280943
 31
0.0
 11
-44.6816973027
 21
43.9198188591
 31
0.0
 11
-44.7770574805
 21
43.9081135635
 31
0.0
 11
-44.8144029235
 21
43.9001621663
 31
0.0
 11
-44.8429754846
 21
43.8911801129
 31
0.0
 11
-44.8617547479
 21
43.8814816676
 31
0.0
 11
-44.8700585586
 21
43.8714290238
 31
0.0
  0
SPLINE
  5
2E5
100
AcDbEntity
  8
RACCORDO
100
AcDbSpline
 62
253
  6
CONTINUOUS
 70
0
 71
3
 72
16
 73
12
 74
10
 42
0.0000001
 43
0.0000001
 44
0.0000000001
 12
-0.3005651665
 22
-0.0007924607
 32
0.0
 13
-0.2162801783
 23
-0.2087173489
 33
0.0
 40
0.0
 40
0.0
 40
0.0
 40
0.0
 40
0.3699259212
 40
0.5382268072
 40
0.6873077625
 40
0.811788968
 40
0.9072712504
 40
0.9430816484
 40
0.9705150828
 40
0.9894318306
 40
1.0
 40
1.0
 40
1.0
 40
1.0
 10
-44.4427702181
 20
22.6677048931
 30
0.0
 10
-44.4798325001
 20
22.6676071759
 30
0.0
 10
-44.5337585933
 20
22.6669863745
 30
0.0
 10
-44.6025921866
 20
22.6650633263
 30
0.0
 10
-44.6468295931
 20
22.6632539588
 30
0.0
 10
-44.683734442
 20
22.6610920538
 30
0.0
 10
-44.7092953101
 20
22.6589748912
 30
0.0
 10
-44.7250577244
 20
22.6570214455
 30
0.0
 10
-44.7332280536
 20
22.6557085357
 30
0.0
 10
-44.738691397
 20
22.6543605061
 30
0.0
 10
-44.7415971833
 20
22.6533283439
 30
0.0
 10
-44.7423590785
 20
22.6525930904
 30
0.0
 11
-44.4427702181
 21
22.6677048931
 31
0.0
 11
-44.5539490199
 21
22.666335693
 31
0.0
 11
-44.6045140256
 21
22.6648938049
 31
0.0
 11
-44.6492831063
 21
22.6630099734
 31
0.0
 11
-44.6866297387
 21
22.6607517402
 31
0.0
 11
-44.7152149205
 21
22.65820115
 31
0.0
 11
-44.7258923967
 21
22.6568438777
 31
0.0
 11
-44.7340188374
 21
22.6554473538
 31
0.0
 11
-44.7395238827
 21
22.654025362
 31
0.0
 11
-44.7423590785
 21
22.6525930904
 31
0.0
  0
SPLINE
  5
2E6
100
AcDbEntity
  8
RACCORDO
100
AcDbSpline
 62
253
  6
CONTINUOUS
 70
0
 71
3
 72
16
 73
12
 74
10
 42
0.0000001
 43
0.0000001
 44
0.0000000001
 12
-0.3005651664
 22
0.0007924607
 32
0.0
 13
-0.2162802078
 23
0.2087173183
 33
0.0
 40
0.0
 40
0.0
 40
0.0
 40
0.0
 40
0.3699259182
 40
0.5382268031
 40
0.6873077578
 40
0.8117889634
 40
0.9072712467
 40
0.9430816454
 40
0.9705150807
 40
0.9894318295
 40
1.0
 40
1.0
 40
1.0
 40
1.0
 10
-44.4427702181
 20
-22.6677048929
 30
0.0
 10
-44.4798324998
 20
-22.6676071756
 30
0.0
 10
-44.5337585925
 20
-22.6669863743
 30
0.0
 10
-44.6025921854
 20
-22.6650633262
 30
0.0
 10
-44.6468295917
 20
-22.6632539587
 30
0.0
 10
-44.6837344406
 20
-22.6610920537
 30
0.0
 10
-44.7092953089
 20
-22.6589748911
 30
0.0
 10
-44.7250577235
 20
-22.6570214455
 30
0.0
 10
-44.7332280529
 20
-22.6557085357
 30
0.0
 10
-44.7386913967
 20
-22.654360506
 30
0.0
 10
-44.7415971831
 20
-22.6533283438
 30
0.0
 10
-44.7423590785
 20
-22.6525930904
 30
0.0
 11
-44.4427702181
 21
-22.6677048929
 31
0.0
 11
-44.5539490189
 21
-22.6663356928
 31
0.0
 11
-44.6045140243
 21
-22.6648938047
 31
0.0
 11
-44.6492831048
 21
-22.6630099732
 31
0.0
 11
-44.6866297373
 21
-22.66075174
 31
0.0
 11
-44.7152149193
 21
-22.6582011499
 31
0.0
 11
-44.7258923957
 21
-22.6568438776
 31
0.0
 11
-44.7340188367
 21
-22.6554473538
 31
0.0
 11
-44.7395238823
 21
-22.6540253619
 31
0.0
 11
-44.7423590785
 21
-22.6525930904
 31
0.0
  0
SPLINE
  5
2E7
100
AcDbEntity
  8
RACCORDO
100
AcDbSpline
 62
253
  6
CONTINUOUS
 70
0
 71
3
 72
13
 73
9
 74
7
 42
0.0000001
 43
0.0000001
 44
0.0000000001
 12
-0.3096956793
 22
0.0028335369
 32
0.0
 13
-0.0862751203
 23
0.2974492332
 33
0.0
 40
0.0
 40
0.0
 40
0.0
 40
0.0
 40
0.3594655749
 40
0.6696721421
 40
0.7929541827
 40
0.8896587751
 40
0.9579008811
 40
1.0
 40
1.0
 40
1.0
 40
1.0
 10
-44.5704696982
 20
-43.9246280955
 30
0.0
 10
-44.60757801
 20
-43.9242885758
 30
0.0
 10
-44.6766859315
 20
-43.9214327677
 30
0.0
 10
-44.7582122928
 20
-43.9122809351
 30
0.0
 10
-44.8118219481
 20
-43.9013602123
 30
0.0
 10
-44.8405000725
 20
-43.8927077809
 30
0.0
 10
-44.8597762364
 20
-43.8840329422
 30
0.0
 10
-44.8688408164
 20
-43.8756031408
 30
0.0
 10
-44.8700515186
 20
-43.871429024
 30
0.0
 11
-44.5704696982
 21
-43.9246280955
 31
0.0
 11
-44.6816953579
 21
-43.9198185908
 31
0.0
 11
-44.7770532694
 21
-43.9081132157
 31
0.0
 11
-44.8143976638
 21
-43.9001618529
 31
0.0
 11
-44.8429693535
 21
-43.8911798767
 31
0.0
 11
-44.8617480035
 21
-43.8814815411
 31
0.0
 11
-44.8700515186
 21
-43.871429024
 31
0.0
  0
SPLINE
  5
2E8
100
AcDbEntity
  8
RACCORDO
100
AcDbSpline
 62
253
  6
CONTINUOUS
 70
0
 71
3
 72
13
 73
9
 74
7
 42
0.0000001
 43
0.0000001
 44
0.0000000001
 12
0.3097026276
 22
0.0028326007
 32
0.0
 13
0.0862794014
 23
0.2974552169
 33
0.0
 40
0.0
 40
0.0
 40
0.0
 40
0.0
 40
0.3594637566
 40
0.6696706049
 40
0.7929532182
 40
0.8896584024
 40
0.9579009014
 40
1.0
 40
1.0
 40
1.0
 40
1.0
 10
44.5704696982
 20
-43.9246280943
 30
0.0
 10
44.6075786548
 20
-43.9242886885
 30
0.0
 10
44.6766879744
 20
-43.921433029
 30
0.0
 10
44.758216094
 20
-43.9122812798
 30
0.0
 10
44.811827142
 20
-43.9013605335
 30
0.0
 10
44.8405061231
 20
-43.8927080344
 30
0.0
 10
44.8597828577
 20
-43.8840331218
 30
0.0
 10
44.8688477969
 20
-43.8756032227
 30
0.0
 10
44.8700585586
 20
-43.8714290238
 30
0.0
 11
44.5704696982
 21
-43.9246280943
 31
0.0
 11
44.6816973027
 21
-43.9198188591
 31
0.0
 11
44.7770574805
 21
-43.9081135635
 31
0.0
 11
44.8144029235
 21
-43.9001621663
 31
0.0
 11
44.8429754846
 21
-43.8911801129
 31
0.0
 11
44.8617547479
 21
-43.8814816676
 31
0.0
 11
44.8700585586
 21
-43.8714290238
 31
0.0
  0
SPLINE
  5
2E9
100
AcDbEntity
  8
RACCORDO
100
AcDbSpline
 62
253
  6
CONTINUOUS
 70
0
 71
3
 72
16
 73
12
 74
10
 42
0.0000001
 43
0.0000001
 44
0.0000000001
 12
0.3005651665
 22
0.0007924607
 32
0.0
 13
0.2162801716
 23
0.2087173559
 33
0.0
 40
0.0
 40
0.0
 40
0.0
 40
0.0
 40
0.3699259219
 40
0.5382268082
 40
0.6873077635
 40
0.811788969
 40
0.9072712513
 40
0.9430816491
 40
0.9705150833
 40
0.9894318309
 40
1.0
 40
1.0
 40
1.0
 40
1.0
 10
44.4427702181
 20
-22.6677048932
 30
0.0
 10
44.4798325002
 20
-22.6676071759
 30
0.0
 10
44.5337585935
 20
-22.6669863746
 30
0.0
 10
44.6025921869
 20
-22.6650633264
 30
0.0
 10
44.6468295934
 20
-22.6632539589
 30
0.0
 10
44.6837344423
 20
-22.6610920539
 30
0.0
 10
44.7092953104
 20
-22.6589748912
 30
0.0
 10
44.7250577246
 20
-22.6570214455
 30
0.0
 10
44.7332280537
 20
-22.6557085357
 30
0.0
 10
44.7386913971
 20
-22.6543605061
 30
0.0
 10
44.7415971833
 20
-22.6533283439
 30
0.0
 10
44.7423590785
 20
-22.6525930904
 30
0.0
 11
44.4427702181
 21
-22.6677048932
 31
0.0
 11
44.5539490201
 21
-22.666335693
 31
0.0
 11
44.6045140259
 21
-22.6648938049
 31
0.0
 11
44.6492831066
 21
-22.6630099734
 31
0.0
 11
44.6866297391
 21
-22.6607517402
 31
0.0
 11
44.7152149208
 21
-22.65820115
 31
0.0
 11
44.7258923969
 21
-22.6568438777
 31
0.0
 11
44.7340188375
 21
-22.6554473538
 31
0.0
 11
44.7395238828
 21
-22.654025362
 31
0.0
 11
44.7423590785
 21
-22.6525930904
 31
0.0
  0
SPLINE
  5
2EA
100
AcDbEntity
  8
RACCORDO
100
AcDbSpline
 62
253
  6
CONTINUOUS
 70
0
 71
3
 72
16
 73
12
 74
10
 42
0.0000001
 43
0.0000001
 44
0.0000000001
 12
0.3005651664
 22
-0.0007924607
 32
0.0
 13
0.2162802078
 23
-0.2087173183
 33
0.0
 40
0.0
 40
0.0
 40
0.0
 40
0.0
 40
0.3699259182
 40
0.5382268031
 40
0.6873077578
 40
0.8117889634
 40
0.9072712467
 40
0.9430816454
 40
0.9705150807
 40
0.9894318295
 40
1.0
 40
1.0
 40
1.0
 40
1.0
 10
44.4427702181
 20
22.6677048929
 30
0.0
 10
44.4798324998
 20
22.6676071756
 30
0.0
 10
44.5337585925
 20
22.6669863743
 30
0.0
 10
44.6025921854
 20
22.6650633262
 30
0.0
 10
44.6468295917
 20
22.6632539587
 30
0.0
 10
44.6837344406
 20
22.6610920537
 30
0.0
 10
44.7092953089
 20
22.6589748911
 30
0.0
 10
44.7250577235
 20
22.6570214455
 30
0.0
 10
44.7332280529
 20
22.6557085357
 30
0.0
 10
44.7386913967
 20
22.654360506
 30
0.0
 10
44.7415971831
 20
22.6533283438
 30
0.0
 10
44.7423590785
 20
22.6525930904
 30
0.0
 11
44.4427702181
 21
22.6677048929
 31
0.0
 11
44.5539490189
 21
22.6663356928
 31
0.0
 11
44.6045140243
 21
22.6648938047
 31
0.0
 11
44.6492831048
 21
22.6630099732
 31
0.0
 11
44.6866297373
 21
22.66075174
 31
0.0
 11
44.7152149193
 21
22.6582011499
 31
0.0
 11
44.7258923957
 21
22.6568438776
 31
0.0
 11
44.7340188367
 21
22.6554473538
 31
0.0
 11
44.7395238823
 21
22.6540253619
 31
0.0
 11
44.7423590785
 21
22.6525930904
 31
0.0
  0
SPLINE
  5
2EB
100
AcDbEntity
  8
RACCORDO
100
AcDbSpline
 62
253
  6
CONTINUOUS
 70
0
 71
3
 72
13
 73
9
 74
7
 42
0.0000001
 43
0.0000001
 44
0.0000000001
 12
0.3096956793
 22
-0.0028335369
 32
0.0
 13
0.0862751203
 23
-0.2974492332
 33
0.0
 40
0.0
 40
0.0
 40
0.0
 40
0.0
 40
0.3594655749
 40
0.6696721421
 40
0.7929541827
 40
0.8896587751
 40
0.9579008811
 40
1.0
 40
1.0
 40
1.0
 40
1.0
 10
44.5704696982
 20
43.9246280955
 30
0.0
 10
44.60757801
 20
43.9242885758
 30
0.0
 10
44.6766859315
 20
43.9214327677
 30
0.0
 10
44.7582122928
 20
43.9122809351
 30
0.0
 10
44.8118219481
 20
43.9013602123
 30
0.0
 10
44.8405000725
 20
43.8927077809
 30
0.0
 10
44.8597762364
 20
43.8840329422
 30
0.0
 10
44.8688408164
 20
43.8756031408
 30
0.0
 10
44.8700515186
 20
43.871429024
 30
0.0
 11
44.5704696982
 21
43.9246280955
 31
0.0
 11
44.6816953579
 21
43.9198185908
 31
0.0
 11
44.7770532694
 21
43.9081132157
 31
0.0
 11
44.8143976638
 21
43.9001618529
 31
0.0
 11
44.8429693535
 21
43.8911798767
 31
0.0
 11
44.8617480035
 21
43.8814815411
 31
0.0
 11
44.8700515186
 21
43.871429024
 31
0.0
  0
SPLINE
  5
2EC
100
AcDbEntity
  8
RACCORDO
100
AcDbSpline
 62
253
  6
CONTINUOUS
 70
0
 71
3
 72
18
 73
14
 74
12
 42
0.0000001
 43
0.0000001
 44
0.0000000001
 12
-0.5008389629
 22
0.0012739136
 32
0.0
 13
-0.3665692127
 23
0.3412745257
 33
0.0
 40
0.0
 40
0.0
 40
0.0
 40
0.0
 40
0.1883056664
 40
0.3700043885
 40
0.5383357521
 40
0.6874391592
 40
0.8119314039
 40
0.86353695
 40
0.9074124094
 40
0.9432110805
 40
0.9706235142
 40
0.9895037386
 40
1.0
 40
1.0
 40
1.0
 40
1.0
 10
23.2442885593
 20
-21.8703704105
 30
0.0
 10
23.2128516211
 20
-21.8702904488
 30
0.0
 10
23.1510810299
 20
-21.8698519819
 30
0.0
 10
23.0612185768
 20
-21.8683702353
 30
0.0
 10
22.9779177032
 20
-21.8661247612
 30
0.0
 10
22.9041964196
 20
-21.8632053302
 30
0.0
 10
22.8499825064
 20
-21.8601691232
 30
0.0
 10
22.8133687792
 20
-21.8573679225
 30
0.0
 10
22.791536692
 20
-21.855316869
 30
0.0
 10
22.7738107912
 20
-21.8531893157
 30
0.0
 10
22.760195888
 20
-21.8510841777
 30
0.0
 10
22.7510955245
 20
-21.8489091296
 30
0.0
 10
22.7462533578
 20
-21.8472641998
 30
0.0
 10
22.7449708223
 20
-21.8460701642
 30
0.0
 11
23.2442885593
 21
-21.8703704105
 31
0.0
 11
23.1499798657
 21
-21.8696939396
 31
0.0
 11
23.0589905539
 21
-21.8681687345
 31
0.0
 11
22.9747152642
 21
-21.8658501455
 31
0.0
 11
22.9000996926
 21
-21.8628208903
 31
0.0
 11
22.837854758
 21
-21.8591895773
 31
0.0
 11
22.812086156
 21
-21.8571888988
 31
0.0
 11
22.7902121917
 21
-21.8550881376
 31
0.0
 11
22.7724161004
 21
-21.8529055933
 31
0.0
 11
22.7588717453
 21
-21.8506599299
 31
0.0
 11
22.7496963986
 21
-21.8483733123
 31
0.0
 11
22.7449708223
 21
-21.8460701642
 31
0.0
  0
SPLINE
  5
2ED
100
AcDbEntity
  8
RACCORDO
100
AcDbSpline
 62
253
  6
CONTINUOUS
 70
0
 71
3
 72
16
 73
12
 74
10
 42
0.0000001
 43
0.0000001
 44
0.0000000001
 12
-0.4056913933
 22
0.3173467467
 32
0.0
 13
-0.2060681285
 23
0.4720491401
 33
0.0
 40
0.0
 40
0.0
 40
0.0
 40
0.0
 40
0.3639984375
 40
0.5310171203
 40
0.679892674
 40
0.8051680661
 40
0.9023274181
 40
0.9392555619
 40
0.9679516527
 40
0.988210365
 40
1.0
 40
1.0
 40
1.0
 40
1.0
 10
22.9679615937
 20
-22.6677046126
 30
0.0
 10
22.9187379159
 20
-22.6292000393
 30
0.0
 10
22.8473242018
 20
-22.5725165899
 30
0.0
 10
22.756823718
 20
-22.4987894959
 30
0.0
 10
22.6985755998
 20
-22.4503655422
 30
0.0
 10
22.6501044567
 20
-22.4089628915
 30
0.0
 10
22.6167607383
 20
-22.3794233572
 30
0.0
 10
22.5964059471
 20
-22.3602891798
 30
0.0
 10
22.5859018534
 20
-22.3498994518
 30
0.0
 10
22.5789516274
 20
-22.3421886084
 30
0.0
 10
22.5754875889
 20
-22.3377995702
 30
0.0
 10
22.5746777662
 20
-22.3359444745
 30
0.0
 11
22.9679615937
 21
-22.6677046126
 31
0.0
 11
22.8211764566
 21
-22.5510672383
 31
0.0
 11
22.7545039546
 21
-22.4967052081
 31
0.0
 11
22.6955801298
 21
-22.4476343314
 31
0.0
 11
22.6465739151
 21
-22.4056593145
 31
0.0
 11
22.6092650845
 21
-22.3723064301
 31
0.0
 11
22.5954334272
 21
-22.3592502407
 31
0.0
 11
22.5850026127
 21
-22.3487784222
 31
0.0
 11
22.5780636744
 21
-22.3409853436
 31
0.0
 11
22.5746777662
 21
-22.3359444745
 31
0.0
  0
SPLINE
  5
2EE
100
AcDbEntity
  8
RACCORDO
100
AcDbSpline
 62
253
  6
CONTINUOUS
 70
0
 71
3
 72
16
 73
12
 74
10
 42
0.0000001
 43
0.0000001
 44
0.0000000001
 12
0.4056905672
 22
0.3173461098
 32
0.0
 13
0.2060666668
 23
0.4720486401
 33
0.0
 40
0.0
 40
0.0
 40
0.0
 40
0.0
 40
0.3639988383
 40
0.5310175508
 40
0.6798930487
 40
0.8051683326
 40
0.9023275627
 40
0.939255652
 40
0.9679516983
 40
0.9882103795
 40
1.0
 40
1.0
 40
1.0
 40
1.0
 10
-22.9679615935
 20
-22.6677046708
 30
0.0
 10
-22.9187379618
 20
-22.6292001323
 30
0.0
 10
-22.8473243364
 20
-22.572516749
 30
0.0
 10
-22.756823994
 20
-22.498789754
 30
0.0
 10
-22.6985760191
 20
-22.4503659037
 30
0.0
 10
-22.6501050212
 20
-22.4089633576
 30
0.0
 10
-22.6167614165
 20
-22.3794239044
 30
0.0
 10
-22.5964067034
 20
-22.3602897819
 30
0.0
 10
-22.5859026534
 20
-22.3499000839
 30
0.0
 10
-22.5789524586
 20
-22.3421892617
 30
0.0
 10
-22.5754884377
 20
-22.3378002334
 30
0.0
 10
-22.5746786217
 20
-22.335945142
 30
0.0
 11
-22.9679615935
 21
-22.6677046708
 31
0.0
 11
-22.8211765975
 21
-22.5510673974
 31
0.0
 11
-22.7545042246
 21
-22.4967054601
 31
0.0
 11
-22.6955805494
 21
-22.4476346915
 31
0.0
 11
-22.6465744863
 21
-22.4056597841
 31
0.0
 11
-22.6092657899
 21
-22.3723069959
 31
0.0
 11
-22.5954341875
 21
-22.3592508453
 31
0.0
 11
-22.5850034172
 21
-22.3487790574
 31
0.0
 11
-22.5780645109
 21
-22.340986
 31
0.0
 11
-22.5746786217
 21
-22.335945142
 31
0.0
  0
SPLINE
  5
2EF
100
AcDbEntity
  8
RACCORDO
100
AcDbSpline
 62
253
  6
CONTINUOUS
 70
0
 71
3
 72
18
 73
14
 74
12
 42
0.0000001
 43
0.0000001
 44
0.0000000001
 12
0.5008360113
 22
0.0012741525
 32
0.0
 13
0.3665653035
 23
0.3412743939
 33
0.0
 40
0.0
 40
0.0
 40
0.0
 40
0.0
 40
0.1883064479
 40
0.370005591
 40
0.5383370468
 40
0.6874402836
 40
0.8119321966
 40
0.8635375542
 40
0.9074128303
 40
0.9432113372
 40
0.970623639
 40
0.9895037745
 40
1.0
 40
1.0
 40
1.0
 40
1.0
 10
-23.2442885593
 20
-21.8703705753
 30
0.0
 10
-23.2128516759
 20
-21.8702905982
 30
0.0
 10
-23.1510812481
 20
-21.8698521028
 30
0.0
 10
-23.0612191092
 20
-21.8683703171
 30
0.0
 10
-22.9779186703
 20
-21.8661248101
 30
0.0
 10
-22.9041978912
 20
-21.863205354
 30
0.0
 10
-22.8499844147
 20
-21.8601691316
 30
0.0
 10
-22.8133710229
 20
-21.857367923
 30
0.0
 10
-22.7915391556
 20
-21.8553168664
 30
0.0
 10
-22.7738134414
 20
-21.8531893123
 30
0.0
 10
-22.7601986856
 20
-21.8510841729
 30
0.0
 10
-22.7510984218
 20
-21.8489091282
 30
0.0
 10
-22.7462563093
 20
-21.8472641952
 30
0.0
 10
-22.744973792
 20
-21.8460701642
 30
0.0
 11
-23.2442885593
 21
-21.8703705753
 31
0.0
 11
-23.1499800303
 21
-21.8696940595
 31
0.0
 11
-23.0589910447
 21
-21.8681688143
 31
0.0
 11
-22.9747162066
 21
-21.8658501917
 31
0.0
 11
-22.9001011618
 21
-21.8628209112
 31
0.0
 11
-22.8378567625
 21
-21.8591895821
 31
0.0
 11
-22.8120884083
 21
-21.8571888988
 31
0.0
 11
-22.7902146665
 21
-21.8550881347
 31
0.0
 11
-22.7724187647
 21
-21.8529055894
 31
0.0
 11
-22.7588745584
 21
-21.8506599264
 31
0.0
 11
-22.7496993147
 21
-21.8483733103
 31
0.0
 11
-22.744973792
 21
-21.8460701642
 31
0.0
  0
SPLINE
  5
2F0
100
AcDbEntity
  8
RACCORDO
100
AcDbSpline
 62
253
  6
CONTINUOUS
 70
0
 71
3
 72
18
 73
14
 74
12
 42
0.0000001
 43
0.0000001
 44
0.0000000001
 12
0.5008390843
 22
-0.0012739038
 32
0.0
 13
0.3665693777
 23
-0.3412745266
 33
0.0
 40
0.0
 40
0.0
 40
0.0
 40
0.0
 40
0.1883056345
 40
0.3700043393
 40
0.5383356991
 40
0.6874391132
 40
0.8119313713
 40
0.8635369251
 40
0.907412392
 40
0.9432110698
 40
0.9706235089
 40
0.989503737
 40
1.0
 40
1.0
 40
1.0
 40
1.0
 10
-23.2442885593
 20
21.8703704037
 30
0.0
 10
-23.2128516188
 20
21.8702904427
 30
0.0
 10
-23.1510810208
 20
21.8698519769
 30
0.0
 10
-23.0612185548
 20
21.868370232
 30
0.0
 10
-22.9779176633
 20
21.8661247593
 30
0.0
 10
-22.904196359
 20
21.8632053292
 30
0.0
 10
-22.8499824279
 20
21.8601691228
 30
0.0
 10
-22.813368687
 20
21.8573679225
 30
0.0
 10
-22.7915365908
 20
21.8553168691
 30
0.0
 10
-22.7738106823
 20
21.8531893158
 30
0.0
 10
-22.7601957731
 20
21.8510841779
 30
0.0
 10
-22.7510954054
 20
21.8489091296
 30
0.0
 10
-22.7462532364
 20
21.8472642
 30
0.0
 10
-22.7449707002
 20
21.8460701642
 30
0.0
 11
-23.2442885593
 21
21.8703704037
 31
0.0
 11
-23.1499798588
 21
21.8696939347
 31
0.0
 11
-23.0589905336
 21
21.8681687313
 31
0.0
 11
-22.9747152254
 21
21.8658501436
 31
0.0
 11
-22.9000996322
 21
21.8628208894
 31
0.0
 11
-22.8378546756
 21
21.8591895772
 31
0.0
 11
-22.8120860635
 21
21.8571888988
 31
0.0
 11
-22.79021209
 21
21.8550881377
 31
0.0
 11
-22.772415991
 21
21.8529055935
 31
0.0
 11
-22.7588716297
 21
21.8506599301
 31
0.0
 11
-22.7496962787
 21
21.8483733124
 31
0.0
 11
-22.7449707002
 21
21.8460701642
 31
0.0
  0
SPLINE
  5
2F1
100
AcDbEntity
  8
RACCORDO
100
AcDbSpline
 62
253
  6
CONTINUOUS
 70
0
 71
3
 72
16
 73
12
 74
10
 42
0.0000001
 43
0.0000001
 44
0.0000000001
 12
0.4056913933
 22
-0.3173467466
 32
0.0
 13
0.2060681276
 23
-0.4720491405
 33
0.0
 40
0.0
 40
0.0
 40
0.0
 40
0.0
 40
0.3639984375
 40
0.5310171203
 40
0.679892674
 40
0.8051680661
 40
0.9023274181
 40
0.9392555619
 40
0.9679516527
 40
0.988210365
 40
1.0
 40
1.0
 40
1.0
 40
1.0
 10
-22.9679615937
 20
22.6677046126
 30
0.0
 10
-22.9187379159
 20
22.6292000393
 30
0.0
 10
-22.8473242018
 20
22.5725165899
 30
0.0
 10
-22.756823718
 20
22.4987894959
 30
0.0
 10
-22.6985755998
 20
22.4503655422
 30
0.0
 10
-22.6501044567
 20
22.4089628915
 30
0.0
 10
-22.6167607383
 20
22.3794233572
 30
0.0
 10
-22.5964059471
 20
22.3602891798
 30
0.0
 10
-22.5859018534
 20
22.3498994518
 30
0.0
 10
-22.5789516273
 20
22.3421886084
 30
0.0
 10
-22.5754875889
 20
22.3377995702
 30
0.0
 10
-22.5746777662
 20
22.3359444745
 30
0.0
 11
-22.9679615937
 21
22.6677046126
 31
0.0
 11
-22.8211764566
 21
22.5510672383
 31
0.0
 11
-22.7545039546
 21
22.4967052081
 31
0.0
 11
-22.6955801298
 21
22.4476343314
 31
0.0
 11
-22.6465739151
 21
22.4056593145
 31
0.0
 11
-22.6092650845
 21
22.3723064301
 31
0.0
 11
-22.5954334272
 21
22.3592502407
 31
0.0
 11
-22.5850026127
 21
22.3487784222
 31
0.0
 11
-22.5780636744
 21
22.3409853436
 31
0.0
 11
-22.5746777662
 21
22.3359444745
 31
0.0
  0
SPLINE
  5
2F2
100
AcDbEntity
  8
RACCORDO
100
AcDbSpline
 62
253
  6
CONTINUOUS
 70
0
 71
3
 72
16
 73
12
 74
10
 42
0.0000001
 43
0.0000001
 44
0.0000000001
 12
-0.4056907612
 22
-0.3173462426
 32
0.0
 13
-0.2060668638
 23
-0.47204881
 33
0.0
 40
0.0
 40
0.0
 40
0.0
 40
0.0
 40
0.3639987362
 40
0.5310174407
 40
0.6798929535
 40
0.8051682664
 40
0.9023275288
 40
0.9392556321
 40
0.9679516893
 40
0.9882103773
 40
1.0
 40
1.0
 40
1.0
 40
1.0
 10
22.9679615935
 20
22.6677046554
 30
0.0
 10
22.9187379521
 20
22.6292001117
 30
0.0
 10
22.8473243074
 20
22.5725167163
 30
0.0
 10
22.7568239339
 20
22.4987897012
 30
0.0
 10
22.6985759257
 20
22.4503658274
 30
0.0
 10
22.6501048936
 20
22.4089632563
 30
0.0
 10
22.6167612621
 20
22.3794237833
 30
0.0
 10
22.596406531
 20
22.3602896472
 30
0.0
 10
22.5859024711
 20
22.3498999418
 30
0.0
 10
22.5789522699
 20
22.3421891145
 30
0.0
 10
22.5754882454
 20
22.3378000838
 30
0.0
 10
22.5746784285
 20
22.3359449913
 30
0.0
 11
22.9679615935
 21
22.6677046554
 31
0.0
 11
22.8211765683
 21
22.5510673661
 31
0.0
 11
22.7545041663
 21
22.4967054091
 31
0.0
 11
22.6955804563
 21
22.4476346157
 31
0.0
 11
22.6465743573
 21
22.405659682
 31
0.0
 11
22.6092656292
 21
22.37230687
 31
0.0
 11
22.5954340141
 21
22.3592507098
 31
0.0
 11
22.5850032339
 21
22.3487789144
 31
0.0
 11
22.578064321
 21
22.3409858518
 31
0.0
 11
22.5746784285
 21
22.3359449913
 31
0.0
  0
SPLINE
  5
2F3
100
AcDbEntity
  8
RACCORDO
100
AcDbSpline
 62
253
  6
CONTINUOUS
 70
0
 71
3
 72
18
 73
14
 74
12
 42
0.0000001
 43
0.0000001
 44
0.0000000001
 12
-0.5008360113
 22
-0.0012741525
 32
0.0
 13
-0.3665653035
 23
-0.3412743939
 33
0.0
 40
0.0
 40
0.0
 40
0.0
 40
0.0
 40
0.1883064479
 40
0.370005591
 40
0.5383370468
 40
0.6874402836
 40
0.8119321966
 40
0.8635375542
 40
0.9074128303
 40
0.9432113372
 40
0.970623639
 40
0.9895037745
 40
1.0
 40
1.0
 40
1.0
 40
1.0
 10
23.2442885593
 20
21.8703705753
 30
0.0
 10
23.2128516759
 20
21.8702905982
 30
0.0
 10
23.1510812481
 20
21.8698521028
 30
0.0
 10
23.0612191092
 20
21.8683703171
 30
0.0
 10
22.9779186703
 20
21.8661248101
 30
0.0
 10
22.9041978912
 20
21.863205354
 30
0.0
 10
22.8499844147
 20
21.8601691316
 30
0.0
 10
22.8133710229
 20
21.857367923
 30
0.0
 10
22.7915391556
 20
21.8553168664
 30
0.0
 10
22.7738134414
 20
21.8531893123
 30
0.0
 10
22.7601986856
 20
21.8510841729
 30
0.0
 10
22.7510984218
 20
21.8489091282
 30
0.0
 10
22.7462563093
 20
21.8472641952
 30
0.0
 10
22.744973792
 20
21.8460701642
 30
0.0
 11
23.2442885593
 21
21.8703705753
 31
0.0
 11
23.1499800303
 21
21.8696940595
 31
0.0
 11
23.0589910447
 21
21.8681688143
 31
0.0
 11
22.9747162066
 21
21.8658501917
 31
0.0
 11
22.9001011618
 21
21.8628209112
 31
0.0
 11
22.8378567625
 21
21.8591895821
 31
0.0
 11
22.8120884083
 21
21.8571888988
 31
0.0
 11
22.7902146665
 21
21.8550881347
 31
0.0
 11
22.7724187647
 21
21.8529055894
 31
0.0
 11
22.7588745584
 21
21.8506599264
 31
0.0
 11
22.7496993147
 21
21.8483733103
 31
0.0
 11
22.744973792
 21
21.8460701642
 31
0.0
  0
SPLINE
  5
2F4
100
AcDbEntity
  8
RACCORDO
100
AcDbSpline
 62
253
  6
CONTINUOUS
 70
0
 71
3
 72
11
 73
7
 74
5
 42
0.0000001
 43
0.0000001
 44
0.0000000001
 12
-1.0939762035
 22
0.0000377934
 32
0.0
 13
0.010244236
 23
-1.0939282385
 33
0.0
 40
0.0
 40
0.0
 40
0.0
 40
0.0
 40
0.2518132804
 40
0.5024878192
 40
0.7516926537
 40
1.0
 40
1.0
 40
1.0
 40
1.0
 10
-43.8781758769
 20
44.6316825048
 30
0.0
 10
-43.9700017891
 20
44.6316856771
 30
0.0
 10
-44.1553859713
 20
44.5942209145
 30
0.0
 10
-44.3868757931
 20
44.4343345128
 30
0.0
 10
-44.537895756
 20
44.1988617765
 30
0.0
 10
-44.5713176045
 20
44.0151715791
 30
0.0
 10
-44.5704696982
 20
43.9246281065
 30
0.0
 11
-43.8781758769
 21
44.6316825048
 31
0.0
 11
-44.1481115835
 21
44.5767034389
 31
0.0
 11
-44.3739897462
 21
44.4211970574
 31
0.0
 11
-44.5212664327
 21
44.1917771157
 31
0.0
 11
-44.5704696982
 21
43.9246281065
 31
0.0
  0
SPLINE
  5
2F5
100
AcDbEntity
  8
RACCORDO
100
AcDbSpline
 62
253
  6
CONTINUOUS
 70
0
 71
3
 72
11
 73
7
 74
5
 42
0.0000001
 43
0.0000001
 44
0.0000000001
 12
0.0103372645
 22
1.0939274238
 32
0.0
 13
-1.093976262
 23
0.0000764711
 33
0.0
 40
0.0
 40
0.0
 40
0.0
 40
0.0
 40
0.2483065073
 40
0.4975112282
 40
0.7481857848
 40
1.0
 40
1.0
 40
1.0
 40
1.0
 10
44.5704696982
 20
43.9246281065
 30
0.0
 10
44.5713253015
 20
44.0151712058
 30
0.0
 10
44.5378900311
 20
44.1988610759
 30
0.0
 10
44.3868770857
 20
44.4343324605
 30
0.0
 10
44.1553871233
 20
44.5942280108
 30
0.0
 10
43.9700021349
 20
44.631676086
 30
0.0
 10
43.8781758769
 20
44.6316825048
 30
0.0
 11
44.5704696982
 21
43.9246281065
 31
0.0
 11
44.5212653522
 21
44.1917759987
 31
0.0
 11
44.3739899469
 21
44.421196633
 31
0.0
 11
44.1481128983
 21
44.5767046939
 31
0.0
 11
43.8781758769
 21
44.6316825048
 31
0.0
  0
SPLINE
  5
2F6
100
AcDbEntity
  8
RACCORDO
100
AcDbSpline
 62
253
  6
CONTINUOUS
 70
0
 71
3
 72
21
 73
17
 74
15
 42
0.0000001
 43
0.0000001
 44
0.0000000001
 12
-0.0143224652
 22
-0.2839630463
 32
0.0
 13
0.2839610799
 23
-0.0143613986
 33
0.0
 40
0.0
 40
0.0
 40
0.0
 40
0.0
 40
0.0011992042
 40
0.0047679411
 40
0.0106958408
 40
0.0189692258
 40
0.0424947782
 40
0.0751477288
 40
0.116603241
 40
0.1665157422
 40
0.2244273054
 40
0.2898075238
 40
0.4406068203
 40
0.6134317246
 40
0.8022453631
 40
1.0
 40
1.0
 40
1.0
 40
1.0
 10
-71.0023841035
 20
22.6677048929
 30
0.0
 10
-71.0023898287
 20
22.667591383
 30
0.0
 10
-71.0016589057
 20
22.6677432196
 30
0.0
 10
-71.0009190535
 20
22.6674671978
 30
0.0
 10
-70.9990866458
 20
22.6674564945
 30
0.0
 10
-70.9956110111
 20
22.6671564871
 30
0.0
 10
-70.9894455261
 20
22.66683626
 30
0.0
 10
-70.9802402874
 20
22.6662785719
 30
0.0
 10
-70.9684922098
 20
22.6656291268
 30
0.0
 10
-70.9543700211
 20
22.6648495726
 30
0.0
 10
-70.9379771572
 20
22.663963523
 30
0.0
 10
-70.9120379269
 20
22.6625760188
 30
0.0
 10
-70.8752208317
 20
22.6606372127
 30
0.0
 10
-70.8267202189
 20
22.6581178613
 30
0.0
 10
-70.7737736147
 20
22.6553993664
 30
0.0
 10
-70.737183966
 20
22.6535397682
 30
0.0
 10
-70.7184657593
 20
22.6525930904
 30
0.0
 11
-71.0023841035
 21
22.6677048929
 31
0.0
 11
-71.0020475281
 21
22.6676503723
 31
0.0
 11
-71.0010367167
 21
22.6675618806
 31
0.0
 11
-70.9993557053
 21
22.6674397208
 31
0.0
 11
-70.9970085301
 21
22.6672841962
 31
0.0
 11
-70.9903322228
 21
22.6668742839
 31
0.0
 11
-70.9810638405
 21
22.6663356928
 31
0.0
 11
-70.9692956485
 21
22.6656736846
 31
0.0
 11
-70.9551257711
 21
22.6648938047
 31
0.0
 11
-70.9386842273
 21
22.6640031834
 31
0.0
 11
-70.9201216136
 21
22.6630099732
 31
0.0
 11
-70.8773052632
 21
22.66075174
 31
0.0
 11
-70.8282332334
 21
22.6582011499
 31
0.0
 11
-70.774619658
 21
22.6554473538
 31
0.0
 11
-70.7184657593
 21
22.6525930904
 31
0.0
  0
SPLINE
  5
2F7
100
AcDbEntity
  8
RACCORDO
100
AcDbSpline
 62
253
  6
CONTINUOUS
 70
0
 71
3
 72
21
 73
17
 74
15
 42
0.0000001
 43
0.0000001
 44
0.0000000001
 12
-0.0498879106
 22
-0.2802015215
 32
0.0
 13
0.2800730979
 23
-0.0506039137
 33
0.0
 40
0.0
 40
0.0
 40
0.0
 40
0.0
 40
0.0012799504
 40
0.0048771717
 40
0.0108224623
 40
0.0191083515
 40
0.0426512324
 40
0.0753158672
 40
0.1167792486
 40
0.1666964324
 40
0.2246095889
 40
0.2899881404
 40
0.4407729652
 40
0.6135655892
 40
0.8023252109
 40
1.0
 40
1.0
 40
1.0
 40
1.0
 10
-68.5613590958
 20
43.9246280955
 30
0.0
 10
-68.5613803805
 20
43.9245085475
 30
0.0
 10
-68.5607037405
 20
43.9243762195
 30
0.0
 10
-68.5599484842
 20
43.924044961
 30
0.0
 10
-68.5581819619
 20
43.9236466514
 30
0.0
 10
-68.5547710199
 20
43.9228114057
 30
0.0
 10
-68.5487342588
 20
43.9215241138
 30
0.0
 10
-68.5396881724
 20
43.9196397184
 30
0.0
 10
-68.5281398204
 20
43.9173250316
 30
0.0
 10
-68.5142461793
 20
43.9145919479
 30
0.0
 10
-68.4981121443
 20
43.9114695248
 30
0.0
 10
-68.4725738222
 20
43.9065863259
 30
0.0
 10
-68.4363106027
 20
43.8997588772
 30
0.0
 10
-68.3885221137
 20
43.8908872151
 30
0.0
 10
-68.3363395766
 20
43.8813131453
 30
0.0
 10
-68.300268619
 20
43.8747633966
 30
0.0
 10
-68.2818141555
 20
43.871429024
 30
0.0
 11
-68.5613590958
 21
43.9246280955
 31
0.0
 11
-68.5610483905
 21
43.9244379242
 31
0.0
 11
-68.5600726164
 21
43.9241280422
 31
0.0
 11
-68.5584357021
 21
43.9236995139
 31
0.0
 11
-68.5561415764
 21
43.9231534035
 31
0.0
 11
-68.5495977907
 21
43.9217127593
 31
0.0
 11
-68.5404961874
 21
43.9198185908
 31
0.0
 11
-68.5289275194
 21
43.9174894261
 31
0.0
 11
-68.5149883312
 21
43.9147447945
 31
0.0
 11
-68.4988066679
 21
43.9116098157
 31
0.0
 11
-68.4805308972
 21
43.9081132157
 31
0.0
 11
-68.4383593958
 21
43.9001618529
 31
0.0
 11
-68.390008436
 21
43.8911798767
 31
0.0
 11
-68.3371685978
 21
43.8814815411
 31
0.0
 11
-68.2818141555
 21
43.871429024
 31
0.0
  0
SPLINE
  5
2F8
100
AcDbEntity
  8
RACCORDO
100
AcDbSpline
 62
253
  6
CONTINUOUS
 70
0
 71
3
 72
23
 73
19
 74
17
 42
0.0000001
 43
0.0000001
 44
0.0000000001
 12
-1.0126526509
 22
0.052014779
 32
0.0
 13
-0.1119510707
 23
1.0077886119
 33
0.0
 40
0.0
 40
0.0
 40
0.0
 40
0.0
 40
0.0015340252
 40
0.0053674024
 40
0.0115827224
 40
0.020185436
 40
0.0311601726
 40
0.0444777571
 40
0.0780138888
 40
0.120457171
 40
0.1713741302
 40
0.230236567
 40
0.2964484699
 40
0.369331472
 40
0.4481604618
 40
0.6204931569
 40
0.8067721668
 40
1.0
 40
1.0
 40
1.0
 40
1.0
 10
-68.1530768988
 20
-44.8768054117
 30
0.0
 10
-68.1535947104
 20
-44.8767788143
 30
0.0
 10
-68.1543053936
 20
-44.8745064539
 30
0.0
 10
-68.1554402224
 20
-44.8712729747
 30
0.0
 10
-68.1568342253
 20
-44.864840415
 30
0.0
 10
-68.1585471863
 20
-44.8564149983
 30
0.0
 10
-68.1605222182
 20
-44.8454258151
 30
0.0
 10
-68.1637724186
 20
-44.8261740956
 30
0.0
 10
-68.168395731
 20
-44.796332852
 30
0.0
 10
-68.1745735914
 20
-44.7538955805
 30
0.0
 10
-68.1816495886
 20
-44.7029313461
 30
0.0
 10
-68.1895484397
 20
-44.6439743549
 30
0.0
 10
-68.1981807405
 20
-44.5776244078
 30
0.0
 10
-68.2074554137
 20
-44.5045532485
 30
0.0
 10
-68.2209532097
 20
-44.3958622516
 30
0.0
 10
-68.2386429431
 20
-44.2490706349
 30
0.0
 10
-68.2602262708
 20
-44.0638037172
 30
0.0
 10
-68.2746038369
 20
-43.9363399605
 30
0.0
 10
-68.2818145245
 20
-43.8714290238
 30
0.0
 11
-68.1530768988
 21
-44.8768054117
 31
0.0
 11
-68.1539858469
 21
-44.8755431361
 31
0.0
 11
-68.1551728696
 21
-44.8718418223
 31
0.0
 11
-68.1566340828
 21
-44.8657112997
 31
0.0
 11
-68.1583655669
 21
-44.8571618272
 31
0.0
 11
-68.1603625319
 21
-44.846214224
 31
0.0
 11
-68.1626192842
 21
-44.8329002663
 31
0.0
 11
-68.1678888242
 21
-44.7993058154
 31
0.0
 11
-68.1741186105
 21
-44.7567221332
 31
0.0
 11
-68.1812424035
 21
-44.7055867984
 31
0.0
 11
-68.1891832557
 21
-44.6464316162
 31
0.0
 11
-68.1978568149
 21
-44.5798561908
 31
0.0
 11
-68.2071706661
 21
-44.5065429844
 31
0.0
 11
-68.2170283358
 21
-44.4272215472
 31
0.0
 11
-68.2379690237
 21
-44.253737596
 31
0.0
 11
-68.2598423258
 21
-44.0661237486
 31
0.0
 11
-68.2818145245
 21
-43.8714290238
 31
0.0
  0
SPLINE
  5
2F9
100
AcDbEntity
  8
RACCORDO
100
AcDbSpline
 62
253
  6
CONTINUOUS
 70
0
 71
3
 72
9
 73
5
 74
3
 42
0.0000001
 43
0.0000001
 44
0.0000000001
 12
-1.2780030794
 22
-0.8485343925
 32
0.0
 13
-1.4648206456
 23
-0.4556346807
 33
0.0
 40
0.0
 40
0.0
 40
0.0
 40
0.0
 40
0.4863423339
 40
1.0
 40
1.0
 40
1.0
 40
1.0
 10
-63.0023841637
 20
-43.0970754028
 30
0.0
 10
-63.2095664971
 20
-43.2346348017
 30
0.0
 10
-63.6563901677
 20
-43.4871542699
 30
0.0
 10
-64.1345876068
 20
-43.6738305061
 30
0.0
 10
-64.3853930582
 20
-43.7518439217
 30
0.0
 11
-63.0023841637
 21
-43.0970754028
 31
0.0
 11
-63.6516058326
 21
-43.4646827918
 31
0.0
 11
-64.3853930582
 21
-43.7518439217
 31
0.0
  0
SPLINE
  5
2FA
100
AcDbEntity
  8
RACCORDO
100
AcDbSpline
 62
253
  6
CONTINUOUS
 70
0
 71
3
 72
9
 73
5
 74
3
 42
0.0000001
 43
0.0000001
 44
0.0000000001
 12
1.4647976429
 22
-0.45563675
 32
0.0
 13
1.2779858582
 23
-0.8485217316
 33
0.0
 40
0.0
 40
0.0
 40
0.0
 40
0.0
 40
0.5136729799
 40
1.0
 40
1.0
 40
1.0
 40
1.0
 10
-64.3853723945
 20
43.7518378099
 30
0.0
 10
-64.1345634044
 20
43.6738217142
 30
0.0
 10
-63.6563728214
 20
43.4871472102
 30
0.0
 10
-63.2095571568
 20
43.2346284021
 30
0.0
 10
-63.0023841388
 20
43.097075387
 30
0.0
 11
-64.3853723945
 21
43.7518378099
 31
0.0
 11
-63.6515748247
 21
43.4646687432
 31
0.0
 11
-63.0023841388
 21
43.097075387
 31
0.0
  0
SPLINE
  5
2FB
100
AcDbEntity
  8
RACCORDO
100
AcDbSpline
 62
253
  6
CONTINUOUS
 70
0
 71
3
 72
23
 73
19
 74
17
 42
0.0000001
 43
0.0000001
 44
0.0000000001
 12
0.1119601961
 22
1.0077875902
 32
0.0
 13
1.0124715071
 23
0.0554288708
 33
0.0
 40
0.0
 40
0.0
 40
0.0
 40
0.0
 40
0.1932274757
 40
0.3795055261
 40
0.5518384659
 40
0.6306674686
 40
0.703550534
 40
0.7697625925
 40
0.8286252474
 40
0.8795422813
 40
0.9219856852
 40
0.9555222934
 40
0.9688401667
 40
0.9798148332
 40
0.9884168169
 40
0.9946311463
 40
0.9984643095
 40
1.0
 40
1.0
 40
1.0
 40
1.0
 10
-68.2818145245
 20
43.8714290238
 30
0.0
 10
-68.2746032624
 20
43.9363397745
 30
0.0
 10
-68.2602265888
 20
44.0638031823
 30
0.0
 10
-68.238642459
 20
44.2490696402
 30
0.0
 10
-68.2209541808
 20
44.3958611907
 30
0.0
 10
-68.2074568262
 20
44.5045523514
 30
0.0
 10
-68.1981819457
 20
44.5776235637
 30
0.0
 10
-68.1895491066
 20
44.6439735879
 30
0.0
 10
-68.1816497462
 20
44.7029306679
 30
0.0
 10
-68.1745732299
 20
44.753894958
 30
0.0
 10
-68.168394858
 20
44.7963324227
 30
0.0
 10
-68.1637713431
 20
44.8261738478
 30
0.0
 10
-68.1605213088
 20
44.8454259687
 30
0.0
 10
-68.158546619
 20
44.8564147454
 30
0.0
 10
-68.1568341454
 20
44.8648404146
 30
0.0
 10
-68.1554408741
 20
44.8712706653
 30
0.0
 10
-68.154305867
 20
44.874507489
 30
0.0
 10
-68.1535951798
 20
44.8767770378
 30
0.0
 10
-68.1530768988
 20
44.8768054117
 30
0.0
 11
-68.2818145245
 21
43.8714290238
 31
0.0
 11
-68.2598422676
 21
44.0661233756
 31
0.0
 11
-68.2379690301
 21
44.2537362496
 31
0.0
 11
-68.2170293825
 21
44.427220575
 31
0.0
 11
-68.2071719945
 21
44.5065420597
 31
0.0
 11
-68.1978579524
 21
44.579855306
 31
0.0
 11
-68.1891839005
 21
44.6464308257
 31
0.0
 11
-68.1812425164
 21
44.7055861592
 31
0.0
 11
-68.1741182098
 21
44.7567214986
 31
0.0
 11
-68.1678879829
 21
44.7993052406
 31
0.0
 11
-68.1626182895
 21
44.8329001564
 31
0.0
 11
-68.1603616529
 21
44.8462144305
 31
0.0
 11
-68.158365011
 21
44.8571620204
 31
0.0
 11
-68.1566341077
 21
44.8657108553
 31
0.0
 11
-68.1551735068
 21
44.8718404912
 31
0.0
 11
-68.1539866414
 21
44.8755416275
 31
0.0
 11
-68.1530768988
 21
44.8768054117
 31
0.0
  0
SPLINE
  5
2FC
100
AcDbEntity
  8
RACCORDO
100
AcDbSpline
 62
253
  6
CONTINUOUS
 70
0
 71
3
 72
21
 73
17
 74
15
 42
0.0000001
 43
0.0000001
 44
0.0000000001
 12
-0.0504699055
 22
0.280096928
 32
0.0
 13
0.2800727704
 23
0.0506037912
 33
0.0
 40
0.0
 40
0.0
 40
0.0
 40
0.0
 40
0.0012790813
 40
0.0048754235
 40
0.0108198821
 40
0.0191049931
 40
0.0426464913
 40
0.0753099907
 40
0.1167724955
 40
0.166689072
 40
0.2246018962
 40
0.2899803913
 40
0.4407659148
 40
0.6135602147
 40
0.8023222888
 40
1.0
 40
1.0
 40
1.0
 40
1.0
 10
-68.561359089
 20
-43.9246280943
 30
0.0
 10
-68.5613806074
 20
-43.924508672
 30
0.0
 10
-68.5607037673
 20
-43.9243760883
 30
0.0
 10
-68.5599491553
 20
-43.9240451342
 30
0.0
 10
-68.558182626
 20
-43.9236467241
 30
0.0
 10
-68.5547721225
 20
-43.9228116057
 30
0.0
 10
-68.5487355629
 20
-43.9215243029
 30
0.0
 10
-68.5396898617
 20
-43.9196399882
 30
0.0
 10
-68.5281417483
 20
-43.9173253295
 30
0.0
 10
-68.5142483027
 20
-43.9145922762
 30
0.0
 10
-68.4981143789
 20
-43.9114698657
 30
0.0
 10
-68.4725760615
 20
-43.9065866594
 30
0.0
 10
-68.43631267
 20
-43.8997591726
 30
0.0
 10
-68.3885237889
 20
-43.8908874372
 30
0.0
 10
-68.336340656
 20
-43.8813132632
 30
0.0
 10
-68.3002692392
 20
-43.8747634377
 30
0.0
 10
-68.2818145245
 20
-43.8714290238
 30
0.0
 11
-68.561359089
 21
-43.9246280943
 31
0.0
 11
-68.561048648
 21
-43.9244379659
 31
0.0
 11
-68.5600731249
 21
-43.9241281243
 31
0.0
 11
-68.5584364475
 21
-43.9236996339
 31
0.0
 11
-68.5561425441
 21
-43.9231535588
 31
0.0
 11
-68.5495991559
 21
-43.9217129769
 31
0.0
 11
-68.5404978836
 21
-43.9198188591
 31
0.0
 11
-68.5289294768
 21
-43.9174897331
 31
0.0
 11
-68.5149904771
 21
-43.9147451277
 31
0.0
 11
-68.4988089278
 21
-43.9116101624
 31
0.0
 11
-68.4805331962
 21
-43.9081135635
 31
0.0
 11
-68.4383615517
 21
-43.9001621663
 31
0.0
 11
-68.3900101816
 21
-43.8911801129
 31
0.0
 11
-68.3371697199
 21
-43.8814816676
 31
0.0
 11
-68.2818145245
 21
-43.8714290238
 31
0.0
  0
SPLINE
  5
2FD
100
AcDbEntity
  8
RACCORDO
100
AcDbSpline
 62
253
  6
CONTINUOUS
 70
0
 71
3
 72
21
 73
17
 74
15
 42
0.0000001
 43
0.0000001
 44
0.0000000001
 12
-0.0143223644
 22
0.2839630568
 32
0.0
 13
0.2839610853
 23
0.0143613988
 33
0.0
 40
0.0
 40
0.0
 40
0.0
 40
0.0
 40
0.0011992043
 40
0.0047679412
 40
0.010695841
 40
0.0189692261
 40
0.0424947786
 40
0.0751477294
 40
0.1166032418
 40
0.1665157432
 40
0.2244273066
 40
0.2898075252
 40
0.4406068219
 40
0.6134317262
 40
0.8022453641
 40
1.0
 40
1.0
 40
1.0
 40
1.0
 10
-71.0023841089
 20
-22.6677048932
 30
0.0
 10
-71.002389834
 20
-22.6675913833
 30
0.0
 10
-71.0016589111
 20
-22.6677432199
 30
0.0
 10
-71.0009190588
 20
-22.6674671981
 30
0.0
 10
-70.9990866511
 20
-22.6674564947
 30
0.0
 10
-70.9956110162
 20
-22.6671564874
 30
0.0
 10
-70.9894455311
 20
-22.6668362603
 30
0.0
 10
-70.9802402922
 20
-22.6662785721
 30
0.0
 10
-70.9684922144
 20
-22.6656291271
 30
0.0
 10
-70.9543700253
 20
-22.6648495728
 30
0.0
 10
-70.937977161
 20
-22.6639635232
 30
0.0
 10
-70.9120379302
 20
-22.6625760189
 30
0.0
 10
-70.8752208342
 20
-22.6606372128
 30
0.0
 10
-70.8267202206
 20
-22.6581178614
 30
0.0
 10
-70.7737736155
 20
-22.6553993665
 30
0.0
 10
-70.7371839663
 20
-22.6535397682
 30
0.0
 10
-70.7184657593
 20
-22.6525930904
 30
0.0
 11
-71.0023841089
 21
-22.6677048932
 31
0.0
 11
-71.0020475335
 21
-22.6676503726
 31
0.0
 11
-71.001036722
 21
-22.6675618808
 31
0.0
 11
-70.9993557106
 21
-22.667439721
 31
0.0
 11
-70.9970085354
 21
-22.6672841965
 31
0.0
 11
-70.9903322278
 21
-22.6668742842
 31
0.0
 11
-70.9810638453
 21
-22.666335693
 31
0.0
 11
-70.969295653
 21
-22.6656736848
 31
0.0
 11
-70.9551257753
 21
-22.6648938049
 31
0.0
 11
-70.9386842312
 21
-22.6640031836
 31
0.0
 11
-70.920121617
 21
-22.6630099734
 31
0.0
 11
-70.8773052658
 21
-22.6607517402
 31
0.0
 11
-70.828233235
 21
-22.65820115
 31
0.0
 11
-70.7746196588
 21
-22.6554473538
 31
0.0
 11
-70.7184657593
 21
-22.6525930904
 31
0.0
  0
ELLIPSE
  5
2FE
100
AcDbEntity
  8
RACCORDO
100
AcDbEllipse
 62
7
  6
CONTINUOUS
 10
-43.998627654
 20
-43.998627654
 30
0.0
 11
0.7090462434
 21
0.7090462434
 31
0.0
 40
0.9972646886
 41
-3.9256212891
 42
-2.3575640181
  0
ELLIPSE
  5
2FF
100
AcDbEntity
  8
RACCORDO
100
AcDbEllipse
 62
7
  6
CONTINUOUS
 10
43.998627654
 20
-43.998627654
 30
0.0
 11
-0.7090462434
 21
0.7090462434
 31
0.0
 40
0.9972646886
 41
-3.9256212891
 42
-2.3575640181
  0
ELLIPSE
  5
300
100
AcDbEntity
  8
RACCORDO
100
AcDbEllipse
 62
7
  6
CONTINUOUS
 10
43.998627654
 20
43.998627654
 30
0.0
 11
0.7090462434
 21
0.7090462434
 31
0.0
 40
0.9972646886
 41
-0.7840286355
 42
0.7840286355
  0
ELLIPSE
  5
301
100
AcDbEntity
  8
RACCORDO
100
AcDbEllipse
 62
7
  6
CONTINUOUS
 10
-43.998627654
 20
43.998627654
 30
0.0
 11
-0.7090462434
 21
0.7090462434
 31
0.0
 40
0.9972646886
 41
-0.7840286355
 42
0.7840286355
  0
ELLIPSE
  5
302
100
AcDbEntity
  8
0
100
AcDbEllipse
 62
7
  6
CONTINUOUS
 10
21.7989021232
 20
-21.6989021232
 30
0.0
 11
0.5672369947
 21
-0.5672369947
 31
0.0
 40
0.9972646886
 41
-0.7840286355
 42
0.7840286355
  0
ELLIPSE
  5
303
100
AcDbEntity
  8
0
100
AcDbEllipse
 62
7
  6
CONTINUOUS
 10
21.7989021232
 20
21.6989021232
 30
0.0
 11
0.5672369947
 21
0.5672369947
 31
0.0
 40
0.9972646886
 41
-0.7840286355
 42
0.7840286355
  0
ELLIPSE
  5
304
100
AcDbEntity
  8
0
100
AcDbEllipse
 62
7
  6
CONTINUOUS
 10
-21.7989021232
 20
21.6989021232
 30
0.0
 11
0.5672369947
 21
-0.5672369947
 31
0.0
 40
0.9972646886
 41
2.3575640181
 42
3.9256212891
  0
ELLIPSE
  5
305
100
AcDbEntity
  8
0
100
AcDbEllipse
 62
7
  6
CONTINUOUS
 10
-21.7989021232
 20
-21.6989021232
 30
0.0
 11
0.5672369947
 21
0.5672369947
 31
0.0
 40
0.9972646886
 41
-3.9256212891
 42
-2.3575640181
  0
ENDSEC
  0
SECTION
  2
OBJECTS
  0
DICTIONARY
  5
C
100
AcDbDictionary
280
0
281
1
  3
ACAD_GROUP
350
D
  3
ACAD_MLINESTYLE
350
17
  3
ACAD_LAYOUT
350
1A
  3
ACAD_PLOTSETTINGS
350
19
  3
ACAD_PLOTSTYLENAME
350
E
  0
DICTIONARY
  5
D
102
{ACAD_REACTORS
330
C
102
}
100
AcDbDictionary
280
0
281
1
  0
ACDBDICTIONARYWDFLT
  5
E
102
{ACAD_REACTORS
330
C
102
}
100
AcDbDictionary
281
1
  3
Normal
350
F
100
AcDbDictionaryWithDefault
340
F
  0
DICTIONARY
  5
17
102
{ACAD_REACTORS
330
C
102
}
100
AcDbDictionary
280
0
281
1
  3
Standard
350
18
  0
DICTIONARY
  5
19
102
{ACAD_REACTORS
330
C
102
}
100
AcDbDictionary
281
1
  0
DICTIONARY
  5
1A
102
{ACAD_REACTORS
330
C
102
}
100
AcDbDictionary
281
1
  3
Model
350
306
  3
Layout1
350
307
  0
ACDBPLACEHOLDER
  5
F
102
{ACAD_REACTORS
330
E
102
}
  0
MLINESTYLE
  5
18
102
{ACAD_REACTORS
330
17
102
}
100
AcDbMlineStyle
  2
STANDARD
 70
0
  3

 62
256
 51
90.0
 52
90.0
 71
2
 49
0.5
 62
256
  6
BYLAYER
 49
-0.5
 62
256
  6
BYLAYER
  0
LAYOUT
  5
306
102
{ACAD_REACTORS
330
1A
102
}
100
AcDbPlotSettings
  1

  2
none_device
  4
ISO_A4_(297.00_x_210.00_MM)
  6

 40
0.0
 41
0.0
 42
0.0
 43
0.0
 44
297.0
 45
210.0
 46
0.0
 47
0.0
 48
0.0
 49
0.0
140
0.0
141
0.0
142
1.0
143
1.0
 70
1024
 72
1
 73
0
 74
0
  7

 75
0
147
1.0
148
0.0
149
0.0
100
AcDbLayout
  1
Model
 70
0
 71
0
 10
0.0
 20
0.0
 11
297.0
 21
210.0
 12
0.0
 22
0.0
 32
0.0
 14
0.0
 24
0.0
 34
0.0
 15
0.0
 25
0.0
 35
0.0
146
0.0
 13
0.0
 23
0.0
 33
0.0
 16
1.0
 26
0.0
 36
0.0
 17
0.0
 27
1.0
 37
0.0
 76
0
330
212
345
0
346
0
  0
LAYOUT
  5
307
102
{ACAD_REACTORS
330
1A
102
}
100
AcDbPlotSettings
  1

  2
none_device
  4
ISO_A4_(297.00_x_210.00_MM)
  6

 40
0.0
 41
0.0
 42
0.0
 43
0.0
 44
297.0
 45
210.0
 46
0.0
 47
0.0
 48
0.0
 49
0.0
140
0.0
141
0.0
142
1.0
143
1.0
 70
0
 72
1
 73
0
 74
0
  7

 75
0
147
1.0
148
0.0
149
0.0
100
AcDbLayout
  1
Layout1
 70
0
 71
1
 10
0.0
 20
0.0
 11
297.0
 21
210.0
 12
0.0
 22
0.0
 32
0.0
 14
0.0
 24
0.0
 34
0.0
 15
0.0
 25
0.0
 35
0.0
146
0.0
 13
0.0
 23
0.0
 33
0.0
 16
1.0
 26
0.0
 36
0.0
 17
0.0
 27
1.0
 37
0.0
 76
0
330
213
345
0
346
0
  0
ENDSEC
  0
EOF
