  0
SECTION
  2
HEADER
  9
$ACADVER
  1
AC1021
  9
$DWGCODEPAGE
  3
ANSI_1252
  9
$EXTMAX
 10
297.0
 20
210.0
 30
0.0
  9
$EXTMIN
 10
0.0
 20
0.0
 30
0.0
  9
$LIMMIN
 10
0.0
 20
0.0
  9
$LIMMAX
 10
297.0
 20
210.0
  9
$VIEWCTR
 10
148.5
 20
105.0
  9
$VIEWSIZE
 40
210.0
  9
$CLAYER
  8
0
  9
$LTSCALE
 40
16.335
  9
$CELTYPE
  6
BYLAYER
  9
$DIMSCALE
 40
1.0
  9
$DIMASZ
 40
3.0
  9
$DIMEXO
 40
1.85625
  9
$DIMDLI
 40
11.286
  9
$DIMEXE
 40
5.346
  9
$DIMCEN
 40
2.673
  9
$DIMLFAC
 40
1.0
  9
$DIMBLK
  1
_FILLED
  9
$DIMTXT
 40
3.0
  9
$DIMTOL
 70
1
  9
$DIMLIM
 70
0
  9
$DIMTFAC
 40
1.0
  9
$DIMTP
 40
0.01
  9
$DIMTM
 40
0.01
  9
$PDMODE
 70
3
  9
$PDSIZE
 40
3.0
  9
$HANDSEED
  5
438
  9
$TILEMODE
 70
1
  9
$MEASUREMENT
 70
1
  9
$INSUNITS
 70
4
  0
ENDSEC
  0
SECTION
  2
CLASSES
  0
CLASS
  1
ACDBDICTIONARYWDFLT
  2
AcDbDictionaryWithDefault
  3
AutoCAD 2000
 90
0
 91
1
280
0
281
0
  0
CLASS
  1
ACDBPLACEHOLDER
  2
AcDbPlaceHolder
  3
AutoCAD 2000
 90
0
 91
1
280
0
281
0
  0
CLASS
  1
LAYOUT
  2
AcDbLayout
  3
AutoCAD 2000
 90
0
 91
0
280
0
281
0
  0
ENDSEC
  0
SECTION
  2
TABLES
  0
TABLE
  2
VPORT
  5
8
100
AcDbSymbolTable
 70
2
  0
VPORT
  5
1F4
100
AcDbSymbolTableRecord
100
AcDbViewportTableRecord
  2
*ACTIVE
 70
0
 10
0.0
 20
0.0
 11
1.0
 21
1.0
 12
148.5
 22
105.0
 13
0.0
 23
0.0
 14
1.0
 24
1.0
 15
0.0
 25
0.0
 16
0.0
 26
0.0
 36
1.0
 17
0.0
 27
0.0
 37
0.0
 40
210.0
 41
1.4142857143
 42
50.0
 43
0.0
 44
0.0
 50
0.0
 51
0.0
 71
0
 72
100
 73
1
 74
1
 75
0
 76
0
 77
0
 78
0
  0
ENDTAB
  0
TABLE
  2
LTYPE
  5
5
100
AcDbSymbolTable
 70
6
  0
LTYPE
  5
14
100
AcDbSymbolTableRecord
100
AcDbLinetypeTableRecord
  2
BYBLOCK
 70
0
  3

 72
65
 73
0
 40
0.0
  0
LTYPE
  5
15
100
AcDbSymbolTableRecord
100
AcDbLinetypeTableRecord
  2
BYLAYER
 70
0
  3

 72
65
 73
0
 40
0.0
  0
LTYPE
  5
16
100
AcDbSymbolTableRecord
100
AcDbLinetypeTableRecord
  2
CONTINUOUS
 70
64
  3
Solid line
 72
65
 73
0
 40
0.0
  0
LTYPE
  5
1F5
100
AcDbSymbolTableRecord
100
AcDbLinetypeTableRecord
  2
CENTER
 70
64
  3
____ _ ____ _ ____ _ ____ _ ____ _ ____ _ ____
 72
65
 73
4
 40
0.6
 49
0.375
 74
0
 49
-0.075
 74
0
 49
0.075
 74
0
 49
-0.075
 74
0
  0
LTYPE
  5
1F6
100
AcDbSymbolTableRecord
100
AcDbLinetypeTableRecord
  2
HIDDEN
 70
64
  3
- - - - - - - - - - - - - - - - - - - -
 72
65
 73
2
 40
0.2
 49
0.1
 74
0
 49
-0.1
 74
0
  0
LTYPE
  5
1F7
100
AcDbSymbolTableRecord
100
AcDbLinetypeTableRecord
  2
PHANTOM
 70
64
  3
_____ _ _ _____ _ _ _____ _ _ _____
 72
65
 73
6
 40
0.8
 49
0.45
 74
0
 49
-0.05
 74
0
 49
0.1
 74
0
 49
-0.05
 74
0
 49
0.1
 74
0
 49
-0.05
 74
0
  0
LTYPE
  5
1F8
100
AcDbSymbolTableRecord
100
AcDbLinetypeTableRecord
  2
DOT
 70
64
  3
. . . . . . . . . . . . . . . . . . . .
 72
65
 73
2
 40
0.2
 49
0.1
 74
0
 49
-0.1
 74
0
  0
LTYPE
  5
1F9
100
AcDbSymbolTableRecord
100
AcDbLinetypeTableRecord
  2
DASHED
 70
64
  3
- - - - - - - - - - - - - - - - - - - -
 72
65
 73
2
 40
0.2
 49
0.1
 74
0
 49
-0.1
 74
0
  0
ENDTAB
  0
TABLE
  2
LAYER
  5
2
100
AcDbSymbolTable
 70
36
  0
LAYER
  5
10
100
AcDbSymbolTableRecord
100
AcDbLayerTableRecord
  2
0
 70
0
 62
7
  6
CONTINUOUS
370
-3
390
F
  0
LAYER
  5
1FA
100
AcDbSymbolTableRecord
100
AcDbLayerTableRecord
  2
DEFAULT_1
 70
0
 62
7
  6
CENTER
370
-3
390
F
  0
LAYER
  5
1FB
100
AcDbSymbolTableRecord
100
AcDbLayerTableRecord
  2
DEFAULT_2
 70
0
 62
7
  6
HIDDEN
370
-3
390
F
  0
LAYER
  5
1FC
100
AcDbSymbolTableRecord
100
AcDbLayerTableRecord
  2
DEFAULT_3
 70
0
 62
7
  6
PHANTOM
370
-3
390
F
  0
LAYER
  5
1FD
100
AcDbSymbolTableRecord
100
AcDbLayerTableRecord
  2
ASSI
 70
0
 62
7
  6
CONTINUOUS
370
-3
390
F
  0
LAYER
  5
1FE
100
AcDbSymbolTableRecord
100
AcDbLayerTableRecord
  2
COORDINATE
 70
0
 62
7
  6
CONTINUOUS
370
-3
390
F
  0
LAYER
  5
1FF
100
AcDbSymbolTableRecord
100
AcDbLayerTableRecord
  2
COPY_PUBLISH
 70
0
 62
7
  6
CONTINUOUS
370
-3
390
F
  0
LAYER
  5
200
100
AcDbSymbolTableRecord
100
AcDbLayerTableRecord
  2
COSMETICI
 70
0
 62
7
  6
CONTINUOUS
370
-3
390
F
  0
LAYER
  5
201
100
AcDbSymbolTableRecord
100
AcDbLayerTableRecord
  2
COSTOLE_APPOGGIO
 70
0
 62
7
  6
CONTINUOUS
370
-3
390
F
  0
LAYER
  5
202
100
AcDbSymbolTableRecord
100
AcDbLayerTableRecord
  2
CURVE
 70
0
 62
7
  6
CONTINUOUS
370
-3
390
F
  0
LAYER
  5
203
100
AcDbSymbolTableRecord
100
AcDbLayerTableRecord
  2
DRAFT
 70
0
 62
7
  6
CONTINUOUS
370
-3
390
F
  0
LAYER
  5
204
100
AcDbSymbolTableRecord
100
AcDbLayerTableRecord
  2
IMPORT_IGES
 70
0
 62
7
  6
CONTINUOUS
370
-3
390
F
  0
LAYER
  5
205
100
AcDbSymbolTableRecord
100
AcDbLayerTableRecord
  2
INTF_1
 70
0
 62
7
  6
CONTINUOUS
370
-3
390
F
  0
LAYER
  5
206
100
AcDbSymbolTableRecord
100
AcDbLayerTableRecord
  2
NOTE
 70
0
 62
7
  6
CONTINUOUS
370
-3
390
F
  0
LAYER
  5
207
100
AcDbSymbolTableRecord
100
AcDbLayerTableRecord
  2
PIANI
 70
0
 62
7
  6
CONTINUOUS
370
-3
390
F
  0
LAYER
  5
208
100
AcDbSymbolTableRecord
100
AcDbLayerTableRecord
  2
PUNTI
 70
0
 62
7
  6
CONTINUOUS
370
-3
390
F
  0
LAYER
  5
209
100
AcDbSymbolTableRecord
100
AcDbLayerTableRecord
  2
RACCORDO
 70
0
 62
7
  6
CONTINUOUS
370
-3
390
F
  0
LAYER
  5
20A
100
AcDbSymbolTableRecord
100
AcDbLayerTableRecord
  2
SCRITTA
 70
0
 62
7
  6
CONTINUOUS
370
-3
390
F
  0
LAYER
  5
20B
100
AcDbSymbolTableRecord
100
AcDbLayerTableRecord
  2
SIMBOLI
 70
0
 62
7
  6
CONTINUOUS
370
-3
390
F
  0
LAYER
  5
20C
100
AcDbSymbolTableRecord
100
AcDbLayerTableRecord
  2
SMUSSO
 70
0
 62
7
  6
CONTINUOUS
370
-3
390
F
  0
LAYER
  5
20D
100
AcDbSymbolTableRecord
100
AcDbLayerTableRecord
  2
SNAPLINE
 70
0
 62
7
  6
CONTINUOUS
370
-3
390
F
  0
LAYER
  5
20E
100
AcDbSymbolTableRecord
100
AcDbLayerTableRecord
  2
SUPERFICI
 70
0
 62
7
  6
CONTINUOUS
370
-3
390
F
  0
LAYER
  5
20F
100
AcDbSymbolTableRecord
100
AcDbLayerTableRecord
  2
TRASH
 70
0
 62
7
  6
CONTINUOUS
370
-3
390
F
  0
LAYER
  5
210
100
AcDbSymbolTableRecord
100
AcDbLayerTableRecord
  2
XSEC_DATUMS
 70
0
 62
7
  6
CONTINUOUS
370
-3
390
F
  0
ENDTAB
  0
TABLE
  2
STYLE
  5
3
100
AcDbSymbolTable
 70
1
  0
STYLE
  5
11
100
AcDbSymbolTableRecord
100
AcDbTextStyleTableRecord
  2
STANDARD
 70
0
 40
0.0
 41
0.8
 50
0.0
 71
0
 42
0.2
  3
txt
  4

  0
STYLE
  5
211
100
AcDbSymbolTableRecord
100
AcDbTextStyleTableRecord
  2
TEXTSTYLE_1
 70
0
 40
0.0
 41
0.8
 50
0.0
 71
0
 42
0.2
  3
gdt
  4

  0
ENDTAB
  0
TABLE
  2
VIEW
  5
6
100
AcDbSymbolTable
 70
0
  0
ENDTAB
  0
TABLE
  2
UCS
  5
7
100
AcDbSymbolTable
 70
0
  0
ENDTAB
  0
TABLE
  2
APPID
  5
9
100
AcDbSymbolTable
 70
1
  0
APPID
  5
212
100
AcDbSymbolTableRecord
100
AcDbRegAppTableRecord
  2
ACAD
 70
0
  0
ENDTAB
  0
TABLE
  2
BLOCK_RECORD
  5
1
100
AcDbSymbolTable
 70
0
  0
BLOCK_RECORD
  5
213
100
AcDbSymbolTableRecord
100
AcDbBlockTableRecord
  2
*Model_Space
  0
BLOCK_RECORD
  5
214
100
AcDbSymbolTableRecord
100
AcDbBlockTableRecord
  2
*Paper_Space
  0
BLOCK_RECORD
  5
215
100
AcDbSymbolTableRecord
100
AcDbBlockTableRecord
  2
_FILLED
  0
BLOCK_RECORD
  5
216
100
AcDbSymbolTableRecord
100
AcDbBlockTableRecord
  2
*D0
  0
BLOCK_RECORD
  5
217
100
AcDbSymbolTableRecord
100
AcDbBlockTableRecord
  2
*D1
  0
BLOCK_RECORD
  5
218
100
AcDbSymbolTableRecord
100
AcDbBlockTableRecord
  2
*D2
  0
ENDTAB
  0
TABLE
  2
DIMSTYLE
  5
A
100
AcDbSymbolTable
 70
1
100
AcDbDimStyleTable
 71
0
  0
DIMSTYLE
105
219
100
AcDbSymbolTableRecord
100
AcDbDimStyleTableRecord
  2
STANDARD
 70
0
  3

  4

 40
1.0
 41
3.0
 42
0.0625
 43
0.38
 44
0.18
 45
0.0
 46
0.0
 47
0.01
 48
0.01
140
3.0
141
0.09
142
0.0
143
25.4
144
1.0
145
0.0
146
1.0
147
0.09
 71
1.0
 72
0.0
 73
0
 74
0
 75
0
 76
0
 77
1
 78
8
170
0
171
2
172
0
173
0
174
0
175
0
176
0
177
0
178
0
270
2
271
2
272
2
273
2
274
2
275
0
280
0
281
0
282
0
283
1
284
8
285
0
286
0
287
3
288
0
340
11
341
215
342
215
343
215
344
215
  0
DIMSTYLE
105
21A
100
AcDbSymbolTableRecord
100
AcDbDimStyleTableRecord
  2
DIMSTYLE_1
 70
0
  3

  4

 40
1.0
 41
3.0
 42
0.0625
 43
0.38
 44
0.18
 45
0.0
 46
0.0
 47
0.0
 48
0.0
140
3.0
141
0.09
142
0.0
143
25.4
144
1.0
145
0.0
146
1.0
147
0.09
 71
0.0
 72
0.0
 73
0
 74
0
 75
0
 76
0
 77
1
 78
8
170
0
171
2
172
0
173
0
174
0
175
0
176
0
177
0
178
0
270
2
271
2
272
2
273
2
274
2
275
0
280
0
281
0
282
0
283
1
284
8
285
0
286
0
287
3
288
0
340
11
341
215
342
215
343
215
344
215
  0
DIMSTYLE
105
21B
100
AcDbSymbolTableRecord
100
AcDbDimStyleTableRecord
  2
DIMSTYLE_2
 70
0
  3

  4

 40
1.0
 41
3.0
 42
0.0625
 43
0.38
 44
0.18
 45
0.0
 46
0.0
 47
0.0
 48
0.0
140
3.0
141
0.09
142
0.0
143
25.4
144
1.0
145
0.0
146
1.0
147
0.09
 71
0.0
 72
0.0
 73
0
 74
0
 75
0
 76
0
 77
1
 78
8
170
0
171
2
172
0
173
0
174
0
175
0
176
0
177
0
178
0
270
2
271
1
272
1
273
2
274
2
275
0
280
0
281
0
282
0
283
1
284
8
285
0
286
0
287
3
288
0
340
11
341
215
342
215
343
215
344
215
  0
ENDTAB
  0
ENDSEC
  0
SECTION
  2
BLOCKS
  0
BLOCK
  5
20
100
AcDbEntity
  8
0
100
AcDbBlockBegin
  2
*Model_Space
 70
0
 10
0.0
 20
0.0
 30
0.0
  3
*Model_Space
  1

  0
ENDBLK
  5
21
100
AcDbEntity
  8
0
100
AcDbBlockEnd
  0
BLOCK
  5
1C
100
AcDbEntity
  8
0
100
AcDbBlockBegin
  2
*Paper_Space
 70
0
 10
0.0
 20
0.0
 30
0.0
  3
*Paper_Space
  1

  0
ENDBLK
  5
1D
100
AcDbEntity
  8
0
100
AcDbBlockEnd
  0
BLOCK
  5
21C
100
AcDbEntity
  8
0
100
AcDbBlockBegin
  2
_FILLED
 70
64
 10
0.0
 20
0.0
  3
_FILLED
  1

  0
SOLID
  5
21D
100
AcDbEntity
  8
0
  6
BYBLOCK
 62
0
100
AcDbTrace
 10
0.0
 20
0.0
 11
-1.0
 21
0.3166666667
 12
-1.0
 22
-0.3166666667
 13
-1.0
 23
-0.3166666667
  0
ENDBLK
  5
21E
100
AcDbEntity
  8
0
  6
BYBLOCK
 62
0
100
AcDbBlockEnd
  0
BLOCK
  5
21F
100
AcDbEntity
  8
0
100
AcDbBlockBegin
 62
7
  6
CONTINUOUS
  2
*D0
 70
65
 10
0.0
 20
0.0
  3
*D0
  1

  0
LINE
  5
220
100
AcDbEntity
  8
0
100
AcDbLine
 62
7
  6
CONTINUOUS
 10
72.6381647974
 20
128.1822296089
 11
72.6381647974
 21
143.6490872308
  0
LINE
  5
221
100
AcDbEntity
  8
0
100
AcDbLine
 62
7
  6
CONTINUOUS
 10
162.6381647974
 20
128.1822296089
 11
162.6381647974
 21
143.6490872308
  0
LINE
  5
222
100
AcDbEntity
  8
0
100
AcDbLine
 62
7
  6
CONTINUOUS
 10
72.6381647974
 20
142.1490872308
 11
117.6381647974
 21
142.1490872308
  0
LINE
  5
223
100
AcDbEntity
  8
0
100
AcDbLine
 62
7
  6
CONTINUOUS
 10
162.6381647974
 20
142.1490872308
 11
117.6381647974
 21
142.1490872308
  0
INSERT
  5
224
100
AcDbEntity
  8
0
100
AcDbBlockReference
 62
7
  6
CONTINUOUS
  2
_FILLED
 10
72.6381647974
 20
142.1490872308
 41
3.0
 42
3.0
 43
3.0
 50
180.0
  0
INSERT
  5
225
100
AcDbEntity
  8
0
100
AcDbBlockReference
 62
7
  6
CONTINUOUS
  2
_FILLED
 10
162.6381647974
 20
142.1490872308
 41
3.0
 42
3.0
 43
3.0
  0
ENDBLK
  5
226
100
AcDbEntity
  8
0
  6
BYBLOCK
 62
0
100
AcDbBlockEnd
  0
BLOCK
  5
227
100
AcDbEntity
  8
0
100
AcDbBlockBegin
 62
7
  6
CONTINUOUS
  2
*D1
 70
65
 10
0.0
 20
0.0
  3
*D1
  1

  0
LINE
  5
228
100
AcDbEntity
  8
0
100
AcDbLine
 62
7
  6
CONTINUOUS
 10
162.3381647974
 20
128.4822296089
 11
181.0736506515
 21
128.4822296089
  0
LINE
  5
229
100
AcDbEntity
  8
0
100
AcDbLine
 62
7
  6
CONTINUOUS
 10
162.3381647974
 20
38.4822296089
 11
181.0736506515
 21
38.4822296089
  0
LINE
  5
22A
100
AcDbEntity
  8
0
100
AcDbLine
 62
7
  6
CONTINUOUS
 10
179.5736506515
 20
128.4822296089
 11
179.5736506515
 21
83.4822296089
  0
LINE
  5
22B
100
AcDbEntity
  8
0
100
AcDbLine
 62
7
  6
CONTINUOUS
 10
179.5736506515
 20
38.4822296089
 11
179.5736506515
 21
83.4822296089
  0
INSERT
  5
22C
100
AcDbEntity
  8
0
100
AcDbBlockReference
 62
7
  6
CONTINUOUS
  2
_FILLED
 10
179.5736506515
 20
128.4822296089
 41
3.0
 42
3.0
 43
3.0
 50
90.0
  0
INSERT
  5
22D
100
AcDbEntity
  8
0
100
AcDbBlockReference
 62
7
  6
CONTINUOUS
  2
_FILLED
 10
179.5736506515
 20
38.4822296089
 41
3.0
 42
3.0
 43
3.0
 50
270.0
  0
ENDBLK
  5
22E
100
AcDbEntity
  8
0
  6
BYBLOCK
 62
0
100
AcDbBlockEnd
  0
BLOCK
  5
22F
100
AcDbEntity
  8
0
100
AcDbBlockBegin
 62
7
  6
CONTINUOUS
  2
*D2
 70
65
 10
0.0
 20
0.0
  3
*D2
  1

  0
LINE
  5
230
100
AcDbEntity
  8
0
100
AcDbLine
 62
7
  6
CONTINUOUS
 10
35.9995745667
 20
126.5447597161
 11
35.9995745655
 21
143.9807590481
  0
LINE
  5
231
100
AcDbEntity
  8
0
100
AcDbLine
 62
7
  6
CONTINUOUS
 10
27.4295745681
 20
83.9822295779
 11
27.4295745639
 21
143.9807590476
  0
LINE
  5
232
100
AcDbEntity
  8
0
100
AcDbLine
 62
7
  6
CONTINUOUS
 10
35.9995745656
 20
142.4807590481
 11
39.9995745656
 21
142.4807590484
  0
LINE
  5
233
100
AcDbEntity
  8
0
100
AcDbLine
 62
7
  6
CONTINUOUS
 10
39.9995745656
 20
142.4807590484
 11
31.7145745648
 21
142.4807590478
  0
LINE
  5
234
100
AcDbEntity
  8
0
100
AcDbLine
 62
7
  6
CONTINUOUS
 10
27.429574564
 20
142.4807590476
 11
23.429574564
 21
142.4807590473
  0
LINE
  5
235
100
AcDbEntity
  8
0
100
AcDbLine
 62
7
  6
CONTINUOUS
 10
23.429574564
 20
142.4807590473
 11
31.7145745648
 21
142.4807590478
  0
INSERT
  5
236
100
AcDbEntity
  8
0
100
AcDbBlockReference
 62
7
  6
CONTINUOUS
  2
_FILLED
 10
35.9995745656
 20
142.4807590481
 41
3.0
 42
3.0
 43
3.0
 50
180.0000000039
  0
INSERT
  5
237
100
AcDbEntity
  8
0
100
AcDbBlockReference
 62
7
  6
CONTINUOUS
  2
_FILLED
 10
27.429574564
 20
142.4807590476
 41
3.0
 42
3.0
 43
3.0
 50
0.0000000039
  0
ENDBLK
  5
238
100
AcDbEntity
  8
0
  6
BYBLOCK
 62
0
100
AcDbBlockEnd
  0
ENDSEC
  0
SECTION
  2
ENTITIES
  0
DIMENSION
  5
239
100
AcDbEntity
  8
0
100
AcDbDimension
 62
7
  6
CONTINUOUS
  2
*D0
 10
162.6381647974
 20
142.1490872308
 11
115.2810219403
 21
142.8990872308
 70
160
 71
2
 42
90.0
  3
DIMSTYLE_1
100
AcDbAlignedDimension
 13
72.6381647974
 23
128.1822296089
 14
162.6381647974
 24
128.1822296089
100
AcDbRotatedDimension
  0
DIMENSION
  5
23A
100
AcDbEntity
  8
0
100
AcDbDimension
 62
7
  6
CONTINUOUS
  2
*D1
 10
179.5736506515
 20
38.4822296089
 11
178.8236506515
 21
81.1250867517
 70
160
 71
2
 42
90.0
  3
DIMSTYLE_1
100
AcDbAlignedDimension
 13
162.3381647974
 23
128.4822296089
 14
162.3381647974
 24
38.4822296089
 50
270.0
100
AcDbRotatedDimension
  0
DIMENSION
  5
23B
100
AcDbEntity
  8
0
100
AcDbDimension
 62
7
  6
CONTINUOUS
  2
*D2
 10
27.429574564
 20
142.4807590476
 11
28.5002888505
 21
143.2307590478
 70
160
 71
2
 42
8.5700000015
  3
DIMSTYLE_2
100
AcDbAlignedDimension
 13
35.9995745667
 23
126.5447597161
 14
27.4295745681
 24
83.9822295779
 50
180.0000000039
100
AcDbRotatedDimension
  0
LWPOLYLINE
  5
23C
100
AcDbEntity
  8
RACCORDO
100
AcDbPolyline
 62
253
  6
CONTINUOUS
 90
19
 70
0
 10
72.7488244766
 20
127.5725865301
 10
72.7541546853
 20
127.5798720338
 10
72.7628232989
 20
127.5870541886
 10
72.7747715812
 20
127.59408433
 10
72.7899185742
 20
127.6009148233
 10
72.8081616461
 20
127.6074993867
 10
72.8293771869
 20
127.6137934049
 10
72.8534214461
 20
127.6197542311
 10
72.8801315066
 20
127.6253414761
 10
72.9093263886
 20
127.6305172821
 10
72.9408082756
 20
127.6352465792
 10
72.9743638555
 20
127.6394973228
 10
73.0097657649
 20
127.6432407109
 10
73.0467741305
 20
127.6464513793
 10
73.085138194
 20
127.6491075734
 10
73.1245980114
 20
127.6511912954
 10
73.1648862141
 20
127.6526884268
 10
73.2057298205
 20
127.6535888234
 10
73.2468520858
 20
127.6538863845
  0
LWPOLYLINE
  5
23D
100
AcDbEntity
  8
ASSI
100
AcDbPolyline
 62
253
  6
CONTINUOUS
 90
19
 70
0
 10
72.7488244766
 20
127.5725865301
 10
72.7541546853
 20
127.5798720338
 10
72.7628232989
 20
127.5870541886
 10
72.7747715812
 20
127.59408433
 10
72.7899185742
 20
127.6009148233
 10
72.8081616461
 20
127.6074993867
 10
72.8293771869
 20
127.6137934049
 10
72.8534214461
 20
127.6197542311
 10
72.8801315066
 20
127.6253414761
 10
72.9093263886
 20
127.6305172821
 10
72.9408082756
 20
127.6352465792
 10
72.9743638555
 20
127.6394973228
 10
73.0097657649
 20
127.6432407109
 10
73.0467741305
 20
127.6464513793
 10
73.085138194
 20
127.6491075734
 10
73.1245980114
 20
127.6511912954
 10
73.1648862141
 20
127.6526884268
 10
73.2057298205
 20
127.6535888234
 10
73.2468520858
 20
127.6538863845
  0
LWPOLYLINE
  5
23E
100
AcDbEntity
  8
RACCORDO
100
AcDbPolyline
 62
253
  6
CONTINUOUS
 90
19
 70
0
 10
72.7488179737
 20
39.3918725835
 10
72.7541482916
 20
39.3845871032
 10
72.7628170608
 20
39.3774049696
 10
72.7747655437
 20
39.3703748473
 10
72.78991278
 20
39.3635443708
 10
72.8081561354
 20
39.356959822
 10
72.8293719971
 20
39.3506658162
 10
72.8534166109
 20
39.3447050002
 10
72.880127056
 20
39.3391177632
 10
72.9093223484
 20
39.3339419631
 10
72.9408046672
 20
39.3292126699
 10
72.9743606952
 20
39.3249619284
 10
73.0097630643
 20
39.3212185404
 10
73.0467718959
 20
39.3180078705
 10
73.0851364263
 20
39.3153516734
 10
73.1245967061
 20
39.3132679469
 10
73.1648853611
 20
39.3117708099
 10
73.2057294044
 20
39.3108704067
 10
73.2468520858
 20
39.3105728381
  0
LWPOLYLINE
  5
23F
100
AcDbEntity
  8
ASSI
100
AcDbPolyline
 62
253
  6
CONTINUOUS
 90
19
 70
0
 10
72.7488179737
 20
39.3918725835
 10
72.7541482916
 20
39.3845871032
 10
72.7628170608
 20
39.3774049696
 10
72.7747655437
 20
39.3703748473
 10
72.78991278
 20
39.3635443708
 10
72.8081561354
 20
39.356959822
 10
72.8293719971
 20
39.3506658162
 10
72.8534166109
 20
39.3447050002
 10
72.880127056
 20
39.3391177632
 10
72.9093223484
 20
39.3339419631
 10
72.9408046672
 20
39.3292126699
 10
72.9743606952
 20
39.3249619284
 10
73.0097630643
 20
39.3212185404
 10
73.0467718959
 20
39.3180078705
 10
73.0851364263
 20
39.3153516734
 10
73.1245967061
 20
39.3132679469
 10
73.1648853611
 20
39.3117708099
 10
73.2057294044
 20
39.3108704067
 10
73.2468520858
 20
39.3105728381
  0
LWPOLYLINE
  5
240
100
AcDbEntity
  8
0
100
AcDbPolyline
 62
7
  6
CONTINUOUS
 90
10
 70
0
 43
0.3500000006
 10
115.7095975342
 20
142.8990961304
 10
116.5667354736
 20
143.7562340698
 10
116.7810199585
 20
144.6133720093
 10
116.7810199585
 20
145.4705099487
 10
116.3524509888
 20
145.8990789185
 10
115.7095975342
 20
145.8990789185
 10
115.2810195007
 20
145.4705099487
 10
115.2810195007
 20
144.6133720093
 10
115.7095975342
 20
144.1848030396
 10
116.6381666565
 20
144.1848030396
  0
LINE
  5
241
100
AcDbEntity
  8
RACCORDO
100
AcDbLine
 62
7
  6
CONTINUOUS
 10
72.6381647974
 20
39.2822296089
 11
72.6381647974
 21
60.9676073866
  0
LINE
  5
242
100
AcDbEntity
  8
DRAFT
100
AcDbLine
 62
7
  6
CONTINUOUS
 10
72.6381647974
 20
60.9676073866
 11
72.6381647974
 21
105.9968518311
  0
LINE
  5
243
100
AcDbEntity
  8
RACCORDO
100
AcDbLine
 62
7
  6
CONTINUOUS
 10
72.6381647974
 20
105.9968518311
 11
72.6381647974
 21
127.6822296089
  0
LINE
  5
244
100
AcDbEntity
  8
ASSI
100
AcDbLine
 62
7
  6
CONTINUOUS
 10
72.6381647974
 20
39.2822296089
 11
72.6381647974
 21
127.6822296089
  0
LINE
  5
245
100
AcDbEntity
  8
RACCORDO
100
AcDbLine
 62
253
  6
CONTINUOUS
 10
72.7488179706
 20
39.3918725935
 11
72.7469873244
 21
75.974566577
  0
LINE
  5
246
100
AcDbEntity
  8
ASSI
100
AcDbLine
 62
253
  6
CONTINUOUS
 10
72.7488179706
 20
39.3918725935
 11
72.7469873244
 21
75.974566577
  0
LINE
  5
247
100
AcDbEntity
  8
RACCORDO
100
AcDbLine
 62
253
  6
CONTINUOUS
 10
73.2468520858
 20
39.3105728301
 11
73.2450841342
 21
75.9669449044
  0
LINE
  5
248
100
AcDbEntity
  8
ASSI
100
AcDbLine
 62
253
  6
CONTINUOUS
 10
73.2468520858
 20
39.3105728301
 11
73.2450841342
 21
75.9669449044
  0
LINE
  5
249
100
AcDbEntity
  8
RACCORDO
100
AcDbLine
 62
253
  6
CONTINUOUS
 10
73.5409799771
 20
128.3615642361
 11
73.5409799771
 21
127.9536249746
  0
LINE
  5
24A
100
AcDbEntity
  8
ASSI
100
AcDbLine
 62
253
  6
CONTINUOUS
 10
73.5409799771
 20
128.3615642361
 11
73.5409799771
 21
127.9536249746
  0
LINE
  5
24B
100
AcDbEntity
  8
RACCORDO
100
AcDbLine
 62
253
  6
CONTINUOUS
 10
73.5409799771
 20
38.6028949817
 11
73.5409799771
 21
39.0108342431
  0
LINE
  5
24C
100
AcDbEntity
  8
ASSI
100
AcDbLine
 62
253
  6
CONTINUOUS
 10
73.5409799771
 20
38.6028949817
 11
73.5409799771
 21
39.0108342431
  0
LINE
  5
24D
100
AcDbEntity
  8
RACCORDO
100
AcDbLine
 62
253
  6
CONTINUOUS
 10
72.7469873244
 20
75.974566577
 11
72.7488179706
 21
127.5725866243
  0
LINE
  5
24E
100
AcDbEntity
  8
ASSI
100
AcDbLine
 62
253
  6
CONTINUOUS
 10
72.7469873244
 20
75.974566577
 11
72.7488179706
 21
127.5725866243
  0
LINE
  5
24F
100
AcDbEntity
  8
RACCORDO
100
AcDbLine
 62
253
  6
CONTINUOUS
 10
73.2450841342
 20
75.9669449044
 11
73.2468520858
 21
127.6538863877
  0
LINE
  5
250
100
AcDbEntity
  8
ASSI
100
AcDbLine
 62
253
  6
CONTINUOUS
 10
73.2450841342
 20
75.9669449044
 11
73.2468520858
 21
127.6538863877
  0
LWPOLYLINE
  5
251
100
AcDbEntity
  8
RACCORDO
100
AcDbPolyline
 62
253
  6
CONTINUOUS
 90
25
 70
0
 10
73.2468520858
 20
127.6538863877
 10
73.2474954007
 20
127.6737622559
 10
73.2493701502
 20
127.693380128
 10
73.2524763345
 20
127.7127400206
 10
73.256838236
 20
127.7319276109
 10
73.2624315721
 20
127.7508572501
 10
73.2691834957
 20
127.7692719809
 10
73.2771079004
 20
127.7871575535
 10
73.2861908925
 20
127.8045282795
 10
73.2963179433
 20
127.8211700707
 10
73.3075022648
 20
127.8370739898
 10
73.3197306451
 20
127.8522490527
 10
73.3328489194
 20
127.8665081204
 10
73.3468683792
 20
127.8798396928
 10
73.361777733
 20
127.8922553538
 10
73.3773889419
 20
127.9036026026
 10
73.3937095257
 20
127.9138672265
 10
73.4107319645
 20
127.923063515
 10
73.4282456595
 20
127.9310817242
 10
73.4462634865
 20
127.9379078209
 10
73.4647725696
 20
127.9435558965
 10
73.4835236828
 20
127.9479583922
 10
73.5024337508
 20
127.951092799
 10
73.5215858489
 20
127.9529816572
 10
73.5409799771
 20
127.9536249746
  0
LWPOLYLINE
  5
252
100
AcDbEntity
  8
ASSI
100
AcDbPolyline
 62
253
  6
CONTINUOUS
 90
25
 70
0
 10
73.2468520858
 20
127.6538863877
 10
73.2474954007
 20
127.6737622559
 10
73.2493701502
 20
127.693380128
 10
73.2524763345
 20
127.7127400206
 10
73.256838236
 20
127.7319276109
 10
73.2624315721
 20
127.7508572501
 10
73.2691834957
 20
127.7692719809
 10
73.2771079004
 20
127.7871575535
 10
73.2861908925
 20
127.8045282795
 10
73.2963179433
 20
127.8211700707
 10
73.3075022648
 20
127.8370739898
 10
73.3197306451
 20
127.8522490527
 10
73.3328489194
 20
127.8665081204
 10
73.3468683792
 20
127.8798396928
 10
73.361777733
 20
127.8922553538
 10
73.3773889419
 20
127.9036026026
 10
73.3937095257
 20
127.9138672265
 10
73.4107319645
 20
127.923063515
 10
73.4282456595
 20
127.9310817242
 10
73.4462634865
 20
127.9379078209
 10
73.4647725696
 20
127.9435558965
 10
73.4835236828
 20
127.9479583922
 10
73.5024337508
 20
127.951092799
 10
73.5215858489
 20
127.9529816572
 10
73.5409799771
 20
127.9536249746
  0
LWPOLYLINE
  5
253
100
AcDbEntity
  8
RACCORDO
100
AcDbPolyline
 62
253
  6
CONTINUOUS
 90
25
 70
0
 10
72.7488179705
 20
127.5725866244
 10
72.7512470087
 20
127.6245580312
 10
72.7570126588
 20
127.6762206329
 10
72.7660842907
 20
127.7273606601
 10
72.778415433
 20
127.7777664322
 10
72.7939502137
 20
127.8272309213
 10
72.8126249918
 20
127.8755521799
 10
72.8343587018
 20
127.9225340577
 10
72.8590550498
 20
127.9679811256
 10
72.8866096565
 20
128.0117010943
 10
72.9169023406
 20
128.0535134228
 10
72.9498036755
 20
128.0932499783
 10
72.985179103
 20
128.1307490001
 10
73.0228780746
 20
128.1658568542
 10
73.0627417327
 20
128.1984322046
 10
73.1046106773
 20
128.2283451038
 10
73.1483121794
 20
128.2554742327
 10
73.1936616993
 20
128.2797081188
 10
73.2404721704
 20
128.3009475138
 10
73.2885438994
 20
128.3191038209
 10
73.3376821253
 20
128.334106244
 10
73.3877008171
 20
128.3458977255
 10
73.4383995036
 20
128.3544281702
 10
73.4895630185
 20
128.3596583733
 10
73.5409799771
 20
128.3615642361
  0
LWPOLYLINE
  5
254
100
AcDbEntity
  8
ASSI
100
AcDbPolyline
 62
253
  6
CONTINUOUS
 90
25
 70
0
 10
72.7488179705
 20
127.5725866244
 10
72.7512470087
 20
127.6245580312
 10
72.7570126588
 20
127.6762206329
 10
72.7660842907
 20
127.7273606601
 10
72.778415433
 20
127.7777664322
 10
72.7939502137
 20
127.8272309213
 10
72.8126249918
 20
127.8755521799
 10
72.8343587018
 20
127.9225340577
 10
72.8590550498
 20
127.9679811256
 10
72.8866096565
 20
128.0117010943
 10
72.9169023406
 20
128.0535134228
 10
72.9498036755
 20
128.0932499783
 10
72.985179103
 20
128.1307490001
 10
73.0228780746
 20
128.1658568542
 10
73.0627417327
 20
128.1984322046
 10
73.1046106773
 20
128.2283451038
 10
73.1483121794
 20
128.2554742327
 10
73.1936616993
 20
128.2797081188
 10
73.2404721704
 20
128.3009475138
 10
73.2885438994
 20
128.3191038209
 10
73.3376821253
 20
128.334106244
 10
73.3877008171
 20
128.3458977255
 10
73.4383995036
 20
128.3544281702
 10
73.4895630185
 20
128.3596583733
 10
73.5409799771
 20
128.3615642361
  0
LWPOLYLINE
  5
255
100
AcDbEntity
  8
RACCORDO
100
AcDbPolyline
 62
253
  6
CONTINUOUS
 90
16
 70
0
 10
72.7471071254
 20
106.059326266
 10
72.75238948
 20
106.0613778871
 10
72.761016989
 20
106.0634005959
 10
72.7729310896
 20
106.0653806622
 10
72.7880509098
 20
106.0673046456
 10
72.8062738176
 20
106.0691594864
 10
72.8274761174
 20
106.0709325938
 10
72.8515138896
 20
106.0726119323
 10
72.878223968
 20
106.0741861027
 10
72.9074250467
 20
106.0756444196
 10
72.9389189113
 20
106.076976984
 10
72.9724917838
 20
106.0781747507
 10
73.0079157746
 20
106.0792295892
 10
73.0449504284
 20
106.0801343395
 10
73.0833443572
 20
106.0808828602
 10
73.122836946
 20
106.0814700703
  0
LWPOLYLINE
  5
256
100
AcDbEntity
  8
ASSI
100
AcDbPolyline
 62
253
  6
CONTINUOUS
 90
16
 70
0
 10
72.7471071254
 20
106.059326266
 10
72.75238948
 20
106.0613778871
 10
72.761016989
 20
106.0634005959
 10
72.7729310896
 20
106.0653806622
 10
72.7880509098
 20
106.0673046456
 10
72.8062738176
 20
106.0691594864
 10
72.8274761174
 20
106.0709325938
 10
72.8515138896
 20
106.0726119323
 10
72.878223968
 20
106.0741861027
 10
72.9074250467
 20
106.0756444196
 10
72.9389189113
 20
106.076976984
 10
72.9724917838
 20
106.0781747507
 10
73.0079157746
 20
106.0792295892
 10
73.0449504284
 20
106.0801343395
 10
73.0833443572
 20
106.0808828602
 10
73.122836946
 20
106.0814700703
  0
LWPOLYLINE
  5
257
100
AcDbEntity
  8
RACCORDO
100
AcDbPolyline
 62
253
  6
CONTINUOUS
 90
16
 70
0
 10
72.7471056394
 20
105.9968542834
 10
72.7523879326
 20
105.9989003405
 10
72.7610153888
 20
106.0009176346
 10
72.7729294453
 20
106.0028924723
 10
72.7880492304
 20
106.0048114487
 10
72.806272112
 20
106.0066615378
 10
72.8274743944
 20
106.0084301814
 10
72.8515121579
 20
106.010105374
 10
72.8782222358
 20
106.0116757445
 10
72.9074233218
 20
106.0131306334
 10
72.938917201
 20
106.0144601651
 10
72.9724900951
 20
106.0156553146
 10
73.0079141135
 20
106.0167079694
 10
73.0449488003
 20
106.0176109842
 10
73.0833427666
 20
106.0183582294
 10
73.1228353967
 20
106.0189446327
  0
LWPOLYLINE
  5
258
100
AcDbEntity
  8
ASSI
100
AcDbPolyline
 62
253
  6
CONTINUOUS
 90
16
 70
0
 10
72.7471056394
 20
105.9968542834
 10
72.7523879326
 20
105.9989003405
 10
72.7610153888
 20
106.0009176346
 10
72.7729294453
 20
106.0028924723
 10
72.7880492304
 20
106.0048114487
 10
72.806272112
 20
106.0066615378
 10
72.8274743944
 20
106.0084301814
 10
72.8515121579
 20
106.010105374
 10
72.8782222358
 20
106.0116757445
 10
72.9074233218
 20
106.0131306334
 10
72.938917201
 20
106.0144601651
 10
72.9724900951
 20
106.0156553146
 10
73.0079141135
 20
106.0167079694
 10
73.0449488003
 20
106.0176109842
 10
73.0833427666
 20
106.0183582294
 10
73.1228353967
 20
106.0189446327
  0
LINE
  5
259
100
AcDbEntity
  8
RACCORDO
100
AcDbLine
 62
7
  6
CONTINUOUS
 10
161.8381647974
 20
38.4822296089
 11
73.4381647974
 21
38.4822296089
  0
LINE
  5
25A
100
AcDbEntity
  8
ASSI
100
AcDbLine
 62
7
  6
CONTINUOUS
 10
161.8381647974
 20
38.4822296089
 11
73.4381647974
 21
38.4822296089
  0
LINE
  5
25B
100
AcDbEntity
  8
RACCORDO
100
AcDbLine
 62
253
  6
CONTINUOUS
 10
161.7353496177
 20
38.6028949817
 11
73.5409799771
 21
38.6028949817
  0
LINE
  5
25C
100
AcDbEntity
  8
ASSI
100
AcDbLine
 62
253
  6
CONTINUOUS
 10
161.7353496177
 20
38.6028949817
 11
73.5409799771
 21
38.6028949817
  0
LINE
  5
25D
100
AcDbEntity
  8
RACCORDO
100
AcDbLine
 62
253
  6
CONTINUOUS
 10
161.7353496177
 20
39.0108342431
 11
73.5409799771
 21
39.0108342431
  0
LINE
  5
25E
100
AcDbEntity
  8
ASSI
100
AcDbLine
 62
253
  6
CONTINUOUS
 10
161.7353496177
 20
39.0108342431
 11
73.5409799771
 21
39.0108342431
  0
LWPOLYLINE
  5
25F
100
AcDbEntity
  8
RACCORDO
100
AcDbPolyline
 62
253
  6
CONTINUOUS
 90
25
 70
0
 10
73.5409799771
 20
39.0108342431
 10
73.5215817959
 20
39.0114783505
 10
73.5024271206
 20
39.0133677645
 10
73.4835159512
 20
39.016502493
 10
73.4647656258
 20
39.0209051577
 10
73.4462588063
 20
39.0265531682
 10
73.4282434785
 20
39.0333787205
 10
73.4107322165
 20
39.0413958196
 10
73.3937124463
 20
39.0505905187
 10
73.3773944308
 20
39.0608530879
 10
73.3617860956
 20
39.0721971179
 10
73.3468795152
 20
39.0846090949
 10
73.3328611755
 20
39.0979386277
 10
73.3197411713
 20
39.1121985036
 10
73.3075094078
 20
39.1273760195
 10
73.2963220874
 20
39.1432825378
 10
73.2861930884
 20
39.1599266695
 10
73.2771085324
 20
39.1772998822
 10
73.2691829875
 20
39.1951878043
 10
73.2624304205
 20
39.2136050682
 10
73.2568368645
 20
39.2325371034
 10
73.2524749864
 20
39.2517257063
 10
73.2493690083
 20
39.2710848127
 10
73.2474947082
 20
39.2907005151
 10
73.2468520858
 20
39.3105728301
  0
LWPOLYLINE
  5
260
100
AcDbEntity
  8
ASSI
100
AcDbPolyline
 62
253
  6
CONTINUOUS
 90
25
 70
0
 10
73.5409799771
 20
39.0108342431
 10
73.5215817959
 20
39.0114783505
 10
73.5024271206
 20
39.0133677645
 10
73.4835159512
 20
39.016502493
 10
73.4647656258
 20
39.0209051577
 10
73.4462588063
 20
39.0265531682
 10
73.4282434785
 20
39.0333787205
 10
73.4107322165
 20
39.0413958196
 10
73.3937124463
 20
39.0505905187
 10
73.3773944308
 20
39.0608530879
 10
73.3617860956
 20
39.0721971179
 10
73.3468795152
 20
39.0846090949
 10
73.3328611755
 20
39.0979386277
 10
73.3197411713
 20
39.1121985036
 10
73.3075094078
 20
39.1273760195
 10
73.2963220874
 20
39.1432825378
 10
73.2861930884
 20
39.1599266695
 10
73.2771085324
 20
39.1772998822
 10
73.2691829875
 20
39.1951878043
 10
73.2624304205
 20
39.2136050682
 10
73.2568368645
 20
39.2325371034
 10
73.2524749864
 20
39.2517257063
 10
73.2493690083
 20
39.2710848127
 10
73.2474947082
 20
39.2907005151
 10
73.2468520858
 20
39.3105728301
  0
LWPOLYLINE
  5
261
100
AcDbEntity
  8
RACCORDO
100
AcDbPolyline
 62
253
  6
CONTINUOUS
 90
25
 70
0
 10
73.5409799771
 20
38.6028949817
 10
73.4895634048
 20
38.60480082
 10
73.4384000983
 20
38.6100309753
 10
73.3877014431
 20
38.6185613833
 10
73.337682515
 20
38.6303529048
 10
73.288543894
 20
38.6453554581
 10
73.2404719
 20
38.6635118832
 10
73.1936613926
 20
38.684751296
 10
73.1483119447
 20
38.7089851234
 10
73.1046105676
 20
38.7361141359
 10
73.0627417798
 20
38.7660268497
 10
73.0228783119
 20
38.798601937
 10
72.9851795498
 20
38.8337094895
 10
72.9498043689
 20
38.8712081658
 10
72.9169032808
 20
38.9109443317
 10
72.8866107653
 20
38.9527562928
 10
72.8590562562
 20
38.9964759313
 10
72.8343599418
 20
39.0419227122
 10
72.8126261538
 20
39.0889044184
 10
72.7939511943
 20
39.1372256373
 10
72.7784161759
 20
39.1866902274
 10
72.7660847771
 20
39.2370963076
 10
72.7570129115
 20
39.2882368748
 10
72.7512470864
 20
39.3399002284
 10
72.7488179705
 20
39.3918725934
  0
LWPOLYLINE
  5
262
100
AcDbEntity
  8
ASSI
100
AcDbPolyline
 62
253
  6
CONTINUOUS
 90
25
 70
0
 10
73.5409799771
 20
38.6028949817
 10
73.4895634048
 20
38.60480082
 10
73.4384000983
 20
38.6100309753
 10
73.3877014431
 20
38.6185613833
 10
73.337682515
 20
38.6303529048
 10
73.288543894
 20
38.6453554581
 10
73.2404719
 20
38.6635118832
 10
73.1936613926
 20
38.684751296
 10
73.1483119447
 20
38.7089851234
 10
73.1046105676
 20
38.7361141359
 10
73.0627417798
 20
38.7660268497
 10
73.0228783119
 20
38.798601937
 10
72.9851795498
 20
38.8337094895
 10
72.9498043689
 20
38.8712081658
 10
72.9169032808
 20
38.9109443317
 10
72.8866107653
 20
38.9527562928
 10
72.8590562562
 20
38.9964759313
 10
72.8343599418
 20
39.0419227122
 10
72.8126261538
 20
39.0889044184
 10
72.7939511943
 20
39.1372256373
 10
72.7784161759
 20
39.1866902274
 10
72.7660847771
 20
39.2370963076
 10
72.7570129115
 20
39.2882368748
 10
72.7512470864
 20
39.3399002284
 10
72.7488179705
 20
39.3918725934
  0
LWPOLYLINE
  5
263
100
AcDbEntity
  8
RACCORDO
100
AcDbPolyline
 62
253
  6
CONTINUOUS
 90
22
 70
0
 10
94.3129078743
 20
106.0822296089
 10
94.3286702096
 20
106.1368106709
 10
94.34767778
 20
106.1899539484
 10
94.3699305855
 20
106.2416595054
 10
94.3955481598
 20
106.2921439878
 10
94.4244109692
 20
106.3411908679
 10
94.4561604128
 20
106.3881504768
 10
94.4908252654
 20
106.4329757049
 10
94.5283767521
 20
106.4757138347
 10
94.5683699472
 20
106.5158568304
 10
94.610833456
 20
106.5533726635
 10
94.6557386731
 20
106.5882935495
 10
94.7025548567
 20
106.6202078437
 10
94.7513140281
 20
106.6490819597
 10
94.8019841661
 20
106.6749496573
 10
94.8539384651
 20
106.697500321
 10
94.9071593506
 20
106.7166872298
 10
94.9616643972
 20
106.7325572382
 10
95.016879523
 20
106.7449400888
 10
95.0726133675
 20
106.753779054
 10
95.1290572913
 20
106.7591309334
 10
95.1862112944
 20
106.7609957451
  0
LWPOLYLINE
  5
264
100
AcDbEntity
  8
ASSI
100
AcDbPolyline
 62
253
  6
CONTINUOUS
 90
22
 70
0
 10
94.3129078743
 20
106.0822296089
 10
94.3286702096
 20
106.1368106709
 10
94.34767778
 20
106.1899539484
 10
94.3699305855
 20
106.2416595054
 10
94.3955481598
 20
106.2921439878
 10
94.4244109692
 20
106.3411908679
 10
94.4561604128
 20
106.3881504768
 10
94.4908252654
 20
106.4329757049
 10
94.5283767521
 20
106.4757138347
 10
94.5683699472
 20
106.5158568304
 10
94.610833456
 20
106.5533726635
 10
94.6557386731
 20
106.5882935495
 10
94.7025548567
 20
106.6202078437
 10
94.7513140281
 20
106.6490819597
 10
94.8019841661
 20
106.6749496573
 10
94.8539384651
 20
106.697500321
 10
94.9071593506
 20
106.7166872298
 10
94.9616643972
 20
106.7325572382
 10
95.016879523
 20
106.7449400888
 10
95.0726133675
 20
106.753779054
 10
95.1290572913
 20
106.7591309334
 10
95.1862112944
 20
106.7609957451
  0
LWPOLYLINE
  5
265
100
AcDbEntity
  8
RACCORDO
100
AcDbPolyline
 62
253
  6
CONTINUOUS
 90
22
 70
0
 10
94.7967461199
 20
105.9351013821
 10
94.8037572886
 20
105.9592334806
 10
94.812283087
 20
105.9828726244
 10
94.8222897634
 20
106.005925081
 10
94.8337380799
 20
106.0282989496
 10
94.8465824644
 20
106.0499059436
 10
94.860771248
 20
106.0706617087
 10
94.876249365
 20
106.0904845946
 10
94.8929550586
 20
106.109294967
 10
94.9108186524
 20
106.1270173586
 10
94.9297675574
 20
106.1435800887
 10
94.9497284044
 20
106.1589195857
 10
94.9706240608
 20
106.1729792233
 10
94.9923765912
 20
106.1857050437
 10
95.0148966664
 20
106.1970434625
 10
95.0380846772
 20
106.2069473236
 10
95.0618355922
 20
106.2153743162
 10
95.0860682561
 20
106.2222981884
 10
95.1107165761
 20
106.2277005836
 10
95.1356946076
 20
106.2315574594
 10
95.1608950716
 20
106.2338455899
 10
95.1862190202
 20
106.2345511449
  0
LWPOLYLINE
  5
266
100
AcDbEntity
  8
ASSI
100
AcDbPolyline
 62
253
  6
CONTINUOUS
 90
22
 70
0
 10
94.7967461199
 20
105.9351013821
 10
94.8037572886
 20
105.9592334806
 10
94.812283087
 20
105.9828726244
 10
94.8222897634
 20
106.005925081
 10
94.8337380799
 20
106.0282989496
 10
94.8465824644
 20
106.0499059436
 10
94.860771248
 20
106.0706617087
 10
94.876249365
 20
106.0904845946
 10
94.8929550586
 20
106.109294967
 10
94.9108186524
 20
106.1270173586
 10
94.9297675574
 20
106.1435800887
 10
94.9497284044
 20
106.1589195857
 10
94.9706240608
 20
106.1729792233
 10
94.9923765912
 20
106.1857050437
 10
95.0148966664
 20
106.1970434625
 10
95.0380846772
 20
106.2069473236
 10
95.0618355922
 20
106.2153743162
 10
95.0860682561
 20
106.2222981884
 10
95.1107165761
 20
106.2277005836
 10
95.1356946076
 20
106.2315574594
 10
95.1608950716
 20
106.2338455899
 10
95.1862190202
 20
106.2345511449
  0
LWPOLYLINE
  5
267
100
AcDbEntity
  8
RACCORDO
100
AcDbPolyline
 62
253
  6
CONTINUOUS
 90
7
 70
0
 10
94.285004066
 20
105.8600503688
 10
94.2858102298
 20
105.8976985144
 10
94.2881541819
 20
105.9350993474
 10
94.2920359225
 20
105.9722528705
 10
94.2974554514
 20
106.0091590866
 10
94.3044127687
 20
106.0458179984
 10
94.3129078743
 20
106.0822296089
  0
LWPOLYLINE
  5
268
100
AcDbEntity
  8
ASSI
100
AcDbPolyline
 62
253
  6
CONTINUOUS
 90
7
 70
0
 10
94.285004066
 20
105.8600503688
 10
94.2858102298
 20
105.8976985144
 10
94.2881541819
 20
105.9350993474
 10
94.2920359225
 20
105.9722528705
 10
94.2974554514
 20
106.0091590866
 10
94.3044127687
 20
106.0458179984
 10
94.3129078743
 20
106.0822296089
  0
LWPOLYLINE
  5
269
100
AcDbEntity
  8
RACCORDO
100
AcDbPolyline
 62
253
  6
CONTINUOUS
 90
18
 70
0
 10
72.7471056398
 20
60.9676073866
 10
72.7523879334
 20
60.9655613298
 10
72.76101539
 20
60.963544036
 10
72.7729294468
 20
60.9615691985
 10
72.7880492322
 20
60.9596502223
 10
72.8062721139
 20
60.9578001334
 10
72.8274743964
 20
60.9560314901
 10
72.85151216
 20
60.9543562976
 10
72.8782222378
 20
60.9527859273
 10
72.9074233238
 20
60.9513310385
 10
72.938917203
 20
60.950001507
 10
72.9724900969
 20
60.9488063576
 10
73.0079141151
 20
60.9477537029
 10
73.0449488017
 20
60.9468506882
 10
73.0833427677
 20
60.9461034431
 10
73.1228353975
 20
60.9455170398
 10
73.1631586179
 20
60.9450954589
 10
73.2451982047
 20
60.9447570726
  0
LWPOLYLINE
  5
26A
100
AcDbEntity
  8
ASSI
100
AcDbPolyline
 62
253
  6
CONTINUOUS
 90
18
 70
0
 10
72.7471056398
 20
60.9676073866
 10
72.7523879334
 20
60.9655613298
 10
72.76101539
 20
60.963544036
 10
72.7729294468
 20
60.9615691985
 10
72.7880492322
 20
60.9596502223
 10
72.8062721139
 20
60.9578001334
 10
72.8274743964
 20
60.9560314901
 10
72.85151216
 20
60.9543562976
 10
72.8782222378
 20
60.9527859273
 10
72.9074233238
 20
60.9513310385
 10
72.938917203
 20
60.950001507
 10
72.9724900969
 20
60.9488063576
 10
73.0079141151
 20
60.9477537029
 10
73.0449488017
 20
60.9468506882
 10
73.0833427677
 20
60.9461034431
 10
73.1228353975
 20
60.9455170398
 10
73.1631586179
 20
60.9450954589
 10
73.2451982047
 20
60.9447570726
  0
LWPOLYLINE
  5
26B
100
AcDbEntity
  8
RACCORDO
100
AcDbPolyline
 62
253
  6
CONTINUOUS
 90
17
 70
0
 10
72.7471071236
 20
60.9051329517
 10
72.7523894764
 20
60.9030813305
 10
72.7610169838
 20
60.9010586217
 10
72.772931083
 20
60.8990785553
 10
72.7880509022
 20
60.8971545717
 10
72.8062738092
 20
60.8952997309
 10
72.8274761084
 20
60.8935266234
 10
72.8515138804
 20
60.8918472847
 10
72.8782239588
 20
60.8902731143
 10
72.9074250377
 20
60.8888147973
 10
72.9389189026
 20
60.8874822328
 10
72.9724917758
 20
60.8862844661
 10
73.0079157673
 20
60.8852296275
 10
73.0449504221
 20
60.8843248771
 10
73.0833443519
 20
60.8835763564
 10
73.122836942
 20
60.8829891462
 10
73.2040401749
 20
60.8823134793
  0
LWPOLYLINE
  5
26C
100
AcDbEntity
  8
ASSI
100
AcDbPolyline
 62
253
  6
CONTINUOUS
 90
17
 70
0
 10
72.7471071236
 20
60.9051329517
 10
72.7523894764
 20
60.9030813305
 10
72.7610169838
 20
60.9010586217
 10
72.772931083
 20
60.8990785553
 10
72.7880509022
 20
60.8971545717
 10
72.8062738092
 20
60.8952997309
 10
72.8274761084
 20
60.8935266234
 10
72.8515138804
 20
60.8918472847
 10
72.8782239588
 20
60.8902731143
 10
72.9074250377
 20
60.8888147973
 10
72.9389189026
 20
60.8874822328
 10
72.9724917758
 20
60.8862844661
 10
73.0079157673
 20
60.8852296275
 10
73.0449504221
 20
60.8843248771
 10
73.0833443519
 20
60.8835763564
 10
73.122836942
 20
60.8829891462
 10
73.2040401749
 20
60.8823134793
  0
LWPOLYLINE
  5
26D
100
AcDbEntity
  8
RACCORDO
100
AcDbPolyline
 62
253
  6
CONTINUOUS
 90
7
 70
0
 10
94.7967461199
 20
61.0293578357
 10
94.7929704011
 20
61.0454732258
 10
94.7898670096
 20
61.0617536268
 10
94.7874438218
 20
61.0781714531
 10
94.7857075817
 20
61.0946987125
 10
94.7846638792
 20
61.1113070522
 10
94.7843171302
 20
61.1279678062
  0
LWPOLYLINE
  5
26E
100
AcDbEntity
  8
ASSI
100
AcDbPolyline
 62
253
  6
CONTINUOUS
 90
7
 70
0
 10
94.7967461199
 20
61.0293578357
 10
94.7929704011
 20
61.0454732258
 10
94.7898670096
 20
61.0617536268
 10
94.7874438218
 20
61.0781714531
 10
94.7857075817
 20
61.0946987125
 10
94.7846638792
 20
61.1113070522
 10
94.7843171302
 20
61.1279678062
  0
LWPOLYLINE
  5
26F
100
AcDbEntity
  8
RACCORDO
100
AcDbPolyline
 62
253
  6
CONTINUOUS
 90
7
 70
0
 10
94.3129078743
 20
60.8822296088
 10
94.3044352393
 20
60.9184656631
 10
94.2974914043
 20
60.9550192401
 10
94.2920763695
 20
60.9918903435
 10
94.2881901349
 20
61.029078977
 10
94.2858327003
 20
61.0665851442
 10
94.285004066
 20
61.1044088489
  0
LWPOLYLINE
  5
270
100
AcDbEntity
  8
ASSI
100
AcDbPolyline
 62
253
  6
CONTINUOUS
 90
7
 70
0
 10
94.3129078743
 20
60.8822296088
 10
94.3044352393
 20
60.9184656631
 10
94.2974914043
 20
60.9550192401
 10
94.2920763695
 20
60.9918903435
 10
94.2881901349
 20
61.029078977
 10
94.2858327003
 20
61.0665851442
 10
94.285004066
 20
61.1044088489
  0
LWPOLYLINE
  5
271
100
AcDbEntity
  8
RACCORDO
100
AcDbPolyline
 62
7
  6
CONTINUOUS
 90
22
 70
0
 10
94.8381647895
 20
61.1816720746
 10
94.8393308333
 20
61.1516661088
 10
94.8426498964
 20
61.1221592688
 10
94.8481219789
 20
61.0931515499
 10
94.8557855578
 20
61.0645115519
 10
94.8656021562
 20
61.0363706664
 10
94.8774563429
 20
61.0091230721
 10
94.8913815063
 20
60.9827522284
 10
94.9073442582
 20
60.9572746601
 10
94.9251290032
 20
60.9331341365
 10
94.9448178438
 20
60.9103217717
 10
94.9663286775
 20
60.8888464306
 10
94.9891996015
 20
60.8691785027
 10
95.0134359506
 20
60.8513959512
 10
95.03903239
 20
60.8354207896
 10
95.0655110124
 20
60.8214894792
 10
95.0928341175
 20
60.8096462181
 10
95.1210394055
 20
60.7998467903
 10
95.1497620704
 20
60.7921950356
 10
95.17888051
 20
60.786725564
 10
95.2085163265
 20
60.7834037559
 10
95.2386695198
 20
60.7822296089
  0
LWPOLYLINE
  5
272
100
AcDbEntity
  8
ASSI
100
AcDbPolyline
 62
7
  6
CONTINUOUS
 90
22
 70
0
 10
94.8381647895
 20
61.1816720746
 10
94.8393308333
 20
61.1516661088
 10
94.8426498964
 20
61.1221592688
 10
94.8481219789
 20
61.0931515499
 10
94.8557855578
 20
61.0645115519
 10
94.8656021562
 20
61.0363706664
 10
94.8774563429
 20
61.0091230721
 10
94.8913815063
 20
60.9827522284
 10
94.9073442582
 20
60.9572746601
 10
94.9251290032
 20
60.9331341365
 10
94.9448178438
 20
60.9103217717
 10
94.9663286775
 20
60.8888464306
 10
94.9891996015
 20
60.8691785027
 10
95.0134359506
 20
60.8513959512
 10
95.03903239
 20
60.8354207896
 10
95.0655110124
 20
60.8214894792
 10
95.0928341175
 20
60.8096462181
 10
95.1210394055
 20
60.7998467903
 10
95.1497620704
 20
60.7921950356
 10
95.17888051
 20
60.786725564
 10
95.2085163265
 20
60.7834037559
 10
95.2386695198
 20
60.7822296089
  0
LINE
  5
273
100
AcDbEntity
  8
RACCORDO
100
AcDbLine
 62
253
  6
CONTINUOUS
 10
94.285004066
 20
61.1044088489
 11
94.285004066
 21
105.8600503688
  0
LINE
  5
274
100
AcDbEntity
  8
ASSI
100
AcDbLine
 62
253
  6
CONTINUOUS
 10
94.285004066
 20
61.1044088489
 11
94.285004066
 21
105.8600503688
  0
LINE
  5
275
100
AcDbEntity
  8
RACCORDO
100
AcDbLine
 62
253
  6
CONTINUOUS
 10
94.7843171308
 20
61.1279678067
 11
94.7843171251
 21
105.8365001142
  0
LINE
  5
276
100
AcDbEntity
  8
ASSI
100
AcDbLine
 62
253
  6
CONTINUOUS
 10
94.7843171308
 20
61.1279678067
 11
94.7843171251
 21
105.8365001142
  0
LINE
  5
277
100
AcDbEntity
  8
RACCORDO
100
AcDbLine
 62
7
  6
CONTINUOUS
 10
94.8381647895
 20
105.7827871431
 11
94.8381647895
 21
61.1816720746
  0
LINE
  5
278
100
AcDbEntity
  8
ASSI
100
AcDbLine
 62
7
  6
CONTINUOUS
 10
94.8381647895
 20
105.7827871431
 11
94.8381647895
 21
61.1816720746
  0
LINE
  5
279
100
AcDbEntity
  8
RACCORDO
100
AcDbLine
 62
253
  6
CONTINUOUS
 10
95.1862112944
 20
106.7609957451
 11
95.1862112944
 21
106.2345511712
  0
LINE
  5
27A
100
AcDbEntity
  8
ASSI
100
AcDbLine
 62
253
  6
CONTINUOUS
 10
95.1862112944
 20
106.7609957451
 11
95.1862112944
 21
106.2345511712
  0
LINE
  5
27B
100
AcDbEntity
  8
RACCORDO
100
AcDbLine
 62
253
  6
CONTINUOUS
 10
95.1862112944
 20
60.2034634726
 11
95.1862112944
 21
60.7299080465
  0
LINE
  5
27C
100
AcDbEntity
  8
ASSI
100
AcDbLine
 62
253
  6
CONTINUOUS
 10
95.1862112944
 20
60.2034634726
 11
95.1862112944
 21
60.7299080465
  0
LWPOLYLINE
  5
27D
100
AcDbEntity
  8
RACCORDO
100
AcDbPolyline
 62
253
  6
CONTINUOUS
 90
7
 70
0
 10
94.7843171323
 20
105.8365001071
 10
94.7846614587
 20
105.8530948802
 10
94.7856994149
 20
105.8696632987
 10
94.7874298232
 20
105.8861767117
 10
94.7898503144
 20
105.9026065134
 10
94.7929573286
 20
105.9189241925
 10
94.7967461199
 20
105.9351013821
  0
LWPOLYLINE
  5
27E
100
AcDbEntity
  8
ASSI
100
AcDbPolyline
 62
253
  6
CONTINUOUS
 90
7
 70
0
 10
94.7843171323
 20
105.8365001071
 10
94.7846614587
 20
105.8530948802
 10
94.7856994149
 20
105.8696632987
 10
94.7874298232
 20
105.8861767117
 10
94.7898503144
 20
105.9026065134
 10
94.7929573286
 20
105.9189241925
 10
94.7967461199
 20
105.9351013821
  0
LWPOLYLINE
  5
27F
100
AcDbEntity
  8
SCRITTA
100
AcDbPolyline
 62
253
  6
CONTINUOUS
 90
36
 70
0
 10
120.9581835997
 20
57.3714222679
 10
121.0020035384
 20
57.3777729936
 10
121.0451368204
 20
57.3838255923
 10
121.0875656291
 20
57.389569581
 10
121.1292721477
 20
57.3949944766
 10
121.1702385596
 20
57.4000897961
 10
121.2104596137
 20
57.4048474128
 10
121.2499803216
 20
57.4092686256
 10
121.2888582605
 20
57.4133570894
 10
121.3271510077
 20
57.4171164594
 10
121.3649161403
 20
57.4205503906
 10
121.4114603325
 20
57.4243893397
 10
121.4573346605
 20
57.4277243298
 10
121.5026036932
 20
57.4305541892
 10
121.5473319997
 20
57.4328777458
 10
121.5915875274
 20
57.4346921742
 10
121.6354517368
 20
57.4359880352
 10
121.6790094666
 20
57.4367542362
 10
121.7223455559
 20
57.4369796843
 10
121.7799038478
 20
57.4364193997
 10
121.8372699081
 20
57.4348485316
 10
121.8944947083
 20
57.4322375551
 10
121.9373467279
 20
57.4295722304
 10
121.9801422167
 20
57.4262522211
 10
122.022875431
 20
57.4222245113
 10
122.0655406273
 20
57.4174360849
 10
122.0996164624
 20
57.4130186084
 10
122.133621213
 20
57.4080328425
 10
122.167531002
 20
57.4024312865
 10
122.2013219525
 20
57.3961664395
 10
122.2349701873
 20
57.3891908009
 10
122.2684532557
 20
57.3814565303
 10
122.3017544126
 20
57.3729144279
 10
122.3348583393
 20
57.3635149542
 10
122.3677497171
 20
57.3532085699
 10
122.4004132271
 20
57.3419457354
  0
LWPOLYLINE
  5
280
100
AcDbEntity
  8
SCRITTA
100
AcDbPolyline
 62
253
  6
CONTINUOUS
 90
56
 70
0
 10
121.8548454406
 20
56.1586015223
 10
121.8710973858
 20
56.1591048369
 10
121.8874540465
 20
56.1599083433
 10
121.9039368754
 20
56.1610383533
 10
121.9205673251
 20
56.1625211787
 10
121.9373522313
 20
56.1643829425
 10
121.9542399621
 20
56.1666490124
 10
121.9711642683
 20
56.1693445673
 10
121.9880589012
 20
56.1724947863
 10
122.0015076543
 20
56.175357406
 10
122.0148546839
 20
56.1785290146
 10
122.0280596564
 20
56.1820115015
 10
122.0410822388
 20
56.185806756
 10
122.0538820976
 20
56.1899166675
 10
122.0664231689
 20
56.1943427811
 10
122.0786864663
 20
56.1990852645
 10
122.0906572727
 20
56.2041439412
 10
122.102320871
 20
56.2095186345
 10
122.1136625441
 20
56.215209168
 10
122.122859293
 20
56.2201932886
 10
122.1318250707
 20
56.2254017382
 10
122.1405626853
 20
56.2308396348
 10
122.1490739902
 20
56.2365124799
 10
122.1573570197
 20
56.2424273069
 10
122.1654088533
 20
56.2485915325
 10
122.1732270821
 20
56.2550106527
 10
122.1808113436
 20
56.2616824797
 10
122.1881617867
 20
56.2686029052
 10
122.1952791839
 20
56.275766621
 10
122.2021668007
 20
56.2831635209
 10
122.2088285261
 20
56.2907822988
 10
122.2165302449
 20
56.3002050827
 10
122.2239210956
 20
56.3099312948
 10
122.2310098936
 20
56.3199611396
 10
122.2378054542
 20
56.3302948216
 10
122.2443165928
 20
56.340932545
 10
122.2505499075
 20
56.3518734063
 10
122.2565031272
 20
56.3631120697
 10
122.2621717631
 20
56.3746420914
 10
122.267551327
 20
56.3864570274
 10
122.2726373302
 20
56.3985504339
 10
122.2774241574
 20
56.4109111127
 10
122.2819016852
 20
56.4235088479
 10
122.2860586635
 20
56.4363086692
 10
122.289883842
 20
56.4492756064
 10
122.2933659706
 20
56.4623746891
 10
122.2964957273
 20
56.4755704773
 10
122.2992715028
 20
56.4888256512
 10
122.3016936163
 20
56.5021024211
 10
122.3037623869
 20
56.5153629973
 10
122.3054781334
 20
56.5285695904
 10
122.3068415199
 20
56.5416928145
 10
122.3078545896
 20
56.5547368999
 10
122.3085197305
 20
56.5677144808
 10
122.3088393308
 20
56.5806381915
 10
122.3088157785
 20
56.5935206663
  0
LINE
  5
281
100
AcDbEntity
  8
SCRITTA
100
AcDbLine
 62
253
  6
CONTINUOUS
 10
122.9973130093
 20
54.6044282545
 11
122.4351804193
 21
54.6044282545
  0
LINE
  5
282
100
AcDbEntity
  8
SCRITTA
100
AcDbLine
 62
253
  6
CONTINUOUS
 10
121.5402401423
 20
54.6044282545
 11
120.9581835997
 21
54.6044282545
  0
LINE
  5
283
100
AcDbEntity
  8
IMPORT_IGES
100
AcDbLine
 62
7
  6
CONTINUOUS
 10
120.7865727974
 20
54.6044286089
 11
120.1706307974
 21
54.6044286089
  0
LINE
  5
284
100
AcDbEntity
  8
IMPORT_IGES
100
AcDbLine
 62
7
  6
CONTINUOUS
 10
119.0621117974
 20
54.6044286089
 11
118.4840447974
 21
54.6044286089
  0
LINE
  5
285
100
AcDbEntity
  8
IMPORT_IGES
100
AcDbLine
 62
7
  6
CONTINUOUS
 10
118.3922767974
 20
54.6044286089
 11
117.8205707974
 21
54.6044286089
  0
LINE
  5
286
100
AcDbEntity
  8
IMPORT_IGES
100
AcDbLine
 62
7
  6
CONTINUOUS
 10
117.0056407974
 20
54.6044286089
 11
116.9236777974
 21
54.6044286089
  0
LINE
  5
287
100
AcDbEntity
  8
IMPORT_IGES
100
AcDbLine
 62
7
  6
CONTINUOUS
 10
116.1119817974
 20
54.6044286089
 11
115.5528927974
 21
54.6044286089
  0
LINE
  5
288
100
AcDbEntity
  8
SCRITTA
100
AcDbLine
 62
253
  6
CONTINUOUS
 10
115.2382877974
 20
54.6044286089
 11
114.6538797974
 21
54.6044286089
  0
LINE
  5
289
100
AcDbEntity
  8
IMPORT_IGES
100
AcDbLine
 62
7
  6
CONTINUOUS
 10
113.5370677974
 20
54.6044286089
 11
113.0220577974
 21
54.6044286089
  0
LINE
  5
28A
100
AcDbEntity
  8
SCRITTA
100
AcDbLine
 62
253
  6
CONTINUOUS
 10
113.0220577974
 20
54.6044286089
 11
113.5370677974
 21
54.6044286089
  0
LINE
  5
28B
100
AcDbEntity
  8
IMPORT_IGES
100
AcDbLine
 62
7
  6
CONTINUOUS
 10
114.6538797974
 20
54.6044286089
 11
115.2382877974
 21
54.6044286089
  0
LINE
  5
28C
100
AcDbEntity
  8
SCRITTA
100
AcDbLine
 62
253
  6
CONTINUOUS
 10
115.5528927974
 20
54.6044286089
 11
116.1119817974
 21
54.6044286089
  0
LINE
  5
28D
100
AcDbEntity
  8
SCRITTA
100
AcDbLine
 62
253
  6
CONTINUOUS
 10
116.9236777974
 20
54.6044286089
 11
117.0056407974
 21
54.6044286089
  0
LINE
  5
28E
100
AcDbEntity
  8
SCRITTA
100
AcDbLine
 62
253
  6
CONTINUOUS
 10
117.8205707974
 20
54.6044286089
 11
118.3922767974
 21
54.6044286089
  0
LINE
  5
28F
100
AcDbEntity
  8
SCRITTA
100
AcDbLine
 62
253
  6
CONTINUOUS
 10
118.4840447974
 20
54.6044286089
 11
119.0621117974
 21
54.6044286089
  0
LINE
  5
290
100
AcDbEntity
  8
SCRITTA
100
AcDbLine
 62
253
  6
CONTINUOUS
 10
120.1706307974
 20
54.6044286089
 11
120.7865727974
 21
54.6044286089
  0
LINE
  5
291
100
AcDbEntity
  8
IMPORT_IGES
100
AcDbLine
 62
7
  6
CONTINUOUS
 10
120.9581835997
 20
54.6044282545
 11
121.5402401423
 21
54.6044282545
  0
LINE
  5
292
100
AcDbEntity
  8
IMPORT_IGES
100
AcDbLine
 62
7
  6
CONTINUOUS
 10
122.4351804193
 20
54.6044282545
 11
122.9973130093
 21
54.6044282545
  0
LINE
  5
293
100
AcDbEntity
  8
IMPORT_IGES
100
AcDbLine
 62
7
  6
CONTINUOUS
 10
120.0192387974
 20
55.1633486089
 11
119.2233717974
 21
55.1633486089
  0
LINE
  5
294
100
AcDbEntity
  8
SCRITTA
100
AcDbLine
 62
253
  6
CONTINUOUS
 10
119.2233717974
 20
55.1633486089
 11
120.0192387974
 21
55.1633486089
  0
LINE
  5
295
100
AcDbEntity
  8
SCRITTA
100
AcDbLine
 62
253
  6
CONTINUOUS
 10
119.9024447974
 20
55.5958386089
 11
119.3429157974
 21
55.5958386089
  0
LINE
  5
296
100
AcDbEntity
  8
IMPORT_IGES
100
AcDbLine
 62
7
  6
CONTINUOUS
 10
119.3429157974
 20
55.5958386089
 11
119.9024447974
 21
55.5958386089
  0
LINE
  5
297
100
AcDbEntity
  8
SCRITTA
100
AcDbLine
 62
253
  6
CONTINUOUS
 10
121.8535857597
 20
55.7000776841
 11
121.5402401423
 21
55.7000776841
  0
LINE
  5
298
100
AcDbEntity
  8
IMPORT_IGES
100
AcDbLine
 62
7
  6
CONTINUOUS
 10
121.5402401423
 20
55.7000776841
 11
121.8535857597
 21
55.7000776841
  0
LINE
  5
299
100
AcDbEntity
  8
SCRITTA
100
AcDbLine
 62
253
  6
CONTINUOUS
 10
121.5208620515
 20
56.1586015223
 11
121.8548454406
 21
56.1586015223
  0
LINE
  5
29A
100
AcDbEntity
  8
SCRITTA
100
AcDbLine
 62
253
  6
CONTINUOUS
 10
119.9275547974
 20
57.4041316089
 11
119.3622097974
 21
57.4041316089
  0
LINE
  5
29B
100
AcDbEntity
  8
SCRITTA
100
AcDbLine
 62
253
  6
CONTINUOUS
 10
118.1304727974
 20
57.4041316089
 11
117.5522587974
 21
57.4041316089
  0
LINE
  5
29C
100
AcDbEntity
  8
SCRITTA
100
AcDbLine
 62
253
  6
CONTINUOUS
 10
116.3896147974
 20
57.4041316089
 11
115.8056897974
 21
57.4041316089
  0
LINE
  5
29D
100
AcDbEntity
  8
SCRITTA
100
AcDbLine
 62
253
  6
CONTINUOUS
 10
114.4370047974
 20
57.4041316089
 11
113.8529957974
 21
57.4041316089
  0
LINE
  5
29E
100
AcDbEntity
  8
SCRITTA
100
AcDbLine
 62
253
  6
CONTINUOUS
 10
112.7693447974
 20
57.4041316089
 11
112.1344967974
 21
57.4041316089
  0
LINE
  5
29F
100
AcDbEntity
  8
SCRITTA
100
AcDbLine
 62
253
  6
CONTINUOUS
 10
114.6538797974
 20
57.4042996089
 11
115.2382877974
 21
57.4042996089
  0
LWPOLYLINE
  5
2A0
100
AcDbEntity
  8
IMPORT_IGES
100
AcDbPolyline
 62
7
  6
CONTINUOUS
 90
48
 70
0
 10
121.8535857597
 20
55.7000776841
 10
121.8625839424
 20
55.6999634386
 10
121.8715981016
 20
55.6996194559
 10
121.8806189763
 20
55.6990438668
 10
121.8896373054
 20
55.6982348021
 10
121.898643828
 20
55.6971903924
 10
121.9076292829
 20
55.6959087685
 10
121.9165844093
 20
55.6943880612
 10
121.925499946
 20
55.6926264012
 10
121.9343666322
 20
55.6906219193
 10
121.9431752066
 20
55.6883727461
 10
121.9519164084
 20
55.6858770125
 10
121.9605809766
 20
55.6831328493
 10
121.96915965
 20
55.680138387
 10
121.9776431678
 20
55.6768917566
 10
121.9860222688
 20
55.6733910887
 10
121.9942876921
 20
55.6696345141
 10
122.0024301766
 20
55.6656201635
 10
122.0106440754
 20
55.6612356165
 10
122.0187170082
 20
55.6565864973
 10
122.0266470305
 20
55.6516812776
 10
122.0344321982
 20
55.6465284292
 10
122.042070567
 20
55.6411364239
 10
122.0495601927
 20
55.6355137333
 10
122.0568991309
 20
55.6296688294
 10
122.0640854374
 20
55.6236101837
 10
122.071117168
 20
55.6173462682
 10
122.0779923783
 20
55.6108855545
 10
122.0847091241
 20
55.6042365144
 10
122.0912654611
 20
55.5974076197
 10
122.097659445
 20
55.5904073422
 10
122.1038891317
 20
55.5832441535
 10
122.1099525767
 20
55.5759265254
 10
122.1158478359
 20
55.5684629298
 10
122.121572965
 20
55.5608618383
 10
122.1271260197
 20
55.5531317228
 10
122.1325050557
 20
55.545281055
 10
122.1377081288
 20
55.5373183066
 10
122.1427332947
 20
55.5292519494
 10
122.1475786091
 20
55.5210904552
 10
122.1522421278
 20
55.5128422957
 10
122.1567219064
 20
55.5045159427
 10
122.1610160008
 20
55.496119868
 10
122.1651224667
 20
55.4876625433
 10
122.1690393597
 20
55.4791524403
 10
122.1727647357
 20
55.4705980309
 10
122.1762966503
 20
55.4620077867
 10
122.1796331593
 20
55.4533901796
  0
LWPOLYLINE
  5
2A1
100
AcDbEntity
  8
SCRITTA
100
AcDbPolyline
 62
253
  6
CONTINUOUS
 90
24
 70
0
 10
121.9786732799
 20
56.9436579341
 10
121.9571718376
 20
56.9459945328
 10
121.9356457334
 20
56.9480170736
 10
121.9140984157
 20
56.9497262845
 10
121.8925333331
 20
56.9511228941
 10
121.8709539342
 20
56.9522076303
 10
121.8493636676
 20
56.9529812216
 10
121.8277659818
 20
56.9534443961
 10
121.8088632107
 20
56.9535955297
 10
121.7899511836
 20
56.9535095781
 10
121.7710236846
 20
56.9531865615
 10
121.7520744976
 20
56.9526265
 10
121.7330965632
 20
56.9518283741
 10
121.7140794478
 20
56.9507870057
 10
121.6950118741
 20
56.9494961771
 10
121.675882565
 20
56.9479496707
 10
121.6566838548
 20
56.9461440623
 10
121.637422524
 20
56.9440871029
 10
121.6181089641
 20
56.9417893369
 10
121.5987535672
 20
56.939261309
 10
121.579362672
 20
56.936515397
 10
121.5599264052
 20
56.9335713132
 10
121.5404308404
 20
56.9304506033
 10
121.5208620515
 20
56.9271748129
  0
LWPOLYLINE
  5
2A2
100
AcDbEntity
  8
RACCORDO
100
AcDbPolyline
 62
7
  6
CONTINUOUS
 90
22
 70
0
 10
140.037660075
 20
60.7822296089
 10
140.0677917308
 20
60.7833974568
 10
140.0974179917
 20
60.7867170957
 10
140.1265388577
 20
60.792188528
 10
140.1552867392
 20
60.7998513774
 10
140.1835292258
 20
60.8096660298
 10
140.2108690859
 20
60.8215136332
 10
140.237322066
 20
60.8354276446
 10
140.2628724196
 20
60.8513746247
 10
140.2870756753
 20
60.8691353779
 10
140.3099399344
 20
60.8887915203
 10
140.3314570956
 20
60.910261459
 10
140.3511583846
 20
60.9330811813
 10
140.3689650914
 20
60.9572550195
 10
140.384955926
 20
60.9827786625
 10
140.3988982442
 20
61.0091751262
 10
140.4107479502
 20
61.0364060653
 10
140.4205491399
 20
61.0645098403
 10
140.428201456
 20
61.0931245184
 10
140.433671446
 20
61.1221294569
 10
140.4369925624
 20
61.1516453074
 10
140.4381648052
 20
61.1816720746
  0
LWPOLYLINE
  5
2A3
100
AcDbEntity
  8
ASSI
100
AcDbPolyline
 62
7
  6
CONTINUOUS
 90
22
 70
0
 10
140.037660075
 20
60.7822296089
 10
140.0677917308
 20
60.7833974568
 10
140.0974179917
 20
60.7867170957
 10
140.1265388577
 20
60.792188528
 10
140.1552867392
 20
60.7998513774
 10
140.1835292258
 20
60.8096660298
 10
140.2108690859
 20
60.8215136332
 10
140.237322066
 20
60.8354276446
 10
140.2628724196
 20
60.8513746247
 10
140.2870756753
 20
60.8691353779
 10
140.3099399344
 20
60.8887915203
 10
140.3314570956
 20
60.910261459
 10
140.3511583846
 20
60.9330811813
 10
140.3689650914
 20
60.9572550195
 10
140.384955926
 20
60.9827786625
 10
140.3988982442
 20
61.0091751262
 10
140.4107479502
 20
61.0364060653
 10
140.4205491399
 20
61.0645098403
 10
140.428201456
 20
61.0931245184
 10
140.433671446
 20
61.1221294569
 10
140.4369925624
 20
61.1516453074
 10
140.4381648052
 20
61.1816720746
  0
LWPOLYLINE
  5
2A4
100
AcDbEntity
  8
RACCORDO
100
AcDbPolyline
 62
253
  6
CONTINUOUS
 90
16
 70
0
 10
94.4101888194
 20
61.1052000235
 10
94.4505289541
 20
61.1058098795
 10
94.4896919796
 20
61.1065865913
 10
94.5273993929
 20
61.1075246352
 10
94.5633830426
 20
61.1086173405
 10
94.5973870354
 20
61.1098569366
 10
94.6291695563
 20
61.1112346083
 10
94.6585045879
 20
61.1127405584
 10
94.6851835178
 20
61.1143640775
 10
94.7090166223
 20
61.1160936202
 10
94.7298344152
 20
61.117916887
 10
94.7474888534
 20
61.1198209121
 10
94.7618543896
 20
61.1217921552
 10
94.7728288651
 20
61.1238165981
 10
94.7803342364
 20
61.1258798441
 10
94.7843171299
 20
61.1279672208
  0
LWPOLYLINE
  5
2A5
100
AcDbEntity
  8
ASSI
100
AcDbPolyline
 62
253
  6
CONTINUOUS
 90
16
 70
0
 10
94.4101888194
 20
61.1052000235
 10
94.4505289541
 20
61.1058098795
 10
94.4896919796
 20
61.1065865913
 10
94.5273993929
 20
61.1075246352
 10
94.5633830426
 20
61.1086173405
 10
94.5973870354
 20
61.1098569366
 10
94.6291695563
 20
61.1112346083
 10
94.6585045879
 20
61.1127405584
 10
94.6851835178
 20
61.1143640775
 10
94.7090166223
 20
61.1160936202
 10
94.7298344152
 20
61.117916887
 10
94.7474888534
 20
61.1198209121
 10
94.7618543896
 20
61.1217921552
 10
94.7728288651
 20
61.1238165981
 10
94.7803342364
 20
61.1258798441
 10
94.7843171299
 20
61.1279672208
  0
LINE
  5
2A6
100
AcDbEntity
  8
RACCORDO
100
AcDbLine
 62
253
  6
CONTINUOUS
 10
162.1534926501
 20
60.8829891471
 11
162.0722894189
 21
60.8823134801
  0
LINE
  5
2A7
100
AcDbEntity
  8
ASSI
100
AcDbLine
 62
253
  6
CONTINUOUS
 10
162.1534926501
 20
60.8829891471
 11
162.0722894189
 21
60.8823134801
  0
LWPOLYLINE
  5
2A8
100
AcDbEntity
  8
RACCORDO
100
AcDbPolyline
 62
253
  6
CONTINUOUS
 90
3
 70
0
 10
162.1534941982
 20
60.9455170396
 10
162.0722908777
 20
60.9448415618
 10
162.0311313901
 20
60.9447570723
  0
LWPOLYLINE
  5
2A9
100
AcDbEntity
  8
ASSI
100
AcDbPolyline
 62
253
  6
CONTINUOUS
 90
3
 70
0
 10
162.1534941982
 20
60.9455170396
 10
162.0722908777
 20
60.9448415618
 10
162.0311313901
 20
60.9447570723
  0
LWPOLYLINE
  5
2AA
100
AcDbEntity
  8
RACCORDO
100
AcDbPolyline
 62
253
  6
CONTINUOUS
 90
3
 70
0
 10
94.285004066
 20
61.1044088494
 10
94.3271310479
 20
61.1044970087
 10
94.4101888194
 20
61.1052000235
  0
LWPOLYLINE
  5
2AB
100
AcDbEntity
  8
ASSI
100
AcDbPolyline
 62
253
  6
CONTINUOUS
 90
3
 70
0
 10
94.285004066
 20
61.1044088494
 10
94.3271310479
 20
61.1044970087
 10
94.4101888194
 20
61.1052000235
  0
LINE
  5
2AC
100
AcDbEntity
  8
RACCORDO
100
AcDbLine
 62
253
  6
CONTINUOUS
 10
140.0901183004
 20
60.2034634726
 11
95.1862112944
 21
60.2034634726
  0
LINE
  5
2AD
100
AcDbEntity
  8
ASSI
100
AcDbLine
 62
253
  6
CONTINUOUS
 10
140.0901183004
 20
60.2034634726
 11
95.1862112944
 21
60.2034634726
  0
LINE
  5
2AE
100
AcDbEntity
  8
RACCORDO
100
AcDbLine
 62
253
  6
CONTINUOUS
 10
140.0901104901
 20
60.7299080465
 11
95.1861910615
 21
60.7299080465
  0
LINE
  5
2AF
100
AcDbEntity
  8
ASSI
100
AcDbLine
 62
253
  6
CONTINUOUS
 10
140.0901104901
 20
60.7299080465
 11
95.1861910615
 21
60.7299080465
  0
LINE
  5
2B0
100
AcDbEntity
  8
RACCORDO
100
AcDbLine
 62
7
  6
CONTINUOUS
 10
95.2386695198
 20
60.7822296089
 11
140.037660075
 21
60.7822296089
  0
LINE
  5
2B1
100
AcDbEntity
  8
ASSI
100
AcDbLine
 62
7
  6
CONTINUOUS
 10
95.2386695198
 20
60.7822296089
 11
140.037660075
 21
60.7822296089
  0
LINE
  5
2B2
100
AcDbEntity
  8
RACCORDO
100
AcDbLine
 62
253
  6
CONTINUOUS
 10
140.9634217204
 20
60.8822296088
 11
162.0722894189
 21
60.8823134801
  0
LINE
  5
2B3
100
AcDbEntity
  8
ASSI
100
AcDbLine
 62
253
  6
CONTINUOUS
 10
140.9634217204
 20
60.8822296088
 11
162.0722894189
 21
60.8823134801
  0
LINE
  5
2B4
100
AcDbEntity
  8
RACCORDO
100
AcDbLine
 62
253
  6
CONTINUOUS
 10
162.6381647974
 20
60.9676073866
 11
162.5292239555
 21
60.9676073866
  0
LINE
  5
2B5
100
AcDbEntity
  8
ASSI
100
AcDbLine
 62
253
  6
CONTINUOUS
 10
162.6381647974
 20
60.9676073866
 11
162.5292239555
 21
60.9676073866
  0
LINE
  5
2B6
100
AcDbEntity
  8
RACCORDO
100
AcDbLine
 62
253
  6
CONTINUOUS
 10
72.6381647974
 20
60.9676073866
 11
72.7471056393
 21
60.9676073866
  0
LINE
  5
2B7
100
AcDbEntity
  8
ASSI
100
AcDbLine
 62
253
  6
CONTINUOUS
 10
72.6381647974
 20
60.9676073866
 11
72.7471056393
 21
60.9676073866
  0
LINE
  5
2B8
100
AcDbEntity
  8
RACCORDO
100
AcDbLine
 62
253
  6
CONTINUOUS
 10
73.2040401749
 20
60.8823134793
 11
94.3129078743
 21
60.8822296088
  0
LINE
  5
2B9
100
AcDbEntity
  8
ASSI
100
AcDbLine
 62
253
  6
CONTINUOUS
 10
73.2040401749
 20
60.8823134793
 11
94.3129078743
 21
60.8822296088
  0
LWPOLYLINE
  5
2BA
100
AcDbEntity
  8
RACCORDO
100
AcDbPolyline
 62
253
  6
CONTINUOUS
 90
18
 70
0
 10
140.9913255288
 20
61.1044088102
 10
140.9073711659
 20
61.1047613279
 10
140.8661408125
 20
61.1051999947
 10
140.825800698
 20
61.1058098538
 10
140.7866376957
 20
61.1065865685
 10
140.7489303077
 20
61.1075246152
 10
140.7129466847
 20
61.1086173231
 10
140.6789427192
 20
61.1098569217
 10
140.6471602257
 20
61.1112345956
 10
140.6178252208
 20
61.1127405477
 10
140.5911463164
 20
61.1143640687
 10
140.5673132357
 20
61.1160936131
 10
140.5464954644
 20
61.1179168816
 10
140.528841045
 20
61.1198209081
 10
140.5144755244
 20
61.1217921526
 10
140.5035010612
 20
61.1238165967
 10
140.4959956986
 20
61.1258798439
 10
140.4920128099
 20
61.1279672217
  0
LWPOLYLINE
  5
2BB
100
AcDbEntity
  8
ASSI
100
AcDbPolyline
 62
253
  6
CONTINUOUS
 90
18
 70
0
 10
140.9913255288
 20
61.1044088102
 10
140.9073711659
 20
61.1047613279
 10
140.8661408125
 20
61.1051999947
 10
140.825800698
 20
61.1058098538
 10
140.7866376957
 20
61.1065865685
 10
140.7489303077
 20
61.1075246152
 10
140.7129466847
 20
61.1086173231
 10
140.6789427192
 20
61.1098569217
 10
140.6471602257
 20
61.1112345956
 10
140.6178252208
 20
61.1127405477
 10
140.5911463164
 20
61.1143640687
 10
140.5673132357
 20
61.1160936131
 10
140.5464954644
 20
61.1179168816
 10
140.528841045
 20
61.1198209081
 10
140.5144755244
 20
61.1217921526
 10
140.5035010612
 20
61.1238165967
 10
140.4959956986
 20
61.1258798439
 10
140.4920128099
 20
61.1279672217
  0
LWPOLYLINE
  5
2BC
100
AcDbEntity
  8
RACCORDO
100
AcDbPolyline
 62
253
  6
CONTINUOUS
 90
22
 70
0
 10
95.1861909923
 20
60.7299079781
 10
95.1608584422
 20
60.7306157213
 10
95.1356417
 20
60.7329080941
 10
95.1106400482
 20
60.7367727224
 10
95.0859577039
 20
60.7421886876
 10
95.0616850128
 20
60.7491328359
 10
95.0378992848
 20
60.7575840584
 10
95.0146843257
 20
60.7675142584
 10
94.9921427719
 20
60.7788811677
 10
94.970376911
 20
60.7916351901
 10
94.9494849317
 20
60.8057148324
 10
94.9295341523
 20
60.8210705375
 10
94.9105782808
 20
60.8376658776
 10
94.8926790875
 20
60.8554562633
 10
94.8759297877
 20
60.8743588505
 10
94.8604243169
 20
60.8942728788
 10
94.8462126481
 20
60.9151341687
 10
94.8333619976
 20
60.9368431016
 10
94.8219634602
 20
60.9592267495
 10
94.8120564197
 20
60.9821583542
 10
94.8036459041
 20
61.0055678736
 10
94.7967461199
 20
61.0293578357
  0
LWPOLYLINE
  5
2BD
100
AcDbEntity
  8
ASSI
100
AcDbPolyline
 62
253
  6
CONTINUOUS
 90
22
 70
0
 10
95.1861909923
 20
60.7299079781
 10
95.1608584422
 20
60.7306157213
 10
95.1356417
 20
60.7329080941
 10
95.1106400482
 20
60.7367727224
 10
95.0859577039
 20
60.7421886876
 10
95.0616850128
 20
60.7491328359
 10
95.0378992848
 20
60.7575840584
 10
95.0146843257
 20
60.7675142584
 10
94.9921427719
 20
60.7788811677
 10
94.970376911
 20
60.7916351901
 10
94.9494849317
 20
60.8057148324
 10
94.9295341523
 20
60.8210705375
 10
94.9105782808
 20
60.8376658776
 10
94.8926790875
 20
60.8554562633
 10
94.8759297877
 20
60.8743588505
 10
94.8604243169
 20
60.8942728788
 10
94.8462126481
 20
60.9151341687
 10
94.8333619976
 20
60.9368431016
 10
94.8219634602
 20
60.9592267495
 10
94.8120564197
 20
60.9821583542
 10
94.8036459041
 20
61.0055678736
 10
94.7967461199
 20
61.0293578357
  0
LWPOLYLINE
  5
2BE
100
AcDbEntity
  8
RACCORDO
100
AcDbPolyline
 62
253
  6
CONTINUOUS
 90
22
 70
0
 10
95.1862112944
 20
60.2034634726
 10
95.1289810286
 20
60.2053298068
 10
95.0724589866
 20
60.2106955156
 10
95.0166451685
 20
60.2195606173
 10
94.9613407744
 20
60.2319857295
 10
94.9067446041
 20
60.247910307
 10
94.8534530574
 20
60.267152639
 10
94.8014571071
 20
60.2897587456
 10
94.7507657803
 20
60.3156827403
 10
94.7020025575
 20
60.3446050574
 10
94.6552156988
 20
60.3765377756
 10
94.6103569441
 20
60.4114689886
 10
94.5679049936
 20
60.4490431456
 10
94.5278499757
 20
60.489329306
 10
94.4902017621
 20
60.532258602
 10
94.4554686682
 20
60.5772685666
 10
94.4236866652
 20
60.6244558998
 10
94.3948197819
 20
60.6737240759
 10
94.3692684209
 20
60.7242207316
 10
94.3471660498
 20
60.7756617636
 10
94.3283792009
 20
60.8283313715
 10
94.3129078743
 20
60.8822296088
  0
LWPOLYLINE
  5
2BF
100
AcDbEntity
  8
ASSI
100
AcDbPolyline
 62
253
  6
CONTINUOUS
 90
22
 70
0
 10
95.1862112944
 20
60.2034634726
 10
95.1289810286
 20
60.2053298068
 10
95.0724589866
 20
60.2106955156
 10
95.0166451685
 20
60.2195606173
 10
94.9613407744
 20
60.2319857295
 10
94.9067446041
 20
60.247910307
 10
94.8534530574
 20
60.267152639
 10
94.8014571071
 20
60.2897587456
 10
94.7507657803
 20
60.3156827403
 10
94.7020025575
 20
60.3446050574
 10
94.6552156988
 20
60.3765377756
 10
94.6103569441
 20
60.4114689886
 10
94.5679049936
 20
60.4490431456
 10
94.5278499757
 20
60.489329306
 10
94.4902017621
 20
60.532258602
 10
94.4554686682
 20
60.5772685666
 10
94.4236866652
 20
60.6244558998
 10
94.3948197819
 20
60.6737240759
 10
94.3692684209
 20
60.7242207316
 10
94.3471660498
 20
60.7756617636
 10
94.3283792009
 20
60.8283313715
 10
94.3129078743
 20
60.8822296088
  0
LWPOLYLINE
  5
2C0
100
AcDbEntity
  8
SCRITTA
100
AcDbPolyline
 62
253
  6
CONTINUOUS
 90
86
 70
0
 10
122.4004132271
 20
57.3419457354
 10
122.4159463747
 20
57.3360129022
 10
122.431691234
 20
57.3293311385
 10
122.4476732641
 20
57.3218700135
 10
122.463917924
 20
57.3135990968
 10
122.4804506729
 20
57.3044879575
 10
122.4972969697
 20
57.2945061652
 10
122.5144615353
 20
57.2836329943
 10
122.5318661384
 20
57.2718865396
 10
122.5494118092
 20
57.2592946015
 10
122.5669995781
 20
57.2458849798
 10
122.5845304755
 20
57.2316854747
 10
122.6019055318
 20
57.2167238862
 10
122.6190345145
 20
57.2010248888
 10
122.6358621402
 20
57.184600654
 10
122.6523418627
 20
57.1674602274
 10
122.6684271359
 20
57.149612655
 10
122.6840714134
 20
57.1310669825
 10
122.6992281491
 20
57.1118322556
 10
122.7138501621
 20
57.0919296527
 10
122.7278877327
 20
57.0714288824
 10
122.7412905067
 20
57.0504117858
 10
122.7540081297
 20
57.028960204
 10
122.7659902473
 20
57.0071559781
 10
122.7771865053
 20
56.9850809493
 10
122.7875576407
 20
56.962809915
 10
122.7971087566
 20
56.9403894986
 10
122.8058560473
 20
56.9178592798
 10
122.8138157072
 20
56.8952588383
 10
122.8210039307
 20
56.8726277538
 10
122.8274369121
 20
56.8500056061
 10
122.8341876995
 20
56.8229300728
 10
122.8399342061
 20
56.7960139123
 10
122.8447363801
 20
56.7693466338
 10
122.8486541691
 20
56.7430177464
 10
122.8517475213
 20
56.7171167592
 10
122.8540740225
 20
56.6917215875
 10
122.8556818114
 20
56.6668637712
 10
122.8566166647
 20
56.6425632566
 10
122.8569243589
 20
56.6188399897
 10
122.8566506709
 20
56.5957139165
 10
122.8558384115
 20
56.5731990668
 10
122.8545185289
 20
56.5512858041
 10
122.8527190054
 20
56.5299585753
 10
122.8504678234
 20
56.5092018276
 10
122.8477929654
 20
56.4890000079
 10
122.8438932491
 20
56.4645021558
 10
122.8394120429
 20
56.4408031935
 10
122.8343861284
 20
56.4178592369
 10
122.8288522869
 20
56.3956264023
 10
122.8228474445
 20
56.3740675686
 10
122.8164091053
 20
56.3531726663
 10
122.8095749179
 20
56.3329383886
 10
122.802382531
 20
56.3133614288
 10
122.7948690303
 20
56.2944382526
 10
122.7870692506
 20
56.2761644144
 10
122.7790174641
 20
56.2585352411
 10
122.7707479427
 20
56.2415460595
 10
122.7594358709
 20
56.2198752982
 10
122.7478393987
 20
56.1992870062
 10
122.736000282
 20
56.1797341975
 10
122.723959494
 20
56.1611743575
 10
122.7117548766
 20
56.1435828573
 10
122.6994234892
 20
56.1269395393
 10
122.6870031301
 20
56.1112169638
 10
122.6745345534
 20
56.0963585634
 10
122.6620592521
 20
56.0823004886
 10
122.6496196797
 20
56.0689808466
 10
122.6372621299
 20
56.0563455722
 10
122.6250338568
 20
56.0443425569
 10
122.6129777654
 20
56.0329210235
 10
122.601119364
 20
56.0220355209
 10
122.5894798118
 20
56.0116419296
 10
122.572461923
 20
55.9968783284
 10
122.5559890025
 20
55.9829865503
 10
122.5401081404
 20
55.9698937594
 10
122.5323304397
 20
55.9636689352
 10
122.5245483167
 20
55.9576909575
 10
122.516674907
 20
55.9520059932
 10
122.5087312501
 20
55.9467239573
 10
122.5007599709
 20
55.9419601684
 10
122.4927821346
 20
55.9377878103
 10
122.4848052805
 20
55.934262904
 10
122.4768044039
 20
55.931414956
 10
122.4687551069
 20
55.9292677861
 10
122.4606679623
 20
55.9278489808
  0
LWPOLYLINE
  5
2C1
100
AcDbEntity
  8
SCRITTA
100
AcDbPolyline
 62
253
  6
CONTINUOUS
 90
41
 70
0
 10
122.4606679623
 20
55.911305172
 10
122.4699612475
 20
55.9074252884
 10
122.4792008457
 20
55.9032144016
 10
122.4883920351
 20
55.8986643489
 10
122.4975400943
 20
55.8937669677
 10
122.5066497757
 20
55.8885134905
 10
122.5157237284
 20
55.8828927311
 10
122.5247640756
 20
55.8768928983
 10
122.5337729403
 20
55.8705022012
 10
122.5427488555
 20
55.863712201
 10
122.5516759924
 20
55.8565278689
 10
122.5605349322
 20
55.8489575286
 10
122.5693062558
 20
55.8410095035
 10
122.5779717105
 20
55.8326935716
 10
122.5865177089
 20
55.8240253288
 10
122.5949318295
 20
55.815021825
 10
122.6032016512
 20
55.8057001106
 10
122.611318077
 20
55.7960735925
 10
122.619285308
 20
55.7861411064
 10
122.6271108694
 20
55.7758978446
 10
122.6348022868
 20
55.7653389998
 10
122.6423652539
 20
55.7544620077
 10
122.6497981394
 20
55.7432732779
 10
122.6570974802
 20
55.7317814631
 10
122.6642598134
 20
55.719995216
 10
122.6722741407
 20
55.7061746432
 10
122.6801058892
 20
55.6919868425
 10
122.6877559515
 20
55.6774378491
 10
122.6952252205
 20
55.6625336981
 10
122.7025145891
 20
55.6472804244
 10
122.7096249499
 20
55.6316840633
 10
122.7165571959
 20
55.6157506497
 10
122.7244207731
 20
55.5967446293
 10
122.732043849
 20
55.5773030862
 10
122.7394271413
 20
55.5574410489
 10
122.7465713677
 20
55.5371735462
 10
122.7534772458
 20
55.5165156068
 10
122.7601454933
 20
55.4954822591
 10
122.7665876567
 20
55.4740880189
 10
122.7728585975
 20
55.4523453493
 10
122.7790240061
 20
55.4302662006
  0
LINE
  5
2C2
100
AcDbEntity
  8
RACCORDO
100
AcDbLine
 62
253
  6
CONTINUOUS
 10
72.7488179706
 20
39.3918725935
 11
72.6381675193
 21
39.2793693922
  0
LINE
  5
2C3
100
AcDbEntity
  8
ASSI
100
AcDbLine
 62
253
  6
CONTINUOUS
 10
72.7488179706
 20
39.3918725935
 11
72.6381675193
 21
39.2793693922
  0
LINE
  5
2C4
100
AcDbEntity
  8
RACCORDO
100
AcDbLine
 62
253
  6
CONTINUOUS
 10
161.7353496177
 20
128.3615642361
 11
161.8539275881
 21
128.4820743028
  0
LINE
  5
2C5
100
AcDbEntity
  8
ASSI
100
AcDbLine
 62
253
  6
CONTINUOUS
 10
161.7353496177
 20
128.3615642361
 11
161.8539275881
 21
128.4820743028
  0
LINE
  5
2C6
100
AcDbEntity
  8
RACCORDO
100
AcDbLine
 62
253
  6
CONTINUOUS
 10
73.5409799771
 20
38.6028949817
 11
73.4224020067
 21
38.4823849149
  0
LINE
  5
2C7
100
AcDbEntity
  8
ASSI
100
AcDbLine
 62
253
  6
CONTINUOUS
 10
73.5409799771
 20
38.6028949817
 11
73.4224020067
 21
38.4823849149
  0
LINE
  5
2C8
100
AcDbEntity
  8
RACCORDO
100
AcDbLine
 62
253
  6
CONTINUOUS
 10
140.037660075
 20
106.1822296089
 11
140.0901106129
 21
106.2345511712
  0
LINE
  5
2C9
100
AcDbEntity
  8
ASSI
100
AcDbLine
 62
253
  6
CONTINUOUS
 10
140.037660075
 20
106.1822296089
 11
140.0901106129
 21
106.2345511712
  0
LINE
  5
2CA
100
AcDbEntity
  8
RACCORDO
100
AcDbLine
 62
253
  6
CONTINUOUS
 10
140.4381648052
 20
105.7827871431
 11
140.4920124698
 21
105.836500259
  0
LINE
  5
2CB
100
AcDbEntity
  8
ASSI
100
AcDbLine
 62
253
  6
CONTINUOUS
 10
140.4381648052
 20
105.7827871431
 11
140.4920124698
 21
105.836500259
  0
LINE
  5
2CC
100
AcDbEntity
  8
RACCORDO
100
AcDbLine
 62
253
  6
CONTINUOUS
 10
94.7843171308
 20
61.1279678067
 11
94.8381647895
 21
61.1816720746
  0
LINE
  5
2CD
100
AcDbEntity
  8
ASSI
100
AcDbLine
 62
253
  6
CONTINUOUS
 10
94.7843171308
 20
61.1279678067
 11
94.8381647895
 21
61.1816720746
  0
LINE
  5
2CE
100
AcDbEntity
  8
RACCORDO
100
AcDbLine
 62
253
  6
CONTINUOUS
 10
95.1861910615
 20
60.7299080465
 11
95.2386695198
 21
60.7822296089
  0
LINE
  5
2CF
100
AcDbEntity
  8
ASSI
100
AcDbLine
 62
253
  6
CONTINUOUS
 10
95.1861910615
 20
60.7299080465
 11
95.2386695198
 21
60.7822296089
  0
LWPOLYLINE
  5
2D0
100
AcDbEntity
  8
RACCORDO
100
AcDbPolyline
 62
253
  6
CONTINUOUS
 90
15
 70
0
 10
94.4734062633
 20
60.9245506069
 10
94.5113769859
 20
60.9350131162
 10
94.547934299
 20
60.9452785615
 10
94.5828178464
 20
60.9552738338
 10
94.6157791926
 20
60.964927748
 10
94.6465835915
 20
60.9741715505
 10
94.6750116586
 20
60.9829394083
 10
94.7008609331
 20
60.9911688778
 10
94.7239473203
 20
60.9988013501
 10
94.7441064022
 20
61.0057824677
 10
94.7611946086
 20
61.0120625121
 10
94.7750902397
 20
61.0175967579
 10
94.7856943328
 20
61.0223457909
 10
94.7929313672
 20
61.0262757892
 10
94.7967498015
 20
61.0293587639
  0
LWPOLYLINE
  5
2D1
100
AcDbEntity
  8
ASSI
100
AcDbPolyline
 62
253
  6
CONTINUOUS
 90
15
 70
0
 10
94.4734062633
 20
60.9245506069
 10
94.5113769859
 20
60.9350131162
 10
94.547934299
 20
60.9452785615
 10
94.5828178464
 20
60.9552738338
 10
94.6157791926
 20
60.964927748
 10
94.6465835915
 20
60.9741715505
 10
94.6750116586
 20
60.9829394083
 10
94.7008609331
 20
60.9911688778
 10
94.7239473203
 20
60.9988013501
 10
94.7441064022
 20
61.0057824677
 10
94.7611946086
 20
61.0120625121
 10
94.7750902397
 20
61.0175967579
 10
94.7856943328
 20
61.0223457909
 10
94.7929313672
 20
61.0262757892
 10
94.7967498015
 20
61.0293587639
  0
LINE
  5
2D2
100
AcDbEntity
  8
RACCORDO
100
AcDbLine
 62
253
  6
CONTINUOUS
 10
94.3943144179
 20
60.9033333188
 11
94.4734062633
 21
60.9245506069
  0
LINE
  5
2D3
100
AcDbEntity
  8
ASSI
100
AcDbLine
 62
253
  6
CONTINUOUS
 10
94.3943144179
 20
60.9033333188
 11
94.4734062633
 21
60.9245506069
  0
LINE
  5
2D4
100
AcDbEntity
  8
RACCORDO
100
AcDbLine
 62
253
  6
CONTINUOUS
 10
94.3129078747
 20
60.882230047
 11
94.3943144179
 21
60.9033333188
  0
LINE
  5
2D5
100
AcDbEntity
  8
ASSI
100
AcDbLine
 62
253
  6
CONTINUOUS
 10
94.3129078747
 20
60.882230047
 11
94.3943144179
 21
60.9033333188
  0
LINE
  5
2D6
100
AcDbEntity
  8
RACCORDO
100
AcDbLine
 62
253
  6
CONTINUOUS
 10
140.9634217204
 20
60.882230127
 11
140.8820151405
 21
60.9033333979
  0
LINE
  5
2D7
100
AcDbEntity
  8
ASSI
100
AcDbLine
 62
253
  6
CONTINUOUS
 10
140.9634217204
 20
60.882230127
 11
140.8820151405
 21
60.9033333979
  0
LWPOLYLINE
  5
2D8
100
AcDbEntity
  8
RACCORDO
100
AcDbPolyline
 62
253
  6
CONTINUOUS
 90
16
 70
0
 10
140.8820151405
 20
60.9033333979
 10
140.8029232189
 20
60.924550695
 10
140.7649524471
 20
60.9350132116
 10
140.7283950796
 20
60.9452786657
 10
140.6935114739
 20
60.9552739477
 10
140.6605500672
 20
60.9649278725
 10
140.629745607
 20
60.9741716858
 10
140.6013174793
 20
60.9829395544
 10
140.575468146
 20
60.9911690345
 10
140.5523817032
 20
60.9988015167
 10
140.5322225701
 20
61.0057826432
 10
140.5151343178
 20
61.0120626955
 10
140.501238647
 20
61.0175969476
 10
140.490634521
 20
61.0223459852
 10
140.4833974613
 20
61.0262759864
 10
140.4795790094
 20
61.0293589621
  0
LWPOLYLINE
  5
2D9
100
AcDbEntity
  8
ASSI
100
AcDbPolyline
 62
253
  6
CONTINUOUS
 90
16
 70
0
 10
140.8820151405
 20
60.9033333979
 10
140.8029232189
 20
60.924550695
 10
140.7649524471
 20
60.9350132116
 10
140.7283950796
 20
60.9452786657
 10
140.6935114739
 20
60.9552739477
 10
140.6605500672
 20
60.9649278725
 10
140.629745607
 20
60.9741716858
 10
140.6013174793
 20
60.9829395544
 10
140.575468146
 20
60.9911690345
 10
140.5523817032
 20
60.9988015167
 10
140.5322225701
 20
61.0057826432
 10
140.5151343178
 20
61.0120626955
 10
140.501238647
 20
61.0175969476
 10
140.490634521
 20
61.0223459852
 10
140.4833974613
 20
61.0262759864
 10
140.4795790094
 20
61.0293589621
  0
LINE
  5
2DA
100
AcDbEntity
  8
SCRITTA
100
AcDbLine
 62
253
  6
CONTINUOUS
 10
116.2380967974
 20
56.4325826089
 11
116.9236777974
 21
54.6044286089
  0
LINE
  5
2DB
100
AcDbEntity
  8
IMPORT_IGES
100
AcDbLine
 62
7
  6
CONTINUOUS
 10
116.9236777974
 20
54.6044286089
 11
116.2380967974
 21
56.4325826089
  0
LINE
  5
2DC
100
AcDbEntity
  8
SCRITTA
100
AcDbLine
 62
253
  6
CONTINUOUS
 10
116.9678507974
 20
55.8497276089
 11
116.3896147974
 21
57.4041316089
  0
LINE
  5
2DD
100
AcDbEntity
  8
SCRITTA
100
AcDbLine
 62
253
  6
CONTINUOUS
 10
112.1344967974
 20
57.4041316089
 11
113.0220577974
 21
54.6044286089
  0
LINE
  5
2DE
100
AcDbEntity
  8
SCRITTA
100
AcDbLine
 62
253
  6
CONTINUOUS
 10
113.3030187974
 20
55.4770096089
 11
112.7693447974
 21
57.4041316089
  0
LINE
  5
2DF
100
AcDbEntity
  8
IMPORT_IGES
100
AcDbLine
 62
7
  6
CONTINUOUS
 10
118.1304727974
 20
57.4041316089
 11
118.3922767974
 21
54.6044286089
  0
LINE
  5
2E0
100
AcDbEntity
  8
SCRITTA
100
AcDbLine
 62
253
  6
CONTINUOUS
 10
118.3922767974
 20
54.6044286089
 11
118.1304727974
 21
57.4041316089
  0
LINE
  5
2E1
100
AcDbEntity
  8
SCRITTA
100
AcDbLine
 62
253
  6
CONTINUOUS
 10
117.7005017974
 20
56.4249606089
 11
117.8205707974
 21
54.6044286089
  0
LINE
  5
2E2
100
AcDbEntity
  8
IMPORT_IGES
100
AcDbLine
 62
7
  6
CONTINUOUS
 10
117.8205707974
 20
54.6044286089
 11
117.7005017974
 21
56.4249606089
  0
LINE
  5
2E3
100
AcDbEntity
  8
IMPORT_IGES
100
AcDbLine
 62
7
  6
CONTINUOUS
 10
114.6538797974
 20
57.4042996089
 11
114.6538797974
 21
54.6044286089
  0
LINE
  5
2E4
100
AcDbEntity
  8
SCRITTA
100
AcDbLine
 62
253
  6
CONTINUOUS
 10
114.6538797974
 20
54.6044286089
 11
114.6538797974
 21
57.4042996832
  0
LINE
  5
2E5
100
AcDbEntity
  8
SCRITTA
100
AcDbLine
 62
253
  6
CONTINUOUS
 10
115.2382877974
 20
57.4042996089
 11
115.2382877974
 21
54.6044285346
  0
LWPOLYLINE
  5
2E6
100
AcDbEntity
  8
0
100
AcDbPolyline
 62
7
  6
CONTINUOUS
 90
13
 70
0
 43
0.3500000006
 10
117.6381669617
 20
143.7562340698
 10
117.6381669617
 20
145.041940979
 10
117.8524514465
 20
145.4705099487
 10
118.2810204163
 20
145.8990789185
 10
118.4953049011
 20
145.8990789185
 10
118.9238829346
 20
145.4705099487
 10
119.1381674194
 20
145.041940979
 10
119.1381674194
 20
143.7562340698
 10
118.9238829346
 20
143.3276651001
 10
118.4953049011
 20
142.8990961304
 10
118.2810204163
 20
142.8990961304
 10
117.8524514465
 20
143.3276651001
 10
117.6381669617
 20
143.7562340698
  0
LINE
  5
2E7
100
AcDbEntity
  8
IMPORT_IGES
100
AcDbLine
 62
7
  6
CONTINUOUS
 10
116.2380967974
 20
56.4325826089
 11
116.1119817974
 21
54.6044286089
  0
LINE
  5
2E8
100
AcDbEntity
  8
SCRITTA
100
AcDbLine
 62
253
  6
CONTINUOUS
 10
116.1119817974
 20
54.6044286089
 11
116.2380967974
 21
56.4325826089
  0
LINE
  5
2E9
100
AcDbEntity
  8
SCRITTA
100
AcDbLine
 62
253
  6
CONTINUOUS
 10
115.8056897974
 20
57.4041316089
 11
115.5528927974
 21
54.6044286089
  0
LINE
  5
2EA
100
AcDbEntity
  8
RACCORDO
100
AcDbLine
 62
253
  6
CONTINUOUS
 10
162.5275116242
 20
127.5725866242
 11
162.6381620755
 21
127.6850898255
  0
LINE
  5
2EB
100
AcDbEntity
  8
ASSI
100
AcDbLine
 62
253
  6
CONTINUOUS
 10
162.5275116242
 20
127.5725866242
 11
162.6381620755
 21
127.6850898255
  0
LWPOLYLINE
  5
2EC
100
AcDbEntity
  8
SCRITTA
100
AcDbPolyline
 62
253
  6
CONTINUOUS
 90
47
 70
0
 10
122.1795449137
 20
55.4536251186
 10
122.1756121763
 20
55.4637214063
 10
122.1715024085
 20
55.4735764067
 10
122.1672247058
 20
55.4831925738
 10
122.1627881636
 20
55.4925723618
 10
122.1582018774
 20
55.5017182249
 10
122.1534749427
 20
55.510632617
 10
122.1486164549
 20
55.5193179923
 10
122.1436355096
 20
55.527776805
 10
122.1385412021
 20
55.5360115091
 10
122.133342628
 20
55.5440245588
 10
122.1274531999
 20
55.5526711568
 10
122.1214466979
 20
55.561051642
 10
122.1153235434
 20
55.5691705193
 10
122.1090841579
 20
55.5770322936
 10
122.1027289625
 20
55.5846414698
 10
122.0962583789
 20
55.5920025529
 10
122.0896728283
 20
55.5991200478
 10
122.0829727322
 20
55.6059984593
 10
122.0761585118
 20
55.6126422924
 10
122.0692308034
 20
55.6190546958
 10
122.0621911015
 20
55.625233394
 10
122.0550411153
 20
55.6311747551
 10
122.0477825542
 20
55.6368751475
 10
122.0404171274
 20
55.6423309392
 10
122.0329465443
 20
55.6475384987
 10
122.025372514
 20
55.6524941941
 10
122.0176967459
 20
55.6571943936
 10
122.0099209492
 20
55.6616354655
 10
122.0020466404
 20
55.6658151261
 10
121.9940745644
 20
55.6697364836
 10
121.9860052733
 20
55.6734039944
 10
121.9778393191
 20
55.6768221148
 10
121.9695772539
 20
55.679995301
 10
121.9612196297
 20
55.6829280094
 10
121.9527669988
 20
55.6856246963
 10
121.944219913
 20
55.688089818
 10
121.9355789246
 20
55.6903278308
 10
121.9268444624
 20
55.692341946
 10
121.918016463
 20
55.6941303946
 10
121.90909474
 20
55.6956901624
 10
121.9000791068
 20
55.6970182353
 10
121.8909693769
 20
55.6981115993
 10
121.8817653637
 20
55.6989672403
 10
121.8724668808
 20
55.6995821441
 10
121.8630737417
 20
55.6999532968
 10
121.8535857597
 20
55.7000776841
  0
LWPOLYLINE
  5
2ED
100
AcDbEntity
  8
IMPORT_IGES
100
AcDbPolyline
 62
7
  6
CONTINUOUS
 90
8
 70
0
 10
122.1796331593
 20
55.4533901796
 10
122.1938380378
 20
55.4146461005
 10
122.2074638998
 20
55.3757024951
 10
122.2205737026
 20
55.3365814149
 10
122.233230404
 20
55.2973049114
 10
122.2454969616
 20
55.2578950361
 10
122.2574363328
 20
55.2183738404
 10
122.2691114753
 20
55.1787633759
  0
LINE
  5
2EE
100
AcDbEntity
  8
IMPORT_IGES
100
AcDbLine
 62
7
  6
CONTINUOUS
 10
119.9275547974
 20
57.4041316089
 11
120.7865727974
 21
54.6044286089
  0
LINE
  5
2EF
100
AcDbEntity
  8
SCRITTA
100
AcDbLine
 62
253
  6
CONTINUOUS
 10
120.7865727974
 20
54.6044286089
 11
119.9275547974
 21
57.4041316089
  0
LWPOLYLINE
  5
2F0
100
AcDbEntity
  8
SCRITTA
100
AcDbPolyline
 62
253
  6
CONTINUOUS
 90
8
 70
0
 10
122.2656954323
 20
55.1904415534
 10
122.2541171067
 20
55.2294594052
 10
122.2423695499
 20
55.2680274375
 10
122.2304097828
 20
55.3061281457
 10
122.2181948261
 20
55.3437440252
 10
122.2056817006
 20
55.3808575712
 10
122.192827427
 20
55.4174512792
 10
122.179589026
 20
55.4535076444
  0
LINE
  5
2F1
100
AcDbEntity
  8
SCRITTA
100
AcDbLine
 62
253
  6
CONTINUOUS
 10
122.4202625278
 20
54.656029552
 11
122.347030287
 21
54.9062493679
  0
LINE
  5
2F2
100
AcDbEntity
  8
SCRITTA
100
AcDbLine
 62
253
  6
CONTINUOUS
 10
122.4351804193
 20
54.6044282545
 11
122.4202625278
 21
54.656029552
  0
LINE
  5
2F3
100
AcDbEntity
  8
IMPORT_IGES
100
AcDbLine
 62
7
  6
CONTINUOUS
 10
122.325727273
 20
54.9801438212
 11
122.4351804193
 21
54.6044282545
  0
LINE
  5
2F4
100
AcDbEntity
  8
IMPORT_IGES
100
AcDbLine
 62
7
  6
CONTINUOUS
 10
122.2691114753
 20
55.1787633759
 11
122.2919209046
 21
55.099362846
  0
LWPOLYLINE
  5
2F5
100
AcDbEntity
  8
SCRITTA
100
AcDbPolyline
 62
253
  6
CONTINUOUS
 90
4
 70
0
 10
122.347030287
 20
54.9062493679
 10
122.3057291591
 20
55.050607851
 10
122.2923605404
 20
55.097754377
 10
122.2656954323
 20
55.1904415534
  0
LINE
  5
2F6
100
AcDbEntity
  8
IMPORT_IGES
100
AcDbLine
 62
7
  6
CONTINUOUS
 10
122.2919209046
 20
55.099362846
 11
122.325727273
 21
54.9801438212
  0
LWPOLYLINE
  5
2F7
100
AcDbEntity
  8
IMPORT_IGES
100
AcDbPolyline
 62
7
  6
CONTINUOUS
 90
45
 70
0
 10
122.7798882571
 20
55.4272401259
 10
122.7738650096
 20
55.4488837672
 10
122.7676302048
 20
55.4705825208
 10
122.7610999458
 20
55.4923814459
 10
122.7541903361
 20
55.5143256017
 10
122.7502280686
 20
55.5263852308
 10
122.7461250542
 20
55.53848946
 10
122.7418787372
 20
55.5506261239
 10
122.7374865621
 20
55.5627830572
 10
122.7329459732
 20
55.5749480944
 10
122.7282544151
 20
55.5871090703
 10
122.7234093321
 20
55.5992538195
 10
122.7184081688
 20
55.6113701766
 10
122.7132483694
 20
55.6234459764
 10
122.7079273785
 20
55.6354690534
 10
122.7024426405
 20
55.6474272423
 10
122.6967915998
 20
55.6593083778
 10
122.6909717009
 20
55.6711002945
 10
122.6849803881
 20
55.6827908271
 10
122.6788151059
 20
55.6943678103
 10
122.6724732988
 20
55.7058190786
 10
122.6659524112
 20
55.7171324667
 10
122.6592498874
 20
55.7282958094
 10
122.652363172
 20
55.7392969411
 10
122.6452897094
 20
55.7501236967
 10
122.638026944
 20
55.7607639107
 10
122.6305723201
 20
55.7712054179
 10
122.6229232824
 20
55.7814360528
 10
122.6150772751
 20
55.7914436501
 10
122.6070317428
 20
55.8012160444
 10
122.5987841298
 20
55.8107410705
 10
122.5903318807
 20
55.820006563
 10
122.5816724397
 20
55.8290003565
 10
122.5728032514
 20
55.8377102856
 10
122.5637217601
 20
55.8461241851
 10
122.5544254104
 20
55.8542298896
 10
122.5449116467
 20
55.8620152337
 10
122.5351779133
 20
55.8694680521
 10
122.5252216547
 20
55.8765761795
 10
122.5150403153
 20
55.8833274504
 10
122.5046313396
 20
55.8897096996
 10
122.4939921721
 20
55.8957107617
 10
122.483120257
 20
55.9013184714
 10
122.472013039
 20
55.9065206633
 10
122.4606679623
 20
55.911305172
  0
LINE
  5
2F8
100
AcDbEntity
  8
SCRITTA
100
AcDbLine
 62
253
  6
CONTINUOUS
 10
120.0192387974
 20
55.1633486089
 11
120.1706307974
 21
54.6044286089
  0
LINE
  5
2F9
100
AcDbEntity
  8
IMPORT_IGES
100
AcDbLine
 62
7
  6
CONTINUOUS
 10
120.1706307974
 20
54.6044286089
 11
120.0192387974
 21
55.1633486089
  0
LINE
  5
2FA
100
AcDbEntity
  8
IMPORT_IGES
100
AcDbLine
 62
7
  6
CONTINUOUS
 10
122.8248226363
 20
55.2610621627
 11
122.7798882571
 21
55.4272401259
  0
LINE
  5
2FB
100
AcDbEntity
  8
SCRITTA
100
AcDbLine
 62
253
  6
CONTINUOUS
 10
122.7790240061
 20
55.4302662006
 11
122.8326448763
 21
55.2317475963
  0
LINE
  5
2FC
100
AcDbEntity
  8
IMPORT_IGES
100
AcDbLine
 62
7
  6
CONTINUOUS
 10
122.9973130093
 20
54.6044282545
 11
122.9706497551
 21
54.704382758
  0
LINE
  5
2FD
100
AcDbEntity
  8
SCRITTA
100
AcDbLine
 62
253
  6
CONTINUOUS
 10
122.9648044131
 20
54.7264400459
 11
122.9973130093
 21
54.6044282545
  0
LINE
  5
2FE
100
AcDbEntity
  8
IMPORT_IGES
100
AcDbLine
 62
7
  6
CONTINUOUS
 10
122.8783193191
 20
55.0585152816
 11
122.8248226363
 21
55.2610621627
  0
LINE
  5
2FF
100
AcDbEntity
  8
SCRITTA
100
AcDbLine
 62
253
  6
CONTINUOUS
 10
122.8326448763
 20
55.2317475963
 11
122.8999238425
 21
54.9757886133
  0
LINE
  5
300
100
AcDbEntity
  8
IMPORT_IGES
100
AcDbLine
 62
7
  6
CONTINUOUS
 10
122.9706497551
 20
54.704382758
 11
122.8783193191
 21
55.0585152816
  0
LINE
  5
301
100
AcDbEntity
  8
SCRITTA
100
AcDbLine
 62
253
  6
CONTINUOUS
 10
122.8999238425
 20
54.9757886133
 11
122.9648044131
 21
54.7264400459
  0
LINE
  5
302
100
AcDbEntity
  8
SCRITTA
100
AcDbLine
 62
253
  6
CONTINUOUS
 10
119.6339017974
 20
56.6348446089
 11
119.9024447974
 21
55.5958386089
  0
LWPOLYLINE
  5
303
100
AcDbEntity
  8
SCRITTA
100
AcDbPolyline
 62
253
  6
CONTINUOUS
 90
49
 70
0
 10
122.3088180955
 20
56.5933670375
 10
122.3085024724
 20
56.6038663125
 10
122.3078674268
 20
56.6143077776
 10
122.3069160832
 20
56.6246952505
 10
122.3056515661
 20
56.6350325487
 10
122.3040770001
 20
56.6453234898
 10
122.3021955095
 20
56.6555718914
 10
122.3000102189
 20
56.6657815711
 10
122.2975242529
 20
56.6759563464
 10
122.2947402075
 20
56.6860975159
 10
122.2916585653
 20
56.6961963012
 10
122.2882792808
 20
56.7062414049
 10
122.2846023081
 20
56.7162215296
 10
122.2806276017
 20
56.7261253779
 10
122.2763551157
 20
56.7359416523
 10
122.2717848045
 20
56.7456590553
 10
122.2669166224
 20
56.7552662897
 10
122.261750505
 20
56.7647515563
 10
122.2562863127
 20
56.7741010504
 10
122.2505238873
 20
56.7833004653
 10
122.2444630705
 20
56.7923354948
 10
122.2381037042
 20
56.8011918322
 10
122.2314456301
 20
56.8098551711
 10
122.2244886898
 20
56.8183112052
 10
122.2172327253
 20
56.8265456279
 10
122.2096795322
 20
56.8345456048
 10
122.2018387222
 20
56.8423041898
 10
122.1937218608
 20
56.8498159087
 10
122.1853405137
 20
56.8570752876
 10
122.1767062464
 20
56.8640768523
 10
122.1678306247
 20
56.8708151286
 10
122.158725214
 20
56.8772846427
 10
122.14940158
 20
56.8834799202
 10
122.139871301
 20
56.8893962325
 10
122.1301460062
 20
56.895031832
 10
122.1202373375
 20
56.9003857164
 10
122.1101569369
 20
56.9054568834
 10
122.0999164462
 20
56.9102443308
 10
122.0895275074
 20
56.9147470562
 10
122.0790017624
 20
56.9189640575
 10
122.0683508531
 20
56.9228943324
 10
122.0575837527
 20
56.9265364183
 10
122.0466987599
 20
56.9298870124
 10
122.0356915044
 20
56.9329423514
 10
122.0245576161
 20
56.9356986721
 10
122.0132927251
 20
56.9381522113
 10
122.001892461
 20
56.9402992058
 10
121.9903524539
 20
56.9421358926
 10
121.9786683336
 20
56.9436585083
  0
LINE
  5
304
100
AcDbEntity
  8
SCRITTA
100
AcDbLine
 62
253
  6
CONTINUOUS
 10
120.9581835997
 20
54.6044282545
 11
120.9581835997
 21
57.3714221444
  0
LINE
  5
305
100
AcDbEntity
  8
SCRITTA
100
AcDbLine
 62
253
  6
CONTINUOUS
 10
121.5208620515
 20
56.9271748129
 11
121.5208620515
 21
56.1586014946
  0
LINE
  5
306
100
AcDbEntity
  8
SCRITTA
100
AcDbLine
 62
253
  6
CONTINUOUS
 10
121.5402401423
 20
55.7000776841
 11
121.5402401423
 21
54.6044282666
  0
LINE
  5
307
100
AcDbEntity
  8
IMPORT_IGES
100
AcDbLine
 62
7
  6
CONTINUOUS
 10
121.5402401423
 20
54.6044282545
 11
121.5402401423
 21
55.7000776841
  0
LINE
  5
308
100
AcDbEntity
  8
SCRITTA
100
AcDbLine
 62
253
  6
CONTINUOUS
 10
122.4606679623
 20
55.9278489808
 11
122.4606679623
 21
55.9113051716
  0
LINE
  5
309
100
AcDbEntity
  8
IMPORT_IGES
100
AcDbLine
 62
7
  6
CONTINUOUS
 10
122.4606679623
 20
55.911305172
 11
122.4606679623
 21
55.9278489808
  0
LINE
  5
30A
100
AcDbEntity
  8
IMPORT_IGES
100
AcDbLine
 62
7
  6
CONTINUOUS
 10
119.6339017974
 20
56.6348446089
 11
119.3429157974
 21
55.5958386089
  0
LINE
  5
30B
100
AcDbEntity
  8
SCRITTA
100
AcDbLine
 62
253
  6
CONTINUOUS
 10
119.3429157974
 20
55.5958386089
 11
119.6339017974
 21
56.6348446089
  0
LINE
  5
30C
100
AcDbEntity
  8
SCRITTA
100
AcDbLine
 62
253
  6
CONTINUOUS
 10
113.8529957974
 20
57.4041316089
 11
113.3030187974
 21
55.4770096089
  0
LINE
  5
30D
100
AcDbEntity
  8
SCRITTA
100
AcDbLine
 62
253
  6
CONTINUOUS
 10
119.3622097974
 20
57.4041316089
 11
118.4840447974
 21
54.6044286089
  0
LINE
  5
30E
100
AcDbEntity
  8
IMPORT_IGES
100
AcDbLine
 62
7
  6
CONTINUOUS
 10
114.4370047974
 20
57.4041316089
 11
113.5370677974
 21
54.6044286089
  0
LINE
  5
30F
100
AcDbEntity
  8
SCRITTA
100
AcDbLine
 62
253
  6
CONTINUOUS
 10
113.5370677974
 20
54.6044286089
 11
114.4370047974
 21
57.4041316089
  0
LINE
  5
310
100
AcDbEntity
  8
SCRITTA
100
AcDbLine
 62
253
  6
CONTINUOUS
 10
117.5522587974
 20
57.4041316089
 11
116.9678507974
 21
55.8497276089
  0
LINE
  5
311
100
AcDbEntity
  8
IMPORT_IGES
100
AcDbLine
 62
7
  6
CONTINUOUS
 10
117.7005017974
 20
56.4249606089
 11
117.0056407974
 21
54.6044286089
  0
LINE
  5
312
100
AcDbEntity
  8
SCRITTA
100
AcDbLine
 62
253
  6
CONTINUOUS
 10
117.0056407974
 20
54.6044286089
 11
117.7005017974
 21
56.4249606089
  0
LINE
  5
313
100
AcDbEntity
  8
RACCORDO
100
AcDbLine
 62
253
  6
CONTINUOUS
 10
94.7843171251
 20
105.8365001142
 11
94.8381647895
 21
105.7827871431
  0
LINE
  5
314
100
AcDbEntity
  8
ASSI
100
AcDbLine
 62
253
  6
CONTINUOUS
 10
94.7843171251
 20
105.8365001142
 11
94.8381647895
 21
105.7827871431
  0
LINE
  5
315
100
AcDbEntity
  8
RACCORDO
100
AcDbLine
 62
253
  6
CONTINUOUS
 10
140.0901104901
 20
60.7299080465
 11
140.037660075
 21
60.7822296089
  0
LINE
  5
316
100
AcDbEntity
  8
ASSI
100
AcDbLine
 62
253
  6
CONTINUOUS
 10
140.0901104901
 20
60.7299080465
 11
140.037660075
 21
60.7822296089
  0
LINE
  5
317
100
AcDbEntity
  8
RACCORDO
100
AcDbLine
 62
253
  6
CONTINUOUS
 10
95.1862189939
 20
106.2345511712
 11
95.2386695198
 21
106.1822296089
  0
LINE
  5
318
100
AcDbEntity
  8
ASSI
100
AcDbLine
 62
253
  6
CONTINUOUS
 10
95.1862189939
 20
106.2345511712
 11
95.2386695198
 21
106.1822296089
  0
LINE
  5
319
100
AcDbEntity
  8
RACCORDO
100
AcDbLine
 62
253
  6
CONTINUOUS
 10
140.4920124689
 20
61.12796043
 11
140.4381648052
 21
61.1816720746
  0
LINE
  5
31A
100
AcDbEntity
  8
ASSI
100
AcDbLine
 62
253
  6
CONTINUOUS
 10
140.4920124689
 20
61.12796043
 11
140.4381648052
 21
61.1816720746
  0
LINE
  5
31B
100
AcDbEntity
  8
RACCORDO
100
AcDbLine
 62
253
  6
CONTINUOUS
 10
161.7353496177
 20
38.6028949817
 11
161.8539275881
 21
38.4823849149
  0
LINE
  5
31C
100
AcDbEntity
  8
ASSI
100
AcDbLine
 62
253
  6
CONTINUOUS
 10
161.7353496177
 20
38.6028949817
 11
161.8539275881
 21
38.4823849149
  0
LINE
  5
31D
100
AcDbEntity
  8
RACCORDO
100
AcDbLine
 62
253
  6
CONTINUOUS
 10
73.5409799771
 20
128.3615642361
 11
73.4224020067
 21
128.4820743028
  0
LINE
  5
31E
100
AcDbEntity
  8
ASSI
100
AcDbLine
 62
253
  6
CONTINUOUS
 10
73.5409799771
 20
128.3615642361
 11
73.4224020067
 21
128.4820743028
  0
LINE
  5
31F
100
AcDbEntity
  8
RACCORDO
100
AcDbLine
 62
253
  6
CONTINUOUS
 10
72.7488179706
 20
127.5725866243
 11
72.6381675193
 21
127.6850898255
  0
LINE
  5
320
100
AcDbEntity
  8
ASSI
100
AcDbLine
 62
253
  6
CONTINUOUS
 10
72.7488179706
 20
127.5725866243
 11
72.6381675193
 21
127.6850898255
  0
LINE
  5
321
100
AcDbEntity
  8
RACCORDO
100
AcDbLine
 62
253
  6
CONTINUOUS
 10
162.5275116242
 20
39.3918725934
 11
162.6381620755
 21
39.2793693922
  0
LINE
  5
322
100
AcDbEntity
  8
ASSI
100
AcDbLine
 62
253
  6
CONTINUOUS
 10
162.5275116242
 20
39.3918725934
 11
162.6381620755
 21
39.2793693922
  0
LINE
  5
323
100
AcDbEntity
  8
IMPORT_IGES
100
AcDbLine
 62
7
  6
CONTINUOUS
 10
119.2233717974
 20
55.1633486089
 11
119.0621117974
 21
54.6044286089
  0
LINE
  5
324
100
AcDbEntity
  8
SCRITTA
100
AcDbLine
 62
253
  6
CONTINUOUS
 10
119.0621117974
 20
54.6044286089
 11
119.2233717974
 21
55.1633486089
  0
LWPOLYLINE
  5
325
100
AcDbEntity
  8
0
100
AcDbPolyline
 62
7
  6
CONTINUOUS
 90
13
 70
0
 43
0.3500000006
 10
177.9665004272
 20
83.4822285461
 10
176.6807935181
 20
83.4822285461
 10
176.2522245483
 20
83.696513031
 10
175.8236555786
 20
84.1250910645
 10
175.8236555786
 20
84.3393755493
 10
176.2522245483
 20
84.767944519
 10
176.6807935181
 20
84.9822290039
 10
177.9665004272
 20
84.9822290039
 10
178.3950875244
 20
84.767944519
 10
178.8236564941
 20
84.3393755493
 10
178.8236564941
 20
84.1250910645
 10
178.3950875244
 20
83.696513031
 10
177.9665004272
 20
83.4822285461
  0
LWPOLYLINE
  5
326
100
AcDbEntity
  8
RACCORDO
100
AcDbPolyline
 62
7
  6
CONTINUOUS
 90
22
 70
0
 10
140.4381648052
 20
105.7827871431
 10
140.4369925624
 20
105.8128139104
 10
140.433671446
 20
105.8423297608
 10
140.428201456
 20
105.8713346994
 10
140.4205491399
 20
105.8999493774
 10
140.4107479502
 20
105.9280531524
 10
140.3988982442
 20
105.9552840915
 10
140.384955926
 20
105.9816805552
 10
140.3689650914
 20
106.0072041983
 10
140.3511583846
 20
106.0313780365
 10
140.3314570956
 20
106.0541977587
 10
140.3099399344
 20
106.0756676974
 10
140.2870756753
 20
106.0953238399
 10
140.2628724196
 20
106.113084593
 10
140.237322066
 20
106.1290315732
 10
140.2108690859
 20
106.1429455845
 10
140.1835292258
 20
106.1547931879
 10
140.1552867392
 20
106.1646078403
 10
140.1265388577
 20
106.1722706897
 10
140.0974179917
 20
106.177742122
 10
140.0677917308
 20
106.1810617609
 10
140.037660075
 20
106.1822296089
  0
LWPOLYLINE
  5
327
100
AcDbEntity
  8
ASSI
100
AcDbPolyline
 62
7
  6
CONTINUOUS
 90
22
 70
0
 10
140.4381648052
 20
105.7827871431
 10
140.4369925624
 20
105.8128139104
 10
140.433671446
 20
105.8423297608
 10
140.428201456
 20
105.8713346994
 10
140.4205491399
 20
105.8999493774
 10
140.4107479502
 20
105.9280531524
 10
140.3988982442
 20
105.9552840915
 10
140.384955926
 20
105.9816805552
 10
140.3689650914
 20
106.0072041983
 10
140.3511583846
 20
106.0313780365
 10
140.3314570956
 20
106.0541977587
 10
140.3099399344
 20
106.0756676974
 10
140.2870756753
 20
106.0953238399
 10
140.2628724196
 20
106.113084593
 10
140.237322066
 20
106.1290315732
 10
140.2108690859
 20
106.1429455845
 10
140.1835292258
 20
106.1547931879
 10
140.1552867392
 20
106.1646078403
 10
140.1265388577
 20
106.1722706897
 10
140.0974179917
 20
106.177742122
 10
140.0677917308
 20
106.1810617609
 10
140.037660075
 20
106.1822296089
  0
LINE
  5
328
100
AcDbEntity
  8
RACCORDO
100
AcDbLine
 62
253
  6
CONTINUOUS
 10
140.0901183004
 20
106.7609957451
 11
140.0901183004
 21
106.2345511712
  0
LINE
  5
329
100
AcDbEntity
  8
ASSI
100
AcDbLine
 62
253
  6
CONTINUOUS
 10
140.0901183004
 20
106.7609957451
 11
140.0901183004
 21
106.2345511712
  0
LINE
  5
32A
100
AcDbEntity
  8
RACCORDO
100
AcDbLine
 62
253
  6
CONTINUOUS
 10
140.0901183004
 20
60.2034634726
 11
140.0901183004
 21
60.7299080465
  0
LINE
  5
32B
100
AcDbEntity
  8
ASSI
100
AcDbLine
 62
253
  6
CONTINUOUS
 10
140.0901183004
 20
60.2034634726
 11
140.0901183004
 21
60.7299080465
  0
LINE
  5
32C
100
AcDbEntity
  8
RACCORDO
100
AcDbLine
 62
7
  6
CONTINUOUS
 10
140.4381648052
 20
61.1816720746
 11
140.4381648052
 21
105.7827871431
  0
LINE
  5
32D
100
AcDbEntity
  8
ASSI
100
AcDbLine
 62
7
  6
CONTINUOUS
 10
140.4381648052
 20
61.1816720746
 11
140.4381648052
 21
105.7827871431
  0
LINE
  5
32E
100
AcDbEntity
  8
RACCORDO
100
AcDbLine
 62
253
  6
CONTINUOUS
 10
140.4920124698
 20
105.836500259
 11
140.4920124689
 21
61.12796043
  0
LINE
  5
32F
100
AcDbEntity
  8
ASSI
100
AcDbLine
 62
253
  6
CONTINUOUS
 10
140.4920124698
 20
105.836500259
 11
140.4920124689
 21
61.12796043
  0
LINE
  5
330
100
AcDbEntity
  8
RACCORDO
100
AcDbLine
 62
253
  6
CONTINUOUS
 10
140.9913255288
 20
105.8600503688
 11
140.9913255288
 21
61.1044088489
  0
LINE
  5
331
100
AcDbEntity
  8
ASSI
100
AcDbLine
 62
253
  6
CONTINUOUS
 10
140.9913255288
 20
105.8600503688
 11
140.9913255288
 21
61.1044088489
  0
LWPOLYLINE
  5
332
100
AcDbEntity
  8
RACCORDO
100
AcDbPolyline
 62
253
  6
CONTINUOUS
 90
7
 70
0
 10
140.4920124628
 20
61.127960436
 10
140.4916678951
 20
61.1113586365
 10
140.4906293419
 20
61.0947859392
 10
140.4888983216
 20
61.0782709972
 10
140.4864775429
 20
61.06184239
 10
140.4833709017
 20
61.0455285746
 10
140.4795834749
 20
61.0293578357
  0
LWPOLYLINE
  5
333
100
AcDbEntity
  8
ASSI
100
AcDbPolyline
 62
253
  6
CONTINUOUS
 90
7
 70
0
 10
140.4920124628
 20
61.127960436
 10
140.4916678951
 20
61.1113586365
 10
140.4906293419
 20
61.0947859392
 10
140.4888983216
 20
61.0782709972
 10
140.4864775429
 20
61.06184239
 10
140.4833709017
 20
61.0455285746
 10
140.4795834749
 20
61.0293578357
  0
LWPOLYLINE
  5
334
100
AcDbEntity
  8
RACCORDO
100
AcDbPolyline
 62
253
  6
CONTINUOUS
 90
7
 70
0
 10
140.9913255288
 20
61.1044088489
 10
140.9905178316
 20
61.0667490532
 10
140.9881729594
 20
61.0293412302
 10
140.9842909122
 20
60.9921853771
 10
140.9788716899
 20
60.9552814911
 10
140.9719152927
 20
60.9186295693
 10
140.9634217204
 20
60.8822296088
  0
LWPOLYLINE
  5
335
100
AcDbEntity
  8
ASSI
100
AcDbPolyline
 62
253
  6
CONTINUOUS
 90
7
 70
0
 10
140.9913255288
 20
61.1044088489
 10
140.9905178316
 20
61.0667490532
 10
140.9881729594
 20
61.0293412302
 10
140.9842909122
 20
60.9921853771
 10
140.9788716899
 20
60.9552814911
 10
140.9719152927
 20
60.9186295693
 10
140.9634217204
 20
60.8822296088
  0
LWPOLYLINE
  5
336
100
AcDbEntity
  8
RACCORDO
100
AcDbPolyline
 62
253
  6
CONTINUOUS
 90
15
 70
0
 10
140.8029235449
 20
106.0399087652
 10
140.7649529077
 20
106.0294462671
 10
140.7283956878
 20
106.0191808356
 10
140.6935122384
 20
106.0091855788
 10
140.6605509928
 20
105.9995316812
 10
140.6297466944
 20
105.9902878959
 10
140.6013187255
 20
105.9815200552
 10
140.5754695445
 20
105.9732906021
 10
140.5523832442
 20
105.9656581451
 10
140.5322242408
 20
105.9586770409
 10
140.5151361028
 20
105.9523970078
 10
140.5012405284
 20
105.9468627708
 10
140.4906364794
 20
105.9421137436
 10
140.4833994756
 20
105.938183748
 10
140.4795810576
 20
105.9351007725
  0
LWPOLYLINE
  5
337
100
AcDbEntity
  8
ASSI
100
AcDbPolyline
 62
253
  6
CONTINUOUS
 90
15
 70
0
 10
140.8029235449
 20
106.0399087652
 10
140.7649529077
 20
106.0294462671
 10
140.7283956878
 20
106.0191808356
 10
140.6935122384
 20
106.0091855788
 10
140.6605509928
 20
105.9995316812
 10
140.6297466944
 20
105.9902878959
 10
140.6013187255
 20
105.9815200552
 10
140.5754695445
 20
105.9732906021
 10
140.5523832442
 20
105.9656581451
 10
140.5322242408
 20
105.9586770409
 10
140.5151361028
 20
105.9523970078
 10
140.5012405284
 20
105.9468627708
 10
140.4906364794
 20
105.9421137436
 10
140.4833994756
 20
105.938183748
 10
140.4795810576
 20
105.9351007725
  0
LINE
  5
338
100
AcDbEntity
  8
RACCORDO
100
AcDbLine
 62
253
  6
CONTINUOUS
 10
140.8820152529
 20
106.0611260406
 11
140.8029235449
 21
106.0399087652
  0
LINE
  5
339
100
AcDbEntity
  8
ASSI
100
AcDbLine
 62
253
  6
CONTINUOUS
 10
140.8820152529
 20
106.0611260406
 11
140.8029235449
 21
106.0399087652
  0
LINE
  5
33A
100
AcDbEntity
  8
RACCORDO
100
AcDbLine
 62
253
  6
CONTINUOUS
 10
140.9634217204
 20
106.0822293168
 11
140.8820152529
 21
106.0611260406
  0
LINE
  5
33B
100
AcDbEntity
  8
ASSI
100
AcDbLine
 62
253
  6
CONTINUOUS
 10
140.9634217204
 20
106.0822293168
 11
140.8820152529
 21
106.0611260406
  0
LINE
  5
33C
100
AcDbEntity
  8
RACCORDO
100
AcDbLine
 62
253
  6
CONTINUOUS
 10
94.3129078743
 20
106.0822291253
 11
94.3943144385
 21
106.0611258534
  0
LINE
  5
33D
100
AcDbEntity
  8
ASSI
100
AcDbLine
 62
253
  6
CONTINUOUS
 10
94.3129078743
 20
106.0822291253
 11
94.3943144385
 21
106.0611258534
  0
LWPOLYLINE
  5
33E
100
AcDbEntity
  8
RACCORDO
100
AcDbPolyline
 62
253
  6
CONTINUOUS
 90
16
 70
0
 10
94.3943144385
 20
106.0611258534
 10
94.4734063316
 20
106.0399085587
 10
94.5113770855
 20
106.0294460442
 10
94.5479344336
 20
106.0191805929
 10
94.5828180188
 20
106.0091853139
 10
94.6157794045
 20
105.9995313923
 10
94.6465838437
 20
105.9902875823
 10
94.6750119509
 20
105.981519717
 10
94.7008612646
 20
105.9732902401
 10
94.7239476892
 20
105.9656577609
 10
94.7441068058
 20
105.9586766368
 10
94.7611950437
 20
105.9523965867
 10
94.7750907027
 20
105.9468623361
 10
94.7856948193
 20
105.9421132994
 10
94.7929318725
 20
105.9381832985
 10
94.7967503208
 20
105.9351003223
  0
LWPOLYLINE
  5
33F
100
AcDbEntity
  8
ASSI
100
AcDbPolyline
 62
253
  6
CONTINUOUS
 90
16
 70
0
 10
94.3943144385
 20
106.0611258534
 10
94.4734063316
 20
106.0399085587
 10
94.5113770855
 20
106.0294460442
 10
94.5479344336
 20
106.0191805929
 10
94.5828180188
 20
106.0091853139
 10
94.6157794045
 20
105.9995313923
 10
94.6465838437
 20
105.9902875823
 10
94.6750119509
 20
105.981519717
 10
94.7008612646
 20
105.9732902401
 10
94.7239476892
 20
105.9656577609
 10
94.7441068058
 20
105.9586766368
 10
94.7611950437
 20
105.9523965867
 10
94.7750907027
 20
105.9468623361
 10
94.7856948193
 20
105.9421132994
 10
94.7929318725
 20
105.9381832985
 10
94.7967503208
 20
105.9351003223
  0
LWPOLYLINE
  5
340
100
AcDbEntity
  8
RACCORDO
100
AcDbPolyline
 62
253
  6
CONTINUOUS
 90
22
 70
0
 10
140.9634217204
 20
60.8822296088
 10
140.9476585873
 20
60.8276470623
 10
140.9286505617
 20
60.7745029885
 10
140.9063976436
 20
60.7227973234
 10
140.8807799596
 20
60.6723133332
 10
140.8519173831
 20
60.6232676334
 10
140.820169535
 20
60.5763101564
 10
140.7855086177
 20
60.5314888351
 10
140.7479624286
 20
60.4887555638
 10
140.7079739814
 20
60.4486161719
 10
140.6655146684
 20
60.4111019783
 10
140.6206130972
 20
60.3761814773
 10
140.5737981038
 20
60.344266236
 10
140.5250359253
 20
60.3153890824
 10
140.4743603247
 20
60.2895170152
 10
140.4224014262
 20
60.266962848
 10
140.3691781872
 20
60.2477742387
 10
140.3146716504
 20
60.2319033959
 10
140.259455068
 20
60.2195199643
 10
140.2037195243
 20
60.2106804672
 10
140.1472739351
 20
60.2053283094
 10
140.0901183004
 20
60.2034634726
  0
LWPOLYLINE
  5
341
100
AcDbEntity
  8
ASSI
100
AcDbPolyline
 62
253
  6
CONTINUOUS
 90
22
 70
0
 10
140.9634217204
 20
60.8822296088
 10
140.9476585873
 20
60.8276470623
 10
140.9286505617
 20
60.7745029885
 10
140.9063976436
 20
60.7227973234
 10
140.8807799596
 20
60.6723133332
 10
140.8519173831
 20
60.6232676334
 10
140.820169535
 20
60.5763101564
 10
140.7855086177
 20
60.5314888351
 10
140.7479624286
 20
60.4887555638
 10
140.7079739814
 20
60.4486161719
 10
140.6655146684
 20
60.4111019783
 10
140.6206130972
 20
60.3761814773
 10
140.5737981038
 20
60.344266236
 10
140.5250359253
 20
60.3153890824
 10
140.4743603247
 20
60.2895170152
 10
140.4224014262
 20
60.266962848
 10
140.3691781872
 20
60.2477742387
 10
140.3146716504
 20
60.2319033959
 10
140.259455068
 20
60.2195199643
 10
140.2037195243
 20
60.2106804672
 10
140.1472739351
 20
60.2053283094
 10
140.0901183004
 20
60.2034634726
  0
LWPOLYLINE
  5
342
100
AcDbEntity
  8
RACCORDO
100
AcDbPolyline
 62
253
  6
CONTINUOUS
 90
22
 70
0
 10
140.4795834749
 20
61.0293578357
 10
140.4725723499
 20
61.0052258695
 10
140.4640464996
 20
60.9815865719
 10
140.4540396225
 20
60.9585336965
 10
140.4425907467
 20
60.9361588843
 10
140.429745522
 20
60.9145507636
 10
140.415556162
 20
60.8937945271
 10
140.4000782818
 20
60.8739722809
 10
140.3833733685
 20
60.8551630024
 10
140.3655104124
 20
60.8374413443
 10
140.3465615601
 20
60.8208787117
 10
140.3266004768
 20
60.8055390886
 10
140.3057046268
 20
60.7914793944
 10
140.2839520609
 20
60.7787536363
 10
140.2614320178
 20
60.7674153142
 10
140.2382441853
 20
60.7575115971
 10
140.214493766
 20
60.7490848209
 10
140.1902617639
 20
60.7421611372
 10
140.1656138441
 20
60.736758792
 10
140.1406357905
 20
60.7329018611
 10
140.1154350149
 20
60.7306136599
 10
140.0901104635
 20
60.7299080732
  0
LWPOLYLINE
  5
343
100
AcDbEntity
  8
ASSI
100
AcDbPolyline
 62
253
  6
CONTINUOUS
 90
22
 70
0
 10
140.4795834749
 20
61.0293578357
 10
140.4725723499
 20
61.0052258695
 10
140.4640464996
 20
60.9815865719
 10
140.4540396225
 20
60.9585336965
 10
140.4425907467
 20
60.9361588843
 10
140.429745522
 20
60.9145507636
 10
140.415556162
 20
60.8937945271
 10
140.4000782818
 20
60.8739722809
 10
140.3833733685
 20
60.8551630024
 10
140.3655104124
 20
60.8374413443
 10
140.3465615601
 20
60.8208787117
 10
140.3266004768
 20
60.8055390886
 10
140.3057046268
 20
60.7914793944
 10
140.2839520609
 20
60.7787536363
 10
140.2614320178
 20
60.7674153142
 10
140.2382441853
 20
60.7575115971
 10
140.214493766
 20
60.7490848209
 10
140.1902617639
 20
60.7421611372
 10
140.1656138441
 20
60.736758792
 10
140.1406357905
 20
60.7329018611
 10
140.1154350149
 20
60.7306136599
 10
140.0901104635
 20
60.7299080732
  0
LWPOLYLINE
  5
344
100
AcDbEntity
  8
RACCORDO
100
AcDbPolyline
 62
253
  6
CONTINUOUS
 90
16
 70
0
 10
162.5292224699
 20
60.9051329517
 10
162.5239401159
 20
60.9030813306
 10
162.5153126074
 20
60.9010586218
 10
162.5033985073
 20
60.8990785555
 10
162.4882786874
 20
60.897154572
 10
162.4700557799
 20
60.8952997312
 10
162.4488534803
 20
60.8935266237
 10
162.4248157081
 20
60.8918472852
 10
162.3981056297
 20
60.8902731148
 10
162.3689045509
 20
60.8888147979
 10
162.3374106863
 20
60.8874822334
 10
162.3038378135
 20
60.8862844668
 10
162.2684138225
 20
60.8852296282
 10
162.2313791684
 20
60.8843248779
 10
162.1929852393
 20
60.8835763572
 10
162.1534926501
 20
60.8829891471
  0
LWPOLYLINE
  5
345
100
AcDbEntity
  8
ASSI
100
AcDbPolyline
 62
253
  6
CONTINUOUS
 90
16
 70
0
 10
162.5292224699
 20
60.9051329517
 10
162.5239401159
 20
60.9030813306
 10
162.5153126074
 20
60.9010586218
 10
162.5033985073
 20
60.8990785555
 10
162.4882786874
 20
60.897154572
 10
162.4700557799
 20
60.8952997312
 10
162.4488534803
 20
60.8935266237
 10
162.4248157081
 20
60.8918472852
 10
162.3981056297
 20
60.8902731148
 10
162.3689045509
 20
60.8888147979
 10
162.3374106863
 20
60.8874822334
 10
162.3038378135
 20
60.8862844668
 10
162.2684138225
 20
60.8852296282
 10
162.2313791684
 20
60.8843248779
 10
162.1929852393
 20
60.8835763572
 10
162.1534926501
 20
60.8829891471
  0
LWPOLYLINE
  5
346
100
AcDbEntity
  8
RACCORDO
100
AcDbPolyline
 62
253
  6
CONTINUOUS
 90
16
 70
0
 10
162.5292239555
 20
60.9676073866
 10
162.5239416622
 20
60.9655613298
 10
162.5153142061
 20
60.9635440359
 10
162.5034001495
 20
60.9615691984
 10
162.4882803644
 20
60.9596502223
 10
162.4700574828
 20
60.9578001333
 10
162.4488552004
 20
60.9560314899
 10
162.424817437
 20
60.9543562975
 10
162.3981073591
 20
60.9527859271
 10
162.368906273
 20
60.9513310383
 10
162.3374123938
 20
60.9500015068
 10
162.3038394997
 20
60.9488063574
 10
162.2684154814
 20
60.9477537027
 10
162.2313807946
 20
60.9468506879
 10
162.1929868283
 20
60.9461034428
 10
162.1534941982
 20
60.9455170396
  0
LWPOLYLINE
  5
347
100
AcDbEntity
  8
ASSI
100
AcDbPolyline
 62
253
  6
CONTINUOUS
 90
16
 70
0
 10
162.5292239555
 20
60.9676073866
 10
162.5239416622
 20
60.9655613298
 10
162.5153142061
 20
60.9635440359
 10
162.5034001495
 20
60.9615691984
 10
162.4882803644
 20
60.9596502223
 10
162.4700574828
 20
60.9578001333
 10
162.4488552004
 20
60.9560314899
 10
162.424817437
 20
60.9543562975
 10
162.3981073591
 20
60.9527859271
 10
162.368906273
 20
60.9513310383
 10
162.3374123938
 20
60.9500015068
 10
162.3038394997
 20
60.9488063574
 10
162.2684154814
 20
60.9477537027
 10
162.2313807946
 20
60.9468506879
 10
162.1929868283
 20
60.9461034428
 10
162.1534941982
 20
60.9455170396
  0
LWPOLYLINE
  5
348
100
AcDbEntity
  8
RACCORDO
100
AcDbPolyline
 62
7
  6
CONTINUOUS
 90
22
 70
0
 10
95.2386695198
 20
106.1822296089
 10
95.208537864
 20
106.1810617609
 10
95.1789116031
 20
106.177742122
 10
95.1497907371
 20
106.1722706897
 10
95.1210428556
 20
106.1646078403
 10
95.092800369
 20
106.1547931879
 10
95.0654605089
 20
106.1429455845
 10
95.0390075288
 20
106.1290315732
 10
95.0134571752
 20
106.113084593
 10
94.9892539195
 20
106.0953238399
 10
94.9663896604
 20
106.0756676974
 10
94.9448724992
 20
106.0541977587
 10
94.9251712102
 20
106.0313780365
 10
94.9073645034
 20
106.0072041983
 10
94.8913736688
 20
105.9816805552
 10
94.8774313506
 20
105.9552840915
 10
94.8655816445
 20
105.9280531524
 10
94.8557804549
 20
105.8999493774
 10
94.8481281388
 20
105.8713346994
 10
94.8426581488
 20
105.8423297608
 10
94.8393370323
 20
105.8128139104
 10
94.8381647895
 20
105.7827871431
  0
LWPOLYLINE
  5
349
100
AcDbEntity
  8
ASSI
100
AcDbPolyline
 62
7
  6
CONTINUOUS
 90
22
 70
0
 10
95.2386695198
 20
106.1822296089
 10
95.208537864
 20
106.1810617609
 10
95.1789116031
 20
106.177742122
 10
95.1497907371
 20
106.1722706897
 10
95.1210428556
 20
106.1646078403
 10
95.092800369
 20
106.1547931879
 10
95.0654605089
 20
106.1429455845
 10
95.0390075288
 20
106.1290315732
 10
95.0134571752
 20
106.113084593
 10
94.9892539195
 20
106.0953238399
 10
94.9663896604
 20
106.0756676974
 10
94.9448724992
 20
106.0541977587
 10
94.9251712102
 20
106.0313780365
 10
94.9073645034
 20
106.0072041983
 10
94.8913736688
 20
105.9816805552
 10
94.8774313506
 20
105.9552840915
 10
94.8655816445
 20
105.9280531524
 10
94.8557804549
 20
105.8999493774
 10
94.8481281388
 20
105.8713346994
 10
94.8426581488
 20
105.8423297608
 10
94.8393370323
 20
105.8128139104
 10
94.8381647895
 20
105.7827871431
  0
LWPOLYLINE
  5
34A
100
AcDbEntity
  8
RACCORDO
100
AcDbPolyline
 62
253
  6
CONTINUOUS
 90
16
 70
0
 10
140.8661407754
 20
105.8592591942
 10
140.8258006406
 20
105.8586493382
 10
140.7866376152
 20
105.8578726265
 10
140.7489302019
 20
105.8569345826
 10
140.7129465522
 20
105.8558418772
 10
140.6789425594
 20
105.8546022811
 10
140.6471600385
 20
105.8532246095
 10
140.6178250069
 20
105.8517186594
 10
140.591146077
 20
105.8500951403
 10
140.5673129725
 20
105.8483655976
 10
140.5464951796
 20
105.8465423307
 10
140.5288407414
 20
105.8446383056
 10
140.5144752052
 20
105.8426670625
 10
140.5035007296
 20
105.8406426197
 10
140.4959953584
 20
105.8385793737
 10
140.4920124649
 20
105.836491997
  0
LWPOLYLINE
  5
34B
100
AcDbEntity
  8
ASSI
100
AcDbPolyline
 62
253
  6
CONTINUOUS
 90
16
 70
0
 10
140.8661407754
 20
105.8592591942
 10
140.8258006406
 20
105.8586493382
 10
140.7866376152
 20
105.8578726265
 10
140.7489302019
 20
105.8569345826
 10
140.7129465522
 20
105.8558418772
 10
140.6789425594
 20
105.8546022811
 10
140.6471600385
 20
105.8532246095
 10
140.6178250069
 20
105.8517186594
 10
140.591146077
 20
105.8500951403
 10
140.5673129725
 20
105.8483655976
 10
140.5464951796
 20
105.8465423307
 10
140.5288407414
 20
105.8446383056
 10
140.5144752052
 20
105.8426670625
 10
140.5035007296
 20
105.8406426197
 10
140.4959953584
 20
105.8385793737
 10
140.4920124649
 20
105.836491997
  0
LWPOLYLINE
  5
34C
100
AcDbEntity
  8
RACCORDO
100
AcDbPolyline
 62
253
  6
CONTINUOUS
 90
3
 70
0
 10
73.1228353967
 20
106.0189446327
 10
73.2040387171
 20
106.0196201105
 10
73.2451982048
 20
106.0197046
  0
LWPOLYLINE
  5
34D
100
AcDbEntity
  8
ASSI
100
AcDbPolyline
 62
253
  6
CONTINUOUS
 90
3
 70
0
 10
73.1228353967
 20
106.0189446327
 10
73.2040387171
 20
106.0196201105
 10
73.2451982048
 20
106.0197046
  0
LINE
  5
34E
100
AcDbEntity
  8
RACCORDO
100
AcDbLine
 62
253
  6
CONTINUOUS
 10
73.122836946
 20
106.0814700703
 11
73.2040401763
 21
106.0821457372
  0
LINE
  5
34F
100
AcDbEntity
  8
ASSI
100
AcDbLine
 62
253
  6
CONTINUOUS
 10
73.122836946
 20
106.0814700703
 11
73.2040401763
 21
106.0821457372
  0
LWPOLYLINE
  5
350
100
AcDbEntity
  8
RACCORDO
100
AcDbPolyline
 62
253
  6
CONTINUOUS
 90
3
 70
0
 10
140.9913255288
 20
105.8600503684
 10
140.9491985469
 20
105.859962209
 10
140.8661407754
 20
105.8592591942
  0
LWPOLYLINE
  5
351
100
AcDbEntity
  8
ASSI
100
AcDbPolyline
 62
253
  6
CONTINUOUS
 90
3
 70
0
 10
140.9913255288
 20
105.8600503684
 10
140.9491985469
 20
105.859962209
 10
140.8661407754
 20
105.8592591942
  0
LINE
  5
352
100
AcDbEntity
  8
RACCORDO
100
AcDbLine
 62
253
  6
CONTINUOUS
 10
162.6381647974
 20
105.9968518311
 11
162.5292239555
 21
105.9968518311
  0
LINE
  5
353
100
AcDbEntity
  8
ASSI
100
AcDbLine
 62
253
  6
CONTINUOUS
 10
162.6381647974
 20
105.9968518311
 11
162.5292239555
 21
105.9968518311
  0
LINE
  5
354
100
AcDbEntity
  8
RACCORDO
100
AcDbLine
 62
253
  6
CONTINUOUS
 10
72.6381647974
 20
105.9968518311
 11
72.7471056394
 21
105.9968542833
  0
LINE
  5
355
100
AcDbEntity
  8
ASSI
100
AcDbLine
 62
253
  6
CONTINUOUS
 10
72.6381647974
 20
105.9968518311
 11
72.7471056394
 21
105.9968542833
  0
LINE
  5
356
100
AcDbEntity
  8
RACCORDO
100
AcDbLine
 62
253
  6
CONTINUOUS
 10
94.3129078743
 20
106.0822296089
 11
73.2040401763
 21
106.0821457372
  0
LINE
  5
357
100
AcDbEntity
  8
ASSI
100
AcDbLine
 62
253
  6
CONTINUOUS
 10
94.3129078743
 20
106.0822296089
 11
73.2040401763
 21
106.0821457372
  0
LINE
  5
358
100
AcDbEntity
  8
RACCORDO
100
AcDbLine
 62
7
  6
CONTINUOUS
 10
140.037660075
 20
106.1822296089
 11
95.2386695198
 21
106.1822296089
  0
LINE
  5
359
100
AcDbEntity
  8
ASSI
100
AcDbLine
 62
7
  6
CONTINUOUS
 10
140.037660075
 20
106.1822296089
 11
95.2386695198
 21
106.1822296089
  0
LINE
  5
35A
100
AcDbEntity
  8
RACCORDO
100
AcDbLine
 62
253
  6
CONTINUOUS
 10
95.1862189939
 20
106.2345511712
 11
140.0901106129
 21
106.2345511712
  0
LINE
  5
35B
100
AcDbEntity
  8
ASSI
100
AcDbLine
 62
253
  6
CONTINUOUS
 10
95.1862189939
 20
106.2345511712
 11
140.0901106129
 21
106.2345511712
  0
LINE
  5
35C
100
AcDbEntity
  8
RACCORDO
100
AcDbLine
 62
253
  6
CONTINUOUS
 10
95.1862112944
 20
106.7609957451
 11
140.0901183004
 21
106.7609957451
  0
LINE
  5
35D
100
AcDbEntity
  8
ASSI
100
AcDbLine
 62
253
  6
CONTINUOUS
 10
95.1862112944
 20
106.7609957451
 11
140.0901183004
 21
106.7609957451
  0
LINE
  5
35E
100
AcDbEntity
  8
RACCORDO
100
AcDbLine
 62
253
  6
CONTINUOUS
 10
162.0722894199
 20
106.0821457385
 11
140.9634217204
 21
106.0822296089
  0
LINE
  5
35F
100
AcDbEntity
  8
ASSI
100
AcDbLine
 62
253
  6
CONTINUOUS
 10
162.0722894199
 20
106.0821457385
 11
140.9634217204
 21
106.0822296089
  0
LWPOLYLINE
  5
360
100
AcDbEntity
  8
RACCORDO
100
AcDbPolyline
 62
253
  6
CONTINUOUS
 90
18
 70
0
 10
94.285004066
 20
105.8600504052
 10
94.3689584302
 20
105.859697888
 10
94.4101887848
 20
105.8592592215
 10
94.4505289005
 20
105.8586493625
 10
94.4896919043
 20
105.857872648
 10
94.527399294
 20
105.8569346015
 10
94.5633829187
 20
105.8558418937
 10
94.5973868859
 20
105.8546022953
 10
94.6291693812
 20
105.8532246215
 10
94.6585043877
 20
105.8517186695
 10
94.6851832937
 20
105.8500951486
 10
94.7090163759
 20
105.8483656043
 10
94.7298341486
 20
105.8465423359
 10
94.7474885692
 20
105.8446383094
 10
94.7618540907
 20
105.8426670651
 10
94.7728285547
 20
105.840642621
 10
94.7803339178
 20
105.8385793739
 10
94.7843168067
 20
105.8364919961
  0
LWPOLYLINE
  5
361
100
AcDbEntity
  8
ASSI
100
AcDbPolyline
 62
253
  6
CONTINUOUS
 90
18
 70
0
 10
94.285004066
 20
105.8600504052
 10
94.3689584302
 20
105.859697888
 10
94.4101887848
 20
105.8592592215
 10
94.4505289005
 20
105.8586493625
 10
94.4896919043
 20
105.857872648
 10
94.527399294
 20
105.8569346015
 10
94.5633829187
 20
105.8558418937
 10
94.5973868859
 20
105.8546022953
 10
94.6291693812
 20
105.8532246215
 10
94.6585043877
 20
105.8517186695
 10
94.6851832937
 20
105.8500951486
 10
94.7090163759
 20
105.8483656043
 10
94.7298341486
 20
105.8465423359
 10
94.7474885692
 20
105.8446383094
 10
94.7618540907
 20
105.8426670651
 10
94.7728285547
 20
105.840642621
 10
94.7803339178
 20
105.8385793739
 10
94.7843168067
 20
105.8364919961
  0
LWPOLYLINE
  5
362
100
AcDbEntity
  8
RACCORDO
100
AcDbPolyline
 62
253
  6
CONTINUOUS
 90
22
 70
0
 10
140.0901105867
 20
106.234551145
 10
140.1154345208
 20
106.23384559
 10
140.1406349746
 20
106.2315574608
 10
140.1656130004
 20
106.2277005869
 10
140.1902613204
 20
106.2222981929
 10
140.2144939886
 20
106.2153743207
 10
140.2382449072
 20
106.2069473278
 10
140.2614329193
 20
106.1970434668
 10
140.2839529954
 20
106.1857050481
 10
140.3057055266
 20
106.1729792279
 10
140.3266011841
 20
106.1589195902
 10
140.3465620322
 20
106.1435800929
 10
140.3655109383
 20
106.1270173625
 10
140.3833745329
 20
106.1092949704
 10
140.4000802274
 20
106.0904845975
 10
140.4155583452
 20
106.0706617109
 10
140.4297471297
 20
106.0499059447
 10
140.4425915151
 20
106.0282989493
 10
140.454039832
 20
106.0059250798
 10
140.4640465084
 20
105.982872623
 10
140.4725723066
 20
105.9592334795
 10
140.4795834749
 20
105.9351013821
  0
LWPOLYLINE
  5
363
100
AcDbEntity
  8
ASSI
100
AcDbPolyline
 62
253
  6
CONTINUOUS
 90
22
 70
0
 10
140.0901105867
 20
106.234551145
 10
140.1154345208
 20
106.23384559
 10
140.1406349746
 20
106.2315574608
 10
140.1656130004
 20
106.2277005869
 10
140.1902613204
 20
106.2222981929
 10
140.2144939886
 20
106.2153743207
 10
140.2382449072
 20
106.2069473278
 10
140.2614329193
 20
106.1970434668
 10
140.2839529954
 20
106.1857050481
 10
140.3057055266
 20
106.1729792279
 10
140.3266011841
 20
106.1589195902
 10
140.3465620322
 20
106.1435800929
 10
140.3655109383
 20
106.1270173625
 10
140.3833745329
 20
106.1092949704
 10
140.4000802274
 20
106.0904845975
 10
140.4155583452
 20
106.0706617109
 10
140.4297471297
 20
106.0499059447
 10
140.4425915151
 20
106.0282989493
 10
140.454039832
 20
106.0059250798
 10
140.4640465084
 20
105.982872623
 10
140.4725723066
 20
105.9592334795
 10
140.4795834749
 20
105.9351013821
  0
LWPOLYLINE
  5
364
100
AcDbEntity
  8
RACCORDO
100
AcDbPolyline
 62
253
  6
CONTINUOUS
 90
7
 70
0
 10
140.4795834749
 20
105.9351013821
 10
140.4833657793
 20
105.9189548497
 10
140.4864709473
 20
105.9026559567
 10
140.4888927146
 20
105.8862326874
 10
140.4906259783
 20
105.8697132979
 10
140.4916668092
 20
105.8531262678
 10
140.4920124625
 20
105.8365002517
  0
LWPOLYLINE
  5
365
100
AcDbEntity
  8
ASSI
100
AcDbPolyline
 62
253
  6
CONTINUOUS
 90
7
 70
0
 10
140.4795834749
 20
105.9351013821
 10
140.4833657793
 20
105.9189548497
 10
140.4864709473
 20
105.9026559567
 10
140.4888927146
 20
105.8862326874
 10
140.4906259783
 20
105.8697132979
 10
140.4916668092
 20
105.8531262678
 10
140.4920124625
 20
105.8365002517
  0
LWPOLYLINE
  5
366
100
AcDbEntity
  8
RACCORDO
100
AcDbPolyline
 62
253
  6
CONTINUOUS
 90
7
 70
0
 10
140.9634217204
 20
106.0822296089
 10
140.9719081033
 20
106.0458871639
 10
140.978860187
 20
106.0092697518
 10
140.9842779713
 20
105.9723773693
 10
140.9881614564
 20
105.9352100135
 10
140.9905106423
 20
105.897767681
 10
140.9913255288
 20
105.8600503688
  0
LWPOLYLINE
  5
367
100
AcDbEntity
  8
ASSI
100
AcDbPolyline
 62
253
  6
CONTINUOUS
 90
7
 70
0
 10
140.9634217204
 20
106.0822296089
 10
140.9719081033
 20
106.0458871639
 10
140.978860187
 20
106.0092697518
 10
140.9842779713
 20
105.9723773693
 10
140.9881614564
 20
105.9352100135
 10
140.9905106423
 20
105.897767681
 10
140.9913255288
 20
105.8600503688
  0
LWPOLYLINE
  5
368
100
AcDbEntity
  8
RACCORDO
100
AcDbPolyline
 62
253
  6
CONTINUOUS
 90
22
 70
0
 10
140.0901183004
 20
106.7609957451
 10
140.1472723032
 20
106.759130932
 10
140.2037162268
 20
106.7537790517
 10
140.2594500713
 20
106.7449400863
 10
140.3146651973
 20
106.7325572365
 10
140.3691702442
 20
106.7166872295
 10
140.4223911299
 20
106.6975003217
 10
140.4743454289
 20
106.674949658
 10
140.5250155668
 20
106.64908196
 10
140.5737747381
 20
106.6202078437
 10
140.6205909217
 20
106.5882935494
 10
140.6654961387
 20
106.5533726634
 10
140.7079596475
 20
106.5158568303
 10
140.7479528427
 20
106.4757138347
 10
140.7855043296
 20
106.432975705
 10
140.8201691822
 20
106.3881504769
 10
140.8519186256
 20
106.3411908679
 10
140.8807814348
 20
106.2921439878
 10
140.906399009
 20
106.2416595053
 10
140.9286518145
 20
106.1899539483
 10
140.947659385
 20
106.1368106708
 10
140.9634217204
 20
106.0822296089
  0
LWPOLYLINE
  5
369
100
AcDbEntity
  8
ASSI
100
AcDbPolyline
 62
253
  6
CONTINUOUS
 90
22
 70
0
 10
140.0901183004
 20
106.7609957451
 10
140.1472723032
 20
106.759130932
 10
140.2037162268
 20
106.7537790517
 10
140.2594500713
 20
106.7449400863
 10
140.3146651973
 20
106.7325572365
 10
140.3691702442
 20
106.7166872295
 10
140.4223911299
 20
106.6975003217
 10
140.4743454289
 20
106.674949658
 10
140.5250155668
 20
106.64908196
 10
140.5737747381
 20
106.6202078437
 10
140.6205909217
 20
106.5882935494
 10
140.6654961387
 20
106.5533726634
 10
140.7079596475
 20
106.5158568303
 10
140.7479528427
 20
106.4757138347
 10
140.7855043296
 20
106.432975705
 10
140.8201691822
 20
106.3881504769
 10
140.8519186256
 20
106.3411908679
 10
140.8807814348
 20
106.2921439878
 10
140.906399009
 20
106.2416595053
 10
140.9286518145
 20
106.1899539483
 10
140.947659385
 20
106.1368106708
 10
140.9634217204
 20
106.0822296089
  0
LINE
  5
36A
100
AcDbEntity
  8
RACCORDO
100
AcDbLine
 62
253
  6
CONTINUOUS
 10
161.7353496177
 20
128.3615642361
 11
161.7353496177
 21
127.9536249746
  0
LINE
  5
36B
100
AcDbEntity
  8
ASSI
100
AcDbLine
 62
253
  6
CONTINUOUS
 10
161.7353496177
 20
128.3615642361
 11
161.7353496177
 21
127.9536249746
  0
LINE
  5
36C
100
AcDbEntity
  8
RACCORDO
100
AcDbLine
 62
253
  6
CONTINUOUS
 10
161.7353496177
 20
38.6028949817
 11
161.7353496177
 21
39.0108342431
  0
LINE
  5
36D
100
AcDbEntity
  8
ASSI
100
AcDbLine
 62
253
  6
CONTINUOUS
 10
161.7353496177
 20
38.6028949817
 11
161.7353496177
 21
39.0108342431
  0
LINE
  5
36E
100
AcDbEntity
  8
RACCORDO
100
AcDbLine
 62
253
  6
CONTINUOUS
 10
162.0294775089
 20
127.6538863877
 11
162.0310352717
 21
58.4718203164
  0
LINE
  5
36F
100
AcDbEntity
  8
ASSI
100
AcDbLine
 62
253
  6
CONTINUOUS
 10
162.0294775089
 20
127.6538863877
 11
162.0310352717
 21
58.4718203164
  0
LINE
  5
370
100
AcDbEntity
  8
RACCORDO
100
AcDbLine
 62
253
  6
CONTINUOUS
 10
162.5275116242
 20
127.5725866242
 11
162.5291328964
 21
58.5012477759
  0
LINE
  5
371
100
AcDbEntity
  8
ASSI
100
AcDbLine
 62
253
  6
CONTINUOUS
 10
162.5275116242
 20
127.5725866242
 11
162.5291328964
 21
58.5012477759
  0
LINE
  5
372
100
AcDbEntity
  8
RACCORDO
100
AcDbLine
 62
7
  6
CONTINUOUS
 10
162.6381647974
 20
127.6822296089
 11
162.6381647974
 21
105.9968518311
  0
LINE
  5
373
100
AcDbEntity
  8
DRAFT
100
AcDbLine
 62
7
  6
CONTINUOUS
 10
162.6381647974
 20
105.9968518311
 11
162.6381647974
 21
60.9676073866
  0
LINE
  5
374
100
AcDbEntity
  8
RACCORDO
100
AcDbLine
 62
7
  6
CONTINUOUS
 10
162.6381647974
 20
60.9676073866
 11
162.6381647974
 21
39.2822296089
  0
LINE
  5
375
100
AcDbEntity
  8
ASSI
100
AcDbLine
 62
7
  6
CONTINUOUS
 10
162.6381647974
 20
127.6822296089
 11
162.6381647974
 21
39.2822296089
  0
LINE
  5
376
100
AcDbEntity
  8
RACCORDO
100
AcDbLine
 62
253
  6
CONTINUOUS
 10
162.0310352717
 20
58.4718203164
 11
162.0294775089
 21
39.3105728301
  0
LINE
  5
377
100
AcDbEntity
  8
ASSI
100
AcDbLine
 62
253
  6
CONTINUOUS
 10
162.0310352717
 20
58.4718203164
 11
162.0294775089
 21
39.3105728301
  0
LINE
  5
378
100
AcDbEntity
  8
RACCORDO
100
AcDbLine
 62
253
  6
CONTINUOUS
 10
162.5291328964
 20
58.5012477759
 11
162.5275116242
 21
39.3918725934
  0
LINE
  5
379
100
AcDbEntity
  8
ASSI
100
AcDbLine
 62
253
  6
CONTINUOUS
 10
162.5291328964
 20
58.5012477759
 11
162.5275116242
 21
39.3918725934
  0
LWPOLYLINE
  5
37A
100
AcDbEntity
  8
RACCORDO
100
AcDbPolyline
 62
253
  6
CONTINUOUS
 90
25
 70
0
 10
162.0294775089
 20
39.3105728301
 10
162.0288341941
 20
39.2906969619
 10
162.0269594446
 20
39.2710790897
 10
162.0238532603
 20
39.2517191972
 10
162.0194913588
 20
39.2325316069
 10
162.0138980227
 20
39.2136019676
 10
162.0071460991
 20
39.1951872368
 10
161.9992216944
 20
39.1773016643
 10
161.9901387023
 20
39.1599309383
 10
161.9800116515
 20
39.143289147
 10
161.9688273299
 20
39.1273852279
 10
161.9565989497
 20
39.112210165
 10
161.9434806754
 20
39.0979510973
 10
161.9294612156
 20
39.084619525
 10
161.9145518617
 20
39.0722038639
 10
161.8989406529
 20
39.0608566151
 10
161.8826200691
 20
39.0505919912
 10
161.8655976302
 20
39.0413957027
 10
161.8480839352
 20
39.0333774935
 10
161.8300661083
 20
39.0265513969
 10
161.8115570252
 20
39.0209033212
 10
161.792805912
 20
39.0165008256
 10
161.773895844
 20
39.0133664187
 10
161.7547437459
 20
39.0114775605
 10
161.7353496177
 20
39.0108342431
  0
LWPOLYLINE
  5
37B
100
AcDbEntity
  8
ASSI
100
AcDbPolyline
 62
253
  6
CONTINUOUS
 90
25
 70
0
 10
162.0294775089
 20
39.3105728301
 10
162.0288341941
 20
39.2906969619
 10
162.0269594446
 20
39.2710790897
 10
162.0238532603
 20
39.2517191972
 10
162.0194913588
 20
39.2325316069
 10
162.0138980227
 20
39.2136019676
 10
162.0071460991
 20
39.1951872368
 10
161.9992216944
 20
39.1773016643
 10
161.9901387023
 20
39.1599309383
 10
161.9800116515
 20
39.143289147
 10
161.9688273299
 20
39.1273852279
 10
161.9565989497
 20
39.112210165
 10
161.9434806754
 20
39.0979510973
 10
161.9294612156
 20
39.084619525
 10
161.9145518617
 20
39.0722038639
 10
161.8989406529
 20
39.0608566151
 10
161.8826200691
 20
39.0505919912
 10
161.8655976302
 20
39.0413957027
 10
161.8480839352
 20
39.0333774935
 10
161.8300661083
 20
39.0265513969
 10
161.8115570252
 20
39.0209033212
 10
161.792805912
 20
39.0165008256
 10
161.773895844
 20
39.0133664187
 10
161.7547437459
 20
39.0114775605
 10
161.7353496177
 20
39.0108342431
  0
LWPOLYLINE
  5
37C
100
AcDbEntity
  8
RACCORDO
100
AcDbPolyline
 62
253
  6
CONTINUOUS
 90
25
 70
0
 10
162.5275116243
 20
39.3918725933
 10
162.5250825861
 20
39.3399011865
 10
162.519316936
 20
39.2882385848
 10
162.5102453041
 20
39.2370985576
 10
162.4979141618
 20
39.1866927855
 10
162.4823793811
 20
39.1372282964
 10
162.463704603
 20
39.0889070378
 10
162.441970893
 20
39.0419251601
 10
162.417274545
 20
38.9964780921
 10
162.3897199383
 20
38.9527581234
 10
162.3594272542
 20
38.9109457949
 10
162.3265259193
 20
38.8712092394
 10
162.2911504918
 20
38.8337102176
 10
162.2534515202
 20
38.7986023635
 10
162.2135878621
 20
38.7660270131
 10
162.1717189175
 20
38.736114114
 10
162.1280174154
 20
38.708984985
 10
162.0826678955
 20
38.684751099
 10
162.0358574244
 20
38.6635117039
 10
161.9877856954
 20
38.6453553968
 10
161.9386474695
 20
38.6303529738
 10
161.8886287777
 20
38.6185614922
 10
161.8379300912
 20
38.6100310475
 10
161.7867665763
 20
38.6048008445
 10
161.7353496177
 20
38.6028949817
  0
LWPOLYLINE
  5
37D
100
AcDbEntity
  8
ASSI
100
AcDbPolyline
 62
253
  6
CONTINUOUS
 90
25
 70
0
 10
162.5275116243
 20
39.3918725933
 10
162.5250825861
 20
39.3399011865
 10
162.519316936
 20
39.2882385848
 10
162.5102453041
 20
39.2370985576
 10
162.4979141618
 20
39.1866927855
 10
162.4823793811
 20
39.1372282964
 10
162.463704603
 20
39.0889070378
 10
162.441970893
 20
39.0419251601
 10
162.417274545
 20
38.9964780921
 10
162.3897199383
 20
38.9527581234
 10
162.3594272542
 20
38.9109457949
 10
162.3265259193
 20
38.8712092394
 10
162.2911504918
 20
38.8337102176
 10
162.2534515202
 20
38.7986023635
 10
162.2135878621
 20
38.7660270131
 10
162.1717189175
 20
38.736114114
 10
162.1280174154
 20
38.708984985
 10
162.0826678955
 20
38.684751099
 10
162.0358574244
 20
38.6635117039
 10
161.9877856954
 20
38.6453553968
 10
161.9386474695
 20
38.6303529738
 10
161.8886287777
 20
38.6185614922
 10
161.8379300912
 20
38.6100310475
 10
161.7867665763
 20
38.6048008445
 10
161.7353496177
 20
38.6028949817
  0
LWPOLYLINE
  5
37E
100
AcDbEntity
  8
RACCORDO
100
AcDbPolyline
 62
253
  6
CONTINUOUS
 90
18
 70
0
 10
162.529223955
 20
105.9968518311
 10
162.5239416614
 20
105.998897888
 10
162.5153142048
 20
106.0009151818
 10
162.503400148
 20
106.0028900193
 10
162.4882803626
 20
106.0048089954
 10
162.4700574809
 20
106.0066590843
 10
162.4488551984
 20
106.0084277277
 10
162.4248174348
 20
106.0101029201
 10
162.398107357
 20
106.0116732905
 10
162.368906271
 20
106.0131281793
 10
162.3374123918
 20
106.0144577107
 10
162.3038394979
 20
106.0156528601
 10
162.2684154797
 20
106.0167055148
 10
162.2313807931
 20
106.0176085296
 10
162.1929868271
 20
106.0183557747
 10
162.1534941972
 20
106.0189421779
 10
162.1131709769
 20
106.0193637588
 10
162.0311313901
 20
106.0197021452
  0
LWPOLYLINE
  5
37F
100
AcDbEntity
  8
ASSI
100
AcDbPolyline
 62
253
  6
CONTINUOUS
 90
18
 70
0
 10
162.529223955
 20
105.9968518311
 10
162.5239416614
 20
105.998897888
 10
162.5153142048
 20
106.0009151818
 10
162.503400148
 20
106.0028900193
 10
162.4882803626
 20
106.0048089954
 10
162.4700574809
 20
106.0066590843
 10
162.4488551984
 20
106.0084277277
 10
162.4248174348
 20
106.0101029201
 10
162.398107357
 20
106.0116732905
 10
162.368906271
 20
106.0131281793
 10
162.3374123918
 20
106.0144577107
 10
162.3038394979
 20
106.0156528601
 10
162.2684154797
 20
106.0167055148
 10
162.2313807931
 20
106.0176085296
 10
162.1929868271
 20
106.0183557747
 10
162.1534941972
 20
106.0189421779
 10
162.1131709769
 20
106.0193637588
 10
162.0311313901
 20
106.0197021452
  0
LWPOLYLINE
  5
380
100
AcDbEntity
  8
RACCORDO
100
AcDbPolyline
 62
253
  6
CONTINUOUS
 90
17
 70
0
 10
162.5292224712
 20
106.059326266
 10
162.5239401184
 20
106.0613778872
 10
162.515312611
 20
106.063400596
 10
162.5033985117
 20
106.0653806625
 10
162.4882786926
 20
106.067304646
 10
162.4700557856
 20
106.0691594868
 10
162.4488534864
 20
106.0709325944
 10
162.4248157144
 20
106.072611933
 10
162.398105636
 20
106.0741861035
 10
162.3689045571
 20
106.0756444204
 10
162.3374106922
 20
106.0769769849
 10
162.303837819
 20
106.0781747517
 10
162.2684138275
 20
106.0792295903
 10
162.2313791727
 20
106.0801343406
 10
162.1929852429
 20
106.0808828613
 10
162.1534926528
 20
106.0814700715
 10
162.0722894199
 20
106.0821457385
  0
LWPOLYLINE
  5
381
100
AcDbEntity
  8
ASSI
100
AcDbPolyline
 62
253
  6
CONTINUOUS
 90
17
 70
0
 10
162.5292224712
 20
106.059326266
 10
162.5239401184
 20
106.0613778872
 10
162.515312611
 20
106.063400596
 10
162.5033985117
 20
106.0653806625
 10
162.4882786926
 20
106.067304646
 10
162.4700557856
 20
106.0691594868
 10
162.4488534864
 20
106.0709325944
 10
162.4248157144
 20
106.072611933
 10
162.398105636
 20
106.0741861035
 10
162.3689045571
 20
106.0756444204
 10
162.3374106922
 20
106.0769769849
 10
162.303837819
 20
106.0781747517
 10
162.2684138275
 20
106.0792295903
 10
162.2313791727
 20
106.0801343406
 10
162.1929852429
 20
106.0808828613
 10
162.1534926528
 20
106.0814700715
 10
162.0722894199
 20
106.0821457385
  0
LWPOLYLINE
  5
382
100
AcDbEntity
  8
0
100
AcDbPolyline
 62
7
  6
CONTINUOUS
 90
10
 70
0
 43
0.3500000006
 10
178.8236564941
 20
81.5536591187
 10
177.9665004272
 20
82.4107970581
 10
177.1093624878
 20
82.6250906067
 10
176.2522245483
 20
82.6250906067
 10
175.8236555786
 20
82.1965125732
 10
175.8236555786
 20
81.5536591187
 10
176.2522245483
 20
81.1250901489
 10
177.1093624878
 20
81.1250901489
 10
177.5379314575
 20
81.5536591187
 10
177.5379314575
 20
82.482228241
  0
LINE
  5
383
100
AcDbEntity
  8
RACCORDO
100
AcDbLine
 62
253
  6
CONTINUOUS
 10
73.5409799771
 20
127.9536249746
 11
161.7353496177
 21
127.9536249746
  0
LINE
  5
384
100
AcDbEntity
  8
ASSI
100
AcDbLine
 62
253
  6
CONTINUOUS
 10
73.5409799771
 20
127.9536249746
 11
161.7353496177
 21
127.9536249746
  0
LINE
  5
385
100
AcDbEntity
  8
RACCORDO
100
AcDbLine
 62
253
  6
CONTINUOUS
 10
73.5409799771
 20
128.3615642361
 11
161.7353496177
 21
128.3615642361
  0
LINE
  5
386
100
AcDbEntity
  8
ASSI
100
AcDbLine
 62
253
  6
CONTINUOUS
 10
73.5409799771
 20
128.3615642361
 11
161.7353496177
 21
128.3615642361
  0
LINE
  5
387
100
AcDbEntity
  8
RACCORDO
100
AcDbLine
 62
7
  6
CONTINUOUS
 10
73.4381647974
 20
128.4822296089
 11
161.8381647974
 21
128.4822296089
  0
LINE
  5
388
100
AcDbEntity
  8
ASSI
100
AcDbLine
 62
7
  6
CONTINUOUS
 10
73.4381647974
 20
128.4822296089
 11
161.8381647974
 21
128.4822296089
  0
LWPOLYLINE
  5
389
100
AcDbEntity
  8
RACCORDO
100
AcDbPolyline
 62
253
  6
CONTINUOUS
 90
25
 70
0
 10
161.7353496177
 20
127.9536249746
 10
161.7547477989
 20
127.9529808672
 10
161.7739024742
 20
127.9510914532
 10
161.7928136436
 20
127.9479567248
 10
161.811563969
 20
127.9435540601
 10
161.8300707885
 20
127.9379060495
 10
161.8480861163
 20
127.9310804973
 10
161.8655973783
 20
127.9230633981
 10
161.8826171485
 20
127.913868699
 10
161.898935164
 20
127.9036061299
 10
161.9145434992
 20
127.8922620998
 10
161.9294500796
 20
127.8798501229
 10
161.9434684192
 20
127.86652059
 10
161.9565884235
 20
127.8522607142
 10
161.968820187
 20
127.8370831983
 10
161.9800075074
 20
127.8211766799
 10
161.9901365064
 20
127.8045325482
 10
161.9992210623
 20
127.7871593355
 10
162.0071466073
 20
127.7692714134
 10
162.0138991743
 20
127.7508541495
 10
162.0194927303
 20
127.7319221143
 10
162.0238546084
 20
127.7127335114
 10
162.0269605864
 20
127.6933744051
 10
162.0288348866
 20
127.6737587026
 10
162.0294775089
 20
127.6538863877
  0
LWPOLYLINE
  5
38A
100
AcDbEntity
  8
ASSI
100
AcDbPolyline
 62
253
  6
CONTINUOUS
 90
25
 70
0
 10
161.7353496177
 20
127.9536249746
 10
161.7547477989
 20
127.9529808672
 10
161.7739024742
 20
127.9510914532
 10
161.7928136436
 20
127.9479567248
 10
161.811563969
 20
127.9435540601
 10
161.8300707885
 20
127.9379060495
 10
161.8480861163
 20
127.9310804973
 10
161.8655973783
 20
127.9230633981
 10
161.8826171485
 20
127.913868699
 10
161.898935164
 20
127.9036061299
 10
161.9145434992
 20
127.8922620998
 10
161.9294500796
 20
127.8798501229
 10
161.9434684192
 20
127.86652059
 10
161.9565884235
 20
127.8522607142
 10
161.968820187
 20
127.8370831983
 10
161.9800075074
 20
127.8211766799
 10
161.9901365064
 20
127.8045325482
 10
161.9992210623
 20
127.7871593355
 10
162.0071466073
 20
127.7692714134
 10
162.0138991743
 20
127.7508541495
 10
162.0194927303
 20
127.7319221143
 10
162.0238546084
 20
127.7127335114
 10
162.0269605864
 20
127.6933744051
 10
162.0288348866
 20
127.6737587026
 10
162.0294775089
 20
127.6538863877
  0
LWPOLYLINE
  5
38B
100
AcDbEntity
  8
RACCORDO
100
AcDbPolyline
 62
253
  6
CONTINUOUS
 90
25
 70
0
 10
161.7353496177
 20
128.3615642361
 10
161.78676619
 20
128.3596583978
 10
161.8379294965
 20
128.3544282425
 10
161.8886281516
 20
128.3458978345
 10
161.9386470798
 20
128.334106313
 10
161.9877857008
 20
128.3191037596
 10
162.0358576948
 20
128.3009473345
 10
162.0826682022
 20
128.2797079217
 10
162.1280176501
 20
128.2554740944
 10
162.1717190272
 20
128.2283450818
 10
162.213587815
 20
128.198432368
 10
162.2534512829
 20
128.1658572808
 10
162.291150045
 20
128.1307497283
 10
162.3265252259
 20
128.093251052
 10
162.3594263139
 20
128.053514886
 10
162.3897188295
 20
128.0117029249
 10
162.4172733386
 20
127.9679832864
 10
162.441969653
 20
127.9225365055
 10
162.463703441
 20
127.8755547993
 10
162.4823784005
 20
127.8272335804
 10
162.4979134189
 20
127.7777689904
 10
162.5102448177
 20
127.7273629101
 10
162.5193166833
 20
127.6762223429
 10
162.5250825084
 20
127.6245589894
 10
162.5275116243
 20
127.5725866243
  0
LWPOLYLINE
  5
38C
100
AcDbEntity
  8
ASSI
100
AcDbPolyline
 62
253
  6
CONTINUOUS
 90
25
 70
0
 10
161.7353496177
 20
128.3615642361
 10
161.78676619
 20
128.3596583978
 10
161.8379294965
 20
128.3544282425
 10
161.8886281516
 20
128.3458978345
 10
161.9386470798
 20
128.334106313
 10
161.9877857008
 20
128.3191037596
 10
162.0358576948
 20
128.3009473345
 10
162.0826682022
 20
128.2797079217
 10
162.1280176501
 20
128.2554740944
 10
162.1717190272
 20
128.2283450818
 10
162.213587815
 20
128.198432368
 10
162.2534512829
 20
128.1658572808
 10
162.291150045
 20
128.1307497283
 10
162.3265252259
 20
128.093251052
 10
162.3594263139
 20
128.053514886
 10
162.3897188295
 20
128.0117029249
 10
162.4172733386
 20
127.9679832864
 10
162.441969653
 20
127.9225365055
 10
162.463703441
 20
127.8755547993
 10
162.4823784005
 20
127.8272335804
 10
162.4979134189
 20
127.7777689904
 10
162.5102448177
 20
127.7273629101
 10
162.5193166833
 20
127.6762223429
 10
162.5250825084
 20
127.6245589894
 10
162.5275116243
 20
127.5725866243
  0
LWPOLYLINE
  5
38D
100
AcDbEntity
  8
RACCORDO
100
AcDbPolyline
 62
253
  6
CONTINUOUS
 90
19
 70
0
 10
162.5275051182
 20
39.3918726877
 10
162.5221749095
 20
39.384587184
 10
162.5135062959
 20
39.3774050291
 10
162.5015580136
 20
39.3703748878
 10
162.4864110206
 20
39.3635443945
 10
162.4681679487
 20
39.356959831
 10
162.4469524079
 20
39.3506658128
 10
162.4229081487
 20
39.3447049867
 10
162.3961980882
 20
39.3391177416
 10
162.3670032062
 20
39.3339419356
 10
162.3355213191
 20
39.3292126385
 10
162.3019657393
 20
39.3249618949
 10
162.2665638299
 20
39.3212185068
 10
162.2295554643
 20
39.3180078384
 10
162.1911914008
 20
39.3153516444
 10
162.1517315833
 20
39.3132679223
 10
162.1114433807
 20
39.3117707909
 10
162.0705997743
 20
39.3108703943
 10
162.0294775089
 20
39.3105728332
  0
LWPOLYLINE
  5
38E
100
AcDbEntity
  8
ASSI
100
AcDbPolyline
 62
253
  6
CONTINUOUS
 90
19
 70
0
 10
162.5275051182
 20
39.3918726877
 10
162.5221749095
 20
39.384587184
 10
162.5135062959
 20
39.3774050291
 10
162.5015580136
 20
39.3703748878
 10
162.4864110206
 20
39.3635443945
 10
162.4681679487
 20
39.356959831
 10
162.4469524079
 20
39.3506658128
 10
162.4229081487
 20
39.3447049867
 10
162.3961980882
 20
39.3391177416
 10
162.3670032062
 20
39.3339419356
 10
162.3355213191
 20
39.3292126385
 10
162.3019657393
 20
39.3249618949
 10
162.2665638299
 20
39.3212185068
 10
162.2295554643
 20
39.3180078384
 10
162.1911914008
 20
39.3153516444
 10
162.1517315833
 20
39.3132679223
 10
162.1114433807
 20
39.3117707909
 10
162.0705997743
 20
39.3108703943
 10
162.0294775089
 20
39.3105728332
  0
LWPOLYLINE
  5
38F
100
AcDbEntity
  8
RACCORDO
100
AcDbPolyline
 62
253
  6
CONTINUOUS
 90
19
 70
0
 10
162.5275116211
 20
127.5725866343
 10
162.5221813032
 20
127.5798721146
 10
162.513512534
 20
127.5870542481
 10
162.5015640511
 20
127.5940843704
 10
162.4864168147
 20
127.6009148469
 10
162.4681734593
 20
127.6074993958
 10
162.4469575977
 20
127.6137934016
 10
162.4229129838
 20
127.6197542175
 10
162.3962025387
 20
127.6253414545
 10
162.3670072464
 20
127.6305172546
 10
162.3355249276
 20
127.6352465478
 10
162.3019688995
 20
127.6394972894
 10
162.2665665305
 20
127.6432406773
 10
162.2295576989
 20
127.6464513472
 10
162.1911931685
 20
127.6491075443
 10
162.1517328887
 20
127.6511912708
 10
162.1114442337
 20
127.6526884078
 10
162.0706001904
 20
127.6535888111
 10
162.0294775089
 20
127.6538863796
  0
LWPOLYLINE
  5
390
100
AcDbEntity
  8
ASSI
100
AcDbPolyline
 62
253
  6
CONTINUOUS
 90
19
 70
0
 10
162.5275116211
 20
127.5725866343
 10
162.5221813032
 20
127.5798721146
 10
162.513512534
 20
127.5870542481
 10
162.5015640511
 20
127.5940843704
 10
162.4864168147
 20
127.6009148469
 10
162.4681734593
 20
127.6074993958
 10
162.4469575977
 20
127.6137934016
 10
162.4229129838
 20
127.6197542175
 10
162.3962025387
 20
127.6253414545
 10
162.3670072464
 20
127.6305172546
 10
162.3355249276
 20
127.6352465478
 10
162.3019688995
 20
127.6394972894
 10
162.2665665305
 20
127.6432406773
 10
162.2295576989
 20
127.6464513472
 10
162.1911931685
 20
127.6491075443
 10
162.1517328887
 20
127.6511912708
 10
162.1114442337
 20
127.6526884078
 10
162.0706001904
 20
127.6535888111
 10
162.0294775089
 20
127.6538863796
  0
LWPOLYLINE
  5
391
100
AcDbEntity
  8
0
100
AcDbPolyline
 62
7
  6
CONTINUOUS
 90
10
 70
0
 43
0.3500000006
 10
33.6431467667
 20
146.2307567139
 10
33.0002887802
 20
145.5879032593
 10
32.5717175446
 20
144.7307653198
 10
32.5717175446
 20
143.6593247681
 10
33.0002887802
 20
143.2307557983
 10
33.6431467667
 20
143.2307557983
 10
34.0717180023
 20
143.6593247681
 10
34.0717180023
 20
144.516480835
 10
33.6431467667
 20
144.9450498047
 10
32.7145753784
 20
144.9450498047
  0
LWPOLYLINE
  5
392
100
AcDbEntity
  8
RACCORDO
100
AcDbPolyline
 62
253
  6
CONTINUOUS
 90
17
 70
0
 10
30.9892196128
 20
128.3615642361
 10
30.9864585329
 20
128.3596583978
 10
30.9836516641
 20
128.3544282425
 10
30.9808150985
 20
128.3458978345
 10
30.9779640899
 20
128.334106313
 10
30.9751113617
 20
128.3191037596
 10
30.9722674658
 20
128.3009473345
 10
30.9694388664
 20
128.2797079217
 10
30.9666391044
 20
128.2554740944
 10
30.9638874385
 20
128.2283450818
 10
30.9611854605
 20
128.198432368
 10
30.958541965
 20
128.1658572808
 10
30.9559847671
 20
128.1307497283
 10
30.9535112033
 20
128.093251052
 10
30.9511247647
 20
128.053514886
 10
30.9488602668
 20
128.0117029249
 10
30.9446731772
 20
127.9225365055
  0
LWPOLYLINE
  5
393
100
AcDbEntity
  8
ASSI
100
AcDbPolyline
 62
253
  6
CONTINUOUS
 90
17
 70
0
 10
30.9892196128
 20
128.3615642361
 10
30.9864585329
 20
128.3596583978
 10
30.9836516641
 20
128.3544282425
 10
30.9808150985
 20
128.3458978345
 10
30.9779640899
 20
128.334106313
 10
30.9751113617
 20
128.3191037596
 10
30.9722674658
 20
128.3009473345
 10
30.9694388664
 20
128.2797079217
 10
30.9666391044
 20
128.2554740944
 10
30.9638874385
 20
128.2283450818
 10
30.9611854605
 20
128.198432368
 10
30.958541965
 20
128.1658572808
 10
30.9559847671
 20
128.1307497283
 10
30.9535112033
 20
128.093251052
 10
30.9511247647
 20
128.053514886
 10
30.9488602668
 20
128.0117029249
 10
30.9446731772
 20
127.9225365055
  0
LINE
  5
394
100
AcDbEntity
  8
RACCORDO
100
AcDbLine
 62
253
  6
CONTINUOUS
 10
30.9347205972
 20
39.3918726877
 11
30.4863254488
 21
39.3105728332
  0
LINE
  5
395
100
AcDbEntity
  8
ASSI
100
AcDbLine
 62
253
  6
CONTINUOUS
 10
30.9347205972
 20
39.3918726877
 11
30.4863254488
 21
39.3105728332
  0
LWPOLYLINE
  5
396
100
AcDbEntity
  8
RACCORDO
100
AcDbPolyline
 62
253
  6
CONTINUOUS
 90
13
 70
0
 10
33.4514250505
 20
39.7729787069
 10
33.6060842756
 20
39.7962852939
 10
33.7607444104
 20
39.824128241
 10
33.9152536087
 20
39.8565172728
 10
34.0692693342
 20
39.8932740213
 10
34.2227968114
 20
39.9345964053
 10
34.3761821085
 20
39.9810602856
 10
34.5293925509
 20
40.0326043438
 10
34.6820175173
 20
40.0893136601
 10
34.8338237213
 20
40.1519872229
 10
34.9845857288
 20
40.220901542
 10
35.1341000745
 20
40.2958085105
 10
35.2821630632
 20
40.3767220852
  0
LINE
  5
397
100
AcDbEntity
  8
RACCORDO
100
AcDbLine
 62
253
  6
CONTINUOUS
 10
35.2821630632
 20
40.3767220852
 11
33.3448386064
 21
40.3650180966
  0
LINE
  5
398
100
AcDbEntity
  8
RACCORDO
100
AcDbLine
 62
7
  6
CONTINUOUS
 10
32.3684311348
 20
38.4822296089
 11
33.1826050289
 21
38.4822296089
  0
LINE
  5
399
100
AcDbEntity
  8
ASSI
100
AcDbLine
 62
7
  6
CONTINUOUS
 10
32.3684311348
 20
38.4822296089
 11
33.1826050289
 21
38.4822296089
  0
LINE
  5
39A
100
AcDbEntity
  8
RACCORDO
100
AcDbLine
 62
253
  6
CONTINUOUS
 10
32.2196092794
 20
39.2822296089
 11
33.0330038958
 21
39.2822296089
  0
LINE
  5
39B
100
AcDbEntity
  8
ASSI
100
AcDbLine
 62
253
  6
CONTINUOUS
 10
32.2196092794
 20
39.2822296089
 11
33.0330038958
 21
39.2822296089
  0
LINE
  5
39C
100
AcDbEntity
  8
RACCORDO
100
AcDbLine
 62
7
  6
CONTINUOUS
 10
30.9892196128
 20
38.6028949817
 11
32.3666559785
 21
38.4823849149
  0
LINE
  5
39D
100
AcDbEntity
  8
ASSI
100
AcDbLine
 62
7
  6
CONTINUOUS
 10
30.9892196128
 20
38.6028949817
 11
32.3666559785
 21
38.4823849149
  0
LINE
  5
39E
100
AcDbEntity
  8
RACCORDO
100
AcDbLine
 62
253
  6
CONTINUOUS
 10
30.9347200265
 20
39.3918725934
 11
32.2200708846
 21
39.2793693922
  0
LINE
  5
39F
100
AcDbEntity
  8
ASSI
100
AcDbLine
 62
253
  6
CONTINUOUS
 10
30.9347200265
 20
39.3918725934
 11
32.2200708846
 21
39.2793693922
  0
LINE
  5
3A0
100
AcDbEntity
  8
0
100
AcDbLine
 62
7
  6
CONTINUOUS
 10
33.4862406402
 20
39.5822296089
 11
32.9697082411
 21
39.6274203381
  0
LINE
  5
3A1
100
AcDbEntity
  8
0
100
AcDbLine
 62
253
  6
CONTINUOUS
 10
33.3069140804
 20
40.5787078985
 11
32.7912343595
 21
40.6238489929
  0
LWPOLYLINE
  5
3A2
100
AcDbEntity
  8
0
100
AcDbPolyline
 62
7
  6
CONTINUOUS
 90
3
 70
0
 43
0.3500000006
 10
31.5717172394
 20
143.5164805298
 10
31.5002883224
 20
143.3021960449
 10
31.3574327545
 20
143.0164713135
  0
LINE
  5
3A3
100
AcDbEntity
  8
RACCORDO
100
AcDbLine
 62
253
  6
CONTINUOUS
 10
28.453235573
 20
60.9051329517
 11
27.9974440027
 21
60.8822296097
  0
LINE
  5
3A4
100
AcDbEntity
  8
ASSI
100
AcDbLine
 62
253
  6
CONTINUOUS
 10
28.453235573
 20
60.9051329517
 11
27.9974440027
 21
60.8822296097
  0
LINE
  5
3A5
100
AcDbEntity
  8
RACCORDO
100
AcDbLine
 62
253
  6
CONTINUOUS
 10
28.45009918
 20
60.9676073866
 11
27.9943041101
 21
60.9447570723
  0
LINE
  5
3A6
100
AcDbEntity
  8
ASSI
100
AcDbLine
 62
253
  6
CONTINUOUS
 10
28.45009918
 20
60.9676073866
 11
27.9943041101
 21
60.9447570723
  0
LINE
  5
3A7
100
AcDbEntity
  8
0
100
AcDbLine
 62
253
  6
CONTINUOUS
 10
35.9995745681
 20
61.1136204163
 11
33.2681651973
 21
61.0682673142
  0
LINE
  5
3A8
100
AcDbEntity
  8
0
100
AcDbLine
 62
253
  6
CONTINUOUS
 10
33.2681651973
 20
61.0682673142
 11
30.9936581894
 21
61.0328962755
  0
LINE
  5
3A9
100
AcDbEntity
  8
RACCORDO
100
AcDbLine
 62
253
  6
CONTINUOUS
 10
29.695298701
 20
60.9676073866
 11
28.45009918
 21
60.9676073866
  0
LINE
  5
3AA
100
AcDbEntity
  8
ASSI
100
AcDbLine
 62
253
  6
CONTINUOUS
 10
29.695298701
 20
60.9676073866
 11
28.45009918
 21
60.9676073866
  0
LINE
  5
3AB
100
AcDbEntity
  8
0
100
AcDbLine
 62
253
  6
CONTINUOUS
 10
30.4930271333
 20
61.0328962755
 11
30.9936581894
 21
61.0328962755
  0
LWPOLYLINE
  5
3AC
100
AcDbEntity
  8
RACCORDO
100
AcDbPolyline
 62
253
  6
CONTINUOUS
 90
19
 70
0
 10
35.2821629558
 20
40.3767220781
 10
35.30433313
 20
40.3289072479
 10
35.3241203507
 20
40.2811712947
 10
35.3414302564
 20
40.2337418632
 10
35.3561802993
 20
40.1868451361
 10
35.3683001391
 20
40.1407047558
 10
35.3777319788
 20
40.0955407582
 10
35.3844308396
 20
40.0515685225
 10
35.3883647761
 20
40.0089977446
 10
35.3895150284
 20
39.9680314373
 10
35.3878761115
 20
39.9288649617
 10
35.3834558413
 20
39.8916850958
 10
35.3762752976
 20
39.8566691437
 10
35.3663687235
 20
39.8239840902
 10
35.3537833619
 20
39.7937858046
 10
35.3385792306
 20
39.7662182968
 10
35.3208288354
 20
39.7414130312
 10
35.3006168252
 20
39.7194882998
 10
35.2780395877
 20
39.7005486576
  0
LWPOLYLINE
  5
3AD
100
AcDbEntity
  8
RACCORDO
100
AcDbPolyline
 62
253
  6
CONTINUOUS
 90
10
 70
0
 10
30.9347200265
 20
127.5725866242
 10
30.5218477799
 20
125.2003607461
 10
30.1432203611
 20
122.8224394302
 10
29.7988381964
 20
120.4393238453
 10
29.488645563
 20
118.0515252698
 10
29.2126990336
 20
115.6595344999
 10
28.9711674875
 20
113.263821677
 10
28.7641075131
 20
110.8648771971
 10
28.5914633963
 20
108.4632118817
 10
28.4532355729
 20
106.059326266
  0
LWPOLYLINE
  5
3AE
100
AcDbEntity
  8
ASSI
100
AcDbPolyline
 62
253
  6
CONTINUOUS
 90
10
 70
0
 10
30.9347200265
 20
127.5725866242
 10
30.5218477799
 20
125.2003607461
 10
30.1432203611
 20
122.8224394302
 10
29.7988381964
 20
120.4393238453
 10
29.488645563
 20
118.0515252698
 10
29.2126990336
 20
115.6595344999
 10
28.9711674875
 20
113.263821677
 10
28.7641075131
 20
110.8648771971
 10
28.5914633963
 20
108.4632118817
 10
28.4532355729
 20
106.059326266
  0
LWPOLYLINE
  5
3AF
100
AcDbEntity
  8
RACCORDO
100
AcDbPolyline
 62
7
  6
CONTINUOUS
 90
10
 70
0
 10
32.2196092794
 20
127.6822296089
 10
31.7989178676
 20
125.2920605366
 10
31.4132015309
 20
122.8964197712
 10
31.0624602694
 20
120.4953073124
 10
30.7465900303
 20
118.0878666853
 10
30.4656948664
 20
115.6749543648
 10
30.2200869357
 20
113.2591397767
 10
30.009870291
 20
110.8412793959
 10
29.8349408794
 20
108.4205167474
 10
29.695298701
 20
105.9968518311
  0
LWPOLYLINE
  5
3B0
100
AcDbEntity
  8
ASSI
100
AcDbPolyline
 62
7
  6
CONTINUOUS
 90
10
 70
0
 10
32.2196092794
 20
127.6822296089
 10
31.7989178676
 20
125.2920605366
 10
31.4132015309
 20
122.8964197712
 10
31.0624602694
 20
120.4953073124
 10
30.7465900303
 20
118.0878666853
 10
30.4656948664
 20
115.6749543648
 10
30.2200869357
 20
113.2591397767
 10
30.009870291
 20
110.8412793959
 10
29.8349408794
 20
108.4205167474
 10
29.695298701
 20
105.9968518311
  0
LWPOLYLINE
  5
3B1
100
AcDbEntity
  8
RACCORDO
100
AcDbPolyline
 62
7
  6
CONTINUOUS
 90
17
 70
0
 10
32.2615770427
 20
38.8860600767
 10
32.2660072545
 20
38.8418283225
 10
32.2705466865
 20
38.7991850268
 10
32.2751652188
 20
38.7584585426
 10
32.2799847822
 20
38.7200077326
 10
32.2850104418
 20
38.6840014508
 10
32.2902371325
 20
38.6505781374
 10
32.2957715893
 20
38.6199788079
 10
32.3015869154
 20
38.592366845
 10
32.3077100075
 20
38.567737609
 10
32.314328291
 20
38.5460680085
 10
32.32143594
 20
38.5273809233
 10
32.3290387803
 20
38.5118453065
 10
32.3373417141
 20
38.4996053398
 10
32.346413042
 20
38.4906584451
 10
32.3561844635
 20
38.4849346515
 10
32.3666559785
 20
38.4823849149
  0
LWPOLYLINE
  5
3B2
100
AcDbEntity
  8
ASSI
100
AcDbPolyline
 62
7
  6
CONTINUOUS
 90
17
 70
0
 10
32.2615770427
 20
38.8860600767
 10
32.2660072545
 20
38.8418283225
 10
32.2705466865
 20
38.7991850268
 10
32.2751652188
 20
38.7584585426
 10
32.2799847822
 20
38.7200077326
 10
32.2850104418
 20
38.6840014508
 10
32.2902371325
 20
38.6505781374
 10
32.2957715893
 20
38.6199788079
 10
32.3015869154
 20
38.592366845
 10
32.3077100075
 20
38.567737609
 10
32.314328291
 20
38.5460680085
 10
32.32143594
 20
38.5273809233
 10
32.3290387803
 20
38.5118453065
 10
32.3373417141
 20
38.4996053398
 10
32.346413042
 20
38.4906584451
 10
32.3561844635
 20
38.4849346515
 10
32.3666559785
 20
38.4823849149
  0
LINE
  5
3B3
100
AcDbEntity
  8
RACCORDO
100
AcDbLine
 62
7
  6
CONTINUOUS
 10
32.2434569063
 20
39.0772278274
 11
32.2615770427
 21
38.8860600767
  0
LINE
  5
3B4
100
AcDbEntity
  8
ASSI
100
AcDbLine
 62
7
  6
CONTINUOUS
 10
32.2434569063
 20
39.0772278274
 11
32.2615770427
 21
38.8860600767
  0
LINE
  5
3B5
100
AcDbEntity
  8
SCRITTA
100
AcDbLine
 62
253
  6
CONTINUOUS
 10
28.4310457475
 20
54.6044282545
 11
28.3646098356
 21
55.3808575712
  0
LINE
  5
3B6
100
AcDbEntity
  8
SCRITTA
100
AcDbLine
 62
253
  6
CONTINUOUS
 10
28.3054229389
 20
56.1112169638
 11
28.3661696183
 21
55.3621293808
  0
LINE
  5
3B7
100
AcDbEntity
  8
SCRITTA
100
AcDbLine
 62
253
  6
CONTINUOUS
 10
28.2488111986
 20
56.8500056061
 11
28.3054229389
 21
56.1112169638
  0
LINE
  5
3B8
100
AcDbEntity
  8
SCRITTA
100
AcDbLine
 62
253
  6
CONTINUOUS
 10
28.2488111986
 20
56.8500056061
 11
28.2061664646
 21
57.4369796843
  0
LWPOLYLINE
  5
3B9
100
AcDbEntity
  8
RACCORDO
100
AcDbPolyline
 62
7
  6
CONTINUOUS
 90
10
 70
0
 10
29.695298701
 20
60.9676073866
 10
29.8349408794
 20
58.5439424704
 10
30.009870291
 20
56.1231798218
 10
30.2200869357
 20
53.7053194411
 10
30.4656948664
 20
51.2895048529
 10
30.7465900303
 20
48.8765925325
 10
31.0624602694
 20
46.4691519053
 10
31.4132015309
 20
44.0680394466
 10
31.7989178676
 20
41.6723986811
 10
32.2196092794
 20
39.2822296089
  0
LWPOLYLINE
  5
3BA
100
AcDbEntity
  8
ASSI
100
AcDbPolyline
 62
7
  6
CONTINUOUS
 90
10
 70
0
 10
29.695298701
 20
60.9676073866
 10
29.8349408794
 20
58.5439424704
 10
30.009870291
 20
56.1231798218
 10
30.2200869357
 20
53.7053194411
 10
30.4656948664
 20
51.2895048529
 10
30.7465900303
 20
48.8765925325
 10
31.0624602694
 20
46.4691519053
 10
31.4132015309
 20
44.0680394466
 10
31.7989178676
 20
41.6723986811
 10
32.2196092794
 20
39.2822296089
  0
LWPOLYLINE
  5
3BB
100
AcDbEntity
  8
RACCORDO
100
AcDbPolyline
 62
253
  6
CONTINUOUS
 90
10
 70
0
 10
28.4532355729
 20
60.9051329517
 10
28.5914633651
 20
58.5012477759
 10
28.7641074617
 20
56.0995827313
 10
28.971167427
 20
53.7006383532
 10
29.2126989796
 20
51.3049253864
 10
29.4886455267
 20
48.9129343053
 10
29.7988381757
 20
46.5251354846
 10
30.1432203495
 20
44.1420197973
 10
30.5218477751
 20
41.7640984442
 10
30.9347200265
 20
39.3918725934
  0
LWPOLYLINE
  5
3BC
100
AcDbEntity
  8
ASSI
100
AcDbPolyline
 62
253
  6
CONTINUOUS
 90
10
 70
0
 10
28.4532355729
 20
60.9051329517
 10
28.5914633651
 20
58.5012477759
 10
28.7641074617
 20
56.0995827313
 10
28.971167427
 20
53.7006383532
 10
29.2126989796
 20
51.3049253864
 10
29.4886455267
 20
48.9129343053
 10
29.7988381757
 20
46.5251354846
 10
30.1432203495
 20
44.1420197973
 10
30.5218477751
 20
41.7640984442
 10
30.9347200265
 20
39.3918725934
  0
LWPOLYLINE
  5
3BD
100
AcDbEntity
  8
RACCORDO
100
AcDbPolyline
 62
253
  6
CONTINUOUS
 90
16
 70
0
 10
30.9488592864
 20
38.9527581234
 10
30.9511234288
 20
38.9109457949
 10
30.9535095799
 20
38.8712092394
 10
30.9559830841
 20
38.8337102176
 10
30.9585405916
 20
38.7986023635
 10
30.9611846224
 20
38.7660270131
 10
30.9638870905
 20
38.736114114
 10
30.9666391411
 20
38.708984985
 10
30.9694392391
 20
38.684751099
 10
30.9722680286
 20
38.6635117039
 10
30.9751118733
 20
38.6453553968
 10
30.9779643968
 20
38.6303529738
 10
30.9808152293
 20
38.6185614922
 10
30.9836517132
 20
38.6100310475
 10
30.9864585374
 20
38.6048008445
 10
30.9892196128
 20
38.6028949817
  0
LWPOLYLINE
  5
3BE
100
AcDbEntity
  8
ASSI
100
AcDbPolyline
 62
253
  6
CONTINUOUS
 90
16
 70
0
 10
30.9488592864
 20
38.9527581234
 10
30.9511234288
 20
38.9109457949
 10
30.9535095799
 20
38.8712092394
 10
30.9559830841
 20
38.8337102176
 10
30.9585405916
 20
38.7986023635
 10
30.9611846224
 20
38.7660270131
 10
30.9638870905
 20
38.736114114
 10
30.9666391411
 20
38.708984985
 10
30.9694392391
 20
38.684751099
 10
30.9722680286
 20
38.6635117039
 10
30.9751118733
 20
38.6453553968
 10
30.9779643968
 20
38.6303529738
 10
30.9808152293
 20
38.6185614922
 10
30.9836517132
 20
38.6100310475
 10
30.9864585374
 20
38.6048008445
 10
30.9892196128
 20
38.6028949817
  0
LINE
  5
3BF
100
AcDbEntity
  8
RACCORDO
100
AcDbLine
 62
253
  6
CONTINUOUS
 10
30.9446731522
 20
39.0419251601
 11
30.9488592864
 21
38.9527581234
  0
LINE
  5
3C0
100
AcDbEntity
  8
ASSI
100
AcDbLine
 62
253
  6
CONTINUOUS
 10
30.9446731522
 20
39.0419251601
 11
30.9488592864
 21
38.9527581234
  0
LWPOLYLINE
  5
3C1
100
AcDbEntity
  8
RACCORDO
100
AcDbPolyline
 62
253
  6
CONTINUOUS
 90
3
 70
0
 10
30.9394466267
 20
39.1866927855
 10
30.9410510989
 20
39.1372282964
 10
30.9446731522
 20
39.0419251601
  0
LWPOLYLINE
  5
3C2
100
AcDbEntity
  8
ASSI
100
AcDbPolyline
 62
253
  6
CONTINUOUS
 90
3
 70
0
 10
30.9394466267
 20
39.1866927855
 10
30.9410510989
 20
39.1372282964
 10
30.9446731522
 20
39.0419251601
  0
LINE
  5
3C3
100
AcDbEntity
  8
IMPORT_IGES
100
AcDbLine
 62
7
  6
CONTINUOUS
 10
28.3156428736
 20
55.9888128436
 11
28.3156428736
 21
54.6044286089
  0
LWPOLYLINE
  5
3C4
100
AcDbEntity
  8
0
100
AcDbPolyline
 62
7
  6
CONTINUOUS
 90
4
 70
0
 43
0.3500000006
 10
28.5002896729
 20
143.6593247681
 10
28.5002896729
 20
144.516480835
 10
28.9288609085
 20
144.9450498047
 10
29.571716629
 20
144.9450498047
  0
LINE
  5
3C5
100
AcDbEntity
  8
RACCORDO
100
AcDbLine
 62
253
  6
CONTINUOUS
 10
30.9380196897
 20
127.7273629101
 11
30.9356808717
 21
127.6245589894
  0
LINE
  5
3C6
100
AcDbEntity
  8
ASSI
100
AcDbLine
 62
253
  6
CONTINUOUS
 10
30.9380196897
 20
127.7273629101
 11
30.9356808717
 21
127.6245589894
  0
LINE
  5
3C7
100
AcDbEntity
  8
RACCORDO
100
AcDbLine
 62
253
  6
CONTINUOUS
 10
30.9410507605
 20
127.8272335804
 11
30.9380196897
 21
127.7273629101
  0
LINE
  5
3C8
100
AcDbEntity
  8
ASSI
100
AcDbLine
 62
253
  6
CONTINUOUS
 10
30.9410507605
 20
127.8272335804
 11
30.9380196897
 21
127.7273629101
  0
LWPOLYLINE
  5
3C9
100
AcDbEntity
  8
RACCORDO
100
AcDbPolyline
 62
253
  6
CONTINUOUS
 90
12
 70
0
 10
28.2777468141
 20
102.2468153583
 10
28.1367285635
 20
98.4954677544
 10
28.0270444274
 20
94.7430721984
 10
27.9486911288
 20
90.9898934493
 10
27.9016719426
 20
87.2361931005
 10
27.8859966967
 20
83.4822295774
 10
27.9016719437
 20
79.728266045
 10
27.948691131
 20
75.9745656807
 10
28.0270444301
 20
72.2213869293
 10
28.1367285659
 20
68.4689913903
 10
28.2777468156
 20
64.7176438164
 10
28.4532355729
 20
60.9051329517
  0
LWPOLYLINE
  5
3CA
100
AcDbEntity
  8
ASSI
100
AcDbPolyline
 62
253
  6
CONTINUOUS
 90
12
 70
0
 10
28.2777468141
 20
102.2468153583
 10
28.1367285635
 20
98.4954677544
 10
28.0270444274
 20
94.7430721984
 10
27.9486911288
 20
90.9898934493
 10
27.9016719426
 20
87.2361931005
 10
27.8859966967
 20
83.4822295774
 10
27.9016719437
 20
79.728266045
 10
27.948691131
 20
75.9745656807
 10
28.0270444301
 20
72.2213869293
 10
28.1367285659
 20
68.4689913903
 10
28.2777468156
 20
64.7176438164
 10
28.4532355729
 20
60.9051329517
  0
LINE
  5
3CB
100
AcDbEntity
  8
RACCORDO
100
AcDbLine
 62
253
  6
CONTINUOUS
 10
30.9446731772
 20
127.9225365055
 11
30.9410507605
 21
127.8272335804
  0
LINE
  5
3CC
100
AcDbEntity
  8
ASSI
100
AcDbLine
 62
253
  6
CONTINUOUS
 10
30.9446731772
 20
127.9225365055
 11
30.9410507605
 21
127.8272335804
  0
LWPOLYLINE
  5
3CD
100
AcDbEntity
  8
DRAFT
100
AcDbPolyline
 62
7
  6
CONTINUOUS
 90
13
 70
0
 10
29.695298701
 20
105.9968518311
 10
29.5224987526
 20
102.2473375135
 10
29.3811117756
 20
98.4966541081
 10
29.2711377701
 20
94.744801615
 10
29.1925703793
 20
90.9913903381
 10
29.14541596
 20
87.2368099735
 10
29.1296935824
 20
83.4822296089
 10
29.14541596
 20
79.7276492442
 10
29.1925703793
 20
75.9730688796
 10
29.2711377701
 20
72.2196576028
 10
29.3811117756
 20
68.4678051096
 10
29.5224987526
 20
64.7171217042
 10
29.695298701
 20
60.9676073866
  0
LWPOLYLINE
  5
3CE
100
AcDbEntity
  8
ASSI
100
AcDbPolyline
 62
7
  6
CONTINUOUS
 90
13
 70
0
 10
29.695298701
 20
105.9968518311
 10
29.5224987526
 20
102.2473375135
 10
29.3811117756
 20
98.4966541081
 10
29.2711377701
 20
94.744801615
 10
29.1925703793
 20
90.9913903381
 10
29.14541596
 20
87.2368099735
 10
29.1296935824
 20
83.4822296089
 10
29.14541596
 20
79.7276492442
 10
29.1925703793
 20
75.9730688796
 10
29.2711377701
 20
72.2196576028
 10
29.3811117756
 20
68.4678051096
 10
29.5224987526
 20
64.7171217042
 10
29.695298701
 20
60.9676073866
  0
LINE
  5
3CF
100
AcDbEntity
  8
RACCORDO
100
AcDbLine
 62
253
  6
CONTINUOUS
 10
28.4532355729
 20
106.059326266
 11
28.2777468141
 21
102.2468153583
  0
LINE
  5
3D0
100
AcDbEntity
  8
ASSI
100
AcDbLine
 62
253
  6
CONTINUOUS
 10
28.4532355729
 20
106.059326266
 11
28.2777468141
 21
102.2468153583
  0
LWPOLYLINE
  5
3D1
100
AcDbEntity
  8
RACCORDO
100
AcDbPolyline
 62
7
  6
CONTINUOUS
 90
5
 70
0
 10
32.2434569063
 20
127.8872313376
 10
32.2382773324
 20
127.836721479
 10
32.2325145767
 20
127.7855785388
 10
32.2262811384
 20
127.734009096
 10
32.2195770173
 20
127.6822296089
  0
LWPOLYLINE
  5
3D2
100
AcDbEntity
  8
ASSI
100
AcDbPolyline
 62
7
  6
CONTINUOUS
 90
5
 70
0
 10
32.2434569063
 20
127.8872313376
 10
32.2382773324
 20
127.836721479
 10
32.2325145767
 20
127.7855785388
 10
32.2262811384
 20
127.734009096
 10
32.2195770173
 20
127.6822296089
  0
LWPOLYLINE
  5
3D3
100
AcDbEntity
  8
RACCORDO
100
AcDbPolyline
 62
7
  6
CONTINUOUS
 90
5
 70
0
 10
32.2195770173
 20
39.2822296089
 10
32.2262811009
 20
39.2304505114
 10
32.2325145253
 20
39.1788812024
 10
32.2382772903
 20
39.1277381431
 10
32.2434569063
 20
39.0772278274
  0
LWPOLYLINE
  5
3D4
100
AcDbEntity
  8
ASSI
100
AcDbPolyline
 62
7
  6
CONTINUOUS
 90
5
 70
0
 10
32.2195770173
 20
39.2822296089
 10
32.2262811009
 20
39.2304505114
 10
32.2325145253
 20
39.1788812024
 10
32.2382772903
 20
39.1277381431
 10
32.2434569063
 20
39.0772278274
  0
LINE
  5
3D5
100
AcDbEntity
  8
RACCORDO
100
AcDbLine
 62
253
  6
CONTINUOUS
 10
30.9367754247
 20
39.2882385848
 11
30.9394466267
 21
39.1866927855
  0
LINE
  5
3D6
100
AcDbEntity
  8
ASSI
100
AcDbLine
 62
253
  6
CONTINUOUS
 10
30.9367754247
 20
39.2882385848
 11
30.9394466267
 21
39.1866927855
  0
LINE
  5
3D7
100
AcDbEntity
  8
RACCORDO
100
AcDbLine
 62
253
  6
CONTINUOUS
 10
30.934720028
 20
39.3918725933
 11
30.9367754247
 21
39.2882385848
  0
LINE
  5
3D8
100
AcDbEntity
  8
ASSI
100
AcDbLine
 62
253
  6
CONTINUOUS
 10
30.934720028
 20
39.3918725933
 11
30.9367754247
 21
39.2882385848
  0
LINE
  5
3D9
100
AcDbEntity
  8
RACCORDO
100
AcDbLine
 62
7
  6
CONTINUOUS
 10
33.9995745681
 20
80.1500495351
 11
33.9995745681
 21
86.8144096826
  0
LINE
  5
3DA
100
AcDbEntity
  8
RACCORDO
100
AcDbLine
 62
253
  6
CONTINUOUS
 10
30.9356808717
 20
127.6245589894
 11
30.934720028
 21
127.5725866243
  0
LINE
  5
3DB
100
AcDbEntity
  8
ASSI
100
AcDbLine
 62
253
  6
CONTINUOUS
 10
30.9356808717
 20
127.6245589894
 11
30.934720028
 21
127.5725866243
  0
LINE
  5
3DC
100
AcDbEntity
  8
RACCORDO
100
AcDbLine
 62
7
  6
CONTINUOUS
 10
35.9995745681
 20
40.3822293779
 11
35.9995745681
 21
61.1136204163
  0
LINE
  5
3DD
100
AcDbEntity
  8
DRAFT
100
AcDbLine
 62
7
  6
CONTINUOUS
 10
35.9995745681
 20
61.1136204163
 11
35.9995745681
 21
79.6295756475
  0
LINE
  5
3DE
100
AcDbEntity
  8
DRAFT
100
AcDbLine
 62
7
  6
CONTINUOUS
 10
35.9995745681
 20
87.3348835703
 11
35.9995745681
 21
105.8508388014
  0
LINE
  5
3DF
100
AcDbEntity
  8
RACCORDO
100
AcDbLine
 62
7
  6
CONTINUOUS
 10
35.9995745681
 20
105.8508388014
 11
35.9995745681
 21
126.5822298414
  0
LINE
  5
3E0
100
AcDbEntity
  8
RACCORDO
100
AcDbLine
 62
7
  6
CONTINUOUS
 10
35.9995745681
 20
79.6295756475
 11
34.1648449326
 21
79.9530879845
  0
LINE
  5
3E1
100
AcDbEntity
  8
0
100
AcDbLine
 62
253
  6
CONTINUOUS
 10
33.9995745681
 20
83.4822296089
 11
30.4295745681
 21
83.4822296089
  0
LINE
  5
3E2
100
AcDbEntity
  8
RACCORDO
100
AcDbLine
 62
7
  6
CONTINUOUS
 10
34.1648449326
 20
87.0113712332
 11
35.9995745681
 21
87.3348835703
  0
LWPOLYLINE
  5
3E3
100
AcDbEntity
  8
0
100
AcDbPolyline
 62
7
  6
CONTINUOUS
 90
10
 70
0
 43
0.3500000006
 10
31.5002883224
 20
143.7307650146
 10
31.5717172394
 20
143.5879026489
 10
31.5717172394
 20
143.5164805298
 10
31.4288594055
 20
143.3736181641
 10
31.3574327545
 20
143.3736181641
 10
31.2860038376
 20
143.4450402832
 10
31.2860038376
 20
143.5164805298
 10
31.3574327545
 20
143.6593247681
 10
31.4288594055
 20
143.7307650146
 10
31.5002883224
 20
143.7307650146
  0
LWPOLYLINE
  5
3E4
100
AcDbEntity
  8
RACCORDO
100
AcDbPolyline
 62
253
  6
CONTINUOUS
 90
13
 70
0
 10
35.2821630632
 20
40.3767220852
 10
35.3636278814
 20
40.4254917237
 10
35.4405192715
 20
40.4736882761
 10
35.5129574422
 20
40.5213083696
 10
35.5808975092
 20
40.5683893816
 10
35.6446339563
 20
40.6148874308
 10
35.7047725446
 20
40.6606776049
 10
35.7614380023
 20
40.7057337203
 10
35.814697816
 20
40.7500764738
 10
35.8650290348
 20
40.793651828
 10
35.9126337048
 20
40.8364403487
 10
35.9574577452
 20
40.8784569689
 10
35.9995746006
 20
40.9196995339
  0
LINE
  5
3E5
100
AcDbEntity
  8
0
100
AcDbLine
 62
253
  6
CONTINUOUS
 10
30.4930271333
 20
105.9315629422
 11
30.9936581894
 21
105.9315629422
  0
LINE
  5
3E6
100
AcDbEntity
  8
RACCORDO
100
AcDbLine
 62
253
  6
CONTINUOUS
 10
29.695298701
 20
105.9968518311
 11
28.45009918
 21
105.9968518311
  0
LINE
  5
3E7
100
AcDbEntity
  8
ASSI
100
AcDbLine
 62
253
  6
CONTINUOUS
 10
29.695298701
 20
105.9968518311
 11
28.45009918
 21
105.9968518311
  0
LINE
  5
3E8
100
AcDbEntity
  8
0
100
AcDbLine
 62
253
  6
CONTINUOUS
 10
35.9995745681
 20
105.8508388014
 11
30.9936581894
 21
105.9315629422
  0
LINE
  5
3E9
100
AcDbEntity
  8
RACCORDO
100
AcDbLine
 62
253
  6
CONTINUOUS
 10
28.45009918
 20
105.9968518311
 11
27.9943041157
 21
106.0197021452
  0
LINE
  5
3EA
100
AcDbEntity
  8
ASSI
100
AcDbLine
 62
253
  6
CONTINUOUS
 10
28.45009918
 20
105.9968518311
 11
27.9943041157
 21
106.0197021452
  0
LINE
  5
3EB
100
AcDbEntity
  8
RACCORDO
100
AcDbLine
 62
253
  6
CONTINUOUS
 10
28.4532355729
 20
106.059326266
 11
27.9974439855
 21
106.0822296089
  0
LINE
  5
3EC
100
AcDbEntity
  8
ASSI
100
AcDbLine
 62
253
  6
CONTINUOUS
 10
28.4532355729
 20
106.059326266
 11
27.9974439855
 21
106.0822296089
  0
LWPOLYLINE
  5
3ED
100
AcDbEntity
  8
RACCORDO
100
AcDbPolyline
 62
253
  6
CONTINUOUS
 90
19
 70
0
 10
35.2780409406
 20
127.2639124034
 10
35.3006181283
 20
127.2449726394
 10
35.3208300766
 20
127.2230477792
 10
35.3385803991
 20
127.19824238
 10
35.3537844484
 20
127.1706747356
 10
35.36636972
 20
127.1404763128
 10
35.3762761977
 20
127.1077911242
 10
35.3834566405
 20
127.0727750411
 10
35.3878768072
 20
127.0355950499
 10
35.3895156201
 20
126.9964284561
 10
35.3883652651
 20
126.9554620393
 10
35.3844312292
 20
126.9128911615
 10
35.3777322739
 20
126.8689188348
 10
35.3683003463
 20
126.8237547559
 10
35.3561804262
 20
126.7776143042
 10
35.3414303114
 20
126.7307175131
 10
35.3241203426
 20
126.6832880241
 10
35.3043330682
 20
126.6355520205
 10
35.2821628506
 20
126.5877371465
  0
LWPOLYLINE
  5
3EE
100
AcDbEntity
  8
RACCORDO
100
AcDbPolyline
 62
253
  6
CONTINUOUS
 90
10
 70
0
 10
35.2821630632
 20
126.5877371326
 10
35.380271889
 20
126.528773558
 10
35.4734668639
 20
126.469332594
 10
35.5618863636
 20
126.4094169348
 10
35.6457018179
 20
126.3488573635
 10
35.7250344953
 20
126.2878283861
 10
35.7999491551
 20
126.2268490312
 10
35.8705645661
 20
126.1660948968
 10
35.9370571666
 20
126.1053973484
 10
35.9995745667
 20
126.0447597161
  0
LINE
  5
3EF
100
AcDbEntity
  8
0
100
AcDbLine
 62
253
  6
CONTINUOUS
 10
32.7912343595
 20
126.3406102248
 11
33.3069140804
 21
126.3857513193
  0
LINE
  5
3F0
100
AcDbEntity
  8
RACCORDO
100
AcDbLine
 62
253
  6
CONTINUOUS
 10
35.2821630632
 20
126.5877371326
 11
33.3448386064
 21
126.5994411212
  0
LWPOLYLINE
  5
3F1
100
AcDbEntity
  8
RACCORDO
100
AcDbPolyline
 62
253
  6
CONTINUOUS
 90
16
 70
0
 10
33.4514254029
 20
127.1914804512
 10
33.5741960193
 20
127.1732726529
 10
33.6969565432
 20
127.152258546
 10
33.8196324196
 20
127.1284333845
 10
33.9419696926
 20
127.1019043321
 10
34.064061471
 20
127.072554731
 10
34.1863400604
 20
127.0400432581
 10
34.3087927091
 20
127.0043900949
 10
34.4312180731
 20
126.9655634635
 10
34.5537462052
 20
126.9231423529
 10
34.6764120729
 20
126.877135448
 10
34.7989092706
 20
126.8275201288
 10
34.9208634942
 20
126.7738267359
 10
35.0420895309
 20
126.7158932278
 10
35.1625599872
 20
126.6538659524
 10
35.2821630632
 20
126.5877371326
  0
LINE
  5
3F2
100
AcDbEntity
  8
RACCORDO
100
AcDbLine
 62
253
  6
CONTINUOUS
 10
30.9347200284
 20
127.5725866343
 11
30.4863254755
 21
127.6538863796
  0
LINE
  5
3F3
100
AcDbEntity
  8
ASSI
100
AcDbLine
 62
253
  6
CONTINUOUS
 10
30.9347200284
 20
127.5725866343
 11
30.4863254755
 21
127.6538863796
  0
LWPOLYLINE
  5
3F4
100
AcDbEntity
  8
RACCORDO
100
AcDbPolyline
 62
7
  6
CONTINUOUS
 90
18
 70
0
 10
32.3666559785
 20
128.4820743028
 10
32.3561844128
 20
128.4795245644
 10
32.3464128555
 20
128.4738006522
 10
32.3373413066
 20
128.4648533745
 10
32.3290380157
 20
128.4526125246
 10
32.3214347331
 20
128.4370754308
 10
32.3143267103
 20
128.4183865346
 10
32.3077081381
 20
128.3967147757
 10
32.3015848256
 20
128.3720831407
 10
32.295769452
 20
128.3444694153
 10
32.2902352169
 20
128.3138698476
 10
32.2850089207
 20
128.2804475859
 10
32.279983643
 20
128.2444428294
 10
32.2751644112
 20
128.2059939142
 10
32.270546198
 20
128.1652697871
 10
32.2660070008
 20
128.1226284237
 10
32.2615768861
 20
128.0783974892
 10
32.2434569063
 20
127.8872313376
  0
LWPOLYLINE
  5
3F5
100
AcDbEntity
  8
ASSI
100
AcDbPolyline
 62
7
  6
CONTINUOUS
 90
18
 70
0
 10
32.3666559785
 20
128.4820743028
 10
32.3561844128
 20
128.4795245644
 10
32.3464128555
 20
128.4738006522
 10
32.3373413066
 20
128.4648533745
 10
32.3290380157
 20
128.4526125246
 10
32.3214347331
 20
128.4370754308
 10
32.3143267103
 20
128.4183865346
 10
32.3077081381
 20
128.3967147757
 10
32.3015848256
 20
128.3720831407
 10
32.295769452
 20
128.3444694153
 10
32.2902352169
 20
128.3138698476
 10
32.2850089207
 20
128.2804475859
 10
32.279983643
 20
128.2444428294
 10
32.2751644112
 20
128.2059939142
 10
32.270546198
 20
128.1652697871
 10
32.2660070008
 20
128.1226284237
 10
32.2615768861
 20
128.0783974892
 10
32.2434569063
 20
127.8872313376
  0
LINE
  5
3F6
100
AcDbEntity
  8
0
100
AcDbLine
 62
7
  6
CONTINUOUS
 10
33.4862406402
 20
127.3822296089
 11
32.9697082411
 21
127.3370388796
  0
LINE
  5
3F7
100
AcDbEntity
  8
RACCORDO
100
AcDbLine
 62
253
  6
CONTINUOUS
 10
30.9347200265
 20
127.5725866242
 11
32.2200708846
 21
127.6850898255
  0
LINE
  5
3F8
100
AcDbEntity
  8
ASSI
100
AcDbLine
 62
253
  6
CONTINUOUS
 10
30.9347200265
 20
127.5725866242
 11
32.2200708846
 21
127.6850898255
  0
LINE
  5
3F9
100
AcDbEntity
  8
RACCORDO
100
AcDbLine
 62
7
  6
CONTINUOUS
 10
30.9892196128
 20
128.3615642361
 11
32.3684311348
 21
128.4822296089
  0
LINE
  5
3FA
100
AcDbEntity
  8
ASSI
100
AcDbLine
 62
7
  6
CONTINUOUS
 10
30.9892196128
 20
128.3615642361
 11
32.3684311348
 21
128.4822296089
  0
LINE
  5
3FB
100
AcDbEntity
  8
RACCORDO
100
AcDbLine
 62
253
  6
CONTINUOUS
 10
32.2196092794
 20
127.6822296089
 11
33.0330038958
 21
127.6822296089
  0
LINE
  5
3FC
100
AcDbEntity
  8
ASSI
100
AcDbLine
 62
253
  6
CONTINUOUS
 10
32.2196092794
 20
127.6822296089
 11
33.0330038958
 21
127.6822296089
  0
LINE
  5
3FD
100
AcDbEntity
  8
RACCORDO
100
AcDbLine
 62
7
  6
CONTINUOUS
 10
32.3684311348
 20
128.4822296089
 11
33.1826050289
 21
128.4822296089
  0
LINE
  5
3FE
100
AcDbEntity
  8
ASSI
100
AcDbLine
 62
7
  6
CONTINUOUS
 10
32.3684311348
 20
128.4822296089
 11
33.1826050289
 21
128.4822296089
  0
LWPOLYLINE
  5
3FF
100
AcDbEntity
  8
0
100
AcDbPolyline
 62
7
  6
CONTINUOUS
 90
13
 70
0
 43
0.3500000006
 10
28.9288609085
 20
144.9450498047
 10
28.6431452408
 20
145.1593342896
 10
28.6431452408
 20
145.8021877441
 10
28.9288609085
 20
146.2307567139
 10
29.571716629
 20
146.2307567139
 10
29.8574322968
 20
145.8021877441
 10
29.8574322968
 20
145.1593342896
 10
29.571716629
 20
144.9450498047
 10
30.0002878647
 20
144.516480835
 10
30.0002878647
 20
143.6593247681
 10
29.571716629
 20
143.2307557983
 10
28.9288609085
 20
143.2307557983
 10
28.5002896729
 20
143.6593247681
  0
ARC
  5
400
100
AcDbEntity
  8
RACCORDO
100
AcDbCircle
 62
7
  6
CONTINUOUS
 10
161.8381647974
 20
39.2822296089
 40
0.8
100
AcDbArc
 50
270.0
 51
360.0
  0
ARC
  5
401
100
AcDbEntity
  8
RACCORDO
100
AcDbCircle
 62
7
  6
CONTINUOUS
 10
161.8381647974
 20
127.6822296089
 40
0.8
100
AcDbArc
 50
0.0
 51
90.0
  0
ARC
  5
402
100
AcDbEntity
  8
RACCORDO
100
AcDbCircle
 62
7
  6
CONTINUOUS
 10
73.4381647974
 20
39.2822296089
 40
0.8
100
AcDbArc
 50
180.0
 51
270.0
  0
ARC
  5
403
100
AcDbEntity
  8
RACCORDO
100
AcDbCircle
 62
7
  6
CONTINUOUS
 10
73.4381647974
 20
127.6822296089
 40
0.8
100
AcDbArc
 50
90.0
 51
180.0
  0
ARC
  5
404
100
AcDbEntity
  8
ASSI
100
AcDbCircle
 62
7
  6
CONTINUOUS
 10
161.8381647974
 20
39.2822296089
 40
0.8
100
AcDbArc
 50
270.0
 51
360.0
  0
ARC
  5
405
100
AcDbEntity
  8
ASSI
100
AcDbCircle
 62
7
  6
CONTINUOUS
 10
161.8381647974
 20
127.6822296089
 40
0.8
100
AcDbArc
 50
0.0
 51
90.0
  0
ARC
  5
406
100
AcDbEntity
  8
ASSI
100
AcDbCircle
 62
7
  6
CONTINUOUS
 10
73.4381647974
 20
39.2822296089
 40
0.8
100
AcDbArc
 50
180.0
 51
270.0
  0
ARC
  5
407
100
AcDbEntity
  8
ASSI
100
AcDbCircle
 62
7
  6
CONTINUOUS
 10
73.4381647974
 20
127.6822296089
 40
0.8
100
AcDbArc
 50
90.0
 51
180.0
  0
ARC
  5
408
100
AcDbEntity
  8
RACCORDO
100
AcDbCircle
 62
7
  6
CONTINUOUS
 10
32.8991933734
 20
42.9411803461
 40
4.0200239337
100
AcDbArc
 50
279.9999994914
 51
320.4648724279
  0
ARC
  5
409
100
AcDbEntity
  8
RACCORDO
100
AcDbCircle
 62
7
  6
CONTINUOUS
 10
31.0327966924
 20
39.1009965939
 40
0.5
100
AcDbArc
 50
190.3886735272
 51
265.0001329639
  0
ARC
  5
40A
100
AcDbEntity
  8
ASSI
100
AcDbCircle
 62
7
  6
CONTINUOUS
 10
31.0327966924
 20
39.1009965939
 40
0.5
100
AcDbArc
 50
190.3886735272
 51
265.0001329639
  0
ARC
  5
40B
100
AcDbEntity
  8
RACCORDO
100
AcDbCircle
 62
7
  6
CONTINUOUS
 10
34.1995745681
 20
80.1500495351
 40
0.2
100
AcDbArc
 50
180.0
 51
260.0
  0
ARC
  5
40C
100
AcDbEntity
  8
RACCORDO
100
AcDbCircle
 62
7
  6
CONTINUOUS
 10
195.9052879712
 20
69.3255896088
 40
168.12
100
AcDbArc
 50
182.8787323946
 51
190.3881766496
  0
ARC
  5
40D
100
AcDbEntity
  8
ASSI
100
AcDbCircle
 62
7
  6
CONTINUOUS
 10
195.9052879712
 20
69.3255896088
 40
168.12
100
AcDbArc
 50
182.8787323946
 51
190.3881766496
  0
ARC
  5
40E
100
AcDbEntity
  8
SCRITTA
100
AcDbCircle
 62
253
  6
CONTINUOUS
 10
195.9052879712
 20
69.3255896088
 40
168.12
100
AcDbArc
 50
184.066222377
 51
185.0234475517
  0
ARC
  5
40F
100
AcDbEntity
  8
RACCORDO
100
AcDbCircle
 62
7
  6
CONTINUOUS
 10
195.9052879712
 20
69.3255896088
 40
165.62
100
AcDbArc
 50
182.8787323946
 51
190.7328340038
  0
ARC
  5
410
100
AcDbEntity
  8
ASSI
100
AcDbCircle
 62
7
  6
CONTINUOUS
 10
195.9052879712
 20
69.3255896088
 40
165.62
100
AcDbArc
 50
182.8787323946
 51
190.7328340038
  0
ARC
  5
411
100
AcDbEntity
  8
0
100
AcDbCircle
 62
7
  6
CONTINUOUS
 10
195.9052879712
 20
69.3255896088
 40
165.12
100
AcDbArc
 50
182.8787323946
 51
190.1014160662
  0
ARC
  5
412
100
AcDbEntity
  8
RACCORDO
100
AcDbCircle
 62
7
  6
CONTINUOUS
 10
195.9052879712
 20
69.3255896088
 40
165.12
100
AcDbArc
 50
190.1014160662
 51
190.5891670948
  0
ARC
  5
413
100
AcDbEntity
  8
RACCORDO
100
AcDbCircle
 62
7
  6
CONTINUOUS
 10
34.1995745681
 20
86.8144096826
 40
0.2
100
AcDbArc
 50
100.0
 51
180.0
  0
ARC
  5
414
100
AcDbEntity
  8
RACCORDO
100
AcDbCircle
 62
7
  6
CONTINUOUS
 10
32.8991933734
 20
124.0232788717
 40
4.0200239337
100
AcDbArc
 50
39.5351276004
 51
80.0000000614
  0
ARC
  5
415
100
AcDbEntity
  8
RACCORDO
100
AcDbCircle
 62
7
  6
CONTINUOUS
 10
31.0327966924
 20
127.8634626239
 40
0.5
100
AcDbArc
 50
94.9998670361
 51
169.6113264728
  0
ARC
  5
416
100
AcDbEntity
  8
ASSI
100
AcDbCircle
 62
7
  6
CONTINUOUS
 10
31.0327966924
 20
127.8634626239
 40
0.5
100
AcDbArc
 50
94.9998670361
 51
169.6113264728
  0
ARC
  5
417
100
AcDbEntity
  8
RACCORDO
100
AcDbCircle
 62
7
  6
CONTINUOUS
 10
195.9052879712
 20
97.6388696089
 40
168.12
100
AcDbArc
 50
169.6120465221
 51
177.1212676054
  0
ARC
  5
418
100
AcDbEntity
  8
ASSI
100
AcDbCircle
 62
7
  6
CONTINUOUS
 10
195.9052879712
 20
97.6388696089
 40
168.12
100
AcDbArc
 50
169.6120465221
 51
177.1212676054
  0
ARC
  5
419
100
AcDbEntity
  8
RACCORDO
100
AcDbCircle
 62
7
  6
CONTINUOUS
 10
195.9052879712
 20
97.6388696089
 40
165.62
100
AcDbArc
 50
169.2676317374
 51
177.1212676054
  0
ARC
  5
41A
100
AcDbEntity
  8
ASSI
100
AcDbCircle
 62
7
  6
CONTINUOUS
 10
195.9052879712
 20
97.6388696089
 40
165.62
100
AcDbArc
 50
169.2676317374
 51
177.1212676054
  0
ARC
  5
41B
100
AcDbEntity
  8
0
100
AcDbCircle
 62
7
  6
CONTINUOUS
 10
195.9052879712
 20
97.6388696089
 40
165.12
100
AcDbArc
 50
169.8985839314
 51
177.1212676054
  0
ARC
  5
41C
100
AcDbEntity
  8
RACCORDO
100
AcDbCircle
 62
7
  6
CONTINUOUS
 10
195.9052879712
 20
97.6388696089
 40
165.12
100
AcDbArc
 50
169.4108329051
 51
169.8985839314
  0
ARC
  5
41D
100
AcDbEntity
  8
RACCORDO
100
AcDbCircle
 62
7
  6
CONTINUOUS
 10
477.4295745681
 20
83.4822296089
 40
450.0
100
AcDbArc
 50
177.1212731691
 51
182.8787274802
  0
ARC
  5
41E
100
AcDbEntity
  8
ASSI
100
AcDbCircle
 62
7
  6
CONTINUOUS
 10
477.4295745681
 20
83.4822296089
 40
450.0
100
AcDbArc
 50
177.1212731691
 51
182.8787274802
  0
ARC
  5
41F
100
AcDbEntity
  8
DRAFT
100
AcDbCircle
 62
7
  6
CONTINUOUS
 10
477.4295745681
 20
83.4822296089
 40
447.5
100
AcDbArc
 50
177.1212676054
 51
182.8787323946
  0
ARC
  5
420
100
AcDbEntity
  8
ASSI
100
AcDbCircle
 62
7
  6
CONTINUOUS
 10
477.4295745681
 20
83.4822296089
 40
447.5
100
AcDbArc
 50
177.1212676054
 51
182.8787323946
  0
ARC
  5
421
100
AcDbEntity
  8
0
100
AcDbCircle
 62
7
  6
CONTINUOUS
 10
477.4295745681
 20
83.4822296089
 40
447.0
100
AcDbArc
 50
177.1212676054
 51
182.8787323946
  0
ELLIPSE
  5
422
100
AcDbEntity
  8
SCRITTA
100
AcDbEllipse
 62
253
  6
CONTINUOUS
 10
195.9052879712
 20
69.3255896088
 30
0.0
 11
108.6685475374
 21
128.2789194533
 31
0.0
 40
1.0
 41
-3.9307758211
 42
-3.9304039857
  0
ELLIPSE
  5
423
100
AcDbEntity
  8
SCRITTA
100
AcDbEllipse
 62
253
  6
CONTINUOUS
 10
195.9052879712
 20
69.3255896088
 30
0.0
 11
-23.3184477428
 21
166.4949981076
 31
0.0
 40
1.0
 41
1.5106665177
 42
1.5118887904
  0
ELLIPSE
  5
424
100
AcDbEntity
  8
SCRITTA
100
AcDbEllipse
 62
253
  6
CONTINUOUS
 10
195.9052879712
 20
69.3255896088
 30
0.0
 11
58.3286031692
 21
157.6772287058
 31
0.0
 40
1.0
 41
-4.2871058739
 42
-4.2791588306
  0
ELLIPSE
  5
425
100
AcDbEntity
  8
SCRITTA
100
AcDbEllipse
 62
253
  6
CONTINUOUS
 10
195.9052879712
 20
69.3255896088
 30
0.0
 11
118.8787920531
 21
-118.8787920531
 31
0.0
 40
1.0
 41
-2.2772309835
 42
-2.2685187927
  0
ELLIPSE
  5
426
100
AcDbEntity
  8
SCRITTA
100
AcDbEllipse
 62
253
  6
CONTINUOUS
 10
195.9052879712
 20
69.3255896088
 30
0.0
 11
136.3860361717
 21
98.3014930577
 31
0.0
 40
1.0
 41
2.5880397378
 42
2.5960897878
  0
ELLIPSE
  5
427
100
AcDbEntity
  8
SCRITTA
100
AcDbEllipse
 62
253
  6
CONTINUOUS
 10
195.9052879712
 20
69.3255896088
 30
0.0
 11
163.6226201093
 21
38.6260610024
 31
0.0
 40
1.0
 41
2.9807388195
 42
2.9885581837
  0
ELLIPSE
  5
428
100
AcDbEntity
  8
SCRITTA
100
AcDbEllipse
 62
253
  6
CONTINUOUS
 10
195.9052879712
 20
69.3255896088
 30
0.0
 11
-103.4631006448
 21
132.5130982393
 31
0.0
 40
1.0
 41
0.9869460199
 42
0.9903541214
  0
ELLIPSE
  5
429
100
AcDbEntity
  8
SCRITTA
100
AcDbEllipse
 62
253
  6
CONTINUOUS
 10
195.9052879712
 20
69.3255896088
 30
0.0
 11
-118.8787920531
 21
118.8787920531
 31
0.0
 40
1.0
 41
0.8563681338
 42
0.8730738609
  0
ELLIPSE
  5
42A
100
AcDbEntity
  8
SCRITTA
100
AcDbEllipse
 62
253
  6
CONTINUOUS
 10
195.9052879712
 20
69.3255896088
 30
0.0
 11
31.7927564566
 21
165.0865077373
 31
0.0
 40
1.0
 41
-4.4432609692
 42
-4.4344600944
  0
ELLIPSE
  5
42B
100
AcDbEntity
  8
SCRITTA
100
AcDbEllipse
 62
253
  6
CONTINUOUS
 10
195.9052879712
 20
69.3255896088
 30
0.0
 11
159.4926360683
 21
-53.1642120228
 31
0.0
 40
1.0
 41
-2.7407835742
 42
-2.7373754727
  0
ELLIPSE
  5
42C
100
AcDbEntity
  8
SCRITTA
100
AcDbEllipse
 62
253
  6
CONTINUOUS
 10
195.9052879712
 20
69.3255896088
 30
0.0
 11
-48.7185110775
 21
160.9063114933
 31
0.0
 40
1.0
 41
1.3559561951
 42
1.3644707225
  0
ELLIPSE
  5
42D
100
AcDbEntity
  8
SCRITTA
100
AcDbEllipse
 62
253
  6
CONTINUOUS
 10
195.9052879712
 20
69.3255896088
 30
0.0
 11
163.6226201093
 21
-38.6260610024
 31
0.0
 40
1.0
 41
3.4443864285
 42
3.4525776281
  0
ELLIPSE
  5
42E
100
AcDbEntity
  8
SCRITTA
100
AcDbEllipse
 62
253
  6
CONTINUOUS
 10
195.9052879712
 20
69.3255896088
 30
0.0
 11
155.3226270058
 21
-64.3367386492
 31
0.0
 40
1.0
 41
-2.6779236015
 42
-2.6686512787
  0
ELLIPSE
  5
42F
100
AcDbEntity
  8
SCRITTA
100
AcDbEllipse
 62
253
  6
CONTINUOUS
 10
195.9052879712
 20
69.3255896088
 30
0.0
 11
118.8787920531
 21
-118.8787920531
 31
0.0
 40
1.0
 41
3.9979607874
 42
4.0059357831
  0
ELLIPSE
  5
430
100
AcDbEntity
  8
SCRITTA
100
AcDbEllipse
 62
253
  6
CONTINUOUS
 10
195.9052879712
 20
69.3255896088
 30
0.0
 11
155.3226270058
 21
64.3367386492
 31
0.0
 40
1.0
 41
2.8278789
 42
2.8365692694
  0
ELLIPSE
  5
431
100
AcDbEntity
  8
SCRITTA
100
AcDbEllipse
 62
253
  6
CONTINUOUS
 10
195.9052879712
 20
69.3255896088
 30
0.0
 11
79.3287544404
 21
148.2271335449
 31
0.0
 40
1.0
 41
-4.1420067906
 42
-4.1392346924
  0
ELLIPSE
  5
432
100
AcDbEntity
  8
SCRITTA
100
AcDbEllipse
 62
253
  6
CONTINUOUS
 10
195.9052879712
 20
69.3255896088
 30
0.0
 11
143.0114139001
 21
88.3859145695
 31
0.0
 40
1.0
 41
2.6635763981
 42
2.6671794647
  0
ELLIPSE
  5
433
100
AcDbEntity
  8
SCRITTA
100
AcDbEllipse
 62
253
  6
CONTINUOUS
 10
195.9052879712
 20
69.3255896088
 30
0.0
 11
-18.3447116904
 21
167.1161450997
 31
0.0
 40
1.0
 41
1.5402511885
 42
1.5406230239
  0
ELLIPSE
  5
434
100
AcDbEntity
  8
SCRITTA
100
AcDbEllipse
 62
253
  6
CONTINUOUS
 10
195.9052879712
 20
69.3255896088
 30
0.0
 11
168.12
 21
0.0
 31
0.0
 40
1.0
 41
3.212562624
 42
3.2292683511
  0
ELLIPSE
  5
435
100
AcDbEntity
  8
SCRITTA
100
AcDbEllipse
 62
253
  6
CONTINUOUS
 10
195.9052879712
 20
69.3255896088
 30
0.0
 11
88.3859145695
 21
143.0114139001
 31
0.0
 40
1.0
 41
-4.0744757899
 42
-4.071138924
  0
ENDSEC
  0
SECTION
  2
OBJECTS
  0
DICTIONARY
  5
C
100
AcDbDictionary
280
0
281
1
  3
ACAD_GROUP
350
D
  3
ACAD_MLINESTYLE
350
17
  3
ACAD_LAYOUT
350
1A
  3
ACAD_PLOTSETTINGS
350
19
  3
ACAD_PLOTSTYLENAME
350
E
  0
DICTIONARY
  5
D
102
{ACAD_REACTORS
330
C
102
}
100
AcDbDictionary
280
0
281
1
  0
ACDBDICTIONARYWDFLT
  5
E
102
{ACAD_REACTORS
330
C
102
}
100
AcDbDictionary
281
1
  3
Normal
350
F
100
AcDbDictionaryWithDefault
340
F
  0
DICTIONARY
  5
17
102
{ACAD_REACTORS
330
C
102
}
100
AcDbDictionary
280
0
281
1
  3
Standard
350
18
  0
DICTIONARY
  5
19
102
{ACAD_REACTORS
330
C
102
}
100
AcDbDictionary
281
1
  0
DICTIONARY
  5
1A
102
{ACAD_REACTORS
330
C
102
}
100
AcDbDictionary
281
1
  3
Model
350
436
  3
Layout1
350
437
  0
ACDBPLACEHOLDER
  5
F
102
{ACAD_REACTORS
330
E
102
}
  0
MLINESTYLE
  5
18
102
{ACAD_REACTORS
330
17
102
}
100
AcDbMlineStyle
  2
STANDARD
 70
0
  3

 62
256
 51
90.0
 52
90.0
 71
2
 49
0.5
 62
256
  6
BYLAYER
 49
-0.5
 62
256
  6
BYLAYER
  0
LAYOUT
  5
436
102
{ACAD_REACTORS
330
1A
102
}
100
AcDbPlotSettings
  1

  2
none_device
  4
ISO_A4_(297.00_x_210.00_MM)
  6

 40
0.0
 41
0.0
 42
0.0
 43
0.0
 44
297.0
 45
210.0
 46
0.0
 47
0.0
 48
0.0
 49
0.0
140
0.0
141
0.0
142
1.0
143
1.0
 70
1024
 72
1
 73
0
 74
0
  7

 75
0
147
1.0
148
0.0
149
0.0
100
AcDbLayout
  1
Model
 70
0
 71
0
 10
0.0
 20
0.0
 11
297.0
 21
210.0
 12
0.0
 22
0.0
 32
0.0
 14
0.0
 24
0.0
 34
0.0
 15
0.0
 25
0.0
 35
0.0
146
0.0
 13
0.0
 23
0.0
 33
0.0
 16
1.0
 26
0.0
 36
0.0
 17
0.0
 27
1.0
 37
0.0
 76
0
330
213
345
0
346
0
  0
LAYOUT
  5
437
102
{ACAD_REACTORS
330
1A
102
}
100
AcDbPlotSettings
  1

  2
none_device
  4
ISO_A4_(297.00_x_210.00_MM)
  6

 40
0.0
 41
0.0
 42
0.0
 43
0.0
 44
297.0
 45
210.0
 46
0.0
 47
0.0
 48
0.0
 49
0.0
140
0.0
141
0.0
142
1.0
143
1.0
 70
0
 72
1
 73
0
 74
0
  7

 75
0
147
1.0
148
0.0
149
0.0
100
AcDbLayout
  1
Layout1
 70
0
 71
1
 10
0.0
 20
0.0
 11
297.0
 21
210.0
 12
0.0
 22
0.0
 32
0.0
 14
0.0
 24
0.0
 34
0.0
 15
0.0
 25
0.0
 35
0.0
146
0.0
 13
0.0
 23
0.0
 33
0.0
 16
1.0
 26
0.0
 36
0.0
 17
0.0
 27
1.0
 37
0.0
 76
0
330
214
345
0
346
0
  0
ENDSEC
  0
EOF
