  0
SECTION
  2
HEADER
  9
$ACADVER
  1
AC1021
  9
$DWGCODEPAGE
  3
ANSI_1252
  9
$EXTMAX
 10
297.0
 20
210.0
 30
0.0
  9
$EXTMIN
 10
0.0
 20
0.0
 30
0.0
  9
$LIMMIN
 10
0.0
 20
0.0
  9
$LIMMAX
 10
297.0
 20
210.0
  9
$VIEWCTR
 10
148.5
 20
105.0
  9
$VIEWSIZE
 40
210.0
  9
$CLAYER
  8
0
  9
$LTSCALE
 40
16.335
  9
$CELTYPE
  6
BYLAYER
  9
$DIMSCALE
 40
1.0
  9
$DIMASZ
 40
3.0
  9
$DIMEXO
 40
1.85625
  9
$DIMDLI
 40
11.286
  9
$DIMEXE
 40
5.346
  9
$DIMCEN
 40
2.673
  9
$DIMLFAC
 40
1.0
  9
$DIMBLK
  1
_FILLED
  9
$DIMTXT
 40
3.0
  9
$DIMTOL
 70
1
  9
$DIMLIM
 70
0
  9
$DIMTFAC
 40
1.0
  9
$DIMTP
 40
0.01
  9
$DIMTM
 40
0.01
  9
$PDMODE
 70
3
  9
$PDSIZE
 40
3.0
  9
$HANDSEED
  5
365
  9
$TILEMODE
 70
1
  9
$MEASUREMENT
 70
1
  9
$INSUNITS
 70
4
  0
ENDSEC
  0
SECTION
  2
CLASSES
  0
CLASS
  1
ACDBDICTIONARYWDFLT
  2
AcDbDictionaryWithDefault
  3
AutoCAD 2000
 90
0
 91
1
280
0
281
0
  0
CLASS
  1
ACDBPLACEHOLDER
  2
AcDbPlaceHolder
  3
AutoCAD 2000
 90
0
 91
1
280
0
281
0
  0
CLASS
  1
LAYOUT
  2
AcDbLayout
  3
AutoCAD 2000
 90
0
 91
0
280
0
281
0
  0
ENDSEC
  0
SECTION
  2
TABLES
  0
TABLE
  2
VPORT
  5
8
100
AcDbSymbolTable
 70
2
  0
VPORT
  5
1F4
100
AcDbSymbolTableRecord
100
AcDbViewportTableRecord
  2
*ACTIVE
 70
0
 10
0.0
 20
0.0
 11
1.0
 21
1.0
 12
148.5
 22
105.0
 13
0.0
 23
0.0
 14
1.0
 24
1.0
 15
0.0
 25
0.0
 16
0.0
 26
0.0
 36
1.0
 17
0.0
 27
0.0
 37
0.0
 40
210.0
 41
1.4142857143
 42
50.0
 43
0.0
 44
0.0
 50
0.0
 51
0.0
 71
0
 72
100
 73
1
 74
1
 75
0
 76
0
 77
0
 78
0
  0
ENDTAB
  0
TABLE
  2
LTYPE
  5
5
100
AcDbSymbolTable
 70
6
  0
LTYPE
  5
14
100
AcDbSymbolTableRecord
100
AcDbLinetypeTableRecord
  2
BYBLOCK
 70
0
  3

 72
65
 73
0
 40
0.0
  0
LTYPE
  5
15
100
AcDbSymbolTableRecord
100
AcDbLinetypeTableRecord
  2
BYLAYER
 70
0
  3

 72
65
 73
0
 40
0.0
  0
LTYPE
  5
16
100
AcDbSymbolTableRecord
100
AcDbLinetypeTableRecord
  2
CONTINUOUS
 70
64
  3
Solid line
 72
65
 73
0
 40
0.0
  0
LTYPE
  5
1F5
100
AcDbSymbolTableRecord
100
AcDbLinetypeTableRecord
  2
CENTER
 70
64
  3
____ _ ____ _ ____ _ ____ _ ____ _ ____ _ ____
 72
65
 73
4
 40
0.6
 49
0.375
 74
0
 49
-0.075
 74
0
 49
0.075
 74
0
 49
-0.075
 74
0
  0
LTYPE
  5
1F6
100
AcDbSymbolTableRecord
100
AcDbLinetypeTableRecord
  2
HIDDEN
 70
64
  3
- - - - - - - - - - - - - - - - - - - -
 72
65
 73
2
 40
0.2
 49
0.1
 74
0
 49
-0.1
 74
0
  0
LTYPE
  5
1F7
100
AcDbSymbolTableRecord
100
AcDbLinetypeTableRecord
  2
PHANTOM
 70
64
  3
_____ _ _ _____ _ _ _____ _ _ _____
 72
65
 73
6
 40
0.8
 49
0.45
 74
0
 49
-0.05
 74
0
 49
0.1
 74
0
 49
-0.05
 74
0
 49
0.1
 74
0
 49
-0.05
 74
0
  0
LTYPE
  5
1F8
100
AcDbSymbolTableRecord
100
AcDbLinetypeTableRecord
  2
DOT
 70
64
  3
. . . . . . . . . . . . . . . . . . . .
 72
65
 73
2
 40
0.2
 49
0.1
 74
0
 49
-0.1
 74
0
  0
LTYPE
  5
1F9
100
AcDbSymbolTableRecord
100
AcDbLinetypeTableRecord
  2
DASHED
 70
64
  3
- - - - - - - - - - - - - - - - - - - -
 72
65
 73
2
 40
0.2
 49
0.1
 74
0
 49
-0.1
 74
0
  0
ENDTAB
  0
TABLE
  2
LAYER
  5
2
100
AcDbSymbolTable
 70
36
  0
LAYER
  5
10
100
AcDbSymbolTableRecord
100
AcDbLayerTableRecord
  2
0
 70
0
 62
7
  6
CONTINUOUS
370
-3
390
F
  0
LAYER
  5
1FA
100
AcDbSymbolTableRecord
100
AcDbLayerTableRecord
  2
DEFAULT_1
 70
0
 62
7
  6
CENTER
370
-3
390
F
  0
LAYER
  5
1FB
100
AcDbSymbolTableRecord
100
AcDbLayerTableRecord
  2
DEFAULT_2
 70
0
 62
7
  6
HIDDEN
370
-3
390
F
  0
LAYER
  5
1FC
100
AcDbSymbolTableRecord
100
AcDbLayerTableRecord
  2
DEFAULT_3
 70
0
 62
7
  6
PHANTOM
370
-3
390
F
  0
LAYER
  5
1FD
100
AcDbSymbolTableRecord
100
AcDbLayerTableRecord
  2
ASSI
 70
0
 62
7
  6
CONTINUOUS
370
-3
390
F
  0
LAYER
  5
1FE
100
AcDbSymbolTableRecord
100
AcDbLayerTableRecord
  2
COORDINATE
 70
0
 62
7
  6
CONTINUOUS
370
-3
390
F
  0
LAYER
  5
1FF
100
AcDbSymbolTableRecord
100
AcDbLayerTableRecord
  2
COPY_PUBLISH
 70
0
 62
7
  6
CONTINUOUS
370
-3
390
F
  0
LAYER
  5
200
100
AcDbSymbolTableRecord
100
AcDbLayerTableRecord
  2
COSMETICI
 70
0
 62
7
  6
CONTINUOUS
370
-3
390
F
  0
LAYER
  5
201
100
AcDbSymbolTableRecord
100
AcDbLayerTableRecord
  2
CURVE
 70
0
 62
7
  6
CONTINUOUS
370
-3
390
F
  0
LAYER
  5
202
100
AcDbSymbolTableRecord
100
AcDbLayerTableRecord
  2
DRAFT
 70
0
 62
7
  6
CONTINUOUS
370
-3
390
F
  0
LAYER
  5
203
100
AcDbSymbolTableRecord
100
AcDbLayerTableRecord
  2
IMPORT_IGES
 70
0
 62
7
  6
CONTINUOUS
370
-3
390
F
  0
LAYER
  5
204
100
AcDbSymbolTableRecord
100
AcDbLayerTableRecord
  2
INTF_1
 70
0
 62
7
  6
CONTINUOUS
370
-3
390
F
  0
LAYER
  5
205
100
AcDbSymbolTableRecord
100
AcDbLayerTableRecord
  2
NOTE
 70
0
 62
7
  6
CONTINUOUS
370
-3
390
F
  0
LAYER
  5
206
100
AcDbSymbolTableRecord
100
AcDbLayerTableRecord
  2
PIANI
 70
0
 62
7
  6
CONTINUOUS
370
-3
390
F
  0
LAYER
  5
207
100
AcDbSymbolTableRecord
100
AcDbLayerTableRecord
  2
PUNTI
 70
0
 62
7
  6
CONTINUOUS
370
-3
390
F
  0
LAYER
  5
208
100
AcDbSymbolTableRecord
100
AcDbLayerTableRecord
  2
RACCORDO
 70
0
 62
7
  6
CONTINUOUS
370
-3
390
F
  0
LAYER
  5
209
100
AcDbSymbolTableRecord
100
AcDbLayerTableRecord
  2
SIMBOLI
 70
0
 62
7
  6
CONTINUOUS
370
-3
390
F
  0
LAYER
  5
20A
100
AcDbSymbolTableRecord
100
AcDbLayerTableRecord
  2
SMUSSO
 70
0
 62
7
  6
CONTINUOUS
370
-3
390
F
  0
LAYER
  5
20B
100
AcDbSymbolTableRecord
100
AcDbLayerTableRecord
  2
SNAPLINE
 70
0
 62
7
  6
CONTINUOUS
370
-3
390
F
  0
LAYER
  5
20C
100
AcDbSymbolTableRecord
100
AcDbLayerTableRecord
  2
SUPERFICI
 70
0
 62
7
  6
CONTINUOUS
370
-3
390
F
  0
LAYER
  5
20D
100
AcDbSymbolTableRecord
100
AcDbLayerTableRecord
  2
TRASH
 70
0
 62
7
  6
CONTINUOUS
370
-3
390
F
  0
ENDTAB
  0
TABLE
  2
STYLE
  5
3
100
AcDbSymbolTable
 70
1
  0
STYLE
  5
11
100
AcDbSymbolTableRecord
100
AcDbTextStyleTableRecord
  2
STANDARD
 70
0
 40
0.0
 41
0.8
 50
0.0
 71
0
 42
0.2
  3
txt
  4

  0
STYLE
  5
20E
100
AcDbSymbolTableRecord
100
AcDbTextStyleTableRecord
  2
TEXTSTYLE_1
 70
0
 40
0.0
 41
0.8
 50
0.0
 71
0
 42
0.2
  3
gdt
  4

  0
ENDTAB
  0
TABLE
  2
VIEW
  5
6
100
AcDbSymbolTable
 70
0
  0
ENDTAB
  0
TABLE
  2
UCS
  5
7
100
AcDbSymbolTable
 70
0
  0
ENDTAB
  0
TABLE
  2
APPID
  5
9
100
AcDbSymbolTable
 70
1
  0
APPID
  5
20F
100
AcDbSymbolTableRecord
100
AcDbRegAppTableRecord
  2
ACAD
 70
0
  0
ENDTAB
  0
TABLE
  2
BLOCK_RECORD
  5
1
100
AcDbSymbolTable
 70
0
  0
BLOCK_RECORD
  5
210
100
AcDbSymbolTableRecord
100
AcDbBlockTableRecord
  2
*Model_Space
  0
BLOCK_RECORD
  5
211
100
AcDbSymbolTableRecord
100
AcDbBlockTableRecord
  2
*Paper_Space
  0
BLOCK_RECORD
  5
212
100
AcDbSymbolTableRecord
100
AcDbBlockTableRecord
  2
_FILLED
  0
BLOCK_RECORD
  5
213
100
AcDbSymbolTableRecord
100
AcDbBlockTableRecord
  2
*D0
  0
BLOCK_RECORD
  5
214
100
AcDbSymbolTableRecord
100
AcDbBlockTableRecord
  2
*D1
  0
BLOCK_RECORD
  5
215
100
AcDbSymbolTableRecord
100
AcDbBlockTableRecord
  2
*D2
  0
ENDTAB
  0
TABLE
  2
DIMSTYLE
  5
A
100
AcDbSymbolTable
 70
1
100
AcDbDimStyleTable
 71
0
  0
DIMSTYLE
105
216
100
AcDbSymbolTableRecord
100
AcDbDimStyleTableRecord
  2
STANDARD
 70
0
  3

  4

 40
1.0
 41
3.0
 42
0.0625
 43
0.38
 44
0.18
 45
0.0
 46
0.0
 47
0.01
 48
0.01
140
3.0
141
0.09
142
0.0
143
25.4
144
1.0
145
0.0
146
1.0
147
0.09
 71
1.0
 72
0.0
 73
0
 74
0
 75
0
 76
0
 77
1
 78
8
170
0
171
2
172
0
173
0
174
0
175
0
176
0
177
0
178
0
270
2
271
2
272
2
273
2
274
2
275
0
280
0
281
0
282
0
283
1
284
8
285
0
286
0
287
3
288
0
340
11
341
212
342
212
343
212
344
212
  0
DIMSTYLE
105
217
100
AcDbSymbolTableRecord
100
AcDbDimStyleTableRecord
  2
DIMSTYLE_1
 70
0
  3

  4

 40
1.0
 41
3.0
 42
0.0625
 43
0.38
 44
0.18
 45
0.0
 46
0.0
 47
0.0
 48
0.0
140
3.0
141
0.09
142
0.0
143
25.4
144
1.0
145
0.0
146
1.0
147
0.09
 71
0.0
 72
0.0
 73
0
 74
0
 75
0
 76
0
 77
1
 78
8
170
0
171
2
172
0
173
0
174
0
175
0
176
0
177
0
178
0
270
2
271
2
272
2
273
2
274
2
275
0
280
0
281
0
282
0
283
1
284
8
285
0
286
0
287
3
288
0
340
11
341
212
342
212
343
212
344
212
  0
DIMSTYLE
105
218
100
AcDbSymbolTableRecord
100
AcDbDimStyleTableRecord
  2
DIMSTYLE_2
 70
0
  3

  4

 40
1.0
 41
3.0
 42
0.0625
 43
0.38
 44
0.18
 45
0.0
 46
0.0
 47
0.0
 48
0.0
140
3.0
141
0.09
142
0.0
143
25.4
144
1.0
145
0.0
146
1.0
147
0.09
 71
0.0
 72
0.0
 73
0
 74
0
 75
0
 76
0
 77
1
 78
8
170
0
171
2
172
0
173
0
174
0
175
0
176
0
177
0
178
0
270
2
271
1
272
1
273
2
274
2
275
0
280
0
281
0
282
0
283
1
284
8
285
0
286
0
287
3
288
0
340
11
341
212
342
212
343
212
344
212
  0
ENDTAB
  0
ENDSEC
  0
SECTION
  2
BLOCKS
  0
BLOCK
  5
20
100
AcDbEntity
  8
0
100
AcDbBlockBegin
  2
*Model_Space
 70
0
 10
0.0
 20
0.0
 30
0.0
  3
*Model_Space
  1

  0
ENDBLK
  5
21
100
AcDbEntity
  8
0
100
AcDbBlockEnd
  0
BLOCK
  5
1C
100
AcDbEntity
  8
0
100
AcDbBlockBegin
  2
*Paper_Space
 70
0
 10
0.0
 20
0.0
 30
0.0
  3
*Paper_Space
  1

  0
ENDBLK
  5
1D
100
AcDbEntity
  8
0
100
AcDbBlockEnd
  0
BLOCK
  5
219
100
AcDbEntity
  8
0
100
AcDbBlockBegin
  2
_FILLED
 70
64
 10
0.0
 20
0.0
  3
_FILLED
  1

  0
SOLID
  5
21A
100
AcDbEntity
  8
0
  6
BYBLOCK
 62
0
100
AcDbTrace
 10
0.0
 20
0.0
 11
-1.0
 21
0.3166666667
 12
-1.0
 22
-0.3166666667
 13
-1.0
 23
-0.3166666667
  0
ENDBLK
  5
21B
100
AcDbEntity
  8
0
  6
BYBLOCK
 62
0
100
AcDbBlockEnd
  0
BLOCK
  5
21C
100
AcDbEntity
  8
0
100
AcDbBlockBegin
 62
7
  6
CONTINUOUS
  2
*D0
 70
65
 10
0.0
 20
0.0
  3
*D0
  1

  0
MTEXT
  5
21D
100
AcDbEntity
  8
0
100
AcDbMText
 62
7
  6
CONTINUOUS
  7
STANDARD
 71
2
 72
1
 10
176.8321251299
 20
184.4054774571
 30
0.0
 11
1.0
 21
0.0
 31
0.0
 44
0.9
  1
90
 40
3.0
 41
4.7142857143
  0
LINE
  5
21E
100
AcDbEntity
  8
0
100
AcDbLine
 62
7
  6
CONTINUOUS
 10
221.8321251299
 20
161.5554774571
 11
221.8321251299
 21
182.1554774571
  0
LINE
  5
21F
100
AcDbEntity
  8
0
100
AcDbLine
 62
7
  6
CONTINUOUS
 10
131.8321251299
 20
161.5554776656
 11
131.8321251299
 21
182.1554774571
  0
LINE
  5
220
100
AcDbEntity
  8
0
100
AcDbLine
 62
7
  6
CONTINUOUS
 10
221.8321251299
 20
180.6554774571
 11
176.8321251299
 21
180.6554774571
  0
LINE
  5
221
100
AcDbEntity
  8
0
100
AcDbLine
 62
7
  6
CONTINUOUS
 10
131.8321251299
 20
180.6554774571
 11
176.8321251299
 21
180.6554774571
  0
INSERT
  5
222
100
AcDbEntity
  8
0
100
AcDbBlockReference
 62
7
  6
CONTINUOUS
  2
_FILLED
 10
221.8321251299
 20
180.6554774571
 41
3.0
 42
3.0
 43
3.0
  0
INSERT
  5
223
100
AcDbEntity
  8
0
100
AcDbBlockReference
 62
7
  6
CONTINUOUS
  2
_FILLED
 10
131.8321251299
 20
180.6554774571
 41
3.0
 42
3.0
 43
3.0
 50
180.0
  0
ENDBLK
  5
224
100
AcDbEntity
  8
0
  6
BYBLOCK
 62
0
100
AcDbBlockEnd
  0
BLOCK
  5
225
100
AcDbEntity
  8
0
100
AcDbBlockBegin
 62
7
  6
CONTINUOUS
  2
*D1
 70
65
 10
0.0
 20
0.0
  3
*D1
  1

  0
MTEXT
  5
226
100
AcDbEntity
  8
0
100
AcDbMText
 62
7
  6
CONTINUOUS
  7
STANDARD
 71
2
 72
1
 10
231.788128644
 20
117.6554774571
 30
0.0
 11
0.0
 21
1.0
 31
0.0
 44
0.9
  1
90
 40
3.0
 41
4.7142857143
  0
LINE
  5
227
100
AcDbEntity
  8
0
100
AcDbLine
 62
7
  6
CONTINUOUS
 10
220.7321251299
 20
162.6554774571
 11
237.038128644
 21
162.6554774571
  0
LINE
  5
228
100
AcDbEntity
  8
0
100
AcDbLine
 62
7
  6
CONTINUOUS
 10
220.7321251299
 20
72.6554774571
 11
237.038128644
 21
72.6554774571
  0
LINE
  5
229
100
AcDbEntity
  8
0
100
AcDbLine
 62
7
  6
CONTINUOUS
 10
235.538128644
 20
162.6554774571
 11
235.538128644
 21
117.6554774571
  0
LINE
  5
22A
100
AcDbEntity
  8
0
100
AcDbLine
 62
7
  6
CONTINUOUS
 10
235.538128644
 20
72.6554774571
 11
235.538128644
 21
117.6554774571
  0
INSERT
  5
22B
100
AcDbEntity
  8
0
100
AcDbBlockReference
 62
7
  6
CONTINUOUS
  2
_FILLED
 10
235.538128644
 20
162.6554774571
 41
3.0
 42
3.0
 43
3.0
 50
90.0
  0
INSERT
  5
22C
100
AcDbEntity
  8
0
100
AcDbBlockReference
 62
7
  6
CONTINUOUS
  2
_FILLED
 10
235.538128644
 20
72.6554774571
 41
3.0
 42
3.0
 43
3.0
 50
270.0
  0
ENDBLK
  5
22D
100
AcDbEntity
  8
0
  6
BYBLOCK
 62
0
100
AcDbBlockEnd
  0
BLOCK
  5
22E
100
AcDbEntity
  8
0
100
AcDbBlockBegin
 62
7
  6
CONTINUOUS
  2
*D2
 70
65
 10
0.0
 20
0.0
  3
*D2
  1

  0
MTEXT
  5
22F
100
AcDbEntity
  8
0
100
AcDbMText
 62
7
  6
CONTINUOUS
  7
STANDARD
 71
3
 72
1
 10
104.7819710009
 20
184.4054774571
 30
0.0
 11
1.0
 21
0.0
 31
0.0
 44
0.9
  1
8,6
 40
3.0
 41
6.4285714286
  0
LINE
  5
230
100
AcDbEntity
  8
0
100
AcDbLine
 62
7
  6
CONTINUOUS
 10
115.8502817715
 20
160.7180075643
 11
115.85028177
 21
182.1554774579
  0
LINE
  5
231
100
AcDbEntity
  8
0
100
AcDbLine
 62
7
  6
CONTINUOUS
 10
107.282170176
 20
118.1554774261
 11
107.2821701716
 21
182.1554774573
  0
LINE
  5
232
100
AcDbEntity
  8
0
100
AcDbLine
 62
7
  6
CONTINUOUS
 10
115.8502817701
 20
180.6554774579
 11
111.5662259709
 21
180.6554774576
  0
LINE
  5
233
100
AcDbEntity
  8
0
100
AcDbLine
 62
7
  6
CONTINUOUS
 10
107.2821701717
 20
180.6554774573
 11
111.5662259709
 21
180.6554774576
  0
LINE
  5
234
100
AcDbEntity
  8
0
100
AcDbLine
 62
7
  6
CONTINUOUS
 10
111.5662259709
 20
180.6554774576
 11
98.3533995724
 21
180.6554774571
  0
INSERT
  5
235
100
AcDbEntity
  8
0
100
AcDbBlockReference
 62
7
  6
CONTINUOUS
  2
_FILLED
 10
115.8502817701
 20
180.6554774579
 41
3.0
 42
3.0
 43
3.0
 50
0.0000000039
  0
INSERT
  5
236
100
AcDbEntity
  8
0
100
AcDbBlockReference
 62
7
  6
CONTINUOUS
  2
_FILLED
 10
107.2821701717
 20
180.6554774573
 41
3.0
 42
3.0
 43
3.0
 50
180.0000000039
  0
ENDBLK
  5
237
100
AcDbEntity
  8
0
  6
BYBLOCK
 62
0
100
AcDbBlockEnd
  0
ENDSEC
  0
SECTION
  2
ENTITIES
  0
DIMENSION
  5
238
100
AcDbEntity
  8
0
100
AcDbDimension
 62
7
  6
CONTINUOUS
  2
*D0
 10
131.8321251299
 20
180.6554774571
 11
174.4749822728
 21
182.9054774571
 70
160
 71
2
 42
90.0
  3
DIMSTYLE_1
100
AcDbAlignedDimension
 13
221.8321251299
 23
161.5554774571
 14
131.8321251299
 24
161.5554776656
 50
180.0
100
AcDbRotatedDimension
  0
DIMENSION
  5
239
100
AcDbEntity
  8
0
100
AcDbDimension
 62
7
  6
CONTINUOUS
  2
*D1
 10
235.538128644
 20
72.6554774571
 11
234.3443021677
 21
115.5481996072
 70
160
 71
2
 42
90.0
  3
DIMSTYLE_1
100
AcDbAlignedDimension
 13
220.7321251299
 23
162.6554774571
 14
220.7321251299
 24
72.6554774571
 50
270.0
100
AcDbRotatedDimension
  0
DIMENSION
  5
23A
100
AcDbEntity
  8
0
100
AcDbDimension
 62
7
  6
CONTINUOUS
  2
*D2
 10
107.2821701717
 20
180.6554774573
 11
95.1391138581
 21
182.9054774571
 70
160
 71
3
 42
8.5681115985
  3
DIMSTYLE_2
100
AcDbAlignedDimension
 13
115.8502817715
 23
160.7180075643
 14
107.282170176
 24
118.1554774261
 50
180.0000000039
100
AcDbRotatedDimension
  0
LWPOLYLINE
  5
23B
100
AcDbEntity
  8
0
100
AcDbPolyline
 62
253
  6
CONTINUOUS
 90
25
 70
0
 10
131.9668093062
 20
161.0554774539
 10
131.9763993281
 20
161.0694196627
 10
131.9908878964
 20
161.0832240358
 10
132.010219791
 20
161.0968379537
 10
132.0343213326
 20
161.1102095233
 10
132.0631006632
 20
161.1232877749
 10
132.0964480967
 20
161.1360228571
 10
132.1342365364
 20
161.1483662264
 10
132.1763219598
 20
161.1602708326
 10
132.2225439673
 20
161.1716912979
 10
132.2727263938
 20
161.1825840901
 10
132.3266779795
 20
161.1929076882
 10
132.3841930997
 20
161.2026227409
 10
132.4450525478
 20
161.2116922166
 10
132.5090243711
 20
161.2200815446
 10
132.5758647547
 20
161.2277587467
 10
132.6453189508
 20
161.2346945592
 10
132.7171222497
 20
161.2408625444
 10
132.7910009884
 20
161.2462391916
 10
132.8666735942
 20
161.2508040063
 10
132.943851657
 20
161.2545395887
 10
133.0222410292
 20
161.2574316999
 10
133.1015429466
 20
161.259469316
 10
133.181455167
 20
161.2606446705
 10
133.2616731221
 20
161.2609532836
  0
LWPOLYLINE
  5
23C
100
AcDbEntity
  8
0
100
AcDbPolyline
 62
253
  6
CONTINUOUS
 90
25
 70
0
 10
131.9667798374
 20
74.2575868661
 10
131.9763518477
 20
74.2436296411
 10
131.9908242512
 20
74.2298031923
 10
132.0101418706
 20
74.2161602339
 10
132.0342310561
 20
74.202752781
 10
132.0629999657
 20
74.1896319504
 10
132.0963389157
 20
74.1768477665
 10
132.1341207987
 20
74.16444897
 10
132.1762015684
 20
74.1524828322
 10
132.2224207885
 20
74.140994975
 10
132.2726022446
 20
74.1300291969
 10
132.3265546159
 20
74.1196273057
 10
132.384072205
 20
74.1098289594
 10
132.4449357213
 20
74.1006715151
 10
132.508913118
 20
74.0921898862
 10
132.5757604763
 20
74.0844164097
 10
132.6452229353
 20
74.0773807226
 10
132.717035664
 20
74.071109649
 10
132.7909248708
 20
74.0656270978
 10
132.8666088471
 20
74.0609539718
 10
132.943799042
 20
74.0571080877
 10
133.0222011618
 20
74.0541041082
 10
133.1015162922
 20
74.0519534862
 10
133.1814420381
 20
74.0506644212
 10
133.2616736763
 20
74.0502418278
  0
LWPOLYLINE
  5
23D
100
AcDbEntity
  8
0
100
AcDbPolyline
 62
7
  6
CONTINUOUS
 90
28
 70
0
 10
131.8321251299
 20
74.2554774571
 10
131.8348892029
 20
74.1615186198
 10
131.8431588882
 20
74.0679146141
 10
131.8569000375
 20
73.9749886683
 10
131.8760853263
 20
73.8829787508
 10
131.900661227
 20
73.7922146178
 10
131.9304896764
 20
73.7031662735
 10
131.9653188662
 20
73.6163675294
 10
132.0050038793
 20
73.5320407057
 10
132.0495626032
 20
73.4501433976
 10
132.0990368808
 20
73.3706865789
 10
132.1531977471
 20
73.2940871952
 10
132.2115763985
 20
73.2209520678
 10
132.2737241096
 20
73.1517746677
 10
132.3395544829
 20
73.0865749491
 10
132.4091297117
 20
73.0252519355
 10
132.4824272374
 20
72.9678373508
 10
132.5589761646
 20
72.9147299383
 10
132.6381474255
 20
72.8663623626
 10
132.7195436367
 20
72.8229074562
 10
132.8031931217
 20
72.78428049
 10
132.8891039906
 20
72.7504567399
 10
132.9770306671
 20
72.7215649795
 10
133.0664699569
 20
72.697815855
 10
133.1569976608
 20
72.679307671
 10
133.2482947396
 20
72.6660752471
 10
133.3401092913
 20
72.6581284802
 10
133.4321251299
 20
72.6554774571
  0
LINE
  5
23E
100
AcDbEntity
  8
0
100
AcDbLine
 62
7
  6
CONTINUOUS
 10
131.8321251299
 20
161.0554776656
 11
131.8321251299
 21
74.2554774571
  0
LWPOLYLINE
  5
23F
100
AcDbEntity
  8
0
100
AcDbPolyline
 62
253
  6
CONTINUOUS
 90
46
 70
0
 10
133.2616744924
 20
161.2609696421
 10
133.2620359996
 20
161.2706714103
 10
133.2628193929
 20
161.2800230653
 10
133.2640246724
 20
161.2890246178
 10
133.2656890272
 20
161.2976646344
 10
133.2677752681
 20
161.3059545685
 10
133.2701718277
 20
161.3139287592
 10
133.2729040442
 20
161.3216540175
 10
133.2759465793
 20
161.3290635473
 10
133.2791118519
 20
161.3359912796
 10
133.2823318378
 20
161.3423056459
 10
133.285674561
 20
161.3481382373
 10
133.289156512
 20
161.3537177223
 10
133.2928526751
 20
161.3591677906
 10
133.2966880659
 20
161.36436476
 10
133.300454222
 20
161.3691662402
 10
133.3040529379
 20
161.3734629503
 10
133.307582419
 20
161.3773641839
 10
133.3111288189
 20
161.3810554109
 10
133.3146897324
 20
161.3845595509
 10
133.3182675647
 20
161.387853689
 10
133.3219556852
 20
161.3910545397
 10
133.3258091346
 20
161.3942168488
 10
133.3297728722
 20
161.397285872
 10
133.333775145
 20
161.4002140867
 10
133.3377881889
 20
161.4029824643
 10
133.341839768
 20
161.4056100362
 10
133.3459414217
 20
161.4081063705
 10
133.3500759067
 20
161.4104647994
 10
133.3542604662
 20
161.4126919929
 10
133.3585583689
 20
161.414817526
 10
133.3630186912
 20
161.4168622251
 10
133.3675923566
 20
161.4188052651
 10
133.3721954039
 20
161.4206137445
 10
133.3767911024
 20
161.4222766209
 10
133.3814161827
 20
161.4238049382
 10
133.3860968761
 20
161.4251989254
 10
133.3908235987
 20
161.4264579106
 10
133.3956059345
 20
161.4275825667
 10
133.4004988657
 20
161.4285751389
 10
133.4055267864
 20
161.429444552
 10
133.4106653025
 20
161.430181882
 10
133.4158962149
 20
161.4307626006
 10
133.421213457
 20
161.4311785321
 10
133.4266230954
 20
161.4314378528
 10
133.4321251299
 20
161.4315405629
  0
LWPOLYLINE
  5
240
100
AcDbEntity
  8
0
100
AcDbPolyline
 62
253
  6
CONTINUOUS
 90
46
 70
0
 10
131.9668086088
 20
161.0554442251
 10
131.9704828114
 20
161.1389189161
 10
131.9785939167
 20
161.2196481996
 10
131.9907219667
 20
161.2974312597
 10
132.0064576707
 20
161.3721113561
 10
132.0254001177
 20
161.4435858121
 10
132.0471633723
 20
161.5117901064
 10
132.0713446758
 20
161.5766369809
 10
132.0975469095
 20
161.6380570883
 10
132.1254074527
 20
161.6960379805
 10
132.1546122717
 20
161.7506460502
 10
132.1848607379
 20
161.8019511894
 10
132.2158511022
 20
161.8500090581
 10
132.2472090181
 20
161.8947823752
 10
132.2787228259
 20
161.9364711152
 10
132.3103974036
 20
161.9754748665
 10
132.3419581892
 20
162.01178594
 10
132.3732779265
 20
162.0455605052
 10
132.4047100097
 20
162.0774057063
 10
132.4361573918
 20
162.107392687
 10
132.4675399652
 20
162.1356072329
 10
132.499334873
 20
162.1625855493
 10
132.5315196921
 20
162.1883681258
 10
132.5640038885
 20
162.21293907
 10
132.5972326801
 20
162.2366569089
 10
132.6313670305
 20
162.2596124943
 10
132.6661932912
 20
162.2816386132
 10
132.7016326945
 20
162.3026782327
 10
132.7377043017
 20
162.3227374075
 10
132.7743673494
 20
162.3417877714
 10
132.811454716
 20
162.3597477997
 10
132.8488434701
 20
162.3765752769
 10
132.8866036561
 20
162.3923187621
 10
132.9248489981
 20
162.4070299841
 10
132.9635117868
 20
162.4206785735
 10
133.0025771529
 20
162.4332546979
 10
133.0422501454
 20
162.4448067614
 10
133.0825067795
 20
162.4552994782
 10
133.1233175821
 20
162.4647019471
 10
133.1648916807
 20
162.473030076
 10
133.2071839478
 20
162.480228901
 10
133.2501926061
 20
162.4862518475
 10
133.2941946814
 20
162.4910794011
 10
133.3392606527
 20
162.4946391562
 10
133.3852516376
 20
162.4968352425
 10
133.4321256249
 20
162.4975835594
  0
LWPOLYLINE
  5
241
100
AcDbEntity
  8
0
100
AcDbPolyline
 62
253
  6
CONTINUOUS
 90
15
 70
0
 10
131.9647035166
 20
140.2007412448
 10
131.9741840963
 20
140.2047483282
 10
131.9885744183
 20
140.2087181438
 10
132.0078195239
 20
140.2126355305
 10
132.031845913
 20
140.2164855272
 10
132.0605618255
 20
140.22025343
 10
132.0938575909
 20
140.223924849
 10
132.1316060479
 20
140.2274857623
 10
132.1736630296
 20
140.2309225703
 10
132.2198679142
 20
140.2342221474
 10
132.2700442384
 20
140.2373718919
 10
132.3240003714
 20
140.2403597746
 10
132.3815302469
 20
140.2431743843
 10
132.4424141497
 20
140.2458049715
 10
132.5064195553
 20
140.2482414897
  0
LWPOLYLINE
  5
242
100
AcDbEntity
  8
0
100
AcDbPolyline
 62
253
  6
CONTINUOUS
 90
15
 70
0
 10
131.9647011835
 20
140.1246641223
 10
131.9741816183
 20
140.1286579368
 10
131.9885718102
 20
140.1326147342
 10
132.0078168007
 20
140.1365194029
 10
132.0318430903
 20
140.1403570304
 10
132.0605589187
 20
140.1441129601
 10
132.0938546156
 20
140.1477728476
 10
132.1316030195
 20
140.1513227152
 10
132.1736599635
 20
140.1547490053
 10
132.2198648252
 20
140.1580386325
 10
132.2700411411
 20
140.1611790331
 10
132.32399728
 20
140.1641582135
 10
132.3815271748
 20
140.1669647956
 10
132.4424111099
 20
140.1695880608
 10
132.5064165598
 20
140.1720179903
  0
LINE
  5
243
100
AcDbEntity
  8
0
100
AcDbLine
 62
253
  6
CONTINUOUS
 10
131.966779837
 20
74.2575871261
 11
131.9645496374
 21
110.1629685266
  0
LINE
  5
244
100
AcDbEntity
  8
0
100
AcDbLine
 62
253
  6
CONTINUOUS
 10
133.2616736763
 20
74.0502418274
 11
133.2596929567
 21
98.8792699903
  0
LINE
  5
245
100
AcDbEntity
  8
0
100
AcDbLine
 62
253
  6
CONTINUOUS
 10
133.2596929567
 20
98.8792699903
 11
133.2597842767
 21
141.2035979164
  0
LINE
  5
246
100
AcDbEntity
  8
0
100
AcDbLine
 62
253
  6
CONTINUOUS
 10
133.4321251299
 20
72.6554774571
 11
133.4321251299
 21
73.8794143513
  0
LINE
  5
247
100
AcDbEntity
  8
0
100
AcDbLine
 62
253
  6
CONTINUOUS
 10
133.4321251299
 20
161.4315405629
 11
133.4321251299
 21
162.6554774571
  0
LINE
  5
248
100
AcDbEntity
  8
0
100
AcDbLine
 62
253
  6
CONTINUOUS
 10
131.9645496374
 20
110.1629685266
 11
131.9667802221
 21
161.0554442314
  0
LINE
  5
249
100
AcDbEntity
  8
0
100
AcDbLine
 62
253
  6
CONTINUOUS
 10
133.2597842767
 20
141.2035979164
 11
133.2616744924
 21
161.2609696421
  0
LWPOLYLINE
  5
24A
100
AcDbEntity
  8
0
100
AcDbPolyline
 62
253
  6
CONTINUOUS
 90
16
 70
0
 10
153.0361884391
 20
140.2602930157
 10
153.0121433228
 20
140.1971561616
 10
152.9904465996
 20
140.1354036866
 10
152.9710982697
 20
140.0750356205
 10
152.9542532884
 20
140.0159827459
 10
152.9397567003
 20
139.9583143364
 10
152.9271436389
 20
139.9022381611
 10
152.9164016066
 20
139.8477980616
 10
152.907543101
 20
139.7949502567
 10
152.9001407484
 20
139.7437710849
 10
152.8941752748
 20
139.6944118858
 10
152.8896659543
 20
139.6467213779
 10
152.8862432347
 20
139.6003219621
 10
152.8837839321
 20
139.5550877829
 10
152.8824112305
 20
139.5111447342
 10
152.8821251299
 20
139.4684928349
  0
LWPOLYLINE
  5
24B
100
AcDbEntity
  8
0
100
AcDbPolyline
 62
7
  6
CONTINUOUS
 90
28
 70
0
 10
220.2321251299
 20
72.6554774571
 10
220.3241319878
 20
72.6581278759
 10
220.4159443567
 20
72.666073882
 10
220.5072479144
 20
72.6793069443
 10
220.5977817341
 20
72.6978161951
 10
220.6872273561
 20
72.7215672666
 10
220.7751726531
 20
72.7504669785
 10
220.8611035779
 20
72.7843008192
 10
220.9447586973
 20
72.8229331108
 10
221.0261532047
 20
72.8663909198
 10
221.1053260127
 20
72.9147636464
 10
221.1818742559
 20
72.967874813
 10
221.2551621171
 20
73.0252864335
 10
221.3247284837
 20
73.0866055758
 10
221.3905537223
 20
73.151803801
 10
221.4526879895
 20
73.220968569
 10
221.5110503942
 20
73.2940827867
 10
221.5652022936
 20
73.3706691281
 10
221.6146741214
 20
73.4501215723
 10
221.6592329992
 20
73.5320157653
 10
221.6989197719
 20
73.6163404569
 10
221.7337521001
 20
73.7031415123
 10
221.7635815669
 20
73.7921892977
 10
221.7881577474
 20
73.8829530184
 10
221.8073470955
 20
73.9749753155
 10
221.82109207
 20
74.0679171915
 10
221.8293617826
 20
74.1615238893
 10
221.8321251299
 20
74.2554774571
  0
LINE
  5
24C
100
AcDbEntity
  8
0
100
AcDbLine
 62
253
  6
CONTINUOUS
 10
131.966779837
 20
74.2575871261
 11
131.8321251299
 21
74.2554774571
  0
LINE
  5
24D
100
AcDbEntity
  8
0
100
AcDbLine
 62
7
  6
CONTINUOUS
 10
133.4321251299
 20
72.6554774571
 11
220.2321251299
 21
72.6554774571
  0
LINE
  5
24E
100
AcDbEntity
  8
0
100
AcDbLine
 62
253
  6
CONTINUOUS
 10
220.232124635
 20
72.8133713544
 11
133.4321251299
 21
72.8133713544
  0
LINE
  5
24F
100
AcDbEntity
  8
0
100
AcDbLine
 62
253
  6
CONTINUOUS
 10
220.2321251299
 20
73.8794143513
 11
133.4321251299
 21
73.8794143513
  0
LINE
  5
250
100
AcDbEntity
  8
0
100
AcDbLine
 62
253
  6
CONTINUOUS
 10
221.6974700378
 20
74.2555106828
 11
221.8321251299
 21
74.2554774571
  0
LWPOLYLINE
  5
251
100
AcDbEntity
  8
0
100
AcDbPolyline
 62
253
  6
CONTINUOUS
 90
28
 70
0
 10
133.4321251299
 20
72.8133713544
 10
133.3479297889
 20
72.8157920456
 10
133.2639600057
 20
72.823046688
 10
133.180498558
 20
72.8351196959
 10
133.0978006632
 20
72.8519873115
 10
133.0161150378
 20
72.8736198512
 10
132.93572931
 20
72.8999606488
 10
132.8569796738
 20
72.930882209
 10
132.7802249261
 20
72.9662434008
 10
132.7057164552
 20
73.0059402755
 10
132.6335750222
 20
73.0499070046
 10
132.5639675851
 20
73.0980383235
 10
132.4972159635
 20
73.1501138725
 10
132.4335824159
 20
73.2059497105
 10
132.3732528559
 20
73.2654208015
 10
132.3164223626
 20
73.3283651486
 10
132.2632814224
 20
73.3945359231
 10
132.2140705053
 20
73.4635982271
 10
132.1690490607
 20
73.5352203135
 10
132.128319904
 20
73.6092079958
 10
132.0919359303
 20
73.6854141315
 10
132.0599908538
 20
73.763616571
 10
132.0326175
 20
73.8434520169
 10
132.0099277496
 20
73.9245873366
 10
131.9919695869
 20
74.0068101025
 10
131.9787765292
 20
74.0898994759
 10
131.9703727726
 20
74.173584249
 10
131.9667782448
 20
74.2575871011
  0
LWPOLYLINE
  5
252
100
AcDbEntity
  8
0
100
AcDbPolyline
 62
253
  6
CONTINUOUS
 90
28
 70
0
 10
133.4321251299
 20
73.8794143513
 10
133.4221269124
 20
73.8797087655
 10
133.4122272937
 20
73.8805781261
 10
133.4024262736
 20
73.8820224347
 10
133.3926971161
 20
73.8840486436
 10
133.3830665573
 20
73.8866498069
 10
133.373614806
 20
73.8898050803
 10
133.3643360049
 20
73.8935154151
 10
133.3552360112
 20
73.8977798723
 10
133.3464126062
 20
73.9025747735
 10
133.3378360785
 20
73.9079481021
 10
133.3295361395
 20
73.9138518926
 10
133.3216997042
 20
73.9201185408
 10
133.3144193201
 20
73.9266643258
 10
133.3076024398
 20
73.9335729822
 10
133.3011583358
 20
73.9409280885
 10
133.29500267
 20
73.9488229059
 10
133.2892197805
 20
73.9571641966
 10
133.2839719544
 20
73.9657557882
 10
133.2793089762
 20
73.9745702314
 10
133.2751810615
 20
73.9836349889
 10
133.2716011434
 20
73.9928362475
 10
133.2685728575
 20
74.0021524058
 10
133.2660925683
 20
74.0116050729
 10
133.2641623029
 20
74.0211452467
 10
133.2627827369
 20
74.0307565943
 10
133.2619531947
 20
74.0404554537
 10
133.2616736763
 20
74.0502418274
  0
LWPOLYLINE
  5
253
100
AcDbEntity
  8
0
100
AcDbPolyline
 62
253
  6
CONTINUOUS
 90
16
 70
0
 10
131.964701184
 20
95.1862907919
 10
131.9741816191
 20
95.1822969774
 10
131.9885718113
 20
95.17834018
 10
132.007816802
 20
95.1744355113
 10
132.0318430918
 20
95.1705978839
 10
132.0605589204
 20
95.1668419542
 10
132.0938546174
 20
95.1631820667
 10
132.1316030215
 20
95.1596321991
 10
132.1736599655
 20
95.156205909
 10
132.2198648273
 20
95.1529162818
 10
132.2700411433
 20
95.1497758812
 10
132.3239972821
 20
95.1467967009
 10
132.3815271769
 20
95.1439901188
 10
132.4424111119
 20
95.1413668536
 10
132.5064165617
 20
95.1389369241
 10
132.6428032303
 20
95.1346934194
  0
LWPOLYLINE
  5
254
100
AcDbEntity
  8
0
100
AcDbPolyline
 62
253
  6
CONTINUOUS
 90
17
 70
0
 10
131.9647035163
 20
95.1102136693
 10
131.9741840958
 20
95.106206586
 10
131.9885744175
 20
95.1022367703
 10
132.0078195229
 20
95.0983193836
 10
132.0318459118
 20
95.094469387
 10
132.0605618241
 20
95.0907014841
 10
132.0938575895
 20
95.0870300652
 10
132.1316060464
 20
95.0834691518
 10
132.1736630281
 20
95.0800323438
 10
132.2198679126
 20
95.0767327667
 10
132.2700442367
 20
95.0735830221
 10
132.3240003698
 20
95.0705951394
 10
132.3815302453
 20
95.0677805298
 10
132.4424141481
 20
95.0651499425
 10
132.5064195538
 20
95.0627134243
 10
132.5733020163
 20
95.0604802805
 10
132.7146663632
 20
95.0566574219
  0
LWPOLYLINE
  5
255
100
AcDbEntity
  8
0
100
AcDbPolyline
 62
253
  6
CONTINUOUS
 90
25
 70
0
 10
153.0361884391
 20
95.0506618985
 10
153.0771720095
 20
94.955457327
 10
153.1227380621
 20
94.8625289824
 10
153.1728865971
 20
94.7718767002
 10
153.227763973
 20
94.6832126824
 10
153.2872238312
 20
94.5968244158
 10
153.3508270956
 20
94.5135745932
 10
153.4186246365
 20
94.4335133561
 10
153.4905655836
 20
94.3565901097
 10
153.5660582499
 20
94.2835163275
 10
153.6451330212
 20
94.2143482501
 10
153.7277595116
 20
94.1490291232
 10
153.8132548766
 20
94.0881008562
 10
153.9016561079
 20
94.0316093165
 10
153.9929262138
 20
93.9795081333
 10
154.0862713738
 20
93.932200825
 10
154.1817892017
 20
93.8897340319
 10
154.2793820837
 20
93.8520606808
 10
154.3779633582
 20
93.8194437215
 10
154.4773896488
 20
93.7919885664
 10
154.577804332
 20
93.7695894899
 10
154.6785508749
 20
93.752192764
 10
154.7794104334
 20
93.7397804283
 10
154.8806018518
 20
93.7323702888
 10
154.9821251299
 20
93.7299623072
  0
LWPOLYLINE
  5
256
100
AcDbEntity
  8
0
100
AcDbPolyline
 62
253
  6
CONTINUOUS
 90
16
 70
0
 10
152.8821251299
 20
95.8424620793
 10
152.8824754975
 20
95.7978866417
 10
152.8839538142
 20
95.7522864166
 10
152.8865600801
 20
95.7056614196
 10
152.8901924947
 20
95.6581121693
 10
152.8949528585
 20
95.6095381786
 10
152.9011465732
 20
95.5596379601
 10
152.9087467259
 20
95.5083297061
 10
152.9177802295
 20
95.4556952704
 10
152.9286332236
 20
95.4016786641
 10
152.9413064335
 20
95.346179054
 10
152.9557991338
 20
95.2892973263
 10
152.9724952881
 20
95.2312800682
 10
152.9915228844
 20
95.1722094888
 10
153.0127539347
 20
95.1120034243
 10
153.0361884391
 20
95.0506618985
  0
LINE
  5
257
100
AcDbEntity
  8
0
100
AcDbLine
 62
253
  6
CONTINUOUS
 10
152.8821251299
 20
139.4684928349
 11
152.8821251299
 21
95.8424620793
  0
LINE
  5
258
100
AcDbEntity
  8
0
100
AcDbLine
 62
7
  6
CONTINUOUS
 10
154.1821251299
 20
139.4054778337
 11
154.1821251299
 21
95.9054770111
  0
LINE
  5
259
100
AcDbEntity
  8
0
100
AcDbLine
 62
253
  6
CONTINUOUS
 10
154.9821251299
 20
95.1054774571
 11
154.9821251299
 21
93.7299623072
  0
LINE
  5
25A
100
AcDbEntity
  8
0
100
AcDbLine
 62
253
  6
CONTINUOUS
 10
154.9821251299
 20
140.2054774571
 11
154.9821251299
 21
141.580992607
  0
LWPOLYLINE
  5
25B
100
AcDbEntity
  8
0
100
AcDbPolyline
 62
253
  6
CONTINUOUS
 90
16
 70
0
 10
154.2408176866
 20
95.6047114113
 10
154.2396821557
 20
95.5999276543
 10
154.2332684473
 20
95.593021375
 10
154.2216046902
 20
95.5840228623
 10
154.2047420385
 20
95.5729715813
 10
154.1827544472
 20
95.5599159998
 10
154.155738348
 20
95.5449133761
 10
154.1238122262
 20
95.5280295076
 10
154.0871161011
 20
95.5093384423
 10
154.045810912
 20
95.4889221542
 10
154.0000778124
 20
95.4668701835
 10
153.9501173753
 20
95.4432792442
 10
153.8961487135
 20
95.4182527997
 10
153.8384085192
 20
95.3919006092
 10
153.7771500252
 20
95.3643382462
 10
153.7126418946
 20
95.3356865919
  0
LINE
  5
25C
100
AcDbEntity
  8
0
100
AcDbLine
 62
253
  6
CONTINUOUS
 10
200.0190832172
 20
140.0048835928
 11
200.1617376664
 21
140.0664818709
  0
LINE
  5
25D
100
AcDbEntity
  8
0
100
AcDbLine
 62
253
  6
CONTINUOUS
 10
200.1617376664
 20
140.0664818709
 11
200.3125637495
 21
140.1303320576
  0
LINE
  5
25E
100
AcDbEntity
  8
0
100
AcDbLine
 62
253
  6
CONTINUOUS
 10
200.3125637495
 20
140.1303320576
 11
200.4689184377
 21
140.1953152628
  0
LINE
  5
25F
100
AcDbEntity
  8
0
100
AcDbLine
 62
253
  6
CONTINUOUS
 10
200.4689184377
 20
140.1953152628
 11
200.6280618209
 21
140.2602927413
  0
LWPOLYLINE
  5
260
100
AcDbEntity
  8
0
100
AcDbPolyline
 62
7
  6
CONTINUOUS
 90
31
 70
0
 10
181.0488057731
 20
90.3318493705
 10
181.0732197642
 20
90.3326332405
 10
181.0974934422
 20
90.3341865016
 10
181.1216268071
 20
90.3365091554
 10
181.1456937576
 20
90.3395494299
 10
181.1696203951
 20
90.3433591028
 10
181.1931850235
 20
90.3480935029
 10
181.216385271
 20
90.3537411753
 10
181.2392235095
 20
90.3603135884
 10
181.2614851581
 20
90.3680004602
 10
181.2832106693
 20
90.3768126098
 10
181.3043595907
 20
90.386739244
 10
181.3245959846
 20
90.3979376691
 10
181.34388177
 20
90.4104633379
 10
181.3622550278
 20
90.4242608404
 10
181.3794940634
 20
90.4393211935
 10
181.3955221758
 20
90.4557404599
 10
181.410416066
 20
90.4734226334
 10
181.4241841422
 20
90.4920706243
 10
181.4368185168
 20
90.5116783166
 10
181.4483270773
 20
90.532251877
 10
181.4587418948
 20
90.5535126257
 10
181.4680733889
 20
90.575440394
 10
181.4763111398
 20
90.5980553904
 10
181.483455959
 20
90.6211394882
 10
181.4895302521
 20
90.6447076829
 10
181.4945116134
 20
90.6687450084
 10
181.4983336369
 20
90.6929883797
 10
181.5009741872
 20
90.7173501023
 10
181.5024553995
 20
90.7419178814
 10
181.502777274
 20
90.7666917235
  0
LINE
  5
261
100
AcDbEntity
  8
0
100
AcDbLine
 62
7
  6
CONTINUOUS
 10
172.2160181299
 20
88.7776764571
 11
172.7310281299
 21
88.7776764571
  0
LINE
  5
262
100
AcDbEntity
  8
0
100
AcDbLine
 62
7
  6
CONTINUOUS
 10
173.8478401299
 20
88.7776764571
 11
174.4322481299
 21
88.7776764571
  0
LINE
  5
263
100
AcDbEntity
  8
0
100
AcDbLine
 62
7
  6
CONTINUOUS
 10
174.7468531299
 20
88.7776764571
 11
175.3059421299
 21
88.7776764571
  0
LINE
  5
264
100
AcDbEntity
  8
0
100
AcDbLine
 62
7
  6
CONTINUOUS
 10
176.1176381299
 20
88.7776764571
 11
176.1996011299
 21
88.7776764571
  0
LINE
  5
265
100
AcDbEntity
  8
0
100
AcDbLine
 62
7
  6
CONTINUOUS
 10
177.0145311299
 20
88.7776764571
 11
177.5862371299
 21
88.7776764571
  0
LINE
  5
266
100
AcDbEntity
  8
0
100
AcDbLine
 62
7
  6
CONTINUOUS
 10
177.6780051299
 20
88.7776764571
 11
178.2560721299
 21
88.7776764571
  0
LINE
  5
267
100
AcDbEntity
  8
0
100
AcDbLine
 62
7
  6
CONTINUOUS
 10
179.3645911299
 20
88.7776764571
 11
179.9805331299
 21
88.7776764571
  0
LINE
  5
268
100
AcDbEntity
  8
0
100
AcDbLine
 62
7
  6
CONTINUOUS
 10
180.1521439322
 20
88.7776761027
 11
180.7342004748
 21
88.7776761027
  0
LINE
  5
269
100
AcDbEntity
  8
0
100
AcDbLine
 62
7
  6
CONTINUOUS
 10
181.6291407518
 20
88.7776761027
 11
182.1912733419
 21
88.7776761027
  0
LINE
  5
26A
100
AcDbEntity
  8
0
100
AcDbLine
 62
7
  6
CONTINUOUS
 10
178.4173321299
 20
89.3365964571
 11
179.2131991299
 21
89.3365964571
  0
LINE
  5
26B
100
AcDbEntity
  8
0
100
AcDbLine
 62
7
  6
CONTINUOUS
 10
178.5368761299
 20
89.7690864571
 11
179.0964051299
 21
89.7690864571
  0
LINE
  5
26C
100
AcDbEntity
  8
0
100
AcDbLine
 62
7
  6
CONTINUOUS
 10
180.7342004748
 20
89.8733255323
 11
181.0475460922
 21
89.8733255323
  0
LINE
  5
26D
100
AcDbEntity
  8
0
100
AcDbLine
 62
7
  6
CONTINUOUS
 10
180.714822384
 20
90.3318493705
 11
181.0488057731
 21
90.3318493705
  0
LWPOLYLINE
  5
26E
100
AcDbEntity
  8
0
100
AcDbPolyline
 62
7
  6
CONTINUOUS
 90
25
 70
0
 10
180.1521439322
 20
91.5446701161
 10
180.2118979396
 20
91.5533750641
 10
180.2716130193
 20
91.5615738463
 10
180.3312891712
 20
91.5692664575
 10
180.3908882449
 20
91.57650455
 10
180.4504483908
 20
91.5832364621
 10
180.5100840608
 20
91.5893072162
 10
180.5698074139
 20
91.5947233929
 10
180.629606291
 20
91.5994784019
 10
180.6895586679
 20
91.6033975077
 10
180.7496761296
 20
91.6064879719
 10
180.809947091
 20
91.6087425255
 10
180.8704147723
 20
91.6099646368
 10
180.9311410648
 20
91.6101568202
 10
180.9920640772
 20
91.6093165595
 10
181.0530413552
 20
91.6072397787
 10
181.1140796797
 20
91.6039945767
 10
181.1751722698
 20
91.5995128627
 10
181.2361563285
 20
91.5933862814
 10
181.2971658259
 20
91.5857037414
 10
181.3580667919
 20
91.5763763624
 10
181.418294519
 20
91.564729122
 10
181.4776607714
 20
91.550537042
 10
181.536353785
 20
91.5340251796
 10
181.5943735597
 20
91.5151935836
  0
LINE
  5
26F
100
AcDbEntity
  8
0
100
AcDbLine
 62
253
  6
CONTINUOUS
 10
221.1578307051
 20
95.0627134244
 11
221.0214441575
 21
95.0584590401
  0
LINE
  5
270
100
AcDbEntity
  8
0
100
AcDbLine
 62
253
  6
CONTINUOUS
 10
221.1578337001
 20
95.1389369239
 11
221.0214470313
 21
95.1346934192
  0
LINE
  5
271
100
AcDbEntity
  8
0
100
AcDbLine
 62
253
  6
CONTINUOUS
 10
153.6043664362
 20
95.8530820854
 11
153.4571004304
 21
95.8489606825
  0
LWPOLYLINE
  5
272
100
AcDbEntity
  8
0
100
AcDbPolyline
 62
253
  6
CONTINUOUS
 90
25
 70
0
 10
198.6821251299
 20
93.7299623072
 10
198.7836612862
 20
93.732363672
 10
198.8848933875
 20
93.7397798474
 10
198.9858214337
 20
93.752210872
 10
199.0866877013
 20
93.7696450613
 10
199.1872499139
 20
93.7920942548
 10
199.286781242
 20
93.8195938167
 10
199.3853892169
 20
93.8522422858
 10
199.4829663073
 20
93.8899414363
 10
199.5784630895
 20
93.9324315136
 10
199.6717935279
 20
93.9797608941
 10
199.7630436582
 20
94.0318816345
 10
199.8514221637
 20
94.0883895013
 10
199.9368925594
 20
94.149331034
 10
200.0194913305
 20
94.2146601964
 10
200.0985366159
 20
94.2838338596
 10
200.1739985568
 20
94.3569097635
 10
200.2459070122
 20
94.4338306812
 10
200.3136696981
 20
94.513880961
 10
200.3772350485
 20
94.5971116936
 10
200.4366546295
 20
94.6834722402
 10
200.4914908557
 20
94.7720942383
 10
200.5415978655
 20
94.8626883105
 10
200.5871215205
 20
94.9555441428
 10
200.6280618208
 20
95.0506618985
  0
LINE
  5
273
100
AcDbEntity
  8
0
100
AcDbLine
 62
253
  6
CONTINUOUS
 10
221.0214441575
 20
95.0584590401
 11
220.8756419028
 21
95.0550823073
  0
LINE
  5
274
100
AcDbEntity
  8
0
100
AcDbLine
 62
253
  6
CONTINUOUS
 10
221.0214470313
 20
95.1346934192
 11
220.8756446179
 21
95.131324369
  0
LINE
  5
275
100
AcDbEntity
  8
0
100
AcDbLine
 62
253
  6
CONTINUOUS
 10
153.4571004304
 20
95.8489606825
 11
153.2999964376
 21
95.8458062973
  0
LINE
  5
276
100
AcDbEntity
  8
0
100
AcDbLine
 62
253
  6
CONTINUOUS
 10
220.8756419028
 20
95.0550823073
 11
220.7226491754
 21
95.0526347617
  0
LINE
  5
277
100
AcDbEntity
  8
0
100
AcDbLine
 62
253
  6
CONTINUOUS
 10
220.8756446179
 20
95.131324369
 11
220.7226517029
 21
95.1288811918
  0
LINE
  5
278
100
AcDbEntity
  8
0
100
AcDbLine
 62
253
  6
CONTINUOUS
 10
153.2999964376
 20
95.8458062973
 11
153.1357425504
 21
95.8436729021
  0
LINE
  5
279
100
AcDbEntity
  8
0
100
AcDbLine
 62
253
  6
CONTINUOUS
 10
220.7226491754
 20
95.0526347617
 11
220.5648009507
 21
95.0511537578
  0
LINE
  5
27A
100
AcDbEntity
  8
0
100
AcDbLine
 62
253
  6
CONTINUOUS
 10
220.7226517029
 20
95.1288811918
 11
220.5648032709
 21
95.1274011757
  0
LWPOLYLINE
  5
27B
100
AcDbEntity
  8
0
100
AcDbPolyline
 62
253
  6
CONTINUOUS
 90
3
 70
0
 10
153.1357425504
 20
95.8436729021
 10
152.9671491986
 20
95.8425970001
 10
152.8821251299
 20
95.8424620793
  0
LINE
  5
27C
100
AcDbEntity
  8
0
100
AcDbLine
 62
253
  6
CONTINUOUS
 10
220.5648032709
 20
95.1274011757
 11
220.4045084116
 21
95.1269069085
  0
LINE
  5
27D
100
AcDbEntity
  8
0
100
AcDbLine
 62
253
  6
CONTINUOUS
 10
220.5648009507
 20
95.0511537578
 11
220.4045063087
 21
95.0506618987
  0
LINE
  5
27E
100
AcDbEntity
  8
0
100
AcDbLine
 62
7
  6
CONTINUOUS
 10
171.3284571299
 20
91.5773794571
 11
171.9633051299
 21
91.5773794571
  0
LINE
  5
27F
100
AcDbEntity
  8
0
100
AcDbLine
 62
7
  6
CONTINUOUS
 10
173.0469561299
 20
91.5773794571
 11
173.6309651299
 21
91.5773794571
  0
LINE
  5
280
100
AcDbEntity
  8
0
100
AcDbLine
 62
7
  6
CONTINUOUS
 10
174.9996501299
 20
91.5773794571
 11
175.5835751299
 21
91.5773794571
  0
LINE
  5
281
100
AcDbEntity
  8
0
100
AcDbLine
 62
7
  6
CONTINUOUS
 10
176.7462191299
 20
91.5773794571
 11
177.3244331299
 21
91.5773794571
  0
LINE
  5
282
100
AcDbEntity
  8
0
100
AcDbLine
 62
7
  6
CONTINUOUS
 10
178.5561701299
 20
91.5773794571
 11
179.1215151299
 21
91.5773794571
  0
LINE
  5
283
100
AcDbEntity
  8
0
100
AcDbLine
 62
7
  6
CONTINUOUS
 10
173.8478401299
 20
91.5775474571
 11
174.4322481299
 21
91.5775474571
  0
LINE
  5
284
100
AcDbEntity
  8
0
100
AcDbLine
 62
253
  6
CONTINUOUS
 10
154.9821251299
 20
93.7299623072
 11
198.6821251299
 21
93.7299623072
  0
LINE
  5
285
100
AcDbEntity
  8
0
100
AcDbLine
 62
253
  6
CONTINUOUS
 10
200.6280618208
 20
95.0506618985
 11
220.4045063089
 21
95.0506679644
  0
LINE
  5
286
100
AcDbEntity
  8
0
100
AcDbLine
 62
7
  6
CONTINUOUS
 10
154.9821251299
 20
95.1054774571
 11
198.6821251299
 21
95.1054774571
  0
LINE
  5
287
100
AcDbEntity
  8
0
100
AcDbLine
 62
253
  6
CONTINUOUS
 10
131.9647011835
 20
95.1862907919
 11
131.8321251299
 21
95.1862907919
  0
LINE
  5
288
100
AcDbEntity
  8
0
100
AcDbLine
 62
253
  6
CONTINUOUS
 10
221.6995490764
 20
95.1862907919
 11
221.8321251299
 21
95.1862907919
  0
LINE
  5
289
100
AcDbEntity
  8
0
100
AcDbLine
 62
253
  6
CONTINUOUS
 10
133.1794432901
 20
95.0507833595
 11
153.0361884391
 21
95.0506618985
  0
LINE
  5
28A
100
AcDbEntity
  8
0
100
AcDbLine
 62
253
  6
CONTINUOUS
 10
133.0994469895
 20
95.1274011759
 11
133.2597418482
 21
95.1269069088
  0
LINE
  5
28B
100
AcDbEntity
  8
0
100
AcDbLine
 62
253
  6
CONTINUOUS
 10
200.6124410796
 20
95.8430011846
 11
200.7821251299
 21
95.8424620793
  0
LINE
  5
28C
100
AcDbEntity
  8
0
100
AcDbLine
 62
253
  6
CONTINUOUS
 10
133.0200675167
 20
95.0517716783
 11
133.1794432901
 21
95.0507833595
  0
LINE
  5
28D
100
AcDbEntity
  8
0
100
AcDbLine
 62
253
  6
CONTINUOUS
 10
132.9415985579
 20
95.1288811921
 11
133.0994469895
 21
95.1274011759
  0
LINE
  5
28E
100
AcDbEntity
  8
0
100
AcDbLine
 62
253
  6
CONTINUOUS
 10
200.4456603704
 20
95.8446092763
 11
200.6124410796
 21
95.8430011846
  0
LINE
  5
28F
100
AcDbEntity
  8
0
100
AcDbLine
 62
253
  6
CONTINUOUS
 10
132.8643496857
 20
95.0537397112
 11
133.0200675167
 21
95.0517716783
  0
LINE
  5
290
100
AcDbEntity
  8
0
100
AcDbLine
 62
253
  6
CONTINUOUS
 10
132.7886056433
 20
95.1313243692
 11
132.9415985579
 21
95.1288811921
  0
LINE
  5
291
100
AcDbEntity
  8
0
100
AcDbLine
 62
253
  6
CONTINUOUS
 10
200.2846366666
 20
95.8472588394
 11
200.4456603704
 21
95.8446092763
  0
LINE
  5
292
100
AcDbEntity
  8
0
100
AcDbLine
 62
253
  6
CONTINUOUS
 10
132.7146663632
 20
95.0566574219
 11
132.8643496857
 21
95.0537397112
  0
LINE
  5
293
100
AcDbEntity
  8
0
100
AcDbLine
 62
253
  6
CONTINUOUS
 10
132.6428032303
 20
95.1346934194
 11
132.7886056433
 21
95.1313243692
  0
LWPOLYLINE
  5
294
100
AcDbEntity
  8
0
100
AcDbPolyline
 62
7
  6
CONTINUOUS
 90
10
 70
0
 10
181.17263856
 20
91.1169052082
 10
181.1239656894
 20
91.1218237179
 10
181.0746843803
 20
91.1250703844
 10
181.0247946325
 20
91.1266452005
 10
180.9742170591
 20
91.1265690015
 10
180.923031047
 20
91.1248209488
 10
180.8714747574
 20
91.12133853
 10
180.8196275772
 20
91.1161009144
 10
180.7674101194
 20
91.1091289528
 10
180.714822384
 20
91.1004226611
  0
LWPOLYLINE
  5
295
100
AcDbEntity
  8
0
100
AcDbPolyline
 62
7
  6
CONTINUOUS
 90
48
 70
0
 10
181.5943735597
 20
91.5151935836
 10
181.625632377
 20
91.502548568
 10
181.6571014537
 20
91.4872396197
 10
181.6887807896
 20
91.4692667908
 10
181.7208158653
 20
91.4487336399
 10
181.7530612004
 20
91.425536739
 10
181.7850803528
 20
91.3993656843
 10
181.8171178396
 20
91.37015046
 10
181.8489291438
 20
91.3379612978
 10
181.8793442725
 20
91.302698197
 10
181.9084455058
 20
91.2639156397
 10
181.9361505636
 20
91.222059458
 10
181.9610426137
 20
91.1783666333
 10
181.982783732
 20
91.1325807815
 10
182.0017118426
 20
91.0849585191
 10
182.0174238855
 20
91.0375061437
 10
182.0295144281
 20
90.990472555
 10
182.038388903
 20
90.943608829
 10
182.0448605481
 20
90.8981743233
 10
182.0489589326
 20
90.8545299786
 10
182.0506544874
 20
90.8123146749
 10
182.0506717428
 20
90.7717045932
 10
182.0491136199
 20
90.7327955849
 10
182.0458771975
 20
90.6954916263
 10
182.0413782429
 20
90.6596810858
 10
182.0356364596
 20
90.6253514095
 10
182.028632144
 20
90.5925150114
 10
182.0207219528
 20
90.5610977245
 10
182.0119215032
 20
90.5311117985
 10
182.002215178
 20
90.5025448652
 10
181.9919127823
 20
90.4752858433
 10
181.981041553
 20
90.449336478
 10
181.9695742532
 20
90.4246949286
 10
181.9577389764
 20
90.4012447461
 10
181.9455643875
 20
90.3789899564
 10
181.9330218216
 20
90.3579264581
 10
181.9202533779
 20
90.3379256228
 10
181.9072565039
 20
90.3189783275
 10
181.8940337521
 20
90.3010936376
 10
181.880734879
 20
90.2841702151
 10
181.8673566846
 20
90.2682432859
 10
181.853902369
 20
90.2532775793
 10
181.8405312888
 20
90.2390660221
 10
181.8272536168
 20
90.2255972384
 10
181.8140591802
 20
90.2128825748
 10
181.8010768181
 20
90.2007490503
 10
181.7883326128
 20
90.1891858134
 10
181.7758004819
 20
90.1782036963
  0
LWPOLYLINE
  5
296
100
AcDbEntity
  8
0
100
AcDbPolyline
 62
7
  6
CONTINUOUS
 90
3
 70
0
 10
181.6546282948
 20
90.0845530202
 10
181.6822624291
 20
90.0713094664
 10
181.7080677745
 20
90.0566397332
  0
LWPOLYLINE
  5
297
100
AcDbEntity
  8
0
100
AcDbPolyline
 62
7
  6
CONTINUOUS
 90
22
 70
0
 10
181.7080677745
 20
90.0566397332
 10
181.7320443311
 20
90.0405438508
 10
181.7540739439
 20
90.0227557316
 10
181.7742747679
 20
90.0035415373
 10
181.7930012679
 20
89.9836996549
 10
181.8102303523
 20
89.9633847334
 10
181.8259851127
 20
89.9424421577
 10
181.8406892884
 20
89.9212063867
 10
181.8544010122
 20
89.8997132902
 10
181.8670621512
 20
89.8779270166
 10
181.8789220456
 20
89.8560744257
 10
181.8900082814
 20
89.8341756359
 10
181.9002932725
 20
89.8122105333
 10
181.9099436013
 20
89.7903456175
 10
181.9189650239
 20
89.7686244443
 10
181.9273517841
 20
89.7470034513
 10
181.9352531956
 20
89.7255184536
 10
181.9426619063
 20
89.7042083883
 10
181.9495852683
 20
89.6830343097
 10
181.9561946523
 20
89.6619152101
 10
181.9624766579
 20
89.6408543098
 10
181.9684446855
 20
89.6198483857
  0
LWPOLYLINE
  5
298
100
AcDbEntity
  8
0
100
AcDbPolyline
 62
253
  6
CONTINUOUS
 90
18
 70
0
 10
154.2408163444
 20
139.7062440476
 10
154.2396808231
 20
139.7110278099
 10
154.2332671339
 20
139.7179340907
 10
154.2216034053
 20
139.7269326011
 10
154.204740791
 20
139.7379838761
 10
154.1827532458
 20
139.751039448
 10
154.1557372007
 20
139.7660420589
 10
154.1238111402
 20
139.7829259116
 10
154.087115083
 20
139.8016169584
 10
154.0458099675
 20
139.8220332256
 10
154.0000769461
 20
139.8440851733
 10
153.9501165906
 20
139.8676760882
 10
153.896148013
 20
139.892702507
 10
153.838407904
 20
139.9190546713
 10
153.777149495
 20
139.9466170078
 10
153.7126414481
 20
139.9752686361
 10
153.6451666769
 20
140.0048838984
 10
153.5025123755
 20
140.0664821321
  0
LWPOLYLINE
  5
299
100
AcDbEntity
  8
0
100
AcDbPolyline
 62
253
  6
CONTINUOUS
 90
16
 70
0
 10
154.1821251299
 20
95.9054774571
 10
154.1793417302
 20
95.9013560542
 10
154.1710034499
 20
95.8972522998
 10
154.1571459948
 20
95.8931837668
 10
154.1378287046
 20
95.8891678773
 10
154.1131342991
 20
95.8852218278
 10
154.0831685233
 20
95.8813625161
 10
154.0480596953
 20
95.8776064683
 10
154.0079581566
 20
95.8739697683
 10
153.963035628
 20
95.8704679891
 10
153.9134844747
 20
95.8671161258
 10
153.8595168823
 20
95.8639285316
 10
153.8013639484
 20
95.8609188563
 10
153.7392746927
 20
95.8580999877
 10
153.6735149909
 20
95.8554839967
 10
153.6043664362
 20
95.8530820854
  0
LINE
  5
29A
100
AcDbEntity
  8
0
100
AcDbLine
 62
7
  6
CONTINUOUS
 10
175.4320571299
 20
90.6058304571
 11
176.1176381299
 21
88.7776764571
  0
LINE
  5
29B
100
AcDbEntity
  8
0
100
AcDbLine
 62
7
  6
CONTINUOUS
 10
175.5835751299
 20
91.5773794571
 11
176.1618111299
 21
90.0229754571
  0
LINE
  5
29C
100
AcDbEntity
  8
0
100
AcDbLine
 62
7
  6
CONTINUOUS
 10
171.3284571299
 20
91.5773794571
 11
172.2160181299
 21
88.7776764571
  0
LINE
  5
29D
100
AcDbEntity
  8
0
100
AcDbLine
 62
7
  6
CONTINUOUS
 10
171.9633051299
 20
91.5773794571
 11
172.4969791299
 21
89.6502574571
  0
LINE
  5
29E
100
AcDbEntity
  8
0
100
AcDbLine
 62
7
  6
CONTINUOUS
 10
177.3244331299
 20
91.5773794571
 11
177.5862371299
 21
88.7776764571
  0
LINE
  5
29F
100
AcDbEntity
  8
0
100
AcDbLine
 62
7
  6
CONTINUOUS
 10
176.8944621299
 20
90.5982084571
 11
177.0145311299
 21
88.7776764571
  0
LINE
  5
2A0
100
AcDbEntity
  8
0
100
AcDbLine
 62
7
  6
CONTINUOUS
 10
173.8478401299
 20
91.5775474571
 11
173.8478401299
 21
88.7776764571
  0
LINE
  5
2A1
100
AcDbEntity
  8
0
100
AcDbLine
 62
7
  6
CONTINUOUS
 10
174.4322481299
 20
91.5775474571
 11
174.4322481299
 21
88.7776764571
  0
LINE
  5
2A2
100
AcDbEntity
  8
0
100
AcDbLine
 62
7
  6
CONTINUOUS
 10
175.4320571299
 20
90.6058304571
 11
175.3059421299
 21
88.7776764571
  0
LINE
  5
2A3
100
AcDbEntity
  8
0
100
AcDbLine
 62
7
  6
CONTINUOUS
 10
174.9996501299
 20
91.5773794571
 11
174.7468531299
 21
88.7776764571
  0
LINE
  5
2A4
100
AcDbEntity
  8
0
100
AcDbLine
 62
253
  6
CONTINUOUS
 10
200.4689184596
 20
95.1156394561
 11
200.6280618208
 21
95.0506619778
  0
LINE
  5
2A5
100
AcDbEntity
  8
0
100
AcDbLine
 62
253
  6
CONTINUOUS
 10
200.3125638437
 20
95.1806226427
 11
200.4689184596
 21
95.1156394561
  0
LINE
  5
2A6
100
AcDbEntity
  8
0
100
AcDbLine
 62
253
  6
CONTINUOUS
 10
200.1617378725
 20
95.2444727969
 11
200.3125638437
 21
95.1806226427
  0
LWPOLYLINE
  5
2A7
100
AcDbEntity
  8
0
100
AcDbPolyline
 62
253
  6
CONTINUOUS
 90
18
 70
0
 10
154.1821251299
 20
139.4054774571
 10
154.1793417302
 20
139.40959886
 10
154.1710034498
 20
139.4137026144
 10
154.1571459947
 20
139.4177711474
 10
154.1378287045
 20
139.4217870369
 10
154.1131342988
 20
139.4257330864
 10
154.0831685229
 20
139.4295923981
 10
154.0480596948
 20
139.4333484459
 10
154.0079581559
 20
139.4369851459
 10
153.9630356271
 20
139.4404869251
 10
153.9134844737
 20
139.4438387884
 10
153.8595168811
 20
139.4470263826
 10
153.801363947
 20
139.450036058
 10
153.7392746912
 20
139.4528549265
 10
153.6735149892
 20
139.4554709175
 10
153.6043664344
 20
139.4578728288
 10
153.5321251315
 20
139.460050375
 10
153.3796135933
 20
139.4636960748
  0
LWPOLYLINE
  5
2A8
100
AcDbEntity
  8
0
100
AcDbPolyline
 62
7
  6
CONTINUOUS
 90
19
 70
0
 10
181.3735271903
 20
89.6268145088
 10
181.3641173306
 20
89.6498935224
 10
181.3535449455
 20
89.672245284
 10
181.341810035
 20
89.6938697694
 10
181.3288841489
 20
89.7148748257
 10
181.3147957373
 20
89.7351525615
 10
181.2996301511
 20
89.754379336
 10
181.2834004007
 20
89.7725719187
 10
181.2660934758
 20
89.7897134822
 10
181.2477556965
 20
89.8054299738
 10
181.2283101455
 20
89.8197082222
 10
181.2078337402
 20
89.8325613358
 10
181.1866035534
 20
89.8436546705
 10
181.1645786492
 20
89.852849372
 10
181.1417999634
 20
89.8602842411
 10
181.1186673767
 20
89.8660411178
 10
181.0953141828
 20
89.8701472743
 10
181.0716070879
 20
89.8725754145
 10
181.0475460922
 20
89.8733255323
  0
LINE
  5
2A9
100
AcDbEntity
  8
0
100
AcDbLine
 62
7
  6
CONTINUOUS
 10
179.1215151299
 20
91.5773794571
 11
179.9805331299
 21
88.7776764571
  0
LWPOLYLINE
  5
2AA
100
AcDbEntity
  8
0
100
AcDbPolyline
 62
7
  6
CONTINUOUS
 90
8
 70
0
 10
181.463086451
 20
89.352039254
 10
181.4514022717
 20
89.3916028833
 10
181.4394616518
 20
89.4310586277
 10
181.4272643627
 20
89.4704014327
 10
181.4145939205
 20
89.5096468728
 10
181.4013781637
 20
89.5488001346
 10
181.3876892536
 20
89.5878560159
 10
181.3735271903
 20
89.6268145088
  0
LINE
  5
2AB
100
AcDbEntity
  8
0
100
AcDbLine
 62
7
  6
CONTINUOUS
 10
181.6291407518
 20
88.7776761027
 11
181.5316778207
 21
89.1117340749
  0
LWPOLYLINE
  5
2AC
100
AcDbEntity
  8
0
100
AcDbPolyline
 62
7
  6
CONTINUOUS
 90
4
 70
0
 10
181.5316778207
 20
89.1117340749
 10
181.5085781784
 20
89.1924780589
 10
181.497259825
 20
89.2325820944
 10
181.463086451
 20
89.352039254
  0
LWPOLYLINE
  5
2AD
100
AcDbEntity
  8
0
100
AcDbPolyline
 62
7
  6
CONTINUOUS
 90
3
 70
0
 10
181.9684446855
 20
89.6198483857
 10
181.980144045
 20
89.5776992438
 10
181.9858753768
 20
89.5565560295
  0
LINE
  5
2AE
100
AcDbEntity
  8
0
100
AcDbLine
 62
7
  6
CONTINUOUS
 10
179.2131991299
 20
89.3365964571
 11
179.3645911299
 21
88.7776764571
  0
LINE
  5
2AF
100
AcDbEntity
  8
0
100
AcDbLine
 62
7
  6
CONTINUOUS
 10
181.9858753768
 20
89.5565560295
 11
182.0610668037
 21
89.2745770659
  0
LINE
  5
2B0
100
AcDbEntity
  8
0
100
AcDbLine
 62
7
  6
CONTINUOUS
 10
182.0610668037
 20
89.2745770659
 11
182.1912733419
 21
88.7776761027
  0
LINE
  5
2B1
100
AcDbEntity
  8
0
100
AcDbLine
 62
7
  6
CONTINUOUS
 10
178.8278621299
 20
90.8080924571
 11
179.0964051299
 21
89.7690864571
  0
LWPOLYLINE
  5
2B2
100
AcDbEntity
  8
0
100
AcDbPolyline
 62
7
  6
CONTINUOUS
 90
19
 70
0
 10
181.502777274
 20
90.7666917235
 10
181.5013104778
 20
90.7937710018
 10
181.4976938182
 20
90.8206981654
 10
181.4919272952
 20
90.8474732079
 10
181.484069085
 20
90.8742626404
 10
181.4740610115
 20
90.9008999434
 10
181.4617285458
 20
90.9268855475
 10
181.4469438332
 20
90.9524061571
 10
181.4298347284
 20
90.9772750259
 10
181.4106102675
 20
91.0004323555
 10
181.3890449351
 20
91.0216765382
 10
181.3653642466
 20
91.0412090756
 10
181.3404537839
 20
91.0585747935
 10
181.3143975692
 20
91.0736014877
 10
181.2871115803
 20
91.0864612663
 10
181.2592293334
 20
91.0972154217
 10
181.2309620003
 20
91.1058843672
 10
181.2020984092
 20
91.1124476354
 10
181.17263856
 20
91.1169052082
  0
LINE
  5
2B3
100
AcDbEntity
  8
0
100
AcDbLine
 62
7
  6
CONTINUOUS
 10
181.5027772665
 20
90.7666915987
 11
181.50277553
 21
90.76680688
  0
LINE
  5
2B4
100
AcDbEntity
  8
0
100
AcDbLine
 62
7
  6
CONTINUOUS
 10
180.1521439322
 20
91.5446701161
 11
180.1521439322
 21
88.7776761027
  0
LINE
  5
2B5
100
AcDbEntity
  8
0
100
AcDbLine
 62
7
  6
CONTINUOUS
 10
180.714822384
 20
91.1004226611
 11
180.714822384
 21
90.3318493705
  0
LINE
  5
2B6
100
AcDbEntity
  8
0
100
AcDbLine
 62
7
  6
CONTINUOUS
 10
180.7342004748
 20
89.8733255323
 11
180.7342004748
 21
88.7776761027
  0
LINE
  5
2B7
100
AcDbEntity
  8
0
100
AcDbLine
 62
7
  6
CONTINUOUS
 10
181.6546282948
 20
90.101096829
 11
181.6546282948
 21
90.0845530202
  0
LINE
  5
2B8
100
AcDbEntity
  8
0
100
AcDbLine
 62
7
  6
CONTINUOUS
 10
178.8278621299
 20
90.8080924571
 11
178.5368761299
 21
89.7690864571
  0
LINE
  5
2B9
100
AcDbEntity
  8
0
100
AcDbLine
 62
7
  6
CONTINUOUS
 10
173.0469561299
 20
91.5773794571
 11
172.4969791299
 21
89.6502574571
  0
LINE
  5
2BA
100
AcDbEntity
  8
0
100
AcDbLine
 62
7
  6
CONTINUOUS
 10
178.4173321299
 20
89.3365964571
 11
178.2560721299
 21
88.7776764571
  0
LINE
  5
2BB
100
AcDbEntity
  8
0
100
AcDbLine
 62
7
  6
CONTINUOUS
 10
178.5561701299
 20
91.5773794571
 11
177.6780051299
 21
88.7776764571
  0
LINE
  5
2BC
100
AcDbEntity
  8
0
100
AcDbLine
 62
7
  6
CONTINUOUS
 10
173.6309651299
 20
91.5773794571
 11
172.7310281299
 21
88.7776764571
  0
LINE
  5
2BD
100
AcDbEntity
  8
0
100
AcDbLine
 62
7
  6
CONTINUOUS
 10
176.7462191299
 20
91.5773794571
 11
176.1618111299
 21
90.0229754571
  0
LINE
  5
2BE
100
AcDbEntity
  8
0
100
AcDbLine
 62
7
  6
CONTINUOUS
 10
176.8944621299
 20
90.5982084571
 11
176.1996011299
 21
88.7776764571
  0
LWPOLYLINE
  5
2BF
100
AcDbEntity
  8
0
100
AcDbPolyline
 62
253
  6
CONTINUOUS
 90
16
 70
0
 10
199.4821251299
 20
139.4054774571
 10
199.4849085297
 20
139.40959886
 10
199.4932468102
 20
139.4137026144
 10
199.5071042655
 20
139.4177711475
 10
199.526421556
 20
139.421787037
 10
199.5511159619
 20
139.4257330865
 10
199.5810817381
 20
139.4295923982
 10
199.6161905665
 20
139.4333484461
 10
199.6562921057
 20
139.4369851461
 10
199.7012146347
 20
139.4404869253
 10
199.7507657885
 20
139.4438387886
 10
199.8047333813
 20
139.4470263828
 10
199.8628863155
 20
139.4500360581
 10
199.9249755715
 20
139.4528549267
 10
199.9907352735
 20
139.4554709176
 10
200.0598838283
 20
139.4578728289
  0
LINE
  5
2C0
100
AcDbEntity
  8
0
100
AcDbLine
 62
253
  6
CONTINUOUS
 10
153.7126418946
 20
95.3356865919
 11
153.5750213961
 21
95.2756222688
  0
LINE
  5
2C1
100
AcDbEntity
  8
0
100
AcDbLine
 62
253
  6
CONTINUOUS
 10
153.5750213961
 20
95.2756222688
 11
153.4279586418
 21
95.2127601877
  0
LINE
  5
2C2
100
AcDbEntity
  8
0
100
AcDbLine
 62
253
  6
CONTINUOUS
 10
153.4279586418
 20
95.2127601877
 11
153.274030713
 21
95.1482019238
  0
LWPOLYLINE
  5
2C3
100
AcDbEntity
  8
0
100
AcDbPolyline
 62
253
  6
CONTINUOUS
 90
3
 70
0
 10
153.274030713
 20
95.1482019238
 10
153.1159349941
 20
95.0830787753
 10
153.0361884389
 20
95.050662154
  0
LWPOLYLINE
  5
2C4
100
AcDbEntity
  8
0
100
AcDbPolyline
 62
253
  6
CONTINUOUS
 90
18
 70
0
 10
199.4821251299
 20
95.9054774571
 10
199.4849085297
 20
95.9013560542
 10
199.49324681
 20
95.8972522998
 10
199.5071042652
 20
95.8931837668
 10
199.5264215554
 20
95.8891678773
 10
199.5511159611
 20
95.8852218278
 10
199.581081737
 20
95.8813625161
 10
199.6161905651
 20
95.8776064683
 10
199.656292104
 20
95.8739697683
 10
199.7012146327
 20
95.8704679891
 10
199.7507657862
 20
95.8671161258
 10
199.8047333788
 20
95.8639285316
 10
199.8628863129
 20
95.8609188562
 10
199.9249755687
 20
95.8580999877
 10
199.9907352706
 20
95.8554839967
 10
200.0598838254
 20
95.8530820854
 10
200.1321251284
 20
95.8509045392
 10
200.2846366666
 20
95.8472588394
  0
LWPOLYLINE
  5
2C5
100
AcDbEntity
  8
0
100
AcDbPolyline
 62
253
  6
CONTINUOUS
 90
17
 70
0
 10
199.423432557
 20
139.7062434964
 10
199.424568089
 20
139.7110272525
 10
199.4309817985
 20
139.717933531
 10
199.4426455567
 20
139.7269320428
 10
199.4595082096
 20
139.7379833231
 10
199.481495802
 20
139.7510389038
 10
199.5085119024
 20
139.7660415267
 10
199.5404380254
 20
139.7829253945
 10
199.5771341516
 20
139.8016164591
 10
199.6184393418
 20
139.8220327466
 10
199.6641724425
 20
139.8440847167
 10
199.7141328807
 20
139.8676756555
 10
199.7681015434
 20
139.8927020994
 10
199.8258417386
 20
139.9190542894
 10
199.8871002335
 20
139.9466166519
 10
199.9516083647
 20
139.9752683058
 10
200.0190832172
 20
140.0048835928
  0
LWPOLYLINE
  5
2C6
100
AcDbEntity
  8
0
100
AcDbPolyline
 62
7
  6
CONTINUOUS
 90
10
 70
0
 10
181.7758004819
 20
90.1782036963
 10
181.7516152215
 20
90.1574717446
 10
181.739962092
 20
90.1477218981
 10
181.7283492127
 20
90.1385414191
 10
181.71686704
 20
90.1297722943
 10
181.7054251174
 20
90.1215725239
 10
181.6935296602
 20
90.1145448304
 10
181.6810160732
 20
90.1088901113
 10
181.6680489514
 20
90.1044074467
 10
181.6546282948
 20
90.101096829
  0
LINE
  5
2C7
100
AcDbEntity
  8
0
100
AcDbLine
 62
253
  6
CONTINUOUS
 10
153.1953317987
 20
140.1953154707
 11
153.0361884391
 21
140.2602929493
  0
LINE
  5
2C8
100
AcDbEntity
  8
0
100
AcDbLine
 62
253
  6
CONTINUOUS
 10
153.3516864104
 20
140.1303322848
 11
153.1953317987
 21
140.1953154707
  0
LINE
  5
2C9
100
AcDbEntity
  8
0
100
AcDbLine
 62
253
  6
CONTINUOUS
 10
153.5025123755
 20
140.0664821321
 11
153.3516864104
 21
140.1303322848
  0
LWPOLYLINE
  5
2CA
100
AcDbEntity
  8
0
100
AcDbPolyline
 62
253
  6
CONTINUOUS
 90
18
 70
0
 10
199.4234338475
 20
95.6047108942
 10
199.4245693691
 20
95.5999271323
 10
199.4309830591
 20
95.5930208518
 10
199.442646789
 20
95.5840223415
 10
199.459509405
 20
95.5729710663
 10
199.4814969524
 20
95.559915494
 10
199.5085130002
 20
95.5449128826
 10
199.5404390636
 20
95.5280290292
 10
199.5771351242
 20
95.5093379817
 10
199.6184402434
 20
95.4889217136
 10
199.6641732687
 20
95.4668697648
 10
199.7141336283
 20
95.4432788488
 10
199.7681022102
 20
95.4182524288
 10
199.8258423235
 20
95.3919002633
 10
199.8871007368
 20
95.3643379256
 10
199.9516087881
 20
95.335686296
 10
200.0190835634
 20
95.3060710326
 10
200.1617378725
 20
95.2444727969
  0
LWPOLYLINE
  5
2CB
100
AcDbEntity
  8
0
100
AcDbPolyline
 62
253
  6
CONTINUOUS
 90
16
 70
0
 10
200.7821251299
 20
139.4684928349
 10
200.781819059
 20
139.5116658666
 10
200.7804197483
 20
139.5560325296
 10
200.7779271978
 20
139.6015928061
 10
200.7744633081
 20
139.6481968538
 10
200.7699061786
 20
139.6959944798
 10
200.763890108
 20
139.7454351324
 10
200.7564273565
 20
139.7967159732
 10
200.7475056638
 20
139.8496397829
 10
200.7367225475
 20
139.904064433
 10
200.7240944824
 20
139.959999982
 10
200.7096049938
 20
140.017436315
 10
200.692802174
 20
140.0762010473
 10
200.6735353873
 20
140.1362367007
 10
200.6519552696
 20
140.1976006997
 10
200.6280618208
 20
140.2602930157
  0
LINE
  5
2CC
100
AcDbEntity
  8
0
100
AcDbLine
 62
253
  6
CONTINUOUS
 10
198.6821251299
 20
95.1054774571
 11
198.6821251299
 21
93.7299623072
  0
LINE
  5
2CD
100
AcDbEntity
  8
0
100
AcDbLine
 62
253
  6
CONTINUOUS
 10
198.6821251299
 20
140.2054774571
 11
198.6821251299
 21
141.580992607
  0
LINE
  5
2CE
100
AcDbEntity
  8
0
100
AcDbLine
 62
7
  6
CONTINUOUS
 10
199.4821251299
 20
95.9054770804
 11
199.4821251299
 21
139.4054776746
  0
LINE
  5
2CF
100
AcDbEntity
  8
0
100
AcDbLine
 62
253
  6
CONTINUOUS
 10
200.7821251299
 20
95.8424620793
 11
200.7821251299
 21
139.4684928349
  0
LWPOLYLINE
  5
2D0
100
AcDbEntity
  8
0
100
AcDbPolyline
 62
253
  6
CONTINUOUS
 90
16
 70
0
 10
200.6280618208
 20
95.0506618985
 10
200.6518140194
 20
95.1129337003
 10
200.6732885574
 20
95.1739467736
 10
200.6924854347
 20
95.2337010914
 10
200.709265448
 20
95.2922891722
 10
200.7237678006
 20
95.3496184472
 10
200.7364101025
 20
95.4054112548
 10
200.747190001
 20
95.4595394884
 10
200.7561098489
 20
95.5121311957
 10
200.763594314
 20
95.5632929442
 10
200.7696768883
 20
95.6129855798
 10
200.7743240799
 20
95.6612482075
 10
200.7778600806
 20
95.7083047912
 10
200.7803929545
 20
95.7542299742
 10
200.7818146376
 20
95.7989490762
 10
200.7821251299
 20
95.8424620793
  0
LWPOLYLINE
  5
2D1
100
AcDbEntity
  8
0
100
AcDbPolyline
 62
253
  6
CONTINUOUS
 90
15
 70
0
 10
221.6995467434
 20
95.1102136693
 10
221.6900661637
 20
95.106206586
 10
221.6756758418
 20
95.1022367703
 10
221.6564307363
 20
95.0983193836
 10
221.6324043473
 20
95.094469387
 10
221.6036884349
 20
95.0907014841
 10
221.5703926695
 20
95.0870300652
 10
221.5326442125
 20
95.0834691519
 10
221.4905872308
 20
95.0800323439
 10
221.4443823462
 20
95.0767327668
 10
221.3942060221
 20
95.0735830222
 10
221.340249889
 20
95.0705951395
 10
221.2827200136
 20
95.0677805299
 10
221.2218361107
 20
95.0651499426
 10
221.1578307051
 20
95.0627134244
  0
LWPOLYLINE
  5
2D2
100
AcDbEntity
  8
0
100
AcDbPolyline
 62
253
  6
CONTINUOUS
 90
15
 70
0
 10
221.6995490764
 20
95.1862907919
 10
221.6900686416
 20
95.1822969774
 10
221.6756784497
 20
95.17834018
 10
221.6564334591
 20
95.1744355113
 10
221.6324071696
 20
95.1705978838
 10
221.6036913412
 20
95.1668419541
 10
221.5703956443
 20
95.1631820666
 10
221.5326472403
 20
95.159632199
 10
221.4905902964
 20
95.1562059089
 10
221.4443854347
 20
95.1529162817
 10
221.3942091187
 20
95.1497758811
 10
221.3402529799
 20
95.1467967007
 10
221.282723085
 20
95.1439901186
 10
221.22183915
 20
95.1413668534
 10
221.1578337001
 20
95.1389369239
  0
LINE
  5
2D3
100
AcDbEntity
  8
0
100
AcDbLine
 62
253
  6
CONTINUOUS
 10
132.5064165598
 20
140.1720179903
 11
132.6428032286
 21
140.176261495
  0
LINE
  5
2D4
100
AcDbEntity
  8
0
100
AcDbLine
 62
253
  6
CONTINUOUS
 10
132.5064195553
 20
140.2482414897
 11
132.6428061028
 21
140.252495874
  0
LINE
  5
2D5
100
AcDbEntity
  8
0
100
AcDbLine
 62
253
  6
CONTINUOUS
 10
200.0598838283
 20
139.4578728289
 11
200.2071498339
 21
139.4619942318
  0
LWPOLYLINE
  5
2D6
100
AcDbEntity
  8
0
100
AcDbPolyline
 62
253
  6
CONTINUOUS
 90
25
 70
0
 10
154.9821251299
 20
141.580992607
 10
154.8806959211
 20
141.5786169836
 10
154.7794891267
 20
141.5712046579
 10
154.6785047468
 20
141.5587555911
 10
154.5774436948
 20
141.541268623
 10
154.4766050572
 20
141.5187447577
 10
154.376886094
 20
141.4911871645
 10
154.27826661
 20
141.4585148305
 10
154.1807668003
 20
141.4208084567
 10
154.0853445101
 20
141.3783137543
 10
153.9920550259
 20
141.3309777954
 10
153.9008430612
 20
141.278853075
 10
153.8125006012
 20
141.222343437
 10
153.7270613255
 20
141.1613988112
 10
153.6444915545
 20
141.0960687647
 10
153.5654822341
 20
141.0269066304
 10
153.490070871
 20
140.9538616415
 10
153.4182199584
 20
140.876984054
 10
153.3505079218
 20
140.7969788078
 10
153.2869838847
 20
140.7137982554
 10
153.2275987235
 20
140.6274895929
 10
153.1727834929
 20
140.5389001395
 10
153.1226818778
 20
140.4483122563
 10
153.0771501931
 20
140.35544327
 10
153.0361884391
 20
140.2602930157
  0
LINE
  5
2D7
100
AcDbEntity
  8
0
100
AcDbLine
 62
253
  6
CONTINUOUS
 10
132.6428032286
 20
140.176261495
 11
132.788605642
 21
140.1796305452
  0
LINE
  5
2D8
100
AcDbEntity
  8
0
100
AcDbLine
 62
253
  6
CONTINUOUS
 10
132.6428061028
 20
140.252495874
 11
132.7886083574
 21
140.2558726068
  0
LINE
  5
2D9
100
AcDbEntity
  8
0
100
AcDbLine
 62
253
  6
CONTINUOUS
 10
200.2071498339
 20
139.4619942318
 11
200.3642538261
 21
139.465148617
  0
LINE
  5
2DA
100
AcDbEntity
  8
0
100
AcDbLine
 62
253
  6
CONTINUOUS
 10
132.788605642
 20
140.1796305452
 11
132.941598557
 21
140.1820737224
  0
LINE
  5
2DB
100
AcDbEntity
  8
0
100
AcDbLine
 62
253
  6
CONTINUOUS
 10
132.7886083574
 20
140.2558726068
 11
132.9416010847
 21
140.2583201524
  0
LINE
  5
2DC
100
AcDbEntity
  8
0
100
AcDbLine
 62
253
  6
CONTINUOUS
 10
200.3642538261
 20
139.465148617
 11
200.5285077121
 21
139.4672820121
  0
LINE
  5
2DD
100
AcDbEntity
  8
0
100
AcDbLine
 62
253
  6
CONTINUOUS
 10
132.941598557
 20
140.1820737224
 11
133.099446989
 21
140.1835537385
  0
LINE
  5
2DE
100
AcDbEntity
  8
0
100
AcDbLine
 62
253
  6
CONTINUOUS
 10
132.9416010847
 20
140.2583201524
 11
133.0994493093
 21
140.2598011563
  0
LWPOLYLINE
  5
2DF
100
AcDbEntity
  8
0
100
AcDbPolyline
 62
253
  6
CONTINUOUS
 90
3
 70
0
 10
200.5285077121
 20
139.4672820121
 10
200.6971010622
 20
139.4683579141
 10
200.7821251299
 20
139.4684928349
  0
LINE
  5
2E0
100
AcDbEntity
  8
0
100
AcDbLine
 62
253
  6
CONTINUOUS
 10
133.099446989
 20
140.1835537385
 11
133.2597418482
 21
140.1840480057
  0
LINE
  5
2E1
100
AcDbEntity
  8
0
100
AcDbLine
 62
253
  6
CONTINUOUS
 10
133.0994493093
 20
140.2598011563
 11
133.2597439512
 21
140.2602930154
  0
LINE
  5
2E2
100
AcDbEntity
  8
0
100
AcDbLine
 62
253
  6
CONTINUOUS
 10
131.9647011835
 20
140.1246641223
 11
131.8321251299
 21
140.1246641223
  0
LINE
  5
2E3
100
AcDbEntity
  8
0
100
AcDbLine
 62
253
  6
CONTINUOUS
 10
221.6995490764
 20
140.1246641223
 11
221.8321251299
 21
140.1246641223
  0
LINE
  5
2E4
100
AcDbEntity
  8
0
100
AcDbLine
 62
7
  6
CONTINUOUS
 10
198.6821373013
 20
140.2054774571
 11
154.9821084315
 21
140.2054774571
  0
LINE
  5
2E5
100
AcDbEntity
  8
0
100
AcDbLine
 62
253
  6
CONTINUOUS
 10
133.259743951
 20
140.2602861724
 11
153.0361884391
 21
140.2602930157
  0
LINE
  5
2E6
100
AcDbEntity
  8
0
100
AcDbLine
 62
253
  6
CONTINUOUS
 10
198.6821251299
 20
141.580992607
 11
154.9821251299
 21
141.580992607
  0
LINE
  5
2E7
100
AcDbEntity
  8
0
100
AcDbLine
 62
253
  6
CONTINUOUS
 10
220.4848069698
 20
140.2601715547
 11
200.6280618208
 21
140.2602930157
  0
LINE
  5
2E8
100
AcDbEntity
  8
0
100
AcDbLine
 62
253
  6
CONTINUOUS
 10
220.5648032704
 20
140.1835537383
 11
220.4045084116
 21
140.1840480054
  0
LINE
  5
2E9
100
AcDbEntity
  8
0
100
AcDbLine
 62
253
  6
CONTINUOUS
 10
153.0518091803
 20
139.4679537296
 11
152.8821251299
 21
139.4684928349
  0
LINE
  5
2EA
100
AcDbEntity
  8
0
100
AcDbLine
 62
253
  6
CONTINUOUS
 10
220.6441827432
 20
140.2591832359
 11
220.4848069698
 21
140.2601715547
  0
LINE
  5
2EB
100
AcDbEntity
  8
0
100
AcDbLine
 62
253
  6
CONTINUOUS
 10
220.722651702
 20
140.1820737221
 11
220.5648032704
 21
140.1835537383
  0
LINE
  5
2EC
100
AcDbEntity
  8
0
100
AcDbLine
 62
253
  6
CONTINUOUS
 10
153.2185898895
 20
139.4663456379
 11
153.0518091803
 21
139.4679537296
  0
LINE
  5
2ED
100
AcDbEntity
  8
0
100
AcDbLine
 62
253
  6
CONTINUOUS
 10
220.7999005741
 20
140.257215203
 11
220.6441827432
 21
140.2591832359
  0
LINE
  5
2EE
100
AcDbEntity
  8
0
100
AcDbLine
 62
253
  6
CONTINUOUS
 10
220.8756446166
 20
140.179630545
 11
220.722651702
 21
140.1820737221
  0
LINE
  5
2EF
100
AcDbEntity
  8
0
100
AcDbLine
 62
253
  6
CONTINUOUS
 10
153.3796135933
 20
139.4636960748
 11
153.2185898895
 21
139.4663456379
  0
LINE
  5
2F0
100
AcDbEntity
  8
0
100
AcDbLine
 62
253
  6
CONTINUOUS
 10
220.9495838967
 20
140.2542974923
 11
220.7999005741
 21
140.257215203
  0
LINE
  5
2F1
100
AcDbEntity
  8
0
100
AcDbLine
 62
253
  6
CONTINUOUS
 10
221.0214470296
 20
140.1762614948
 11
220.8756446166
 21
140.179630545
  0
LWPOLYLINE
  5
2F2
100
AcDbEntity
  8
0
100
AcDbPolyline
 62
253
  6
CONTINUOUS
 90
25
 70
0
 10
200.6280618208
 20
140.2602930157
 10
200.5870567461
 20
140.3555314317
 10
200.5414809663
 20
140.4484758218
 10
200.4913344815
 20
140.5391263521
 10
200.4364724003
 20
140.6277649453
 10
200.3770396141
 20
140.7141099932
 10
200.3134707968
 20
140.7973164328
 10
200.2457178242
 20
140.8773363843
 10
200.1738288205
 20
140.9542181805
 10
200.0983828328
 20
141.0272611905
 10
200.0193425773
 20
141.0964156481
 10
199.9367453378
 20
141.1617318311
 10
199.8512820124
 20
141.222659246
 10
199.7629180225
 20
141.2791489626
 10
199.6716879469
 20
141.3312504144
 10
199.5783864199
 20
141.378560686
 10
199.4829500385
 20
141.4210280425
 10
199.3854422058
 20
141.4587046518
 10
199.2868477654
 20
141.4913434516
 10
199.1872100694
 20
141.5188585949
 10
199.0864857656
 20
141.5413362406
 10
198.9855296411
 20
141.5587873068
 10
198.8846266248
 20
141.5712154847
 10
198.7834917877
 20
141.5786172386
 10
198.6821251299
 20
141.580992607
  0
LWPOLYLINE
  5
2F3
100
AcDbEntity
  8
0
100
AcDbPolyline
 62
7
  6
CONTINUOUS
 90
28
 70
0
 10
221.8321251299
 20
161.0554774571
 10
221.829361057
 20
161.1494362944
 10
221.8210913716
 20
161.2430403001
 10
221.8073502224
 20
161.3359662459
 10
221.7881649336
 20
161.4279761634
 10
221.7635890329
 20
161.5187402964
 10
221.7337605835
 20
161.6077886407
 10
221.6989313936
 20
161.6945873848
 10
221.6592463806
 20
161.7789142085
 10
221.6146876567
 20
161.8608115166
 10
221.5652133791
 20
161.9402683353
 10
221.5110525128
 20
162.0168677189
 10
221.4526738614
 20
162.0900028464
 10
221.3905261503
 20
162.1591802465
 10
221.3246957769
 20
162.2243799651
 10
221.2551205481
 20
162.2857029787
 10
221.1818230225
 20
162.3431175634
 10
221.1052740953
 20
162.3962249759
 10
221.0261028344
 20
162.4445925516
 10
220.9447066232
 20
162.4880474579
 10
220.8610571382
 20
162.5266744242
 10
220.7751462692
 20
162.5604981743
 10
220.6872195927
 20
162.5893899346
 10
220.597780303
 20
162.6131390591
 10
220.5072525991
 20
162.6316472432
 10
220.4159555203
 20
162.644879667
 10
220.3241409686
 20
162.652826434
 10
220.2321251299
 20
162.6554774571
  0
LINE
  5
2F4
100
AcDbEntity
  8
0
100
AcDbLine
 62
253
  6
CONTINUOUS
 10
220.2321251299
 20
72.6554774571
 11
220.2321251299
 21
73.8794143513
  0
LINE
  5
2F5
100
AcDbEntity
  8
0
100
AcDbLine
 62
253
  6
CONTINUOUS
 10
220.2321251299
 20
161.4315405629
 11
220.2321251299
 21
162.6554774571
  0
LINE
  5
2F6
100
AcDbEntity
  8
0
100
AcDbLine
 62
253
  6
CONTINUOUS
 10
220.4025765836
 20
161.2607130867
 11
220.4044660721
 21
94.1092092011
  0
LINE
  5
2F7
100
AcDbEntity
  8
0
100
AcDbLine
 62
253
  6
CONTINUOUS
 10
221.6974704229
 20
161.0533677881
 11
221.6995467436
 21
95.1102136693
  0
LINE
  5
2F8
100
AcDbEntity
  8
0
100
AcDbLine
 62
7
  6
CONTINUOUS
 10
221.8321251299
 20
161.0554774571
 11
221.8321251299
 21
74.2554774571
  0
LINE
  5
2F9
100
AcDbEntity
  8
0
100
AcDbLine
 62
253
  6
CONTINUOUS
 10
220.4044660721
 20
94.1092092011
 11
220.4025757674
 21
74.0499852718
  0
LINE
  5
2FA
100
AcDbEntity
  8
0
100
AcDbLine
 62
253
  6
CONTINUOUS
 10
221.6995467436
 20
95.1102136693
 11
221.6974700378
 21
74.2555106828
  0
LWPOLYLINE
  5
2FB
100
AcDbEntity
  8
0
100
AcDbPolyline
 62
253
  6
CONTINUOUS
 90
46
 70
0
 10
220.4025757674
 20
74.0499852718
 10
220.4022142603
 20
74.0402835038
 10
220.4014308669
 20
74.0309318488
 10
220.4002255875
 20
74.0219302964
 10
220.3985612327
 20
74.0132902798
 10
220.3964749918
 20
74.0050003457
 10
220.3940784322
 20
73.997026155
 10
220.3913462157
 20
73.9893008967
 10
220.3883036805
 20
73.9818913669
 10
220.385138408
 20
73.9749636346
 10
220.3819184221
 20
73.9686492683
 10
220.3785756988
 20
73.9628166769
 10
220.3750937478
 20
73.9572371918
 10
220.3713975848
 20
73.9517871236
 10
220.367562194
 20
73.9465901542
 10
220.3637960379
 20
73.941788674
 10
220.360197322
 20
73.9374919639
 10
220.3566678409
 20
73.9335907303
 10
220.353121441
 20
73.9298995033
 10
220.3495605275
 20
73.9263953633
 10
220.3459826951
 20
73.9231012251
 10
220.3422945747
 20
73.9199003745
 10
220.3384411253
 20
73.9167380654
 10
220.3344773877
 20
73.9136690422
 10
220.3304751149
 20
73.9107408274
 10
220.326462071
 20
73.9079724499
 10
220.3224104918
 20
73.905344878
 10
220.3183088382
 20
73.9028485436
 10
220.3141743532
 20
73.9004901148
 10
220.3099897936
 20
73.8982629213
 10
220.305691891
 20
73.8961373881
 10
220.3012315687
 20
73.8940926891
 10
220.2966579033
 20
73.8921496491
 10
220.2920548559
 20
73.8903411697
 10
220.2874591575
 20
73.8886782933
 10
220.2828340772
 20
73.8871499759
 10
220.2781533838
 20
73.8857559888
 10
220.2734266611
 20
73.8844970036
 10
220.2686443254
 20
73.8833723475
 10
220.2637513941
 20
73.8823797753
 10
220.2587234735
 20
73.8815103622
 10
220.2535849574
 20
73.8807730322
 10
220.248354045
 20
73.8801923136
 10
220.2430368029
 20
73.8797763821
 10
220.2376271645
 20
73.8795170613
 10
220.2321251299
 20
73.8794143513
  0
LWPOLYLINE
  5
2FC
100
AcDbEntity
  8
0
100
AcDbPolyline
 62
253
  6
CONTINUOUS
 90
46
 70
0
 10
221.697441651
 20
74.2555106891
 10
221.6937674485
 20
74.1720359981
 10
221.6856563432
 20
74.0913067145
 10
221.6735282932
 20
74.0135236545
 10
221.6577925891
 20
73.9388435581
 10
221.6388501422
 20
73.8673691021
 10
221.6170868876
 20
73.7991648077
 10
221.5929055841
 20
73.7343179333
 10
221.5667033504
 20
73.6728978259
 10
221.5388428072
 20
73.6149169337
 10
221.5096379881
 20
73.560308864
 10
221.4793895219
 20
73.5090037248
 10
221.4483991577
 20
73.4609458561
 10
221.4170412418
 20
73.416172539
 10
221.385527434
 20
73.374483799
 10
221.3538528562
 20
73.3354800476
 10
221.3222920707
 20
73.2991689742
 10
221.2909723333
 20
73.2653944089
 10
221.2595402501
 20
73.2335492079
 10
221.2280928681
 20
73.2035622272
 10
221.1967102947
 20
73.1753476813
 10
221.1649153869
 20
73.1483693649
 10
221.1327305678
 20
73.1225867883
 10
221.1002463714
 20
73.0980158442
 10
221.0670175798
 20
73.0742980053
 10
221.0328832294
 20
73.0513424199
 10
220.9980569687
 20
73.029316301
 10
220.9626175653
 20
73.0082766815
 10
220.9265459582
 20
72.9882175067
 10
220.8898829105
 20
72.9691671428
 10
220.8527955439
 20
72.9512071145
 10
220.8154067898
 20
72.9343796373
 10
220.7776466037
 20
72.9186361521
 10
220.7394012617
 20
72.9039249301
 10
220.700738473
 20
72.8902763407
 10
220.661673107
 20
72.8777002163
 10
220.6220001145
 20
72.8661481528
 10
220.5817434804
 20
72.855655436
 10
220.5409326778
 20
72.8462529671
 10
220.4993585792
 20
72.8379248382
 10
220.4570663121
 20
72.8307260132
 10
220.4140576538
 20
72.8247030667
 10
220.3700555784
 20
72.8198755131
 10
220.3249896072
 20
72.816315758
 10
220.2789986223
 20
72.8141196717
 10
220.232124635
 20
72.8133713548
  0
LWPOLYLINE
  5
2FD
100
AcDbEntity
  8
0
100
AcDbPolyline
 62
253
  6
CONTINUOUS
 90
16
 70
0
 10
221.6995490759
 20
140.1246641223
 10
221.6900686408
 20
140.1286579368
 10
221.6756784486
 20
140.1326147342
 10
221.6564334578
 20
140.1365194029
 10
221.6324071681
 20
140.1403570303
 10
221.6036913395
 20
140.14411296
 10
221.5703956424
 20
140.1477728475
 10
221.5326472384
 20
140.1513227151
 10
221.4905902944
 20
140.1547490052
 10
221.4443854326
 20
140.1580386324
 10
221.3942091166
 20
140.161179033
 10
221.3402529778
 20
140.1641582133
 10
221.282723083
 20
140.1669647954
 10
221.221839148
 20
140.1695880606
 10
221.1578336982
 20
140.1720179901
 10
221.0214470296
 20
140.1762614948
  0
LWPOLYLINE
  5
2FE
100
AcDbEntity
  8
0
100
AcDbPolyline
 62
253
  6
CONTINUOUS
 90
17
 70
0
 10
221.6995467436
 20
140.2007412448
 10
221.6900661641
 20
140.2047483282
 10
221.6756758423
 20
140.2087181439
 10
221.656430737
 20
140.2126355306
 10
221.632404348
 20
140.2164855272
 10
221.6036884357
 20
140.2202534301
 10
221.5703926704
 20
140.223924849
 10
221.5326442135
 20
140.2274857624
 10
221.4905872318
 20
140.2309225704
 10
221.4443823473
 20
140.2342221475
 10
221.3942060231
 20
140.2373718921
 10
221.3402498901
 20
140.2403597748
 10
221.2827200146
 20
140.2431743844
 10
221.2218361117
 20
140.2458049717
 10
221.157830706
 20
140.2482414899
 10
221.0909482436
 20
140.2504746336
 10
220.9495838967
 20
140.2542974923
  0
LINE
  5
2FF
100
AcDbEntity
  8
0
100
AcDbLine
 62
253
  6
CONTINUOUS
 10
221.6974704229
 20
161.0533677881
 11
221.8321251299
 21
161.0554774571
  0
LINE
  5
300
100
AcDbEntity
  8
0
100
AcDbLine
 62
253
  6
CONTINUOUS
 10
133.4321251299
 20
161.4315405629
 11
220.2321251299
 21
161.4315405629
  0
LINE
  5
301
100
AcDbEntity
  8
0
100
AcDbLine
 62
253
  6
CONTINUOUS
 10
133.4321256249
 20
162.4975835598
 11
220.2321251299
 21
162.4975835598
  0
LINE
  5
302
100
AcDbEntity
  8
0
100
AcDbLine
 62
7
  6
CONTINUOUS
 10
133.4321251299
 20
162.6554774571
 11
220.2321251299
 21
162.6554774571
  0
LINE
  5
303
100
AcDbEntity
  8
0
100
AcDbLine
 62
253
  6
CONTINUOUS
 10
131.9667802221
 20
161.0554442314
 11
131.8321251299
 21
161.0554776656
  0
LWPOLYLINE
  5
304
100
AcDbEntity
  8
0
100
AcDbPolyline
 62
253
  6
CONTINUOUS
 90
25
 70
0
 10
221.6974409536
 20
74.2554774603
 10
221.6878509317
 20
74.2415352515
 10
221.6733623635
 20
74.2277308784
 10
221.6540304688
 20
74.2141169605
 10
221.6299289273
 20
74.2007453909
 10
221.6011495967
 20
74.1876671393
 10
221.5678021632
 20
74.1749320571
 10
221.5300137235
 20
74.1625886878
 10
221.4879283001
 20
74.1506840816
 10
221.4417062925
 20
74.1392636163
 10
221.3915238661
 20
74.1283708241
 10
221.3375722803
 20
74.118047226
 10
221.2800571601
 20
74.1083321733
 10
221.219197712
 20
74.0992626976
 10
221.1552258888
 20
74.0908733696
 10
221.0883855052
 20
74.0831961675
 10
221.0189313091
 20
74.076260355
 10
220.9471280102
 20
74.0700923698
 10
220.8732492714
 20
74.0647157226
 10
220.7975766657
 20
74.0601509079
 10
220.7203986029
 20
74.0564153255
 10
220.6420092307
 20
74.0535232143
 10
220.5627073132
 20
74.0514855982
 10
220.4827950929
 20
74.0503102437
 10
220.4025771378
 20
74.0500016306
  0
LWPOLYLINE
  5
305
100
AcDbEntity
  8
0
100
AcDbPolyline
 62
7
  6
CONTINUOUS
 90
28
 70
0
 10
133.4321251299
 20
162.6554774571
 10
133.3401182797
 20
162.6528270387
 10
133.2483059183
 20
162.6448810339
 10
133.157002368
 20
162.6316479738
 10
133.0664685554
 20
162.6131387261
 10
132.9770229402
 20
162.5893876584
 10
132.8890776497
 20
162.5604879512
 10
132.8031467307
 20
162.5266541158
 10
132.7194916166
 20
162.4880218303
 10
132.6380971141
 20
162.4445640281
 10
132.5589243105
 20
162.3961913091
 10
132.4823760711
 20
162.3430801507
 10
132.4090882128
 20
162.285668539
 10
132.3395218483
 20
162.2243494057
 10
132.273696611
 20
162.1591511902
 10
132.2115623444
 20
162.0899864327
 10
132.1531999395
 20
162.0168722257
 10
132.0990480387
 20
161.9402858951
 10
132.0495762083
 20
161.8608334617
 10
132.005017327
 20
161.7789392797
 10
131.9653305498
 20
161.6946145991
 10
131.9304982159
 20
161.6078135545
 10
131.9006687424
 20
161.5187657797
 10
131.876092554
 20
161.4280020693
 10
131.856903197
 20
161.3359797819
 10
131.8431582126
 20
161.243037915
 10
131.834888489
 20
161.1494312257
 10
131.8321251299
 20
161.0554776656
  0
LWPOLYLINE
  5
306
100
AcDbEntity
  8
0
100
AcDbPolyline
 62
253
  6
CONTINUOUS
 90
28
 70
0
 10
220.2321251299
 20
162.4975835598
 10
220.3163204709
 20
162.4951628686
 10
220.4002902542
 20
162.4879082262
 10
220.4837517019
 20
162.4758352183
 10
220.5664495968
 20
162.4589676027
 10
220.6481352222
 20
162.4373350629
 10
220.72852095
 20
162.4109942654
 10
220.8072705862
 20
162.3800727051
 10
220.8840253339
 20
162.3447115133
 10
220.9585338047
 20
162.3050146386
 10
221.0306752377
 20
162.2610479095
 10
221.1002826749
 20
162.2129165906
 10
221.1670342965
 20
162.1608410416
 10
221.2306678441
 20
162.1050052035
 10
221.2909974041
 20
162.0455341125
 10
221.3478278974
 20
161.9825897654
 10
221.4009688376
 20
161.9164189909
 10
221.4501797547
 20
161.8473566869
 10
221.4952011993
 20
161.7757346005
 10
221.535930356
 20
161.7017469182
 10
221.5723143297
 20
161.6255407824
 10
221.6042594062
 20
161.5473383429
 10
221.6316327599
 20
161.467502897
 10
221.6543225104
 20
161.3863675773
 10
221.6722806731
 20
161.3041448115
 10
221.6854737307
 20
161.2210554382
 10
221.6938774873
 20
161.1373706651
 10
221.6974720151
 20
161.0533678131
  0
LWPOLYLINE
  5
307
100
AcDbEntity
  8
0
100
AcDbPolyline
 62
253
  6
CONTINUOUS
 90
28
 70
0
 10
220.2321251299
 20
161.4315405629
 10
220.2421233474
 20
161.4312461486
 10
220.2520229662
 20
161.430376788
 10
220.2618239862
 20
161.4289324795
 10
220.2715531438
 20
161.4269062706
 10
220.2811837026
 20
161.4243051073
 10
220.2906354539
 20
161.4211498339
 10
220.299914255
 20
161.4174394991
 10
220.3090142487
 20
161.4131750418
 10
220.3178376537
 20
161.4083801407
 10
220.3264141814
 20
161.4030068121
 10
220.3347141204
 20
161.3971030215
 10
220.3425505557
 20
161.3908363734
 10
220.3498309398
 20
161.3842905884
 10
220.3566478201
 20
161.3773819319
 10
220.3630919241
 20
161.3700268256
 10
220.3692475899
 20
161.3621320082
 10
220.3750304794
 20
161.3537907175
 10
220.3802783055
 20
161.345199126
 10
220.3849412837
 20
161.3363846828
 10
220.3890691984
 20
161.3273199252
 10
220.3926491165
 20
161.3181186666
 10
220.3956774024
 20
161.3088025083
 10
220.3981576916
 20
161.2993498412
 10
220.400087957
 20
161.2898096674
 10
220.401467523
 20
161.2801983198
 10
220.4022970652
 20
161.2704994605
 10
220.4025765836
 20
161.2607130867
  0
LWPOLYLINE
  5
308
100
AcDbEntity
  8
0
100
AcDbPolyline
 62
253
  6
CONTINUOUS
 90
25
 70
0
 10
221.6974704225
 20
161.0533680481
 10
221.6878984121
 20
161.0673252731
 10
221.6734260087
 20
161.0811517219
 10
221.6541083892
 20
161.0947946803
 10
221.6300192038
 20
161.1082021332
 10
221.6012502942
 20
161.1213229637
 10
221.5679113442
 20
161.1341071477
 10
221.5301294612
 20
161.1465059442
 10
221.4880486915
 20
161.158472082
 10
221.4418294714
 20
161.1699599392
 10
221.3916480153
 20
161.1809257173
 10
221.3376956439
 20
161.1913276085
 10
221.2801780549
 20
161.2011259548
 10
221.2193145386
 20
161.2102833991
 10
221.1553371419
 20
161.218765028
 10
221.0884897836
 20
161.2265385045
 10
221.0190273246
 20
161.2335741916
 10
220.9472145958
 20
161.2398452652
 10
220.8733253891
 20
161.2453278164
 10
220.7976414128
 20
161.2500009424
 10
220.7204512179
 20
161.2538468265
 10
220.6420490981
 20
161.256850806
 10
220.5627339677
 20
161.259001428
 10
220.4828082218
 20
161.260290493
 10
220.4025765836
 20
161.2607130864
  0
LINE
  5
309
100
AcDbEntity
  8
0
100
AcDbLine
 62
7
  6
CONTINUOUS
 10
112.9428604678
 20
74.2554774571
 11
113.0125765223
 21
74.2679978699
  0
LINE
  5
30A
100
AcDbEntity
  8
0
100
AcDbLine
 62
253
  6
CONTINUOUS
 10
111.4034154357
 20
74.2554774603
 11
110.2974184726
 21
74.0601509079
  0
LWPOLYLINE
  5
30B
100
AcDbEntity
  8
0
100
AcDbPolyline
 62
253
  6
CONTINUOUS
 90
5
 70
0
 10
110.2974184726
 20
74.0601509079
 10
110.258758508
 20
74.0535232143
 10
110.2465877324
 20
74.0514855982
 10
110.2392577005
 20
74.0503102437
 10
110.236796349
 20
74.0500016306
  0
LWPOLYLINE
  5
30C
100
AcDbEntity
  8
RACCORDO
100
AcDbPolyline
 62
253
  6
CONTINUOUS
 90
13
 70
0
 10
113.3021322554
 20
73.9462265551
 10
113.4567914804
 20
73.9695331421
 10
113.6114516152
 20
73.9973760893
 10
113.7659608135
 20
74.029765121
 10
113.919976539
 20
74.0665218695
 10
114.0735040162
 20
74.1078442535
 10
114.2268893133
 20
74.1543081338
 10
114.3800997557
 20
74.2058521921
 10
114.5327247221
 20
74.2625615083
 10
114.6845309261
 20
74.3252350711
 10
114.8352929336
 20
74.3941493902
 10
114.9848072793
 20
74.4690563587
 10
115.132870268
 20
74.5499699334
  0
LINE
  5
30D
100
AcDbEntity
  8
RACCORDO
100
AcDbLine
 62
253
  6
CONTINUOUS
 10
115.132870268
 20
74.5499699334
 11
113.1955458112
 21
74.5382659448
  0
LINE
  5
30E
100
AcDbEntity
  8
0
100
AcDbLine
 62
253
  6
CONTINUOUS
 10
111.4037397548
 20
74.2555106828
 11
112.9428604678
 21
74.2554774571
  0
LINE
  5
30F
100
AcDbEntity
  8
0
100
AcDbLine
 62
7
  6
CONTINUOUS
 10
111.4336011531
 20
72.8133713544
 11
113.2383366578
 21
72.6554774571
  0
LINE
  5
310
100
AcDbEntity
  8
RACCORDO
100
AcDbLine
 62
7
  6
CONTINUOUS
 10
113.336947845
 20
73.7554774571
 11
113.1929732808
 21
73.7680735993
  0
LINE
  5
311
100
AcDbEntity
  8
RACCORDO
100
AcDbLine
 62
253
  6
CONTINUOUS
 10
113.1576212852
 20
74.7519557467
 11
112.9256333109
 21
74.7722633115
  0
LINE
  5
312
100
AcDbEntity
  8
0
100
AcDbLine
 62
7
  6
CONTINUOUS
 10
113.0125765142
 20
161.0429569807
 11
113.2382719064
 21
161.6675496183
  0
LINE
  5
313
100
AcDbEntity
  8
0
100
AcDbLine
 62
7
  6
CONTINUOUS
 10
113.2382719064
 20
161.6675496183
 11
113.307535507
 21
161.8570917783
  0
LINE
  5
314
100
AcDbEntity
  8
0
100
AcDbLine
 62
253
  6
CONTINUOUS
 10
110.5468731033
 20
95.1862907919
 11
110.6165970276
 21
95.1897976557
  0
LINE
  5
315
100
AcDbEntity
  8
0
100
AcDbLine
 62
253
  6
CONTINUOUS
 10
109.0353392048
 20
95.1102136693
 11
107.8502817758
 21
95.0506618987
  0
LINE
  5
316
100
AcDbEntity
  8
0
100
AcDbLine
 62
253
  6
CONTINUOUS
 10
109.031521877
 20
95.1862907919
 11
107.8464534055
 21
95.1269069085
  0
LINE
  5
317
100
AcDbEntity
  8
0
100
AcDbLine
 62
253
  6
CONTINUOUS
 10
115.8502817729
 20
95.2868682646
 11
113.1188724021
 21
95.2415151624
  0
LINE
  5
318
100
AcDbEntity
  8
0
100
AcDbLine
 62
253
  6
CONTINUOUS
 10
113.1188724021
 20
95.2415151624
 11
110.8443653942
 21
95.2061441237
  0
LINE
  5
319
100
AcDbEntity
  8
0
100
AcDbLine
 62
253
  6
CONTINUOUS
 10
109.031521877
 20
95.1862907919
 11
110.5468731033
 21
95.1862907919
  0
LINE
  5
31A
100
AcDbEntity
  8
RACCORDO
100
AcDbLine
 62
253
  6
CONTINUOUS
 10
110.6165970276
 20
95.2061441237
 11
110.8443653942
 21
95.2061441237
  0
LWPOLYLINE
  5
31B
100
AcDbEntity
  8
RACCORDO
100
AcDbPolyline
 62
253
  6
CONTINUOUS
 90
19
 70
0
 10
115.1328701606
 20
74.5499699263
 10
115.1550403348
 20
74.5021550961
 10
115.1748275555
 20
74.454419143
 10
115.1921374612
 20
74.4069897115
 10
115.2068875041
 20
74.3600929843
 10
115.219007344
 20
74.313952604
 10
115.2284391836
 20
74.2687886064
 10
115.2351380444
 20
74.2248163707
 10
115.2390719809
 20
74.1822455928
 10
115.2402222333
 20
74.1412792855
 10
115.2385833163
 20
74.10211281
 10
115.2341630461
 20
74.064932944
 10
115.2269825024
 20
74.0299169919
 10
115.2170759283
 20
73.9972319385
 10
115.2044905668
 20
73.9670336528
 10
115.1892864354
 20
73.939466145
 10
115.1715360402
 20
73.9146608794
 10
115.15132403
 20
73.892736148
 10
115.1287467925
 20
73.8737965058
  0
LINE
  5
31C
100
AcDbEntity
  8
0
100
AcDbLine
 62
7
  6
CONTINUOUS
 10
113.308061252
 20
73.4524332156
 11
113.1881611373
 21
73.7813368037
  0
LINE
  5
31D
100
AcDbEntity
  8
0
100
AcDbLine
 62
7
  6
CONTINUOUS
 10
113.1881611373
 20
73.7813368037
 11
113.0125765223
 21
74.2679978699
  0
LWPOLYLINE
  5
31E
100
AcDbEntity
  8
0
100
AcDbPolyline
 62
7
  6
CONTINUOUS
 90
10
 70
0
 10
112.9428604678
 20
161.0554774571
 10
112.5450332927
 20
158.7470940151
 10
112.1800669922
 20
156.4333064814
 10
111.8479619725
 20
154.1145812961
 10
111.5486656172
 20
151.7913847644
 10
111.2822313551
 20
149.4641834668
 10
111.0488186599
 20
147.1334442617
 10
110.8484809601
 20
144.7996337365
 10
110.6811656392
 20
142.4632182056
 10
110.5468731033
 20
140.1246641223
  0
LWPOLYLINE
  5
31F
100
AcDbEntity
  8
0
100
AcDbPolyline
 62
7
  6
CONTINUOUS
 90
10
 70
0
 10
113.012576526
 20
161.0429570443
 10
112.6147506809
 20
158.7355908674
 10
112.2497855929
 20
156.4228152267
 10
111.9176816696
 20
154.1050971763
 10
111.6183862966
 20
151.7829036369
 10
111.3519529039
 20
149.4567018023
 10
111.1185409663
 20
147.1269591411
 10
110.9182039139
 20
144.7941428539
 10
110.7508891317
 20
142.4587198705
 10
110.6165970276
 20
140.1211572584
  0
LWPOLYLINE
  5
320
100
AcDbEntity
  8
0
100
AcDbPolyline
 62
253
  6
CONTINUOUS
 90
22
 70
0
 10
111.4033712588
 20
161.0533677881
 10
111.220735517
 20
160.0055982104
 10
111.0455930434
 20
158.9630151524
 10
110.8779429496
 20
157.9256822064
 10
110.7178976625
 20
156.893677314
 10
110.5653429895
 20
155.867044725
 10
110.4199381271
 20
154.8457948706
 10
110.2816800984
 20
153.8299827313
 10
110.1505701558
 20
152.8196655066
 10
110.0262738584
 20
151.8148543524
 10
109.9087883357
 20
150.8155997335
 10
109.7981147714
 20
149.8219539429
 10
109.6939248232
 20
148.8339284533
 10
109.5962156671
 20
147.8515693295
 10
109.5049884764
 20
146.8749243538
 10
109.4199209203
 20
145.9040053093
 10
109.3410102289
 20
144.9388543337
 10
109.268257556
 20
143.979514706
 10
109.201346471
 20
143.0259977989
 10
109.1401709711
 20
142.0783331921
 10
109.0848354773
 20
141.1365687359
 10
109.0353392048
 20
140.2007412448
  0
LINE
  5
321
100
AcDbEntity
  8
0
100
AcDbLine
 62
7
  6
CONTINUOUS
 10
112.9428604678
 20
161.0554774571
 11
113.0744439019
 21
161.7789142085
  0
LINE
  5
322
100
AcDbEntity
  8
0
100
AcDbLine
 62
7
  6
CONTINUOUS
 10
113.0744439019
 20
161.7789142085
 11
113.2139474863
 21
162.5266744242
  0
LINE
  5
323
100
AcDbEntity
  8
0
100
AcDbLine
 62
7
  6
CONTINUOUS
 10
113.2139474863
 20
162.5266744242
 11
113.2383366578
 21
162.6554774571
  0
LWPOLYLINE
  5
324
100
AcDbEntity
  8
0
100
AcDbPolyline
 62
253
  6
CONTINUOUS
 90
21
 70
0
 10
109.0847761342
 20
94.1753944494
 10
109.1400513368
 20
93.2345263827
 10
109.2011656109
 20
92.2876463028
 10
109.2680127147
 20
91.3348019956
 10
109.3407004998
 20
90.3760232074
 10
109.4195509168
 20
89.4113217087
 10
109.5045627542
 20
88.4407409667
 10
109.5957388684
 20
87.4643231692
 10
109.6934073265
 20
86.4820803254
 10
109.797566901
 20
85.4940604188
 10
109.9082205001
 20
84.500309701
 10
110.0257024099
 20
83.5008398893
 10
110.1500113931
 20
82.4957035648
 10
110.2811504047
 20
81.4849514559
 10
110.4194600373
 20
80.4685949694
 10
110.564939227
 20
79.4466904484
 10
110.7175907941
 20
78.4192944627
 10
110.8777611765
 20
77.3864213977
 10
111.0455664548
 20
76.3481171176
 10
111.220892346
 20
75.3044588485
 10
111.4037397548
 20
74.2555106828
  0
LINE
  5
325
100
AcDbEntity
  8
0
100
AcDbLine
 62
253
  6
CONTINUOUS
 10
109.031521877
 20
95.1862907919
 11
109.0847761342
 21
94.1753944494
  0
LWPOLYLINE
  5
326
100
AcDbEntity
  8
0
100
AcDbPolyline
 62
253
  6
CONTINUOUS
 90
12
 70
0
 10
108.8596120105
 20
136.3821928139
 10
108.7189558144
 20
132.6384139025
 10
108.6095532875
 20
128.8935901501
 10
108.5314011635
 20
125.1479863764
 10
108.4845027062
 20
121.4018632778
 10
108.4688677104
 20
117.6554774246
 10
108.4845027073
 20
113.9090915622
 10
108.5314011658
 20
110.1629684484
 10
108.6095532902
 20
106.4173646726
 10
108.7189558168
 20
102.6725409376
 10
108.859612012
 20
98.9287620567
 10
109.031521877
 20
95.1862907919
  0
LWPOLYLINE
  5
327
100
AcDbEntity
  8
0
100
AcDbPolyline
 62
7
  6
CONTINUOUS
 90
13
 70
0
 10
110.5468731033
 20
140.1246641223
 10
110.3743364478
 20
136.3821720469
 10
110.2331675964
 20
132.6383806671
 10
110.1233665462
 20
128.8935527551
 10
110.0449302359
 20
125.1479559085
 10
109.9978617207
 20
121.401848057
 10
109.982170176
 20
117.6554774571
 10
109.9978617207
 20
113.9091068572
 10
110.0449302359
 20
110.1629990057
 10
110.1233665462
 20
106.4174021591
 10
110.2331675964
 20
102.6725742471
 10
110.3743364478
 20
98.9287828673
 10
110.5468731033
 20
95.1862907919
  0
LWPOLYLINE
  5
328
100
AcDbEntity
  8
0
100
AcDbPolyline
 62
7
  6
CONTINUOUS
 90
13
 70
0
 10
110.6165970276
 20
140.1211572584
 10
110.4440605773
 20
136.3792507861
 10
110.3028918938
 20
132.6360443962
 10
110.1930909742
 20
128.891800983
 10
110.1146547571
 20
125.1467882656
 10
110.0675862979
 20
121.4012642966
 10
110.0518947719
 20
117.6554774571
 10
110.0675862979
 20
113.9096906176
 10
110.1146547571
 20
110.1641666486
 10
110.1930909742
 20
106.4191539312
 10
110.3028918938
 20
102.674910518
 10
110.4440605773
 20
98.931704128
 10
110.6165970276
 20
95.1897976557
  0
LINE
  5
329
100
AcDbEntity
  8
0
100
AcDbLine
 62
253
  6
CONTINUOUS
 10
109.0353392048
 20
140.2007412448
 11
108.8596120105
 21
136.3821928139
  0
LINE
  5
32A
100
AcDbEntity
  8
0
100
AcDbLine
 62
7
  6
CONTINUOUS
 10
113.2383366578
 20
72.6554774571
 11
113.1042487759
 21
73.3706691281
  0
LINE
  5
32B
100
AcDbEntity
  8
0
100
AcDbLine
 62
7
  6
CONTINUOUS
 10
113.1042487759
 20
73.3706691281
 11
112.9766562756
 21
74.0679171915
  0
LINE
  5
32C
100
AcDbEntity
  8
0
100
AcDbLine
 62
7
  6
CONTINUOUS
 10
112.9766562756
 20
74.0679171915
 11
112.9428604678
 21
74.2554774571
  0
LWPOLYLINE
  5
32D
100
AcDbEntity
  8
0
100
AcDbPolyline
 62
7
  6
CONTINUOUS
 90
10
 70
0
 10
110.6165970276
 20
95.1897976557
 10
110.7508891319
 20
92.8522350401
 10
110.9182039141
 20
90.5168120532
 10
111.1185409668
 20
88.1839957625
 10
111.3519529047
 20
85.8542530966
 10
111.6183862977
 20
83.5280512573
 10
111.9176816705
 20
81.2058577169
 10
112.2497855928
 20
78.88813967
 10
112.6147506793
 20
76.5753640363
 10
113.0125765223
 20
74.2679978699
  0
LWPOLYLINE
  5
32E
100
AcDbEntity
  8
0
100
AcDbPolyline
 62
7
  6
CONTINUOUS
 90
10
 70
0
 10
110.5468731033
 20
95.1862907919
 10
110.6811656392
 20
92.8477367086
 10
110.8484809601
 20
90.5113211777
 10
111.0488186599
 20
88.1775106525
 10
111.2822313551
 20
85.8467714474
 10
111.5486656172
 20
83.5195701498
 10
111.8479619725
 20
81.1963736181
 10
112.1800669922
 20
78.8776484327
 10
112.5450332927
 20
76.5638608991
 10
112.9428604678
 20
74.2554774571
  0
LINE
  5
32F
100
AcDbEntity
  8
0
100
AcDbLine
 62
253
  6
CONTINUOUS
 10
111.4333483564
 20
72.8247030667
 11
111.4336107551
 21
72.8141196717
  0
LINE
  5
330
100
AcDbEntity
  8
0
100
AcDbLine
 62
253
  6
CONTINUOUS
 10
111.4034147472
 20
74.2555106891
 11
111.4333483564
 21
72.8247030667
  0
LINE
  5
331
100
AcDbEntity
  8
RACCORDO
100
AcDbLine
 62
7
  6
CONTINUOUS
 10
113.8502817729
 20
114.3232973833
 11
113.8502817729
 21
120.9876575309
  0
LINE
  5
332
100
AcDbEntity
  8
0
100
AcDbLine
 62
253
  6
CONTINUOUS
 10
111.4336107551
 20
72.8141196717
 11
111.4336011486
 21
72.8133713548
  0
LINE
  5
333
100
AcDbEntity
  8
0
100
AcDbLine
 62
253
  6
CONTINUOUS
 10
111.4336011531
 20
162.4975835598
 11
111.4335606604
 21
162.4951628686
  0
LINE
  5
334
100
AcDbEntity
  8
0
100
AcDbLine
 62
253
  6
CONTINUOUS
 10
111.4135611007
 20
161.5473383429
 11
111.4033720516
 21
161.0533678131
  0
LINE
  5
335
100
AcDbEntity
  8
0
100
AcDbLine
 62
253
  6
CONTINUOUS
 10
111.4335606604
 20
162.4951628686
 11
111.4135611007
 21
161.5473383429
  0
LINE
  5
336
100
AcDbEntity
  8
0
100
AcDbLine
 62
7
  6
CONTINUOUS
 10
113.2383366578
 20
162.6554774571
 11
113.308061252
 21
161.8585216986
  0
LINE
  5
337
100
AcDbEntity
  8
RACCORDO
100
AcDbLine
 62
7
  6
CONTINUOUS
 10
115.8502817729
 20
74.5554772261
 11
115.8502817729
 21
95.2868682646
  0
LINE
  5
338
100
AcDbEntity
  8
DRAFT
100
AcDbLine
 62
7
  6
CONTINUOUS
 10
115.8502817729
 20
95.2868682646
 11
115.8502817729
 21
113.8028234957
  0
LINE
  5
339
100
AcDbEntity
  8
DRAFT
100
AcDbLine
 62
7
  6
CONTINUOUS
 10
115.8502817729
 20
121.5081314185
 11
115.8502817729
 21
140.0240866496
  0
LINE
  5
33A
100
AcDbEntity
  8
RACCORDO
100
AcDbLine
 62
7
  6
CONTINUOUS
 10
115.8502817729
 20
140.0240866496
 11
115.8502817729
 21
160.7554776896
  0
LINE
  5
33B
100
AcDbEntity
  8
0
100
AcDbLine
 62
7
  6
CONTINUOUS
 10
113.2383366578
 20
72.6554774571
 11
113.308061252
 21
73.4524332156
  0
LINE
  5
33C
100
AcDbEntity
  8
RACCORDO
100
AcDbLine
 62
7
  6
CONTINUOUS
 10
115.8502817729
 20
113.8028234957
 11
114.0155521374
 21
114.1263358327
  0
LINE
  5
33D
100
AcDbEntity
  8
0
100
AcDbLine
 62
253
  6
CONTINUOUS
 10
113.8502817729
 20
117.6554774571
 11
110.2802817729
 21
117.6554774571
  0
LINE
  5
33E
100
AcDbEntity
  8
RACCORDO
100
AcDbLine
 62
7
  6
CONTINUOUS
 10
114.0155521374
 20
121.1846190815
 11
115.8502817729
 21
121.5081314185
  0
LWPOLYLINE
  5
33F
100
AcDbEntity
  8
RACCORDO
100
AcDbPolyline
 62
253
  6
CONTINUOUS
 90
13
 70
0
 10
115.132870268
 20
74.5499699334
 10
115.2143350862
 20
74.598739572
 10
115.2912264764
 20
74.6469361243
 10
115.363664647
 20
74.6945562178
 10
115.4316047141
 20
74.7416372298
 10
115.4953411612
 20
74.788135279
 10
115.5554797494
 20
74.8339254531
 10
115.6121452071
 20
74.8789815686
 10
115.6654050209
 20
74.9233243221
 10
115.7157362396
 20
74.9668996762
 10
115.7633409096
 20
75.0096881969
 10
115.80816495
 20
75.0517048171
 10
115.8502818054
 20
75.0929473821
  0
LINE
  5
340
100
AcDbEntity
  8
RACCORDO
100
AcDbLine
 62
253
  6
CONTINUOUS
 10
110.6165970276
 20
140.1048107905
 11
110.8443653942
 21
140.1048107905
  0
LINE
  5
341
100
AcDbEntity
  8
0
100
AcDbLine
 62
253
  6
CONTINUOUS
 10
109.031521877
 20
140.1246641223
 11
110.5468731033
 21
140.1246641223
  0
LINE
  5
342
100
AcDbEntity
  8
0
100
AcDbLine
 62
253
  6
CONTINUOUS
 10
115.8502817729
 20
140.0240866496
 11
110.8443653942
 21
140.1048107905
  0
LINE
  5
343
100
AcDbEntity
  8
0
100
AcDbLine
 62
253
  6
CONTINUOUS
 10
109.031521877
 20
140.1246641223
 11
107.8464534111
 21
140.1840480054
  0
LINE
  5
344
100
AcDbEntity
  8
0
100
AcDbLine
 62
253
  6
CONTINUOUS
 10
110.5468731033
 20
140.1246641223
 11
110.6165970276
 21
140.1211572584
  0
LINE
  5
345
100
AcDbEntity
  8
0
100
AcDbLine
 62
253
  6
CONTINUOUS
 10
109.0353392048
 20
140.2007412448
 11
107.8502817729
 21
140.2602930157
  0
LWPOLYLINE
  5
346
100
AcDbEntity
  8
RACCORDO
100
AcDbPolyline
 62
253
  6
CONTINUOUS
 90
19
 70
0
 10
115.1287481454
 20
161.4371602516
 10
115.1513253331
 20
161.4182204876
 10
115.1715372815
 20
161.3962956274
 10
115.189287604
 20
161.3714902282
 10
115.2044916533
 20
161.3439225839
 10
115.2170769248
 20
161.3137241611
 10
115.2269834025
 20
161.2810389724
 10
115.2341638453
 20
161.2460228893
 10
115.238584012
 20
161.2088428982
 10
115.2402228249
 20
161.1696763044
 10
115.23907247
 20
161.1287098875
 10
115.235138434
 20
161.0861390097
 10
115.2284394788
 20
161.042166683
 10
115.2190075511
 20
160.9970026041
 10
115.206887631
 20
160.9508621524
 10
115.1921375162
 20
160.9039653613
 10
115.1748275474
 20
160.8565358723
 10
115.1550402731
 20
160.8087998688
 10
115.1328700554
 20
160.7609849947
  0
LWPOLYLINE
  5
347
100
AcDbEntity
  8
RACCORDO
100
AcDbPolyline
 62
253
  6
CONTINUOUS
 90
10
 70
0
 10
115.132870268
 20
160.7609849808
 10
115.2309790938
 20
160.7020214062
 10
115.3241740687
 20
160.6425804423
 10
115.4125935685
 20
160.582664783
 10
115.4964090227
 20
160.5221052117
 10
115.5757417001
 20
160.4610762343
 10
115.65065636
 20
160.4000968794
 10
115.7212717709
 20
160.339342745
 10
115.7877643714
 20
160.2786451966
 10
115.8502817715
 20
160.2180075643
  0
LINE
  5
348
100
AcDbEntity
  8
RACCORDO
100
AcDbLine
 62
253
  6
CONTINUOUS
 10
112.9256333217
 20
160.5386916446
 11
113.1576212852
 21
160.5589991675
  0
LINE
  5
349
100
AcDbEntity
  8
RACCORDO
100
AcDbLine
 62
253
  6
CONTINUOUS
 10
115.132870268
 20
160.7609849808
 11
113.1955458112
 21
160.7726889694
  0
LWPOLYLINE
  5
34A
100
AcDbEntity
  8
RACCORDO
100
AcDbPolyline
 62
253
  6
CONTINUOUS
 90
16
 70
0
 10
113.3021326077
 20
161.3647282995
 10
113.4249032241
 20
161.3465205011
 10
113.5476637481
 20
161.3255063943
 10
113.6703396244
 20
161.3016812327
 10
113.7926768975
 20
161.2751521804
 10
113.9147686758
 20
161.2458025792
 10
114.0370472652
 20
161.2132911064
 10
114.159499914
 20
161.1776379432
 10
114.2819252779
 20
161.1388113117
 10
114.40445341
 20
161.0963902011
 10
114.5271192777
 20
161.0503832963
 10
114.6496164754
 20
161.000767977
 10
114.771570699
 20
160.9470745841
 10
114.8927967357
 20
160.8891410761
 10
115.013267192
 20
160.8271138006
 10
115.132870268
 20
160.7609849808
  0
LINE
  5
34B
100
AcDbEntity
  8
0
100
AcDbLine
 62
253
  6
CONTINUOUS
 10
110.3236283925
 20
161.2453278164
 11
110.2367536196
 21
161.2607130864
  0
LINE
  5
34C
100
AcDbEntity
  8
0
100
AcDbLine
 62
253
  6
CONTINUOUS
 10
111.4033713026
 20
161.0533680481
 11
110.3236283925
 21
161.2453278164
  0
LINE
  5
34D
100
AcDbEntity
  8
0
100
AcDbLine
 62
7
  6
CONTINUOUS
 10
112.9428604678
 20
161.0554774571
 11
113.012576521
 21
161.0429570129
  0
LINE
  5
34E
100
AcDbEntity
  8
RACCORDO
100
AcDbLine
 62
7
  6
CONTINUOUS
 10
113.336947845
 20
161.5554774571
 11
113.1929773074
 21
161.5428816672
  0
LINE
  5
34F
100
AcDbEntity
  8
0
100
AcDbLine
 62
7
  6
CONTINUOUS
 10
111.4336011531
 20
162.4975835598
 11
113.2383366578
 21
162.6554774571
  0
LINE
  5
350
100
AcDbEntity
  8
0
100
AcDbLine
 62
253
  6
CONTINUOUS
 10
111.4033712588
 20
161.0533677881
 11
112.9428604678
 21
161.0554774571
  0
ARC
  5
351
100
AcDbEntity
  8
0
100
AcDbCircle
 62
7
  6
CONTINUOUS
 10
154.9821251299
 20
139.4054774571
 40
0.8
100
AcDbArc
 50
90.0011959412
 51
179.9999730241
  0
ARC
  5
352
100
AcDbEntity
  8
0
100
AcDbCircle
 62
7
  6
CONTINUOUS
 10
198.6821251299
 20
139.4054774571
 40
0.8
100
AcDbArc
 50
0.0000155758
 51
89.9991282885
  0
ARC
  5
353
100
AcDbEntity
  8
0
100
AcDbCircle
 62
7
  6
CONTINUOUS
 10
198.6821251299
 20
95.9054774571
 40
0.8
100
AcDbArc
 50
270.0010785883
 51
359.9999730189
  0
ARC
  5
354
100
AcDbEntity
  8
0
100
AcDbCircle
 62
7
  6
CONTINUOUS
 10
154.9821251299
 20
95.9054774571
 40
0.8
100
AcDbArc
 50
180.0000319422
 51
269.999393162
  0
ARC
  5
355
100
AcDbEntity
  8
0
100
AcDbCircle
 62
7
  6
CONTINUOUS
 10
275.758943245
 20
103.4958666586
 40
168.1209091124
100
AcDbArc
 50
182.8793442355
 51
190.1462645046
  0
ARC
  5
356
100
AcDbEntity
  8
0
100
AcDbCircle
 62
7
  6
CONTINUOUS
 10
275.755995176
 20
103.4988374571
 40
165.12
100
AcDbArc
 50
182.8787323946
 51
190.1014160662
  0
ARC
  5
357
100
AcDbEntity
  8
RACCORDO
100
AcDbCircle
 62
7
  6
CONTINUOUS
 10
275.755995176
 20
103.4988374571
 40
165.12
100
AcDbArc
 50
190.1014160662
 51
190.5891670948
  0
ARC
  5
358
100
AcDbEntity
  8
RACCORDO
100
AcDbCircle
 62
7
  6
CONTINUOUS
 10
112.7499005783
 20
77.1144281943
 40
4.0200239337
100
AcDbArc
 50
279.9999994914
 51
320.4648724279
  0
ARC
  5
359
100
AcDbEntity
  8
0
100
AcDbCircle
 62
7
  6
CONTINUOUS
 10
111.5469023924
 20
74.1084313152
 40
1.3
100
AcDbArc
 50
190.1465713461
 51
265.0
  0
ARC
  5
35A
100
AcDbEntity
  8
RACCORDO
100
AcDbCircle
 62
7
  6
CONTINUOUS
 10
114.0502817729
 20
114.3232973833
 40
0.2
100
AcDbArc
 50
180.0
 51
260.0
  0
ARC
  5
35B
100
AcDbEntity
  8
0
100
AcDbCircle
 62
7
  6
CONTINUOUS
 10
275.758943245
 20
131.8150882556
 40
168.1209091124
100
AcDbArc
 50
169.8537354954
 51
177.1206560459
  0
ARC
  5
35C
100
AcDbEntity
  8
0
100
AcDbCircle
 62
7
  6
CONTINUOUS
 10
275.755995176
 20
131.8121174571
 40
165.12
100
AcDbArc
 50
169.8985839314
 51
177.1212676054
  0
ARC
  5
35D
100
AcDbEntity
  8
RACCORDO
100
AcDbCircle
 62
7
  6
CONTINUOUS
 10
275.755995176
 20
131.8121174571
 40
165.12
100
AcDbArc
 50
169.4108329051
 51
169.8985839314
  0
ARC
  5
35E
100
AcDbEntity
  8
RACCORDO
100
AcDbCircle
 62
7
  6
CONTINUOUS
 10
112.7499005783
 20
158.1965267199
 40
4.0200239337
100
AcDbArc
 50
39.5351276004
 51
80.0000000614
  0
ARC
  5
35F
100
AcDbEntity
  8
0
100
AcDbCircle
 62
7
  6
CONTINUOUS
 10
111.5469036187
 20
161.2025304523
 40
1.3
100
AcDbArc
 50
95.0
 51
169.8537354954
  0
ARC
  5
360
100
AcDbEntity
  8
RACCORDO
100
AcDbCircle
 62
7
  6
CONTINUOUS
 10
114.0502817729
 20
120.9876575309
 40
0.2
100
AcDbArc
 50
100.0
 51
180.0
  0
ARC
  5
361
100
AcDbEntity
  8
0
100
AcDbCircle
 62
7
  6
CONTINUOUS
 10
557.282170176
 20
117.6554774571
 40
450.0
100
AcDbArc
 50
177.1206545731
 51
182.8793455321
  0
ARC
  5
362
100
AcDbEntity
  8
0
100
AcDbCircle
 62
7
  6
CONTINUOUS
 10
557.2802817729
 20
117.6554774571
 40
447.0
100
AcDbArc
 50
177.1212676054
 51
182.8787323946
  0
ENDSEC
  0
SECTION
  2
OBJECTS
  0
DICTIONARY
  5
C
100
AcDbDictionary
280
0
281
1
  3
ACAD_GROUP
350
D
  3
ACAD_MLINESTYLE
350
17
  3
ACAD_LAYOUT
350
1A
  3
ACAD_PLOTSETTINGS
350
19
  3
ACAD_PLOTSTYLENAME
350
E
  0
DICTIONARY
  5
D
102
{ACAD_REACTORS
330
C
102
}
100
AcDbDictionary
280
0
281
1
  0
ACDBDICTIONARYWDFLT
  5
E
102
{ACAD_REACTORS
330
C
102
}
100
AcDbDictionary
281
1
  3
Normal
350
F
100
AcDbDictionaryWithDefault
340
F
  0
DICTIONARY
  5
17
102
{ACAD_REACTORS
330
C
102
}
100
AcDbDictionary
280
0
281
1
  3
Standard
350
18
  0
DICTIONARY
  5
19
102
{ACAD_REACTORS
330
C
102
}
100
AcDbDictionary
281
1
  0
DICTIONARY
  5
1A
102
{ACAD_REACTORS
330
C
102
}
100
AcDbDictionary
281
1
  3
Model
350
363
  3
Layout1
350
364
  0
ACDBPLACEHOLDER
  5
F
102
{ACAD_REACTORS
330
E
102
}
  0
MLINESTYLE
  5
18
102
{ACAD_REACTORS
330
17
102
}
100
AcDbMlineStyle
  2
STANDARD
 70
0
  3

 62
256
 51
90.0
 52
90.0
 71
2
 49
0.5
 62
256
  6
BYLAYER
 49
-0.5
 62
256
  6
BYLAYER
  0
LAYOUT
  5
363
102
{ACAD_REACTORS
330
1A
102
}
100
AcDbPlotSettings
  1

  2
none_device
  4
ISO_A4_(297.00_x_210.00_MM)
  6

 40
0.0
 41
0.0
 42
0.0
 43
0.0
 44
297.0
 45
210.0
 46
0.0
 47
0.0
 48
0.0
 49
0.0
140
0.0
141
0.0
142
1.0
143
1.0
 70
1024
 72
1
 73
0
 74
0
  7

 75
0
147
1.0
148
0.0
149
0.0
100
AcDbLayout
  1
Model
 70
0
 71
0
 10
0.0
 20
0.0
 11
297.0
 21
210.0
 12
0.0
 22
0.0
 32
0.0
 14
0.0
 24
0.0
 34
0.0
 15
0.0
 25
0.0
 35
0.0
146
0.0
 13
0.0
 23
0.0
 33
0.0
 16
1.0
 26
0.0
 36
0.0
 17
0.0
 27
1.0
 37
0.0
 76
0
330
210
345
0
346
0
  0
LAYOUT
  5
364
102
{ACAD_REACTORS
330
1A
102
}
100
AcDbPlotSettings
  1

  2
none_device
  4
ISO_A4_(297.00_x_210.00_MM)
  6

 40
0.0
 41
0.0
 42
0.0
 43
0.0
 44
297.0
 45
210.0
 46
0.0
 47
0.0
 48
0.0
 49
0.0
140
0.0
141
0.0
142
1.0
143
1.0
 70
0
 72
1
 73
0
 74
0
  7

 75
0
147
1.0
148
0.0
149
0.0
100
AcDbLayout
  1
Layout1
 70
0
 71
1
 10
0.0
 20
0.0
 11
297.0
 21
210.0
 12
0.0
 22
0.0
 32
0.0
 14
0.0
 24
0.0
 34
0.0
 15
0.0
 25
0.0
 35
0.0
146
0.0
 13
0.0
 23
0.0
 33
0.0
 16
1.0
 26
0.0
 36
0.0
 17
0.0
 27
1.0
 37
0.0
 76
0
330
211
345
0
346
0
  0
ENDSEC
  0
EOF
