  0
SECTION
  2
HEADER
  9
$ACADVER
  1
AC1021
  9
$DWGCODEPAGE
  3
ANSI_1252
  9
$EXTMAX
 10
297.0
 20
210.0
 30
0.0
  9
$EXTMIN
 10
0.0
 20
0.0
 30
0.0
  9
$LIMMIN
 10
0.0
 20
0.0
  9
$LIMMAX
 10
297.0
 20
210.0
  9
$VIEWCTR
 10
148.5
 20
105.0
  9
$VIEWSIZE
 40
210.0
  9
$CLAYER
  8
0
  9
$LTSCALE
 40
16.335
  9
$CELTYPE
  6
BYLAYER
  9
$DIMSCALE
 40
1.0
  9
$DIMASZ
 40
3.0
  9
$DIMEXO
 40
1.85625
  9
$DIMDLI
 40
11.286
  9
$DIMEXE
 40
5.346
  9
$DIMCEN
 40
2.673
  9
$DIMLFAC
 40
1.0
  9
$DIMBLK
  1
_FILLED
  9
$DIMTXT
 40
3.0
  9
$DIMTOL
 70
1
  9
$DIMLIM
 70
0
  9
$DIMTFAC
 40
1.0
  9
$DIMTP
 40
0.01
  9
$DIMTM
 40
0.01
  9
$PDMODE
 70
3
  9
$PDSIZE
 40
3.0
  9
$HANDSEED
  5
444
  9
$TILEMODE
 70
1
  9
$MEASUREMENT
 70
1
  9
$INSUNITS
 70
4
  0
ENDSEC
  0
SECTION
  2
CLASSES
  0
CLASS
  1
ACDBDICTIONARYWDFLT
  2
AcDbDictionaryWithDefault
  3
AutoCAD 2000
 90
0
 91
1
280
0
281
0
  0
CLASS
  1
ACDBPLACEHOLDER
  2
AcDbPlaceHolder
  3
AutoCAD 2000
 90
0
 91
1
280
0
281
0
  0
CLASS
  1
LAYOUT
  2
AcDbLayout
  3
AutoCAD 2000
 90
0
 91
0
280
0
281
0
  0
ENDSEC
  0
SECTION
  2
TABLES
  0
TABLE
  2
VPORT
  5
8
100
AcDbSymbolTable
 70
2
  0
VPORT
  5
1F4
100
AcDbSymbolTableRecord
100
AcDbViewportTableRecord
  2
*ACTIVE
 70
0
 10
0.0
 20
0.0
 11
1.0
 21
1.0
 12
148.5
 22
105.0
 13
0.0
 23
0.0
 14
1.0
 24
1.0
 15
0.0
 25
0.0
 16
0.0
 26
0.0
 36
1.0
 17
0.0
 27
0.0
 37
0.0
 40
210.0
 41
1.4142857143
 42
50.0
 43
0.0
 44
0.0
 50
0.0
 51
0.0
 71
0
 72
100
 73
1
 74
1
 75
0
 76
0
 77
0
 78
0
  0
ENDTAB
  0
TABLE
  2
LTYPE
  5
5
100
AcDbSymbolTable
 70
6
  0
LTYPE
  5
14
100
AcDbSymbolTableRecord
100
AcDbLinetypeTableRecord
  2
BYBLOCK
 70
0
  3

 72
65
 73
0
 40
0.0
  0
LTYPE
  5
15
100
AcDbSymbolTableRecord
100
AcDbLinetypeTableRecord
  2
BYLAYER
 70
0
  3

 72
65
 73
0
 40
0.0
  0
LTYPE
  5
16
100
AcDbSymbolTableRecord
100
AcDbLinetypeTableRecord
  2
CONTINUOUS
 70
64
  3
Solid line
 72
65
 73
0
 40
0.0
  0
LTYPE
  5
1F5
100
AcDbSymbolTableRecord
100
AcDbLinetypeTableRecord
  2
CENTER
 70
64
  3
____ _ ____ _ ____ _ ____ _ ____ _ ____ _ ____
 72
65
 73
4
 40
0.6
 49
0.375
 74
0
 49
-0.075
 74
0
 49
0.075
 74
0
 49
-0.075
 74
0
  0
LTYPE
  5
1F6
100
AcDbSymbolTableRecord
100
AcDbLinetypeTableRecord
  2
HIDDEN
 70
64
  3
- - - - - - - - - - - - - - - - - - - -
 72
65
 73
2
 40
0.2
 49
0.1
 74
0
 49
-0.1
 74
0
  0
LTYPE
  5
1F7
100
AcDbSymbolTableRecord
100
AcDbLinetypeTableRecord
  2
PHANTOM
 70
64
  3
_____ _ _ _____ _ _ _____ _ _ _____
 72
65
 73
6
 40
0.8
 49
0.45
 74
0
 49
-0.05
 74
0
 49
0.1
 74
0
 49
-0.05
 74
0
 49
0.1
 74
0
 49
-0.05
 74
0
  0
LTYPE
  5
1F8
100
AcDbSymbolTableRecord
100
AcDbLinetypeTableRecord
  2
DOT
 70
64
  3
. . . . . . . . . . . . . . . . . . . .
 72
65
 73
2
 40
0.2
 49
0.1
 74
0
 49
-0.1
 74
0
  0
LTYPE
  5
1F9
100
AcDbSymbolTableRecord
100
AcDbLinetypeTableRecord
  2
DASHED
 70
64
  3
- - - - - - - - - - - - - - - - - - - -
 72
65
 73
2
 40
0.2
 49
0.1
 74
0
 49
-0.1
 74
0
  0
ENDTAB
  0
TABLE
  2
LAYER
  5
2
100
AcDbSymbolTable
 70
36
  0
LAYER
  5
10
100
AcDbSymbolTableRecord
100
AcDbLayerTableRecord
  2
0
 70
0
 62
7
  6
CONTINUOUS
370
-3
390
F
  0
LAYER
  5
1FA
100
AcDbSymbolTableRecord
100
AcDbLayerTableRecord
  2
DEFAULT_1
 70
0
 62
7
  6
CENTER
370
-3
390
F
  0
LAYER
  5
1FB
100
AcDbSymbolTableRecord
100
AcDbLayerTableRecord
  2
DEFAULT_2
 70
0
 62
7
  6
HIDDEN
370
-3
390
F
  0
LAYER
  5
1FC
100
AcDbSymbolTableRecord
100
AcDbLayerTableRecord
  2
DEFAULT_3
 70
0
 62
7
  6
PHANTOM
370
-3
390
F
  0
LAYER
  5
1FD
100
AcDbSymbolTableRecord
100
AcDbLayerTableRecord
  2
ASSI
 70
0
 62
7
  6
CONTINUOUS
370
-3
390
F
  0
LAYER
  5
1FE
100
AcDbSymbolTableRecord
100
AcDbLayerTableRecord
  2
COORDINATE
 70
0
 62
7
  6
CONTINUOUS
370
-3
390
F
  0
LAYER
  5
1FF
100
AcDbSymbolTableRecord
100
AcDbLayerTableRecord
  2
COPY_PUBLISH
 70
0
 62
7
  6
CONTINUOUS
370
-3
390
F
  0
LAYER
  5
200
100
AcDbSymbolTableRecord
100
AcDbLayerTableRecord
  2
COSMETICI
 70
0
 62
7
  6
CONTINUOUS
370
-3
390
F
  0
LAYER
  5
201
100
AcDbSymbolTableRecord
100
AcDbLayerTableRecord
  2
CURVE
 70
0
 62
7
  6
CONTINUOUS
370
-3
390
F
  0
LAYER
  5
202
100
AcDbSymbolTableRecord
100
AcDbLayerTableRecord
  2
DRAFT
 70
0
 62
7
  6
CONTINUOUS
370
-3
390
F
  0
LAYER
  5
203
100
AcDbSymbolTableRecord
100
AcDbLayerTableRecord
  2
IMPORT_IGES
 70
0
 62
7
  6
CONTINUOUS
370
-3
390
F
  0
LAYER
  5
204
100
AcDbSymbolTableRecord
100
AcDbLayerTableRecord
  2
INTF_1
 70
0
 62
7
  6
CONTINUOUS
370
-3
390
F
  0
LAYER
  5
205
100
AcDbSymbolTableRecord
100
AcDbLayerTableRecord
  2
NOTE
 70
0
 62
7
  6
CONTINUOUS
370
-3
390
F
  0
LAYER
  5
206
100
AcDbSymbolTableRecord
100
AcDbLayerTableRecord
  2
PIANI
 70
0
 62
7
  6
CONTINUOUS
370
-3
390
F
  0
LAYER
  5
207
100
AcDbSymbolTableRecord
100
AcDbLayerTableRecord
  2
PUNTI
 70
0
 62
7
  6
CONTINUOUS
370
-3
390
F
  0
LAYER
  5
208
100
AcDbSymbolTableRecord
100
AcDbLayerTableRecord
  2
RACCORDO
 70
0
 62
7
  6
CONTINUOUS
370
-3
390
F
  0
LAYER
  5
209
100
AcDbSymbolTableRecord
100
AcDbLayerTableRecord
  2
SCRITTE
 70
0
 62
7
  6
CONTINUOUS
370
-3
390
F
  0
LAYER
  5
20A
100
AcDbSymbolTableRecord
100
AcDbLayerTableRecord
  2
SIMBOLI
 70
0
 62
7
  6
CONTINUOUS
370
-3
390
F
  0
LAYER
  5
20B
100
AcDbSymbolTableRecord
100
AcDbLayerTableRecord
  2
SMUSSO
 70
0
 62
7
  6
CONTINUOUS
370
-3
390
F
  0
LAYER
  5
20C
100
AcDbSymbolTableRecord
100
AcDbLayerTableRecord
  2
SNAPLINE
 70
0
 62
7
  6
CONTINUOUS
370
-3
390
F
  0
LAYER
  5
20D
100
AcDbSymbolTableRecord
100
AcDbLayerTableRecord
  2
SUPERFICI
 70
0
 62
7
  6
CONTINUOUS
370
-3
390
F
  0
LAYER
  5
20E
100
AcDbSymbolTableRecord
100
AcDbLayerTableRecord
  2
TRASH
 70
0
 62
7
  6
CONTINUOUS
370
-3
390
F
  0
ENDTAB
  0
TABLE
  2
STYLE
  5
3
100
AcDbSymbolTable
 70
1
  0
STYLE
  5
11
100
AcDbSymbolTableRecord
100
AcDbTextStyleTableRecord
  2
STANDARD
 70
0
 40
0.0
 41
0.8
 50
0.0
 71
0
 42
0.2
  3
txt
  4

  0
STYLE
  5
20F
100
AcDbSymbolTableRecord
100
AcDbTextStyleTableRecord
  2
TEXTSTYLE_1
 70
0
 40
0.0
 41
0.8
 50
0.0
 71
0
 42
0.2
  3
gdt
  4

  0
ENDTAB
  0
TABLE
  2
VIEW
  5
6
100
AcDbSymbolTable
 70
0
  0
ENDTAB
  0
TABLE
  2
UCS
  5
7
100
AcDbSymbolTable
 70
0
  0
ENDTAB
  0
TABLE
  2
APPID
  5
9
100
AcDbSymbolTable
 70
1
  0
APPID
  5
210
100
AcDbSymbolTableRecord
100
AcDbRegAppTableRecord
  2
ACAD
 70
0
  0
ENDTAB
  0
TABLE
  2
BLOCK_RECORD
  5
1
100
AcDbSymbolTable
 70
0
  0
BLOCK_RECORD
  5
211
100
AcDbSymbolTableRecord
100
AcDbBlockTableRecord
  2
*Model_Space
  0
BLOCK_RECORD
  5
212
100
AcDbSymbolTableRecord
100
AcDbBlockTableRecord
  2
*Paper_Space
  0
BLOCK_RECORD
  5
213
100
AcDbSymbolTableRecord
100
AcDbBlockTableRecord
  2
_FILLED
  0
BLOCK_RECORD
  5
214
100
AcDbSymbolTableRecord
100
AcDbBlockTableRecord
  2
*D0
  0
BLOCK_RECORD
  5
215
100
AcDbSymbolTableRecord
100
AcDbBlockTableRecord
  2
*D1
  0
BLOCK_RECORD
  5
216
100
AcDbSymbolTableRecord
100
AcDbBlockTableRecord
  2
*D2
  0
BLOCK_RECORD
  5
217
100
AcDbSymbolTableRecord
100
AcDbBlockTableRecord
  2
*D3
  0
BLOCK_RECORD
  5
218
100
AcDbSymbolTableRecord
100
AcDbBlockTableRecord
  2
*D4
  0
ENDTAB
  0
TABLE
  2
DIMSTYLE
  5
A
100
AcDbSymbolTable
 70
1
100
AcDbDimStyleTable
 71
0
  0
DIMSTYLE
105
219
100
AcDbSymbolTableRecord
100
AcDbDimStyleTableRecord
  2
STANDARD
 70
0
  3

  4

 40
1.0
 41
3.0
 42
0.0625
 43
0.38
 44
0.18
 45
0.0
 46
0.0
 47
0.01
 48
0.01
140
3.0
141
0.09
142
0.0
143
25.4
144
1.0
145
0.0
146
1.0
147
0.09
 71
1.0
 72
0.0
 73
0
 74
0
 75
0
 76
0
 77
1
 78
8
170
0
171
2
172
0
173
0
174
0
175
0
176
0
177
0
178
0
270
2
271
2
272
2
273
2
274
2
275
0
280
0
281
0
282
0
283
1
284
8
285
0
286
0
287
3
288
0
340
11
341
213
342
213
343
213
344
213
  0
DIMSTYLE
105
21A
100
AcDbSymbolTableRecord
100
AcDbDimStyleTableRecord
  2
DIMSTYLE_1
 70
0
  3

  4

 40
1.0
 41
3.0
 42
0.0625
 43
0.38
 44
0.18
 45
0.0
 46
0.0
 47
0.0
 48
0.0
140
3.0
141
0.09
142
0.0
143
25.4
144
1.0
145
0.0
146
1.0
147
0.09
 71
0.0
 72
0.0
 73
0
 74
0
 75
0
 76
0
 77
1
 78
8
170
0
171
2
172
0
173
0
174
0
175
0
176
0
177
0
178
0
270
2
271
2
272
2
273
2
274
2
275
0
280
0
281
0
282
0
283
1
284
8
285
0
286
0
287
3
288
0
340
11
341
213
342
213
343
213
344
213
  0
DIMSTYLE
105
21B
100
AcDbSymbolTableRecord
100
AcDbDimStyleTableRecord
  2
DIMSTYLE_2
 70
0
  3

  4

 40
1.0
 41
3.0
 42
0.0625
 43
0.38
 44
0.18
 45
0.0
 46
0.0
 47
0.0
 48
0.0
140
3.0
141
0.09
142
0.0
143
25.4
144
1.0
145
0.0
146
1.0
147
0.09
 71
0.0
 72
0.0
 73
0
 74
0
 75
0
 76
0
 77
1
 78
8
170
0
171
2
172
0
173
0
174
0
175
0
176
0
177
0
178
0
270
2
271
1
272
1
273
2
274
2
275
0
280
0
281
0
282
0
283
1
284
8
285
0
286
0
287
3
288
0
340
11
341
213
342
213
343
213
344
213
  0
ENDTAB
  0
ENDSEC
  0
SECTION
  2
BLOCKS
  0
BLOCK
  5
20
100
AcDbEntity
  8
0
100
AcDbBlockBegin
  2
*Model_Space
 70
0
 10
0.0
 20
0.0
 30
0.0
  3
*Model_Space
  1

  0
ENDBLK
  5
21
100
AcDbEntity
  8
0
100
AcDbBlockEnd
  0
BLOCK
  5
1C
100
AcDbEntity
  8
0
100
AcDbBlockBegin
  2
*Paper_Space
 70
0
 10
0.0
 20
0.0
 30
0.0
  3
*Paper_Space
  1

  0
ENDBLK
  5
1D
100
AcDbEntity
  8
0
100
AcDbBlockEnd
  0
BLOCK
  5
21C
100
AcDbEntity
  8
0
100
AcDbBlockBegin
  2
_FILLED
 70
64
 10
0.0
 20
0.0
  3
_FILLED
  1

  0
SOLID
  5
21D
100
AcDbEntity
  8
0
  6
BYBLOCK
 62
0
100
AcDbTrace
 10
0.0
 20
0.0
 11
-1.0
 21
0.3166666667
 12
-1.0
 22
-0.3166666667
 13
-1.0
 23
-0.3166666667
  0
ENDBLK
  5
21E
100
AcDbEntity
  8
0
  6
BYBLOCK
 62
0
100
AcDbBlockEnd
  0
BLOCK
  5
21F
100
AcDbEntity
  8
0
100
AcDbBlockBegin
 62
7
  6
CONTINUOUS
  2
*D0
 70
65
 10
0.0
 20
0.0
  3
*D0
  1

  0
MTEXT
  5
220
100
AcDbEntity
  8
0
100
AcDbMText
 62
7
  6
CONTINUOUS
  7
STANDARD
 71
2
 72
1
 10
68.25
 20
8.2488359232
 30
0.0
 11
0.0
 21
1.0
 31
0.0
 44
0.9
  1
90
 40
3.0
 41
4.7142857143
  0
LINE
  5
221
100
AcDbEntity
  8
0
100
AcDbLine
 62
7
  6
CONTINUOUS
 10
44.5199190996
 20
53.2488359232
 11
73.5
 21
53.2488359232
  0
LINE
  5
222
100
AcDbEntity
  8
0
100
AcDbLine
 62
7
  6
CONTINUOUS
 10
44.5199190996
 20
-36.7511640768
 11
73.5
 21
-36.7511640768
  0
LINE
  5
223
100
AcDbEntity
  8
0
100
AcDbLine
 62
7
  6
CONTINUOUS
 10
72.0
 20
53.2488359232
 11
72.0
 21
8.2488359232
  0
LINE
  5
224
100
AcDbEntity
  8
0
100
AcDbLine
 62
7
  6
CONTINUOUS
 10
72.0
 20
-36.7511640768
 11
72.0
 21
8.2488359232
  0
INSERT
  5
225
100
AcDbEntity
  8
0
100
AcDbBlockReference
 62
7
  6
CONTINUOUS
  2
_FILLED
 10
72.0
 20
53.2488359232
 41
3.0
 42
3.0
 43
3.0
 50
90.0
  0
INSERT
  5
226
100
AcDbEntity
  8
0
100
AcDbBlockReference
 62
7
  6
CONTINUOUS
  2
_FILLED
 10
72.0
 20
-36.7511640768
 41
3.0
 42
3.0
 43
3.0
 50
270.0
  0
ENDBLK
  5
227
100
AcDbEntity
  8
0
  6
BYBLOCK
 62
0
100
AcDbBlockEnd
  0
BLOCK
  5
228
100
AcDbEntity
  8
0
100
AcDbBlockBegin
 62
7
  6
CONTINUOUS
  2
*D1
 70
65
 10
0.0
 20
0.0
  3
*D1
  1

  0
MTEXT
  5
229
100
AcDbEntity
  8
0
100
AcDbMText
 62
7
  6
CONTINUOUS
  7
STANDARD
 71
2
 72
1
 10
0.0
 20
78.8044825565
 30
0.0
 11
1.0
 21
0.0
 31
0.0
 44
0.9
  1
90
 40
3.0
 41
4.7142857143
  0
LINE
  5
22A
100
AcDbEntity
  8
0
100
AcDbLine
 62
7
  6
CONTINUOUS
 10
44.9999892161
 20
52.752357024
 11
44.9999892161
 21
76.5544825565
  0
LINE
  5
22B
100
AcDbEntity
  8
0
100
AcDbLine
 62
7
  6
CONTINUOUS
 10
-44.9999892161
 20
52.752357024
 11
-44.9999892161
 21
76.5544825565
  0
LINE
  5
22C
100
AcDbEntity
  8
0
100
AcDbLine
 62
7
  6
CONTINUOUS
 10
44.9999892161
 20
75.0544825565
 11
0.0
 21
75.0544825565
  0
LINE
  5
22D
100
AcDbEntity
  8
0
100
AcDbLine
 62
7
  6
CONTINUOUS
 10
-44.9999892161
 20
75.0544825565
 11
0.0
 21
75.0544825565
  0
INSERT
  5
22E
100
AcDbEntity
  8
0
100
AcDbBlockReference
 62
7
  6
CONTINUOUS
  2
_FILLED
 10
44.9999892161
 20
75.0544825565
 41
3.0
 42
3.0
 43
3.0
  0
INSERT
  5
22F
100
AcDbEntity
  8
0
100
AcDbBlockReference
 62
7
  6
CONTINUOUS
  2
_FILLED
 10
-44.9999892161
 20
75.0544825565
 41
3.0
 42
3.0
 43
3.0
 50
180.0
  0
ENDBLK
  5
230
100
AcDbEntity
  8
0
  6
BYBLOCK
 62
0
100
AcDbBlockEnd
  0
BLOCK
  5
231
100
AcDbEntity
  8
0
100
AcDbBlockBegin
 62
7
  6
CONTINUOUS
  2
*D2
 70
65
 10
0.0
 20
0.0
  3
*D2
  1

  0
MTEXT
  5
232
100
AcDbEntity
  8
0
100
AcDbMText
 62
7
  6
CONTINUOUS
  7
STANDARD
 71
1
 72
1
 10
-63.8941009456
 20
68.8044825565
 30
0.0
 11
1.0
 21
0.0
 31
0.0
 44
0.9
  1
8,6
 40
3.0
 41
6.4285714286
  0
LINE
  5
233
100
AcDbEntity
  8
0
100
AcDbLine
 62
7
  6
CONTINUOUS
 10
-77.6516832349
 20
8.7488359232
 11
-77.6516832349
 21
66.5544825565
  0
LINE
  5
234
100
AcDbEntity
  8
0
100
AcDbLine
 62
7
  6
CONTINUOUS
 10
-69.0835716394
 20
51.3113660303
 11
-69.0835716394
 21
66.5544825565
  0
LINE
  5
235
100
AcDbEntity
  8
0
100
AcDbLine
 62
7
  6
CONTINUOUS
 10
-77.6516832349
 20
65.0544825565
 11
-81.6516832349
 21
65.0544825565
  0
LINE
  5
236
100
AcDbEntity
  8
0
100
AcDbLine
 62
7
  6
CONTINUOUS
 10
-81.6516832349
 20
65.0544825565
 11
-73.3676274372
 21
65.0544825565
  0
LINE
  5
237
100
AcDbEntity
  8
0
100
AcDbLine
 62
7
  6
CONTINUOUS
 10
-69.0835716394
 20
65.0544825565
 11
-57.465529517
 21
65.0544825565
  0
LINE
  5
238
100
AcDbEntity
  8
0
100
AcDbLine
 62
7
  6
CONTINUOUS
 10
-57.465529517
 20
65.0544825565
 11
-73.3676274372
 21
65.0544825565
  0
INSERT
  5
239
100
AcDbEntity
  8
0
100
AcDbBlockReference
 62
7
  6
CONTINUOUS
  2
_FILLED
 10
-77.6516832349
 20
65.0544825565
 41
3.0
 42
3.0
 43
3.0
  0
INSERT
  5
23A
100
AcDbEntity
  8
0
100
AcDbBlockReference
 62
7
  6
CONTINUOUS
  2
_FILLED
 10
-69.0835716394
 20
65.0544825565
 41
3.0
 42
3.0
 43
3.0
 50
180.0
  0
ENDBLK
  5
23B
100
AcDbEntity
  8
0
  6
BYBLOCK
 62
0
100
AcDbBlockEnd
  0
BLOCK
  5
23C
100
AcDbEntity
  8
0
100
AcDbBlockBegin
 62
7
  6
CONTINUOUS
  2
*D3
 70
65
 10
0.0
 20
0.0
  3
*D3
  1

  0
MTEXT
  5
23D
100
AcDbEntity
  8
0
100
AcDbMText
 62
7
  6
CONTINUOUS
  7
STANDARD
 71
2
 72
1
 10
-0.0
 20
68.8044825565
 30
0.0
 11
1.0
 21
0.0
 31
0.0
 44
0.9
  1
45,3
 40
3.0
 41
8.3571428571
  0
LINE
  5
23E
100
AcDbEntity
  8
0
100
AcDbLine
 62
7
  6
CONTINUOUS
 10
22.6500045188
 20
30.4999700772
 11
22.6500045188
 21
66.5544825565
  0
LINE
  5
23F
100
AcDbEntity
  8
0
100
AcDbLine
 62
7
  6
CONTINUOUS
 10
-22.6500045188
 20
30.4999700772
 11
-22.6500045188
 21
66.5544825565
  0
LINE
  5
240
100
AcDbEntity
  8
0
100
AcDbLine
 62
7
  6
CONTINUOUS
 10
22.6500045188
 20
65.0544825565
 11
0.0
 21
65.0544825565
  0
LINE
  5
241
100
AcDbEntity
  8
0
100
AcDbLine
 62
7
  6
CONTINUOUS
 10
-22.6500045188
 20
65.0544825565
 11
0.0
 21
65.0544825565
  0
INSERT
  5
242
100
AcDbEntity
  8
0
100
AcDbBlockReference
 62
7
  6
CONTINUOUS
  2
_FILLED
 10
22.6500045188
 20
65.0544825565
 41
3.0
 42
3.0
 43
3.0
  0
INSERT
  5
243
100
AcDbEntity
  8
0
100
AcDbBlockReference
 62
7
  6
CONTINUOUS
  2
_FILLED
 10
-22.6500045188
 20
65.0544825565
 41
3.0
 42
3.0
 43
3.0
 50
180.0
  0
ENDBLK
  5
244
100
AcDbEntity
  8
0
  6
BYBLOCK
 62
0
100
AcDbBlockEnd
  0
BLOCK
  5
245
100
AcDbEntity
  8
0
100
AcDbBlockBegin
 62
7
  6
CONTINUOUS
  2
*D4
 70
65
 10
0.0
 20
0.0
  3
*D4
  1

  0
MTEXT
  5
246
100
AcDbEntity
  8
0
100
AcDbMText
 62
7
  6
CONTINUOUS
  7
STANDARD
 71
2
 72
1
 10
58.25
 20
8.2488359232
 30
0.0
 11
0.0
 21
1.0
 31
0.0
 44
0.9
  1
45,1
 40
3.0
 41
7.9285714286
  0
LINE
  5
247
100
AcDbEntity
  8
0
100
AcDbLine
 62
7
  6
CONTINUOUS
 10
22.3490196442
 20
30.7988359232
 11
63.5
 21
30.7988359232
  0
LINE
  5
248
100
AcDbEntity
  8
0
100
AcDbLine
 62
7
  6
CONTINUOUS
 10
22.3490196442
 20
-14.3011640768
 11
63.5
 21
-14.3011640768
  0
LINE
  5
249
100
AcDbEntity
  8
0
100
AcDbLine
 62
7
  6
CONTINUOUS
 10
62.0
 20
30.7988359232
 11
62.0
 21
8.2488359232
  0
LINE
  5
24A
100
AcDbEntity
  8
0
100
AcDbLine
 62
7
  6
CONTINUOUS
 10
62.0
 20
-14.3011640768
 11
62.0
 21
8.2488359232
  0
INSERT
  5
24B
100
AcDbEntity
  8
0
100
AcDbBlockReference
 62
7
  6
CONTINUOUS
  2
_FILLED
 10
62.0
 20
30.7988359232
 41
3.0
 42
3.0
 43
3.0
 50
90.0
  0
INSERT
  5
24C
100
AcDbEntity
  8
0
100
AcDbBlockReference
 62
7
  6
CONTINUOUS
  2
_FILLED
 10
62.0
 20
-14.3011640768
 41
3.0
 42
3.0
 43
3.0
 50
270.0
  0
ENDBLK
  5
24D
100
AcDbEntity
  8
0
  6
BYBLOCK
 62
0
100
AcDbBlockEnd
  0
ENDSEC
  0
SECTION
  2
ENTITIES
  0
DIMENSION
  5
24E
100
AcDbEntity
  8
0
100
AcDbDimension
 62
7
  6
CONTINUOUS
  2
*D0
 10
72.0
 20
-36.7511640768
 11
70.8061735237
 21
6.1415580732
 70
160
 71
2
 42
90.0
  3
DIMSTYLE_1
100
AcDbAlignedDimension
 13
44.5199190996
 23
53.2488359232
 14
44.5199190996
 24
-36.7511640768
 50
270.0
100
AcDbRotatedDimension
  0
DIMENSION
  5
24F
100
AcDbEntity
  8
0
100
AcDbDimension
 62
7
  6
CONTINUOUS
  2
*D1
 10
-44.9999892161
 20
75.0544825565
 11
-2.3571428571
 21
77.3044825565
 70
160
 71
2
 42
89.9999784322
  3
DIMSTYLE_1
100
AcDbAlignedDimension
 13
44.9999892161
 23
52.752357024
 14
-44.9999892161
 24
52.752357024
 50
180.0
100
AcDbRotatedDimension
  0
DIMENSION
  5
250
100
AcDbEntity
  8
0
100
AcDbDimension
 62
7
  6
CONTINUOUS
  2
*D2
 10
-69.0835716394
 20
65.0544825565
 11
-60.6798152313
 21
67.3044825565
 70
160
 71
1
 42
8.5681115955
  3
DIMSTYLE_2
100
AcDbAlignedDimension
 13
-77.6516832349
 23
8.7488359232
 14
-69.0835716394
 24
51.3113660303
100
AcDbRotatedDimension
  0
DIMENSION
  5
251
100
AcDbEntity
  8
0
100
AcDbDimension
 62
7
  6
CONTINUOUS
  2
*D3
 10
-22.6500045188
 20
65.0544825565
 11
-4.1785714286
 21
67.3044825565
 70
160
 71
2
 42
45.3000090376
  3
DIMSTYLE_1
100
AcDbAlignedDimension
 13
22.6500045188
 23
30.4999700772
 14
-22.6500045188
 24
30.4999700772
 50
180.0
100
AcDbRotatedDimension
  0
DIMENSION
  5
252
100
AcDbEntity
  8
0
100
AcDbDimension
 62
7
  6
CONTINUOUS
  2
*D4
 10
62.0
 20
-14.3011640768
 11
61.5262918354
 21
4.704777721
 70
160
 71
2
 42
45.1
  3
DIMSTYLE_1
100
AcDbAlignedDimension
 13
22.3490196442
 23
30.7988359232
 14
22.3490196442
 24
-14.3011640768
 50
270.0
100
AcDbRotatedDimension
  0
LWPOLYLINE
  5
253
100
AcDbEntity
  8
RACCORDO
100
AcDbPolyline
 62
253
  6
CONTINUOUS
 90
28
 70
0
 10
-44.818245447
 20
-35.5698764258
 10
-44.815905722
 20
-35.6279839713
 10
-44.8102476021
 20
-35.6857669033
 10
-44.8013025237
 20
-35.743036449
 10
-44.7891196327
 20
-35.7995876422
 10
-44.7737468608
 20
-35.8552570894
 10
-44.7552189791
 20
-35.9099202464
 10
-44.7335838652
 20
-35.9634314087
 10
-44.7089252591
 20
-36.0155810081
 10
-44.6813432336
 20
-36.0661547009
 10
-44.6509462418
 20
-36.1149753177
 10
-44.6178340669
 20
-36.1619038446
 10
-44.5821125204
 20
-36.2067947981
 10
-44.5439034982
 20
-36.2495058732
 10
-44.5033384642
 20
-36.2899013401
 10
-44.460546981
 20
-36.3278549396
 10
-44.4156744391
 20
-36.3632448603
 10
-44.3688697406
 20
-36.3959615193
 10
-44.3202751342
 20
-36.425907023
 10
-44.2700463939
 20
-36.4529875201
 10
-44.2183532308
 20
-36.4771145957
 10
-44.1653650333
 20
-36.4982106141
 10
-44.111263434
 20
-36.5162059954
 10
-44.056218048
 20
-36.5310477916
 10
-44.0003841697
 20
-36.542694242
 10
-43.9439349479
 20
-36.5511060461
 10
-43.8870620146
 20
-36.5562511333
 10
-43.8299503769
 20
-36.5581099806
  0
LWPOLYLINE
  5
254
100
AcDbEntity
  8
ASSI
100
AcDbPolyline
 62
253
  6
CONTINUOUS
 90
28
 70
0
 10
-44.818245447
 20
-35.5698764258
 10
-44.815905722
 20
-35.6279839713
 10
-44.8102476021
 20
-35.6857669033
 10
-44.8013025237
 20
-35.743036449
 10
-44.7891196327
 20
-35.7995876422
 10
-44.7737468608
 20
-35.8552570894
 10
-44.7552189791
 20
-35.9099202464
 10
-44.7335838652
 20
-35.9634314087
 10
-44.7089252591
 20
-36.0155810081
 10
-44.6813432336
 20
-36.0661547009
 10
-44.6509462418
 20
-36.1149753177
 10
-44.6178340669
 20
-36.1619038446
 10
-44.5821125204
 20
-36.2067947981
 10
-44.5439034982
 20
-36.2495058732
 10
-44.5033384642
 20
-36.2899013401
 10
-44.460546981
 20
-36.3278549396
 10
-44.4156744391
 20
-36.3632448603
 10
-44.3688697406
 20
-36.3959615193
 10
-44.3202751342
 20
-36.425907023
 10
-44.2700463939
 20
-36.4529875201
 10
-44.2183532308
 20
-36.4771145957
 10
-44.1653650333
 20
-36.4982106141
 10
-44.111263434
 20
-36.5162059954
 10
-44.056218048
 20
-36.5310477916
 10
-44.0003841697
 20
-36.542694242
 10
-43.9439349479
 20
-36.5511060461
 10
-43.8870620146
 20
-36.5562511333
 10
-43.8299503769
 20
-36.5581099806
  0
LWPOLYLINE
  5
255
100
AcDbEntity
  8
RACCORDO
100
AcDbPolyline
 62
253
  6
CONTINUOUS
 90
28
 70
0
 10
-44.3202107575
 20
-35.6503929107
 10
-44.319349712
 20
-35.679940398
 10
-44.3168584578
 20
-35.7091529177
 10
-44.3127369949
 20
-35.7380305005
 10
-44.3069611048
 20
-35.7666633936
 10
-44.2995550059
 20
-35.7949614052
 10
-44.2905913541
 20
-35.822653933
 10
-44.2800507835
 20
-35.8497433236
 10
-44.2679526599
 20
-35.8762273372
 10
-44.2544277356
 20
-35.9018285395
 10
-44.2394647476
 20
-35.9265295497
 10
-44.223074959
 20
-35.9503478944
 10
-44.2054229113
 20
-35.9730585386
 10
-44.1864965558
 20
-35.9946516798
 10
-44.1663079412
 20
-36.0151372819
 10
-44.1450577555
 20
-36.0343199856
 10
-44.122736063
 20
-36.0521871361
 10
-44.0993527993
 20
-36.0687515476
 10
-44.0751384586
 20
-36.0838560779
 10
-44.0500853964
 20
-36.0974863691
 10
-44.0242012572
 20
-36.1096569182
 10
-43.9977394695
 20
-36.1202538678
 10
-43.9706880133
 20
-36.1292622365
 10
-43.9430589086
 20
-36.1366971082
 10
-43.9151416438
 20
-36.1424897175
 10
-43.887032715
 20
-36.1466171614
 10
-43.858635626
 20
-36.1491023973
 10
-43.8299503769
 20
-36.1499454386
  0
LWPOLYLINE
  5
256
100
AcDbEntity
  8
ASSI
100
AcDbPolyline
 62
253
  6
CONTINUOUS
 90
28
 70
0
 10
-44.3202107575
 20
-35.6503929107
 10
-44.319349712
 20
-35.679940398
 10
-44.3168584578
 20
-35.7091529177
 10
-44.3127369949
 20
-35.7380305005
 10
-44.3069611048
 20
-35.7666633936
 10
-44.2995550059
 20
-35.7949614052
 10
-44.2905913541
 20
-35.822653933
 10
-44.2800507835
 20
-35.8497433236
 10
-44.2679526599
 20
-35.8762273372
 10
-44.2544277356
 20
-35.9018285395
 10
-44.2394647476
 20
-35.9265295497
 10
-44.223074959
 20
-35.9503478944
 10
-44.2054229113
 20
-35.9730585386
 10
-44.1864965558
 20
-35.9946516798
 10
-44.1663079412
 20
-36.0151372819
 10
-44.1450577555
 20
-36.0343199856
 10
-44.122736063
 20
-36.0521871361
 10
-44.0993527993
 20
-36.0687515476
 10
-44.0751384586
 20
-36.0838560779
 10
-44.0500853964
 20
-36.0974863691
 10
-44.0242012572
 20
-36.1096569182
 10
-43.9977394695
 20
-36.1202538678
 10
-43.9706880133
 20
-36.1292622365
 10
-43.9430589086
 20
-36.1366971082
 10
-43.9151416438
 20
-36.1424897175
 10
-43.887032715
 20
-36.1466171614
 10
-43.858635626
 20
-36.1491023973
 10
-43.8299503769
 20
-36.1499454386
  0
LINE
  5
257
100
AcDbEntity
  8
RACCORDO
100
AcDbLine
 62
7
  6
CONTINUOUS
 10
-44.9999996065
 20
-35.7546851777
 11
-45.0
 21
-14.2303973267
  0
LINE
  5
258
100
AcDbEntity
  8
DRAFT
100
AcDbLine
 62
7
  6
CONTINUOUS
 10
-45.0
 20
-14.2303973267
 11
-45.0
 21
30.7280691731
  0
LINE
  5
259
100
AcDbEntity
  8
RACCORDO
100
AcDbLine
 62
7
  6
CONTINUOUS
 10
-45.0
 20
30.7280691731
 11
-44.9999996065
 21
52.252357024
  0
LINE
  5
25A
100
AcDbEntity
  8
ASSI
100
AcDbLine
 62
7
  6
CONTINUOUS
 10
-44.9999996065
 20
-35.7546851777
 11
-44.9999996065
 21
52.252357024
  0
LINE
  5
25B
100
AcDbEntity
  8
RACCORDO
100
AcDbLine
 62
253
  6
CONTINUOUS
 10
-44.8211767916
 20
0.7529820924
 11
-44.8182454469
 21
-35.5698764256
  0
LINE
  5
25C
100
AcDbEntity
  8
ASSI
100
AcDbLine
 62
253
  6
CONTINUOUS
 10
-44.8211767916
 20
0.7529820924
 11
-44.8182454469
 21
-35.5698764256
  0
LINE
  5
25D
100
AcDbEntity
  8
RACCORDO
100
AcDbLine
 62
253
  6
CONTINUOUS
 10
-44.3230799877
 20
0.7453731742
 11
-44.3202107575
 21
-35.6503929107
  0
LINE
  5
25E
100
AcDbEntity
  8
ASSI
100
AcDbLine
 62
253
  6
CONTINUOUS
 10
-44.3230799877
 20
0.7453731742
 11
-44.3202107575
 21
-35.6503929107
  0
LINE
  5
25F
100
AcDbEntity
  8
RACCORDO
100
AcDbLine
 62
253
  6
CONTINUOUS
 10
-43.8299503769
 20
-36.1499454386
 11
-43.8299503769
 21
-36.5581099806
  0
LINE
  5
260
100
AcDbEntity
  8
ASSI
100
AcDbLine
 62
253
  6
CONTINUOUS
 10
-43.8299503769
 20
-36.1499454386
 11
-43.8299503769
 21
-36.5581099806
  0
LINE
  5
261
100
AcDbEntity
  8
RACCORDO
100
AcDbLine
 62
253
  6
CONTINUOUS
 10
-43.8299503769
 20
52.6476172849
 11
-43.8299503772
 21
53.0557818269
  0
LINE
  5
262
100
AcDbEntity
  8
ASSI
100
AcDbLine
 62
253
  6
CONTINUOUS
 10
-43.8299503769
 20
52.6476172849
 11
-43.8299503772
 21
53.0557818269
  0
LWPOLYLINE
  5
263
100
AcDbEntity
  8
RACCORDO
100
AcDbPolyline
 62
253
  6
CONTINUOUS
 90
3
 70
0
 10
-44.8182454469
 20
52.0675482724
 10
-44.8208296797
 20
33.2034823057
 10
-44.8211767916
 20
0.7529820924
  0
LWPOLYLINE
  5
264
100
AcDbEntity
  8
ASSI
100
AcDbPolyline
 62
253
  6
CONTINUOUS
 90
3
 70
0
 10
-44.8182454469
 20
52.0675482724
 10
-44.8208296797
 20
33.2034823057
 10
-44.8211767916
 20
0.7529820924
  0
LWPOLYLINE
  5
265
100
AcDbEntity
  8
RACCORDO
100
AcDbPolyline
 62
253
  6
CONTINUOUS
 90
3
 70
0
 10
-44.3202107575
 20
52.148064757
 10
-44.3227324871
 20
33.2328252475
 10
-44.3230799877
 20
0.7453731742
  0
LWPOLYLINE
  5
266
100
AcDbEntity
  8
ASSI
100
AcDbPolyline
 62
253
  6
CONTINUOUS
 90
3
 70
0
 10
-44.3202107575
 20
52.148064757
 10
-44.3227324871
 20
33.2328252475
 10
-44.3230799877
 20
0.7453731742
  0
LWPOLYLINE
  5
267
100
AcDbEntity
  8
RACCORDO
100
AcDbPolyline
 62
7
  6
CONTINUOUS
 90
28
 70
0
 10
-44.9999996065
 20
52.252357024
 10
-44.9982512767
 20
52.3120708016
 10
-44.993147257
 20
52.3711174441
 10
-44.9846875473
 20
52.4294970761
 10
-44.9727803597
 20
52.487478648
 10
-44.9575174821
 20
52.5447934211
 10
-44.9391742792
 20
52.6006351426
 10
-44.9177675706
 20
52.6548396526
 10
-44.8932805366
 20
52.7075716712
 10
-44.8659380835
 20
52.7585184699
 10
-44.8357239893
 20
52.8077092622
 10
-44.802654476
 20
52.8551154346
 10
-44.7670031149
 20
52.9003376248
 10
-44.7286331998
 20
52.9434417226
 10
-44.687681437
 20
52.9843624901
 10
-44.6448315177
 20
53.022503999
 10
-44.6002000895
 20
53.0577066407
 10
-44.5536705048
 20
53.0901307396
 10
-44.5055765112
 20
53.1196603261
 10
-44.4559094922
 20
53.1463119283
 10
-44.4046780645
 20
53.1700695807
 10
-44.3522418255
 20
53.1907685559
 10
-44.2984659543
 20
53.2084124016
 10
-44.2434852718
 20
53.2229979783
 10
-44.188063839
 20
53.2343505026
 10
-44.1324563429
 20
53.24241179
 10
-44.0764080964
 20
53.2472402454
 10
-44.0199190996
 20
53.2488359232
  0
LWPOLYLINE
  5
268
100
AcDbEntity
  8
ASSI
100
AcDbPolyline
 62
7
  6
CONTINUOUS
 90
28
 70
0
 10
-44.9999996065
 20
52.252357024
 10
-44.9982512767
 20
52.3120708016
 10
-44.993147257
 20
52.3711174441
 10
-44.9846875473
 20
52.4294970761
 10
-44.9727803597
 20
52.487478648
 10
-44.9575174821
 20
52.5447934211
 10
-44.9391742792
 20
52.6006351426
 10
-44.9177675706
 20
52.6548396526
 10
-44.8932805366
 20
52.7075716712
 10
-44.8659380835
 20
52.7585184699
 10
-44.8357239893
 20
52.8077092622
 10
-44.802654476
 20
52.8551154346
 10
-44.7670031149
 20
52.9003376248
 10
-44.7286331998
 20
52.9434417226
 10
-44.687681437
 20
52.9843624901
 10
-44.6448315177
 20
53.022503999
 10
-44.6002000895
 20
53.0577066407
 10
-44.5536705048
 20
53.0901307396
 10
-44.5055765112
 20
53.1196603261
 10
-44.4559094922
 20
53.1463119283
 10
-44.4046780645
 20
53.1700695807
 10
-44.3522418255
 20
53.1907685559
 10
-44.2984659543
 20
53.2084124016
 10
-44.2434852718
 20
53.2229979783
 10
-44.188063839
 20
53.2343505026
 10
-44.1324563429
 20
53.24241179
 10
-44.0764080964
 20
53.2472402454
 10
-44.0199190996
 20
53.2488359232
  0
LWPOLYLINE
  5
269
100
AcDbEntity
  8
RACCORDO
100
AcDbPolyline
 62
253
  6
CONTINUOUS
 90
19
 70
0
 10
-23.0124982912
 20
30.8536514817
 10
-22.9713681969
 20
30.9100524158
 10
-22.9274261769
 20
30.9639766708
 10
-22.8806722312
 20
31.0154243623
 10
-22.8309494209
 20
31.0645607138
 10
-22.7784146848
 20
31.1112207156
 10
-22.7235388399
 20
31.1549091486
 10
-22.6662927799
 20
31.1955891448
 10
-22.606705611
 20
31.2332978009
 10
-22.5453354688
 20
31.2676508685
 10
-22.4821292802
 20
31.2986118816
 10
-22.4171401183
 20
31.326217511
 10
-22.3510853384
 20
31.3501932194
 10
-22.2839435165
 20
31.3704748806
 10
-22.2157360766
 20
31.3871267738
 10
-22.1472446462
 20
31.4000669589
 10
-22.0787297679
 20
31.4092681497
 10
-22.0099308991
 20
31.4147577112
 10
-21.9408480399
 20
31.416535663
  0
LWPOLYLINE
  5
26A
100
AcDbEntity
  8
ASSI
100
AcDbPolyline
 62
253
  6
CONTINUOUS
 90
19
 70
0
 10
-23.0124982912
 20
30.8536514817
 10
-22.9713681969
 20
30.9100524158
 10
-22.9274261769
 20
30.9639766708
 10
-22.8806722312
 20
31.0154243623
 10
-22.8309494209
 20
31.0645607138
 10
-22.7784146848
 20
31.1112207156
 10
-22.7235388399
 20
31.1549091486
 10
-22.6662927799
 20
31.1955891448
 10
-22.606705611
 20
31.2332978009
 10
-22.5453354688
 20
31.2676508685
 10
-22.4821292802
 20
31.2986118816
 10
-22.4171401183
 20
31.326217511
 10
-22.3510853384
 20
31.3501932194
 10
-22.2839435165
 20
31.3704748806
 10
-22.2157360766
 20
31.3871267738
 10
-22.1472446462
 20
31.4000669589
 10
-22.0787297679
 20
31.4092681497
 10
-22.0099308991
 20
31.4147577112
 10
-21.9408480399
 20
31.416535663
  0
LWPOLYLINE
  5
26B
100
AcDbEntity
  8
RACCORDO
100
AcDbPolyline
 62
253
  6
CONTINUOUS
 90
19
 70
0
 10
-22.6014518953
 20
30.5461942058
 10
-22.576147948
 20
30.5806783207
 10
-22.5489827429
 20
30.6138115529
 10
-22.5200258123
 20
30.6454918564
 10
-22.4893489603
 20
30.6756228671
 10
-22.4570361759
 20
30.7041071543
 10
-22.4231848924
 20
30.7308481604
 10
-22.3878797177
 20
30.7557662412
 10
-22.3512253996
 20
30.7787753793
 10
-22.3133615499
 20
30.7997836573
 10
-22.2743803437
 20
30.8187350157
 10
-22.2344104684
 20
30.8355622464
 10
-22.193660921
 20
30.8501854175
 10
-22.1522512546
 20
30.8625748907
 10
-22.1103083993
 20
30.8727057336
 10
-22.0680636925
 20
30.8805462726
 10
-22.0256794457
 20
30.8861002818
 10
-21.9832440576
 20
30.8893882554
 10
-21.9408788033
 20
30.8904304398
  0
LWPOLYLINE
  5
26C
100
AcDbEntity
  8
ASSI
100
AcDbPolyline
 62
253
  6
CONTINUOUS
 90
19
 70
0
 10
-22.6014518953
 20
30.5461942058
 10
-22.576147948
 20
30.5806783207
 10
-22.5489827429
 20
30.6138115529
 10
-22.5200258123
 20
30.6454918564
 10
-22.4893489603
 20
30.6756228671
 10
-22.4570361759
 20
30.7041071543
 10
-22.4231848924
 20
30.7308481604
 10
-22.3878797177
 20
30.7557662412
 10
-22.3512253996
 20
30.7787753793
 10
-22.3133615499
 20
30.7997836573
 10
-22.2743803437
 20
30.8187350157
 10
-22.2344104684
 20
30.8355622464
 10
-22.193660921
 20
30.8501854175
 10
-22.1522512546
 20
30.8625748907
 10
-22.1103083993
 20
30.8727057336
 10
-22.0680636925
 20
30.8805462726
 10
-22.0256794457
 20
30.8861002818
 10
-21.9832440576
 20
30.8893882554
 10
-21.9408788033
 20
30.8904304398
  0
LWPOLYLINE
  5
26D
100
AcDbEntity
  8
RACCORDO
100
AcDbPolyline
 62
7
  6
CONTINUOUS
 90
19
 70
0
 10
-22.1491845818
 20
30.7406274039
 10
-22.1972290726
 20
30.7194656065
 10
-22.24359569
 20
30.6952575693
 10
-22.2882844339
 20
30.6680032675
 10
-22.331564618
 20
30.6375192324
 10
-22.3731669286
 20
30.6039888727
 10
-22.4122834253
 20
30.5679624816
 10
-22.4488179123
 20
30.5293822732
 10
-22.4828665854
 20
30.4883059711
 10
-22.5139100908
 20
30.4454571456
 10
-22.5418281965
 20
30.400954151
 10
-22.5667411346
 20
30.3546785834
 10
-22.5884902473
 20
30.3069988891
 10
-22.6071051392
 20
30.25774898
 10
-22.6225562057
 20
30.2070948985
 10
-22.6345959748
 20
30.1559033059
 10
-22.6431419559
 20
30.1044630904
 10
-22.6482766397
 20
30.0524853503
 10
-22.6500000262
 20
29.9999700772
  0
LWPOLYLINE
  5
26E
100
AcDbEntity
  8
ASSI
100
AcDbPolyline
 62
7
  6
CONTINUOUS
 90
19
 70
0
 10
-22.1491845818
 20
30.7406274039
 10
-22.1972290726
 20
30.7194656065
 10
-22.24359569
 20
30.6952575693
 10
-22.2882844339
 20
30.6680032675
 10
-22.331564618
 20
30.6375192324
 10
-22.3731669286
 20
30.6039888727
 10
-22.4122834253
 20
30.5679624816
 10
-22.4488179123
 20
30.5293822732
 10
-22.4828665854
 20
30.4883059711
 10
-22.5139100908
 20
30.4454571456
 10
-22.5418281965
 20
30.400954151
 10
-22.5667411346
 20
30.3546785834
 10
-22.5884902473
 20
30.3069988891
 10
-22.6071051392
 20
30.25774898
 10
-22.6225562057
 20
30.2070948985
 10
-22.6345959748
 20
30.1559033059
 10
-22.6431419559
 20
30.1044630904
 10
-22.6482766397
 20
30.0524853503
 10
-22.6500000262
 20
29.9999700772
  0
LWPOLYLINE
  5
26F
100
AcDbEntity
  8
RACCORDO
100
AcDbPolyline
 62
253
  6
CONTINUOUS
 90
28
 70
0
 10
43.8299503769
 20
-36.5581099806
 10
43.8870550041
 20
-36.556251486
 10
43.9438986983
 20
-36.5511103122
 10
44.0002970679
 20
-36.5427097813
 10
44.0560405076
 20
-36.5310902275
 10
44.1109769237
 20
-36.516292131
 10
44.1650082691
 20
-36.4983405812
 10
44.2179940208
 20
-36.477269411
 10
44.2697188624
 20
-36.453151801
 10
44.3199757754
 20
-36.4260796465
 10
44.3685829912
 20
-36.3961498607
 10
44.4153979864
 20
-36.3634503637
 10
44.4602814561
 20
-36.3280773445
 10
44.5030852283
 20
-36.2901397302
 10
44.5436631566
 20
-36.2497599046
 10
44.581886011
 20
-36.2070637188
 10
44.6176229207
 20
-36.162185955
 10
44.6507512097
 20
-36.115269671
 10
44.6811636532
 20
-36.0664627083
 10
44.7087546246
 20
-36.0159165071
 10
44.733423648
 20
-35.963796809
 10
44.7550844781
 20
-35.9102818972
 10
44.7736570833
 20
-35.8555484167
 10
44.7890746325
 20
-35.7997702093
 10
44.8012854486
 20
-35.7431281949
 10
44.8102425797
 20
-35.6858066438
 10
44.8159051462
 20
-35.627992899
 10
44.818245447
 20
-35.5698764262
  0
LWPOLYLINE
  5
270
100
AcDbEntity
  8
ASSI
100
AcDbPolyline
 62
253
  6
CONTINUOUS
 90
28
 70
0
 10
43.8299503769
 20
-36.5581099806
 10
43.8870550041
 20
-36.556251486
 10
43.9438986983
 20
-36.5511103122
 10
44.0002970679
 20
-36.5427097813
 10
44.0560405076
 20
-36.5310902275
 10
44.1109769237
 20
-36.516292131
 10
44.1650082691
 20
-36.4983405812
 10
44.2179940208
 20
-36.477269411
 10
44.2697188624
 20
-36.453151801
 10
44.3199757754
 20
-36.4260796465
 10
44.3685829912
 20
-36.3961498607
 10
44.4153979864
 20
-36.3634503637
 10
44.4602814561
 20
-36.3280773445
 10
44.5030852283
 20
-36.2901397302
 10
44.5436631566
 20
-36.2497599046
 10
44.581886011
 20
-36.2070637188
 10
44.6176229207
 20
-36.162185955
 10
44.6507512097
 20
-36.115269671
 10
44.6811636532
 20
-36.0664627083
 10
44.7087546246
 20
-36.0159165071
 10
44.733423648
 20
-35.963796809
 10
44.7550844781
 20
-35.9102818972
 10
44.7736570833
 20
-35.8555484167
 10
44.7890746325
 20
-35.7997702093
 10
44.8012854486
 20
-35.7431281949
 10
44.8102425797
 20
-35.6858066438
 10
44.8159051462
 20
-35.627992899
 10
44.818245447
 20
-35.5698764262
  0
LWPOLYLINE
  5
271
100
AcDbEntity
  8
RACCORDO
100
AcDbPolyline
 62
253
  6
CONTINUOUS
 90
28
 70
0
 10
43.8299503769
 20
-36.1499454386
 10
43.8586610063
 20
-36.1490948526
 10
43.8870638825
 20
-36.1466084592
 10
43.9151590055
 20
-36.1424862447
 10
43.943030704
 20
-36.1367080848
 10
43.9705946493
 20
-36.1292940499
 10
43.9975978548
 20
-36.1203044072
 10
44.0240465589
 20
-36.1097197532
 10
44.0499345231
 20
-36.0975593887
 10
44.0749900458
 20
-36.0839416315
 10
44.0991973008
 20
-36.0688551672
 10
44.1225721142
 20
-36.0523111715
 10
44.1448902624
 20
-36.0344616999
 10
44.1661444749
 20
-36.0152930604
 10
44.1863420223
 20
-35.9948187853
 10
44.2052804927
 20
-35.9732317792
 10
44.2229489705
 20
-35.9505192497
 10
44.2393583714
 20
-35.9266938271
 10
44.2543390304
 20
-35.9019865752
 10
44.2678766544
 20
-35.8763879177
 10
44.2799855366
 20
-35.8499072858
 10
44.2905388909
 20
-35.8228042914
 10
44.299521441
 20
-35.7950632443
 10
44.3069484633
 20
-35.7666997234
 10
44.3127390017
 20
-35.7380202934
 10
44.3168660708
 20
-35.7091271358
 10
44.3193566561
 20
-35.679918018
 10
44.3202107575
 20
-35.6503929107
  0
LWPOLYLINE
  5
272
100
AcDbEntity
  8
ASSI
100
AcDbPolyline
 62
253
  6
CONTINUOUS
 90
28
 70
0
 10
43.8299503769
 20
-36.1499454386
 10
43.8586610063
 20
-36.1490948526
 10
43.8870638825
 20
-36.1466084592
 10
43.9151590055
 20
-36.1424862447
 10
43.943030704
 20
-36.1367080848
 10
43.9705946493
 20
-36.1292940499
 10
43.9975978548
 20
-36.1203044072
 10
44.0240465589
 20
-36.1097197532
 10
44.0499345231
 20
-36.0975593887
 10
44.0749900458
 20
-36.0839416315
 10
44.0991973008
 20
-36.0688551672
 10
44.1225721142
 20
-36.0523111715
 10
44.1448902624
 20
-36.0344616999
 10
44.1661444749
 20
-36.0152930604
 10
44.1863420223
 20
-35.9948187853
 10
44.2052804927
 20
-35.9732317792
 10
44.2229489705
 20
-35.9505192497
 10
44.2393583714
 20
-35.9266938271
 10
44.2543390304
 20
-35.9019865752
 10
44.2678766544
 20
-35.8763879177
 10
44.2799855366
 20
-35.8499072858
 10
44.2905388909
 20
-35.8228042914
 10
44.299521441
 20
-35.7950632443
 10
44.3069484633
 20
-35.7666997234
 10
44.3127390017
 20
-35.7380202934
 10
44.3168660708
 20
-35.7091271358
 10
44.3193566561
 20
-35.679918018
 10
44.3202107575
 20
-35.6503929107
  0
LINE
  5
273
100
AcDbEntity
  8
RACCORDO
100
AcDbLine
 62
7
  6
CONTINUOUS
 10
-44.0199190996
 20
-36.7511640768
 11
44.0199190996
 21
-36.7511640768
  0
LINE
  5
274
100
AcDbEntity
  8
ASSI
100
AcDbLine
 62
7
  6
CONTINUOUS
 10
-44.0199190996
 20
-36.7511640768
 11
44.0199190996
 21
-36.7511640768
  0
LINE
  5
275
100
AcDbEntity
  8
RACCORDO
100
AcDbLine
 62
253
  6
CONTINUOUS
 10
-43.8299503769
 20
-36.5581099806
 11
43.8299503769
 21
-36.5581099806
  0
LINE
  5
276
100
AcDbEntity
  8
ASSI
100
AcDbLine
 62
253
  6
CONTINUOUS
 10
-43.8299503769
 20
-36.5581099806
 11
43.8299503769
 21
-36.5581099806
  0
LWPOLYLINE
  5
277
100
AcDbEntity
  8
RACCORDO
100
AcDbPolyline
 62
7
  6
CONTINUOUS
 90
28
 70
0
 10
-44.0199190996
 20
-36.7511640768
 10
-44.0764314888
 20
-36.749562119
 10
-44.1324866956
 20
-36.7447324532
 10
-44.1880847201
 20
-36.7366750249
 10
-44.2434714848
 20
-36.7253330241
 10
-44.2984010672
 20
-36.7107630409
 10
-44.3521356995
 20
-36.6931350756
 10
-44.4045494499
 20
-36.6724524785
 10
-44.4557682502
 20
-36.6487114915
 10
-44.5054321278
 20
-36.6220714263
 10
-44.5535364086
 20
-36.5925443884
 10
-44.6000857666
 20
-36.5601177085
 10
-44.6447342516
 20
-36.5249135199
 10
-44.6875941193
 20
-36.4867731272
 10
-44.7285531141
 20
-36.4458545101
 10
-44.7669285181
 20
-36.4027548745
 10
-44.802582628
 20
-36.3575419125
 10
-44.8356531472
 20
-36.3101472811
 10
-44.865870468
 20
-36.2609642579
 10
-44.8932199075
 20
-36.2100222169
 10
-44.9177161486
 20
-36.1572911828
 10
-44.9391336329
 20
-36.1030755139
 10
-44.9574910232
 20
-36.0471993064
 10
-44.9727696567
 20
-35.9898378977
 10
-44.9846879865
 20
-35.9318227141
 10
-44.9931521636
 20
-35.8734308896
 10
-44.9982560369
 20
-35.8143850848
 10
-44.9999996065
 20
-35.7546851777
  0
LWPOLYLINE
  5
278
100
AcDbEntity
  8
ASSI
100
AcDbPolyline
 62
7
  6
CONTINUOUS
 90
28
 70
0
 10
-44.0199190996
 20
-36.7511640768
 10
-44.0764314888
 20
-36.749562119
 10
-44.1324866956
 20
-36.7447324532
 10
-44.1880847201
 20
-36.7366750249
 10
-44.2434714848
 20
-36.7253330241
 10
-44.2984010672
 20
-36.7107630409
 10
-44.3521356995
 20
-36.6931350756
 10
-44.4045494499
 20
-36.6724524785
 10
-44.4557682502
 20
-36.6487114915
 10
-44.5054321278
 20
-36.6220714263
 10
-44.5535364086
 20
-36.5925443884
 10
-44.6000857666
 20
-36.5601177085
 10
-44.6447342516
 20
-36.5249135199
 10
-44.6875941193
 20
-36.4867731272
 10
-44.7285531141
 20
-36.4458545101
 10
-44.7669285181
 20
-36.4027548745
 10
-44.802582628
 20
-36.3575419125
 10
-44.8356531472
 20
-36.3101472811
 10
-44.865870468
 20
-36.2609642579
 10
-44.8932199075
 20
-36.2100222169
 10
-44.9177161486
 20
-36.1572911828
 10
-44.9391336329
 20
-36.1030755139
 10
-44.9574910232
 20
-36.0471993064
 10
-44.9727696567
 20
-35.9898378977
 10
-44.9846879865
 20
-35.9318227141
 10
-44.9931521636
 20
-35.8734308896
 10
-44.9982560369
 20
-35.8143850848
 10
-44.9999996065
 20
-35.7546851777
  0
LWPOLYLINE
  5
279
100
AcDbEntity
  8
RACCORDO
100
AcDbPolyline
 62
253
  6
CONTINUOUS
 90
19
 70
0
 10
44.3202107575
 20
-35.6503928972
 10
44.3613337994
 20
-35.6501011968
 10
44.4021781958
 20
-35.6492121644
 10
44.4424671894
 20
-35.647731824
 10
44.481927786
 20
-35.6456702063
 10
44.5202926047
 20
-35.6430412806
 10
44.5573016895
 20
-35.6398628601
 10
44.5927042707
 20
-35.6361564816
 10
44.6262604639
 20
-35.631947259
 10
44.657742896
 20
-35.6272637137
 10
44.6869382451
 20
-35.6221375809
 10
44.7136486867
 20
-35.6166035946
 10
44.7376932334
 20
-35.6106992527
 10
44.7589089621
 20
-35.6044645623
 10
44.777152117
 20
-35.597941769
 10
44.7922990845
 20
-35.5911750707
 10
44.8042472302
 20
-35.5842103177
 10
44.8129155947
 20
-35.5770947026
 10
44.8182454422
 20
-35.56987644
  0
LWPOLYLINE
  5
27A
100
AcDbEntity
  8
ASSI
100
AcDbPolyline
 62
253
  6
CONTINUOUS
 90
19
 70
0
 10
44.3202107575
 20
-35.6503928972
 10
44.3613337994
 20
-35.6501011968
 10
44.4021781958
 20
-35.6492121644
 10
44.4424671894
 20
-35.647731824
 10
44.481927786
 20
-35.6456702063
 10
44.5202926047
 20
-35.6430412806
 10
44.5573016895
 20
-35.6398628601
 10
44.5927042707
 20
-35.6361564816
 10
44.6262604639
 20
-35.631947259
 10
44.657742896
 20
-35.6272637137
 10
44.6869382451
 20
-35.6221375809
 10
44.7136486867
 20
-35.6166035946
 10
44.7376932334
 20
-35.6106992527
 10
44.7589089621
 20
-35.6044645623
 10
44.777152117
 20
-35.597941769
 10
44.7922990845
 20
-35.5911750707
 10
44.8042472302
 20
-35.5842103177
 10
44.8129155947
 20
-35.5770947026
 10
44.8182454422
 20
-35.56987644
  0
LINE
  5
27B
100
AcDbEntity
  8
RACCORDO
100
AcDbLine
 62
253
  6
CONTINUOUS
 10
-43.8299503769
 20
-36.1499454386
 11
43.8299503769
 21
-36.1499454386
  0
LINE
  5
27C
100
AcDbEntity
  8
ASSI
100
AcDbLine
 62
253
  6
CONTINUOUS
 10
-43.8299503769
 20
-36.1499454386
 11
43.8299503769
 21
-36.1499454386
  0
LWPOLYLINE
  5
27D
100
AcDbEntity
  8
RACCORDO
100
AcDbPolyline
 62
253
  6
CONTINUOUS
 90
19
 70
0
 10
-44.3202107575
 20
-35.6503929054
 10
-44.3613334588
 20
-35.6501011781
 10
-44.4021774929
 20
-35.649212122
 10
-44.4424661075
 20
-35.6477317611
 10
-44.4819263135
 20
-35.645670126
 10
-44.5202907351
 20
-35.643041186
 10
-44.5572994212
 20
-35.6398627543
 10
-44.5927016072
 20
-35.6361563675
 10
-44.6262574135
 20
-35.6319471393
 10
-44.6577394717
 20
-35.6272635908
 10
-44.6869344644
 20
-35.622137457
 10
-44.7136445712
 20
-35.6166034718
 10
-44.7376888089
 20
-35.6106991326
 10
-44.7589042576
 20
-35.6044644462
 10
-44.7771471649
 20
-35.597941658
 10
-44.7922939199
 20
-35.5911749653
 10
-44.8042418908
 20
-35.5842102182
 10
-44.8129101199
 20
-35.5770946088
 10
-44.8182398729
 20
-35.5698763514
  0
LWPOLYLINE
  5
27E
100
AcDbEntity
  8
ASSI
100
AcDbPolyline
 62
253
  6
CONTINUOUS
 90
19
 70
0
 10
-44.3202107575
 20
-35.6503929054
 10
-44.3613334588
 20
-35.6501011781
 10
-44.4021774929
 20
-35.649212122
 10
-44.4424661075
 20
-35.6477317611
 10
-44.4819263135
 20
-35.645670126
 10
-44.5202907351
 20
-35.643041186
 10
-44.5572994212
 20
-35.6398627543
 10
-44.5927016072
 20
-35.6361563675
 10
-44.6262574135
 20
-35.6319471393
 10
-44.6577394717
 20
-35.6272635908
 10
-44.6869344644
 20
-35.622137457
 10
-44.7136445712
 20
-35.6166034718
 10
-44.7376888089
 20
-35.6106991326
 10
-44.7589042576
 20
-35.6044644462
 10
-44.7771471649
 20
-35.597941658
 10
-44.7922939199
 20
-35.5911749653
 10
-44.8042418908
 20
-35.5842102182
 10
-44.8129101199
 20
-35.5770946088
 10
-44.8182398729
 20
-35.5698763514
  0
LWPOLYLINE
  5
27F
100
AcDbEntity
  8
RACCORDO
100
AcDbPolyline
 62
253
  6
CONTINUOUS
 90
13
 70
0
 10
-23.2425103428
 20
30.1159397578
 10
-23.2410994083
 20
30.1793006842
 10
-23.2364134809
 20
30.2428051845
 10
-23.2284525605
 20
30.3064532544
 10
-23.2172198939
 20
30.3705346165
 10
-23.2027122343
 20
30.4347595355
 10
-23.1849198415
 20
30.4982588389
 10
-23.1637160728
 20
30.5610623766
 10
-23.1392275708
 20
30.6231403261
 10
-23.111824523
 20
30.6835340429
 10
-23.081630325
 20
30.7419240093
 10
-23.048521581
 20
30.7986298119
 10
-23.0124982912
 20
30.8536514817
  0
LWPOLYLINE
  5
280
100
AcDbEntity
  8
ASSI
100
AcDbPolyline
 62
253
  6
CONTINUOUS
 90
13
 70
0
 10
-23.2425103428
 20
30.1159397578
 10
-23.2410994083
 20
30.1793006842
 10
-23.2364134809
 20
30.2428051845
 10
-23.2284525605
 20
30.3064532544
 10
-23.2172198939
 20
30.3705346165
 10
-23.2027122343
 20
30.4347595355
 10
-23.1849198415
 20
30.4982588389
 10
-23.1637160728
 20
30.5610623766
 10
-23.1392275708
 20
30.6231403261
 10
-23.111824523
 20
30.6835340429
 10
-23.081630325
 20
30.7419240093
 10
-23.048521581
 20
30.7986298119
 10
-23.0124982912
 20
30.8536514817
  0
LWPOLYLINE
  5
281
100
AcDbEntity
  8
RACCORDO
100
AcDbPolyline
 62
253
  6
CONTINUOUS
 90
13
 70
0
 10
-22.6014518953
 20
-14.0485223595
 10
-22.6233960669
 20
-14.0151077585
 10
-22.6437197975
 20
-13.9804797436
 10
-22.6623484407
 20
-13.9447122169
 10
-22.679244921
 20
-13.9078038022
 10
-22.69429824
 20
-13.8699147965
 10
-22.7073651677
 20
-13.831383311
 10
-22.7184220266
 20
-13.7923179584
 10
-22.727454275
 20
-13.7528185226
 10
-22.7344142697
 20
-13.713233266
 10
-22.7393249498
 20
-13.6737526066
 10
-22.7422388598
 20
-13.6343997595
 10
-22.743197201
 20
-13.5952741571
  0
LWPOLYLINE
  5
282
100
AcDbEntity
  8
ASSI
100
AcDbPolyline
 62
253
  6
CONTINUOUS
 90
13
 70
0
 10
-22.6014518953
 20
-14.0485223595
 10
-22.6233960669
 20
-14.0151077585
 10
-22.6437197975
 20
-13.9804797436
 10
-22.6623484407
 20
-13.9447122169
 10
-22.679244921
 20
-13.9078038022
 10
-22.69429824
 20
-13.8699147965
 10
-22.7073651677
 20
-13.831383311
 10
-22.7184220266
 20
-13.7923179584
 10
-22.727454275
 20
-13.7528185226
 10
-22.7344142697
 20
-13.713233266
 10
-22.7393249498
 20
-13.6737526066
 10
-22.7422388598
 20
-13.6343997595
 10
-22.743197201
 20
-13.5952741571
  0
LWPOLYLINE
  5
283
100
AcDbEntity
  8
RACCORDO
100
AcDbPolyline
 62
253
  6
CONTINUOUS
 90
13
 70
0
 10
-23.0124982912
 20
-14.3559796354
 10
-23.0482187267
 20
-14.3014943295
 10
-23.0811022854
 20
-14.2452510695
 10
-23.1111489675
 20
-14.1872498231
 10
-23.1384932466
 20
-14.1271944288
 10
-23.163000649
 20
-14.0653809771
 10
-23.1842677533
 20
-14.0026978308
 10
-23.2021788609
 20
-13.9391390211
 10
-23.2168496704
 20
-13.8747104828
 10
-23.228223856
 20
-13.8103184715
 10
-23.2362826422
 20
-13.7462650821
 10
-23.2410448045
 20
-13.6822482281
 10
-23.2425103428
 20
-13.6182679114
  0
LWPOLYLINE
  5
284
100
AcDbEntity
  8
ASSI
100
AcDbPolyline
 62
253
  6
CONTINUOUS
 90
13
 70
0
 10
-23.0124982912
 20
-14.3559796354
 10
-23.0482187267
 20
-14.3014943295
 10
-23.0811022854
 20
-14.2452510695
 10
-23.1111489675
 20
-14.1872498231
 10
-23.1384932466
 20
-14.1271944288
 10
-23.163000649
 20
-14.0653809771
 10
-23.1842677533
 20
-14.0026978308
 10
-23.2021788609
 20
-13.9391390211
 10
-23.2168496704
 20
-13.8747104828
 10
-23.228223856
 20
-13.8103184715
 10
-23.2362826422
 20
-13.7462650821
 10
-23.2410448045
 20
-13.6822482281
 10
-23.2425103428
 20
-13.6182679114
  0
LWPOLYLINE
  5
285
100
AcDbEntity
  8
RACCORDO
100
AcDbPolyline
 62
7
  6
CONTINUOUS
 90
19
 70
0
 10
-22.6500000262
 20
-13.5022982309
 10
-22.6482855128
 20
-13.5547767025
 10
-22.6431543922
 20
-13.60673658
 10
-22.6346066645
 20
-13.6581778715
 10
-22.622555901
 20
-13.709402189
 10
-22.6070885304
 20
-13.7601079332
 10
-22.5884638385
 20
-13.8093903108
 10
-22.5667177447
 20
-13.8570627703
 10
-22.5418143295
 20
-13.9033119096
 10
-22.5139051201
 20
-13.9477926791
 10
-22.4828675292
 20
-13.9906321121
 10
-22.448824144
 20
-14.0317032245
 10
-22.4122942528
 20
-14.0702799544
 10
-22.3731825175
 20
-14.1063037252
 10
-22.3315842763
 20
-14.1398331757
 10
-22.2883048318
 20
-14.1703180796
 10
-22.2436126183
 20
-14.1975750505
 10
-22.1972392017
 20
-14.2217875349
 10
-22.1491845818
 20
-14.2429555576
  0
LWPOLYLINE
  5
286
100
AcDbEntity
  8
ASSI
100
AcDbPolyline
 62
7
  6
CONTINUOUS
 90
19
 70
0
 10
-22.6500000262
 20
-13.5022982309
 10
-22.6482855128
 20
-13.5547767025
 10
-22.6431543922
 20
-13.60673658
 10
-22.6346066645
 20
-13.6581778715
 10
-22.622555901
 20
-13.709402189
 10
-22.6070885304
 20
-13.7601079332
 10
-22.5884638385
 20
-13.8093903108
 10
-22.5667177447
 20
-13.8570627703
 10
-22.5418143295
 20
-13.9033119096
 10
-22.5139051201
 20
-13.9477926791
 10
-22.4828675292
 20
-13.9906321121
 10
-22.448824144
 20
-14.0317032245
 10
-22.4122942528
 20
-14.0702799544
 10
-22.3731825175
 20
-14.1063037252
 10
-22.3315842763
 20
-14.1398331757
 10
-22.2883048318
 20
-14.1703180796
 10
-22.2436126183
 20
-14.1975750505
 10
-22.1972392017
 20
-14.2217875349
 10
-22.1491845818
 20
-14.2429555576
  0
LINE
  5
287
100
AcDbEntity
  8
RACCORDO
100
AcDbLine
 62
253
  6
CONTINUOUS
 10
-23.2425103428
 20
-13.6182679114
 11
-23.2425103428
 21
30.1159397578
  0
LINE
  5
288
100
AcDbEntity
  8
ASSI
100
AcDbLine
 62
253
  6
CONTINUOUS
 10
-23.2425103428
 20
-13.6182679114
 11
-23.2425103428
 21
30.1159397578
  0
LINE
  5
289
100
AcDbEntity
  8
RACCORDO
100
AcDbLine
 62
253
  6
CONTINUOUS
 10
-22.7431972229
 20
-13.5952741785
 11
-22.7431972153
 21
30.0929341397
  0
LINE
  5
28A
100
AcDbEntity
  8
ASSI
100
AcDbLine
 62
253
  6
CONTINUOUS
 10
-22.7431972229
 20
-13.5952741785
 11
-22.7431972153
 21
30.0929341397
  0
LINE
  5
28B
100
AcDbEntity
  8
RACCORDO
100
AcDbLine
 62
7
  6
CONTINUOUS
 10
-22.6500000262
 20
29.9999700772
 11
-22.6500000262
 21
-13.5022982309
  0
LINE
  5
28C
100
AcDbEntity
  8
ASSI
100
AcDbLine
 62
7
  6
CONTINUOUS
 10
-22.6500000262
 20
29.9999700772
 11
-22.6500000262
 21
-13.5022982309
  0
LINE
  5
28D
100
AcDbEntity
  8
RACCORDO
100
AcDbLine
 62
253
  6
CONTINUOUS
 10
-21.9408480399
 20
31.416535663
 11
-21.9408480399
 21
30.8904303881
  0
LINE
  5
28E
100
AcDbEntity
  8
ASSI
100
AcDbLine
 62
253
  6
CONTINUOUS
 10
-21.9408480399
 20
31.416535663
 11
-21.9408480399
 21
30.8904303881
  0
LINE
  5
28F
100
AcDbEntity
  8
RACCORDO
100
AcDbLine
 62
253
  6
CONTINUOUS
 10
-21.9408480399
 20
-14.9188638167
 11
-21.9408480399
 21
-14.3927585418
  0
LINE
  5
290
100
AcDbEntity
  8
ASSI
100
AcDbLine
 62
253
  6
CONTINUOUS
 10
-21.9408480399
 20
-14.9188638167
 11
-21.9408480399
 21
-14.3927585418
  0
LWPOLYLINE
  5
291
100
AcDbEntity
  8
RACCORDO
100
AcDbPolyline
 62
253
  6
CONTINUOUS
 90
13
 70
0
 10
-22.7431972039
 20
30.0929341285
 10
-22.7422554982
 20
30.1317327368
 10
-22.7393857622
 20
30.1708084939
 10
-22.7345399315
 20
30.2100635448
 10
-22.7276612641
 20
30.2494622105
 10
-22.7187181573
 20
30.2888280086
 10
-22.7077382946
 20
30.3278513848
 10
-22.694714128
 20
30.3664534495
 10
-22.6796627219
 20
30.4044960304
 10
-22.6627300913
 20
30.44160258
 10
-22.6440261167
 20
30.477597535
 10
-22.6235770797
 20
30.5124880118
 10
-22.6014518953
 20
30.5461942058
  0
LWPOLYLINE
  5
292
100
AcDbEntity
  8
ASSI
100
AcDbPolyline
 62
253
  6
CONTINUOUS
 90
13
 70
0
 10
-22.7431972039
 20
30.0929341285
 10
-22.7422554982
 20
30.1317327368
 10
-22.7393857622
 20
30.1708084939
 10
-22.7345399315
 20
30.2100635448
 10
-22.7276612641
 20
30.2494622105
 10
-22.7187181573
 20
30.2888280086
 10
-22.7077382946
 20
30.3278513848
 10
-22.694714128
 20
30.3664534495
 10
-22.6796627219
 20
30.4044960304
 10
-22.6627300913
 20
30.44160258
 10
-22.6440261167
 20
30.477597535
 10
-22.6235770797
 20
30.5124880118
 10
-22.6014518953
 20
30.5461942058
  0
LWPOLYLINE
  5
293
100
AcDbEntity
  8
SCRITTE
100
AcDbPolyline
 62
253
  6
CONTINUOUS
 90
36
 70
0
 10
3.3200188023
 20
-17.8619714179
 10
3.3637863209
 20
-17.8556281541
 10
3.4068726691
 20
-17.8495817483
 10
3.4492602291
 20
-17.8438427115
 10
3.4909313832
 20
-17.8384215546
 10
3.5318685136
 20
-17.8333287883
 10
3.5720664414
 20
-17.8285725885
 10
3.6115697439
 20
-17.8241517901
 10
3.6504354369
 20
-17.820062893
 10
3.6887205366
 20
-17.8163023969
 10
3.7264820588
 20
-17.8128668017
 10
3.7730266292
 20
-17.8090252321
 10
3.8189060843
 20
-17.8056872044
 10
3.864184311
 20
-17.8028540718
 10
3.9089251962
 20
-17.8005271874
 10
3.9531959628
 20
-17.7987095398
 10
3.997077178
 20
-17.7974106577
 10
4.0406527448
 20
-17.7966417049
 10
4.0840065665
 20
-17.7964138455
 10
4.1415869903
 20
-17.7969715139
 10
4.1989727272
 20
-17.7985403439
 10
4.2562141427
 20
-17.8011497063
 10
4.2990763796
 20
-17.8038140111
 10
4.3418805437
 20
-17.8071331182
 10
4.3846214122
 20
-17.8111600094
 10
4.4272937624
 20
-17.8159476662
 10
4.4613752967
 20
-17.8203645579
 10
4.4953859446
 20
-17.8253498419
 10
4.529302014
 20
-17.8309511124
 10
4.5630998126
 20
-17.8372159635
 10
4.5967556482
 20
-17.8441919891
 10
4.6302472069
 20
-17.8519271228
 10
4.6635576874
 20
-17.8604706555
 10
4.6966716667
 20
-17.8698722174
 10
4.7295737219
 20
-17.8801814389
 10
4.7622484297
 20
-17.8914479503
  0
LWPOLYLINE
  5
294
100
AcDbEntity
  8
SCRITTE
100
AcDbPolyline
 62
253
  6
CONTINUOUS
 90
56
 70
0
 10
4.2166806432
 20
-19.0747921634
 10
4.2329275581
 20
-19.0742890393
 10
4.2492785413
 20
-19.0734859467
 10
4.2657549527
 20
-19.0723566551
 10
4.282378152
 20
-19.0708749339
 10
4.2991549447
 20
-19.0690147354
 10
4.3160339189
 20
-19.0667507438
 10
4.3329491085
 20
-19.0640578262
 10
4.3498345472
 20
-19.0609108498
 10
4.363276074
 20
-19.0580512838
 10
4.3766161214
 20
-19.0548831278
 10
4.3898144688
 20
-19.0514044745
 10
4.4028308957
 20
-19.0476134164
 10
4.4156251815
 20
-19.0435080462
 10
4.4281613788
 20
-19.0390867818
 10
4.440420633
 20
-19.0343493417
 10
4.4523883624
 20
-19.0292957696
 10
4.4640499856
 20
-19.0239261093
 10
4.475390921
 20
-19.0182404044
 10
4.4845880607
 20
-19.0132600692
 10
4.4935550363
 20
-19.0080551758
 10
4.5022945095
 20
-19.0026206111
 10
4.5108082121
 20
-18.9969508671
 10
4.5190941561
 20
-18.9910388559
 10
4.5271494239
 20
-18.9848770951
 10
4.5349715827
 20
-18.9784600294
 10
4.5425601413
 20
-18.9717898135
 10
4.5499150938
 20
-18.9648705296
 10
4.5570370784
 20
-18.9577074669
 10
4.5639293102
 20
-18.9503107429
 10
4.5705956484
 20
-18.9426916821
 10
4.5783028558
 20
-18.9332679928
 10
4.5856990855
 20
-18.9235403551
 10
4.5927930894
 20
-18.9135086782
 10
4.5995936193
 20
-18.9031728714
 10
4.606109427
 20
-18.8925328441
 10
4.6123470634
 20
-18.8815895906
 10
4.6183042768
 20
-18.8703484455
 10
4.6239766144
 20
-18.8588158285
 10
4.6293596235
 20
-18.8469981592
 10
4.6344488516
 20
-18.8349018574
 10
4.6392387119
 20
-18.8225381042
 10
4.6437190814
 20
-18.8099371269
 10
4.6478787032
 20
-18.7971339139
 10
4.6517063204
 20
-18.7841634541
 10
4.655190676
 20
-18.7710607361
 10
4.6583224428
 20
-18.7578612152
 10
4.661100013
 20
-18.7446022131
 10
4.6635237084
 20
-18.7313215182
 10
4.6655938509
 20
-18.7180569189
 10
4.6673107625
 20
-18.7048462035
 10
4.6686751079
 20
-18.6917187568
 10
4.6696889234
 20
-18.6786703487
 10
4.670354588
 20
-18.6656883455
 10
4.6706744809
 20
-18.6527601137
 10
4.6706509811
 20
-18.6398730195
  0
LINE
  5
295
100
AcDbEntity
  8
SCRITTE
100
AcDbLine
 62
253
  6
CONTINUOUS
 10
5.3591482119
 20
-20.6289654312
 11
4.7970156219
 21
-20.6289654312
  0
LINE
  5
296
100
AcDbEntity
  8
SCRITTE
100
AcDbLine
 62
253
  6
CONTINUOUS
 10
-4.616107
 20
-20.6289650768
 11
-4.101097
 21
-20.6289650768
  0
LINE
  5
297
100
AcDbEntity
  8
SCRITTE
100
AcDbLine
 62
253
  6
CONTINUOUS
 10
3.9020753449
 20
-20.6289654312
 11
3.3200188023
 21
-20.6289654312
  0
LINE
  5
298
100
AcDbEntity
  8
SCRITTE
100
AcDbLine
 62
253
  6
CONTINUOUS
 10
-2.085272
 20
-20.6289650768
 11
-1.526183
 21
-20.6289650768
  0
LINE
  5
299
100
AcDbEntity
  8
SCRITTE
100
AcDbLine
 62
253
  6
CONTINUOUS
 10
-0.714487
 20
-20.6289650768
 11
-0.632524
 21
-20.6289650768
  0
LINE
  5
29A
100
AcDbEntity
  8
SCRITTE
100
AcDbLine
 62
253
  6
CONTINUOUS
 10
0.182406
 20
-20.6289650768
 11
0.754112
 21
-20.6289650768
  0
LINE
  5
29B
100
AcDbEntity
  8
SCRITTE
100
AcDbLine
 62
253
  6
CONTINUOUS
 10
0.84588
 20
-20.6289650768
 11
1.423947
 21
-20.6289650768
  0
LINE
  5
29C
100
AcDbEntity
  8
SCRITTE
100
AcDbLine
 62
253
  6
CONTINUOUS
 10
2.532466
 20
-20.6289650768
 11
3.148408
 21
-20.6289650768
  0
LINE
  5
29D
100
AcDbEntity
  8
SCRITTE
100
AcDbLine
 62
253
  6
CONTINUOUS
 10
-2.399877
 20
-20.6289650768
 11
-2.984285
 21
-20.6289650768
  0
LINE
  5
29E
100
AcDbEntity
  8
SCRITTE
100
AcDbLine
 62
253
  6
CONTINUOUS
 10
1.585207
 20
-20.0700450768
 11
2.381074
 21
-20.0700450768
  0
LINE
  5
29F
100
AcDbEntity
  8
SCRITTE
100
AcDbLine
 62
253
  6
CONTINUOUS
 10
2.26428
 20
-19.6375550768
 11
1.704751
 21
-19.6375550768
  0
LINE
  5
2A0
100
AcDbEntity
  8
SCRITTE
100
AcDbLine
 62
253
  6
CONTINUOUS
 10
4.2154209623
 20
-19.5333160016
 11
3.9020753449
 21
-19.5333160016
  0
LINE
  5
2A1
100
AcDbEntity
  8
SCRITTE
100
AcDbLine
 62
253
  6
CONTINUOUS
 10
3.8826972541
 20
-19.0747921634
 11
4.2166806432
 21
-19.0747921634
  0
LINE
  5
2A2
100
AcDbEntity
  8
SCRITTE
100
AcDbLine
 62
253
  6
CONTINUOUS
 10
2.28939
 20
-17.8292620768
 11
1.724045
 21
-17.8292620768
  0
LINE
  5
2A3
100
AcDbEntity
  8
SCRITTE
100
AcDbLine
 62
253
  6
CONTINUOUS
 10
0.492308
 20
-17.8292620768
 11
-0.085906
 21
-17.8292620768
  0
LINE
  5
2A4
100
AcDbEntity
  8
SCRITTE
100
AcDbLine
 62
253
  6
CONTINUOUS
 10
-1.24855
 20
-17.8292620768
 11
-1.832475
 21
-17.8292620768
  0
LINE
  5
2A5
100
AcDbEntity
  8
SCRITTE
100
AcDbLine
 62
253
  6
CONTINUOUS
 10
-3.20116
 20
-17.8292620768
 11
-3.785169
 21
-17.8292620768
  0
LINE
  5
2A6
100
AcDbEntity
  8
SCRITTE
100
AcDbLine
 62
253
  6
CONTINUOUS
 10
-4.86882
 20
-17.8292620768
 11
-5.503668
 21
-17.8292620768
  0
LINE
  5
2A7
100
AcDbEntity
  8
SCRITTE
100
AcDbLine
 62
253
  6
CONTINUOUS
 10
-2.984285
 20
-17.8290940768
 11
-2.399877
 21
-17.8290940768
  0
LWPOLYLINE
  5
2A8
100
AcDbEntity
  8
RACCORDO
100
AcDbPolyline
 62
7
  6
CONTINUOUS
 90
7
 70
0
 10
-22.1491845818
 20
-14.2429555576
 10
-22.1004888917
 20
-14.2607112458
 10
-22.0512604818
 20
-14.2752451792
 10
-22.0014993521
 20
-14.2865574004
 10
-21.9512055026
 20
-14.2946479428
 10
-21.9003789333
 20
-14.2995168301
 10
-21.8490196442
 20
-14.3011640768
  0
LWPOLYLINE
  5
2A9
100
AcDbEntity
  8
ASSI
100
AcDbPolyline
 62
7
  6
CONTINUOUS
 90
7
 70
0
 10
-22.1491845818
 20
-14.2429555576
 10
-22.1004888917
 20
-14.2607112458
 10
-22.0512604818
 20
-14.2752451792
 10
-22.0014993521
 20
-14.2865574004
 10
-21.9512055026
 20
-14.2946479428
 10
-21.9003789333
 20
-14.2995168301
 10
-21.8490196442
 20
-14.3011640768
  0
LINE
  5
2AA
100
AcDbEntity
  8
RACCORDO
100
AcDbLine
 62
253
  6
CONTINUOUS
 10
22.8755900943
 20
30.7578093952
 11
22.8120612712
 21
30.7122499515
  0
LINE
  5
2AB
100
AcDbEntity
  8
ASSI
100
AcDbLine
 62
253
  6
CONTINUOUS
 10
22.8755900943
 20
30.7578093952
 11
22.8120612712
 21
30.7122499515
  0
LINE
  5
2AC
100
AcDbEntity
  8
RACCORDO
100
AcDbLine
 62
253
  6
CONTINUOUS
 10
22.9430477248
 20
30.8053984067
 11
22.8755900943
 21
30.7578093952
  0
LINE
  5
2AD
100
AcDbEntity
  8
ASSI
100
AcDbLine
 62
253
  6
CONTINUOUS
 10
22.9430477248
 20
30.8053984067
 11
22.8755900943
 21
30.7578093952
  0
LINE
  5
2AE
100
AcDbEntity
  8
RACCORDO
100
AcDbLine
 62
253
  6
CONTINUOUS
 10
23.0124982911
 20
30.8536512963
 11
22.9430477248
 21
30.8053984067
  0
LINE
  5
2AF
100
AcDbEntity
  8
ASSI
100
AcDbLine
 62
253
  6
CONTINUOUS
 10
23.0124982911
 20
30.8536512963
 11
22.9430477248
 21
30.8053984067
  0
LWPOLYLINE
  5
2B0
100
AcDbEntity
  8
RACCORDO
100
AcDbPolyline
 62
7
  6
CONTINUOUS
 90
7
 70
0
 10
21.8490196442
 20
-14.3011640768
 10
21.9003543612
 20
-14.299521581
 10
21.9511661872
 20
-14.2946555442
 10
22.0014551223
 20
-14.2865659521
 10
22.0512211664
 20
-14.2752527807
 10
22.1004643196
 20
-14.2607159968
 10
22.1491845818
 20
-14.2429555576
  0
LWPOLYLINE
  5
2B1
100
AcDbEntity
  8
ASSI
100
AcDbPolyline
 62
7
  6
CONTINUOUS
 90
7
 70
0
 10
21.8490196442
 20
-14.3011640768
 10
21.9003543612
 20
-14.299521581
 10
21.9511661872
 20
-14.2946555442
 10
22.0014551223
 20
-14.2865659521
 10
22.0512211664
 20
-14.2752527807
 10
22.1004643196
 20
-14.2607159968
 10
22.1491845818
 20
-14.2429555576
  0
LWPOLYLINE
  5
2B2
100
AcDbEntity
  8
RACCORDO
100
AcDbPolyline
 62
253
  6
CONTINUOUS
 90
16
 70
0
 10
44.4452465341
 20
-14.3552225625
 10
44.4847390969
 20
-14.3546360754
 10
44.5231330019
 20
-14.35388822
 10
44.5601676349
 20
-14.3529840728
 10
44.5955916082
 20
-14.3519297709
 10
44.6291644671
 20
-14.350732471
 10
44.6606583223
 20
-14.3494003
 10
44.6898593963
 20
-14.3479423008
 10
44.716569475
 20
-14.34636837
 10
44.7406072527
 20
-14.3446891914
 10
44.7618095634
 20
-14.3429161631
 10
44.7800324877
 20
-14.3410613202
 10
44.79515233
 20
-14.3391372533
 10
44.8070664582
 20
-14.3371570226
 10
44.8156940005
 20
-14.3351340699
 10
44.8209763937
 20
-14.3330821267
  0
LWPOLYLINE
  5
2B3
100
AcDbEntity
  8
ASSI
100
AcDbPolyline
 62
253
  6
CONTINUOUS
 90
16
 70
0
 10
44.4452465341
 20
-14.3552225625
 10
44.4847390969
 20
-14.3546360754
 10
44.5231330019
 20
-14.35388822
 10
44.5601676349
 20
-14.3529840728
 10
44.5955916082
 20
-14.3519297709
 10
44.6291644671
 20
-14.350732471
 10
44.6606583223
 20
-14.3494003
 10
44.6898593963
 20
-14.3479423008
 10
44.716569475
 20
-14.34636837
 10
44.7406072527
 20
-14.3446891914
 10
44.7618095634
 20
-14.3429161631
 10
44.7800324877
 20
-14.3410613202
 10
44.79515233
 20
-14.3391372533
 10
44.8070664582
 20
-14.3371570226
 10
44.8156940005
 20
-14.3351340699
 10
44.8209763937
 20
-14.3330821267
  0
LWPOLYLINE
  5
2B4
100
AcDbEntity
  8
RACCORDO
100
AcDbPolyline
 62
253
  6
CONTINUOUS
 90
16
 70
0
 10
44.4452505819
 20
-14.2524499958
 10
44.4847432107
 20
-14.2518648245
 10
44.5231371757
 20
-14.2511190557
 10
44.5601718614
 20
-14.2502177514
 10
44.5955958789
 20
-14.2491670297
 10
44.6291687722
 20
-14.2479740228
 10
44.660662651
 20
-14.2466468287
 10
44.6898637368
 20
-14.2451944565
 10
44.7165738147
 20
-14.2436267645
 10
44.7406115784
 20
-14.2419543944
 10
44.7618138614
 20
-14.2401886979
 10
44.7800367438
 20
-14.2383416605
 10
44.7951565301
 20
-14.2364258198
 10
44.8070705881
 20
-14.2344541804
 10
44.815698046
 20
-14.2324401256
 10
44.8209803413
 20
-14.2303973267
  0
LWPOLYLINE
  5
2B5
100
AcDbEntity
  8
ASSI
100
AcDbPolyline
 62
253
  6
CONTINUOUS
 90
16
 70
0
 10
44.4452505819
 20
-14.2524499958
 10
44.4847432107
 20
-14.2518648245
 10
44.5231371757
 20
-14.2511190557
 10
44.5601718614
 20
-14.2502177514
 10
44.5955958789
 20
-14.2491670297
 10
44.6291687722
 20
-14.2479740228
 10
44.660662651
 20
-14.2466468287
 10
44.6898637368
 20
-14.2451944565
 10
44.7165738147
 20
-14.2436267645
 10
44.7406115784
 20
-14.2419543944
 10
44.7618138614
 20
-14.2401886979
 10
44.7800367438
 20
-14.2383416605
 10
44.7951565301
 20
-14.2364258198
 10
44.8070705881
 20
-14.2344541804
 10
44.815698046
 20
-14.2324401256
 10
44.8209803413
 20
-14.2303973267
  0
LWPOLYLINE
  5
2B6
100
AcDbEntity
  8
RACCORDO
100
AcDbPolyline
 62
253
  6
CONTINUOUS
 90
16
 70
0
 10
-23.1173253688
 20
-13.617495323
 10
-23.076985168
 20
-13.6168995548
 10
-23.0378220827
 20
-13.6161407334
 10
-23.0001146173
 20
-13.6152242552
 10
-22.9641309246
 20
-13.6141566374
 10
-22.930126899
 20
-13.6129454725
 10
-22.8983443567
 20
-13.6115993734
 10
-22.869009316
 20
-13.6101279129
 10
-22.8423303901
 20
-13.608541555
 10
-22.8184973035
 20
-13.606851581
 10
-22.7976795428
 20
-13.605070009
 10
-22.7800251513
 20
-13.6032095084
 10
-22.7656596766
 20
-13.60128331
 10
-22.7546852771
 20
-13.5993051118
 10
-22.7471799963
 20
-13.5972889815
 10
-22.7431972073
 20
-13.5952492566
  0
LWPOLYLINE
  5
2B7
100
AcDbEntity
  8
ASSI
100
AcDbPolyline
 62
253
  6
CONTINUOUS
 90
16
 70
0
 10
-23.1173253688
 20
-13.617495323
 10
-23.076985168
 20
-13.6168995548
 10
-23.0378220827
 20
-13.6161407334
 10
-23.0001146173
 20
-13.6152242552
 10
-22.9641309246
 20
-13.6141566374
 10
-22.930126899
 20
-13.6129454725
 10
-22.8983443567
 20
-13.6115993734
 10
-22.869009316
 20
-13.6101279129
 10
-22.8423303901
 20
-13.608541555
 10
-22.8184973035
 20
-13.606851581
 10
-22.7976795428
 20
-13.605070009
 10
-22.7800251513
 20
-13.6032095084
 10
-22.7656596766
 20
-13.60128331
 10
-22.7546852771
 20
-13.5993051118
 10
-22.7471799963
 20
-13.5972889815
 10
-22.7431972073
 20
-13.5952492566
  0
LINE
  5
2B8
100
AcDbEntity
  8
RACCORDO
100
AcDbLine
 62
253
  6
CONTINUOUS
 10
44.3640433607
 20
-14.3558966303
 11
44.4452465341
 21
-14.3552225625
  0
LINE
  5
2B9
100
AcDbEntity
  8
ASSI
100
AcDbLine
 62
253
  6
CONTINUOUS
 10
44.3640433607
 20
-14.3558966303
 11
44.4452465341
 21
-14.3552225625
  0
LWPOLYLINE
  5
2BA
100
AcDbEntity
  8
RACCORDO
100
AcDbPolyline
 62
253
  6
CONTINUOUS
 90
3
 70
0
 10
44.3228877784
 20
-14.2532078074
 10
44.3640472645
 20
-14.253123774
 10
44.4452505819
 20
-14.2524499958
  0
LWPOLYLINE
  5
2BB
100
AcDbEntity
  8
ASSI
100
AcDbPolyline
 62
253
  6
CONTINUOUS
 90
3
 70
0
 10
44.3228877784
 20
-14.2532078074
 10
44.3640472645
 20
-14.253123774
 10
44.4452505819
 20
-14.2524499958
  0
LWPOLYLINE
  5
2BC
100
AcDbEntity
  8
RACCORDO
100
AcDbPolyline
 62
253
  6
CONTINUOUS
 90
3
 70
0
 10
-23.2425103428
 20
-13.618267911
 10
-23.2003832852
 20
-13.6181819425
 10
-23.1173253688
 20
-13.617495323
  0
LWPOLYLINE
  5
2BD
100
AcDbEntity
  8
ASSI
100
AcDbPolyline
 62
253
  6
CONTINUOUS
 90
3
 70
0
 10
-23.2425103428
 20
-13.618267911
 10
-23.2003832852
 20
-13.6181819425
 10
-23.1173253688
 20
-13.617495323
  0
LINE
  5
2BE
100
AcDbEntity
  8
RACCORDO
100
AcDbLine
 62
253
  6
CONTINUOUS
 10
21.9408480399
 20
-14.9188638167
 11
-21.9408480399
 21
-14.9188638167
  0
LINE
  5
2BF
100
AcDbEntity
  8
ASSI
100
AcDbLine
 62
253
  6
CONTINUOUS
 10
21.9408480399
 20
-14.9188638167
 11
-21.9408480399
 21
-14.9188638167
  0
LINE
  5
2C0
100
AcDbEntity
  8
RACCORDO
100
AcDbLine
 62
253
  6
CONTINUOUS
 10
21.9408792111
 20
-14.3927585418
 11
-21.9408489302
 21
-14.3927585418
  0
LINE
  5
2C1
100
AcDbEntity
  8
ASSI
100
AcDbLine
 62
253
  6
CONTINUOUS
 10
21.9408792111
 20
-14.3927585418
 11
-21.9408489302
 21
-14.3927585418
  0
LINE
  5
2C2
100
AcDbEntity
  8
RACCORDO
100
AcDbLine
 62
253
  6
CONTINUOUS
 10
23.0124982912
 20
-14.3559796354
 11
44.3640433607
 21
-14.3558966303
  0
LINE
  5
2C3
100
AcDbEntity
  8
ASSI
100
AcDbLine
 62
253
  6
CONTINUOUS
 10
23.0124982912
 20
-14.3559796354
 11
44.3640433607
 21
-14.3558966303
  0
LINE
  5
2C4
100
AcDbEntity
  8
RACCORDO
100
AcDbLine
 62
7
  6
CONTINUOUS
 10
-21.8490196442
 20
-14.3011640768
 11
21.8490196442
 21
-14.3011640768
  0
LINE
  5
2C5
100
AcDbEntity
  8
ASSI
100
AcDbLine
 62
7
  6
CONTINUOUS
 10
-21.8490196442
 20
-14.3011640768
 11
21.8490196442
 21
-14.3011640768
  0
LINE
  5
2C6
100
AcDbEntity
  8
RACCORDO
100
AcDbLine
 62
253
  6
CONTINUOUS
 10
44.8209803417
 20
-14.2303973267
 11
45.0
 21
-14.2303973267
  0
LINE
  5
2C7
100
AcDbEntity
  8
ASSI
100
AcDbLine
 62
253
  6
CONTINUOUS
 10
44.8209803417
 20
-14.2303973267
 11
45.0
 21
-14.2303973267
  0
LINE
  5
2C8
100
AcDbEntity
  8
RACCORDO
100
AcDbLine
 62
253
  6
CONTINUOUS
 10
-44.8209803417
 20
-14.2303973267
 11
-45.0
 21
-14.2303973267
  0
LINE
  5
2C9
100
AcDbEntity
  8
ASSI
100
AcDbLine
 62
253
  6
CONTINUOUS
 10
-44.8209803417
 20
-14.2303973267
 11
-45.0
 21
-14.2303973267
  0
LINE
  5
2CA
100
AcDbEntity
  8
RACCORDO
100
AcDbLine
 62
253
  6
CONTINUOUS
 10
-23.0124982912
 20
-14.3559796354
 11
-44.3640433597
 21
-14.3558966294
  0
LINE
  5
2CB
100
AcDbEntity
  8
ASSI
100
AcDbLine
 62
253
  6
CONTINUOUS
 10
-23.0124982912
 20
-14.3559796354
 11
-44.3640433597
 21
-14.3558966294
  0
LWPOLYLINE
  5
2CC
100
AcDbEntity
  8
RACCORDO
100
AcDbPolyline
 62
253
  6
CONTINUOUS
 90
18
 70
0
 10
-44.3228877784
 20
-14.2532078076
 10
-44.4049273634
 20
-14.2528705975
 10
-44.4452505828
 20
-14.252449996
 10
-44.4847432118
 20
-14.2518648248
 10
-44.5231371771
 20
-14.2511190559
 10
-44.560171863
 20
-14.2502177516
 10
-44.5955958806
 20
-14.2491670299
 10
-44.6291687741
 20
-14.247974023
 10
-44.6606626529
 20
-14.2466468289
 10
-44.6898637388
 20
-14.2451944566
 10
-44.7165738167
 20
-14.2436267647
 10
-44.7406115804
 20
-14.2419543945
 10
-44.7618138632
 20
-14.240188698
 10
-44.7800367455
 20
-14.2383416606
 10
-44.7951565315
 20
-14.2364258199
 10
-44.8070705893
 20
-14.2344541805
 10
-44.8156980469
 20
-14.2324401257
 10
-44.8209803417
 20
-14.2303973267
  0
LWPOLYLINE
  5
2CD
100
AcDbEntity
  8
ASSI
100
AcDbPolyline
 62
253
  6
CONTINUOUS
 90
18
 70
0
 10
-44.3228877784
 20
-14.2532078076
 10
-44.4049273634
 20
-14.2528705975
 10
-44.4452505828
 20
-14.252449996
 10
-44.4847432118
 20
-14.2518648248
 10
-44.5231371771
 20
-14.2511190559
 10
-44.560171863
 20
-14.2502177516
 10
-44.5955958806
 20
-14.2491670299
 10
-44.6291687741
 20
-14.247974023
 10
-44.6606626529
 20
-14.2466468289
 10
-44.6898637388
 20
-14.2451944566
 10
-44.7165738167
 20
-14.2436267647
 10
-44.7406115804
 20
-14.2419543945
 10
-44.7618138632
 20
-14.240188698
 10
-44.7800367455
 20
-14.2383416606
 10
-44.7951565315
 20
-14.2364258199
 10
-44.8070705893
 20
-14.2344541805
 10
-44.8156980469
 20
-14.2324401257
 10
-44.8209803417
 20
-14.2303973267
  0
LWPOLYLINE
  5
2CE
100
AcDbEntity
  8
RACCORDO
100
AcDbPolyline
 62
253
  6
CONTINUOUS
 90
18
 70
0
 10
23.2425103428
 20
-13.6182677993
 10
23.1585556309
 20
-13.6179237162
 10
23.1173250732
 20
-13.61749525
 10
23.0769847419
 20
-13.616899493
 10
23.0378215157
 20
-13.6161406819
 10
23.0001139023
 20
-13.615224213
 10
22.9641300576
 20
-13.6141566036
 10
22.9301258792
 20
-13.612945446
 10
22.8983431866
 20
-13.6115993534
 10
22.8690080008
 20
-13.6101278984
 10
22.842328938
 20
-13.6085415452
 10
22.818495725
 20
-13.606851575
 10
22.7976778508
 20
-13.6050700062
 10
22.7800233608
 20
-13.6032095081
 10
22.7656578041
 20
-13.6012833117
 10
22.7546833409
 20
-13.5993051149
 10
22.7471780155
 20
-13.5972889858
 10
22.7431952018
 20
-13.5952492618
  0
LWPOLYLINE
  5
2CF
100
AcDbEntity
  8
ASSI
100
AcDbPolyline
 62
253
  6
CONTINUOUS
 90
18
 70
0
 10
23.2425103428
 20
-13.6182677993
 10
23.1585556309
 20
-13.6179237162
 10
23.1173250732
 20
-13.61749525
 10
23.0769847419
 20
-13.616899493
 10
23.0378215157
 20
-13.6161406819
 10
23.0001139023
 20
-13.615224213
 10
22.9641300576
 20
-13.6141566036
 10
22.9301258792
 20
-13.612945446
 10
22.8983431866
 20
-13.6115993534
 10
22.8690080008
 20
-13.6101278984
 10
22.842328938
 20
-13.6085415452
 10
22.818495725
 20
-13.606851575
 10
22.7976778508
 20
-13.6050700062
 10
22.7800233608
 20
-13.6032095081
 10
22.7656578041
 20
-13.6012833117
 10
22.7546833409
 20
-13.5993051149
 10
22.7471780155
 20
-13.5972889858
 10
22.7431952018
 20
-13.5952492618
  0
LWPOLYLINE
  5
2D0
100
AcDbEntity
  8
RACCORDO
100
AcDbPolyline
 62
253
  6
CONTINUOUS
 90
17
 70
0
 10
-44.3640433597
 20
-14.3558966294
 10
-44.4452465313
 20
-14.3552225617
 10
-44.4847390932
 20
-14.3546360746
 10
-44.5231329974
 20
-14.3538882192
 10
-44.5601676297
 20
-14.352984072
 10
-44.5955916025
 20
-14.3519297702
 10
-44.629164461
 20
-14.3507324703
 10
-44.6606583159
 20
-14.3494002994
 10
-44.6898593898
 20
-14.3479423003
 10
-44.7165694684
 20
-14.3463683696
 10
-44.7406072464
 20
-14.3446891911
 10
-44.7618095575
 20
-14.3429161628
 10
-44.7800324823
 20
-14.34106132
 10
-44.7951523253
 20
-14.3391372531
 10
-44.8070664545
 20
-14.3371570225
 10
-44.8156939979
 20
-14.3351340698
 10
-44.8209763924
 20
-14.3330821267
  0
LWPOLYLINE
  5
2D1
100
AcDbEntity
  8
ASSI
100
AcDbPolyline
 62
253
  6
CONTINUOUS
 90
17
 70
0
 10
-44.3640433597
 20
-14.3558966294
 10
-44.4452465313
 20
-14.3552225617
 10
-44.4847390932
 20
-14.3546360746
 10
-44.5231329974
 20
-14.3538882192
 10
-44.5601676297
 20
-14.352984072
 10
-44.5955916025
 20
-14.3519297702
 10
-44.629164461
 20
-14.3507324703
 10
-44.6606583159
 20
-14.3494002994
 10
-44.6898593898
 20
-14.3479423003
 10
-44.7165694684
 20
-14.3463683696
 10
-44.7406072464
 20
-14.3446891911
 10
-44.7618095575
 20
-14.3429161628
 10
-44.7800324823
 20
-14.34106132
 10
-44.7951523253
 20
-14.3391372531
 10
-44.8070664545
 20
-14.3371570225
 10
-44.8156939979
 20
-14.3351340698
 10
-44.8209763924
 20
-14.3330821267
  0
LWPOLYLINE
  5
2D2
100
AcDbEntity
  8
RACCORDO
100
AcDbPolyline
 62
253
  6
CONTINUOUS
 90
19
 70
0
 10
-21.9408489317
 20
-14.3927585433
 10
-21.9832890205
 20
-14.3917140924
 10
-22.0257121549
 20
-14.3884249948
 10
-22.0679982561
 20
-14.3828847378
 10
-22.1099956651
 20
-14.37510051
 10
-22.1516138484
 20
-14.3650748789
 10
-22.1928197449
 20
-14.3527894445
 10
-22.2335806506
 20
-14.3382129921
 10
-22.2736694956
 20
-14.3213847831
 10
-22.3127694429
 20
-14.3024193312
 10
-22.3507220625
 20
-14.2814005633
 10
-22.3874645208
 20
-14.258370759
 10
-22.4228461337
 20
-14.2334292725
 10
-22.4567536819
 20
-14.2066710534
 10
-22.4891126566
 20
-14.1781708881
 10
-22.5198414127
 20
-14.1480111047
 10
-22.5488589577
 20
-14.1162826161
 10
-22.5760862917
 20
-14.0830858953
 10
-22.6014518953
 20
-14.0485223595
  0
LWPOLYLINE
  5
2D3
100
AcDbEntity
  8
ASSI
100
AcDbPolyline
 62
253
  6
CONTINUOUS
 90
19
 70
0
 10
-21.9408489317
 20
-14.3927585433
 10
-21.9832890205
 20
-14.3917140924
 10
-22.0257121549
 20
-14.3884249948
 10
-22.0679982561
 20
-14.3828847378
 10
-22.1099956651
 20
-14.37510051
 10
-22.1516138484
 20
-14.3650748789
 10
-22.1928197449
 20
-14.3527894445
 10
-22.2335806506
 20
-14.3382129921
 10
-22.2736694956
 20
-14.3213847831
 10
-22.3127694429
 20
-14.3024193312
 10
-22.3507220625
 20
-14.2814005633
 10
-22.3874645208
 20
-14.258370759
 10
-22.4228461337
 20
-14.2334292725
 10
-22.4567536819
 20
-14.2066710534
 10
-22.4891126566
 20
-14.1781708881
 10
-22.5198414127
 20
-14.1480111047
 10
-22.5488589577
 20
-14.1162826161
 10
-22.5760862917
 20
-14.0830858953
 10
-22.6014518953
 20
-14.0485223595
  0
LWPOLYLINE
  5
2D4
100
AcDbEntity
  8
RACCORDO
100
AcDbPolyline
 62
253
  6
CONTINUOUS
 90
19
 70
0
 10
-21.9408480399
 20
-14.9188638167
 10
-22.0098004991
 20
-14.9170728417
 10
-22.0784018618
 20
-14.9116149044
 10
-22.146652128
 20
-14.9024899858
 10
-22.2147236689
 20
-14.8897024202
 10
-22.2824441132
 20
-14.8732477964
 10
-22.3492963482
 20
-14.8531129576
 10
-22.4154096176
 20
-14.8291950526
 10
-22.4806546775
 20
-14.8015967776
 10
-22.5441266836
 20
-14.7706132852
 10
-22.6057249098
 20
-14.7362045498
 10
-22.665550082
 20
-14.6984103901
 10
-22.7229995332
 20
-14.6576457316
 10
-22.7780243176
 20
-14.6138829439
 10
-22.830673381
 20
-14.5671494285
 10
-22.880490893
 20
-14.5179426847
 10
-22.9273249104
 20
-14.4664284824
 10
-22.9713273764
 20
-14.4124408378
 10
-23.0124982912
 20
-14.3559796354
  0
LWPOLYLINE
  5
2D5
100
AcDbEntity
  8
ASSI
100
AcDbPolyline
 62
253
  6
CONTINUOUS
 90
19
 70
0
 10
-21.9408480399
 20
-14.9188638167
 10
-22.0098004991
 20
-14.9170728417
 10
-22.0784018618
 20
-14.9116149044
 10
-22.146652128
 20
-14.9024899858
 10
-22.2147236689
 20
-14.8897024202
 10
-22.2824441132
 20
-14.8732477964
 10
-22.3492963482
 20
-14.8531129576
 10
-22.4154096176
 20
-14.8291950526
 10
-22.4806546775
 20
-14.8015967776
 10
-22.5441266836
 20
-14.7706132852
 10
-22.6057249098
 20
-14.7362045498
 10
-22.665550082
 20
-14.6984103901
 10
-22.7229995332
 20
-14.6576457316
 10
-22.7780243176
 20
-14.6138829439
 10
-22.830673381
 20
-14.5671494285
 10
-22.880490893
 20
-14.5179426847
 10
-22.9273249104
 20
-14.4664284824
 10
-22.9713273764
 20
-14.4124408378
 10
-23.0124982912
 20
-14.3559796354
  0
LWPOLYLINE
  5
2D6
100
AcDbEntity
  8
SCRITTE
100
AcDbPolyline
 62
253
  6
CONTINUOUS
 90
24
 70
0
 10
4.3405084825
 20
-18.2897357516
 10
4.3190051001
 20
-18.287398948
 10
4.2974771564
 20
-18.2853762604
 10
4.2759280282
 20
-18.2836669611
 10
4.2543610926
 20
-18.2822703221
 10
4.2327797264
 20
-18.2811856158
 10
4.2111873066
 20
-18.2804121142
 10
4.1895872102
 20
-18.2799490896
 10
4.1706820936
 20
-18.2797981377
 10
4.1517676084
 20
-18.2798843211
 10
4.1328376783
 20
-18.2802076238
 10
4.1138862266
 20
-18.2807680295
 10
4.0949063393
 20
-18.2815665541
 10
4.0758877528
 20
-18.282608343
 10
4.0568193662
 20
-18.2838995735
 10
4.0376900783
 20
-18.2854464232
 10
4.0184923502
 20
-18.2872522789
 10
3.9992328911
 20
-18.2893093647
 10
3.9799219722
 20
-18.2916071139
 10
3.9605698649
 20
-18.2941349601
 10
3.9411828136
 20
-18.2968805066
 10
3.9217509548
 20
-18.299824038
 10
3.9022603984
 20
-18.3029440085
 10
3.8826972541
 20
-18.3062188728
  0
LWPOLYLINE
  5
2D7
100
AcDbEntity
  8
SCRITTE
100
AcDbPolyline
 62
253
  6
CONTINUOUS
 90
86
 70
0
 10
4.7622484297
 20
-17.8914479503
 10
4.7778662147
 20
-17.8974147705
 10
4.7936905181
 20
-17.9041352765
 10
4.8097473369
 20
-17.9116396746
 10
4.8260626681
 20
-17.9199581713
 10
4.8426625086
 20
-17.9291209729
 10
4.8595728556
 20
-17.9391582858
 10
4.8767986952
 20
-17.9500905131
 10
4.8942609709
 20
-17.961898844
 10
4.9118596153
 20
-17.9745546646
 10
4.9294945613
 20
-17.9880293609
 10
4.9470657414
 20
-18.0022943188
 10
4.9644730884
 20
-18.0173209244
 10
4.981625529
 20
-18.0330837023
 10
4.9984679651
 20
-18.0495697328
 10
5.0149542928
 20
-18.0667692347
 10
5.0310384081
 20
-18.084672427
 10
5.0466742069
 20
-18.1032695285
 10
5.0618155852
 20
-18.1225507583
 10
5.0764158381
 20
-18.1424942333
 10
5.0904258571
 20
-18.1630296628
 10
5.1037959327
 20
-18.1840746541
 10
5.1164763556
 20
-18.2055468147
 10
5.1284174161
 20
-18.2273637517
 10
5.139569405
 20
-18.2494430726
 10
5.1498937459
 20
-18.2717095239
 10
5.1593963952
 20
-18.2941164085
 10
5.1680944422
 20
-18.3166241685
 10
5.1760049764
 20
-18.3391932462
 10
5.1831450872
 20
-18.3617840836
 10
5.1895318641
 20
-18.3843571229
 10
5.1962308306
 20
-18.4113622567
 10
5.2019301744
 20
-18.4381965076
 10
5.2066904647
 20
-18.4647715855
 10
5.2105722708
 20
-18.4909992002
 10
5.213636162
 20
-18.5167910616
 10
5.215940149
 20
-18.5420709512
 10
5.2175320073
 20
-18.5668109376
 10
5.2184569539
 20
-18.5909951612
 10
5.2187602058
 20
-18.6146077622
 10
5.2184869799
 20
-18.6376328811
 10
5.2176795072
 20
-18.6600596375
 10
5.216368075
 20
-18.6818970682
 10
5.2145799849
 20
-18.7031591897
 10
5.2123425381
 20
-18.7238600182
 10
5.2096830361
 20
-18.74401357
 10
5.2058038938
 20
-18.7684598988
 10
5.2013442213
 20
-18.7921162481
 10
5.1963402911
 20
-18.815025858
 10
5.1908283759
 20
-18.8372319684
 10
5.1848449986
 20
-18.8587709138
 10
5.178427685
 20
-18.8796514065
 10
5.171614211
 20
-18.8998752533
 10
5.1644423527
 20
-18.9194442609
 10
5.1569492369
 20
-18.9383608205
 10
5.1491693927
 20
-18.9566296609
 10
5.1411367
 20
-18.9742560951
 10
5.1328850387
 20
-18.9912454363
 10
5.1215944052
 20
-19.0129215257
 10
5.1100168841
 20
-19.033519954
 10
5.0981946345
 20
-19.0530862245
 10
5.0861688579
 20
-19.0716616918
 10
5.0739769248
 20
-19.0892711157
 10
5.0616552484
 20
-19.1059351075
 10
5.0492410677
 20
-19.1216812955
 10
5.0367749268
 20
-19.1365653754
 10
5.024298196
 20
-19.1506500601
 10
5.0118533638
 20
-19.1639962301
 10
4.9994873928
 20
-19.1766574377
 10
4.9872483639
 20
-19.1886854031
 10
4.9751798556
 20
-19.2001306342
 10
4.9633074363
 20
-19.21103879
 10
4.9516521722
 20
-19.2214543174
 10
4.9346074214
 20
-19.2362502158
 10
4.9181038125
 20
-19.2501741121
 10
4.9021892905
 20
-19.2632999801
 10
4.8943944832
 20
-19.2695446248
 10
4.8865944315
 20
-19.2755450362
 10
4.8787014716
 20
-19.2812545115
 10
4.8707365994
 20
-19.2865619333
 10
4.8627425171
 20
-19.2913506749
 10
4.854740095
 20
-19.2955464867
 10
4.8467365672
 20
-19.2990923567
 10
4.8387064572
 20
-19.301957845
 10
4.8306250221
 20
-19.304118182
 10
4.8225031649
 20
-19.3055447049
  0
LWPOLYLINE
  5
2D8
100
AcDbEntity
  8
SCRITTE
100
AcDbPolyline
 62
253
  6
CONTINUOUS
 90
41
 70
0
 10
4.8225031649
 20
-19.3220885137
 10
4.8318200732
 20
-19.3259787145
 10
4.8410816399
 20
-19.3302009654
 10
4.8502931339
 20
-19.3347632926
 10
4.8594598241
 20
-19.3396737227
 10
4.8685864699
 20
-19.3449408973
 10
4.8776757912
 20
-19.35057592
 10
4.8867299985
 20
-19.3565905099
 10
4.8957513019
 20
-19.3629963857
 10
4.9047383096
 20
-19.3698019031
 10
4.9136752199
 20
-19.377001964
 10
4.9225426293
 20
-19.3845881069
 10
4.9313211338
 20
-19.3925518704
 10
4.9399924952
 20
-19.4008833287
 10
4.9485431375
 20
-19.4095666998
 10
4.9569606499
 20
-19.4185847371
 10
4.9652326219
 20
-19.4279201944
 10
4.9733499859
 20
-19.4375595002
 10
4.9813170465
 20
-19.4475037826
 10
4.9891414515
 20
-19.4577578446
 10
4.9968308486
 20
-19.4683264894
 10
5.0043910434
 20
-19.4792122678
 10
5.0118204743
 20
-19.4904087222
 10
5.0191157378
 20
-19.501907143
 10
5.0262734303
 20
-19.5136988206
 10
5.034281834
 20
-19.5275240925
 10
5.0421070518
 20
-19.541714929
 10
5.0497500276
 20
-19.5562652412
 10
5.0572117056
 20
-19.5711689403
 10
5.0644930299
 20
-19.5864199378
 10
5.0715949446
 20
-19.6020121448
 10
5.0785183937
 20
-19.6179394725
 10
5.0863713431
 20
-19.636935891
 10
5.0939835247
 20
-19.6563651125
 10
5.1013557972
 20
-19.6762120908
 10
5.1084890193
 20
-19.6964617797
 10
5.1153840497
 20
-19.717099133
 10
5.122041747
 20
-19.7381091045
 10
5.1284737438
 20
-19.759477171
 10
5.1347347671
 20
-19.7811909016
 10
5.140890318
 20
-19.8032383882
  0
LINE
  5
2D9
100
AcDbEntity
  8
RACCORDO
100
AcDbLine
 62
253
  6
CONTINUOUS
 10
-44.8182454469
 20
-35.5698764256
 11
-44.9999996065
 21
-35.7546851777
  0
LINE
  5
2DA
100
AcDbEntity
  8
ASSI
100
AcDbLine
 62
253
  6
CONTINUOUS
 10
-44.8182454469
 20
-35.5698764256
 11
-44.9999996065
 21
-35.7546851777
  0
LINE
  5
2DB
100
AcDbEntity
  8
RACCORDO
100
AcDbLine
 62
253
  6
CONTINUOUS
 10
43.8299503769
 20
53.0557818269
 11
44.0199190996
 21
53.2488359232
  0
LINE
  5
2DC
100
AcDbEntity
  8
ASSI
100
AcDbLine
 62
253
  6
CONTINUOUS
 10
43.8299503769
 20
53.0557818269
 11
44.0199190996
 21
53.2488359232
  0
LINE
  5
2DD
100
AcDbEntity
  8
RACCORDO
100
AcDbLine
 62
253
  6
CONTINUOUS
 10
-43.8299503769
 20
-36.5581099806
 11
-44.0199190996
 21
-36.7511640768
  0
LINE
  5
2DE
100
AcDbEntity
  8
ASSI
100
AcDbLine
 62
253
  6
CONTINUOUS
 10
-43.8299503769
 20
-36.5581099806
 11
-44.0199190996
 21
-36.7511640768
  0
LINE
  5
2DF
100
AcDbEntity
  8
RACCORDO
100
AcDbLine
 62
253
  6
CONTINUOUS
 10
-22.7431972229
 20
-13.5952741785
 11
-22.6500000262
 21
-13.5022982309
  0
LINE
  5
2E0
100
AcDbEntity
  8
ASSI
100
AcDbLine
 62
253
  6
CONTINUOUS
 10
-22.7431972229
 20
-13.5952741785
 11
-22.6500000262
 21
-13.5022982309
  0
LINE
  5
2E1
100
AcDbEntity
  8
RACCORDO
100
AcDbLine
 62
253
  6
CONTINUOUS
 10
21.9408494835
 20
30.8904303881
 11
21.8490196442
 21
30.7988359232
  0
LINE
  5
2E2
100
AcDbEntity
  8
ASSI
100
AcDbLine
 62
253
  6
CONTINUOUS
 10
21.9408494835
 20
30.8904303881
 11
21.8490196442
 21
30.7988359232
  0
LWPOLYLINE
  5
2E3
100
AcDbEntity
  8
RACCORDO
100
AcDbPolyline
 62
253
  6
CONTINUOUS
 90
13
 70
0
 10
22.8120612712
 20
30.7122499515
 10
22.7823457525
 20
30.6906432118
 10
22.7542843799
 20
30.6700275218
 10
22.7280788393
 20
30.6505510527
 10
22.7039174781
 20
30.6323537881
 10
22.6819739515
 20
30.6155665173
 10
22.6624059746
 20
30.6003098957
 10
22.6453541884
 20
30.5866935774
 10
22.6309411496
 20
30.574815427
 10
22.6192704491
 20
30.5647608167
 10
22.610425968
 20
30.5566020118
 10
22.6044712742
 20
30.5503976524
 10
22.601449166
 20
30.5461923311
  0
LWPOLYLINE
  5
2E4
100
AcDbEntity
  8
ASSI
100
AcDbPolyline
 62
253
  6
CONTINUOUS
 90
13
 70
0
 10
22.8120612712
 20
30.7122499515
 10
22.7823457525
 20
30.6906432118
 10
22.7542843799
 20
30.6700275218
 10
22.7280788393
 20
30.6505510527
 10
22.7039174781
 20
30.6323537881
 10
22.6819739515
 20
30.6155665173
 10
22.6624059746
 20
30.6003098957
 10
22.6453541884
 20
30.5866935774
 10
22.6309411496
 20
30.574815427
 10
22.6192704491
 20
30.5647608167
 10
22.610425968
 20
30.5566020118
 10
22.6044712742
 20
30.5503976524
 10
22.601449166
 20
30.5461923311
  0
LINE
  5
2E5
100
AcDbEntity
  8
SCRITTE
100
AcDbLine
 62
253
  6
CONTINUOUS
 10
-1.400068
 20
-18.8008110768
 11
-0.714487
 21
-20.6289650768
  0
LINE
  5
2E6
100
AcDbEntity
  8
SCRITTE
100
AcDbLine
 62
253
  6
CONTINUOUS
 10
-0.670314
 20
-19.3836660768
 11
-1.24855
 21
-17.8292620768
  0
LINE
  5
2E7
100
AcDbEntity
  8
SCRITTE
100
AcDbLine
 62
253
  6
CONTINUOUS
 10
-5.503668
 20
-17.8292620768
 11
-4.616107
 21
-20.6289650768
  0
LINE
  5
2E8
100
AcDbEntity
  8
SCRITTE
100
AcDbLine
 62
253
  6
CONTINUOUS
 10
-4.335146
 20
-19.7563840768
 11
-4.86882
 21
-17.8292620768
  0
LINE
  5
2E9
100
AcDbEntity
  8
SCRITTE
100
AcDbLine
 62
253
  6
CONTINUOUS
 10
0.754112
 20
-20.6289650768
 11
0.492308
 21
-17.8292620768
  0
LINE
  5
2EA
100
AcDbEntity
  8
SCRITTE
100
AcDbLine
 62
253
  6
CONTINUOUS
 10
0.062337
 20
-18.8084330768
 11
0.182406
 21
-20.6289650768
  0
LINE
  5
2EB
100
AcDbEntity
  8
SCRITTE
100
AcDbLine
 62
253
  6
CONTINUOUS
 10
-2.984285
 20
-20.6289650768
 11
-2.984285
 21
-17.8290941753
  0
LINE
  5
2EC
100
AcDbEntity
  8
SCRITTE
100
AcDbLine
 62
253
  6
CONTINUOUS
 10
-2.399877
 20
-17.8290940768
 11
-2.399877
 21
-20.6289649785
  0
LINE
  5
2ED
100
AcDbEntity
  8
SCRITTE
100
AcDbLine
 62
253
  6
CONTINUOUS
 10
-1.526183
 20
-20.6289650768
 11
-1.400068
 21
-18.8008110768
  0
LINE
  5
2EE
100
AcDbEntity
  8
SCRITTE
100
AcDbLine
 62
253
  6
CONTINUOUS
 10
-1.832475
 20
-17.8292620768
 11
-2.085272
 21
-20.6289650768
  0
LINE
  5
2EF
100
AcDbEntity
  8
RACCORDO
100
AcDbLine
 62
253
  6
CONTINUOUS
 10
44.8182454469
 20
52.0675482719
 11
44.9999996065
 21
52.252357024
  0
LINE
  5
2F0
100
AcDbEntity
  8
ASSI
100
AcDbLine
 62
253
  6
CONTINUOUS
 10
44.8182454469
 20
52.0675482719
 11
44.9999996065
 21
52.252357024
  0
LINE
  5
2F1
100
AcDbEntity
  8
RACCORDO
100
AcDbLine
 62
253
  6
CONTINUOUS
 10
22.7431972235
 20
30.0929468841
 11
22.6500000262
 21
29.9999700772
  0
LINE
  5
2F2
100
AcDbEntity
  8
ASSI
100
AcDbLine
 62
253
  6
CONTINUOUS
 10
22.7431972235
 20
30.0929468841
 11
22.6500000262
 21
29.9999700772
  0
LINE
  5
2F3
100
AcDbEntity
  8
RACCORDO
100
AcDbLine
 62
253
  6
CONTINUOUS
 10
-21.9408489302
 20
-14.3927585418
 11
-21.8490196442
 21
-14.3011640768
  0
LINE
  5
2F4
100
AcDbEntity
  8
ASSI
100
AcDbLine
 62
253
  6
CONTINUOUS
 10
-21.9408489302
 20
-14.3927585418
 11
-21.8490196442
 21
-14.3011640768
  0
LWPOLYLINE
  5
2F5
100
AcDbEntity
  8
RACCORDO
100
AcDbPolyline
 62
253
  6
CONTINUOUS
 90
13
 70
0
 10
-22.8120613255
 20
-14.2145781479
 10
-22.7823458183
 20
-14.1929714155
 10
-22.7542844573
 20
-14.1723557327
 10
-22.7280789281
 20
-14.1528792708
 10
-22.7039175778
 20
-14.1346820131
 10
-22.6819740616
 20
-14.1178947489
 10
-22.6624060941
 20
-14.1026381334
 10
-22.6453543165
 20
-14.0890218205
 10
-22.630941285
 20
-14.0771436748
 10
-22.6192705906
 20
-14.0670890683
 10
-22.6104261141
 20
-14.0589302664
 10
-22.6044714235
 20
-14.0527259089
 10
-22.601449317
 20
-14.0485205885
  0
LWPOLYLINE
  5
2F6
100
AcDbEntity
  8
ASSI
100
AcDbPolyline
 62
253
  6
CONTINUOUS
 90
13
 70
0
 10
-22.8120613255
 20
-14.2145781479
 10
-22.7823458183
 20
-14.1929714155
 10
-22.7542844573
 20
-14.1723557327
 10
-22.7280789281
 20
-14.1528792708
 10
-22.7039175778
 20
-14.1346820131
 10
-22.6819740616
 20
-14.1178947489
 10
-22.6624060941
 20
-14.1026381334
 10
-22.6453543165
 20
-14.0890218205
 10
-22.630941285
 20
-14.0771436748
 10
-22.6192705906
 20
-14.0670890683
 10
-22.6104261141
 20
-14.0589302664
 10
-22.6044714235
 20
-14.0527259089
 10
-22.601449317
 20
-14.0485205885
  0
LINE
  5
2F7
100
AcDbEntity
  8
RACCORDO
100
AcDbLine
 62
253
  6
CONTINUOUS
 10
-22.8755901266
 20
-14.2601375783
 11
-22.8120613255
 21
-14.2145781479
  0
LINE
  5
2F8
100
AcDbEntity
  8
ASSI
100
AcDbLine
 62
253
  6
CONTINUOUS
 10
-22.8755901266
 20
-14.2601375783
 11
-22.8120613255
 21
-14.2145781479
  0
LINE
  5
2F9
100
AcDbEntity
  8
RACCORDO
100
AcDbLine
 62
253
  6
CONTINUOUS
 10
-22.9430477383
 20
-14.307726579
 11
-22.8755901266
 21
-14.2601375783
  0
LINE
  5
2FA
100
AcDbEntity
  8
ASSI
100
AcDbLine
 62
253
  6
CONTINUOUS
 10
-22.9430477383
 20
-14.307726579
 11
-22.8755901266
 21
-14.2601375783
  0
LINE
  5
2FB
100
AcDbEntity
  8
RACCORDO
100
AcDbLine
 62
253
  6
CONTINUOUS
 10
-23.0124982911
 20
-14.3559794614
 11
-22.9430477383
 21
-14.307726579
  0
LINE
  5
2FC
100
AcDbEntity
  8
ASSI
100
AcDbLine
 62
253
  6
CONTINUOUS
 10
-23.0124982911
 20
-14.3559794614
 11
-22.9430477383
 21
-14.307726579
  0
LWPOLYLINE
  5
2FD
100
AcDbEntity
  8
SCRITTE
100
AcDbPolyline
 62
253
  6
CONTINUOUS
 90
47
 70
0
 10
4.5413801163
 20
-19.7797685671
 10
4.5374483824
 20
-19.7696747895
 10
4.533339742
 20
-19.7598222931
 10
4.5290633038
 20
-19.7502086327
 10
4.5246281762
 20
-19.7408313628
 10
4.5200434678
 20
-19.7316880381
 10
4.5153182871
 20
-19.7227762131
 10
4.5104617428
 20
-19.7140934425
 10
4.5054829434
 20
-19.7056372809
 10
4.5003909974
 20
-19.6974052829
 10
4.4951950134
 20
-19.6893950032
 10
4.4893087411
 20
-19.680751558
 10
4.4833056747
 20
-19.6723742649
 10
4.4771862168
 20
-19.664258569
 10
4.4709507702
 20
-19.6563999153
 10
4.4645997375
 20
-19.6487937486
 10
4.4581335215
 20
-19.641435514
 10
4.4515525248
 20
-19.6343206564
 10
4.4448571502
 20
-19.6274446208
 10
4.4380478003
 20
-19.6208028521
 10
4.4311250826
 20
-19.6143921572
 10
4.4240904235
 20
-19.6082147908
 10
4.4169454541
 20
-19.6022743695
 10
4.4096918055
 20
-19.5965745098
 10
4.4023311089
 20
-19.5911188284
 10
4.3948649953
 20
-19.5859109418
 10
4.387295096
 20
-19.5809544666
 10
4.3796230419
 20
-19.5762530194
 10
4.3718504644
 20
-19.5718102168
 10
4.3639788033
 20
-19.5676283407
 10
4.3560087347
 20
-19.5637043342
 10
4.3479407433
 20
-19.5600338057
 10
4.3397753141
 20
-19.5566123637
 10
4.331512932
 20
-19.5534356166
 10
4.3231540816
 20
-19.5504991729
 10
4.314699248
 20
-19.5477986409
 10
4.306148916
 20
-19.5453296292
 10
4.2975035705
 20
-19.5430877462
 10
4.288763588
 20
-19.5410698472
 10
4.2799289124
 20
-19.5392777754
 10
4.2709993792
 20
-19.5377146208
 10
4.261974824
 20
-19.5363834737
 10
4.2528550823
 20
-19.535287424
 10
4.2436399897
 20
-19.5344295618
 10
4.2343293818
 20
-19.5338129773
 10
4.2249230942
 20
-19.5334407605
 10
4.2154209623
 20
-19.5333160016
  0
LINE
  5
2FE
100
AcDbEntity
  8
SCRITTE
100
AcDbLine
 62
253
  6
CONTINUOUS
 10
3.148408
 20
-20.6289650768
 11
2.28939
 21
-17.8292620768
  0
LWPOLYLINE
  5
2FF
100
AcDbEntity
  8
SCRITTE
100
AcDbPolyline
 62
253
  6
CONTINUOUS
 90
8
 70
0
 10
4.6275733431
 20
-20.0430977073
 10
4.6159923513
 20
-20.0040674004
 10
4.604241278
 20
-19.9654840535
 10
4.5922769672
 20
-19.9273652187
 10
4.5800562628
 20
-19.889728448
 10
4.5675360089
 20
-19.8525912935
 10
4.5546730495
 20
-19.8159713073
 10
4.5414242286
 20
-19.7798860414
  0
LINE
  5
300
100
AcDbEntity
  8
SCRITTE
100
AcDbLine
 62
253
  6
CONTINUOUS
 10
4.782107975
 20
-20.5773994127
 11
4.7089086632
 21
-20.327292924
  0
LINE
  5
301
100
AcDbEntity
  8
SCRITTE
100
AcDbLine
 62
253
  6
CONTINUOUS
 10
4.7970156219
 20
-20.6289654312
 11
4.782107975
 21
-20.5773994127
  0
LWPOLYLINE
  5
302
100
AcDbEntity
  8
SCRITTE
100
AcDbPolyline
 62
253
  6
CONTINUOUS
 90
4
 70
0
 10
4.7089086632
 20
-20.327292924
 10
4.6676112862
 20
-20.1829517473
 10
4.6542420705
 20
-20.1358025436
 10
4.6275733431
 20
-20.0430977073
  0
LINE
  5
303
100
AcDbEntity
  8
SCRITTE
100
AcDbLine
 62
253
  6
CONTINUOUS
 10
2.381074
 20
-20.0700450768
 11
2.532466
 21
-20.6289650768
  0
LINE
  5
304
100
AcDbEntity
  8
SCRITTE
100
AcDbLine
 62
253
  6
CONTINUOUS
 10
5.140890318
 20
-19.8032383882
 11
5.1944703348
 21
-20.0016095581
  0
LINE
  5
305
100
AcDbEntity
  8
SCRITTE
100
AcDbLine
 62
253
  6
CONTINUOUS
 10
5.3266303459
 20
-20.506918582
 11
5.3591482119
 21
-20.6289654312
  0
LINE
  5
306
100
AcDbEntity
  8
SCRITTE
100
AcDbLine
 62
253
  6
CONTINUOUS
 10
5.1944703348
 20
-20.0016095581
 11
5.2617422618
 21
-20.2575405545
  0
LINE
  5
307
100
AcDbEntity
  8
SCRITTE
100
AcDbLine
 62
253
  6
CONTINUOUS
 10
5.2617422618
 20
-20.2575405545
 11
5.3266303459
 21
-20.506918582
  0
LINE
  5
308
100
AcDbEntity
  8
SCRITTE
100
AcDbLine
 62
253
  6
CONTINUOUS
 10
1.995737
 20
-18.5985490768
 11
2.26428
 21
-19.6375550768
  0
LWPOLYLINE
  5
309
100
AcDbEntity
  8
SCRITTE
100
AcDbPolyline
 62
253
  6
CONTINUOUS
 90
49
 70
0
 10
4.6706532981
 20
-18.6400266482
 10
4.6703155196
 20
-18.6290975285
 10
4.6696288272
 20
-18.6182359813
 10
4.6685993882
 20
-18.6074379175
 10
4.66723337
 20
-18.5966992479
 10
4.66553694
 20
-18.5860158835
 10
4.6635162653
 20
-18.5753837351
 10
4.6611770274
 20
-18.5648013764
 10
4.6585229636
 20
-18.5542780334
 10
4.6555573251
 20
-18.5438255946
 10
4.6522833635
 20
-18.5334559489
 10
4.6487043299
 20
-18.5231809849
 10
4.6448234757
 20
-18.5130125915
 10
4.6406440027
 20
-18.5029624104
 10
4.6361689136
 20
-18.4930410967
 10
4.6314011619
 20
-18.4832590585
 10
4.6263437007
 20
-18.4736267039
 10
4.6209994835
 20
-18.464154441
 10
4.6153714634
 20
-18.4548526779
 10
4.6094622985
 20
-18.4457320342
 10
4.6032734654
 20
-18.4368039743
 10
4.5968061453
 20
-18.4280801742
 10
4.5900615196
 20
-18.4195723098
 10
4.5830407696
 20
-18.4112920571
 10
4.5757450765
 20
-18.4032510919
 10
4.5681772783
 20
-18.3954595559
 10
4.5603468394
 20
-18.3879214531
 10
4.5522648808
 20
-18.3806392534
 10
4.5439425234
 20
-18.3736154265
 10
4.5353908882
 20
-18.3668524423
 10
4.5266210963
 20
-18.3603527706
 10
4.5176438151
 20
-18.3541185308
 10
4.5084678982
 20
-18.3481504403
 10
4.4991017457
 20
-18.3424488666
 10
4.4895537576
 20
-18.3370141766
 10
4.4798323342
 20
-18.3318467375
 10
4.4699458754
 20
-18.3269469166
 10
4.4599023936
 20
-18.3223153306
 10
4.4497083503
 20
-18.3179535951
 10
4.4393698192
 20
-18.3138635752
 10
4.4288928742
 20
-18.3100471362
 10
4.4182835889
 20
-18.3065061432
 10
4.4075480372
 20
-18.3032424613
 10
4.3966908125
 20
-18.3002586356
 10
4.3857105876
 20
-18.2975599298
 10
4.3746045551
 20
-18.2951522875
 10
4.3633699073
 20
-18.2930416523
 10
4.3520038368
 20
-18.2912339677
 10
4.3405035362
 20
-18.2897351775
  0
LINE
  5
30A
100
AcDbEntity
  8
SCRITTE
100
AcDbLine
 62
253
  6
CONTINUOUS
 10
3.3200188023
 20
-20.6289654312
 11
3.3200188023
 21
-17.8619713095
  0
LINE
  5
30B
100
AcDbEntity
  8
SCRITTE
100
AcDbLine
 62
253
  6
CONTINUOUS
 10
3.8826972541
 20
-18.3062188728
 11
3.8826972541
 21
-19.0747921798
  0
LINE
  5
30C
100
AcDbEntity
  8
SCRITTE
100
AcDbLine
 62
253
  6
CONTINUOUS
 10
3.9020753449
 20
-19.5333160016
 11
3.9020753449
 21
-20.6289654631
  0
LINE
  5
30D
100
AcDbEntity
  8
SCRITTE
100
AcDbLine
 62
253
  6
CONTINUOUS
 10
4.8225031649
 20
-19.3055447049
 11
4.8225031649
 21
-19.3220885142
  0
LINE
  5
30E
100
AcDbEntity
  8
SCRITTE
100
AcDbLine
 62
253
  6
CONTINUOUS
 10
1.704751
 20
-19.6375550768
 11
1.995737
 21
-18.5985490768
  0
LINE
  5
30F
100
AcDbEntity
  8
SCRITTE
100
AcDbLine
 62
253
  6
CONTINUOUS
 10
-3.785169
 20
-17.8292620768
 11
-4.335146
 21
-19.7563840768
  0
LINE
  5
310
100
AcDbEntity
  8
SCRITTE
100
AcDbLine
 62
253
  6
CONTINUOUS
 10
1.724045
 20
-17.8292620768
 11
0.84588
 21
-20.6289650768
  0
LINE
  5
311
100
AcDbEntity
  8
SCRITTE
100
AcDbLine
 62
253
  6
CONTINUOUS
 10
-4.101097
 20
-20.6289650768
 11
-3.20116
 21
-17.8292620768
  0
LINE
  5
312
100
AcDbEntity
  8
SCRITTE
100
AcDbLine
 62
253
  6
CONTINUOUS
 10
-0.085906
 20
-17.8292620768
 11
-0.670314
 21
-19.3836660768
  0
LINE
  5
313
100
AcDbEntity
  8
SCRITTE
100
AcDbLine
 62
253
  6
CONTINUOUS
 10
-0.632524
 20
-20.6289650768
 11
0.062337
 21
-18.8084330768
  0
LINE
  5
314
100
AcDbEntity
  8
RACCORDO
100
AcDbLine
 62
253
  6
CONTINUOUS
 10
23.0124982912
 20
-14.3559794289
 11
22.9430477048
 21
-14.3077265231
  0
LINE
  5
315
100
AcDbEntity
  8
ASSI
100
AcDbLine
 62
253
  6
CONTINUOUS
 10
23.0124982912
 20
-14.3559794289
 11
22.9430477048
 21
-14.3077265231
  0
LINE
  5
316
100
AcDbEntity
  8
RACCORDO
100
AcDbLine
 62
253
  6
CONTINUOUS
 10
22.9430477048
 20
-14.3077265231
 11
22.8755900426
 21
-14.2601374888
  0
LINE
  5
317
100
AcDbEntity
  8
ASSI
100
AcDbLine
 62
253
  6
CONTINUOUS
 10
22.9430477048
 20
-14.3077265231
 11
22.8755900426
 21
-14.2601374888
  0
LWPOLYLINE
  5
318
100
AcDbEntity
  8
RACCORDO
100
AcDbPolyline
 62
253
  6
CONTINUOUS
 90
14
 70
0
 10
22.8755900426
 20
-14.2601374888
 10
22.8120611798
 20
-14.2145780184
 10
22.7823456395
 20
-14.1929712646
 10
22.7542842446
 20
-14.1723555604
 10
22.7280786816
 20
-14.1528790774
 10
22.7039172983
 20
-14.1346817992
 10
22.6819737504
 20
-14.1178945157
 10
22.6624057533
 20
-14.1026378823
 10
22.6453539484
 20
-14.0890215534
 10
22.6309408927
 20
-14.0771433938
 10
22.6192701774
 20
-14.0670887757
 10
22.6104256837
 20
-14.0589299649
 10
22.60447098
 20
-14.0527256013
 10
22.6014488646
 20
-14.0485202776
  0
LWPOLYLINE
  5
319
100
AcDbEntity
  8
ASSI
100
AcDbPolyline
 62
253
  6
CONTINUOUS
 90
14
 70
0
 10
22.8755900426
 20
-14.2601374888
 10
22.8120611798
 20
-14.2145780184
 10
22.7823456395
 20
-14.1929712646
 10
22.7542842446
 20
-14.1723555604
 10
22.7280786816
 20
-14.1528790774
 10
22.7039172983
 20
-14.1346817992
 10
22.6819737504
 20
-14.1178945157
 10
22.6624057533
 20
-14.1026378823
 10
22.6453539484
 20
-14.0890215534
 10
22.6309408927
 20
-14.0771433938
 10
22.6192701774
 20
-14.0670887757
 10
22.6104256837
 20
-14.0589299649
 10
22.60447098
 20
-14.0527256013
 10
22.6014488646
 20
-14.0485202776
  0
LINE
  5
31A
100
AcDbEntity
  8
RACCORDO
100
AcDbLine
 62
253
  6
CONTINUOUS
 10
21.9408792111
 20
-14.3927585418
 11
21.8490196442
 21
-14.3011640768
  0
LINE
  5
31B
100
AcDbEntity
  8
ASSI
100
AcDbLine
 62
253
  6
CONTINUOUS
 10
21.9408792111
 20
-14.3927585418
 11
21.8490196442
 21
-14.3011640768
  0
LINE
  5
31C
100
AcDbEntity
  8
RACCORDO
100
AcDbLine
 62
253
  6
CONTINUOUS
 10
-21.9408787509
 20
30.8904303881
 11
-21.8490196442
 21
30.7988359232
  0
LINE
  5
31D
100
AcDbEntity
  8
ASSI
100
AcDbLine
 62
253
  6
CONTINUOUS
 10
-21.9408787509
 20
30.8904303881
 11
-21.8490196442
 21
30.7988359232
  0
LINE
  5
31E
100
AcDbEntity
  8
RACCORDO
100
AcDbLine
 62
253
  6
CONTINUOUS
 10
-22.7431972153
 20
30.0929341397
 11
-22.6500000262
 21
29.9999700772
  0
LINE
  5
31F
100
AcDbEntity
  8
ASSI
100
AcDbLine
 62
253
  6
CONTINUOUS
 10
-22.7431972153
 20
30.0929341397
 11
-22.6500000262
 21
29.9999700772
  0
LINE
  5
320
100
AcDbEntity
  8
RACCORDO
100
AcDbLine
 62
253
  6
CONTINUOUS
 10
22.7431972154
 20
-13.5952624411
 11
22.6500000262
 21
-13.5022982309
  0
LINE
  5
321
100
AcDbEntity
  8
ASSI
100
AcDbLine
 62
253
  6
CONTINUOUS
 10
22.7431972154
 20
-13.5952624411
 11
22.6500000262
 21
-13.5022982309
  0
LINE
  5
322
100
AcDbEntity
  8
RACCORDO
100
AcDbLine
 62
253
  6
CONTINUOUS
 10
43.8299503769
 20
-36.5581099806
 11
44.0199190996
 21
-36.7511640768
  0
LINE
  5
323
100
AcDbEntity
  8
ASSI
100
AcDbLine
 62
253
  6
CONTINUOUS
 10
43.8299503769
 20
-36.5581099806
 11
44.0199190996
 21
-36.7511640768
  0
LINE
  5
324
100
AcDbEntity
  8
RACCORDO
100
AcDbLine
 62
253
  6
CONTINUOUS
 10
-43.8299503769
 20
53.0557818269
 11
-44.0199190996
 21
53.2488359232
  0
LINE
  5
325
100
AcDbEntity
  8
ASSI
100
AcDbLine
 62
253
  6
CONTINUOUS
 10
-43.8299503769
 20
53.0557818269
 11
-44.0199190996
 21
53.2488359232
  0
LINE
  5
326
100
AcDbEntity
  8
RACCORDO
100
AcDbLine
 62
253
  6
CONTINUOUS
 10
-44.8182454469
 20
52.0675482724
 11
-44.9999996065
 21
52.252357024
  0
LINE
  5
327
100
AcDbEntity
  8
ASSI
100
AcDbLine
 62
253
  6
CONTINUOUS
 10
-44.8182454469
 20
52.0675482724
 11
-44.9999996065
 21
52.252357024
  0
LINE
  5
328
100
AcDbEntity
  8
SCRITTE
100
AcDbLine
 62
253
  6
CONTINUOUS
 10
1.423947
 20
-20.6289650768
 11
1.585207
 21
-20.0700450768
  0
LINE
  5
329
100
AcDbEntity
  8
RACCORDO
100
AcDbLine
 62
253
  6
CONTINUOUS
 10
-23.0124982912
 20
30.853651289
 11
-22.9430477203
 21
30.8053983917
  0
LINE
  5
32A
100
AcDbEntity
  8
ASSI
100
AcDbLine
 62
253
  6
CONTINUOUS
 10
-23.0124982912
 20
30.853651289
 11
-22.9430477203
 21
30.8053983917
  0
LINE
  5
32B
100
AcDbEntity
  8
RACCORDO
100
AcDbLine
 62
253
  6
CONTINUOUS
 10
-22.9430477203
 20
30.8053983917
 11
-22.8755900798
 21
30.7578093702
  0
LINE
  5
32C
100
AcDbEntity
  8
ASSI
100
AcDbLine
 62
253
  6
CONTINUOUS
 10
-22.9430477203
 20
30.8053983917
 11
-22.8755900798
 21
30.7578093702
  0
LWPOLYLINE
  5
32D
100
AcDbEntity
  8
RACCORDO
100
AcDbPolyline
 62
253
  6
CONTINUOUS
 90
14
 70
0
 10
-22.8755900798
 20
30.7578093702
 10
-22.8120612426
 20
30.7122499154
 10
-22.7823457158
 20
30.69064317
 10
-22.7542843345
 20
30.6700274743
 10
-22.7280787849
 20
30.6505509997
 10
-22.7039174146
 20
30.6323537297
 10
-22.681973879
 20
30.6155664539
 10
-22.6624058931
 20
30.6003098277
 10
-22.6453540984
 20
30.5866935051
 10
-22.6309410516
 20
30.5748153511
 10
-22.6192703436
 20
30.5647607376
 10
-22.6104258558
 20
30.5566019303
 10
-22.6044711561
 20
30.550397569
 10
-22.6014490429
 20
30.5461922464
  0
LWPOLYLINE
  5
32E
100
AcDbEntity
  8
ASSI
100
AcDbPolyline
 62
253
  6
CONTINUOUS
 90
14
 70
0
 10
-22.8755900798
 20
30.7578093702
 10
-22.8120612426
 20
30.7122499154
 10
-22.7823457158
 20
30.69064317
 10
-22.7542843345
 20
30.6700274743
 10
-22.7280787849
 20
30.6505509997
 10
-22.7039174146
 20
30.6323537297
 10
-22.681973879
 20
30.6155664539
 10
-22.6624058931
 20
30.6003098277
 10
-22.6453540984
 20
30.5866935051
 10
-22.6309410516
 20
30.5748153511
 10
-22.6192703436
 20
30.5647607376
 10
-22.6104258558
 20
30.5566019303
 10
-22.6044711561
 20
30.550397569
 10
-22.6014490429
 20
30.5461922464
  0
LINE
  5
32F
100
AcDbEntity
  8
RACCORDO
100
AcDbLine
 62
253
  6
CONTINUOUS
 10
44.8182454469
 20
-35.5698764261
 11
44.9999996065
 21
-35.7546851777
  0
LINE
  5
330
100
AcDbEntity
  8
ASSI
100
AcDbLine
 62
253
  6
CONTINUOUS
 10
44.8182454469
 20
-35.5698764261
 11
44.9999996065
 21
-35.7546851777
  0
LWPOLYLINE
  5
331
100
AcDbEntity
  8
RACCORDO
100
AcDbPolyline
 62
7
  6
CONTINUOUS
 90
19
 70
0
 10
22.6500000262
 20
29.9999700772
 10
22.6482855128
 20
30.0524485488
 10
22.6431543922
 20
30.1044084263
 10
22.6346066645
 20
30.1558497178
 10
22.622555901
 20
30.2070740353
 10
22.6070885304
 20
30.2577797795
 10
22.5884638385
 20
30.3070621571
 10
22.5667177447
 20
30.3547346166
 10
22.5418143295
 20
30.400983756
 10
22.5139051201
 20
30.4454645254
 10
22.4828675292
 20
30.4883039584
 10
22.448824144
 20
30.5293750708
 10
22.4122942528
 20
30.5679518007
 10
22.3731825175
 20
30.6039755715
 10
22.3315842763
 20
30.637505022
 10
22.2883048318
 20
30.6679899259
 10
22.2436126183
 20
30.6952468969
 10
22.1972392017
 20
30.7194593813
 10
22.1491845818
 20
30.7406274039
  0
LWPOLYLINE
  5
332
100
AcDbEntity
  8
ASSI
100
AcDbPolyline
 62
7
  6
CONTINUOUS
 90
19
 70
0
 10
22.6500000262
 20
29.9999700772
 10
22.6482855128
 20
30.0524485488
 10
22.6431543922
 20
30.1044084263
 10
22.6346066645
 20
30.1558497178
 10
22.622555901
 20
30.2070740353
 10
22.6070885304
 20
30.2577797795
 10
22.5884638385
 20
30.3070621571
 10
22.5667177447
 20
30.3547346166
 10
22.5418143295
 20
30.400983756
 10
22.5139051201
 20
30.4454645254
 10
22.4828675292
 20
30.4883039584
 10
22.448824144
 20
30.5293750708
 10
22.4122942528
 20
30.5679518007
 10
22.3731825175
 20
30.6039755715
 10
22.3315842763
 20
30.637505022
 10
22.2883048318
 20
30.6679899259
 10
22.2436126183
 20
30.6952468969
 10
22.1972392017
 20
30.7194593813
 10
22.1491845818
 20
30.7406274039
  0
LINE
  5
333
100
AcDbEntity
  8
RACCORDO
100
AcDbLine
 62
253
  6
CONTINUOUS
 10
21.9408480399
 20
31.416535663
 11
21.9408480399
 21
30.8904303881
  0
LINE
  5
334
100
AcDbEntity
  8
ASSI
100
AcDbLine
 62
253
  6
CONTINUOUS
 10
21.9408480399
 20
31.416535663
 11
21.9408480399
 21
30.8904303881
  0
LINE
  5
335
100
AcDbEntity
  8
RACCORDO
100
AcDbLine
 62
253
  6
CONTINUOUS
 10
21.9408480399
 20
-14.9188638167
 11
21.9408480399
 21
-14.3927585418
  0
LINE
  5
336
100
AcDbEntity
  8
ASSI
100
AcDbLine
 62
253
  6
CONTINUOUS
 10
21.9408480399
 20
-14.9188638167
 11
21.9408480399
 21
-14.3927585418
  0
LINE
  5
337
100
AcDbEntity
  8
RACCORDO
100
AcDbLine
 62
7
  6
CONTINUOUS
 10
22.6500000262
 20
-13.5022982309
 11
22.6500000262
 21
29.9999700772
  0
LINE
  5
338
100
AcDbEntity
  8
ASSI
100
AcDbLine
 62
7
  6
CONTINUOUS
 10
22.6500000262
 20
-13.5022982309
 11
22.6500000262
 21
29.9999700772
  0
LINE
  5
339
100
AcDbEntity
  8
RACCORDO
100
AcDbLine
 62
253
  6
CONTINUOUS
 10
22.7431972235
 20
30.0929468841
 11
22.7431972154
 21
-13.5952624411
  0
LINE
  5
33A
100
AcDbEntity
  8
ASSI
100
AcDbLine
 62
253
  6
CONTINUOUS
 10
22.7431972235
 20
30.0929468841
 11
22.7431972154
 21
-13.5952624411
  0
LINE
  5
33B
100
AcDbEntity
  8
RACCORDO
100
AcDbLine
 62
253
  6
CONTINUOUS
 10
23.2425103428
 20
30.1159397578
 11
23.2425103428
 21
-13.6182679114
  0
LINE
  5
33C
100
AcDbEntity
  8
ASSI
100
AcDbLine
 62
253
  6
CONTINUOUS
 10
23.2425103428
 20
30.1159397578
 11
23.2425103428
 21
-13.6182679114
  0
LWPOLYLINE
  5
33D
100
AcDbEntity
  8
RACCORDO
100
AcDbPolyline
 62
253
  6
CONTINUOUS
 90
13
 70
0
 10
23.2425103428
 20
-13.6182679114
 10
23.241099595
 20
-13.6816367198
 10
23.2364122147
 20
-13.7451510724
 10
23.2284482019
 20
-13.808810965
 10
23.2172098138
 20
-13.8729090366
 10
23.2026947932
 20
-13.9371526354
 10
23.1848963685
 20
-14.0006638396
 10
23.1636879302
 20
-14.0634691538
 10
23.1391960878
 20
-14.125542101
 10
23.1117938971
 20
-14.1859253255
 10
23.0816057101
 20
-14.2442997389
 10
23.0485071748
 20
-14.3009844985
 10
23.0124982912
 20
-14.3559796354
  0
LWPOLYLINE
  5
33E
100
AcDbEntity
  8
ASSI
100
AcDbPolyline
 62
253
  6
CONTINUOUS
 90
13
 70
0
 10
23.2425103428
 20
-13.6182679114
 10
23.241099595
 20
-13.6816367198
 10
23.2364122147
 20
-13.7451510724
 10
23.2284482019
 20
-13.808810965
 10
23.2172098138
 20
-13.8729090366
 10
23.2026947932
 20
-13.9371526354
 10
23.1848963685
 20
-14.0006638396
 10
23.1636879302
 20
-14.0634691538
 10
23.1391960878
 20
-14.125542101
 10
23.1117938971
 20
-14.1859253255
 10
23.0816057101
 20
-14.2442997389
 10
23.0485071748
 20
-14.3009844985
 10
23.0124982912
 20
-14.3559796354
  0
LWPOLYLINE
  5
33F
100
AcDbEntity
  8
RACCORDO
100
AcDbPolyline
 62
253
  6
CONTINUOUS
 90
13
 70
0
 10
22.7431972039
 20
-13.5952624298
 10
22.7422553927
 20
-13.6340631076
 10
22.7393851508
 20
-13.6731428917
 10
22.7345381197
 20
-13.7124038767
 10
22.7276568552
 20
-13.7518123207
 10
22.7187096664
 20
-13.7911895649
 10
22.7077257887
 20
-13.8302199938
 10
22.6946991476
 20
-13.8688225137
 10
22.6796468199
 20
-13.906861534
 10
22.6627149092
 20
-13.9439618611
 10
22.6440135058
 20
-13.9799485201
 10
22.6235694149
 20
-14.01482852
 10
22.6014518953
 20
-14.0485223595
  0
LWPOLYLINE
  5
340
100
AcDbEntity
  8
ASSI
100
AcDbPolyline
 62
253
  6
CONTINUOUS
 90
13
 70
0
 10
22.7431972039
 20
-13.5952624298
 10
22.7422553927
 20
-13.6340631076
 10
22.7393851508
 20
-13.6731428917
 10
22.7345381197
 20
-13.7124038767
 10
22.7276568552
 20
-13.7518123207
 10
22.7187096664
 20
-13.7911895649
 10
22.7077257887
 20
-13.8302199938
 10
22.6946991476
 20
-13.8688225137
 10
22.6796468199
 20
-13.906861534
 10
22.6627149092
 20
-13.9439618611
 10
22.6440135058
 20
-13.9799485201
 10
22.6235694149
 20
-14.01482852
 10
22.6014518953
 20
-14.0485223595
  0
LWPOLYLINE
  5
341
100
AcDbEntity
  8
RACCORDO
100
AcDbPolyline
 62
7
  6
CONTINUOUS
 90
19
 70
0
 10
22.1491845818
 20
-14.2429555576
 10
22.1972290726
 20
-14.2217937602
 10
22.24359569
 20
-14.1975857229
 10
22.2882844339
 20
-14.1703314212
 10
22.331564618
 20
-14.1398473861
 10
22.3731669286
 20
-14.1063170264
 10
22.4122834253
 20
-14.0702906352
 10
22.4488179123
 20
-14.0317104269
 10
22.4828665854
 20
-13.9906341248
 10
22.5139100908
 20
-13.9477852992
 10
22.5418281965
 20
-13.9032823047
 10
22.5667411346
 20
-13.8570067371
 10
22.5884902473
 20
-13.8093270428
 10
22.6071051392
 20
-13.7600771336
 10
22.6225562057
 20
-13.7094230521
 10
22.6345959748
 20
-13.6582314596
 10
22.6431419559
 20
-13.6067912441
 10
22.6482766397
 20
-13.5548135039
 10
22.6500000262
 20
-13.5022982309
  0
LWPOLYLINE
  5
342
100
AcDbEntity
  8
ASSI
100
AcDbPolyline
 62
7
  6
CONTINUOUS
 90
19
 70
0
 10
22.1491845818
 20
-14.2429555576
 10
22.1972290726
 20
-14.2217937602
 10
22.24359569
 20
-14.1975857229
 10
22.2882844339
 20
-14.1703314212
 10
22.331564618
 20
-14.1398473861
 10
22.3731669286
 20
-14.1063170264
 10
22.4122834253
 20
-14.0702906352
 10
22.4488179123
 20
-14.0317104269
 10
22.4828665854
 20
-13.9906341248
 10
22.5139100908
 20
-13.9477852992
 10
22.5418281965
 20
-13.9032823047
 10
22.5667411346
 20
-13.8570067371
 10
22.5884902473
 20
-13.8093270428
 10
22.6071051392
 20
-13.7600771336
 10
22.6225562057
 20
-13.7094230521
 10
22.6345959748
 20
-13.6582314596
 10
22.6431419559
 20
-13.6067912441
 10
22.6482766397
 20
-13.5548135039
 10
22.6500000262
 20
-13.5022982309
  0
LWPOLYLINE
  5
343
100
AcDbEntity
  8
RACCORDO
100
AcDbPolyline
 62
253
  6
CONTINUOUS
 90
19
 70
0
 10
23.0124982912
 20
-14.3559796354
 10
22.971364722
 20
-14.4123856285
 10
22.9274175505
 20
-14.4663152058
 10
22.8806567766
 20
-14.5177684828
 10
22.8309245924
 20
-14.566911403
 10
22.778378806
 20
-14.6135782369
 10
22.7234928408
 20
-14.6572716053
 10
22.6662377764
 20
-14.6979538796
 10
22.6066425334
 20
-14.7356629175
 10
22.5452672972
 20
-14.7700145942
 10
22.4820597069
 20
-14.8009719295
 10
22.4170721234
 20
-14.8285721085
 10
22.3510218149
 20
-14.8525422604
 10
22.283888213
 20
-14.8728183944
 10
22.2156918861
 20
-14.8894646543
 10
22.147211808
 20
-14.9024003608
 10
22.0787076366
 20
-14.9115986476
 10
22.0099197138
 20
-14.9170864597
 10
21.9408480399
 20
-14.9188638167
  0
LWPOLYLINE
  5
344
100
AcDbEntity
  8
ASSI
100
AcDbPolyline
 62
253
  6
CONTINUOUS
 90
19
 70
0
 10
23.0124982912
 20
-14.3559796354
 10
22.971364722
 20
-14.4123856285
 10
22.9274175505
 20
-14.4663152058
 10
22.8806567766
 20
-14.5177684828
 10
22.8309245924
 20
-14.566911403
 10
22.778378806
 20
-14.6135782369
 10
22.7234928408
 20
-14.6572716053
 10
22.6662377764
 20
-14.6979538796
 10
22.6066425334
 20
-14.7356629175
 10
22.5452672972
 20
-14.7700145942
 10
22.4820597069
 20
-14.8009719295
 10
22.4170721234
 20
-14.8285721085
 10
22.3510218149
 20
-14.8525422604
 10
22.283888213
 20
-14.8728183944
 10
22.2156918861
 20
-14.8894646543
 10
22.147211808
 20
-14.9024003608
 10
22.0787076366
 20
-14.9115986476
 10
22.0099197138
 20
-14.9170864597
 10
21.9408480399
 20
-14.9188638167
  0
LWPOLYLINE
  5
345
100
AcDbEntity
  8
RACCORDO
100
AcDbPolyline
 62
253
  6
CONTINUOUS
 90
19
 70
0
 10
22.6014518953
 20
-14.0485223595
 10
22.5761469641
 20
-14.0830077447
 10
22.5489796649
 20
-14.1161432621
 10
22.5200193616
 20
-14.1478266945
 10
22.4893370817
 20
-14.1779620697
 10
22.4570172489
 20
-14.2064510996
 10
22.423159248
 20
-14.2331954653
 10
22.3878482864
 20
-14.2581153257
 10
22.3511888506
 20
-14.2811251183
 10
22.3133215543
 20
-14.3021326068
 10
22.274339153
 20
-14.321081835
 10
22.2343701113
 20
-14.3379061205
 10
22.1936232379
 20
-14.3525259571
 10
22.1522186743
 20
-14.364911845
 10
22.1102828786
 20
-14.3750393325
 10
22.0680452687
 20
-14.3828773398
 10
22.0256674406
 20
-14.3884296853
 10
21.9832383663
 20
-14.3917166989
 10
21.9408792642
 20
-14.3927585942
  0
LWPOLYLINE
  5
346
100
AcDbEntity
  8
ASSI
100
AcDbPolyline
 62
253
  6
CONTINUOUS
 90
19
 70
0
 10
22.6014518953
 20
-14.0485223595
 10
22.5761469641
 20
-14.0830077447
 10
22.5489796649
 20
-14.1161432621
 10
22.5200193616
 20
-14.1478266945
 10
22.4893370817
 20
-14.1779620697
 10
22.4570172489
 20
-14.2064510996
 10
22.423159248
 20
-14.2331954653
 10
22.3878482864
 20
-14.2581153257
 10
22.3511888506
 20
-14.2811251183
 10
22.3133215543
 20
-14.3021326068
 10
22.274339153
 20
-14.321081835
 10
22.2343701113
 20
-14.3379061205
 10
22.1936232379
 20
-14.3525259571
 10
22.1522186743
 20
-14.364911845
 10
22.1102828786
 20
-14.3750393325
 10
22.0680452687
 20
-14.3828773398
 10
22.0256674406
 20
-14.3884296853
 10
21.9832383663
 20
-14.3917166989
 10
21.9408792642
 20
-14.3927585942
  0
LWPOLYLINE
  5
347
100
AcDbEntity
  8
RACCORDO
100
AcDbPolyline
 62
7
  6
CONTINUOUS
 90
7
 70
0
 10
-21.8490196442
 20
30.7988359232
 10
-21.9003543612
 20
30.7971934273
 10
-21.9511661872
 20
30.7923273905
 10
-22.0014551223
 20
30.7842377984
 10
-22.0512211664
 20
30.772924627
 10
-22.1004643196
 20
30.7583878431
 10
-22.1491845818
 20
30.7406274039
  0
LWPOLYLINE
  5
348
100
AcDbEntity
  8
ASSI
100
AcDbPolyline
 62
7
  6
CONTINUOUS
 90
7
 70
0
 10
-21.8490196442
 20
30.7988359232
 10
-21.9003543612
 20
30.7971934273
 10
-21.9511661872
 20
30.7923273905
 10
-22.0014551223
 20
30.7842377984
 10
-22.0512211664
 20
30.772924627
 10
-22.1004643196
 20
30.7583878431
 10
-22.1491845818
 20
30.7406274039
  0
LWPOLYLINE
  5
349
100
AcDbEntity
  8
RACCORDO
100
AcDbPolyline
 62
253
  6
CONTINUOUS
 90
16
 70
0
 10
-44.4452505819
 20
30.7501218421
 10
-44.4847432107
 20
30.7495366709
 10
-44.5231371757
 20
30.748790902
 10
-44.5601718614
 20
30.7478895977
 10
-44.5955958789
 20
30.746838876
 10
-44.6291687722
 20
30.7456458691
 10
-44.660662651
 20
30.7443186751
 10
-44.6898637368
 20
30.7428663028
 10
-44.7165738147
 20
30.7412986109
 10
-44.7406115784
 20
30.7396262407
 10
-44.7618138614
 20
30.7378605442
 10
-44.7800367438
 20
30.7360135069
 10
-44.7951565301
 20
30.7340976662
 10
-44.8070705881
 20
30.7321260267
 10
-44.815698046
 20
30.730111972
 10
-44.8209803413
 20
30.7280691731
  0
LWPOLYLINE
  5
34A
100
AcDbEntity
  8
ASSI
100
AcDbPolyline
 62
253
  6
CONTINUOUS
 90
16
 70
0
 10
-44.4452505819
 20
30.7501218421
 10
-44.4847432107
 20
30.7495366709
 10
-44.5231371757
 20
30.748790902
 10
-44.5601718614
 20
30.7478895977
 10
-44.5955958789
 20
30.746838876
 10
-44.6291687722
 20
30.7456458691
 10
-44.660662651
 20
30.7443186751
 10
-44.6898637368
 20
30.7428663028
 10
-44.7165738147
 20
30.7412986109
 10
-44.7406115784
 20
30.7396262407
 10
-44.7618138614
 20
30.7378605442
 10
-44.7800367438
 20
30.7360135069
 10
-44.7951565301
 20
30.7340976662
 10
-44.8070705881
 20
30.7321260267
 10
-44.815698046
 20
30.730111972
 10
-44.8209803413
 20
30.7280691731
  0
LWPOLYLINE
  5
34B
100
AcDbEntity
  8
RACCORDO
100
AcDbPolyline
 62
253
  6
CONTINUOUS
 90
16
 70
0
 10
-44.4452465341
 20
30.8528944088
 10
-44.4847390969
 20
30.8523079217
 10
-44.5231330019
 20
30.8515600664
 10
-44.5601676349
 20
30.8506559191
 10
-44.5955916082
 20
30.8496016172
 10
-44.6291644671
 20
30.8484043173
 10
-44.6606583223
 20
30.8470721463
 10
-44.6898593963
 20
30.8456141471
 10
-44.716569475
 20
30.8440402164
 10
-44.7406072527
 20
30.8423610378
 10
-44.7618095634
 20
30.8405880094
 10
-44.7800324877
 20
30.8387331665
 10
-44.79515233
 20
30.8368090996
 10
-44.8070664582
 20
30.8348288689
 10
-44.8156940005
 20
30.8328059162
 10
-44.8209763937
 20
30.830753973
  0
LWPOLYLINE
  5
34C
100
AcDbEntity
  8
ASSI
100
AcDbPolyline
 62
253
  6
CONTINUOUS
 90
16
 70
0
 10
-44.4452465341
 20
30.8528944088
 10
-44.4847390969
 20
30.8523079217
 10
-44.5231330019
 20
30.8515600664
 10
-44.5601676349
 20
30.8506559191
 10
-44.5955916082
 20
30.8496016172
 10
-44.6291644671
 20
30.8484043173
 10
-44.6606583223
 20
30.8470721463
 10
-44.6898593963
 20
30.8456141471
 10
-44.716569475
 20
30.8440402164
 10
-44.7406072527
 20
30.8423610378
 10
-44.7618095634
 20
30.8405880094
 10
-44.7800324877
 20
30.8387331665
 10
-44.79515233
 20
30.8368090996
 10
-44.8070664582
 20
30.8348288689
 10
-44.8156940005
 20
30.8328059162
 10
-44.8209763937
 20
30.830753973
  0
LWPOLYLINE
  5
34D
100
AcDbEntity
  8
RACCORDO
100
AcDbPolyline
 62
253
  6
CONTINUOUS
 90
16
 70
0
 10
23.1173253688
 20
30.1151671693
 10
23.076985168
 20
30.1145714011
 10
23.0378220827
 20
30.1138125798
 10
23.0001146173
 20
30.1128961015
 10
22.9641309246
 20
30.1118284838
 10
22.930126899
 20
30.1106173188
 10
22.8983443567
 20
30.1092712197
 10
22.869009316
 20
30.1077997592
 10
22.8423303901
 20
30.1062134013
 10
22.8184973035
 20
30.1045234273
 10
22.7976795428
 20
30.1027418553
 10
22.7800251513
 20
30.1008813547
 10
22.7656596766
 20
30.0989551563
 10
22.7546852771
 20
30.0969769581
 10
22.7471799963
 20
30.0949608278
 10
22.7431972073
 20
30.0929211029
  0
LWPOLYLINE
  5
34E
100
AcDbEntity
  8
ASSI
100
AcDbPolyline
 62
253
  6
CONTINUOUS
 90
16
 70
0
 10
23.1173253688
 20
30.1151671693
 10
23.076985168
 20
30.1145714011
 10
23.0378220827
 20
30.1138125798
 10
23.0001146173
 20
30.1128961015
 10
22.9641309246
 20
30.1118284838
 10
22.930126899
 20
30.1106173188
 10
22.8983443567
 20
30.1092712197
 10
22.869009316
 20
30.1077997592
 10
22.8423303901
 20
30.1062134013
 10
22.8184973035
 20
30.1045234273
 10
22.7976795428
 20
30.1027418553
 10
22.7800251513
 20
30.1008813547
 10
22.7656596766
 20
30.0989551563
 10
22.7546852771
 20
30.0969769581
 10
22.7471799963
 20
30.0949608278
 10
22.7431972073
 20
30.0929211029
  0
LINE
  5
34F
100
AcDbEntity
  8
RACCORDO
100
AcDbLine
 62
253
  6
CONTINUOUS
 10
-44.3640433607
 20
30.8535684766
 11
-44.4452465341
 21
30.8528944088
  0
LINE
  5
350
100
AcDbEntity
  8
ASSI
100
AcDbLine
 62
253
  6
CONTINUOUS
 10
-44.3640433607
 20
30.8535684766
 11
-44.4452465341
 21
30.8528944088
  0
LWPOLYLINE
  5
351
100
AcDbEntity
  8
RACCORDO
100
AcDbPolyline
 62
253
  6
CONTINUOUS
 90
3
 70
0
 10
23.2425103428
 20
30.1159397574
 10
23.2003832852
 20
30.1158537889
 10
23.1173253688
 20
30.1151671693
  0
LWPOLYLINE
  5
352
100
AcDbEntity
  8
ASSI
100
AcDbPolyline
 62
253
  6
CONTINUOUS
 90
3
 70
0
 10
23.2425103428
 20
30.1159397574
 10
23.2003832852
 20
30.1158537889
 10
23.1173253688
 20
30.1151671693
  0
LWPOLYLINE
  5
353
100
AcDbEntity
  8
RACCORDO
100
AcDbPolyline
 62
253
  6
CONTINUOUS
 90
3
 70
0
 10
-44.3228877784
 20
30.7508796537
 10
-44.3640472645
 20
30.7507956203
 10
-44.4452505819
 20
30.7501218421
  0
LWPOLYLINE
  5
354
100
AcDbEntity
  8
ASSI
100
AcDbPolyline
 62
253
  6
CONTINUOUS
 90
3
 70
0
 10
-44.3228877784
 20
30.7508796537
 10
-44.3640472645
 20
30.7507956203
 10
-44.4452505819
 20
30.7501218421
  0
LINE
  5
355
100
AcDbEntity
  8
RACCORDO
100
AcDbLine
 62
253
  6
CONTINUOUS
 10
44.8209803417
 20
30.7280691731
 11
45.0
 21
30.7280691731
  0
LINE
  5
356
100
AcDbEntity
  8
ASSI
100
AcDbLine
 62
253
  6
CONTINUOUS
 10
44.8209803417
 20
30.7280691731
 11
45.0
 21
30.7280691731
  0
LINE
  5
357
100
AcDbEntity
  8
RACCORDO
100
AcDbLine
 62
253
  6
CONTINUOUS
 10
-44.8209803417
 20
30.7280691731
 11
-45.0
 21
30.7280691731
  0
LINE
  5
358
100
AcDbEntity
  8
ASSI
100
AcDbLine
 62
253
  6
CONTINUOUS
 10
-44.8209803417
 20
30.7280691731
 11
-45.0
 21
30.7280691731
  0
LINE
  5
359
100
AcDbEntity
  8
RACCORDO
100
AcDbLine
 62
7
  6
CONTINUOUS
 10
21.8490196442
 20
30.7988359232
 11
-21.8490196442
 21
30.7988359232
  0
LINE
  5
35A
100
AcDbEntity
  8
ASSI
100
AcDbLine
 62
7
  6
CONTINUOUS
 10
21.8490196442
 20
30.7988359232
 11
-21.8490196442
 21
30.7988359232
  0
LINE
  5
35B
100
AcDbEntity
  8
RACCORDO
100
AcDbLine
 62
253
  6
CONTINUOUS
 10
-23.0124982912
 20
30.8536514817
 11
-44.3640433607
 21
30.8535684766
  0
LINE
  5
35C
100
AcDbEntity
  8
ASSI
100
AcDbLine
 62
253
  6
CONTINUOUS
 10
-23.0124982912
 20
30.8536514817
 11
-44.3640433607
 21
30.8535684766
  0
LINE
  5
35D
100
AcDbEntity
  8
RACCORDO
100
AcDbLine
 62
253
  6
CONTINUOUS
 10
-21.9408787509
 20
30.8904303881
 11
21.9408494835
 21
30.8904303881
  0
LINE
  5
35E
100
AcDbEntity
  8
ASSI
100
AcDbLine
 62
253
  6
CONTINUOUS
 10
-21.9408787509
 20
30.8904303881
 11
21.9408494835
 21
30.8904303881
  0
LINE
  5
35F
100
AcDbEntity
  8
RACCORDO
100
AcDbLine
 62
253
  6
CONTINUOUS
 10
-21.9408480399
 20
31.416535663
 11
21.9408480399
 21
31.416535663
  0
LINE
  5
360
100
AcDbEntity
  8
ASSI
100
AcDbLine
 62
253
  6
CONTINUOUS
 10
-21.9408480399
 20
31.416535663
 11
21.9408480399
 21
31.416535663
  0
LINE
  5
361
100
AcDbEntity
  8
RACCORDO
100
AcDbLine
 62
253
  6
CONTINUOUS
 10
23.0124982912
 20
30.8536514817
 11
44.3640433598
 21
30.8535684758
  0
LINE
  5
362
100
AcDbEntity
  8
ASSI
100
AcDbLine
 62
253
  6
CONTINUOUS
 10
23.0124982912
 20
30.8536514817
 11
44.3640433598
 21
30.8535684758
  0
LWPOLYLINE
  5
363
100
AcDbEntity
  8
RACCORDO
100
AcDbPolyline
 62
253
  6
CONTINUOUS
 90
18
 70
0
 10
-23.2425103428
 20
30.1159396405
 10
-23.1585556227
 20
30.1155955586
 10
-23.1173250595
 20
30.115167093
 10
-23.0769847222
 20
30.1145713365
 10
-23.0378214895
 20
30.1138125259
 10
-23.0001138691
 20
30.1128960573
 10
-22.9641300174
 20
30.1118284483
 10
-22.930125832
 20
30.1106172911
 10
-22.8983431323
 20
30.1092711988
 10
-22.8690079398
 20
30.107799744
 10
-22.8423288706
 20
30.106213391
 10
-22.8184956517
 20
30.1045234211
 10
-22.7976777722
 20
30.1027418524
 10
-22.7800232776
 20
30.1008813544
 10
-22.7656577171
 20
30.0989551581
 10
-22.7546832509
 20
30.0969769614
 10
-22.7471779234
 20
30.0949608323
 10
-22.7431951085
 20
30.0929211084
  0
LWPOLYLINE
  5
364
100
AcDbEntity
  8
ASSI
100
AcDbPolyline
 62
253
  6
CONTINUOUS
 90
18
 70
0
 10
-23.2425103428
 20
30.1159396405
 10
-23.1585556227
 20
30.1155955586
 10
-23.1173250595
 20
30.115167093
 10
-23.0769847222
 20
30.1145713365
 10
-23.0378214895
 20
30.1138125259
 10
-23.0001138691
 20
30.1128960573
 10
-22.9641300174
 20
30.1118284483
 10
-22.930125832
 20
30.1106172911
 10
-22.8983431323
 20
30.1092711988
 10
-22.8690079398
 20
30.107799744
 10
-22.8423288706
 20
30.106213391
 10
-22.8184956517
 20
30.1045234211
 10
-22.7976777722
 20
30.1027418524
 10
-22.7800232776
 20
30.1008813544
 10
-22.7656577171
 20
30.0989551581
 10
-22.7546832509
 20
30.0969769614
 10
-22.7471779234
 20
30.0949608323
 10
-22.7431951085
 20
30.0929211084
  0
LWPOLYLINE
  5
365
100
AcDbEntity
  8
RACCORDO
100
AcDbPolyline
 62
253
  6
CONTINUOUS
 90
18
 70
0
 10
44.3228877784
 20
30.750879654
 10
44.4049273634
 20
30.7505424438
 10
44.4452505828
 20
30.7501218423
 10
44.4847432118
 20
30.7495366711
 10
44.5231371771
 20
30.7487909022
 10
44.560171863
 20
30.7478895979
 10
44.5955958806
 20
30.7468388762
 10
44.6291687741
 20
30.7456458693
 10
44.6606626529
 20
30.7443186752
 10
44.6898637388
 20
30.7428663029
 10
44.7165738167
 20
30.741298611
 10
44.7406115804
 20
30.7396262408
 10
44.7618138632
 20
30.7378605443
 10
44.7800367455
 20
30.7360135069
 10
44.7951565315
 20
30.7340976662
 10
44.8070705893
 20
30.7321260268
 10
44.8156980469
 20
30.730111972
 10
44.8209803417
 20
30.7280691731
  0
LWPOLYLINE
  5
366
100
AcDbEntity
  8
ASSI
100
AcDbPolyline
 62
253
  6
CONTINUOUS
 90
18
 70
0
 10
44.3228877784
 20
30.750879654
 10
44.4049273634
 20
30.7505424438
 10
44.4452505828
 20
30.7501218423
 10
44.4847432118
 20
30.7495366711
 10
44.5231371771
 20
30.7487909022
 10
44.560171863
 20
30.7478895979
 10
44.5955958806
 20
30.7468388762
 10
44.6291687741
 20
30.7456458693
 10
44.6606626529
 20
30.7443186752
 10
44.6898637388
 20
30.7428663029
 10
44.7165738167
 20
30.741298611
 10
44.7406115804
 20
30.7396262408
 10
44.7618138632
 20
30.7378605443
 10
44.7800367455
 20
30.7360135069
 10
44.7951565315
 20
30.7340976662
 10
44.8070705893
 20
30.7321260268
 10
44.8156980469
 20
30.730111972
 10
44.8209803417
 20
30.7280691731
  0
LWPOLYLINE
  5
367
100
AcDbEntity
  8
RACCORDO
100
AcDbPolyline
 62
253
  6
CONTINUOUS
 90
17
 70
0
 10
44.3640433598
 20
30.8535684758
 10
44.4452465316
 20
30.8528944081
 10
44.4847390936
 20
30.852307921
 10
44.5231329979
 20
30.8515600657
 10
44.5601676303
 20
30.8506559184
 10
44.5955916031
 20
30.8496016166
 10
44.6291644616
 20
30.8484043167
 10
44.6606583166
 20
30.8470721458
 10
44.6898593904
 20
30.8456141466
 10
44.7165694691
 20
30.844040216
 10
44.7406072471
 20
30.8423610374
 10
44.7618095581
 20
30.8405880092
 10
44.7800324828
 20
30.8387331663
 10
44.7951523258
 20
30.8368090994
 10
44.8070664549
 20
30.8348288688
 10
44.8156939981
 20
30.8328059161
 10
44.8209763925
 20
30.830753973
  0
LWPOLYLINE
  5
368
100
AcDbEntity
  8
ASSI
100
AcDbPolyline
 62
253
  6
CONTINUOUS
 90
17
 70
0
 10
44.3640433598
 20
30.8535684758
 10
44.4452465316
 20
30.8528944081
 10
44.4847390936
 20
30.852307921
 10
44.5231329979
 20
30.8515600657
 10
44.5601676303
 20
30.8506559184
 10
44.5955916031
 20
30.8496016166
 10
44.6291644616
 20
30.8484043167
 10
44.6606583166
 20
30.8470721458
 10
44.6898593904
 20
30.8456141466
 10
44.7165694691
 20
30.844040216
 10
44.7406072471
 20
30.8423610374
 10
44.7618095581
 20
30.8405880092
 10
44.7800324828
 20
30.8387331663
 10
44.7951523258
 20
30.8368090994
 10
44.8070664549
 20
30.8348288688
 10
44.8156939981
 20
30.8328059161
 10
44.8209763925
 20
30.830753973
  0
LWPOLYLINE
  5
369
100
AcDbEntity
  8
RACCORDO
100
AcDbPolyline
 62
253
  6
CONTINUOUS
 90
19
 70
0
 10
21.940849486
 20
30.8904303906
 10
21.9832878464
 20
30.8893859996
 10
22.0257125278
 20
30.8860968035
 10
22.0680033974
 20
30.8805557724
 10
22.1100106947
 20
30.8727691566
 10
22.151641662
 20
30.8627392376
 10
22.1928571489
 20
30.8504490423
 10
22.233622149
 20
30.8358687236
 10
22.273712137
 20
30.8190373489
 10
22.3128116775
 20
30.8000692507
 10
22.3507631497
 20
30.7790481696
 10
22.3875030934
 20
30.7560169372
 10
22.4228801145
 20
30.7310757541
 10
22.4567799413
 20
30.7043209971
 10
22.4891298157
 20
30.6758267758
 10
22.5198512899
 20
30.6456727153
 10
22.5488641502
 20
30.6139484634
 10
22.5760882474
 20
30.5807552174
 10
22.6014518953
 20
30.5461942058
  0
LWPOLYLINE
  5
36A
100
AcDbEntity
  8
ASSI
100
AcDbPolyline
 62
253
  6
CONTINUOUS
 90
19
 70
0
 10
21.940849486
 20
30.8904303906
 10
21.9832878464
 20
30.8893859996
 10
22.0257125278
 20
30.8860968035
 10
22.0680033974
 20
30.8805557724
 10
22.1100106947
 20
30.8727691566
 10
22.151641662
 20
30.8627392376
 10
22.1928571489
 20
30.8504490423
 10
22.233622149
 20
30.8358687236
 10
22.273712137
 20
30.8190373489
 10
22.3128116775
 20
30.8000692507
 10
22.3507631497
 20
30.7790481696
 10
22.3875030934
 20
30.7560169372
 10
22.4228801145
 20
30.7310757541
 10
22.4567799413
 20
30.7043209971
 10
22.4891298157
 20
30.6758267758
 10
22.5198512899
 20
30.6456727153
 10
22.5488641502
 20
30.6139484634
 10
22.5760882474
 20
30.5807552174
 10
22.6014518953
 20
30.5461942058
  0
LWPOLYLINE
  5
36B
100
AcDbEntity
  8
RACCORDO
100
AcDbPolyline
 62
253
  6
CONTINUOUS
 90
19
 70
0
 10
21.9408480399
 20
31.416535663
 10
22.0098040528
 20
31.4147453264
 10
22.0784118268
 20
31.4092863492
 10
22.1466713618
 20
31.4001587123
 10
22.2147580561
 20
31.3873657601
 10
22.2824965114
 20
31.3709040713
 10
22.3493605328
 20
31.3507634588
 10
22.4154745828
 20
31.3268421283
 10
22.4807141988
 20
31.2992417192
 10
22.5441797989
 20
31.268257184
 10
22.6057723669
 20
31.2338482304
 10
22.6655909191
 20
31.1960549438
 10
22.7230329214
 20
31.1552928506
 10
22.7780484195
 20
31.1115355357
 10
22.8306873679
 20
31.0648091856
 10
22.8804970962
 20
31.0156082545
 10
22.9273267145
 20
30.964097497
 10
22.9713271129
 20
30.9101119447
 10
23.0124982912
 20
30.8536514817
  0
LWPOLYLINE
  5
36C
100
AcDbEntity
  8
ASSI
100
AcDbPolyline
 62
253
  6
CONTINUOUS
 90
19
 70
0
 10
21.9408480399
 20
31.416535663
 10
22.0098040528
 20
31.4147453264
 10
22.0784118268
 20
31.4092863492
 10
22.1466713618
 20
31.4001587123
 10
22.2147580561
 20
31.3873657601
 10
22.2824965114
 20
31.3709040713
 10
22.3493605328
 20
31.3507634588
 10
22.4154745828
 20
31.3268421283
 10
22.4807141988
 20
31.2992417192
 10
22.5441797989
 20
31.268257184
 10
22.6057723669
 20
31.2338482304
 10
22.6655909191
 20
31.1960549438
 10
22.7230329214
 20
31.1552928506
 10
22.7780484195
 20
31.1115355357
 10
22.8306873679
 20
31.0648091856
 10
22.8804970962
 20
31.0156082545
 10
22.9273267145
 20
30.964097497
 10
22.9713271129
 20
30.9101119447
 10
23.0124982912
 20
30.8536514817
  0
LWPOLYLINE
  5
36D
100
AcDbEntity
  8
RACCORDO
100
AcDbPolyline
 62
7
  6
CONTINUOUS
 90
7
 70
0
 10
22.1491845818
 20
30.7406274039
 10
22.1004888917
 20
30.7583830921
 10
22.0512604818
 20
30.7729170255
 10
22.0014993521
 20
30.7842292467
 10
21.9512055026
 20
30.7923197891
 10
21.9003789333
 20
30.7971886764
 10
21.8490196442
 20
30.7988359232
  0
LWPOLYLINE
  5
36E
100
AcDbEntity
  8
ASSI
100
AcDbPolyline
 62
7
  6
CONTINUOUS
 90
7
 70
0
 10
22.1491845818
 20
30.7406274039
 10
22.1004888917
 20
30.7583830921
 10
22.0512604818
 20
30.7729170255
 10
22.0014993521
 20
30.7842292467
 10
21.9512055026
 20
30.7923197891
 10
21.9003789333
 20
30.7971886764
 10
21.8490196442
 20
30.7988359232
  0
LWPOLYLINE
  5
36F
100
AcDbEntity
  8
RACCORDO
100
AcDbPolyline
 62
253
  6
CONTINUOUS
 90
13
 70
0
 10
22.6014518953
 20
30.5461942058
 10
22.6234041643
 20
30.5127665642
 10
22.6437330396
 20
30.4781276573
 10
22.6623642588
 20
30.4423517165
 10
22.6792610669
 20
30.4054378614
 10
22.6943130283
 20
30.3675464404
 10
22.707377609
 20
30.3290151248
 10
22.718431424
 20
30.2899530463
 10
22.7274604728
 20
30.2504596848
 10
22.7344178137
 20
30.2108814608
 10
22.7393265675
 20
30.171408123
 10
22.7422392605
 20
30.1320634638
 10
22.7431972008
 20
30.0929468619
  0
LWPOLYLINE
  5
370
100
AcDbEntity
  8
ASSI
100
AcDbPolyline
 62
253
  6
CONTINUOUS
 90
13
 70
0
 10
22.6014518953
 20
30.5461942058
 10
22.6234041643
 20
30.5127665642
 10
22.6437330396
 20
30.4781276573
 10
22.6623642588
 20
30.4423517165
 10
22.6792610669
 20
30.4054378614
 10
22.6943130283
 20
30.3675464404
 10
22.707377609
 20
30.3290151248
 10
22.718431424
 20
30.2899530463
 10
22.7274604728
 20
30.2504596848
 10
22.7344178137
 20
30.2108814608
 10
22.7393265675
 20
30.171408123
 10
22.7422392605
 20
30.1320634638
 10
22.7431972008
 20
30.0929468619
  0
LWPOLYLINE
  5
371
100
AcDbEntity
  8
RACCORDO
100
AcDbPolyline
 62
253
  6
CONTINUOUS
 90
13
 70
0
 10
23.0124982912
 20
30.8536514817
 10
23.048233074
 20
30.7991395401
 10
23.0811266697
 20
30.7428756146
 10
23.1111790783
 20
30.6848596732
 10
23.1385235817
 20
30.6247961659
 10
23.1630268979
 20
30.5629805718
 10
23.1842891814
 20
30.5002994198
 10
23.2021953418
 20
30.4367470528
 10
23.2168604695
 20
30.3723290941
 10
23.2282299908
 20
30.3079490308
 10
23.2362857145
 20
30.2439080352
 10
23.2410458319
 20
30.1799049435
 10
23.2425103428
 20
30.1159397578
  0
LWPOLYLINE
  5
372
100
AcDbEntity
  8
ASSI
100
AcDbPolyline
 62
253
  6
CONTINUOUS
 90
13
 70
0
 10
23.0124982912
 20
30.8536514817
 10
23.048233074
 20
30.7991395401
 10
23.0811266697
 20
30.7428756146
 10
23.1111790783
 20
30.6848596732
 10
23.1385235817
 20
30.6247961659
 10
23.1630268979
 20
30.5629805718
 10
23.1842891814
 20
30.5002994198
 10
23.2021953418
 20
30.4367470528
 10
23.2168604695
 20
30.3723290941
 10
23.2282299908
 20
30.3079490308
 10
23.2362857145
 20
30.2439080352
 10
23.2410458319
 20
30.1799049435
 10
23.2425103428
 20
30.1159397578
  0
LINE
  5
373
100
AcDbEntity
  8
RACCORDO
100
AcDbLine
 62
253
  6
CONTINUOUS
 10
43.8299503769
 20
-36.1499454386
 11
43.8299503772
 21
-36.5581099805
  0
LINE
  5
374
100
AcDbEntity
  8
ASSI
100
AcDbLine
 62
253
  6
CONTINUOUS
 10
43.8299503769
 20
-36.1499454386
 11
43.8299503772
 21
-36.5581099805
  0
LINE
  5
375
100
AcDbEntity
  8
RACCORDO
100
AcDbLine
 62
253
  6
CONTINUOUS
 10
43.8299503769
 20
52.6476172849
 11
43.8299503769
 21
53.0557818269
  0
LINE
  5
376
100
AcDbEntity
  8
ASSI
100
AcDbLine
 62
253
  6
CONTINUOUS
 10
43.8299503769
 20
52.6476172849
 11
43.8299503769
 21
53.0557818269
  0
LWPOLYLINE
  5
377
100
AcDbEntity
  8
RACCORDO
100
AcDbPolyline
 62
253
  6
CONTINUOUS
 90
28
 70
0
 10
44.818245447
 20
52.0675482721
 10
44.815905722
 20
52.1256558176
 10
44.8102476021
 20
52.1834387496
 10
44.8013025237
 20
52.2407082954
 10
44.7891196327
 20
52.2972594886
 10
44.7737468608
 20
52.3529289357
 10
44.7552189791
 20
52.4075920927
 10
44.7335838652
 20
52.461103255
 10
44.7089252591
 20
52.5132528544
 10
44.6813432336
 20
52.5638265472
 10
44.6509462418
 20
52.612647164
 10
44.6178340669
 20
52.6595756909
 10
44.5821125204
 20
52.7044666444
 10
44.5439034982
 20
52.7471777195
 10
44.5033384642
 20
52.7875731864
 10
44.460546981
 20
52.8255267859
 10
44.4156744391
 20
52.8609167066
 10
44.3688697406
 20
52.8936333656
 10
44.3202751342
 20
52.9235788693
 10
44.2700463939
 20
52.9506593664
 10
44.2183532308
 20
52.974786442
 10
44.1653650333
 20
52.9958824604
 10
44.111263434
 20
53.0138778417
 10
44.056218048
 20
53.0287196379
 10
44.0003841697
 20
53.0403660883
 10
43.9439349479
 20
53.0487778924
 10
43.8870620146
 20
53.0539229796
 10
43.8299503769
 20
53.0557818269
  0
LWPOLYLINE
  5
378
100
AcDbEntity
  8
ASSI
100
AcDbPolyline
 62
253
  6
CONTINUOUS
 90
28
 70
0
 10
44.818245447
 20
52.0675482721
 10
44.815905722
 20
52.1256558176
 10
44.8102476021
 20
52.1834387496
 10
44.8013025237
 20
52.2407082954
 10
44.7891196327
 20
52.2972594886
 10
44.7737468608
 20
52.3529289357
 10
44.7552189791
 20
52.4075920927
 10
44.7335838652
 20
52.461103255
 10
44.7089252591
 20
52.5132528544
 10
44.6813432336
 20
52.5638265472
 10
44.6509462418
 20
52.612647164
 10
44.6178340669
 20
52.6595756909
 10
44.5821125204
 20
52.7044666444
 10
44.5439034982
 20
52.7471777195
 10
44.5033384642
 20
52.7875731864
 10
44.460546981
 20
52.8255267859
 10
44.4156744391
 20
52.8609167066
 10
44.3688697406
 20
52.8936333656
 10
44.3202751342
 20
52.9235788693
 10
44.2700463939
 20
52.9506593664
 10
44.2183532308
 20
52.974786442
 10
44.1653650333
 20
52.9958824604
 10
44.111263434
 20
53.0138778417
 10
44.056218048
 20
53.0287196379
 10
44.0003841697
 20
53.0403660883
 10
43.9439349479
 20
53.0487778924
 10
43.8870620146
 20
53.0539229796
 10
43.8299503769
 20
53.0557818269
  0
LWPOLYLINE
  5
379
100
AcDbEntity
  8
RACCORDO
100
AcDbPolyline
 62
253
  6
CONTINUOUS
 90
28
 70
0
 10
44.3202107575
 20
52.148064757
 10
44.319349712
 20
52.1776122444
 10
44.3168584578
 20
52.206824764
 10
44.3127369949
 20
52.2357023468
 10
44.3069611048
 20
52.2643352399
 10
44.2995550059
 20
52.2926332515
 10
44.2905913541
 20
52.3203257794
 10
44.2800507835
 20
52.3474151699
 10
44.2679526599
 20
52.3738991835
 10
44.2544277356
 20
52.3995003859
 10
44.2394647476
 20
52.424201396
 10
44.223074959
 20
52.4480197407
 10
44.2054229113
 20
52.470730385
 10
44.1864965558
 20
52.4923235261
 10
44.1663079412
 20
52.5128091282
 10
44.1450577555
 20
52.531991832
 10
44.122736063
 20
52.5498589824
 10
44.0993527993
 20
52.566423394
 10
44.0751384586
 20
52.5815279243
 10
44.0500853964
 20
52.5951582155
 10
44.0242012572
 20
52.6073287645
 10
43.9977394695
 20
52.6179257141
 10
43.9706880133
 20
52.6269340828
 10
43.9430589086
 20
52.6343689545
 10
43.9151416438
 20
52.6401615638
 10
43.887032715
 20
52.6442890078
 10
43.858635626
 20
52.6467742436
 10
43.8299503769
 20
52.6476172849
  0
LWPOLYLINE
  5
37A
100
AcDbEntity
  8
ASSI
100
AcDbPolyline
 62
253
  6
CONTINUOUS
 90
28
 70
0
 10
44.3202107575
 20
52.148064757
 10
44.319349712
 20
52.1776122444
 10
44.3168584578
 20
52.206824764
 10
44.3127369949
 20
52.2357023468
 10
44.3069611048
 20
52.2643352399
 10
44.2995550059
 20
52.2926332515
 10
44.2905913541
 20
52.3203257794
 10
44.2800507835
 20
52.3474151699
 10
44.2679526599
 20
52.3738991835
 10
44.2544277356
 20
52.3995003859
 10
44.2394647476
 20
52.424201396
 10
44.223074959
 20
52.4480197407
 10
44.2054229113
 20
52.470730385
 10
44.1864965558
 20
52.4923235261
 10
44.1663079412
 20
52.5128091282
 10
44.1450577555
 20
52.531991832
 10
44.122736063
 20
52.5498589824
 10
44.0993527993
 20
52.566423394
 10
44.0751384586
 20
52.5815279243
 10
44.0500853964
 20
52.5951582155
 10
44.0242012572
 20
52.6073287645
 10
43.9977394695
 20
52.6179257141
 10
43.9706880133
 20
52.6269340828
 10
43.9430589086
 20
52.6343689545
 10
43.9151416438
 20
52.6401615638
 10
43.887032715
 20
52.6442890078
 10
43.858635626
 20
52.6467742436
 10
43.8299503769
 20
52.6476172849
  0
LINE
  5
37B
100
AcDbEntity
  8
RACCORDO
100
AcDbLine
 62
253
  6
CONTINUOUS
 10
44.3220606639
 20
40.3554647354
 11
44.3202107575
 21
52.148064757
  0
LINE
  5
37C
100
AcDbEntity
  8
ASSI
100
AcDbLine
 62
253
  6
CONTINUOUS
 10
44.3220606639
 20
40.3554647354
 11
44.3202107575
 21
52.148064757
  0
LINE
  5
37D
100
AcDbEntity
  8
RACCORDO
100
AcDbLine
 62
253
  6
CONTINUOUS
 10
44.8201339825
 20
40.3068219253
 11
44.8182454469
 21
52.0675482719
  0
LINE
  5
37E
100
AcDbEntity
  8
ASSI
100
AcDbLine
 62
253
  6
CONTINUOUS
 10
44.8201339825
 20
40.3068219253
 11
44.8182454469
 21
52.0675482719
  0
LINE
  5
37F
100
AcDbEntity
  8
RACCORDO
100
AcDbLine
 62
7
  6
CONTINUOUS
 10
44.9999996065
 20
52.252357024
 11
45.0
 21
30.7280691731
  0
LINE
  5
380
100
AcDbEntity
  8
DRAFT
100
AcDbLine
 62
7
  6
CONTINUOUS
 10
45.0
 20
30.7280691731
 11
45.0
 21
-14.2303973267
  0
LINE
  5
381
100
AcDbEntity
  8
RACCORDO
100
AcDbLine
 62
7
  6
CONTINUOUS
 10
45.0
 20
-14.2303973267
 11
44.9999996065
 21
-35.7546851777
  0
LINE
  5
382
100
AcDbEntity
  8
ASSI
100
AcDbLine
 62
7
  6
CONTINUOUS
 10
44.9999996065
 20
52.252357024
 11
44.9999996065
 21
-35.7546851777
  0
LINE
  5
383
100
AcDbEntity
  8
RACCORDO
100
AcDbLine
 62
253
  6
CONTINUOUS
 10
44.3202107575
 20
-35.6503929107
 11
44.3220606639
 21
40.3554647354
  0
LINE
  5
384
100
AcDbEntity
  8
ASSI
100
AcDbLine
 62
253
  6
CONTINUOUS
 10
44.3202107575
 20
-35.6503929107
 11
44.3220606639
 21
40.3554647354
  0
LINE
  5
385
100
AcDbEntity
  8
RACCORDO
100
AcDbLine
 62
253
  6
CONTINUOUS
 10
44.8182454469
 20
-35.5698764261
 11
44.8201339825
 21
40.3068219253
  0
LINE
  5
386
100
AcDbEntity
  8
ASSI
100
AcDbLine
 62
253
  6
CONTINUOUS
 10
44.8182454469
 20
-35.5698764261
 11
44.8201339825
 21
40.3068219253
  0
LWPOLYLINE
  5
387
100
AcDbEntity
  8
RACCORDO
100
AcDbPolyline
 62
7
  6
CONTINUOUS
 90
28
 70
0
 10
44.9999996065
 20
-35.7546851777
 10
44.9982512767
 20
-35.8143989553
 10
44.993147257
 20
-35.8734455977
 10
44.9846875473
 20
-35.9318252298
 10
44.9727803597
 20
-35.9898068016
 10
44.9575174821
 20
-36.0471215748
 10
44.9391742792
 20
-36.1029632963
 10
44.9177675706
 20
-36.1571678063
 10
44.8932805366
 20
-36.2098998249
 10
44.8659380835
 20
-36.2608466236
 10
44.8357239893
 20
-36.3100374159
 10
44.802654476
 20
-36.3574435883
 10
44.7670031149
 20
-36.4026657785
 10
44.7286331998
 20
-36.4457698763
 10
44.687681437
 20
-36.4866906438
 10
44.6448315177
 20
-36.5248321527
 10
44.6002000895
 20
-36.5600347943
 10
44.5536705048
 20
-36.5924588933
 10
44.5055765112
 20
-36.6219884797
 10
44.4559094922
 20
-36.648640082
 10
44.4046780645
 20
-36.6723977343
 10
44.3522418255
 20
-36.6930967096
 10
44.2984659543
 20
-36.7107405553
 10
44.2434852718
 20
-36.725326132
 10
44.188063839
 20
-36.7366786563
 10
44.1324563429
 20
-36.7447399437
 10
44.0764080964
 20
-36.749568399
 10
44.0199190996
 20
-36.7511640768
  0
LWPOLYLINE
  5
388
100
AcDbEntity
  8
ASSI
100
AcDbPolyline
 62
7
  6
CONTINUOUS
 90
28
 70
0
 10
44.9999996065
 20
-35.7546851777
 10
44.9982512767
 20
-35.8143989553
 10
44.993147257
 20
-35.8734455977
 10
44.9846875473
 20
-35.9318252298
 10
44.9727803597
 20
-35.9898068016
 10
44.9575174821
 20
-36.0471215748
 10
44.9391742792
 20
-36.1029632963
 10
44.9177675706
 20
-36.1571678063
 10
44.8932805366
 20
-36.2098998249
 10
44.8659380835
 20
-36.2608466236
 10
44.8357239893
 20
-36.3100374159
 10
44.802654476
 20
-36.3574435883
 10
44.7670031149
 20
-36.4026657785
 10
44.7286331998
 20
-36.4457698763
 10
44.687681437
 20
-36.4866906438
 10
44.6448315177
 20
-36.5248321527
 10
44.6002000895
 20
-36.5600347943
 10
44.5536705048
 20
-36.5924588933
 10
44.5055765112
 20
-36.6219884797
 10
44.4559094922
 20
-36.648640082
 10
44.4046780645
 20
-36.6723977343
 10
44.3522418255
 20
-36.6930967096
 10
44.2984659543
 20
-36.7107405553
 10
44.2434852718
 20
-36.725326132
 10
44.188063839
 20
-36.7366786563
 10
44.1324563429
 20
-36.7447399437
 10
44.0764080964
 20
-36.749568399
 10
44.0199190996
 20
-36.7511640768
  0
LWPOLYLINE
  5
389
100
AcDbEntity
  8
RACCORDO
100
AcDbPolyline
 62
253
  6
CONTINUOUS
 90
28
 70
0
 10
-43.8299503769
 20
53.0557818269
 10
-43.8870550041
 20
53.0539233323
 10
-43.9438986983
 20
53.0487821585
 10
-44.0002970679
 20
53.0403816276
 10
-44.0560405076
 20
53.0287620738
 10
-44.1109769237
 20
53.0139639773
 10
-44.1650082691
 20
52.9960124275
 10
-44.2179940208
 20
52.9749412573
 10
-44.2697188624
 20
52.9508236473
 10
-44.3199757754
 20
52.9237514928
 10
-44.3685829912
 20
52.893821707
 10
-44.4153979864
 20
52.86112221
 10
-44.4602814561
 20
52.8257491908
 10
-44.5030852283
 20
52.7878115765
 10
-44.5436631566
 20
52.7474317509
 10
-44.581886011
 20
52.7047355651
 10
-44.6176229207
 20
52.6598578013
 10
-44.6507512097
 20
52.6129415174
 10
-44.6811636532
 20
52.5641345547
 10
-44.7087546246
 20
52.5135883534
 10
-44.733423648
 20
52.4614686553
 10
-44.7550844781
 20
52.4079537435
 10
-44.7736570833
 20
52.353220263
 10
-44.7890746325
 20
52.2974420557
 10
-44.8012854486
 20
52.2408000412
 10
-44.8102425797
 20
52.1834784901
 10
-44.8159051462
 20
52.1256647453
 10
-44.818245447
 20
52.0675482725
  0
LWPOLYLINE
  5
38A
100
AcDbEntity
  8
ASSI
100
AcDbPolyline
 62
253
  6
CONTINUOUS
 90
28
 70
0
 10
-43.8299503769
 20
53.0557818269
 10
-43.8870550041
 20
53.0539233323
 10
-43.9438986983
 20
53.0487821585
 10
-44.0002970679
 20
53.0403816276
 10
-44.0560405076
 20
53.0287620738
 10
-44.1109769237
 20
53.0139639773
 10
-44.1650082691
 20
52.9960124275
 10
-44.2179940208
 20
52.9749412573
 10
-44.2697188624
 20
52.9508236473
 10
-44.3199757754
 20
52.9237514928
 10
-44.3685829912
 20
52.893821707
 10
-44.4153979864
 20
52.86112221
 10
-44.4602814561
 20
52.8257491908
 10
-44.5030852283
 20
52.7878115765
 10
-44.5436631566
 20
52.7474317509
 10
-44.581886011
 20
52.7047355651
 10
-44.6176229207
 20
52.6598578013
 10
-44.6507512097
 20
52.6129415174
 10
-44.6811636532
 20
52.5641345547
 10
-44.7087546246
 20
52.5135883534
 10
-44.733423648
 20
52.4614686553
 10
-44.7550844781
 20
52.4079537435
 10
-44.7736570833
 20
52.353220263
 10
-44.7890746325
 20
52.2974420557
 10
-44.8012854486
 20
52.2408000412
 10
-44.8102425797
 20
52.1834784901
 10
-44.8159051462
 20
52.1256647453
 10
-44.818245447
 20
52.0675482725
  0
LWPOLYLINE
  5
38B
100
AcDbEntity
  8
RACCORDO
100
AcDbPolyline
 62
253
  6
CONTINUOUS
 90
28
 70
0
 10
-43.8299503769
 20
52.6476172849
 10
-43.8586610063
 20
52.646766699
 10
-43.8870638825
 20
52.6442803055
 10
-43.9151590055
 20
52.640158091
 10
-43.943030704
 20
52.6343799311
 10
-43.9705946493
 20
52.6269658963
 10
-43.9975978548
 20
52.6179762536
 10
-44.0240465589
 20
52.6073915995
 10
-44.0499345231
 20
52.5952312351
 10
-44.0749900458
 20
52.5816134778
 10
-44.0991973008
 20
52.5665270135
 10
-44.1225721142
 20
52.5499830179
 10
-44.1448902624
 20
52.5321335462
 10
-44.1661444749
 20
52.5129649067
 10
-44.1863420223
 20
52.4924906316
 10
-44.2052804927
 20
52.4709036255
 10
-44.2229489705
 20
52.448191096
 10
-44.2393583714
 20
52.4243656734
 10
-44.2543390304
 20
52.3996584215
 10
-44.2678766544
 20
52.374059764
 10
-44.2799855366
 20
52.3475791321
 10
-44.2905388909
 20
52.3204761377
 10
-44.299521441
 20
52.2927350906
 10
-44.3069484633
 20
52.2643715697
 10
-44.3127390017
 20
52.2356921397
 10
-44.3168660708
 20
52.2067989822
 10
-44.3193566561
 20
52.1775898643
 10
-44.3202107575
 20
52.148064757
  0
LWPOLYLINE
  5
38C
100
AcDbEntity
  8
ASSI
100
AcDbPolyline
 62
253
  6
CONTINUOUS
 90
28
 70
0
 10
-43.8299503769
 20
52.6476172849
 10
-43.8586610063
 20
52.646766699
 10
-43.8870638825
 20
52.6442803055
 10
-43.9151590055
 20
52.640158091
 10
-43.943030704
 20
52.6343799311
 10
-43.9705946493
 20
52.6269658963
 10
-43.9975978548
 20
52.6179762536
 10
-44.0240465589
 20
52.6073915995
 10
-44.0499345231
 20
52.5952312351
 10
-44.0749900458
 20
52.5816134778
 10
-44.0991973008
 20
52.5665270135
 10
-44.1225721142
 20
52.5499830179
 10
-44.1448902624
 20
52.5321335462
 10
-44.1661444749
 20
52.5129649067
 10
-44.1863420223
 20
52.4924906316
 10
-44.2052804927
 20
52.4709036255
 10
-44.2229489705
 20
52.448191096
 10
-44.2393583714
 20
52.4243656734
 10
-44.2543390304
 20
52.3996584215
 10
-44.2678766544
 20
52.374059764
 10
-44.2799855366
 20
52.3475791321
 10
-44.2905388909
 20
52.3204761377
 10
-44.299521441
 20
52.2927350906
 10
-44.3069484633
 20
52.2643715697
 10
-44.3127390017
 20
52.2356921397
 10
-44.3168660708
 20
52.2067989822
 10
-44.3193566561
 20
52.1775898643
 10
-44.3202107575
 20
52.148064757
  0
LWPOLYLINE
  5
38D
100
AcDbEntity
  8
RACCORDO
100
AcDbPolyline
 62
253
  6
CONTINUOUS
 90
19
 70
0
 10
-44.3202107575
 20
52.1480647435
 10
-44.3613337994
 20
52.1477730431
 10
-44.4021781958
 20
52.1468840107
 10
-44.4424671894
 20
52.1454036704
 10
-44.481927786
 20
52.1433420526
 10
-44.5202926047
 20
52.1407131269
 10
-44.5573016896
 20
52.1375347064
 10
-44.5927042707
 20
52.1338283279
 10
-44.6262604639
 20
52.1296191054
 10
-44.657742896
 20
52.12493556
 10
-44.6869382451
 20
52.1198094272
 10
-44.7136486867
 20
52.1142754409
 10
-44.7376932335
 20
52.108371099
 10
-44.7589089621
 20
52.1021364086
 10
-44.777152117
 20
52.0956136153
 10
-44.7922990845
 20
52.088846917
 10
-44.8042472302
 20
52.0818821641
 10
-44.8129155947
 20
52.0747665489
 10
-44.8182454422
 20
52.0675482863
  0
LWPOLYLINE
  5
38E
100
AcDbEntity
  8
ASSI
100
AcDbPolyline
 62
253
  6
CONTINUOUS
 90
19
 70
0
 10
-44.3202107575
 20
52.1480647435
 10
-44.3613337994
 20
52.1477730431
 10
-44.4021781958
 20
52.1468840107
 10
-44.4424671894
 20
52.1454036704
 10
-44.481927786
 20
52.1433420526
 10
-44.5202926047
 20
52.1407131269
 10
-44.5573016896
 20
52.1375347064
 10
-44.5927042707
 20
52.1338283279
 10
-44.6262604639
 20
52.1296191054
 10
-44.657742896
 20
52.12493556
 10
-44.6869382451
 20
52.1198094272
 10
-44.7136486867
 20
52.1142754409
 10
-44.7376932335
 20
52.108371099
 10
-44.7589089621
 20
52.1021364086
 10
-44.777152117
 20
52.0956136153
 10
-44.7922990845
 20
52.088846917
 10
-44.8042472302
 20
52.0818821641
 10
-44.8129155947
 20
52.0747665489
 10
-44.8182454422
 20
52.0675482863
  0
LINE
  5
38F
100
AcDbEntity
  8
RACCORDO
100
AcDbLine
 62
253
  6
CONTINUOUS
 10
43.8299503769
 20
52.6476172849
 11
-43.8299503769
 21
52.6476172849
  0
LINE
  5
390
100
AcDbEntity
  8
ASSI
100
AcDbLine
 62
253
  6
CONTINUOUS
 10
43.8299503769
 20
52.6476172849
 11
-43.8299503769
 21
52.6476172849
  0
LINE
  5
391
100
AcDbEntity
  8
RACCORDO
100
AcDbLine
 62
253
  6
CONTINUOUS
 10
43.8299503769
 20
53.0557818269
 11
-43.8299503769
 21
53.0557818269
  0
LINE
  5
392
100
AcDbEntity
  8
ASSI
100
AcDbLine
 62
253
  6
CONTINUOUS
 10
43.8299503769
 20
53.0557818269
 11
-43.8299503769
 21
53.0557818269
  0
LINE
  5
393
100
AcDbEntity
  8
RACCORDO
100
AcDbLine
 62
7
  6
CONTINUOUS
 10
44.0199190996
 20
53.2488359232
 11
-44.0199190996
 21
53.2488359232
  0
LINE
  5
394
100
AcDbEntity
  8
ASSI
100
AcDbLine
 62
7
  6
CONTINUOUS
 10
44.0199190996
 20
53.2488359232
 11
-44.0199190996
 21
53.2488359232
  0
LWPOLYLINE
  5
395
100
AcDbEntity
  8
RACCORDO
100
AcDbPolyline
 62
253
  6
CONTINUOUS
 90
19
 70
0
 10
44.3202107575
 20
52.1480647517
 10
44.3613334588
 20
52.1477730244
 10
44.4021774929
 20
52.1468839683
 10
44.4424661075
 20
52.1454036074
 10
44.4819263135
 20
52.1433419724
 10
44.5202907351
 20
52.1407130324
 10
44.5572994212
 20
52.1375346007
 10
44.5927016072
 20
52.1338282138
 10
44.6262574135
 20
52.1296189856
 10
44.6577394717
 20
52.1249354371
 10
44.6869344644
 20
52.1198093033
 10
44.7136445712
 20
52.1142753181
 10
44.7376888089
 20
52.1083709789
 10
44.7589042576
 20
52.1021362925
 10
44.7771471649
 20
52.0956135043
 10
44.7922939199
 20
52.0888468116
 10
44.8042418908
 20
52.0818820645
 10
44.8129101199
 20
52.0747664551
 10
44.8182398729
 20
52.0675481977
  0
LWPOLYLINE
  5
396
100
AcDbEntity
  8
ASSI
100
AcDbPolyline
 62
253
  6
CONTINUOUS
 90
19
 70
0
 10
44.3202107575
 20
52.1480647517
 10
44.3613334588
 20
52.1477730244
 10
44.4021774929
 20
52.1468839683
 10
44.4424661075
 20
52.1454036074
 10
44.4819263135
 20
52.1433419724
 10
44.5202907351
 20
52.1407130324
 10
44.5572994212
 20
52.1375346007
 10
44.5927016072
 20
52.1338282138
 10
44.6262574135
 20
52.1296189856
 10
44.6577394717
 20
52.1249354371
 10
44.6869344644
 20
52.1198093033
 10
44.7136445712
 20
52.1142753181
 10
44.7376888089
 20
52.1083709789
 10
44.7589042576
 20
52.1021362925
 10
44.7771471649
 20
52.0956135043
 10
44.7922939199
 20
52.0888468116
 10
44.8042418908
 20
52.0818820645
 10
44.8129101199
 20
52.0747664551
 10
44.8182398729
 20
52.0675481977
  0
LWPOLYLINE
  5
397
100
AcDbEntity
  8
RACCORDO
100
AcDbPolyline
 62
7
  6
CONTINUOUS
 90
28
 70
0
 10
44.0199190996
 20
53.2488359232
 10
44.0764314888
 20
53.2472339653
 10
44.1324866956
 20
53.2424042995
 10
44.1880847201
 20
53.2343468712
 10
44.2434714848
 20
53.2230048704
 10
44.2984010672
 20
53.2084348872
 10
44.3521356995
 20
53.190806922
 10
44.4045494499
 20
53.1701243248
 10
44.4557682502
 20
53.1463833378
 10
44.5054321278
 20
53.1197432726
 10
44.5535364086
 20
53.0902162347
 10
44.6000857666
 20
53.0577895549
 10
44.6447342516
 20
53.0225853663
 10
44.6875941193
 20
52.9844449735
 10
44.7285531141
 20
52.9435263565
 10
44.7669285181
 20
52.9004267208
 10
44.802582628
 20
52.8552137589
 10
44.8356531472
 20
52.8078191275
 10
44.865870468
 20
52.7586361043
 10
44.8932199075
 20
52.7076940632
 10
44.9177161486
 20
52.6549630292
 10
44.9391336329
 20
52.6007473602
 10
44.9574910232
 20
52.5448711528
 10
44.9727696567
 20
52.487509744
 10
44.9846879865
 20
52.4294945605
 10
44.9931521636
 20
52.3711027359
 10
44.9982560369
 20
52.3120569312
 10
44.9999996065
 20
52.252357024
  0
LWPOLYLINE
  5
398
100
AcDbEntity
  8
ASSI
100
AcDbPolyline
 62
7
  6
CONTINUOUS
 90
28
 70
0
 10
44.0199190996
 20
53.2488359232
 10
44.0764314888
 20
53.2472339653
 10
44.1324866956
 20
53.2424042995
 10
44.1880847201
 20
53.2343468712
 10
44.2434714848
 20
53.2230048704
 10
44.2984010672
 20
53.2084348872
 10
44.3521356995
 20
53.190806922
 10
44.4045494499
 20
53.1701243248
 10
44.4557682502
 20
53.1463833378
 10
44.5054321278
 20
53.1197432726
 10
44.5535364086
 20
53.0902162347
 10
44.6000857666
 20
53.0577895549
 10
44.6447342516
 20
53.0225853663
 10
44.6875941193
 20
52.9844449735
 10
44.7285531141
 20
52.9435263565
 10
44.7669285181
 20
52.9004267208
 10
44.802582628
 20
52.8552137589
 10
44.8356531472
 20
52.8078191275
 10
44.865870468
 20
52.7586361043
 10
44.8932199075
 20
52.7076940632
 10
44.9177161486
 20
52.6549630292
 10
44.9391336329
 20
52.6007473602
 10
44.9574910232
 20
52.5448711528
 10
44.9727696567
 20
52.487509744
 10
44.9846879865
 20
52.4294945605
 10
44.9931521636
 20
52.3711027359
 10
44.9982560369
 20
52.3120569312
 10
44.9999996065
 20
52.252357024
  0
LINE
  5
399
100
AcDbEntity
  8
RACCORDO
100
AcDbLine
 62
253
  6
CONTINUOUS
 10
-74.6445302627
 20
-35.6503928972
 11
-74.195987793
 21
-35.56987644
  0
LINE
  5
39A
100
AcDbEntity
  8
ASSI
100
AcDbLine
 62
253
  6
CONTINUOUS
 10
-74.6445302627
 20
-35.6503928972
 11
-74.195987793
 21
-35.56987644
  0
LWPOLYLINE
  5
39B
100
AcDbEntity
  8
RACCORDO
100
AcDbPolyline
 62
253
  6
CONTINUOUS
 90
13
 70
0
 10
-71.6317211556
 20
-35.4604149788
 10
-71.4770619305
 20
-35.4371083918
 10
-71.3224017957
 20
-35.4092654447
 10
-71.1678925974
 20
-35.376876413
 10
-71.0138768719
 20
-35.3401196645
 10
-70.8603493947
 20
-35.2987972804
 10
-70.7069640976
 20
-35.2523334001
 10
-70.5537536552
 20
-35.2007893419
 10
-70.4011286888
 20
-35.1440800256
 10
-70.2493224848
 20
-35.0814064629
 10
-70.0985604773
 20
-35.0124921437
 10
-69.9490461316
 20
-34.9375851752
 10
-69.8009831429
 20
-34.8566716006
  0
LINE
  5
39C
100
AcDbEntity
  8
RACCORDO
100
AcDbLine
 62
253
  6
CONTINUOUS
 10
-69.8009831429
 20
-34.8566716006
 11
-71.7383075997
 21
-34.8683755891
  0
LINE
  5
39D
100
AcDbEntity
  8
RACCORDO
100
AcDbLine
 62
7
  6
CONTINUOUS
 10
-72.116319703
 20
-34.1982272625
 11
-71.8554803114
 21
-34.202780231
  0
LINE
  5
39E
100
AcDbEntity
  8
DRAFT
100
AcDbLine
 62
7
  6
CONTINUOUS
 10
-71.8540606052
 20
-34.1912061549
 11
-71.8870621193
 21
-34.1906301113
  0
LINE
  5
39F
100
AcDbEntity
  8
RACCORDO
100
AcDbLine
 62
7
  6
CONTINUOUS
 10
-74.1056998956
 20
-36.5581099806
 11
-71.8990814778
 21
-36.7511640768
  0
LINE
  5
3A0
100
AcDbEntity
  8
ASSI
100
AcDbLine
 62
7
  6
CONTINUOUS
 10
-74.1056998956
 20
-36.5581099806
 11
-71.8990814778
 21
-36.7511640768
  0
LINE
  5
3A1
100
AcDbEntity
  8
RACCORDO
100
AcDbLine
 62
253
  6
CONTINUOUS
 10
-74.1959877956
 20
-35.5698764261
 11
-72.084782651
 21
-35.7546851777
  0
LINE
  5
3A2
100
AcDbEntity
  8
ASSI
100
AcDbLine
 62
253
  6
CONTINUOUS
 10
-74.1959877956
 20
-35.5698764261
 11
-72.084782651
 21
-35.7546851777
  0
LWPOLYLINE
  5
3A3
100
AcDbEntity
  8
RACCORDO
100
AcDbPolyline
 62
253
  6
CONTINUOUS
 90
13
 70
0
 10
-74.1247364373
 20
29.9559049056
 10
-74.1674571285
 20
29.9403681206
 10
-74.2274514209
 20
29.9144421655
 10
-74.2845298947
 20
29.8854905445
 10
-74.3384012927
 20
29.8536609904
 10
-74.3887907227
 20
29.8191159216
 10
-74.4354410601
 20
29.7820316127
 10
-74.47811426
 20
29.7425972958
 10
-74.5165925717
 20
29.7010141941
 10
-74.5506796501
 20
29.6574944959
 10
-74.5802015574
 20
29.6122602712
 10
-74.6050076507
 20
29.5655423389
 10
-74.6249713508
 20
29.5175790889
  0
LWPOLYLINE
  5
3A4
100
AcDbEntity
  8
RACCORDO
100
AcDbPolyline
 62
253
  6
CONTINUOUS
 90
15
 70
0
 10
-74.1056998956
 20
-36.5581099806
 10
-74.1082076674
 20
-36.556251486
 10
-74.1108746441
 20
-36.5511103122
 10
-74.1136869912
 20
-36.5427097813
 10
-74.1166293478
 20
-36.5310902275
 10
-74.1196930053
 20
-36.516292131
 10
-74.1228742503
 20
-36.4983405812
 10
-74.1261679063
 20
-36.477269411
 10
-74.1295578769
 20
-36.453151801
 10
-74.1330250273
 20
-36.4260796465
 10
-74.1365667635
 20
-36.3961498607
 10
-74.1401739309
 20
-36.3634503637
 10
-74.1438198706
 20
-36.3280773445
 10
-74.1475056751
 20
-36.2901397302
 10
-74.1512251499
 20
-36.2497599046
  0
LWPOLYLINE
  5
3A5
100
AcDbEntity
  8
ASSI
100
AcDbPolyline
 62
253
  6
CONTINUOUS
 90
15
 70
0
 10
-74.1056998956
 20
-36.5581099806
 10
-74.1082076674
 20
-36.556251486
 10
-74.1108746441
 20
-36.5511103122
 10
-74.1136869912
 20
-36.5427097813
 10
-74.1166293478
 20
-36.5310902275
 10
-74.1196930053
 20
-36.516292131
 10
-74.1228742503
 20
-36.4983405812
 10
-74.1261679063
 20
-36.477269411
 10
-74.1295578769
 20
-36.453151801
 10
-74.1330250273
 20
-36.4260796465
 10
-74.1365667635
 20
-36.3961498607
 10
-74.1401739309
 20
-36.3634503637
 10
-74.1438198706
 20
-36.3280773445
 10
-74.1475056751
 20
-36.2901397302
 10
-74.1512251499
 20
-36.2497599046
  0
LWPOLYLINE
  5
3A6
100
AcDbEntity
  8
RACCORDO
100
AcDbPolyline
 62
253
  6
CONTINUOUS
 90
3
 70
0
 10
-73.1522953407
 20
-29.0640479616
 10
-73.1624738029
 20
-29.065720313
 10
-73.1664202776
 20
-29.0664306307
  0
LINE
  5
3A7
100
AcDbEntity
  8
RACCORDO
100
AcDbLine
 62
253
  6
CONTINUOUS
 10
-73.1199207524
 20
-29.0590158668
 11
-73.1522953407
 21
-29.0640479616
  0
LINE
  5
3A8
100
AcDbEntity
  8
RACCORDO
100
AcDbLine
 62
253
  6
CONTINUOUS
 10
-73.0093162861
 20
-29.0425412272
 11
-73.1199207524
 21
-29.0590158668
  0
LINE
  5
3A9
100
AcDbEntity
  8
RACCORDO
100
AcDbLine
 62
253
  6
CONTINUOUS
 10
-72.6720341717
 20
-28.9937247418
 11
-73.0093162861
 21
-29.0425412272
  0
LINE
  5
3AA
100
AcDbEntity
  8
RACCORDO
100
AcDbLine
 62
7
  6
CONTINUOUS
 10
-73.6512344701
 20
-25.3131635101
 11
-73.1551445582
 21
-25.3001729385
  0
LINE
  5
3AB
100
AcDbEntity
  8
RACCORDO
100
AcDbLine
 62
7
  6
CONTINUOUS
 10
-73.0456014778
 20
-26.2050237017
 11
-73.5490985605
 21
-26.1918391665
  0
LWPOLYLINE
  5
3AC
100
AcDbEntity
  8
RACCORDO
100
AcDbPolyline
 62
253
  6
CONTINUOUS
 90
3
 70
0
 10
-74.6036631404
 20
-12.8681683738
 10
-74.6220071599
 20
-12.8691841753
 10
-74.633571638
 20
-12.8697633237
  0
LINE
  5
3AD
100
AcDbEntity
  8
RACCORDO
100
AcDbLine
 62
253
  6
CONTINUOUS
 10
-77.083571638
 20
-14.3559796354
 11
-76.6277803153
 21
-14.3330821267
  0
LINE
  5
3AE
100
AcDbEntity
  8
ASSI
100
AcDbLine
 62
253
  6
CONTINUOUS
 10
-77.083571638
 20
-14.3559796354
 11
-76.6277803153
 21
-14.3330821267
  0
LINE
  5
3AF
100
AcDbEntity
  8
RACCORDO
100
AcDbLine
 62
253
  6
CONTINUOUS
 10
-77.0887289078
 20
-14.2532078074
 11
-76.6329318705
 21
-14.2303973267
  0
LINE
  5
3B0
100
AcDbEntity
  8
ASSI
100
AcDbLine
 62
253
  6
CONTINUOUS
 10
-77.0887289078
 20
-14.2532078074
 11
-76.6329318705
 21
-14.2303973267
  0
LINE
  5
3B1
100
AcDbEntity
  8
RACCORDO
100
AcDbLine
 62
253
  6
CONTINUOUS
 10
-74.1537962671
 20
-12.8462885897
 11
-74.6036631404
 21
-12.8681683738
  0
LINE
  5
3B2
100
AcDbEntity
  8
0
100
AcDbLine
 62
253
  6
CONTINUOUS
 10
-69.083571638
 20
-14.1197732694
 11
-71.8149810088
 21
-14.1651263715
  0
LINE
  5
3B3
100
AcDbEntity
  8
0
100
AcDbLine
 62
253
  6
CONTINUOUS
 10
-71.8149810088
 20
-14.1651263715
 11
-74.0894880167
 21
-14.2004974102
  0
LINE
  5
3B4
100
AcDbEntity
  8
RACCORDO
100
AcDbLine
 62
253
  6
CONTINUOUS
 10
-76.6329318706
 20
-14.2303973267
 11
-74.5867278135
 21
-14.2303973267
  0
LINE
  5
3B5
100
AcDbEntity
  8
ASSI
100
AcDbLine
 62
253
  6
CONTINUOUS
 10
-76.6329318706
 20
-14.2303973267
 11
-74.5867278135
 21
-14.2303973267
  0
LWPOLYLINE
  5
3B6
100
AcDbEntity
  8
RACCORDO
100
AcDbPolyline
 62
7
  6
CONTINUOUS
 90
3
 70
0
 10
-74.0833793504
 20
-14.3070871598
 10
-74.0846337376
 20
-14.3068603175
 10
-74.1030139823
 20
-14.3033269244
  0
LWPOLYLINE
  5
3B7
100
AcDbEntity
  8
RACCORDO
100
AcDbPolyline
 62
7
  6
CONTINUOUS
 90
19
 70
0
 10
-74.1030139823
 20
-14.3033269244
 10
-74.1211415799
 20
-14.2996326568
 10
-74.1390103636
 20
-14.295775875
 10
-74.1566134079
 20
-14.2917611728
 10
-74.1739439882
 20
-14.2875930718
 10
-74.1909964548
 20
-14.2832698968
 10
-74.207764389
 20
-14.2787964543
 10
-74.2242415763
 20
-14.2741774913
 10
-74.2404228882
 20
-14.2694113042
 10
-74.2563024169
 20
-14.2645028853
 10
-74.2718744606
 20
-14.2594571814
 10
-74.2871344084
 20
-14.2542724678
 10
-74.3020768659
 20
-14.2489538971
 10
-74.316696643
 20
-14.2435065907
 10
-74.3309896387
 20
-14.2379288129
 10
-74.3449509713
 20
-14.232225851
 10
-74.35857596
 20
-14.2264029776
 10
-74.3718610015
 20
-14.2204584587
 10
-74.383571638
 20
-14.2149738009
  0
LWPOLYLINE
  5
3B8
100
AcDbEntity
  8
RACCORDO
100
AcDbPolyline
 62
253
  6
CONTINUOUS
 90
19
 70
0
 10
-69.8009832503
 20
-34.8566716076
 10
-69.7788130761
 20
-34.9044864378
 10
-69.7590258554
 20
-34.952222391
 10
-69.7417159497
 20
-34.9996518225
 10
-69.7269659068
 20
-35.0465485496
 10
-69.714846067
 20
-35.0926889299
 10
-69.7054142273
 20
-35.1378529276
 10
-69.6987153665
 20
-35.1818251632
 10
-69.69478143
 20
-35.2243959411
 10
-69.6936311777
 20
-35.2653622484
 10
-69.6952700946
 20
-35.304528724
 10
-69.6996903648
 20
-35.3417085899
 10
-69.7068709085
 20
-35.376724542
 10
-69.7167774826
 20
-35.4094095955
 10
-69.7293628441
 20
-35.4396078811
 10
-69.7445669755
 20
-35.467175389
 10
-69.7623173707
 20
-35.4919806545
 10
-69.7825293809
 20
-35.5139053859
 10
-69.8051066184
 20
-35.5328450281
  0
LWPOLYLINE
  5
3B9
100
AcDbEntity
  8
RACCORDO
100
AcDbPolyline
 62
253
  6
CONTINUOUS
 90
3
 70
0
 10
-74.6249713508
 20
29.5175790889
 10
-74.6399907879
 20
29.4686152656
 10
-74.646213509
 20
29.4376747531
  0
LINE
  5
3BA
100
AcDbEntity
  8
RACCORDO
100
AcDbLine
 62
7
  6
CONTINUOUS
 10
-74.8400982596
 20
-8.344295004
 11
-74.3459683092
 21
-8.3313557559
  0
LINE
  5
3BB
100
AcDbEntity
  8
RACCORDO
100
AcDbLine
 62
7
  6
CONTINUOUS
 10
-74.31398078
 20
-9.1718100207
 11
-74.8093831566
 21
-9.1588374529
  0
LWPOLYLINE
  5
3BC
100
AcDbEntity
  8
RACCORDO
100
AcDbPolyline
 62
253
  6
CONTINUOUS
 90
10
 70
0
 10
-74.1959877956
 20
-35.5698764261
 10
-74.5998226391
 20
-33.2277692158
 10
-74.9702896868
 20
-30.8801531211
 10
-75.3073885377
 20
-28.5275151866
 10
-75.6111723666
 20
-26.1703571134
 10
-75.8815872004
 20
-23.8091508862
 10
-76.1184719022
 20
-21.4443385273
 10
-76.3217724767
 20
-19.0763914295
 10
-76.491542086
 20
-16.7058106021
 10
-76.6277803153
 20
-14.3330821267
  0
LWPOLYLINE
  5
3BD
100
AcDbEntity
  8
ASSI
100
AcDbPolyline
 62
253
  6
CONTINUOUS
 90
10
 70
0
 10
-74.1959877956
 20
-35.5698764261
 10
-74.5998226391
 20
-33.2277692158
 10
-74.9702896868
 20
-30.8801531211
 10
-75.3073885377
 20
-28.5275151866
 10
-75.6111723666
 20
-26.1703571134
 10
-75.8815872004
 20
-23.8091508862
 10
-76.1184719022
 20
-21.4443385273
 10
-76.3217724767
 20
-19.0763914295
 10
-76.491542086
 20
-16.7058106021
 10
-76.6277803153
 20
-14.3330821267
  0
LINE
  5
3BE
100
AcDbEntity
  8
RACCORDO
100
AcDbLine
 62
253
  6
CONTINUOUS
 10
-74.1512251499
 20
-36.2497599046
 11
-74.1586609804
 21
-36.162185955
  0
LINE
  5
3BF
100
AcDbEntity
  8
ASSI
100
AcDbLine
 62
253
  6
CONTINUOUS
 10
-74.1512251499
 20
-36.2497599046
 11
-74.1586609804
 21
-36.162185955
  0
LINE
  5
3C0
100
AcDbEntity
  8
RACCORDO
100
AcDbLine
 62
253
  6
CONTINUOUS
 10
-74.1586609804
 20
-36.162185955
 11
-74.1660548959
 21
-36.0664627083
  0
LINE
  5
3C1
100
AcDbEntity
  8
ASSI
100
AcDbLine
 62
253
  6
CONTINUOUS
 10
-74.1586609804
 20
-36.162185955
 11
-74.1660548959
 21
-36.0664627083
  0
LINE
  5
3C2
100
AcDbEntity
  8
RACCORDO
100
AcDbLine
 62
253
  6
CONTINUOUS
 10
-74.1660548959
 20
-36.0664627083
 11
-74.1733005749
 21
-35.963796809
  0
LINE
  5
3C3
100
AcDbEntity
  8
ASSI
100
AcDbLine
 62
253
  6
CONTINUOUS
 10
-74.1660548959
 20
-36.0664627083
 11
-74.1733005749
 21
-35.963796809
  0
LINE
  5
3C4
100
AcDbEntity
  8
RACCORDO
100
AcDbLine
 62
253
  6
CONTINUOUS
 10
-74.1733005749
 20
-35.963796809
 11
-74.1802658933
 21
-35.8555484167
  0
LINE
  5
3C5
100
AcDbEntity
  8
ASSI
100
AcDbLine
 62
253
  6
CONTINUOUS
 10
-74.1733005749
 20
-35.963796809
 11
-74.1802658933
 21
-35.8555484167
  0
LINE
  5
3C6
100
AcDbEntity
  8
RACCORDO
100
AcDbLine
 62
253
  6
CONTINUOUS
 10
-74.1802658933
 20
-35.8555484167
 11
-74.186898223
 21
-35.7431281949
  0
LINE
  5
3C7
100
AcDbEntity
  8
ASSI
100
AcDbLine
 62
253
  6
CONTINUOUS
 10
-74.1802658933
 20
-35.8555484167
 11
-74.186898223
 21
-35.7431281949
  0
LINE
  5
3C8
100
AcDbEntity
  8
RACCORDO
100
AcDbLine
 62
253
  6
CONTINUOUS
 10
-74.186898223
 20
-35.7431281949
 11
-74.195987794
 21
-35.5698764262
  0
LINE
  5
3C9
100
AcDbEntity
  8
ASSI
100
AcDbLine
 62
253
  6
CONTINUOUS
 10
-74.186898223
 20
-35.7431281949
 11
-74.195987794
 21
-35.5698764262
  0
LWPOLYLINE
  5
3CA
100
AcDbEntity
  8
RACCORDO
100
AcDbPolyline
 62
253
  6
CONTINUOUS
 90
12
 70
0
 10
-76.6277803153
 20
-14.3330821267
 10
-76.8047424863
 20
-10.4862493337
 10
-76.9453174696
 20
-6.7407944917
 10
-77.0546568218
 20
-2.9942956819
 10
-77.1327638002
 20
0.7529817152
 10
-77.1796351507
 20
4.5007773273
 10
-77.1952611063
 20
8.2488357935
 10
-77.1796351555
 20
11.9968942163
 10
-77.1327638098
 20
15.7446897562
 10
-77.0546568336
 20
19.4919671388
 10
-76.9453174801
 20
23.2384660208
 10
-76.8047424929
 20
26.9839209926
  0
LWPOLYLINE
  5
3CB
100
AcDbEntity
  8
ASSI
100
AcDbPolyline
 62
253
  6
CONTINUOUS
 90
12
 70
0
 10
-76.6277803153
 20
-14.3330821267
 10
-76.8047424863
 20
-10.4862493337
 10
-76.9453174696
 20
-6.7407944917
 10
-77.0546568218
 20
-2.9942956819
 10
-77.1327638002
 20
0.7529817152
 10
-77.1796351507
 20
4.5007773273
 10
-77.1952611063
 20
8.2488357935
 10
-77.1796351555
 20
11.9968942163
 10
-77.1327638098
 20
15.7446897562
 10
-77.0546568336
 20
19.4919671388
 10
-76.9453174801
 20
23.2384660208
 10
-76.8047424929
 20
26.9839209926
  0
LINE
  5
3CC
100
AcDbEntity
  8
RACCORDO
100
AcDbLine
 62
253
  6
CONTINUOUS
 10
-74.5511423302
 20
24.834400273
 11
-74.5195783425
 21
25.6640981054
  0
LINE
  5
3CD
100
AcDbEntity
  8
RACCORDO
100
AcDbLine
 62
253
  6
CONTINUOUS
 10
-76.8047424929
 20
26.9839209926
 11
-76.6277803153
 21
30.830753973
  0
LINE
  5
3CE
100
AcDbEntity
  8
ASSI
100
AcDbLine
 62
253
  6
CONTINUOUS
 10
-76.8047424929
 20
26.9839209926
 11
-76.6277803153
 21
30.830753973
  0
LINE
  5
3CF
100
AcDbEntity
  8
RACCORDO
100
AcDbLine
 62
253
  6
CONTINUOUS
 10
-74.195987794
 20
52.0675482721
 11
-74.1869030036
 21
52.2407082954
  0
LINE
  5
3D0
100
AcDbEntity
  8
ASSI
100
AcDbLine
 62
253
  6
CONTINUOUS
 10
-74.195987794
 20
52.0675482721
 11
-74.1869030036
 21
52.2407082954
  0
LWPOLYLINE
  5
3D1
100
AcDbEntity
  8
RACCORDO
100
AcDbPolyline
 62
253
  6
CONTINUOUS
 90
10
 70
0
 10
-76.6277803153
 20
30.830753973
 10
-76.4915420998
 20
33.2034821742
 10
-76.3217725075
 20
35.5740627794
 10
-76.1184719533
 20
37.9420097071
 10
-75.8815872836
 20
40.3068219253
 10
-75.6111724852
 20
42.6680280637
 10
-75.3073886684
 20
45.0251861673
 10
-74.9702897973
 20
47.3778242729
 10
-74.5998227061
 20
49.7254406564
 10
-74.1959877957
 20
52.0675482719
  0
LWPOLYLINE
  5
3D2
100
AcDbEntity
  8
ASSI
100
AcDbPolyline
 62
253
  6
CONTINUOUS
 90
10
 70
0
 10
-76.6277803153
 20
30.830753973
 10
-76.4915420998
 20
33.2034821742
 10
-76.3217725075
 20
35.5740627794
 10
-76.1184719533
 20
37.9420097071
 10
-75.8815872836
 20
40.3068219253
 10
-75.6111724852
 20
42.6680280637
 10
-75.3073886684
 20
45.0251861673
 10
-74.9702897973
 20
47.3778242729
 10
-74.5998227061
 20
49.7254406564
 10
-74.1959877957
 20
52.0675482719
  0
LINE
  5
3D3
100
AcDbEntity
  8
RACCORDO
100
AcDbLine
 62
253
  6
CONTINUOUS
 10
-74.1869030036
 20
52.2407082954
 11
-74.1802819679
 21
52.3529289357
  0
LINE
  5
3D4
100
AcDbEntity
  8
ASSI
100
AcDbLine
 62
253
  6
CONTINUOUS
 10
-74.1869030036
 20
52.2407082954
 11
-74.1802819679
 21
52.3529289357
  0
LINE
  5
3D5
100
AcDbEntity
  8
RACCORDO
100
AcDbLine
 62
253
  6
CONTINUOUS
 10
-74.1802819679
 20
52.3529289357
 11
-74.1733249254
 21
52.461103255
  0
LINE
  5
3D6
100
AcDbEntity
  8
ASSI
100
AcDbLine
 62
253
  6
CONTINUOUS
 10
-74.1802819679
 20
52.3529289357
 11
-74.1733249254
 21
52.461103255
  0
LINE
  5
3D7
100
AcDbEntity
  8
RACCORDO
100
AcDbLine
 62
253
  6
CONTINUOUS
 10
-74.1733249254
 20
52.461103255
 11
-74.1660788228
 21
52.5638265472
  0
LINE
  5
3D8
100
AcDbEntity
  8
ASSI
100
AcDbLine
 62
253
  6
CONTINUOUS
 10
-74.1733249254
 20
52.461103255
 11
-74.1660788228
 21
52.5638265472
  0
LINE
  5
3D9
100
AcDbEntity
  8
RACCORDO
100
AcDbLine
 62
253
  6
CONTINUOUS
 10
-74.1660788228
 20
52.5638265472
 11
-74.1586866255
 21
52.6595756909
  0
LINE
  5
3DA
100
AcDbEntity
  8
ASSI
100
AcDbLine
 62
253
  6
CONTINUOUS
 10
-74.1660788228
 20
52.5638265472
 11
-74.1586866255
 21
52.6595756909
  0
LWPOLYLINE
  5
3DB
100
AcDbEntity
  8
RACCORDO
100
AcDbPolyline
 62
253
  6
CONTINUOUS
 90
16
 70
0
 10
-74.1586866255
 20
52.6595756909
 10
-74.1512510541
 20
52.7471777195
 10
-74.1475309048
 20
52.7875731864
 10
-74.1438442298
 20
52.8255267859
 10
-74.1401971909
 20
52.8609167066
 10
-74.1365887186
 20
52.8936333656
 10
-74.1330458912
 20
52.9235788693
 10
-74.1295783795
 20
52.9506593664
 10
-74.1261885886
 20
52.974786442
 10
-74.1228942932
 20
52.9958824604
 10
-74.119709311
 20
53.0138778417
 10
-74.1166393446
 20
53.0287196379
 10
-74.113691291
 20
53.0403660883
 10
-74.1108756789
 20
53.0487778924
 10
-74.1082071404
 20
53.0539229796
 10
-74.1056998956
 20
53.0557818269
  0
LWPOLYLINE
  5
3DC
100
AcDbEntity
  8
ASSI
100
AcDbPolyline
 62
253
  6
CONTINUOUS
 90
16
 70
0
 10
-74.1586866255
 20
52.6595756909
 10
-74.1512510541
 20
52.7471777195
 10
-74.1475309048
 20
52.7875731864
 10
-74.1438442298
 20
52.8255267859
 10
-74.1401971909
 20
52.8609167066
 10
-74.1365887186
 20
52.8936333656
 10
-74.1330458912
 20
52.9235788693
 10
-74.1295783795
 20
52.9506593664
 10
-74.1261885886
 20
52.974786442
 10
-74.1228942932
 20
52.9958824604
 10
-74.119709311
 20
53.0138778417
 10
-74.1166393446
 20
53.0287196379
 10
-74.113691291
 20
53.0403660883
 10
-74.1108756789
 20
53.0487778924
 10
-74.1082071404
 20
53.0539229796
 10
-74.1056998956
 20
53.0557818269
  0
LWPOLYLINE
  5
3DD
100
AcDbEntity
  8
RACCORDO
100
AcDbPolyline
 62
253
  6
CONTINUOUS
 90
3
 70
0
 10
-73.361135101
 20
41.8032388371
 10
-73.2715804072
 20
42.5467275668
 10
-73.2530355947
 20
42.6972636945
  0
LINE
  5
3DE
100
AcDbEntity
  8
RACCORDO
100
AcDbLine
 62
253
  6
CONTINUOUS
 10
-74.7255564565
 20
-4.7080944735
 11
-74.4648942146
 21
-4.7004427189
  0
LWPOLYLINE
  5
3DF
100
AcDbEntity
  8
RACCORDO
100
AcDbPolyline
 62
253
  6
CONTINUOUS
 90
3
 70
0
 10
-74.8361647782
 20
-4.7114255974
 10
-74.7657587865
 20
-4.7094604427
 10
-74.7255564565
 20
-4.7080944735
  0
LWPOLYLINE
  5
3E0
100
AcDbEntity
  8
RACCORDO
100
AcDbPolyline
 62
253
  6
CONTINUOUS
 90
8
 70
0
 10
-74.9599773353
 20
-4.7146269463
 10
-74.9575111278
 20
-4.7146010647
 10
-74.9471674045
 20
-4.7149141712
 10
-74.9327829581
 20
-4.7146882355
 10
-74.9144425003
 20
-4.7138241176
 10
-74.8921397233
 20
-4.7131792229
 10
-74.8659897672
 20
-4.7125430161
 10
-74.8361647782
 20
-4.7114255974
  0
LWPOLYLINE
  5
3E1
100
AcDbEntity
  8
RACCORDO
100
AcDbPolyline
 62
253
  6
CONTINUOUS
 90
14
 70
0
 10
-74.6399921403
 20
-12.9710482302
 10
-74.6249713508
 20
-13.0199072426
 10
-74.6050028521
 20
-13.0678482277
 10
-74.5801979688
 20
-13.1146212132
 10
-74.5506796501
 20
-13.1598226496
 10
-74.5165847024
 20
-13.2033175583
 10
-74.4781013516
 20
-13.2449599643
 10
-74.4354410601
 20
-13.2843597664
 10
-74.3887840771
 20
-13.3214151276
 10
-74.338373615
 20
-13.3560201265
 10
-74.2845298947
 20
-13.3878186982
 10
-74.2274534905
 20
-13.4167377253
 10
-74.167414602
 20
-13.4427162879
 10
-74.1247363672
 20
-13.4582345301
  0
LINE
  5
3E2
100
AcDbEntity
  8
RACCORDO
100
AcDbLine
 62
253
  6
CONTINUOUS
 10
-74.6462065285
 20
-12.9401543315
 11
-74.6399921403
 21
-12.9710482302
  0
LWPOLYLINE
  5
3E3
100
AcDbEntity
  8
RACCORDO
100
AcDbPolyline
 62
253
  6
CONTINUOUS
 90
3
 70
0
 10
-73.2530355947
 20
-26.1995918481
 10
-73.3433120082
 20
-25.4558081247
 10
-73.361135101
 20
-25.3055669907
  0
LWPOLYLINE
  5
3E4
100
AcDbEntity
  8
RACCORDO
100
AcDbPolyline
 62
253
  6
CONTINUOUS
 90
17
 70
0
 10
-74.9620790609
 20
21.1406244853
 10
-74.9600193429
 20
21.1216114897
 10
-74.9508883484
 20
21.0761899011
 10
-74.9376323311
 20
21.0311651239
 10
-74.9203136087
 20
20.9867279187
 10
-74.8989861689
 20
20.9431780371
 10
-74.8737430067
 20
20.9006348882
 10
-74.8447079311
 20
20.8592233688
 10
-74.8119836267
 20
20.8192390329
 10
-74.7757040507
 20
20.7807802134
 10
-74.7360403885
 20
20.7439510529
 10
-74.6931544408
 20
20.7090364473
 10
-74.6472058873
 20
20.676110614
 10
-74.5983999916
 20
20.6452500029
 10
-74.5469698986
 20
20.6167169673
 10
-74.4930852678
 20
20.5905635957
 10
-74.4829153182
 20
20.5862634403
  0
LINE
  5
3E5
100
AcDbEntity
  8
RACCORDO
100
AcDbLine
 62
253
  6
CONTINUOUS
 10
-74.5195783425
 20
-9.1664262591
 11
-74.5511423302
 21
-8.3367284267
  0
LINE
  5
3E6
100
AcDbEntity
  8
ASSI
100
AcDbLine
 62
7
  6
CONTINUOUS
 10
-74.633571638
 20
-13.2142368991
 11
-74.633571638
 21
-9.1634412396
  0
LINE
  5
3E7
100
AcDbEntity
  8
ASSI
100
AcDbLine
 62
7
  6
CONTINUOUS
 10
-74.633571638
 20
-8.3388869141
 11
-74.633571638
 21
3.2488359232
  0
LINE
  5
3E8
100
AcDbEntity
  8
ASSI
100
AcDbLine
 62
7
  6
CONTINUOUS
 10
-74.633571638
 20
13.2488359232
 11
-74.633571638
 21
24.8365587604
  0
LINE
  5
3E9
100
AcDbEntity
  8
ASSI
100
AcDbLine
 62
7
  6
CONTINUOUS
 10
-74.633571638
 20
25.6611130859
 11
-74.633571638
 21
29.7119087455
  0
LINE
  5
3EA
100
AcDbEntity
  8
ASSI
100
AcDbLine
 62
7
  6
CONTINUOUS
 10
-74.383571638
 20
-17.5308807489
 11
-74.383571638
 21
-9.16998772
  0
LINE
  5
3EB
100
AcDbEntity
  8
ASSI
100
AcDbLine
 62
7
  6
CONTINUOUS
 10
-74.383571638
 20
25.6676595663
 11
-74.383571638
 21
34.0285524802
  0
LINE
  5
3EC
100
AcDbEntity
  8
RACCORDO
100
AcDbLine
 62
7
  6
CONTINUOUS
 10
-72.083571638
 20
50.4883026823
 11
-72.083571638
 21
49.3462099907
  0
LINE
  5
3ED
100
AcDbEntity
  8
RACCORDO
100
AcDbLine
 62
7
  6
CONTINUOUS
 10
-72.083571638
 20
-33.9906547552
 11
-72.083571638
 21
-32.8485381547
  0
LINE
  5
3EE
100
AcDbEntity
  8
RACCORDO
100
AcDbLine
 62
253
  6
CONTINUOUS
 10
-71.8870621193
 20
50.6883019576
 11
-71.8870621193
 21
50.4958150469
  0
LINE
  5
3EF
100
AcDbEntity
  8
RACCORDO
100
AcDbLine
 62
253
  6
CONTINUOUS
 10
-71.8870621193
 20
-33.9981432052
 11
-71.8870621193
 21
-34.1906301113
  0
LINE
  5
3F0
100
AcDbEntity
  8
RACCORDO
100
AcDbLine
 62
7
  6
CONTINUOUS
 10
-71.083571638
 20
4.9166558494
 11
-71.083571638
 21
11.5810159969
  0
LINE
  5
3F1
100
AcDbEntity
  8
RACCORDO
100
AcDbLine
 62
253
  6
CONTINUOUS
 10
-74.8586227133
 20
7.8424519302
 11
-74.8586227133
 21
8.6552199161
  0
LINE
  5
3F2
100
AcDbEntity
  8
RACCORDO
100
AcDbLine
 62
7
  6
CONTINUOUS
 10
-69.083571638
 20
-14.1197732694
 11
-69.083571638
 21
-34.8511643078
  0
LINE
  5
3F3
100
AcDbEntity
  8
DRAFT
100
AcDbLine
 62
7
  6
CONTINUOUS
 10
-69.083571638
 20
-14.1197732694
 11
-69.083571638
 21
4.3961819617
  0
LINE
  5
3F4
100
AcDbEntity
  8
DRAFT
100
AcDbLine
 62
7
  6
CONTINUOUS
 10
-69.083571638
 20
12.1014898846
 11
-69.083571638
 21
30.6174451157
  0
LINE
  5
3F5
100
AcDbEntity
  8
RACCORDO
100
AcDbLine
 62
7
  6
CONTINUOUS
 10
-69.083571638
 20
30.6174451157
 11
-69.083571638
 21
51.3488361557
  0
LWPOLYLINE
  5
3F6
100
AcDbEntity
  8
RACCORDO
100
AcDbPolyline
 62
253
  6
CONTINUOUS
 90
17
 70
0
 10
-74.4829157909
 20
-4.0885729017
 10
-74.4930876138
 20
-4.0928684383
 10
-74.5469698986
 20
-4.119045121
 10
-74.5984170767
 20
-4.1476014379
 10
-74.6472134518
 20
-4.1784176645
 10
-74.6931544408
 20
-4.211364601
 10
-74.7360474324
 20
-4.2463041147
 10
-74.7757125942
 20
-4.2830897188
 10
-74.8119836267
 20
-4.3215671866
 10
-74.8447084605
 20
-4.361575198
 10
-74.8737498941
 20
-4.4029460163
 10
-74.8989861689
 20
-4.4455061908
 10
-74.9203114796
 20
-4.4890772844
 10
-74.9376364182
 20
-4.5334766217
 10
-74.9508883484
 20
-4.5785180548
 10
-74.9600117103
 20
-4.6240127438
 10
-74.9620757098
 20
-4.6430669194
  0
LWPOLYLINE
  5
3F7
100
AcDbEntity
  8
RACCORDO
100
AcDbPolyline
 62
7
  6
CONTINUOUS
 90
18
 70
0
 10
-74.633571638
 20
-3.2817111373
 10
-74.6613295154
 20
-3.2920410345
 10
-74.6990021631
 20
-3.307557984
 10
-74.7346736913
 20
-3.3237114301
 10
-74.768268998
 20
-3.3405015377
 10
-74.7997211184
 20
-3.357924214
 10
-74.8289793104
 20
-3.3758304552
 10
-74.855988524
 20
-3.3942194889
 10
-74.880701523
 20
-3.413088961
 10
-74.9030869063
 20
-3.4322875997
 10
-74.9231089791
 20
-3.4518139902
 10
-74.9407392892
 20
-3.4716672329
 10
-74.9559638878
 20
-3.49169693
 10
-74.9687653366
 20
-3.5119009528
 10
-74.9791328478
 20
-3.5322799333
 10
-74.9870679995
 20
-3.5526877153
 10
-74.9925720839
 20
-3.5730753241
 10
-74.9933081347
 20
-3.5779600031
  0
LINE
  5
3F8
100
AcDbEntity
  8
RACCORDO
100
AcDbLine
 62
7
  6
CONTINUOUS
 10
-69.083571638
 20
4.3961819617
 11
-70.9183012735
 21
4.7196942988
  0
LINE
  5
3F9
100
AcDbEntity
  8
RACCORDO
100
AcDbLine
 62
7
  6
CONTINUOUS
 10
-75.1500133088
 20
8.6475895848
 11
-74.6533819903
 21
8.6605943336
  0
LINE
  5
3FA
100
AcDbEntity
  8
0
100
AcDbLine
 62
253
  6
CONTINUOUS
 10
-71.083571638
 20
8.2488359232
 11
-74.653571638
 21
8.2488359232
  0
LINE
  5
3FB
100
AcDbEntity
  8
RACCORDO
100
AcDbLine
 62
7
  6
CONTINUOUS
 10
-74.6533819903
 20
7.8370775127
 11
-75.1500133088
 21
7.8500822615
  0
LINE
  5
3FC
100
AcDbEntity
  8
RACCORDO
100
AcDbLine
 62
7
  6
CONTINUOUS
 10
-70.9183012735
 20
11.7779775475
 11
-69.083571638
 21
12.1014898846
  0
LWPOLYLINE
  5
3FD
100
AcDbEntity
  8
RACCORDO
100
AcDbPolyline
 62
253
  6
CONTINUOUS
 90
6
 70
0
 10
-74.4648954196
 20
21.1980754046
 10
-74.9144340493
 20
21.2115760433
 10
-74.9327995686
 20
21.2120853188
 10
-74.9471674052
 20
21.2125859931
 10
-74.9574715916
 20
21.2130753369
 10
-74.9599514639
 20
21.2131810757
  0
LWPOLYLINE
  5
3FE
100
AcDbEntity
  8
RACCORDO
100
AcDbPolyline
 62
7
  6
CONTINUOUS
 90
18
 70
0
 10
-74.633571638
 20
19.7793903121
 10
-74.6613289301
 20
19.789737032
 10
-74.6990030102
 20
19.8051998481
 10
-74.7346737449
 20
19.8213833959
 10
-74.7682683426
 20
19.8382004093
 10
-74.7997219742
 20
19.8555660059
 10
-74.8289793682
 20
19.8735024908
 10
-74.8559878223
 20
19.8919203249
 10
-74.880702372
 20
19.9107312811
 10
-74.9030869663
 20
19.9299597541
 10
-74.9231082537
 20
19.9495159992
 10
-74.9407401219
 20
19.969310586
 10
-74.9559639465
 20
19.9893693237
 10
-74.9687645514
 20
20.0096037429
 10
-74.9791335674
 20
20.0299252197
 10
-74.9870680449
 20
20.0503608245
 10
-74.9925692267
 20
20.0708622451
 10
-74.9933046573
 20
20.0757504376
  0
LINE
  5
3FF
100
AcDbEntity
  8
RACCORDO
100
AcDbLine
 62
7
  6
CONTINUOUS
 10
-74.8093831566
 20
25.6565092993
 11
-74.31398078
 21
25.669481867
  0
LINE
  5
400
100
AcDbEntity
  8
RACCORDO
100
AcDbLine
 62
7
  6
CONTINUOUS
 10
-74.3459683092
 20
24.8290276022
 11
-74.8400982596
 21
24.8419668503
  0
LINE
  5
401
100
AcDbEntity
  8
RACCORDO
100
AcDbLine
 62
253
  6
CONTINUOUS
 10
-74.3252455652
 20
29.352117324
 11
-74.1537979111
 21
29.3439258287
  0
LINE
  5
402
100
AcDbEntity
  8
RACCORDO
100
AcDbLine
 62
253
  6
CONTINUOUS
 10
-74.4149170163
 20
29.3565962469
 11
-74.3252455652
 21
29.352117324
  0
LWPOLYLINE
  5
403
100
AcDbEntity
  8
RACCORDO
100
AcDbPolyline
 62
253
  6
CONTINUOUS
 90
3
 70
0
 10
-74.525445361
 20
29.3620078573
 10
-74.4551026713
 20
29.3583978643
 10
-74.4149170163
 20
29.3565962469
  0
LWPOLYLINE
  5
404
100
AcDbEntity
  8
RACCORDO
100
AcDbPolyline
 62
253
  6
CONTINUOUS
 90
3
 70
0
 10
-74.603663464
 20
29.3659248642
 10
-74.5552643431
 20
29.3632862525
 10
-74.525445361
 20
29.3620078573
  0
LWPOLYLINE
  5
405
100
AcDbEntity
  8
RACCORDO
100
AcDbPolyline
 62
253
  6
CONTINUOUS
 90
3
 70
0
 10
-74.633571638
 20
29.3673850329
 10
-74.6220111532
 20
29.3665986201
 10
-74.603663464
 20
29.3659248642
  0
LWPOLYLINE
  5
406
100
AcDbEntity
  8
RACCORDO
100
AcDbPolyline
 62
253
  6
CONTINUOUS
 90
13
 70
0
 10
-69.8009831429
 20
-34.8566716006
 10
-69.7195183247
 20
-34.807901962
 10
-69.6426269346
 20
-34.7597054096
 10
-69.5701887639
 20
-34.7120853162
 10
-69.5022486969
 20
-34.6650043041
 10
-69.4385122498
 20
-34.6185062549
 10
-69.3783736615
 20
-34.5727160809
 10
-69.3217082038
 20
-34.5276599654
 10
-69.26844839
 20
-34.4833172119
 10
-69.2181171713
 20
-34.4397418577
 10
-69.1705125013
 20
-34.396953337
 10
-69.1256884609
 20
-34.3549367168
 10
-69.0835716055
 20
-34.3136941518
  0
LWPOLYLINE
  5
407
100
AcDbEntity
  8
RACCORDO
100
AcDbPolyline
 62
7
  6
CONTINUOUS
 90
19
 70
0
 10
-74.1030131297
 20
30.8010005409
 10
-74.1211408586
 20
30.797303081
 10
-74.1390095352
 20
30.7934480386
 10
-74.1566124799
 20
30.7894349328
 10
-74.173943201
 20
30.7852635097
 10
-74.1909955629
 20
30.7809421269
 10
-74.2077633982
 20
30.7764703541
 10
-74.2242407353
 20
30.771847957
 10
-74.2404219456
 20
30.7670836063
 10
-74.2563013773
 20
30.7621769212
 10
-74.2718735786
 20
30.7571276881
 10
-74.2871334289
 20
30.7519448472
 10
-74.3020757919
 20
30.7466280654
 10
-74.3166957336
 20
30.7411771511
 10
-74.3309886368
 20
30.7356012746
 10
-74.3449498781
 20
30.7299001483
 10
-74.3585750369
 20
30.7240736037
 10
-74.3718599922
 20
30.7181310081
 10
-74.383571638
 20
30.7126475365
  0
LWPOLYLINE
  5
408
100
AcDbEntity
  8
RACCORDO
100
AcDbPolyline
 62
7
  6
CONTINUOUS
 90
3
 70
0
 10
-74.0833793497
 20
30.8047590152
 10
-74.0846329847
 20
30.8045324204
 10
-74.1030131297
 20
30.8010005409
  0
LINE
  5
409
100
AcDbEntity
  8
RACCORDO
100
AcDbLine
 62
253
  6
CONTINUOUS
 10
-76.6329318706
 20
30.7280691731
 11
-74.5867278135
 21
30.7280691731
  0
LINE
  5
40A
100
AcDbEntity
  8
ASSI
100
AcDbLine
 62
253
  6
CONTINUOUS
 10
-76.6329318706
 20
30.7280691731
 11
-74.5867278135
 21
30.7280691731
  0
LINE
  5
40B
100
AcDbEntity
  8
0
100
AcDbLine
 62
253
  6
CONTINUOUS
 10
-69.083571638
 20
30.6174451157
 11
-74.0894880167
 21
30.6981692565
  0
LINE
  5
40C
100
AcDbEntity
  8
RACCORDO
100
AcDbLine
 62
253
  6
CONTINUOUS
 10
-77.0887289131
 20
30.750879654
 11
-76.6329318706
 21
30.7280691731
  0
LINE
  5
40D
100
AcDbEntity
  8
ASSI
100
AcDbLine
 62
253
  6
CONTINUOUS
 10
-77.0887289131
 20
30.750879654
 11
-76.6329318706
 21
30.7280691731
  0
LINE
  5
40E
100
AcDbEntity
  8
RACCORDO
100
AcDbLine
 62
253
  6
CONTINUOUS
 10
-77.0835716221
 20
30.8536514809
 11
-76.6277803152
 21
30.830753973
  0
LINE
  5
40F
100
AcDbEntity
  8
ASSI
100
AcDbLine
 62
253
  6
CONTINUOUS
 10
-77.0835716221
 20
30.8536514809
 11
-76.6277803152
 21
30.830753973
  0
LINE
  5
410
100
AcDbEntity
  8
RACCORDO
100
AcDbLine
 62
7
  6
CONTINUOUS
 10
-73.5490985134
 20
42.6895110141
 11
-73.0456014778
 21
42.702695548
  0
LINE
  5
411
100
AcDbEntity
  8
RACCORDO
100
AcDbLine
 62
7
  6
CONTINUOUS
 10
-73.1551445582
 20
41.7978447849
 11
-73.6512343951
 21
41.8108353544
  0
LWPOLYLINE
  5
412
100
AcDbEntity
  8
RACCORDO
100
AcDbPolyline
 62
253
  6
CONTINUOUS
 90
19
 70
0
 10
-69.8051052655
 20
52.0305187177
 10
-69.7825280778
 20
52.0115789537
 10
-69.7623161294
 20
51.9896540935
 10
-69.744565807
 20
51.9648486943
 10
-69.7293617577
 20
51.9372810499
 10
-69.7167764861
 20
51.9070826271
 10
-69.7068700084
 20
51.8743974385
 10
-69.6996895656
 20
51.8393813554
 10
-69.6952693989
 20
51.8022013642
 10
-69.693630586
 20
51.7630347704
 10
-69.694780941
 20
51.7220683536
 10
-69.6987149769
 20
51.6794974758
 10
-69.7054139321
 20
51.6355251491
 10
-69.7148458598
 20
51.5903610702
 10
-69.7269657799
 20
51.5442206185
 10
-69.7417158947
 20
51.4973238274
 10
-69.7590258635
 20
51.4498943384
 10
-69.7788131378
 20
51.4021583348
 10
-69.8009833555
 20
51.3543434608
  0
LINE
  5
413
100
AcDbEntity
  8
RACCORDO
100
AcDbLine
 62
253
  6
CONTINUOUS
 10
-72.6720341777
 20
45.4913965451
 11
-73.0424422823
 21
45.5450944365
  0
LINE
  5
414
100
AcDbEntity
  8
RACCORDO
100
AcDbLine
 62
253
  6
CONTINUOUS
 10
-73.0424422823
 20
45.5450944365
 11
-73.119921176
 21
45.5566877431
  0
LWPOLYLINE
  5
415
100
AcDbEntity
  8
RACCORDO
100
AcDbPolyline
 62
253
  6
CONTINUOUS
 90
4
 70
0
 10
-73.119921176
 20
45.5566877431
 10
-73.1522956232
 20
45.5617198284
 10
-73.1624740005
 20
45.5633921738
 10
-73.1664203728
 20
45.5641024796
  0
LWPOLYLINE
  5
416
100
AcDbEntity
  8
RACCORDO
100
AcDbPolyline
 62
253
  6
CONTINUOUS
 90
10
 70
0
 10
-69.8009831429
 20
51.3543434469
 10
-69.7028743171
 20
51.2953798723
 10
-69.6096793422
 20
51.2359389083
 10
-69.5212598424
 20
51.1760232491
 10
-69.4374443882
 20
51.1154636778
 10
-69.3581117108
 20
51.0544347004
 10
-69.283197051
 20
50.9934553455
 10
-69.21258164
 20
50.932701211
 10
-69.1460890395
 20
50.8720036627
 10
-69.0835716394
 20
50.8113660303
  0
LINE
  5
417
100
AcDbEntity
  8
DRAFT
100
AcDbLine
 62
7
  6
CONTINUOUS
 10
-71.8540606045
 20
50.6888780012
 11
-71.8870621193
 21
50.6883019576
  0
LINE
  5
418
100
AcDbEntity
  8
RACCORDO
100
AcDbLine
 62
7
  6
CONTINUOUS
 10
-72.116319703
 20
50.6958991088
 11
-71.8554803114
 21
50.7004520773
  0
LINE
  5
419
100
AcDbEntity
  8
RACCORDO
100
AcDbLine
 62
253
  6
CONTINUOUS
 10
-74.6445303083
 20
52.1480647517
 11
-74.6034028482
 21
52.1407130324
  0
LINE
  5
41A
100
AcDbEntity
  8
ASSI
100
AcDbLine
 62
253
  6
CONTINUOUS
 10
-74.6445303083
 20
52.1480647517
 11
-74.6034028482
 21
52.1407130324
  0
LINE
  5
41B
100
AcDbEntity
  8
RACCORDO
100
AcDbLine
 62
253
  6
CONTINUOUS
 10
-74.6034028482
 20
52.1407130324
 11
-74.1959873057
 21
52.0675481977
  0
LINE
  5
41C
100
AcDbEntity
  8
ASSI
100
AcDbLine
 62
253
  6
CONTINUOUS
 10
-74.6034028482
 20
52.1407130324
 11
-74.1959873057
 21
52.0675481977
  0
LINE
  5
41D
100
AcDbEntity
  8
RACCORDO
100
AcDbLine
 62
253
  6
CONTINUOUS
 10
-74.1959877957
 20
52.0675482719
 11
-72.084782651
 21
52.252357024
  0
LINE
  5
41E
100
AcDbEntity
  8
ASSI
100
AcDbLine
 62
253
  6
CONTINUOUS
 10
-74.1959877957
 20
52.0675482719
 11
-72.084782651
 21
52.252357024
  0
LINE
  5
41F
100
AcDbEntity
  8
RACCORDO
100
AcDbLine
 62
7
  6
CONTINUOUS
 10
-74.1056998956
 20
53.0557818269
 11
-71.8990814778
 21
53.2488359232
  0
LINE
  5
420
100
AcDbEntity
  8
ASSI
100
AcDbLine
 62
7
  6
CONTINUOUS
 10
-74.1056998956
 20
53.0557818269
 11
-71.8990814778
 21
53.2488359232
  0
LINE
  5
421
100
AcDbEntity
  8
RACCORDO
100
AcDbLine
 62
253
  6
CONTINUOUS
 10
-69.8009831429
 20
51.3543434469
 11
-71.7383075997
 21
51.3660474355
  0
LWPOLYLINE
  5
422
100
AcDbEntity
  8
RACCORDO
100
AcDbPolyline
 62
253
  6
CONTINUOUS
 90
16
 70
0
 10
-71.6317208032
 20
51.9580867655
 10
-71.5089501868
 20
51.9398789672
 10
-71.3861896628
 20
51.9188648603
 10
-71.2635137865
 20
51.8950396987
 10
-71.1411765135
 20
51.8685106464
 10
-71.0190847351
 20
51.8391610453
 10
-70.8968061457
 20
51.8066495724
 10
-70.774353497
 20
51.7709964092
 10
-70.651928133
 20
51.7321697778
 10
-70.5294000009
 20
51.6897486672
 10
-70.4067341332
 20
51.6437417623
 10
-70.2842369355
 20
51.5941264431
 10
-70.1622827119
 20
51.5404330502
 10
-70.0410566752
 20
51.4824995421
 10
-69.9205862189
 20
51.4204722666
 10
-69.8009831429
 20
51.3543434469
  0
ARC
  5
423
100
AcDbEntity
  8
RACCORDO
100
AcDbCircle
 62
7
  6
CONTINUOUS
 10
-72.1839528327
 20
-32.2922133396
 40
4.0200239337
100
AcDbArc
 50
279.9999994914
 51
320.4648724279
  0
ARC
  5
424
100
AcDbEntity
  8
RACCORDO
100
AcDbCircle
 62
7
  6
CONTINUOUS
 10
-72.1087876434
 20
-29.4292122428
 40
1.0
100
AcDbArc
 50
194.1672680488
 51
248.3755646094
  0
ARC
  5
425
100
AcDbEntity
  8
RACCORDO
100
AcDbCircle
 62
7
  6
CONTINUOUS
 10
-74.0621220242
 20
-36.0600126315
 40
0.5
100
AcDbArc
 50
190.3619323081
 51
265.0
  0
ARC
  5
426
100
AcDbEntity
  8
ASSI
100
AcDbCircle
 62
7
  6
CONTINUOUS
 10
-74.0621220242
 20
-36.0600126315
 40
0.5
100
AcDbArc
 50
190.3619323081
 51
265.0
  0
ARC
  5
427
100
AcDbEntity
  8
RACCORDO
100
AcDbCircle
 62
7
  6
CONTINUOUS
 10
-72.1110839811
 20
-33.8982729539
 40
0.3
100
AcDbArc
 50
199.8963087771
 51
269.0
  0
ARC
  5
428
100
AcDbEntity
  8
RACCORDO
100
AcDbCircle
 62
7
  6
CONTINUOUS
 10
-71.883571638
 20
-33.9906605723
 40
0.2
100
AcDbArc
 50
180.0
 51
269.0
  0
ARC
  5
429
100
AcDbEntity
  8
RACCORDO
100
AcDbCircle
 62
7
  6
CONTINUOUS
 10
-70.883571638
 20
4.9166558494
 40
0.2
100
AcDbArc
 50
180.0
 51
260.0
  0
ARC
  5
42A
100
AcDbEntity
  8
RACCORDO
100
AcDbCircle
 62
7
  6
CONTINUOUS
 10
90.8250898341
 20
-5.9107748754
 40
168.1209091124
100
AcDbArc
 50
182.8793331648
 51
190.3616376217
  0
ARC
  5
42B
100
AcDbEntity
  8
ASSI
100
AcDbCircle
 62
7
  6
CONTINUOUS
 10
90.8250898341
 20
-5.9107748754
 40
168.1209091124
100
AcDbArc
 50
182.8793331648
 51
190.3616376217
  0
ARC
  5
42C
100
AcDbEntity
  8
RACCORDO
100
AcDbCircle
 62
7
  6
CONTINUOUS
 10
90.8250898341
 20
-5.9107748754
 40
165.6209091124
100
AcDbArc
 50
182.8793463054
 51
190.7317283603
  0
ARC
  5
42D
100
AcDbEntity
  8
ASSI
100
AcDbCircle
 62
7
  6
CONTINUOUS
 10
90.8250898341
 20
-5.9107748754
 40
165.6209091124
100
AcDbArc
 50
182.8793463054
 51
190.7317283603
  0
ARC
  5
42E
100
AcDbEntity
  8
0
100
AcDbCircle
 62
7
  6
CONTINUOUS
 10
90.8221417651
 20
-5.9078040769
 40
165.12
100
AcDbArc
 50
182.8787323946
 51
190.1014160662
  0
ARC
  5
42F
100
AcDbEntity
  8
RACCORDO
100
AcDbCircle
 62
7
  6
CONTINUOUS
 10
90.8221417651
 20
-5.9078040769
 40
165.12
100
AcDbArc
 50
190.1014160662
 51
190.5891670948
  0
ARC
  5
430
100
AcDbEntity
  8
RACCORDO
100
AcDbCircle
 62
7
  6
CONTINUOUS
 10
-70.883571638
 20
11.5810159969
 40
0.2
100
AcDbArc
 50
100.0
 51
180.0
  0
ARC
  5
431
100
AcDbEntity
  8
RACCORDO
100
AcDbCircle
 62
7
  6
CONTINUOUS
 10
-72.1839528327
 20
48.7898851859
 40
4.0200239337
100
AcDbArc
 50
39.5351276004
 51
80.0000000614
  0
ARC
  5
432
100
AcDbEntity
  8
RACCORDO
100
AcDbCircle
 62
7
  6
CONTINUOUS
 10
-72.1087878999
 20
45.9268823588
 40
1.0
100
AcDbArc
 50
111.624384682
 51
165.8326378168
  0
ARC
  5
433
100
AcDbEntity
  8
RACCORDO
100
AcDbCircle
 62
7
  6
CONTINUOUS
 10
-74.0621228552
 20
52.5576800263
 40
0.5
100
AcDbArc
 50
94.9998606877
 51
169.637548776
  0
ARC
  5
434
100
AcDbEntity
  8
ASSI
100
AcDbCircle
 62
7
  6
CONTINUOUS
 10
-74.0621228552
 20
52.5576800263
 40
0.5
100
AcDbArc
 50
94.9998606877
 51
169.637548776
  0
ARC
  5
435
100
AcDbEntity
  8
RACCORDO
100
AcDbCircle
 62
7
  6
CONTINUOUS
 10
-72.1110839811
 20
50.3959448002
 40
0.3
100
AcDbArc
 50
91.0
 51
160.1037744874
  0
ARC
  5
436
100
AcDbEntity
  8
RACCORDO
100
AcDbCircle
 62
7
  6
CONTINUOUS
 10
-71.883571638
 20
50.4883324186
 40
0.2
100
AcDbArc
 50
91.0
 51
180.0
  0
ARC
  5
437
100
AcDbEntity
  8
RACCORDO
100
AcDbCircle
 62
7
  6
CONTINUOUS
 10
90.8250898341
 20
22.4084467217
 40
168.1209091124
100
AcDbArc
 50
169.6380676919
 51
177.1206536946
  0
ARC
  5
438
100
AcDbEntity
  8
ASSI
100
AcDbCircle
 62
7
  6
CONTINUOUS
 10
90.8250898341
 20
22.4084467217
 40
168.1209091124
100
AcDbArc
 50
169.6380676919
 51
177.1206536946
  0
ARC
  5
439
100
AcDbEntity
  8
RACCORDO
100
AcDbCircle
 62
7
  6
CONTINUOUS
 10
90.8250898341
 20
22.4084467217
 40
165.6209091124
100
AcDbArc
 50
169.2682716397
 51
177.1206536946
  0
ARC
  5
43A
100
AcDbEntity
  8
ASSI
100
AcDbCircle
 62
7
  6
CONTINUOUS
 10
90.8250898341
 20
22.4084467217
 40
165.6209091124
100
AcDbArc
 50
169.2682716397
 51
177.1206536946
  0
ARC
  5
43B
100
AcDbEntity
  8
0
100
AcDbCircle
 62
7
  6
CONTINUOUS
 10
90.8221417651
 20
22.4054759232
 40
165.12
100
AcDbArc
 50
169.8985839314
 51
177.1212676054
  0
ARC
  5
43C
100
AcDbEntity
  8
RACCORDO
100
AcDbCircle
 62
7
  6
CONTINUOUS
 10
90.8221417651
 20
22.4054759232
 40
165.12
100
AcDbArc
 50
169.4108329051
 51
169.8985839314
  0
ARC
  5
43D
100
AcDbEntity
  8
RACCORDO
100
AcDbCircle
 62
7
  6
CONTINUOUS
 10
372.3483167651
 20
8.2488359232
 40
450.0
100
AcDbArc
 50
177.1206584177
 51
182.8793414056
  0
ARC
  5
43E
100
AcDbEntity
  8
ASSI
100
AcDbCircle
 62
7
  6
CONTINUOUS
 10
372.3483167651
 20
8.2488359232
 40
450.0
100
AcDbArc
 50
177.1206584177
 51
182.8793414056
  0
ARC
  5
43F
100
AcDbEntity
  8
DRAFT
100
AcDbCircle
 62
7
  6
CONTINUOUS
 10
372.3483167651
 20
8.2488359232
 40
447.5
100
AcDbArc
 50
177.1206536946
 51
182.8793463054
  0
ARC
  5
440
100
AcDbEntity
  8
ASSI
100
AcDbCircle
 62
7
  6
CONTINUOUS
 10
372.3483167651
 20
8.2488359232
 40
447.5
100
AcDbArc
 50
177.1206536946
 51
182.8793463054
  0
ARC
  5
441
100
AcDbEntity
  8
0
100
AcDbCircle
 62
7
  6
CONTINUOUS
 10
372.346428362
 20
8.2488359232
 40
447.0
100
AcDbArc
 50
177.1212676054
 51
182.8787323946
  0
ENDSEC
  0
SECTION
  2
OBJECTS
  0
DICTIONARY
  5
C
100
AcDbDictionary
280
0
281
1
  3
ACAD_GROUP
350
D
  3
ACAD_MLINESTYLE
350
17
  3
ACAD_LAYOUT
350
1A
  3
ACAD_PLOTSETTINGS
350
19
  3
ACAD_PLOTSTYLENAME
350
E
  0
DICTIONARY
  5
D
102
{ACAD_REACTORS
330
C
102
}
100
AcDbDictionary
280
0
281
1
  0
ACDBDICTIONARYWDFLT
  5
E
102
{ACAD_REACTORS
330
C
102
}
100
AcDbDictionary
281
1
  3
Normal
350
F
100
AcDbDictionaryWithDefault
340
F
  0
DICTIONARY
  5
17
102
{ACAD_REACTORS
330
C
102
}
100
AcDbDictionary
280
0
281
1
  3
Standard
350
18
  0
DICTIONARY
  5
19
102
{ACAD_REACTORS
330
C
102
}
100
AcDbDictionary
281
1
  0
DICTIONARY
  5
1A
102
{ACAD_REACTORS
330
C
102
}
100
AcDbDictionary
281
1
  3
Model
350
442
  3
Layout1
350
443
  0
ACDBPLACEHOLDER
  5
F
102
{ACAD_REACTORS
330
E
102
}
  0
MLINESTYLE
  5
18
102
{ACAD_REACTORS
330
17
102
}
100
AcDbMlineStyle
  2
STANDARD
 70
0
  3

 62
256
 51
90.0
 52
90.0
 71
2
 49
0.5
 62
256
  6
BYLAYER
 49
-0.5
 62
256
  6
BYLAYER
  0
LAYOUT
  5
442
102
{ACAD_REACTORS
330
1A
102
}
100
AcDbPlotSettings
  1

  2
none_device
  4
ISO_A4_(297.00_x_210.00_MM)
  6

 40
0.0
 41
0.0
 42
0.0
 43
0.0
 44
297.0
 45
210.0
 46
0.0
 47
0.0
 48
0.0
 49
0.0
140
0.0
141
0.0
142
1.0
143
1.0
 70
1024
 72
1
 73
0
 74
0
  7

 75
0
147
1.0
148
0.0
149
0.0
100
AcDbLayout
  1
Model
 70
0
 71
0
 10
0.0
 20
0.0
 11
297.0
 21
210.0
 12
0.0
 22
0.0
 32
0.0
 14
0.0
 24
0.0
 34
0.0
 15
0.0
 25
0.0
 35
0.0
146
0.0
 13
0.0
 23
0.0
 33
0.0
 16
1.0
 26
0.0
 36
0.0
 17
0.0
 27
1.0
 37
0.0
 76
0
330
211
345
0
346
0
  0
LAYOUT
  5
443
102
{ACAD_REACTORS
330
1A
102
}
100
AcDbPlotSettings
  1

  2
none_device
  4
ISO_A4_(297.00_x_210.00_MM)
  6

 40
0.0
 41
0.0
 42
0.0
 43
0.0
 44
297.0
 45
210.0
 46
0.0
 47
0.0
 48
0.0
 49
0.0
140
0.0
141
0.0
142
1.0
143
1.0
 70
0
 72
1
 73
0
 74
0
  7

 75
0
147
1.0
148
0.0
149
0.0
100
AcDbLayout
  1
Layout1
 70
0
 71
1
 10
0.0
 20
0.0
 11
297.0
 21
210.0
 12
0.0
 22
0.0
 32
0.0
 14
0.0
 24
0.0
 34
0.0
 15
0.0
 25
0.0
 35
0.0
146
0.0
 13
0.0
 23
0.0
 33
0.0
 16
1.0
 26
0.0
 36
0.0
 17
0.0
 27
1.0
 37
0.0
 76
0
330
212
345
0
346
0
  0
ENDSEC
  0
EOF
