  0
SECTION
  2
HEADER
  9
$ACADVER
  1
AC1024
  9
$DWGCODEPAGE
  3
ANSI_1252
  9
$EXTMAX
 10
297.0
 20
210.0
 30
0.0
  9
$EXTMIN
 10
0.0
 20
0.0
 30
0.0
  9
$LIMMIN
 10
0.0
 20
0.0
  9
$LIMMAX
 10
297.0
 20
210.0
  9
$VIEWCTR
 10
148.5
 20
105.0
  9
$VIEWSIZE
 40
210.0
  9
$CLAYER
  8
0
  9
$LTSCALE
 40
16.335
  9
$CELTYPE
  6
BYLAYER
  9
$DIMSCALE
 40
1.0
  9
$DIMASZ
 40
3.0
  9
$DIMEXO
 40
0.5
  9
$DIMDLI
 40
11.286
  9
$DIMEXE
 40
1.5
  9
$DIMCEN
 40
2.673
  9
$DIMLFAC
 40
1.0
  9
$DIMBLK
  1
_FILLED
  9
$DIMALT
 70
0
  9
$DIMALTF
 40
0.0393700787
  9
$DIMTXT
 40
3.0
  9
$DIMTOL
 70
1
  9
$DIMLIM
 70
0
  9
$DIMTFAC
 40
1.0
  9
$DIMTP
 40
0.01
  9
$DIMTM
 40
0.01
  9
$DIMGAP
 40
0.625
  9
$DIMDSEP
 70
44
  9
$AUNITS
 70
0
  9
$PDMODE
 70
3
  9
$PDSIZE
 40
3.0
  9
$HANDSEED
  5
495
  9
$TILEMODE
 70
1
  9
$MEASUREMENT
 70
1
  9
$INSUNITS
 70
4
  0
ENDSEC
  0
SECTION
  2
CLASSES
  0
CLASS
  1
ACDBDICTIONARYWDFLT
  2
AcDbDictionaryWithDefault
  3
AutoCAD 2000
 90
0
 91
1
280
0
281
0
  0
CLASS
  1
ACDBPLACEHOLDER
  2
AcDbPlaceHolder
  3
AutoCAD 2000
 90
0
 91
1
280
0
281
0
  0
CLASS
  1
LAYOUT
  2
AcDbLayout
  3
AutoCAD 2000
 90
0
 91
0
280
0
281
0
  0
ENDSEC
  0
SECTION
  2
TABLES
  0
TABLE
  2
VPORT
  5
8
100
AcDbSymbolTable
 70
2
  0
VPORT
  5
1F4
100
AcDbSymbolTableRecord
100
AcDbViewportTableRecord
  2
*ACTIVE
 70
0
 10
0.0
 20
0.0
 11
1.0
 21
1.0
 12
148.5
 22
105.0
 13
0.0
 23
0.0
 14
1.0
 24
1.0
 15
0.0
 25
0.0
 16
0.0
 26
0.0
 36
1.0
 17
0.0
 27
0.0
 37
0.0
 40
210.0
 41
1.4142857143
 42
50.0
 43
0.0
 44
0.0
 50
0.0
 51
0.0
 71
0
 72
100
 73
1
 74
1
 75
0
 76
0
 77
0
 78
0
  0
ENDTAB
  0
TABLE
  2
LTYPE
  5
5
100
AcDbSymbolTable
 70
6
  0
LTYPE
  5
14
100
AcDbSymbolTableRecord
100
AcDbLinetypeTableRecord
  2
BYBLOCK
 70
0
  3

 72
65
 73
0
 40
0.0
  0
LTYPE
  5
15
100
AcDbSymbolTableRecord
100
AcDbLinetypeTableRecord
  2
BYLAYER
 70
0
  3

 72
65
 73
0
 40
0.0
  0
LTYPE
  5
16
100
AcDbSymbolTableRecord
100
AcDbLinetypeTableRecord
  2
CONTINUOUS
 70
64
  3
Solid line
 72
65
 73
0
 40
0.0
  0
LTYPE
  5
1F5
100
AcDbSymbolTableRecord
100
AcDbLinetypeTableRecord
  2
CENTER
 70
64
  3
____ _ ____ _ ____ _ ____ _ ____ _ ____ _ ____
 72
65
 73
4
 40
0.6
 49
0.375
 74
0
 49
-0.075
 74
0
 49
0.075
 74
0
 49
-0.075
 74
0
  0
LTYPE
  5
1F6
100
AcDbSymbolTableRecord
100
AcDbLinetypeTableRecord
  2
HIDDEN
 70
64
  3
- - - - - - - - - - - - - - - - - - - -
 72
65
 73
2
 40
0.2
 49
0.1
 74
0
 49
-0.1
 74
0
  0
LTYPE
  5
1F7
100
AcDbSymbolTableRecord
100
AcDbLinetypeTableRecord
  2
PHANTOM
 70
64
  3
_____ _ _ _____ _ _ _____ _ _ _____
 72
65
 73
6
 40
0.8
 49
0.45
 74
0
 49
-0.05
 74
0
 49
0.1
 74
0
 49
-0.05
 74
0
 49
0.1
 74
0
 49
-0.05
 74
0
  0
LTYPE
  5
1F8
100
AcDbSymbolTableRecord
100
AcDbLinetypeTableRecord
  2
DOT
 70
64
  3
. . . . . . . . . . . . . . . . . . . .
 72
65
 73
2
 40
0.2
 49
0.1
 74
0
 49
-0.1
 74
0
  0
LTYPE
  5
1F9
100
AcDbSymbolTableRecord
100
AcDbLinetypeTableRecord
  2
DASHED
 70
64
  3
- - - - - - - - - - - - - - - - - - - -
 72
65
 73
2
 40
0.2
 49
0.1
 74
0
 49
-0.1
 74
0
  0
ENDTAB
  0
TABLE
  2
LAYER
  5
2
100
AcDbSymbolTable
 70
36
  0
LAYER
  5
10
100
AcDbSymbolTableRecord
100
AcDbLayerTableRecord
  2
0
 70
0
 62
7
  6
CONTINUOUS
370
-3
390
F
  0
LAYER
  5
1FA
100
AcDbSymbolTableRecord
100
AcDbLayerTableRecord
  2
DEFAULT_1
 70
0
 62
7
  6
CENTER
370
-3
390
F
  0
LAYER
  5
1FB
100
AcDbSymbolTableRecord
100
AcDbLayerTableRecord
  2
DEFAULT_2
 70
0
 62
7
  6
HIDDEN
370
-3
390
F
  0
LAYER
  5
1FC
100
AcDbSymbolTableRecord
100
AcDbLayerTableRecord
  2
DEFAULT_3
 70
0
 62
7
  6
PHANTOM
370
-3
390
F
  0
LAYER
  5
1FD
100
AcDbSymbolTableRecord
100
AcDbLayerTableRecord
  2
ASSI
 70
0
 62
7
  6
CONTINUOUS
370
-3
390
F
  0
LAYER
  5
1FE
100
AcDbSymbolTableRecord
100
AcDbLayerTableRecord
  2
COORDINATE
 70
0
 62
7
  6
CONTINUOUS
370
-3
390
F
  0
LAYER
  5
1FF
100
AcDbSymbolTableRecord
100
AcDbLayerTableRecord
  2
COPY_PUBLISH
 70
0
 62
7
  6
CONTINUOUS
370
-3
390
F
  0
LAYER
  5
200
100
AcDbSymbolTableRecord
100
AcDbLayerTableRecord
  2
COSMETIC
 70
0
 62
7
  6
CONTINUOUS
370
-3
390
F
  0
LAYER
  5
201
100
AcDbSymbolTableRecord
100
AcDbLayerTableRecord
  2
COSMETICI
 70
0
 62
7
  6
CONTINUOUS
370
-3
390
F
  0
LAYER
  5
202
100
AcDbSymbolTableRecord
100
AcDbLayerTableRecord
  2
CURVE
 70
0
 62
7
  6
CONTINUOUS
370
-3
390
F
  0
LAYER
  5
203
100
AcDbSymbolTableRecord
100
AcDbLayerTableRecord
  2
CURVE_VERN
 70
0
 62
7
  6
CONTINUOUS
370
-3
390
F
  0
LAYER
  5
204
100
AcDbSymbolTableRecord
100
AcDbLayerTableRecord
  2
DRAFT
 70
0
 62
7
  6
CONTINUOUS
370
-3
390
F
  0
LAYER
  5
205
100
AcDbSymbolTableRecord
100
AcDbLayerTableRecord
  2
IMPORT_IGES
 70
0
 62
7
  6
CONTINUOUS
370
-3
390
F
  0
LAYER
  5
206
100
AcDbSymbolTableRecord
100
AcDbLayerTableRecord
  2
INTFCLR_1
 70
0
 62
7
  6
CONTINUOUS
370
-3
390
F
  0
LAYER
  5
207
100
AcDbSymbolTableRecord
100
AcDbLayerTableRecord
  2
INTF_1
 70
0
 62
7
  6
CONTINUOUS
370
-3
390
F
  0
LAYER
  5
208
100
AcDbSymbolTableRecord
100
AcDbLayerTableRecord
  2
INTF_CYAN
 70
0
 62
7
  6
CONTINUOUS
370
-3
390
F
  0
LAYER
  5
209
100
AcDbSymbolTableRecord
100
AcDbLayerTableRecord
  2
NOTE
 70
0
 62
7
  6
CONTINUOUS
370
-3
390
F
  0
LAYER
  5
20A
100
AcDbSymbolTableRecord
100
AcDbLayerTableRecord
  2
PIANI
 70
0
 62
7
  6
CONTINUOUS
370
-3
390
F
  0
LAYER
  5
20B
100
AcDbSymbolTableRecord
100
AcDbLayerTableRecord
  2
PUNTI
 70
0
 62
7
  6
CONTINUOUS
370
-3
390
F
  0
LAYER
  5
20C
100
AcDbSymbolTableRecord
100
AcDbLayerTableRecord
  2
RACCORDO
 70
0
 62
7
  6
CONTINUOUS
370
-3
390
F
  0
LAYER
  5
20D
100
AcDbSymbolTableRecord
100
AcDbLayerTableRecord
  2
RGB____0____0____0__
 70
0
 62
7
  6
CONTINUOUS
370
-3
390
F
  0
LAYER
  5
20E
100
AcDbSymbolTableRecord
100
AcDbLayerTableRecord
  2
SIMBOLI
 70
0
 62
7
  6
CONTINUOUS
370
-3
390
F
  0
LAYER
  5
20F
100
AcDbSymbolTableRecord
100
AcDbLayerTableRecord
  2
SMUSSO
 70
0
 62
7
  6
CONTINUOUS
370
-3
390
F
  0
LAYER
  5
210
100
AcDbSymbolTableRecord
100
AcDbLayerTableRecord
  2
SNAPLINE
 70
0
 62
7
  6
CONTINUOUS
370
-3
390
F
  0
LAYER
  5
211
100
AcDbSymbolTableRecord
100
AcDbLayerTableRecord
  2
SUPERFICI
 70
0
 62
7
  6
CONTINUOUS
370
-3
390
F
  0
LAYER
  5
212
100
AcDbSymbolTableRecord
100
AcDbLayerTableRecord
  2
TRASH
 70
0
 62
7
  6
CONTINUOUS
370
-3
390
F
  0
LAYER
  5
213
100
AcDbSymbolTableRecord
100
AcDbLayerTableRecord
  2
XSEC_DATUMS
 70
0
 62
7
  6
CONTINUOUS
370
-3
390
F
  0
ENDTAB
  0
TABLE
  2
STYLE
  5
3
100
AcDbSymbolTable
 70
1
  0
STYLE
  5
11
100
AcDbSymbolTableRecord
100
AcDbTextStyleTableRecord
  2
STANDARD
 70
0
 40
0.0
 41
0.8
 50
0.0
 71
0
 42
0.2
  3
txt
  4

  0
STYLE
  5
214
100
AcDbSymbolTableRecord
100
AcDbTextStyleTableRecord
  2
TEXTSTYLE_1
 70
0
 40
0.0
 41
0.8
 50
0.0
 71
0
 42
0.2
  3
gdt
  4

  0
ENDTAB
  0
TABLE
  2
VIEW
  5
6
100
AcDbSymbolTable
 70
0
  0
ENDTAB
  0
TABLE
  2
UCS
  5
7
100
AcDbSymbolTable
 70
0
  0
ENDTAB
  0
TABLE
  2
APPID
  5
9
100
AcDbSymbolTable
 70
1
  0
APPID
  5
215
100
AcDbSymbolTableRecord
100
AcDbRegAppTableRecord
  2
ACAD
 70
0
  0
ENDTAB
  0
TABLE
  2
BLOCK_RECORD
  5
1
100
AcDbSymbolTable
 70
0
  0
BLOCK_RECORD
  5
216
100
AcDbSymbolTableRecord
100
AcDbBlockTableRecord
  2
*Model_Space
  0
BLOCK_RECORD
  5
217
100
AcDbSymbolTableRecord
100
AcDbBlockTableRecord
  2
*Paper_Space
  0
BLOCK_RECORD
  5
218
100
AcDbSymbolTableRecord
100
AcDbBlockTableRecord
  2
_FILLED
  0
BLOCK_RECORD
  5
219
100
AcDbSymbolTableRecord
100
AcDbBlockTableRecord
  2
*D0
  0
BLOCK_RECORD
  5
21A
100
AcDbSymbolTableRecord
100
AcDbBlockTableRecord
  2
*D1
  0
BLOCK_RECORD
  5
21B
100
AcDbSymbolTableRecord
100
AcDbBlockTableRecord
  2
*D2
  0
ENDTAB
  0
TABLE
  2
DIMSTYLE
  5
A
100
AcDbSymbolTable
 70
1
100
AcDbDimStyleTable
 71
0
  0
DIMSTYLE
105
21C
100
AcDbSymbolTableRecord
100
AcDbDimStyleTableRecord
  2
STANDARD
 70
0
  3

  4

 40
1.0
 41
3.0
 42
0.5
 43
0.38
 44
1.5
 45
0.0
 46
0.0
 47
0.01
 48
0.01
140
3.0
141
0.09
142
0.0
143
25.4
144
1.0
145
0.0
146
1.0
147
0.625
 71
1
 72
0
 73
0
 74
0
 75
0
 76
0
 77
1
 78
8
 79
2
170
0
171
1
172
0
173
0
174
0
175
0
176
0
177
0
178
0
270
2
179
2
271
2
272
2
273
2
274
2
275
0
280
0
281
0
282
0
283
1
284
8
285
0
286
0
287
3
288
0
340
11
278
44
341
218
342
218
343
218
344
218
  0
DIMSTYLE
105
21D
100
AcDbSymbolTableRecord
100
AcDbDimStyleTableRecord
  2
DIMSTYLE_1
 70
0
  3

  4

 40
1.0
 41
3.0
 42
0.5
 43
0.38
 44
1.5
 45
0.0
 46
0.0
 47
0.0
 48
0.0
140
3.0
141
0.09
142
0.0
143
25.4
144
1.0
145
0.0
146
1.0
147
0.75
 71
0
 72
0
 73
0
 74
0
 75
0
 76
0
 77
1
 78
8
 79
2
170
0
171
1
172
0
173
0
174
0
175
0
176
0
177
0
178
0
270
2
179
2
271
2
272
2
273
2
274
2
275
0
280
0
281
0
282
0
283
1
284
8
285
0
286
0
287
3
288
0
340
11
278
44
341
218
342
218
343
218
344
218
  0
DIMSTYLE
105
21E
100
AcDbSymbolTableRecord
100
AcDbDimStyleTableRecord
  2
DIMSTYLE_2
 70
0
  3

  4

 40
1.0
 41
3.0
 42
0.5
 43
0.38
 44
1.5
 45
0.0
 46
0.0
 47
0.0
 48
0.0
140
3.0
141
0.09
142
0.0
143
25.4
144
1.0
145
0.0
146
1.0
147
0.75
 71
0
 72
0
 73
0
 74
0
 75
0
 76
0
 77
1
 78
8
 79
2
170
0
171
1
172
0
173
0
174
0
175
0
176
0
177
0
178
0
270
2
179
2
271
1
272
2
273
2
274
2
275
0
280
0
281
0
282
0
283
1
284
8
285
0
286
0
287
3
288
0
340
11
278
44
341
218
342
218
343
218
344
218
  0
ENDTAB
  0
ENDSEC
  0
SECTION
  2
BLOCKS
  0
BLOCK
  5
20
100
AcDbEntity
  8
0
100
AcDbBlockBegin
  2
*Model_Space
 70
0
 10
0.0
 20
0.0
 30
0.0
  3
*Model_Space
  1

  0
ENDBLK
  5
21
100
AcDbEntity
  8
0
100
AcDbBlockEnd
  0
BLOCK
  5
1C
100
AcDbEntity
  8
0
100
AcDbBlockBegin
  2
*Paper_Space
 70
0
 10
0.0
 20
0.0
 30
0.0
  3
*Paper_Space
  1

  0
ENDBLK
  5
1D
100
AcDbEntity
  8
0
100
AcDbBlockEnd
  0
BLOCK
  5
21F
100
AcDbEntity
  8
0
100
AcDbBlockBegin
  2
_FILLED
 70
64
 10
0.0
 20
0.0
  3
_FILLED
  1

  0
SOLID
  5
220
100
AcDbEntity
  8
0
  6
BYBLOCK
 62
0
100
AcDbTrace
 10
0.0
 20
0.0
 11
-1.0
 21
0.3166666667
 12
-1.0
 22
-0.3166666667
 13
-1.0
 23
-0.3166666667
  0
ENDBLK
  5
221
100
AcDbEntity
  8
0
  6
BYBLOCK
 62
0
100
AcDbBlockEnd
  0
BLOCK
  5
222
100
AcDbEntity
  8
0
100
AcDbBlockBegin
 62
7
  6
CONTINUOUS
  2
*D0
 70
65
 10
0.0
 20
0.0
  3
*D0
  1

  0
LINE
  5
223
100
AcDbEntity
  8
0
100
AcDbLine
 62
7
  6
CONTINUOUS
 10
-45.0
 20
44.5013704652
 11
-45.0
 21
59.5
  0
LINE
  5
224
100
AcDbEntity
  8
0
100
AcDbLine
 62
7
  6
CONTINUOUS
 10
45.0
 20
44.5013704652
 11
45.0
 21
59.5
  0
LINE
  5
225
100
AcDbEntity
  8
0
100
AcDbLine
 62
7
  6
CONTINUOUS
 10
-45.0
 20
58.0
 11
0.0
 21
58.0
  0
LINE
  5
226
100
AcDbEntity
  8
0
100
AcDbLine
 62
7
  6
CONTINUOUS
 10
45.0
 20
58.0
 11
0.0
 21
58.0
  0
INSERT
  5
227
100
AcDbEntity
  8
0
100
AcDbBlockReference
 62
7
  6
CONTINUOUS
  2
_FILLED
 10
-45.0
 20
58.0
 41
3.0
 42
3.0
 43
3.0
 50
180.0
  0
INSERT
  5
228
100
AcDbEntity
  8
0
100
AcDbBlockReference
 62
7
  6
CONTINUOUS
  2
_FILLED
 10
45.0
 20
58.0
 41
3.0
 42
3.0
 43
3.0
  0
ENDBLK
  5
229
100
AcDbEntity
  8
0
  6
BYBLOCK
 62
0
100
AcDbBlockEnd
  0
BLOCK
  5
22A
100
AcDbEntity
  8
0
100
AcDbBlockBegin
 62
7
  6
CONTINUOUS
  2
*D1
 70
65
 10
0.0
 20
0.0
  3
*D1
  1

  0
LINE
  5
22B
100
AcDbEntity
  8
0
100
AcDbLine
 62
7
  6
CONTINUOUS
 10
44.5013704652
 20
45.0
 11
62.0057643263
 21
45.0
  0
LINE
  5
22C
100
AcDbEntity
  8
0
100
AcDbLine
 62
7
  6
CONTINUOUS
 10
44.5013704652
 20
-45.0
 11
62.0057643263
 21
-45.0
  0
LINE
  5
22D
100
AcDbEntity
  8
0
100
AcDbLine
 62
7
  6
CONTINUOUS
 10
60.5057643263
 20
45.0
 11
60.5057643263
 21
0.0
  0
LINE
  5
22E
100
AcDbEntity
  8
0
100
AcDbLine
 62
7
  6
CONTINUOUS
 10
60.5057643263
 20
-45.0
 11
60.5057643263
 21
0.0
  0
INSERT
  5
22F
100
AcDbEntity
  8
0
100
AcDbBlockReference
 62
7
  6
CONTINUOUS
  2
_FILLED
 10
60.5057643263
 20
45.0
 41
3.0
 42
3.0
 43
3.0
 50
90.0
  0
INSERT
  5
230
100
AcDbEntity
  8
0
100
AcDbBlockReference
 62
7
  6
CONTINUOUS
  2
_FILLED
 10
60.5057643263
 20
-45.0
 41
3.0
 42
3.0
 43
3.0
 50
270.0
  0
ENDBLK
  5
231
100
AcDbEntity
  8
0
  6
BYBLOCK
 62
0
100
AcDbBlockEnd
  0
BLOCK
  5
232
100
AcDbEntity
  8
0
100
AcDbBlockBegin
 62
7
  6
CONTINUOUS
  2
*D2
 70
65
 10
0.0
 20
0.0
  3
*D2
  1

  0
LINE
  5
233
100
AcDbEntity
  8
0
100
AcDbLine
 62
7
  6
CONTINUOUS
 10
-62.2880236974
 20
43.597075387
 11
-62.2880237051
 21
59.5000000021
  0
LINE
  5
234
100
AcDbEntity
  8
0
100
AcDbLine
 62
7
  6
CONTINUOUS
 10
-70.8593027949
 20
0.4999997802
 11
-70.8593028237
 21
59.4999999979
  0
LINE
  5
235
100
AcDbEntity
  8
0
100
AcDbLine
 62
7
  6
CONTINUOUS
 10
-62.2880237044
 20
58.0000000021
 11
-58.2880237044
 21
58.000000004
  0
LINE
  5
236
100
AcDbEntity
  8
0
100
AcDbLine
 62
7
  6
CONTINUOUS
 10
-58.2880237044
 20
58.000000004
 11
-66.5736632637
 21
58.0
  0
LINE
  5
237
100
AcDbEntity
  8
0
100
AcDbLine
 62
7
  6
CONTINUOUS
 10
-70.8593028229
 20
57.9999999979
 11
-74.8593028229
 21
57.999999996
  0
LINE
  5
238
100
AcDbEntity
  8
0
100
AcDbLine
 62
7
  6
CONTINUOUS
 10
-74.8593028229
 20
57.999999996
 11
-66.5736632637
 21
58.0
  0
INSERT
  5
239
100
AcDbEntity
  8
0
100
AcDbBlockReference
 62
7
  6
CONTINUOUS
  2
_FILLED
 10
-62.2880237044
 20
58.0000000021
 41
3.0
 42
3.0
 43
3.0
 50
180.000000028
  0
INSERT
  5
23A
100
AcDbEntity
  8
0
100
AcDbBlockReference
 62
7
  6
CONTINUOUS
  2
_FILLED
 10
-70.8593028229
 20
57.9999999979
 41
3.0
 42
3.0
 43
3.0
 50
0.000000028
  0
ENDBLK
  5
23B
100
AcDbEntity
  8
0
  6
BYBLOCK
 62
0
100
AcDbBlockEnd
  0
ENDSEC
  0
SECTION
  2
ENTITIES
  0
DIMENSION
  5
23C
100
AcDbEntity
  8
0
100
AcDbDimension
 62
7
  6
CONTINUOUS
  2
*D0
 10
45.0
 20
58.0
 11
-2.3571428571
 21
58.0
 70
160
 71
2
 72
2
 41
0.9
 42
90.0
  3
DIMSTYLE_1
100
AcDbAlignedDimension
 13
-45.0
 23
44.0013704652
 14
45.0
 24
44.0013704652
100
AcDbRotatedDimension
  0
DIMENSION
  5
23D
100
AcDbEntity
  8
0
100
AcDbDimension
 62
7
  6
CONTINUOUS
  2
*D1
 10
60.5057643263
 20
-45.0
 11
60.5057643263
 21
-2.3571428571
 70
160
 71
2
 72
2
 41
0.9
 42
90.0
  3
DIMSTYLE_1
100
AcDbAlignedDimension
 13
44.0013704652
 23
45.0
 14
44.0013704652
 24
-45.0
 50
270.0
100
AcDbRotatedDimension
  0
DIMENSION
  5
23E
100
AcDbEntity
  8
0
100
AcDbDimension
 62
7
  6
CONTINUOUS
  2
*D2
 10
-70.8593028229
 20
57.9999999979
 11
-69.7879489787
 21
57.9999999984
 70
160
 71
2
 72
2
 41
0.9
 42
8.5712791185
  3
DIMSTYLE_2
100
AcDbAlignedDimension
 13
-62.2880236971
 23
43.097075387
 14
-70.8593027946
 24
-0.0000002198
 50
180.000000028
100
AcDbRotatedDimension
  0
LINE
  5
23F
100
AcDbEntity
  8
RACCORDO
100
AcDbLine
 62
7
  6
CONTINUOUS
 10
-45.0
 20
-44.0013704652
 11
-45.0
 21
44.0013704652
  0
LINE
  5
240
100
AcDbEntity
  8
ASSI
100
AcDbLine
 62
7
  6
CONTINUOUS
 10
-45.0
 20
-44.0013704652
 11
-45.0
 21
44.0013704652
  0
LINE
  5
241
100
AcDbEntity
  8
RACCORDO
100
AcDbLine
 62
250
  6
CONTINUOUS
 10
-43.8781758769
 20
-44.6316825048
 11
-43.8781758769
 21
-44.8768054117
  0
LINE
  5
242
100
AcDbEntity
  8
ASSI
100
AcDbLine
 62
250
  6
CONTINUOUS
 10
-43.8781758769
 20
-44.6316825048
 11
-43.8781758769
 21
-44.8768054117
  0
LINE
  5
243
100
AcDbEntity
  8
RACCORDO
100
AcDbLine
 62
250
  6
CONTINUOUS
 10
-43.8781758769
 20
44.6316825048
 11
-43.8781758772
 21
44.8768054117
  0
LINE
  5
244
100
AcDbEntity
  8
ASSI
100
AcDbLine
 62
250
  6
CONTINUOUS
 10
-43.8781758769
 20
44.6316825048
 11
-43.8781758772
 21
44.8768054117
  0
LINE
  5
245
100
AcDbEntity
  8
RACCORDO
100
AcDbLine
 62
7
  6
CONTINUOUS
 10
-44.0013704652
 20
-45.0
 11
44.0013704652
 21
-45.0
  0
LINE
  5
246
100
AcDbEntity
  8
ASSI
100
AcDbLine
 62
7
  6
CONTINUOUS
 10
-44.0013704652
 20
-45.0
 11
44.0013704652
 21
-45.0
  0
LINE
  5
247
100
AcDbEntity
  8
RACCORDO
100
AcDbLine
 62
250
  6
CONTINUOUS
 10
-43.8781758769
 20
-44.8768054117
 11
43.8781758769
 21
-44.8768054117
  0
LINE
  5
248
100
AcDbEntity
  8
ASSI
100
AcDbLine
 62
250
  6
CONTINUOUS
 10
-43.8781758769
 20
-44.8768054117
 11
43.8781758769
 21
-44.8768054117
  0
LINE
  5
249
100
AcDbEntity
  8
RACCORDO
100
AcDbLine
 62
250
  6
CONTINUOUS
 10
-43.8781758769
 20
-44.6316825048
 11
43.8781758769
 21
-44.6316825048
  0
LINE
  5
24A
100
AcDbEntity
  8
ASSI
100
AcDbLine
 62
250
  6
CONTINUOUS
 10
-43.8781758769
 20
-44.6316825048
 11
43.8781758769
 21
-44.6316825048
  0
LWPOLYLINE
  5
24B
100
AcDbEntity
  8
0
100
AcDbPolyline
 62
7
  6
CONTINUOUS
 90
10
 70
0
 43
0.3500000006
 10
-1.9285714102
 20
58.7499994812
 10
-1.0714285848
 20
59.6071464844
 10
-0.8571428254
 20
60.4642844238
 10
-0.8571428254
 20
61.321431427
 10
-1.2857142735
 20
61.7500003967
 10
-1.9285714102
 20
61.7500003967
 10
-2.3571427875
 20
61.321431427
 10
-2.3571427875
 20
60.4642844238
 10
-1.9285714102
 20
60.0357154541
 10
-1.0000000219
 20
60.0357154541
  0
LINE
  5
24C
100
AcDbEntity
  8
0
100
AcDbLine
 62
250
  6
CONTINUOUS
 10
-25.248283
 20
28.14927
 11
-25.248283
 21
26.4507299861
  0
LINE
  5
24D
100
AcDbEntity
  8
0
100
AcDbLine
 62
250
  6
CONTINUOUS
 10
-25.148369
 20
28.049356
 11
-25.148369
 21
26.5506439811
  0
LINE
  5
24E
100
AcDbEntity
  8
0
100
AcDbLine
 62
250
  6
CONTINUOUS
 10
-25.048454
 20
27.949442
 11
-25.048454
 21
26.6505579787
  0
LINE
  5
24F
100
AcDbEntity
  8
0
100
AcDbLine
 62
250
  6
CONTINUOUS
 10
-19.453263
 20
28.698798
 11
-20.252576
 21
25.901202
  0
LINE
  5
250
100
AcDbEntity
  8
0
100
AcDbLine
 62
250
  6
CONTINUOUS
 10
-9.706337
 20
27.389285
 11
-9.510657
 21
27.627378
  0
LINE
  5
251
100
AcDbEntity
  8
0
100
AcDbLine
 62
250
  6
CONTINUOUS
 10
-9.855148
 20
27.686902
 11
-9.98213
 21
27.567855
  0
LINE
  5
252
100
AcDbEntity
  8
0
100
AcDbLine
 62
250
  6
CONTINUOUS
 10
-10.09149
 20
26.317865
 11
-9.964508
 21
26.436912
  0
LINE
  5
253
100
AcDbEntity
  8
0
100
AcDbLine
 62
250
  6
CONTINUOUS
 10
-5.702415
 20
28.520228
 11
-5.956378
 21
28.282135
  0
LINE
  5
254
100
AcDbEntity
  8
0
100
AcDbLine
 62
250
  6
CONTINUOUS
 10
-10.064453
 20
25.960725
 11
-9.815697
 21
26.139295
  0
LINE
  5
255
100
AcDbEntity
  8
0
100
AcDbLine
 62
250
  6
CONTINUOUS
 10
-5.617094
 20
28.163088
 11
-5.431829
 21
28.282135
  0
LINE
  5
256
100
AcDbEntity
  8
0
100
AcDbLine
 62
250
  6
CONTINUOUS
 10
-4.4276
 20
26.436912
 11
-4.612865
 21
26.317865
  0
LINE
  5
257
100
AcDbEntity
  8
0
100
AcDbLine
 62
250
  6
CONTINUOUS
 10
-9.828111
 20
27.329762
 11
-9.706337
 21
27.389285
  0
LINE
  5
258
100
AcDbEntity
  8
0
100
AcDbLine
 62
250
  6
CONTINUOUS
 10
-5.458866
 20
28.639275
 11
-5.702415
 21
28.520228
  0
LINE
  5
259
100
AcDbEntity
  8
0
100
AcDbLine
 62
250
  6
CONTINUOUS
 10
-4.585827
 20
25.960725
 11
-4.342279
 21
26.079772
  0
LINE
  5
25A
100
AcDbEntity
  8
0
100
AcDbLine
 62
250
  6
CONTINUOUS
 10
-9.98213
 20
27.567855
 11
-10.162188
 21
27.508332
  0
LINE
  5
25B
100
AcDbEntity
  8
0
100
AcDbLine
 62
250
  6
CONTINUOUS
 10
-10.271548
 20
26.258342
 11
-10.09149
 21
26.317865
  0
LINE
  5
25C
100
AcDbEntity
  8
0
100
AcDbLine
 62
250
  6
CONTINUOUS
 10
3.423016
 20
27.567855
 11
3.242959
 21
27.508332
  0
LINE
  5
25D
100
AcDbEntity
  8
0
100
AcDbLine
 62
7
  6
CONTINUOUS
 10
5.6391482119
 20
-28.8778013544
 11
5.0770156219
 21
-28.8778013544
  0
LINE
  5
25E
100
AcDbEntity
  8
ASSI
100
AcDbLine
 62
7
  6
CONTINUOUS
 10
5.6391482119
 20
-28.8778013544
 11
5.0770156219
 21
-28.8778013544
  0
LINE
  5
25F
100
AcDbEntity
  8
0
100
AcDbLine
 62
7
  6
CONTINUOUS
 10
4.1820753449
 20
-28.8778013544
 11
3.6000188023
 21
-28.8778013544
  0
LINE
  5
260
100
AcDbEntity
  8
ASSI
100
AcDbLine
 62
7
  6
CONTINUOUS
 10
4.1820753449
 20
-28.8778013544
 11
3.6000188023
 21
-28.8778013544
  0
LINE
  5
261
100
AcDbEntity
  8
0
100
AcDbLine
 62
7
  6
CONTINUOUS
 10
3.298408
 20
-28.877801
 11
2.682466
 21
-28.877801
  0
LINE
  5
262
100
AcDbEntity
  8
ASSI
100
AcDbLine
 62
7
  6
CONTINUOUS
 10
3.298408
 20
-28.877801
 11
2.682466
 21
-28.877801
  0
LINE
  5
263
100
AcDbEntity
  8
0
100
AcDbLine
 62
7
  6
CONTINUOUS
 10
1.573947
 20
-28.877801
 11
0.99588
 21
-28.877801
  0
LINE
  5
264
100
AcDbEntity
  8
ASSI
100
AcDbLine
 62
7
  6
CONTINUOUS
 10
1.573947
 20
-28.877801
 11
0.99588
 21
-28.877801
  0
LINE
  5
265
100
AcDbEntity
  8
0
100
AcDbLine
 62
7
  6
CONTINUOUS
 10
0.694112
 20
-28.877801
 11
0.122406
 21
-28.877801
  0
LINE
  5
266
100
AcDbEntity
  8
ASSI
100
AcDbLine
 62
7
  6
CONTINUOUS
 10
0.694112
 20
-28.877801
 11
0.122406
 21
-28.877801
  0
LINE
  5
267
100
AcDbEntity
  8
0
100
AcDbLine
 62
7
  6
CONTINUOUS
 10
-0.692524
 20
-28.877801
 11
-0.774487
 21
-28.877801
  0
LINE
  5
268
100
AcDbEntity
  8
ASSI
100
AcDbLine
 62
7
  6
CONTINUOUS
 10
-0.692524
 20
-28.877801
 11
-0.774487
 21
-28.877801
  0
LINE
  5
269
100
AcDbEntity
  8
0
100
AcDbLine
 62
7
  6
CONTINUOUS
 10
-1.586183
 20
-28.877801
 11
-2.145272
 21
-28.877801
  0
LINE
  5
26A
100
AcDbEntity
  8
ASSI
100
AcDbLine
 62
7
  6
CONTINUOUS
 10
-1.586183
 20
-28.877801
 11
-2.145272
 21
-28.877801
  0
LINE
  5
26B
100
AcDbEntity
  8
0
100
AcDbLine
 62
7
  6
CONTINUOUS
 10
-2.449877
 20
-28.877801
 11
-3.034285
 21
-28.877801
  0
LINE
  5
26C
100
AcDbEntity
  8
ASSI
100
AcDbLine
 62
7
  6
CONTINUOUS
 10
-2.449877
 20
-28.877801
 11
-3.034285
 21
-28.877801
  0
LINE
  5
26D
100
AcDbEntity
  8
0
100
AcDbLine
 62
7
  6
CONTINUOUS
 10
-4.231097
 20
-28.877801
 11
-4.746107
 21
-28.877801
  0
LINE
  5
26E
100
AcDbEntity
  8
ASSI
100
AcDbLine
 62
7
  6
CONTINUOUS
 10
-4.231097
 20
-28.877801
 11
-4.746107
 21
-28.877801
  0
LINE
  5
26F
100
AcDbEntity
  8
0
100
AcDbLine
 62
7
  6
CONTINUOUS
 10
2.531074
 20
-28.318881
 11
1.735207
 21
-28.318881
  0
LINE
  5
270
100
AcDbEntity
  8
ASSI
100
AcDbLine
 62
7
  6
CONTINUOUS
 10
2.531074
 20
-28.318881
 11
1.735207
 21
-28.318881
  0
LINE
  5
271
100
AcDbEntity
  8
0
100
AcDbLine
 62
7
  6
CONTINUOUS
 10
2.41428
 20
-27.886391
 11
1.854751
 21
-27.886391
  0
LINE
  5
272
100
AcDbEntity
  8
ASSI
100
AcDbLine
 62
7
  6
CONTINUOUS
 10
2.41428
 20
-27.886391
 11
1.854751
 21
-27.886391
  0
LINE
  5
273
100
AcDbEntity
  8
0
100
AcDbLine
 62
7
  6
CONTINUOUS
 10
4.4954209623
 20
-27.7821519248
 11
4.1820753449
 21
-27.7821519248
  0
LINE
  5
274
100
AcDbEntity
  8
ASSI
100
AcDbLine
 62
7
  6
CONTINUOUS
 10
4.4954209623
 20
-27.7821519248
 11
4.1820753449
 21
-27.7821519248
  0
LINE
  5
275
100
AcDbEntity
  8
0
100
AcDbLine
 62
7
  6
CONTINUOUS
 10
4.4966806432
 20
-27.3236280866
 11
4.1626972541
 21
-27.3236280866
  0
LINE
  5
276
100
AcDbEntity
  8
ASSI
100
AcDbLine
 62
7
  6
CONTINUOUS
 10
4.4966806432
 20
-27.3236280866
 11
4.1626972541
 21
-27.3236280866
  0
LINE
  5
277
100
AcDbEntity
  8
0
100
AcDbLine
 62
7
  6
CONTINUOUS
 10
2.43939
 20
-26.078098
 11
1.874045
 21
-26.078098
  0
LINE
  5
278
100
AcDbEntity
  8
ASSI
100
AcDbLine
 62
7
  6
CONTINUOUS
 10
2.43939
 20
-26.078098
 11
1.874045
 21
-26.078098
  0
LINE
  5
279
100
AcDbEntity
  8
0
100
AcDbLine
 62
7
  6
CONTINUOUS
 10
0.432308
 20
-26.078098
 11
-0.145906
 21
-26.078098
  0
LINE
  5
27A
100
AcDbEntity
  8
ASSI
100
AcDbLine
 62
7
  6
CONTINUOUS
 10
0.432308
 20
-26.078098
 11
-0.145906
 21
-26.078098
  0
LINE
  5
27B
100
AcDbEntity
  8
0
100
AcDbLine
 62
7
  6
CONTINUOUS
 10
-1.30855
 20
-26.078098
 11
-1.892475
 21
-26.078098
  0
LINE
  5
27C
100
AcDbEntity
  8
ASSI
100
AcDbLine
 62
7
  6
CONTINUOUS
 10
-1.30855
 20
-26.078098
 11
-1.892475
 21
-26.078098
  0
LINE
  5
27D
100
AcDbEntity
  8
0
100
AcDbLine
 62
7
  6
CONTINUOUS
 10
-3.33116
 20
-26.078098
 11
-3.915169
 21
-26.078098
  0
LINE
  5
27E
100
AcDbEntity
  8
ASSI
100
AcDbLine
 62
7
  6
CONTINUOUS
 10
-3.33116
 20
-26.078098
 11
-3.915169
 21
-26.078098
  0
LINE
  5
27F
100
AcDbEntity
  8
0
100
AcDbLine
 62
7
  6
CONTINUOUS
 10
-4.99882
 20
-26.078098
 11
-5.633668
 21
-26.078098
  0
LINE
  5
280
100
AcDbEntity
  8
ASSI
100
AcDbLine
 62
7
  6
CONTINUOUS
 10
-4.99882
 20
-26.078098
 11
-5.633668
 21
-26.078098
  0
LINE
  5
281
100
AcDbEntity
  8
0
100
AcDbLine
 62
7
  6
CONTINUOUS
 10
-2.449877
 20
-26.07793
 11
-3.034285
 21
-26.07793
  0
LINE
  5
282
100
AcDbEntity
  8
ASSI
100
AcDbLine
 62
7
  6
CONTINUOUS
 10
-2.449877
 20
-26.07793
 11
-3.034285
 21
-26.07793
  0
LINE
  5
283
100
AcDbEntity
  8
0
100
AcDbLine
 62
250
  6
CONTINUOUS
 10
-24.09927
 20
29.298283
 11
-24.09927
 21
28.1492700125
  0
LINE
  5
284
100
AcDbEntity
  8
0
100
AcDbLine
 62
250
  6
CONTINUOUS
 10
-24.09927
 20
26.45073
 11
-24.09927
 21
25.3017170125
  0
LINE
  5
285
100
AcDbEntity
  8
0
100
AcDbLine
 62
250
  6
CONTINUOUS
 10
-23.999356
 20
29.198369
 11
-23.999356
 21
28.0493560119
  0
LINE
  5
286
100
AcDbEntity
  8
0
100
AcDbLine
 62
250
  6
CONTINUOUS
 10
-23.999356
 20
26.550644
 11
-23.999356
 21
25.4016309866
  0
LINE
  5
287
100
AcDbEntity
  8
0
100
AcDbLine
 62
250
  6
CONTINUOUS
 10
-23.899442
 20
29.098454
 11
-23.899442
 21
27.9494419761
  0
LINE
  5
288
100
AcDbEntity
  8
0
100
AcDbLine
 62
250
  6
CONTINUOUS
 10
-23.899442
 20
26.650558
 11
-23.899442
 21
25.5015460004
  0
LINE
  5
289
100
AcDbEntity
  8
0
100
AcDbLine
 62
250
  6
CONTINUOUS
 10
-22.600558
 20
25.501546
 11
-22.600558
 21
26.6505579996
  0
LINE
  5
28A
100
AcDbEntity
  8
0
100
AcDbLine
 62
250
  6
CONTINUOUS
 10
-22.600558
 20
27.949442
 11
-22.600558
 21
29.0984540239
  0
LINE
  5
28B
100
AcDbEntity
  8
0
100
AcDbLine
 62
7
  6
CONTINUOUS
 10
-22.6
 20
-21.7010963722
 11
-22.6
 21
21.7010963722
  0
LINE
  5
28C
100
AcDbEntity
  8
ASSI
100
AcDbLine
 62
7
  6
CONTINUOUS
 10
-22.6
 20
-21.7010963722
 11
-22.6
 21
21.7010963722
  0
LINE
  5
28D
100
AcDbEntity
  8
0
100
AcDbLine
 62
250
  6
CONTINUOUS
 10
-22.500644
 20
25.401631
 11
-22.500644
 21
26.5506440134
  0
LINE
  5
28E
100
AcDbEntity
  8
0
100
AcDbLine
 62
250
  6
CONTINUOUS
 10
-22.500644
 20
28.049356
 11
-22.500644
 21
29.1983689882
  0
LINE
  5
28F
100
AcDbEntity
  8
0
100
AcDbLine
 62
250
  6
CONTINUOUS
 10
-22.40073
 20
25.301717
 11
-22.40073
 21
26.4507299876
  0
LINE
  5
290
100
AcDbEntity
  8
0
100
AcDbLine
 62
250
  6
CONTINUOUS
 10
-22.40073
 20
28.14927
 11
-22.40073
 21
29.2982829875
  0
LINE
  5
291
100
AcDbEntity
  8
RACCORDO
100
AcDbLine
 62
250
  6
CONTINUOUS
 10
-21.9426456448
 20
23.1675430277
 11
-21.9426456448
 21
22.6415492726
  0
LINE
  5
292
100
AcDbEntity
  8
ASSI
100
AcDbLine
 62
250
  6
CONTINUOUS
 10
-21.9426456448
 20
23.1675430277
 11
-21.9426456448
 21
22.6415492726
  0
LINE
  5
293
100
AcDbEntity
  8
RACCORDO
100
AcDbLine
 62
250
  6
CONTINUOUS
 10
-21.9426456448
 20
-23.1675430277
 11
-21.9426456448
 21
-22.6415492726
  0
LINE
  5
294
100
AcDbEntity
  8
ASSI
100
AcDbLine
 62
250
  6
CONTINUOUS
 10
-21.9426456448
 20
-23.1675430277
 11
-21.9426456448
 21
-22.6415492726
  0
LINE
  5
295
100
AcDbEntity
  8
0
100
AcDbLine
 62
250
  6
CONTINUOUS
 10
-21.451546
 20
26.650558
 11
-21.451546
 21
27.9494420213
  0
LINE
  5
296
100
AcDbEntity
  8
0
100
AcDbLine
 62
250
  6
CONTINUOUS
 10
-21.351631
 20
26.550644
 11
-21.351631
 21
28.0493560189
  0
LINE
  5
297
100
AcDbEntity
  8
0
100
AcDbLine
 62
250
  6
CONTINUOUS
 10
-21.251717
 20
26.45073
 11
-21.251717
 21
28.1492700139
  0
LINE
  5
298
100
AcDbEntity
  8
0
100
AcDbLine
 62
250
  6
CONTINUOUS
 10
-9.781242
 20
27.865471
 11
-9.855148
 21
27.686902
  0
LINE
  5
299
100
AcDbEntity
  8
0
100
AcDbLine
 62
250
  6
CONTINUOUS
 10
-9.510657
 20
27.627378
 11
-9.436751
 21
27.805948
  0
LINE
  5
29A
100
AcDbEntity
  8
0
100
AcDbLine
 62
250
  6
CONTINUOUS
 10
-9.964508
 20
26.436912
 11
-9.890602
 21
26.615482
  0
LINE
  5
29B
100
AcDbEntity
  8
0
100
AcDbLine
 62
250
  6
CONTINUOUS
 10
-9.620017
 20
26.377389
 11
-9.54611
 21
26.555959
  0
LINE
  5
29C
100
AcDbEntity
  8
0
100
AcDbLine
 62
250
  6
CONTINUOUS
 10
-7.747536
 20
28.460705
 11
-8.412691
 21
26.853575
  0
LINE
  5
29D
100
AcDbEntity
  8
0
100
AcDbLine
 62
250
  6
CONTINUOUS
 10
-8.787429
 20
25.901202
 11
-8.491804
 21
26.615482
  0
LINE
  5
29E
100
AcDbEntity
  8
0
100
AcDbLine
 62
250
  6
CONTINUOUS
 10
-7.959838
 20
28.698798
 11
-9.137128
 21
25.901202
  0
LINE
  5
29F
100
AcDbEntity
  8
0
100
AcDbLine
 62
250
  6
CONTINUOUS
 10
-5.956378
 20
28.282135
 11
-6.093775
 21
28.044042
  0
LINE
  5
2A0
100
AcDbEntity
  8
0
100
AcDbLine
 62
250
  6
CONTINUOUS
 10
-5.749283
 20
27.984518
 11
-5.617094
 21
28.163088
  0
LINE
  5
2A1
100
AcDbEntity
  8
0
100
AcDbLine
 62
250
  6
CONTINUOUS
 10
-9.815697
 20
26.139295
 11
-9.620017
 21
26.377389
  0
LINE
  5
2A2
100
AcDbEntity
  8
0
100
AcDbLine
 62
250
  6
CONTINUOUS
 10
-4.342279
 20
26.079772
 11
-4.088316
 21
26.317865
  0
LINE
  5
2A3
100
AcDbEntity
  8
0
100
AcDbLine
 62
250
  6
CONTINUOUS
 10
3.698809
 20
27.389285
 11
3.455262
 21
27.270238
  0
LINE
  5
2A4
100
AcDbEntity
  8
RACCORDO
100
AcDbLine
 62
250
  6
CONTINUOUS
 10
21.9426456448
 20
-23.1675430277
 11
-21.9426456448
 21
-23.1675430277
  0
LINE
  5
2A5
100
AcDbEntity
  8
ASSI
100
AcDbLine
 62
250
  6
CONTINUOUS
 10
21.9426456448
 20
-23.1675430277
 11
-21.9426456448
 21
-23.1675430277
  0
LINE
  5
2A6
100
AcDbEntity
  8
RACCORDO
100
AcDbLine
 62
250
  6
CONTINUOUS
 10
44.4427701044
 20
-22.6676475367
 11
22.9679615936
 21
-22.6677048937
  0
LINE
  5
2A7
100
AcDbEntity
  8
ASSI
100
AcDbLine
 62
250
  6
CONTINUOUS
 10
44.4427701044
 20
-22.6676475367
 11
22.9679615936
 21
-22.6677048937
  0
LINE
  5
2A8
100
AcDbEntity
  8
RACCORDO
100
AcDbLine
 62
250
  6
CONTINUOUS
 10
-22.9679615936
 20
-22.6677048937
 11
-44.4427701041
 21
-22.6676473889
  0
LINE
  5
2A9
100
AcDbEntity
  8
ASSI
100
AcDbLine
 62
250
  6
CONTINUOUS
 10
-22.9679615936
 20
-22.6677048937
 11
-44.4427701041
 21
-22.6676473889
  0
LINE
  5
2AA
100
AcDbEntity
  8
RACCORDO
100
AcDbLine
 62
250
  6
CONTINUOUS
 10
21.9426840308
 20
-22.6415492726
 11
-21.9426540141
 21
-22.6415492726
  0
LINE
  5
2AB
100
AcDbEntity
  8
ASSI
100
AcDbLine
 62
250
  6
CONTINUOUS
 10
21.9426840308
 20
-22.6415492726
 11
-21.9426540141
 21
-22.6415492726
  0
LINE
  5
2AC
100
AcDbEntity
  8
0
100
AcDbLine
 62
7
  6
CONTINUOUS
 10
21.8010963722
 20
-22.5
 11
-21.8010963722
 21
-22.5
  0
LINE
  5
2AD
100
AcDbEntity
  8
ASSI
100
AcDbLine
 62
7
  6
CONTINUOUS
 10
21.8010963722
 20
-22.5
 11
-21.8010963722
 21
-22.5
  0
LINE
  5
2AE
100
AcDbEntity
  8
0
100
AcDbLine
 62
250
  6
CONTINUOUS
 10
-17.854637
 20
28.698798
 11
-17.854637
 21
25.9012020459
  0
LINE
  5
2AF
100
AcDbEntity
  8
0
100
AcDbLine
 62
250
  6
CONTINUOUS
 10
-16.455839
 20
28.698798
 11
-16.455839
 21
25.9012020459
  0
LINE
  5
2B0
100
AcDbEntity
  8
0
100
AcDbLine
 62
250
  6
CONTINUOUS
 10
-14.857212
 20
28.698798
 11
-14.857212
 21
25.9012020459
  0
LINE
  5
2B1
100
AcDbEntity
  8
0
100
AcDbLine
 62
250
  6
CONTINUOUS
 10
-12.725711
 20
28.698798
 11
-12.725711
 21
25.9012020459
  0
LINE
  5
2B2
100
AcDbEntity
  8
0
100
AcDbLine
 62
250
  6
CONTINUOUS
 10
-11.515116
 20
28.698798
 11
-11.759874
 21
25.901202
  0
LINE
  5
2B3
100
AcDbEntity
  8
0
100
AcDbLine
 62
250
  6
CONTINUOUS
 10
-11.300815
 20
27.151192
 11
-11.378929
 21
26.258342
  0
LINE
  5
2B4
100
AcDbEntity
  8
0
100
AcDbLine
 62
250
  6
CONTINUOUS
 10
-11.269569
 20
27.508332
 11
-11.196663
 21
28.341658
  0
LINE
  5
2B5
100
AcDbEntity
  8
0
100
AcDbLine
 62
250
  6
CONTINUOUS
 10
-9.770827
 20
27.984518
 11
-9.781242
 21
27.865471
  0
LINE
  5
2B6
100
AcDbEntity
  8
0
100
AcDbLine
 62
250
  6
CONTINUOUS
 10
-9.890602
 20
26.615482
 11
-9.87498
 21
26.794052
  0
LINE
  5
2B7
100
AcDbEntity
  8
0
100
AcDbLine
 62
250
  6
CONTINUOUS
 10
-9.436751
 20
27.805948
 11
-9.41592
 21
28.044042
  0
LINE
  5
2B8
100
AcDbEntity
  8
0
100
AcDbLine
 62
250
  6
CONTINUOUS
 10
-9.54611
 20
26.555959
 11
-9.520072
 21
26.853575
  0
LINE
  5
2B9
100
AcDbEntity
  8
0
100
AcDbLine
 62
250
  6
CONTINUOUS
 10
-6.093775
 20
28.044042
 11
-6.178096
 21
27.746425
  0
LINE
  5
2BA
100
AcDbEntity
  8
0
100
AcDbLine
 62
250
  6
CONTINUOUS
 10
-5.828397
 20
27.746425
 11
-5.749283
 21
27.984518
  0
LINE
  5
2BB
100
AcDbEntity
  8
0
100
AcDbLine
 62
250
  6
CONTINUOUS
 10
-4.353694
 20
26.615482
 11
-4.4276
 21
26.436912
  0
LINE
  5
2BC
100
AcDbEntity
  8
0
100
AcDbLine
 62
250
  6
CONTINUOUS
 10
3.89449
 20
27.627378
 11
3.698809
 21
27.389285
  0
LINE
  5
2BD
100
AcDbEntity
  8
0
100
AcDbLine
 62
250
  6
CONTINUOUS
 10
3.549998
 20
27.686902
 11
3.423016
 21
27.567855
  0
LINE
  5
2BE
100
AcDbEntity
  8
0
100
AcDbLine
 62
7
  6
CONTINUOUS
 10
-4.746107
 20
-28.877801
 11
-5.633668
 21
-26.078098
  0
LINE
  5
2BF
100
AcDbEntity
  8
ASSI
100
AcDbLine
 62
7
  6
CONTINUOUS
 10
-4.746107
 20
-28.877801
 11
-5.633668
 21
-26.078098
  0
LINE
  5
2C0
100
AcDbEntity
  8
0
100
AcDbLine
 62
7
  6
CONTINUOUS
 10
-4.465146
 20
-28.00522
 11
-4.99882
 21
-26.078098
  0
LINE
  5
2C1
100
AcDbEntity
  8
ASSI
100
AcDbLine
 62
7
  6
CONTINUOUS
 10
-4.465146
 20
-28.00522
 11
-4.99882
 21
-26.078098
  0
LINE
  5
2C2
100
AcDbEntity
  8
0
100
AcDbLine
 62
250
  6
CONTINUOUS
 10
-6.178096
 20
27.746425
 11
-6.256211
 21
26.853575
  0
LINE
  5
2C3
100
AcDbEntity
  8
0
100
AcDbLine
 62
250
  6
CONTINUOUS
 10
-5.906511
 20
26.853575
 11
-5.828397
 21
27.746425
  0
LINE
  5
2C4
100
AcDbEntity
  8
0
100
AcDbLine
 62
250
  6
CONTINUOUS
 10
-3.355462
 20
28.698798
 11
-3.3815
 21
28.401181
  0
LINE
  5
2C5
100
AcDbEntity
  8
0
100
AcDbLine
 62
250
  6
CONTINUOUS
 10
-4.088316
 20
26.317865
 11
-4.003994
 21
26.615482
  0
LINE
  5
2C6
100
AcDbEntity
  8
0
100
AcDbLine
 62
250
  6
CONTINUOUS
 10
3.623904
 20
27.865471
 11
3.549998
 21
27.686902
  0
LINE
  5
2C7
100
AcDbEntity
  8
0
100
AcDbLine
 62
250
  6
CONTINUOUS
 10
3.968396
 20
27.805948
 11
3.89449
 21
27.627378
  0
LINE
  5
2C8
100
AcDbEntity
  8
0
100
AcDbLine
 62
7
  6
CONTINUOUS
 10
-0.774487
 20
-28.877801
 11
-1.460068
 21
-27.049647
  0
LINE
  5
2C9
100
AcDbEntity
  8
ASSI
100
AcDbLine
 62
7
  6
CONTINUOUS
 10
-0.774487
 20
-28.877801
 11
-1.460068
 21
-27.049647
  0
LINE
  5
2CA
100
AcDbEntity
  8
0
100
AcDbLine
 62
7
  6
CONTINUOUS
 10
-0.730314
 20
-27.632502
 11
-1.30855
 21
-26.078098
  0
LINE
  5
2CB
100
AcDbEntity
  8
ASSI
100
AcDbLine
 62
7
  6
CONTINUOUS
 10
-0.730314
 20
-27.632502
 11
-1.30855
 21
-26.078098
  0
LINE
  5
2CC
100
AcDbEntity
  8
0
100
AcDbLine
 62
250
  6
CONTINUOUS
 10
-18.65395
 20
25.901202
 11
-19.453263
 21
28.698798
  0
LINE
  5
2CD
100
AcDbEntity
  8
0
100
AcDbLine
 62
250
  6
CONTINUOUS
 10
-6.256211
 20
26.853575
 11
-6.223965
 21
26.555959
  0
LINE
  5
2CE
100
AcDbEntity
  8
0
100
AcDbLine
 62
250
  6
CONTINUOUS
 10
-3.884219
 20
27.984518
 11
-3.916464
 21
28.282135
  0
LINE
  5
2CF
100
AcDbEntity
  8
0
100
AcDbLine
 62
7
  6
CONTINUOUS
 10
0.694112
 20
-28.877801
 11
0.432308
 21
-26.078098
  0
LINE
  5
2D0
100
AcDbEntity
  8
ASSI
100
AcDbLine
 62
7
  6
CONTINUOUS
 10
0.694112
 20
-28.877801
 11
0.432308
 21
-26.078098
  0
LINE
  5
2D1
100
AcDbEntity
  8
0
100
AcDbLine
 62
7
  6
CONTINUOUS
 10
0.122406
 20
-28.877801
 11
0.002337
 21
-27.057269
  0
LINE
  5
2D2
100
AcDbEntity
  8
ASSI
100
AcDbLine
 62
7
  6
CONTINUOUS
 10
0.122406
 20
-28.877801
 11
0.002337
 21
-27.057269
  0
LINE
  5
2D3
100
AcDbEntity
  8
0
100
AcDbLine
 62
7
  6
CONTINUOUS
 10
-3.034285
 20
-28.877801
 11
-3.034285
 21
-26.07793
  0
LINE
  5
2D4
100
AcDbEntity
  8
ASSI
100
AcDbLine
 62
7
  6
CONTINUOUS
 10
-3.034285
 20
-28.877801
 11
-3.034285
 21
-26.07793
  0
LINE
  5
2D5
100
AcDbEntity
  8
0
100
AcDbLine
 62
7
  6
CONTINUOUS
 10
-2.449877
 20
-28.877801
 11
-2.449877
 21
-26.07793
  0
LINE
  5
2D6
100
AcDbEntity
  8
ASSI
100
AcDbLine
 62
7
  6
CONTINUOUS
 10
-2.449877
 20
-28.877801
 11
-2.449877
 21
-26.07793
  0
LWPOLYLINE
  5
2D7
100
AcDbEntity
  8
0
100
AcDbPolyline
 62
7
  6
CONTINUOUS
 90
13
 70
0
 43
0.3500000006
 10
0.0
 20
59.6071464844
 10
0.0
 20
60.8928533936
 10
0.2142857063
 20
61.321431427
 10
0.6428571367
 20
61.7500003967
 10
0.8571428254
 20
61.7500003967
 10
1.2857142735
 20
61.321431427
 10
1.5000000329
 20
60.8928533936
 10
1.5000000329
 20
59.6071464844
 10
1.2857142735
 20
59.1785684509
 10
0.8571428254
 20
58.7499994812
 10
0.6428571367
 20
58.7499994812
 10
0.2142857063
 20
59.1785684509
 10
0.0
 20
59.6071464844
  0
LINE
  5
2D8
100
AcDbEntity
  8
0
100
AcDbLine
 62
7
  6
CONTINUOUS
 10
-1.586183
 20
-28.877801
 11
-1.460068
 21
-27.049647
  0
LINE
  5
2D9
100
AcDbEntity
  8
ASSI
100
AcDbLine
 62
7
  6
CONTINUOUS
 10
-1.586183
 20
-28.877801
 11
-1.460068
 21
-27.049647
  0
LINE
  5
2DA
100
AcDbEntity
  8
0
100
AcDbLine
 62
250
  6
CONTINUOUS
 10
-2.448968
 20
28.401181
 11
-2.667688
 21
25.901202
  0
LINE
  5
2DB
100
AcDbEntity
  8
0
100
AcDbLine
 62
250
  6
CONTINUOUS
 10
-2.317988
 20
25.901202
 11
-2.099269
 21
28.401181
  0
LINE
  5
2DC
100
AcDbEntity
  8
0
100
AcDbLine
 62
250
  6
CONTINUOUS
 10
-1.166737
 20
28.401181
 11
-1.140699
 21
28.698798
  0
LINE
  5
2DD
100
AcDbEntity
  8
0
100
AcDbLine
 62
250
  6
CONTINUOUS
 10
-0.674433
 20
28.698798
 11
-0.919191
 21
25.901202
  0
LINE
  5
2DE
100
AcDbEntity
  8
0
100
AcDbLine
 62
250
  6
CONTINUOUS
 10
-0.423678
 20
27.567855
 11
-0.355979
 21
28.341658
  0
LINE
  5
2DF
100
AcDbEntity
  8
0
100
AcDbLine
 62
250
  6
CONTINUOUS
 10
-0.538245
 20
26.258342
 11
-0.454924
 21
27.210715
  0
LINE
  5
2E0
100
AcDbEntity
  8
0
100
AcDbLine
 62
250
  6
CONTINUOUS
 10
1.06044
 20
27.210715
 11
1.091686
 21
27.567855
  0
LINE
  5
2E1
100
AcDbEntity
  8
0
100
AcDbLine
 62
250
  6
CONTINUOUS
 10
1.179006
 20
25.901202
 11
1.210252
 21
26.258342
  0
LINE
  5
2E2
100
AcDbEntity
  8
0
100
AcDbLine
 62
250
  6
CONTINUOUS
 10
1.392519
 20
28.341658
 11
1.423764
 21
28.698798
  0
LINE
  5
2E3
100
AcDbEntity
  8
0
100
AcDbLine
 62
250
  6
CONTINUOUS
 10
1.645272
 20
25.901202
 11
1.89003
 21
28.698798
  0
LINE
  5
2E4
100
AcDbEntity
  8
0
100
AcDbLine
 62
250
  6
CONTINUOUS
 10
2.104331
 20
27.151192
 11
1.994971
 21
25.901202
  0
LINE
  5
2E5
100
AcDbEntity
  8
0
100
AcDbLine
 62
250
  6
CONTINUOUS
 10
2.135577
 20
27.508332
 11
2.213691
 21
28.401181
  0
LINE
  5
2E6
100
AcDbEntity
  8
0
100
AcDbLine
 62
7
  6
CONTINUOUS
 10
-2.145272
 20
-28.877801
 11
-1.892475
 21
-26.078098
  0
LINE
  5
2E7
100
AcDbEntity
  8
ASSI
100
AcDbLine
 62
7
  6
CONTINUOUS
 10
-2.145272
 20
-28.877801
 11
-1.892475
 21
-26.078098
  0
LINE
  5
2E8
100
AcDbEntity
  8
0
100
AcDbLine
 62
250
  6
CONTINUOUS
 10
6.53186
 20
28.460705
 11
5.866705
 21
26.853575
  0
LINE
  5
2E9
100
AcDbEntity
  8
0
100
AcDbLine
 62
250
  6
CONTINUOUS
 10
5.491966
 20
25.901202
 11
5.787591
 21
26.615482
  0
LINE
  5
2EA
100
AcDbEntity
  8
0
100
AcDbLine
 62
250
  6
CONTINUOUS
 10
6.319557
 20
28.698798
 11
5.142267
 21
25.901202
  0
LINE
  5
2EB
100
AcDbEntity
  8
RACCORDO
100
AcDbLine
 62
250
  6
CONTINUOUS
 10
-44.8700585586
 20
-43.8714290238
 11
-45.0
 21
-44.0013704652
  0
LINE
  5
2EC
100
AcDbEntity
  8
ASSI
100
AcDbLine
 62
250
  6
CONTINUOUS
 10
-44.8700585586
 20
-43.8714290238
 11
-45.0
 21
-44.0013704652
  0
LINE
  5
2ED
100
AcDbEntity
  8
RACCORDO
100
AcDbLine
 62
250
  6
CONTINUOUS
 10
43.8781758769
 20
44.8768054117
 11
44.0013704652
 21
45.0
  0
LINE
  5
2EE
100
AcDbEntity
  8
ASSI
100
AcDbLine
 62
250
  6
CONTINUOUS
 10
43.8781758769
 20
44.8768054117
 11
44.0013704652
 21
45.0
  0
LINE
  5
2EF
100
AcDbEntity
  8
0
100
AcDbLine
 62
250
  6
CONTINUOUS
 10
-22.7449737308
 20
-21.8461021525
 11
-22.6
 21
-21.7010963722
  0
LINE
  5
2F0
100
AcDbEntity
  8
ASSI
100
AcDbLine
 62
250
  6
CONTINUOUS
 10
-22.7449737308
 20
-21.8461021525
 11
-22.6
 21
-21.7010963722
  0
LINE
  5
2F1
100
AcDbEntity
  8
0
100
AcDbLine
 62
250
  6
CONTINUOUS
 10
21.9426540141
 20
22.6415492726
 11
21.8010963722
 21
22.5
  0
LINE
  5
2F2
100
AcDbEntity
  8
ASSI
100
AcDbLine
 62
250
  6
CONTINUOUS
 10
21.9426540141
 20
22.6415492726
 11
21.8010963722
 21
22.5
  0
LINE
  5
2F3
100
AcDbEntity
  8
0
100
AcDbLine
 62
250
  6
CONTINUOUS
 10
-21.9426540141
 20
-22.6415492726
 11
-21.8010963722
 21
-22.5
  0
LINE
  5
2F4
100
AcDbEntity
  8
ASSI
100
AcDbLine
 62
250
  6
CONTINUOUS
 10
-21.9426540141
 20
-22.6415492726
 11
-21.8010963722
 21
-22.5
  0
LINE
  5
2F5
100
AcDbEntity
  8
0
100
AcDbLine
 62
250
  6
CONTINUOUS
 10
22.7449737296
 20
21.8461028089
 11
22.6
 21
21.7010963722
  0
LINE
  5
2F6
100
AcDbEntity
  8
ASSI
100
AcDbLine
 62
250
  6
CONTINUOUS
 10
22.7449737296
 20
21.8461028089
 11
22.6
 21
21.7010963722
  0
LINE
  5
2F7
100
AcDbEntity
  8
RACCORDO
100
AcDbLine
 62
250
  6
CONTINUOUS
 10
-43.8781758769
 20
-44.8768054117
 11
-44.0013704652
 21
-45.0
  0
LINE
  5
2F8
100
AcDbEntity
  8
ASSI
100
AcDbLine
 62
250
  6
CONTINUOUS
 10
-43.8781758769
 20
-44.8768054117
 11
-44.0013704652
 21
-45.0
  0
LINE
  5
2F9
100
AcDbEntity
  8
RACCORDO
100
AcDbLine
 62
250
  6
CONTINUOUS
 10
44.8700585586
 20
43.8714290238
 11
45.0
 21
44.0013704652
  0
LINE
  5
2FA
100
AcDbEntity
  8
ASSI
100
AcDbLine
 62
250
  6
CONTINUOUS
 10
44.8700585586
 20
43.8714290238
 11
45.0
 21
44.0013704652
  0
LWPOLYLINE
  5
2FB
100
AcDbEntity
  8
0
100
AcDbPolyline
 62
7
  6
CONTINUOUS
 90
13
 70
0
 43
0.3500000006
 10
58.8986221619
 20
-0.0000003204
 10
57.612906189
 20
-0.0000003204
 10
57.1843372192
 20
0.2142864304
 10
56.7557637177
 20
0.642857666
 10
56.7557637177
 20
0.8571421509
 10
57.1843372192
 20
1.2857133865
 10
57.612906189
 20
1.5000001373
 10
58.8986221619
 20
1.5000001373
 10
59.3271911316
 20
1.2857133865
 10
59.7557646332
 20
0.8571421509
 10
59.7557646332
 20
0.642857666
 10
59.3271911316
 20
0.2142864304
 10
58.8986221619
 20
-0.0000003204
  0
LINE
  5
2FC
100
AcDbEntity
  8
0
100
AcDbLine
 62
250
  6
CONTINUOUS
 10
21.9426840308
 20
-22.6415492726
 11
21.8010963722
 21
-22.5
  0
LINE
  5
2FD
100
AcDbEntity
  8
ASSI
100
AcDbLine
 62
250
  6
CONTINUOUS
 10
21.9426840308
 20
-22.6415492726
 11
21.8010963722
 21
-22.5
  0
LINE
  5
2FE
100
AcDbEntity
  8
0
100
AcDbLine
 62
250
  6
CONTINUOUS
 10
-21.9426840308
 20
22.6415492726
 11
-21.8010963722
 21
22.5
  0
LINE
  5
2FF
100
AcDbEntity
  8
ASSI
100
AcDbLine
 62
250
  6
CONTINUOUS
 10
-21.9426840308
 20
22.6415492726
 11
-21.8010963722
 21
22.5
  0
LINE
  5
300
100
AcDbEntity
  8
RACCORDO
100
AcDbLine
 62
250
  6
CONTINUOUS
 10
43.8781758769
 20
-44.8768054117
 11
44.0013704652
 21
-45.0
  0
LINE
  5
301
100
AcDbEntity
  8
ASSI
100
AcDbLine
 62
250
  6
CONTINUOUS
 10
43.8781758769
 20
-44.8768054117
 11
44.0013704652
 21
-45.0
  0
LINE
  5
302
100
AcDbEntity
  8
RACCORDO
100
AcDbLine
 62
250
  6
CONTINUOUS
 10
-44.8700585586
 20
43.8714290238
 11
-45.0
 21
44.0013704652
  0
LINE
  5
303
100
AcDbEntity
  8
ASSI
100
AcDbLine
 62
250
  6
CONTINUOUS
 10
-44.8700585586
 20
43.8714290238
 11
-45.0
 21
44.0013704652
  0
LINE
  5
304
100
AcDbEntity
  8
0
100
AcDbLine
 62
250
  6
CONTINUOUS
 10
-22.7449737716
 20
21.8460808361
 11
-22.6
 21
21.7010963722
  0
LINE
  5
305
100
AcDbEntity
  8
ASSI
100
AcDbLine
 62
250
  6
CONTINUOUS
 10
-22.7449737716
 20
21.8460808361
 11
-22.6
 21
21.7010963722
  0
LINE
  5
306
100
AcDbEntity
  8
0
100
AcDbLine
 62
250
  6
CONTINUOUS
 10
22.7449737709
 20
-21.8460811902
 11
22.6
 21
-21.7010963722
  0
LINE
  5
307
100
AcDbEntity
  8
ASSI
100
AcDbLine
 62
250
  6
CONTINUOUS
 10
22.7449737709
 20
-21.8460811902
 11
22.6
 21
-21.7010963722
  0
LINE
  5
308
100
AcDbEntity
  8
RACCORDO
100
AcDbLine
 62
250
  6
CONTINUOUS
 10
44.8700585586
 20
-43.8714290238
 11
45.0
 21
-44.0013704652
  0
LINE
  5
309
100
AcDbEntity
  8
ASSI
100
AcDbLine
 62
250
  6
CONTINUOUS
 10
44.8700585586
 20
-43.8714290238
 11
45.0
 21
-44.0013704652
  0
LINE
  5
30A
100
AcDbEntity
  8
RACCORDO
100
AcDbLine
 62
250
  6
CONTINUOUS
 10
-43.8781758769
 20
44.8768054117
 11
-44.0013704652
 21
45.0
  0
LINE
  5
30B
100
AcDbEntity
  8
ASSI
100
AcDbLine
 62
250
  6
CONTINUOUS
 10
-43.8781758769
 20
44.8768054117
 11
-44.0013704652
 21
45.0
  0
LINE
  5
30C
100
AcDbEntity
  8
0
100
AcDbLine
 62
250
  6
CONTINUOUS
 10
-16.455839
 20
25.901202
 11
-17.854637
 21
28.698798
  0
LINE
  5
30D
100
AcDbEntity
  8
0
100
AcDbLine
 62
7
  6
CONTINUOUS
 10
3.298408
 20
-28.877801
 11
2.43939
 21
-26.078098
  0
LINE
  5
30E
100
AcDbEntity
  8
ASSI
100
AcDbLine
 62
7
  6
CONTINUOUS
 10
3.298408
 20
-28.877801
 11
2.43939
 21
-26.078098
  0
LINE
  5
30F
100
AcDbEntity
  8
0
100
AcDbLine
 62
7
  6
CONTINUOUS
 10
2.682466
 20
-28.877801
 11
2.531074
 21
-28.318881
  0
LINE
  5
310
100
AcDbEntity
  8
ASSI
100
AcDbLine
 62
7
  6
CONTINUOUS
 10
2.682466
 20
-28.877801
 11
2.531074
 21
-28.318881
  0
LINE
  5
311
100
AcDbEntity
  8
0
100
AcDbLine
 62
7
  6
CONTINUOUS
 10
2.41428
 20
-27.886391
 11
2.145737
 21
-26.847385
  0
LINE
  5
312
100
AcDbEntity
  8
ASSI
100
AcDbLine
 62
7
  6
CONTINUOUS
 10
2.41428
 20
-27.886391
 11
2.145737
 21
-26.847385
  0
LINE
  5
313
100
AcDbEntity
  8
0
100
AcDbLine
 62
250
  6
CONTINUOUS
 10
-6.805798
 20
25.901202
 11
-7.493572
 21
28.698798
  0
LINE
  5
314
100
AcDbEntity
  8
0
100
AcDbLine
 62
250
  6
CONTINUOUS
 10
-9.87498
 20
26.794052
 11
-9.91764
 21
26.972622
  0
LINE
  5
315
100
AcDbEntity
  8
0
100
AcDbLine
 62
250
  6
CONTINUOUS
 10
-9.520072
 20
26.853575
 11
-9.562733
 21
27.032145
  0
LINE
  5
316
100
AcDbEntity
  8
0
100
AcDbLine
 62
250
  6
CONTINUOUS
 10
-9.813488
 20
28.163088
 11
-9.770827
 21
27.984518
  0
LINE
  5
317
100
AcDbEntity
  8
0
100
AcDbLine
 62
250
  6
CONTINUOUS
 10
-9.41592
 20
28.044042
 11
-9.45858
 21
28.222611
  0
LINE
  5
318
100
AcDbEntity
  8
0
100
AcDbLine
 62
250
  6
CONTINUOUS
 10
-7.326139
 20
26.615482
 11
-7.155498
 21
25.901202
  0
LINE
  5
319
100
AcDbEntity
  8
0
100
AcDbLine
 62
250
  6
CONTINUOUS
 10
-7.363592
 20
26.853575
 11
-7.747536
 21
28.460705
  0
LINE
  5
31A
100
AcDbEntity
  8
0
100
AcDbLine
 62
250
  6
CONTINUOUS
 10
-5.869059
 20
26.615482
 11
-5.906511
 21
26.853575
  0
LINE
  5
31B
100
AcDbEntity
  8
0
100
AcDbLine
 62
7
  6
CONTINUOUS
 10
3.6000188023
 20
-28.8778013544
 11
3.6000188023
 21
-26.110807341
  0
LINE
  5
31C
100
AcDbEntity
  8
ASSI
100
AcDbLine
 62
7
  6
CONTINUOUS
 10
3.6000188023
 20
-28.8778013544
 11
3.6000188023
 21
-26.110807341
  0
LINE
  5
31D
100
AcDbEntity
  8
0
100
AcDbLine
 62
7
  6
CONTINUOUS
 10
4.1626972541
 20
-27.3236280866
 11
4.1626972541
 21
-26.5550547959
  0
LINE
  5
31E
100
AcDbEntity
  8
ASSI
100
AcDbLine
 62
7
  6
CONTINUOUS
 10
4.1626972541
 20
-27.3236280866
 11
4.1626972541
 21
-26.5550547959
  0
LINE
  5
31F
100
AcDbEntity
  8
0
100
AcDbLine
 62
7
  6
CONTINUOUS
 10
4.1820753449
 20
-28.8778013544
 11
4.1820753449
 21
-27.7821519248
  0
LINE
  5
320
100
AcDbEntity
  8
ASSI
100
AcDbLine
 62
7
  6
CONTINUOUS
 10
4.1820753449
 20
-28.8778013544
 11
4.1820753449
 21
-27.7821519248
  0
LINE
  5
321
100
AcDbEntity
  8
0
100
AcDbLine
 62
7
  6
CONTINUOUS
 10
5.1025031649
 20
-27.5709244369
 11
5.1025031649
 21
-27.554380628
  0
LINE
  5
322
100
AcDbEntity
  8
ASSI
100
AcDbLine
 62
7
  6
CONTINUOUS
 10
5.1025031649
 20
-27.5709244369
 11
5.1025031649
 21
-27.554380628
  0
LINE
  5
323
100
AcDbEntity
  8
0
100
AcDbLine
 62
250
  6
CONTINUOUS
 10
3.639527
 20
28.044042
 11
3.623904
 21
27.865471
  0
LINE
  5
324
100
AcDbEntity
  8
0
100
AcDbLine
 62
250
  6
CONTINUOUS
 10
3.989227
 20
28.044042
 11
3.968396
 21
27.805948
  0
LINE
  5
325
100
AcDbEntity
  8
0
100
AcDbLine
 62
250
  6
CONTINUOUS
 10
4.57106
 20
28.698798
 11
4.326302
 21
25.901202
  0
LINE
  5
326
100
AcDbEntity
  8
0
100
AcDbLine
 62
250
  6
CONTINUOUS
 10
4.676001
 20
25.901202
 11
4.920759
 21
28.698798
  0
LINE
  5
327
100
AcDbEntity
  8
0
100
AcDbLine
 62
250
  6
CONTINUOUS
 10
8.18462
 20
28.698798
 11
7.939862
 21
25.901202
  0
LINE
  5
328
100
AcDbEntity
  8
0
100
AcDbLine
 62
250
  6
CONTINUOUS
 10
8.320808
 20
26.258342
 11
8.53432
 21
28.698798
  0
LINE
  5
329
100
AcDbEntity
  8
0
100
AcDbLine
 62
7
  6
CONTINUOUS
 10
-4.465146
 20
-28.00522
 11
-3.915169
 21
-26.078098
  0
LINE
  5
32A
100
AcDbEntity
  8
ASSI
100
AcDbLine
 62
7
  6
CONTINUOUS
 10
-4.465146
 20
-28.00522
 11
-3.915169
 21
-26.078098
  0
LINE
  5
32B
100
AcDbEntity
  8
0
100
AcDbLine
 62
7
  6
CONTINUOUS
 10
-4.231097
 20
-28.877801
 11
-3.33116
 21
-26.078098
  0
LINE
  5
32C
100
AcDbEntity
  8
ASSI
100
AcDbLine
 62
7
  6
CONTINUOUS
 10
-4.231097
 20
-28.877801
 11
-3.33116
 21
-26.078098
  0
LINE
  5
32D
100
AcDbEntity
  8
0
100
AcDbLine
 62
250
  6
CONTINUOUS
 10
-9.562733
 20
27.032145
 11
-9.716752
 21
27.270238
  0
LINE
  5
32E
100
AcDbEntity
  8
0
100
AcDbLine
 62
250
  6
CONTINUOUS
 10
-6.223965
 20
26.555959
 11
-6.128229
 21
26.317865
  0
LINE
  5
32F
100
AcDbEntity
  8
0
100
AcDbLine
 62
250
  6
CONTINUOUS
 10
-4.276579
 20
28.163088
 11
-4.233919
 21
27.984518
  0
LINE
  5
330
100
AcDbEntity
  8
0
100
AcDbLine
 62
250
  6
CONTINUOUS
 10
10.038059
 20
25.901202
 11
10.069305
 21
26.258342
  0
LINE
  5
331
100
AcDbEntity
  8
0
100
AcDbLine
 62
7
  6
CONTINUOUS
 10
1.854751
 20
-27.886391
 11
2.145737
 21
-26.847385
  0
LINE
  5
332
100
AcDbEntity
  8
ASSI
100
AcDbLine
 62
7
  6
CONTINUOUS
 10
1.854751
 20
-27.886391
 11
2.145737
 21
-26.847385
  0
LINE
  5
333
100
AcDbEntity
  8
0
100
AcDbLine
 62
7
  6
CONTINUOUS
 10
1.573947
 20
-28.877801
 11
1.735207
 21
-28.318881
  0
LINE
  5
334
100
AcDbEntity
  8
ASSI
100
AcDbLine
 62
7
  6
CONTINUOUS
 10
1.573947
 20
-28.877801
 11
1.735207
 21
-28.318881
  0
LINE
  5
335
100
AcDbEntity
  8
0
100
AcDbLine
 62
7
  6
CONTINUOUS
 10
0.99588
 20
-28.877801
 11
1.874045
 21
-26.078098
  0
LINE
  5
336
100
AcDbEntity
  8
ASSI
100
AcDbLine
 62
7
  6
CONTINUOUS
 10
0.99588
 20
-28.877801
 11
1.874045
 21
-26.078098
  0
LINE
  5
337
100
AcDbEntity
  8
0
100
AcDbLine
 62
7
  6
CONTINUOUS
 10
-0.730314
 20
-27.632502
 11
-0.145906
 21
-26.078098
  0
LINE
  5
338
100
AcDbEntity
  8
ASSI
100
AcDbLine
 62
7
  6
CONTINUOUS
 10
-0.730314
 20
-27.632502
 11
-0.145906
 21
-26.078098
  0
LINE
  5
339
100
AcDbEntity
  8
0
100
AcDbLine
 62
7
  6
CONTINUOUS
 10
-0.692524
 20
-28.877801
 11
0.002337
 21
-27.057269
  0
LINE
  5
33A
100
AcDbEntity
  8
ASSI
100
AcDbLine
 62
7
  6
CONTINUOUS
 10
-0.692524
 20
-28.877801
 11
0.002337
 21
-27.057269
  0
LINE
  5
33B
100
AcDbEntity
  8
0
100
AcDbLine
 62
250
  6
CONTINUOUS
 10
-9.91764
 20
26.972622
 11
-10.023791
 21
27.091668
  0
LINE
  5
33C
100
AcDbEntity
  8
0
100
AcDbLine
 62
250
  6
CONTINUOUS
 10
-9.919639
 20
28.282135
 11
-9.813488
 21
28.163088
  0
LINE
  5
33D
100
AcDbEntity
  8
0
100
AcDbLine
 62
250
  6
CONTINUOUS
 10
-6.128229
 20
26.317865
 11
-5.915927
 21
26.079772
  0
LINE
  5
33E
100
AcDbEntity
  8
0
100
AcDbLine
 62
250
  6
CONTINUOUS
 10
-9.45858
 20
28.222611
 11
-9.6126
 21
28.460705
  0
LINE
  5
33F
100
AcDbEntity
  8
0
100
AcDbLine
 62
250
  6
CONTINUOUS
 10
-5.768115
 20
26.436912
 11
-5.869059
 21
26.615482
  0
LINE
  5
340
100
AcDbEntity
  8
0
100
AcDbLine
 62
250
  6
CONTINUOUS
 10
3.455262
 20
27.270238
 11
3.860036
 21
25.901202
  0
LINE
  5
341
100
AcDbEntity
  8
0
100
AcDbLine
 62
250
  6
CONTINUOUS
 10
3.452053
 20
25.901202
 11
3.095147
 21
27.151192
  0
LINE
  5
342
100
AcDbEntity
  8
0
100
AcDbLine
 62
250
  6
CONTINUOUS
 10
3.596866
 20
28.222611
 11
3.639527
 21
28.044042
  0
LINE
  5
343
100
AcDbEntity
  8
0
100
AcDbLine
 62
250
  6
CONTINUOUS
 10
3.946566
 20
28.222611
 11
3.989227
 21
28.044042
  0
LINE
  5
344
100
AcDbEntity
  8
0
100
AcDbLine
 62
250
  6
CONTINUOUS
 10
6.953255
 20
26.615482
 11
7.123897
 21
25.901202
  0
LINE
  5
345
100
AcDbEntity
  8
0
100
AcDbLine
 62
250
  6
CONTINUOUS
 10
6.915803
 20
26.853575
 11
6.53186
 21
28.460705
  0
LINE
  5
346
100
AcDbEntity
  8
0
100
AcDbLine
 62
250
  6
CONTINUOUS
 10
-9.716752
 20
27.270238
 11
-9.828111
 21
27.329762
  0
LINE
  5
347
100
AcDbEntity
  8
0
100
AcDbLine
 62
250
  6
CONTINUOUS
 10
-5.60368
 20
26.317865
 11
-5.768115
 21
26.436912
  0
LINE
  5
348
100
AcDbEntity
  8
0
100
AcDbLine
 62
250
  6
CONTINUOUS
 10
-9.6126
 20
28.460705
 11
-9.83011
 21
28.639275
  0
LINE
  5
349
100
AcDbEntity
  8
0
100
AcDbLine
 62
250
  6
CONTINUOUS
 10
-3.916464
 20
28.282135
 11
-4.128767
 21
28.520228
  0
LINE
  5
34A
100
AcDbEntity
  8
0
100
AcDbLine
 62
250
  6
CONTINUOUS
 10
3.792546
 20
28.460705
 11
3.946566
 21
28.222611
  0
LINE
  5
34B
100
AcDbEntity
  8
0
100
AcDbLine
 62
250
  6
CONTINUOUS
 10
7.473597
 20
25.901202
 11
6.785822
 21
28.698798
  0
LINE
  5
34C
100
AcDbEntity
  8
RACCORDO
100
AcDbLine
 62
250
  6
CONTINUOUS
 10
21.9426456448
 20
23.1675430277
 11
21.9426456448
 21
22.6415492726
  0
LINE
  5
34D
100
AcDbEntity
  8
ASSI
100
AcDbLine
 62
250
  6
CONTINUOUS
 10
21.9426456448
 20
23.1675430277
 11
21.9426456448
 21
22.6415492726
  0
LINE
  5
34E
100
AcDbEntity
  8
RACCORDO
100
AcDbLine
 62
250
  6
CONTINUOUS
 10
21.9426456448
 20
-23.1675430277
 11
21.9426456448
 21
-22.6415492726
  0
LINE
  5
34F
100
AcDbEntity
  8
ASSI
100
AcDbLine
 62
250
  6
CONTINUOUS
 10
21.9426456448
 20
-23.1675430277
 11
21.9426456448
 21
-22.6415492726
  0
LINE
  5
350
100
AcDbEntity
  8
0
100
AcDbLine
 62
7
  6
CONTINUOUS
 10
22.6
 20
21.7010963722
 11
22.6
 21
-21.7010963722
  0
LINE
  5
351
100
AcDbEntity
  8
ASSI
100
AcDbLine
 62
7
  6
CONTINUOUS
 10
22.6
 20
21.7010963722
 11
22.6
 21
-21.7010963722
  0
LINE
  5
352
100
AcDbEntity
  8
0
100
AcDbLine
 62
7
  6
CONTINUOUS
 10
-21.8010963722
 20
22.5
 11
21.8010963722
 21
22.5
  0
LINE
  5
353
100
AcDbEntity
  8
ASSI
100
AcDbLine
 62
7
  6
CONTINUOUS
 10
-21.8010963722
 20
22.5
 11
21.8010963722
 21
22.5
  0
LINE
  5
354
100
AcDbEntity
  8
RACCORDO
100
AcDbLine
 62
250
  6
CONTINUOUS
 10
-21.9426840308
 20
22.6415492726
 11
21.9426540141
 21
22.6415492726
  0
LINE
  5
355
100
AcDbEntity
  8
ASSI
100
AcDbLine
 62
250
  6
CONTINUOUS
 10
-21.9426840308
 20
22.6415492726
 11
21.9426540141
 21
22.6415492726
  0
LINE
  5
356
100
AcDbEntity
  8
RACCORDO
100
AcDbLine
 62
250
  6
CONTINUOUS
 10
-44.4427701042
 20
22.6676474049
 11
-22.9679615936
 21
22.6677048937
  0
LINE
  5
357
100
AcDbEntity
  8
ASSI
100
AcDbLine
 62
250
  6
CONTINUOUS
 10
-44.4427701042
 20
22.6676474049
 11
-22.9679615936
 21
22.6677048937
  0
LINE
  5
358
100
AcDbEntity
  8
RACCORDO
100
AcDbLine
 62
250
  6
CONTINUOUS
 10
22.9679615936
 20
22.6677048937
 11
44.4427701039
 21
22.667647257
  0
LINE
  5
359
100
AcDbEntity
  8
ASSI
100
AcDbLine
 62
250
  6
CONTINUOUS
 10
22.9679615936
 20
22.6677048937
 11
44.4427701039
 21
22.667647257
  0
LINE
  5
35A
100
AcDbEntity
  8
RACCORDO
100
AcDbLine
 62
250
  6
CONTINUOUS
 10
-21.9426456448
 20
23.1675430277
 11
21.9426456448
 21
23.1675430277
  0
LINE
  5
35B
100
AcDbEntity
  8
ASSI
100
AcDbLine
 62
250
  6
CONTINUOUS
 10
-21.9426456448
 20
23.1675430277
 11
21.9426456448
 21
23.1675430277
  0
LINE
  5
35C
100
AcDbEntity
  8
0
100
AcDbLine
 62
250
  6
CONTINUOUS
 10
-24.09927
 20
25.301717
 11
-22.40073
 21
25.301717
  0
LINE
  5
35D
100
AcDbEntity
  8
0
100
AcDbLine
 62
250
  6
CONTINUOUS
 10
-23.999356
 20
25.401631
 11
-22.500644
 21
25.401631
  0
LINE
  5
35E
100
AcDbEntity
  8
0
100
AcDbLine
 62
250
  6
CONTINUOUS
 10
-23.899442
 20
25.501546
 11
-22.600558
 21
25.501546
  0
LINE
  5
35F
100
AcDbEntity
  8
0
100
AcDbLine
 62
250
  6
CONTINUOUS
 10
-11.759874
 20
25.901202
 11
-10.361076
 21
25.901202
  0
LINE
  5
360
100
AcDbEntity
  8
0
100
AcDbLine
 62
250
  6
CONTINUOUS
 10
-9.137128
 20
25.901202
 11
-8.787429
 21
25.901202
  0
LINE
  5
361
100
AcDbEntity
  8
0
100
AcDbLine
 62
250
  6
CONTINUOUS
 10
-7.155498
 20
25.901202
 11
-6.805798
 21
25.901202
  0
LINE
  5
362
100
AcDbEntity
  8
0
100
AcDbLine
 62
250
  6
CONTINUOUS
 10
-5.407001
 20
25.901202
 11
-4.882451
 21
25.901202
  0
LINE
  5
363
100
AcDbEntity
  8
0
100
AcDbLine
 62
250
  6
CONTINUOUS
 10
3.860036
 20
25.901202
 11
3.452053
 21
25.901202
  0
LINE
  5
364
100
AcDbEntity
  8
0
100
AcDbLine
 62
250
  6
CONTINUOUS
 10
-2.667688
 20
25.901202
 11
-2.317988
 21
25.901202
  0
LINE
  5
365
100
AcDbEntity
  8
0
100
AcDbLine
 62
250
  6
CONTINUOUS
 10
1.994971
 20
25.901202
 11
1.645272
 21
25.901202
  0
LINE
  5
366
100
AcDbEntity
  8
0
100
AcDbLine
 62
250
  6
CONTINUOUS
 10
-0.919191
 20
25.901202
 11
1.179006
 21
25.901202
  0
LINE
  5
367
100
AcDbEntity
  8
0
100
AcDbLine
 62
250
  6
CONTINUOUS
 10
4.326302
 20
25.901202
 11
4.676001
 21
25.901202
  0
LINE
  5
368
100
AcDbEntity
  8
0
100
AcDbLine
 62
250
  6
CONTINUOUS
 10
5.142267
 20
25.901202
 11
5.491966
 21
25.901202
  0
LINE
  5
369
100
AcDbEntity
  8
0
100
AcDbLine
 62
250
  6
CONTINUOUS
 10
7.123897
 20
25.901202
 11
7.473597
 21
25.901202
  0
LINE
  5
36A
100
AcDbEntity
  8
0
100
AcDbLine
 62
250
  6
CONTINUOUS
 10
7.939862
 20
25.901202
 11
10.038059
 21
25.901202
  0
LINE
  5
36B
100
AcDbEntity
  8
0
100
AcDbLine
 62
250
  6
CONTINUOUS
 10
-5.693209
 20
25.960725
 11
-5.407001
 21
25.901202
  0
LINE
  5
36C
100
AcDbEntity
  8
0
100
AcDbLine
 62
250
  6
CONTINUOUS
 10
-5.375755
 20
26.258342
 11
-5.60368
 21
26.317865
  0
LINE
  5
36D
100
AcDbEntity
  8
0
100
AcDbLine
 62
250
  6
CONTINUOUS
 10
-10.023791
 20
27.091668
 11
-10.193433
 21
27.151192
  0
LINE
  5
36E
100
AcDbEntity
  8
0
100
AcDbLine
 62
250
  6
CONTINUOUS
 10
-10.089281
 20
28.341658
 11
-9.919639
 21
28.282135
  0
LINE
  5
36F
100
AcDbEntity
  8
0
100
AcDbLine
 62
250
  6
CONTINUOUS
 10
-5.915927
 20
26.079772
 11
-5.693209
 21
25.960725
  0
LINE
  5
370
100
AcDbEntity
  8
0
100
AcDbLine
 62
250
  6
CONTINUOUS
 10
-4.128767
 20
28.520228
 11
-4.351485
 21
28.639275
  0
LINE
  5
371
100
AcDbEntity
  8
0
100
AcDbLine
 62
250
  6
CONTINUOUS
 10
-4.441013
 20
28.282135
 11
-4.276579
 21
28.163088
  0
LINE
  5
372
100
AcDbEntity
  8
0
100
AcDbLine
 62
250
  6
CONTINUOUS
 10
3.575037
 20
28.639275
 11
3.792546
 21
28.460705
  0
LINE
  5
373
100
AcDbEntity
  8
0
100
AcDbLine
 62
250
  6
CONTINUOUS
 10
3.490715
 20
28.341658
 11
3.596866
 21
28.222611
  0
LINE
  5
374
100
AcDbEntity
  8
0
100
AcDbLine
 62
250
  6
CONTINUOUS
 10
-4.612865
 20
26.317865
 11
-4.851206
 21
26.258342
  0
LINE
  5
375
100
AcDbEntity
  8
0
100
AcDbLine
 62
250
  6
CONTINUOUS
 10
-5.431829
 20
28.282135
 11
-5.193488
 21
28.341658
  0
LINE
  5
376
100
AcDbEntity
  8
0
100
AcDbLine
 62
250
  6
CONTINUOUS
 10
-4.882451
 20
25.901202
 11
-4.585827
 21
25.960725
  0
LINE
  5
377
100
AcDbEntity
  8
0
100
AcDbLine
 62
250
  6
CONTINUOUS
 10
-10.361076
 20
25.901202
 11
-10.064453
 21
25.960725
  0
LINE
  5
378
100
AcDbEntity
  8
0
100
AcDbLine
 62
250
  6
CONTINUOUS
 10
-5.162243
 20
28.698798
 11
-5.458866
 21
28.639275
  0
LINE
  5
379
100
AcDbEntity
  8
0
100
AcDbLine
 62
250
  6
CONTINUOUS
 10
-11.378929
 20
26.258342
 11
-10.271548
 21
26.258342
  0
LINE
  5
37A
100
AcDbEntity
  8
0
100
AcDbLine
 62
250
  6
CONTINUOUS
 10
10.069305
 20
26.258342
 11
8.320808
 21
26.258342
  0
LINE
  5
37B
100
AcDbEntity
  8
0
100
AcDbLine
 62
250
  6
CONTINUOUS
 10
1.210252
 20
26.258342
 11
-0.538245
 21
26.258342
  0
LINE
  5
37C
100
AcDbEntity
  8
0
100
AcDbLine
 62
250
  6
CONTINUOUS
 10
-4.851206
 20
26.258342
 11
-5.375755
 21
26.258342
  0
LINE
  5
37D
100
AcDbEntity
  8
0
100
AcDbLine
 62
250
  6
CONTINUOUS
 10
-25.248283
 20
26.45073
 11
-24.09927
 21
26.45073
  0
LINE
  5
37E
100
AcDbEntity
  8
0
100
AcDbLine
 62
250
  6
CONTINUOUS
 10
-22.40073
 20
26.45073
 11
-21.251717
 21
26.45073
  0
LINE
  5
37F
100
AcDbEntity
  8
0
100
AcDbLine
 62
250
  6
CONTINUOUS
 10
-25.148369
 20
26.550644
 11
-23.999356
 21
26.550644
  0
LINE
  5
380
100
AcDbEntity
  8
0
100
AcDbLine
 62
250
  6
CONTINUOUS
 10
-22.500644
 20
26.550644
 11
-21.351631
 21
26.550644
  0
LINE
  5
381
100
AcDbEntity
  8
0
100
AcDbLine
 62
250
  6
CONTINUOUS
 10
-8.491804
 20
26.615482
 11
-7.326139
 21
26.615482
  0
LINE
  5
382
100
AcDbEntity
  8
0
100
AcDbLine
 62
250
  6
CONTINUOUS
 10
-4.003994
 20
26.615482
 11
-4.353694
 21
26.615482
  0
LINE
  5
383
100
AcDbEntity
  8
0
100
AcDbLine
 62
250
  6
CONTINUOUS
 10
5.787591
 20
26.615482
 11
6.953255
 21
26.615482
  0
LINE
  5
384
100
AcDbEntity
  8
0
100
AcDbLine
 62
250
  6
CONTINUOUS
 10
-25.048454
 20
26.650558
 11
-23.899442
 21
26.650558
  0
LINE
  5
385
100
AcDbEntity
  8
0
100
AcDbLine
 62
250
  6
CONTINUOUS
 10
-22.600558
 20
26.650558
 11
-21.451546
 21
26.650558
  0
LINE
  5
386
100
AcDbEntity
  8
0
100
AcDbLine
 62
250
  6
CONTINUOUS
 10
-18.920387
 20
26.700515
 11
-19.986138
 21
26.700515
  0
LINE
  5
387
100
AcDbEntity
  8
0
100
AcDbLine
 62
250
  6
CONTINUOUS
 10
-8.412691
 20
26.853575
 11
-7.363592
 21
26.853575
  0
LINE
  5
388
100
AcDbEntity
  8
0
100
AcDbLine
 62
250
  6
CONTINUOUS
 10
5.866705
 20
26.853575
 11
6.915803
 21
26.853575
  0
LINE
  5
389
100
AcDbEntity
  8
0
100
AcDbLine
 62
250
  6
CONTINUOUS
 10
3.095147
 20
27.151192
 11
2.104331
 21
27.151192
  0
LINE
  5
38A
100
AcDbEntity
  8
0
100
AcDbLine
 62
250
  6
CONTINUOUS
 10
-10.193433
 20
27.151192
 11
-11.300815
 21
27.151192
  0
LINE
  5
38B
100
AcDbEntity
  8
0
100
AcDbLine
 62
250
  6
CONTINUOUS
 10
-0.454924
 20
27.210715
 11
1.06044
 21
27.210715
  0
LINE
  5
38C
100
AcDbEntity
  8
0
100
AcDbLine
 62
250
  6
CONTINUOUS
 10
3.242959
 20
27.508332
 11
2.135577
 21
27.508332
  0
LINE
  5
38D
100
AcDbEntity
  8
0
100
AcDbLine
 62
250
  6
CONTINUOUS
 10
-10.162188
 20
27.508332
 11
-11.269569
 21
27.508332
  0
LINE
  5
38E
100
AcDbEntity
  8
0
100
AcDbLine
 62
250
  6
CONTINUOUS
 10
1.091686
 20
27.567855
 11
-0.423678
 21
27.567855
  0
LINE
  5
38F
100
AcDbEntity
  8
0
100
AcDbLine
 62
250
  6
CONTINUOUS
 10
-21.451546
 20
27.949442
 11
-22.600558
 21
27.949442
  0
LINE
  5
390
100
AcDbEntity
  8
0
100
AcDbLine
 62
250
  6
CONTINUOUS
 10
-23.899442
 20
27.949442
 11
-25.048454
 21
27.949442
  0
LINE
  5
391
100
AcDbEntity
  8
0
100
AcDbLine
 62
250
  6
CONTINUOUS
 10
-4.233919
 20
27.984518
 11
-3.884219
 21
27.984518
  0
LINE
  5
392
100
AcDbEntity
  8
0
100
AcDbLine
 62
250
  6
CONTINUOUS
 10
-21.351631
 20
28.049356
 11
-22.500644
 21
28.049356
  0
LINE
  5
393
100
AcDbEntity
  8
0
100
AcDbLine
 62
250
  6
CONTINUOUS
 10
-23.999356
 20
28.049356
 11
-25.148369
 21
28.049356
  0
LINE
  5
394
100
AcDbEntity
  8
0
100
AcDbLine
 62
250
  6
CONTINUOUS
 10
-21.251717
 20
28.14927
 11
-22.40073
 21
28.14927
  0
LINE
  5
395
100
AcDbEntity
  8
0
100
AcDbLine
 62
250
  6
CONTINUOUS
 10
-24.09927
 20
28.14927
 11
-25.248283
 21
28.14927
  0
LINE
  5
396
100
AcDbEntity
  8
0
100
AcDbLine
 62
250
  6
CONTINUOUS
 10
-11.196663
 20
28.341658
 11
-10.089281
 21
28.341658
  0
LINE
  5
397
100
AcDbEntity
  8
0
100
AcDbLine
 62
250
  6
CONTINUOUS
 10
-5.193488
 20
28.341658
 11
-4.668939
 21
28.341658
  0
LINE
  5
398
100
AcDbEntity
  8
0
100
AcDbLine
 62
250
  6
CONTINUOUS
 10
-0.355979
 20
28.341658
 11
1.392519
 21
28.341658
  0
LINE
  5
399
100
AcDbEntity
  8
0
100
AcDbLine
 62
250
  6
CONTINUOUS
 10
-3.3815
 20
28.401181
 11
-2.448968
 21
28.401181
  0
LINE
  5
39A
100
AcDbEntity
  8
0
100
AcDbLine
 62
250
  6
CONTINUOUS
 10
-2.099269
 20
28.401181
 11
-1.166737
 21
28.401181
  0
LINE
  5
39B
100
AcDbEntity
  8
0
100
AcDbLine
 62
250
  6
CONTINUOUS
 10
2.213691
 20
28.401181
 11
3.321073
 21
28.401181
  0
LINE
  5
39C
100
AcDbEntity
  8
0
100
AcDbLine
 62
250
  6
CONTINUOUS
 10
8.53432
 20
28.698798
 11
8.18462
 21
28.698798
  0
LINE
  5
39D
100
AcDbEntity
  8
0
100
AcDbLine
 62
250
  6
CONTINUOUS
 10
6.785822
 20
28.698798
 11
6.319557
 21
28.698798
  0
LINE
  5
39E
100
AcDbEntity
  8
0
100
AcDbLine
 62
250
  6
CONTINUOUS
 10
4.920759
 20
28.698798
 11
4.57106
 21
28.698798
  0
LINE
  5
39F
100
AcDbEntity
  8
0
100
AcDbLine
 62
250
  6
CONTINUOUS
 10
1.423764
 20
28.698798
 11
-0.674433
 21
28.698798
  0
LINE
  5
3A0
100
AcDbEntity
  8
0
100
AcDbLine
 62
250
  6
CONTINUOUS
 10
1.89003
 20
28.698798
 11
3.288828
 21
28.698798
  0
LINE
  5
3A1
100
AcDbEntity
  8
0
100
AcDbLine
 62
250
  6
CONTINUOUS
 10
-1.140699
 20
28.698798
 11
-3.355462
 21
28.698798
  0
LINE
  5
3A2
100
AcDbEntity
  8
0
100
AcDbLine
 62
250
  6
CONTINUOUS
 10
-4.637694
 20
28.698798
 11
-5.162243
 21
28.698798
  0
LINE
  5
3A3
100
AcDbEntity
  8
0
100
AcDbLine
 62
250
  6
CONTINUOUS
 10
-7.493572
 20
28.698798
 11
-7.959838
 21
28.698798
  0
LINE
  5
3A4
100
AcDbEntity
  8
0
100
AcDbLine
 62
250
  6
CONTINUOUS
 10
-10.116318
 20
28.698798
 11
-11.515116
 21
28.698798
  0
LINE
  5
3A5
100
AcDbEntity
  8
0
100
AcDbLine
 62
250
  6
CONTINUOUS
 10
-14.0579
 20
28.698798
 11
-15.656525
 21
28.698798
  0
LINE
  5
3A6
100
AcDbEntity
  8
0
100
AcDbLine
 62
250
  6
CONTINUOUS
 10
-22.600558
 20
29.098454
 11
-23.899442
 21
29.098454
  0
LINE
  5
3A7
100
AcDbEntity
  8
0
100
AcDbLine
 62
250
  6
CONTINUOUS
 10
-22.500644
 20
29.198369
 11
-23.999356
 21
29.198369
  0
LINE
  5
3A8
100
AcDbEntity
  8
0
100
AcDbLine
 62
250
  6
CONTINUOUS
 10
-22.40073
 20
29.298283
 11
-24.09927
 21
29.298283
  0
LINE
  5
3A9
100
AcDbEntity
  8
0
100
AcDbLine
 62
250
  6
CONTINUOUS
 10
-9.83011
 20
28.639275
 11
-10.116318
 21
28.698798
  0
LINE
  5
3AA
100
AcDbEntity
  8
0
100
AcDbLine
 62
250
  6
CONTINUOUS
 10
-4.351485
 20
28.639275
 11
-4.637694
 21
28.698798
  0
LINE
  5
3AB
100
AcDbEntity
  8
0
100
AcDbLine
 62
250
  6
CONTINUOUS
 10
3.288828
 20
28.698798
 11
3.575037
 21
28.639275
  0
LINE
  5
3AC
100
AcDbEntity
  8
0
100
AcDbLine
 62
250
  6
CONTINUOUS
 10
-4.668939
 20
28.341658
 11
-4.441013
 21
28.282135
  0
LINE
  5
3AD
100
AcDbEntity
  8
0
100
AcDbLine
 62
250
  6
CONTINUOUS
 10
3.321073
 20
28.401181
 11
3.490715
 21
28.341658
  0
LINE
  5
3AE
100
AcDbEntity
  8
RACCORDO
100
AcDbLine
 62
250
  6
CONTINUOUS
 10
43.8781758769
 20
-44.6316825048
 11
43.8781758772
 21
-44.8768054117
  0
LINE
  5
3AF
100
AcDbEntity
  8
ASSI
100
AcDbLine
 62
250
  6
CONTINUOUS
 10
43.8781758769
 20
-44.6316825048
 11
43.8781758772
 21
-44.8768054117
  0
LINE
  5
3B0
100
AcDbEntity
  8
RACCORDO
100
AcDbLine
 62
250
  6
CONTINUOUS
 10
43.8781758769
 20
44.6316825048
 11
43.8781758769
 21
44.8768054117
  0
LINE
  5
3B1
100
AcDbEntity
  8
ASSI
100
AcDbLine
 62
250
  6
CONTINUOUS
 10
43.8781758769
 20
44.6316825048
 11
43.8781758769
 21
44.8768054117
  0
LINE
  5
3B2
100
AcDbEntity
  8
RACCORDO
100
AcDbLine
 62
250
  6
CONTINUOUS
 10
43.8781758769
 20
44.6316825048
 11
-43.8781758769
 21
44.6316825048
  0
LINE
  5
3B3
100
AcDbEntity
  8
ASSI
100
AcDbLine
 62
250
  6
CONTINUOUS
 10
43.8781758769
 20
44.6316825048
 11
-43.8781758769
 21
44.6316825048
  0
LWPOLYLINE
  5
3B4
100
AcDbEntity
  8
0
100
AcDbPolyline
 62
7
  6
CONTINUOUS
 90
10
 70
0
 43
0.3500000006
 10
59.7557646332
 20
-1.9285708809
 10
58.8986221619
 20
-1.0714295425
 10
58.0414796906
 20
-0.8571427917
 10
57.1843372192
 20
-0.8571427917
 10
56.7557637177
 20
-1.2857140274
 10
56.7557637177
 20
-1.9285708809
 10
57.1843372192
 20
-2.3571432495
 10
58.0414796906
 20
-2.3571432495
 10
58.4700486603
 20
-1.9285708809
 10
58.4700486603
 20
-1.0000006256
  0
LINE
  5
3B5
100
AcDbEntity
  8
RACCORDO
100
AcDbLine
 62
7
  6
CONTINUOUS
 10
45.0
 20
-44.0013704652
 11
45.0
 21
44.0013704652
  0
LINE
  5
3B6
100
AcDbEntity
  8
ASSI
100
AcDbLine
 62
7
  6
CONTINUOUS
 10
45.0
 20
-44.0013704652
 11
45.0
 21
44.0013704652
  0
LINE
  5
3B7
100
AcDbEntity
  8
RACCORDO
100
AcDbLine
 62
250
  6
CONTINUOUS
 10
43.8781758769
 20
44.8768054117
 11
-43.8781758769
 21
44.8768054117
  0
LINE
  5
3B8
100
AcDbEntity
  8
ASSI
100
AcDbLine
 62
250
  6
CONTINUOUS
 10
43.8781758769
 20
44.8768054117
 11
-43.8781758769
 21
44.8768054117
  0
LINE
  5
3B9
100
AcDbEntity
  8
RACCORDO
100
AcDbLine
 62
7
  6
CONTINUOUS
 10
-44.0013704652
 20
45.0
 11
44.0013704652
 21
45.0
  0
LINE
  5
3BA
100
AcDbEntity
  8
ASSI
100
AcDbLine
 62
7
  6
CONTINUOUS
 10
-44.0013704652
 20
45.0
 11
44.0013704652
 21
45.0
  0
LINE
  5
3BB
100
AcDbEntity
  8
RACCORDO
100
AcDbLine
 62
7
  6
CONTINUOUS
 10
-67.4387164572
 20
-44.8768054117
 11
-65.088023678
 21
-45.0
  0
LINE
  5
3BC
100
AcDbEntity
  8
ASSI
100
AcDbLine
 62
7
  6
CONTINUOUS
 10
-67.4387164572
 20
-44.8768054117
 11
-65.088023678
 21
-45.0
  0
LINE
  5
3BD
100
AcDbEntity
  8
RACCORDO
100
AcDbLine
 62
250
  6
CONTINUOUS
 10
-67.5674540828
 20
-43.8714290238
 11
-65.088023678
 21
-44.0013704652
  0
LINE
  5
3BE
100
AcDbEntity
  8
ASSI
100
AcDbLine
 62
250
  6
CONTINUOUS
 10
-67.5674540828
 20
-43.8714290238
 11
-65.088023678
 21
-44.0013704652
  0
LWPOLYLINE
  5
3BF
100
AcDbEntity
  8
0
100
AcDbPolyline
 62
7
  6
CONTINUOUS
 90
10
 70
0
 43
0.3500000006
 10
-64.6450935974
 20
61.7500003967
 10
-65.287947052
 20
61.1071469421
 10
-65.7165205536
 20
60.249999939
 10
-65.7165205536
 20
59.1785684509
 10
-65.287947052
 20
58.7499994812
 10
-64.6450935974
 20
58.7499994812
 10
-64.2165200958
 20
59.1785684509
 10
-64.2165200958
 20
60.0357154541
 10
-64.6450935974
 20
60.4642844238
 10
-65.5736627197
 20
60.4642844238
  0
LWPOLYLINE
  5
3C0
100
AcDbEntity
  8
0
100
AcDbPolyline
 62
7
  6
CONTINUOUS
 90
3
 70
0
 43
0.3500000006
 10
-66.7165208588
 20
59.0357151489
 10
-66.7879475098
 20
58.8214306641
 10
-66.9308053436
 20
58.5357149963
  0
LWPOLYLINE
  5
3C1
100
AcDbEntity
  8
0
100
AcDbPolyline
 62
7
  6
CONTINUOUS
 90
4
 70
0
 43
0.3500000006
 10
-69.7879484253
 20
59.1785684509
 10
-69.7879484253
 20
60.0357154541
 10
-69.3593794556
 20
60.4642844238
 10
-68.7165214691
 20
60.4642844238
  0
LINE
  5
3C2
100
AcDbEntity
  8
DRAFT
100
AcDbLine
 62
7
  6
CONTINUOUS
 10
-62.288023678
 20
-3.8526539614
 11
-64.288023678
 21
-3.5
  0
LINE
  5
3C3
100
AcDbEntity
  8
ASSI
100
AcDbLine
 62
7
  6
CONTINUOUS
 10
-62.288023678
 20
-3.8526539614
 11
-64.288023678
 21
-3.5
  0
LINE
  5
3C4
100
AcDbEntity
  8
RACCORDO
100
AcDbLine
 62
7
  6
CONTINUOUS
 10
-65.088023678
 20
-45.0
 11
-65.088023678
 21
45.0
  0
LINE
  5
3C5
100
AcDbEntity
  8
ASSI
100
AcDbLine
 62
7
  6
CONTINUOUS
 10
-65.088023678
 20
-45.0
 11
-65.088023678
 21
45.0
  0
LINE
  5
3C6
100
AcDbEntity
  8
DRAFT
100
AcDbLine
 62
7
  6
CONTINUOUS
 10
-64.288023678
 20
3.5
 11
-64.288023678
 21
-3.5
  0
LINE
  5
3C7
100
AcDbEntity
  8
ASSI
100
AcDbLine
 62
7
  6
CONTINUOUS
 10
-64.288023678
 20
3.5
 11
-64.288023678
 21
-3.5
  0
LINE
  5
3C8
100
AcDbEntity
  8
DRAFT
100
AcDbLine
 62
7
  6
CONTINUOUS
 10
-62.288023678
 20
43.0970752324
 11
-62.288023678
 21
3.8526539614
  0
LINE
  5
3C9
100
AcDbEntity
  8
RACCORDO
100
AcDbLine
 62
7
  6
CONTINUOUS
 10
-62.288023678
 20
43.5000000005
 11
-62.288023678
 21
43.0970752324
  0
LINE
  5
3CA
100
AcDbEntity
  8
ASSI
100
AcDbLine
 62
7
  6
CONTINUOUS
 10
-62.288023678
 20
43.5000000005
 11
-62.288023678
 21
3.8526539614
  0
LINE
  5
3CB
100
AcDbEntity
  8
DRAFT
100
AcDbLine
 62
7
  6
CONTINUOUS
 10
-62.288023678
 20
-3.8526539614
 11
-62.288023678
 21
-43.0970750476
  0
LINE
  5
3CC
100
AcDbEntity
  8
RACCORDO
100
AcDbLine
 62
7
  6
CONTINUOUS
 10
-62.288023678
 20
-43.0970750476
 11
-62.288023678
 21
-43.5000000137
  0
LINE
  5
3CD
100
AcDbEntity
  8
ASSI
100
AcDbLine
 62
7
  6
CONTINUOUS
 10
-62.288023678
 20
-3.8526539614
 11
-62.288023678
 21
-43.5000000137
  0
LINE
  5
3CE
100
AcDbEntity
  8
DRAFT
100
AcDbLine
 62
7
  6
CONTINUOUS
 10
-62.288023678
 20
3.8526539614
 11
-64.288023678
 21
3.5
  0
LINE
  5
3CF
100
AcDbEntity
  8
ASSI
100
AcDbLine
 62
7
  6
CONTINUOUS
 10
-62.288023678
 20
3.8526539614
 11
-64.288023678
 21
3.5
  0
LWPOLYLINE
  5
3D0
100
AcDbEntity
  8
0
100
AcDbPolyline
 62
7
  6
CONTINUOUS
 90
10
 70
0
 43
0.3500000006
 10
-66.7879475098
 20
59.2499996338
 10
-66.7165208588
 20
59.1071463318
 10
-66.7165208588
 20
59.0357151489
 10
-66.8593786926
 20
58.8928527832
 10
-66.9308053436
 20
58.8928527832
 10
-67.0022365265
 20
58.9642839661
 10
-67.0022365265
 20
59.0357151489
 10
-66.9308053436
 20
59.1785684509
 10
-66.8593786926
 20
59.2499996338
 10
-66.7879475098
 20
59.2499996338
  0
LINE
  5
3D1
100
AcDbEntity
  8
RACCORDO
100
AcDbLine
 62
250
  6
CONTINUOUS
 10
-67.5674540828
 20
43.8714290238
 11
-65.088023678
 21
44.0013704652
  0
LINE
  5
3D2
100
AcDbEntity
  8
ASSI
100
AcDbLine
 62
250
  6
CONTINUOUS
 10
-67.5674540828
 20
43.8714290238
 11
-65.088023678
 21
44.0013704652
  0
LINE
  5
3D3
100
AcDbEntity
  8
RACCORDO
100
AcDbLine
 62
7
  6
CONTINUOUS
 10
-67.4387164572
 20
44.8768054117
 11
-65.088023678
 21
45.0
  0
LINE
  5
3D4
100
AcDbEntity
  8
ASSI
100
AcDbLine
 62
7
  6
CONTINUOUS
 10
-67.4387164572
 20
44.8768054117
 11
-65.088023678
 21
45.0
  0
LWPOLYLINE
  5
3D5
100
AcDbEntity
  8
0
100
AcDbPolyline
 62
7
  6
CONTINUOUS
 90
13
 70
0
 43
0.3500000006
 10
-69.3593794556
 20
60.4642844238
 10
-69.6450905914
 20
60.6785689087
 10
-69.6450905914
 20
61.321431427
 10
-69.3593794556
 20
61.7500003967
 10
-68.7165214691
 20
61.7500003967
 10
-68.4308058014
 20
61.321431427
 10
-68.4308058014
 20
60.6785689087
 10
-68.7165214691
 20
60.4642844238
 10
-68.2879479675
 20
60.0357154541
 10
-68.2879479675
 20
59.1785684509
 10
-68.7165214691
 20
58.7499994812
 10
-69.3593794556
 20
58.7499994812
 10
-69.7879484253
 20
59.1785684509
  0
ARC
  5
3D6
100
AcDbEntity
  8
RACCORDO
100
AcDbCircle
 62
250
  6
CONTINUOUS
 10
-3190.3785846157
 20
-14.3975510408
 40
3145.9466848885
100
AcDbArc
 50
359.4622280965
 51
359.8493801039
  0
ARC
  5
3D7
100
AcDbEntity
  8
ASSI
100
AcDbCircle
 62
250
  6
CONTINUOUS
 10
-3190.3785846157
 20
-14.3975510408
 40
3145.9466848885
100
AcDbArc
 50
359.4622280965
 51
359.8493801039
  0
ARC
  5
3D8
100
AcDbEntity
  8
RACCORDO
100
AcDbCircle
 62
250
  6
CONTINUOUS
 10
-3179.4054391677
 20
-14.397324356
 40
3134.6739503713
100
AcDbArc
 50
359.4612624109
 51
359.8491094731
  0
ARC
  5
3D9
100
AcDbEntity
  8
ASSI
100
AcDbCircle
 62
250
  6
CONTINUOUS
 10
-3179.4054391677
 20
-14.397324356
 40
3134.6739503713
100
AcDbArc
 50
359.4612624109
 51
359.8491094731
  0
ARC
  5
3DA
100
AcDbEntity
  8
RACCORDO
100
AcDbCircle
 62
250
  6
CONTINUOUS
 10
-21.9426490403
 20
-21.8660176901
 40
1.3015253376
100
AcDbArc
 50
218.021689574
 51
270.0001494779
  0
ARC
  5
3DB
100
AcDbEntity
  8
ASSI
100
AcDbCircle
 62
250
  6
CONTINUOUS
 10
-21.9426490403
 20
-21.8660176901
 40
1.3015253376
100
AcDbArc
 50
218.021689574
 51
270.0001494779
  0
ARC
  5
3DC
100
AcDbEntity
  8
RACCORDO
100
AcDbCircle
 62
250
  6
CONTINUOUS
 10
-21.9459564841
 20
-21.8669656557
 40
1.29833654
100
AcDbArc
 50
180.1502597935
 51
218.0786380376
  0
ARC
  5
3DD
100
AcDbEntity
  8
ASSI
100
AcDbCircle
 62
250
  6
CONTINUOUS
 10
-21.9459564841
 20
-21.8669656557
 40
1.29833654
100
AcDbArc
 50
180.1502597935
 51
218.0786380376
  0
ARC
  5
3DE
100
AcDbEntity
  8
RACCORDO
100
AcDbCircle
 62
250
  6
CONTINUOUS
 10
-21.944705623
 20
-21.8394297665
 40
0.802122144
100
AcDbArc
 50
218.2435310688
 51
270.1465460629
  0
ARC
  5
3DF
100
AcDbEntity
  8
ASSI
100
AcDbCircle
 62
250
  6
CONTINUOUS
 10
-21.944705623
 20
-21.8394297665
 40
0.802122144
100
AcDbArc
 50
218.2435310688
 51
270.1465460629
  0
ARC
  5
3E0
100
AcDbEntity
  8
RACCORDO
100
AcDbCircle
 62
250
  6
CONTINUOUS
 10
-21.9496011511
 20
-21.8441187492
 40
0.7953750232
100
AcDbArc
 50
180.142874868
 51
218.196541315
  0
ARC
  5
3E1
100
AcDbEntity
  8
ASSI
100
AcDbCircle
 62
250
  6
CONTINUOUS
 10
-21.9496011511
 20
-21.8441187492
 40
0.7953750232
100
AcDbArc
 50
180.142874868
 51
218.196541315
  0
ARC
  5
3E2
100
AcDbEntity
  8
RACCORDO
100
AcDbCircle
 62
250
  6
CONTINUOUS
 10
-8566.4588322907
 20
0.0
 40
8589.7309630425
100
AcDbArc
 50
359.8541186808
 51
0.1458813192
  0
ARC
  5
3E3
100
AcDbEntity
  8
ASSI
100
AcDbCircle
 62
250
  6
CONTINUOUS
 10
-8566.4588322907
 20
0.0
 40
8589.7309630425
100
AcDbArc
 50
359.8541186808
 51
0.1458813192
  0
ARC
  5
3E4
100
AcDbEntity
  8
RACCORDO
100
AcDbCircle
 62
250
  6
CONTINUOUS
 10
-8629.8389455986
 20
0.000000002
 40
8585.4260996431
100
AcDbArc
 50
359.8487248017
 51
0.1512751984
  0
ARC
  5
3E5
100
AcDbEntity
  8
ASSI
100
AcDbCircle
 62
250
  6
CONTINUOUS
 10
-8629.8389455986
 20
0.000000002
 40
8585.4260996431
100
AcDbArc
 50
359.8487248017
 51
0.1512751984
  0
ARC
  5
3E6
100
AcDbEntity
  8
RACCORDO
100
AcDbCircle
 62
250
  6
CONTINUOUS
 10
-8618.7096061077
 20
-0.0
 40
8573.9971712791
100
AcDbArc
 50
359.8486237559
 51
0.1513762441
  0
ARC
  5
3E7
100
AcDbEntity
  8
ASSI
100
AcDbCircle
 62
250
  6
CONTINUOUS
 10
-8618.7096061077
 20
-0.0
 40
8573.9971712791
100
AcDbArc
 50
359.8486237559
 51
0.1513762441
  0
ARC
  5
3E8
100
AcDbEntity
  8
RACCORDO
100
AcDbCircle
 62
250
  6
CONTINUOUS
 10
-8547.8876187459
 20
0.0000027015
 40
8570.6604347211
100
AcDbArc
 50
359.85395644
 51
0.1460436684
  0
ARC
  5
3E9
100
AcDbEntity
  8
ASSI
100
AcDbCircle
 62
250
  6
CONTINUOUS
 10
-8547.8876187459
 20
0.0000027015
 40
8570.6604347211
100
AcDbArc
 50
359.85395644
 51
0.1460436684
  0
ARC
  5
3EA
100
AcDbEntity
  8
RACCORDO
100
AcDbCircle
 62
250
  6
CONTINUOUS
 10
-3167.3960595087
 20
14.5356168162
 40
3122.9638772103
100
AcDbArc
 50
0.1491953082
 51
0.5391964915
  0
ARC
  5
3EB
100
AcDbEntity
  8
ASSI
100
AcDbCircle
 62
250
  6
CONTINUOUS
 10
-3167.3960595087
 20
14.5356168162
 40
3122.9638772103
100
AcDbArc
 50
0.1491953082
 51
0.5391964915
  0
ARC
  5
3EC
100
AcDbEntity
  8
RACCORDO
100
AcDbCircle
 62
250
  6
CONTINUOUS
 10
-3156.511587073
 20
14.5351044406
 40
3111.7798157832
100
AcDbArc
 50
0.1494637779
 51
0.5401643381
  0
ARC
  5
3ED
100
AcDbEntity
  8
ASSI
100
AcDbCircle
 62
250
  6
CONTINUOUS
 10
-3156.511587073
 20
14.5351044406
 40
3111.7798157832
100
AcDbArc
 50
0.1494637779
 51
0.5401643381
  0
ARC
  5
3EE
100
AcDbEntity
  8
RACCORDO
100
AcDbCircle
 62
250
  6
CONTINUOUS
 10
-21.9426023043
 20
21.8659189292
 40
1.3016268661
100
AcDbArc
 50
90.0019077883
 51
141.9761528865
  0
ARC
  5
3EF
100
AcDbEntity
  8
ASSI
100
AcDbCircle
 62
250
  6
CONTINUOUS
 10
-21.9426023043
 20
21.8659189292
 40
1.3016268661
100
AcDbArc
 50
90.0019077883
 51
141.9761528865
  0
ARC
  5
3F0
100
AcDbEntity
  8
RACCORDO
100
AcDbCircle
 62
250
  6
CONTINUOUS
 10
-21.9459484839
 20
21.8669628832
 40
1.2983445474
100
AcDbArc
 50
141.9214833894
 51
179.84961878
  0
ARC
  5
3F1
100
AcDbEntity
  8
ASSI
100
AcDbCircle
 62
250
  6
CONTINUOUS
 10
-21.9459484839
 20
21.8669628832
 40
1.2983445474
100
AcDbArc
 50
141.9214833894
 51
179.84961878
  0
ARC
  5
3F2
100
AcDbEntity
  8
RACCORDO
100
AcDbCircle
 62
250
  6
CONTINUOUS
 10
-21.9447451763
 20
21.8393682172
 40
0.8021589513
100
AcDbArc
 50
89.8527876617
 51
141.7512671671
  0
ARC
  5
3F3
100
AcDbEntity
  8
ASSI
100
AcDbCircle
 62
250
  6
CONTINUOUS
 10
-21.9447451763
 20
21.8393682172
 40
0.8021589513
100
AcDbArc
 50
89.8527876617
 51
141.7512671671
  0
ARC
  5
3F4
100
AcDbEntity
  8
RACCORDO
100
AcDbCircle
 62
250
  6
CONTINUOUS
 10
-21.9496011548
 20
21.844118738
 40
0.7953750273
100
AcDbArc
 50
141.803457883
 51
179.8586584952
  0
ARC
  5
3F5
100
AcDbEntity
  8
ASSI
100
AcDbCircle
 62
250
  6
CONTINUOUS
 10
-21.9496011548
 20
21.844118738
 40
0.7953750273
100
AcDbArc
 50
141.803457883
 51
179.8586584952
  0
ARC
  5
3F6
100
AcDbEntity
  8
RACCORDO
100
AcDbCircle
 62
250
  6
CONTINUOUS
 10
8547.8874669292
 20
-0.0000026638
 40
8570.6602829045
100
AcDbArc
 50
179.8539564401
 51
180.1460436668
  0
ARC
  5
3F7
100
AcDbEntity
  8
ASSI
100
AcDbCircle
 62
250
  6
CONTINUOUS
 10
8547.8874669292
 20
-0.0000026638
 40
8570.6602829045
100
AcDbArc
 50
179.8539564401
 51
180.1460436668
  0
ARC
  5
3F8
100
AcDbEntity
  8
RACCORDO
100
AcDbCircle
 62
250
  6
CONTINUOUS
 10
3167.3960510439
 20
-14.5356168893
 40
3122.9638687451
100
AcDbArc
 50
180.1491953097
 51
180.5391964916
  0
ARC
  5
3F9
100
AcDbEntity
  8
ASSI
100
AcDbCircle
 62
250
  6
CONTINUOUS
 10
3167.3960510439
 20
-14.5356168893
 40
3122.9638687451
100
AcDbArc
 50
180.1491953097
 51
180.5391964916
  0
ARC
  5
3FA
100
AcDbEntity
  8
RACCORDO
100
AcDbCircle
 62
250
  6
CONTINUOUS
 10
3156.511587073
 20
-14.5351044406
 40
3111.7798157831
100
AcDbArc
 50
180.1494637779
 51
180.5401643381
  0
ARC
  5
3FB
100
AcDbEntity
  8
ASSI
100
AcDbCircle
 62
250
  6
CONTINUOUS
 10
3156.511587073
 20
-14.5351044406
 40
3111.7798157831
100
AcDbArc
 50
180.1494637779
 51
180.5401643381
  0
ARC
  5
3FC
100
AcDbEntity
  8
RACCORDO
100
AcDbCircle
 62
250
  6
CONTINUOUS
 10
21.9426023158
 20
-21.8659189527
 40
1.301626866
100
AcDbArc
 50
270.0019072831
 51
321.9761533916
  0
ARC
  5
3FD
100
AcDbEntity
  8
ASSI
100
AcDbCircle
 62
250
  6
CONTINUOUS
 10
21.9426023158
 20
-21.8659189527
 40
1.301626866
100
AcDbArc
 50
270.0019072831
 51
321.9761533916
  0
ARC
  5
3FE
100
AcDbEntity
  8
RACCORDO
100
AcDbCircle
 62
250
  6
CONTINUOUS
 10
21.9459529992
 20
-21.866964448
 40
1.2983400281
100
AcDbArc
 50
321.921414857
 51
359.8496873123
  0
ARC
  5
3FF
100
AcDbEntity
  8
ASSI
100
AcDbCircle
 62
250
  6
CONTINUOUS
 10
21.9459529992
 20
-21.866964448
 40
1.2983400281
100
AcDbArc
 50
321.921414857
 51
359.8496873123
  0
ARC
  5
400
100
AcDbEntity
  8
RACCORDO
100
AcDbCircle
 62
250
  6
CONTINUOUS
 10
21.9447451938
 20
-21.8393682418
 40
0.8021589513
100
AcDbArc
 50
269.8527864041
 51
321.751267772
  0
ARC
  5
401
100
AcDbEntity
  8
ASSI
100
AcDbCircle
 62
250
  6
CONTINUOUS
 10
21.9447451938
 20
-21.8393682418
 40
0.8021589513
100
AcDbArc
 50
269.8527864041
 51
321.751267772
  0
ARC
  5
402
100
AcDbEntity
  8
RACCORDO
100
AcDbCircle
 62
250
  6
CONTINUOUS
 10
21.9496011707
 20
-21.8441187437
 40
0.7953750112
100
AcDbArc
 50
321.8034574988
 51
359.8586334172
  0
ARC
  5
403
100
AcDbEntity
  8
ASSI
100
AcDbCircle
 62
250
  6
CONTINUOUS
 10
21.9496011707
 20
-21.8441187437
 40
0.7953750112
100
AcDbArc
 50
321.8034574988
 51
359.8586334172
  0
ARC
  5
404
100
AcDbEntity
  8
RACCORDO
100
AcDbCircle
 62
250
  6
CONTINUOUS
 10
8566.4588322909
 20
0.0
 40
8589.7309630426
100
AcDbArc
 50
179.8541186808
 51
180.1458813192
  0
ARC
  5
405
100
AcDbEntity
  8
ASSI
100
AcDbCircle
 62
250
  6
CONTINUOUS
 10
8566.4588322909
 20
0.0
 40
8589.7309630426
100
AcDbArc
 50
179.8541186808
 51
180.1458813192
  0
ARC
  5
406
100
AcDbEntity
  8
RACCORDO
100
AcDbCircle
 62
250
  6
CONTINUOUS
 10
8629.8389799945
 20
-0.0000000349
 40
8585.4261340389
100
AcDbArc
 50
179.8487248029
 51
180.1512751985
  0
ARC
  5
407
100
AcDbEntity
  8
ASSI
100
AcDbCircle
 62
250
  6
CONTINUOUS
 10
8629.8389799945
 20
-0.0000000349
 40
8585.4261340389
100
AcDbArc
 50
179.8487248029
 51
180.1512751985
  0
ARC
  5
408
100
AcDbEntity
  8
RACCORDO
100
AcDbCircle
 62
250
  6
CONTINUOUS
 10
8618.70962388
 20
-0.0
 40
8573.9971890514
100
AcDbArc
 50
179.8486237562
 51
180.1513762438
  0
ARC
  5
409
100
AcDbEntity
  8
ASSI
100
AcDbCircle
 62
250
  6
CONTINUOUS
 10
8618.70962388
 20
-0.0
 40
8573.9971890514
100
AcDbArc
 50
179.8486237562
 51
180.1513762438
  0
ARC
  5
40A
100
AcDbEntity
  8
RACCORDO
100
AcDbCircle
 62
250
  6
CONTINUOUS
 10
3190.3786072373
 20
14.397550883
 40
3145.9467075106
100
AcDbArc
 50
179.4622280975
 51
179.8493801046
  0
ARC
  5
40B
100
AcDbEntity
  8
ASSI
100
AcDbCircle
 62
250
  6
CONTINUOUS
 10
3190.3786072373
 20
14.397550883
 40
3145.9467075106
100
AcDbArc
 50
179.4622280975
 51
179.8493801046
  0
ARC
  5
40C
100
AcDbEntity
  8
RACCORDO
100
AcDbCircle
 62
250
  6
CONTINUOUS
 10
3179.4054391677
 20
14.397324356
 40
3134.6739503712
100
AcDbArc
 50
179.4612624109
 51
179.8491094731
  0
ARC
  5
40D
100
AcDbEntity
  8
ASSI
100
AcDbCircle
 62
250
  6
CONTINUOUS
 10
3179.4054391677
 20
14.397324356
 40
3134.6739503712
100
AcDbArc
 50
179.4612624109
 51
179.8491094731
  0
ARC
  5
40E
100
AcDbEntity
  8
RACCORDO
100
AcDbCircle
 62
250
  6
CONTINUOUS
 10
21.9426490403
 20
21.8660176901
 40
1.3015253376
100
AcDbArc
 50
38.0216895741
 51
90.0001494778
  0
ARC
  5
40F
100
AcDbEntity
  8
ASSI
100
AcDbCircle
 62
250
  6
CONTINUOUS
 10
21.9426490403
 20
21.8660176901
 40
1.3015253376
100
AcDbArc
 50
38.0216895741
 51
90.0001494778
  0
ARC
  5
410
100
AcDbEntity
  8
RACCORDO
100
AcDbCircle
 62
250
  6
CONTINUOUS
 10
21.9459489265
 20
21.8669630366
 40
1.2983441044
100
AcDbArc
 50
0.1503745021
 51
38.078523329
  0
ARC
  5
411
100
AcDbEntity
  8
ASSI
100
AcDbCircle
 62
250
  6
CONTINUOUS
 10
21.9459489265
 20
21.8669630366
 40
1.2983441044
100
AcDbArc
 50
0.1503745021
 51
38.078523329
  0
ARC
  5
412
100
AcDbEntity
  8
RACCORDO
100
AcDbCircle
 62
250
  6
CONTINUOUS
 10
21.944705623
 20
21.8394297665
 40
0.802122144
100
AcDbArc
 50
38.2435310688
 51
90.1465460626
  0
ARC
  5
413
100
AcDbEntity
  8
ASSI
100
AcDbCircle
 62
250
  6
CONTINUOUS
 10
21.944705623
 20
21.8394297665
 40
0.802122144
100
AcDbArc
 50
38.2435310688
 51
90.1465460626
  0
ARC
  5
414
100
AcDbEntity
  8
RACCORDO
100
AcDbCircle
 62
250
  6
CONTINUOUS
 10
21.9496011379
 20
21.844118745
 40
0.7953750362
100
AcDbArc
 50
0.1429224114
 51
38.1965409658
  0
ARC
  5
415
100
AcDbEntity
  8
ASSI
100
AcDbCircle
 62
250
  6
CONTINUOUS
 10
21.9496011379
 20
21.844118745
 40
0.7953750362
100
AcDbArc
 50
0.1429224114
 51
38.1965409658
  0
ARC
  5
416
100
AcDbEntity
  8
RACCORDO
100
AcDbCircle
 62
7
  6
CONTINUOUS
 10
-67.4230169203
 20
-44.577209968
 40
0.3000000001
100
AcDbArc
 50
190.4615209043
 51
267.0003041861
  0
ARC
  5
417
100
AcDbEntity
  8
ASSI
100
AcDbCircle
 62
7
  6
CONTINUOUS
 10
-67.4230169203
 20
-44.577209968
 40
0.3000000001
100
AcDbArc
 50
190.4615209043
 51
267.0003041861
  0
ARC
  5
418
100
AcDbEntity
  8
RACCORDO
100
AcDbCircle
 62
250
  6
CONTINUOUS
 10
-65.3512722965
 20
-38.3428072504
 40
5.6639988607
100
AcDbArc
 50
272.6639254538
 51
287.2566577254
  0
ARC
  5
419
100
AcDbEntity
  8
ASSI
100
AcDbCircle
 62
250
  6
CONTINUOUS
 10
-65.3512722965
 20
-38.3428072504
 40
5.6639988607
100
AcDbArc
 50
272.6639254538
 51
287.2566577254
  0
ARC
  5
41A
100
AcDbEntity
  8
RACCORDO
100
AcDbCircle
 62
7
  6
CONTINUOUS
 10
-65.3595034944
 20
-39.3198565139
 40
5.1872524353
100
AcDbArc
 50
273.0000000399
 51
306.3076478614
  0
ARC
  5
41B
100
AcDbEntity
  8
ASSI
100
AcDbCircle
 62
7
  6
CONTINUOUS
 10
-65.3595034944
 20
-39.3198565139
 40
5.1872524353
100
AcDbArc
 50
273.0000000399
 51
306.3076478614
  0
ARC
  5
41C
100
AcDbEntity
  8
RACCORDO
100
AcDbCircle
 62
7
  6
CONTINUOUS
 10
96.9326680896
 20
-14.2336437913
 40
167.4332498099
100
AcDbArc
 50
182.8873441217
 51
190.4602411505
  0
ARC
  5
41D
100
AcDbEntity
  8
0
100
AcDbCircle
 62
7
  6
CONTINUOUS
 10
96.9326680896
 20
-14.2336437913
 40
167.4332498099
100
AcDbArc
 50
184.0677903884
 51
185.0176525292
  0
ARC
  5
41E
100
AcDbEntity
  8
ASSI
100
AcDbCircle
 62
7
  6
CONTINUOUS
 10
96.9326680896
 20
-14.2336437913
 40
167.4332498099
100
AcDbArc
 50
182.8873441217
 51
190.4602411505
  0
ARC
  5
41F
100
AcDbEntity
  8
RACCORDO
100
AcDbCircle
 62
250
  6
CONTINUOUS
 10
96.9161340887
 20
-14.2337394729
 40
167.1324128339
100
AcDbArc
 50
182.8873454031
 51
190.2143127298
  0
ARC
  5
420
100
AcDbEntity
  8
ASSI
100
AcDbCircle
 62
250
  6
CONTINUOUS
 10
96.9161340887
 20
-14.2337394729
 40
167.1324128339
100
AcDbArc
 50
182.8873454031
 51
190.2143127298
  0
ARC
  5
421
100
AcDbEntity
  8
RACCORDO
100
AcDbCircle
 62
250
  6
CONTINUOUS
 10
-65.3559528338
 20
38.3161481844
 40
5.6908476941
100
AcDbArc
 50
72.7777457145
 51
87.3014761726
  0
ARC
  5
422
100
AcDbEntity
  8
ASSI
100
AcDbCircle
 62
250
  6
CONTINUOUS
 10
-65.3559528338
 20
38.3161481844
 40
5.6908476941
100
AcDbArc
 50
72.7777457145
 51
87.3014761726
  0
ARC
  5
423
100
AcDbEntity
  8
RACCORDO
100
AcDbCircle
 62
7
  6
CONTINUOUS
 10
-65.3595034944
 20
39.3198565139
 40
5.1872524353
100
AcDbArc
 50
53.692351894
 51
86.9999997364
  0
ARC
  5
424
100
AcDbEntity
  8
ASSI
100
AcDbCircle
 62
7
  6
CONTINUOUS
 10
-65.3595034944
 20
39.3198565139
 40
5.1872524353
100
AcDbArc
 50
53.692351894
 51
86.9999997364
  0
ARC
  5
425
100
AcDbEntity
  8
RACCORDO
100
AcDbCircle
 62
7
  6
CONTINUOUS
 10
-67.4230156703
 20
44.5772165512
 40
0.3
100
AcDbArc
 50
93.0
 51
169.5397588495
  0
ARC
  5
426
100
AcDbEntity
  8
ASSI
100
AcDbCircle
 62
7
  6
CONTINUOUS
 10
-67.4230156703
 20
44.5772165512
 40
0.3
100
AcDbArc
 50
93.0
 51
169.5397588495
  0
ARC
  5
427
100
AcDbEntity
  8
RACCORDO
100
AcDbCircle
 62
7
  6
CONTINUOUS
 10
96.9326680896
 20
14.2336437913
 40
167.4332498099
100
AcDbArc
 50
169.5397588495
 51
177.1126362258
  0
ARC
  5
428
100
AcDbEntity
  8
ASSI
100
AcDbCircle
 62
7
  6
CONTINUOUS
 10
96.9326680896
 20
14.2336437913
 40
167.4332498099
100
AcDbArc
 50
169.5397588495
 51
177.1126362258
  0
ARC
  5
429
100
AcDbEntity
  8
0
100
AcDbCircle
 62
250
  6
CONTINUOUS
 10
96.9326680896
 20
14.2336437913
 40
167.4332498099
100
AcDbArc
 50
174.8378886711
 51
176.2097334504
  0
ARC
  5
42A
100
AcDbEntity
  8
RACCORDO
100
AcDbCircle
 62
250
  6
CONTINUOUS
 10
96.9161240043
 20
14.2337406309
 40
167.1324027039
100
AcDbArc
 50
169.7856870479
 51
177.1126548193
  0
ARC
  5
42B
100
AcDbEntity
  8
ASSI
100
AcDbCircle
 62
250
  6
CONTINUOUS
 10
96.9161240043
 20
14.2337406309
 40
167.1324027039
100
AcDbArc
 50
169.7856870479
 51
177.1126548193
  0
ARC
  5
42C
100
AcDbEntity
  8
RACCORDO
100
AcDbCircle
 62
7
  6
CONTINUOUS
 10
379.1406972054
 20
-0.0
 40
450.0
100
AcDbArc
 50
177.1126435736
 51
182.8873564621
  0
ARC
  5
42D
100
AcDbEntity
  8
ASSI
100
AcDbCircle
 62
7
  6
CONTINUOUS
 10
379.1406972054
 20
-0.0
 40
450.0
100
AcDbArc
 50
177.1126435736
 51
182.8873564621
  0
ARC
  5
42E
100
AcDbEntity
  8
RACCORDO
100
AcDbCircle
 62
250
  6
CONTINUOUS
 10
379.1249964188
 20
-0.0
 40
449.7000000003
100
AcDbArc
 50
177.1126362257
 51
182.8873637743
  0
ARC
  5
42F
100
AcDbEntity
  8
ASSI
100
AcDbCircle
 62
250
  6
CONTINUOUS
 10
379.1249964188
 20
-0.0
 40
449.7000000003
100
AcDbArc
 50
177.1126362257
 51
182.8873637743
  0
SPLINE
  5
430
100
AcDbEntity
  8
0
100
AcDbSpline
 62
7
  6
CONTINUOUS
 70
0
 71
3
 72
9
 73
5
 74
0
 42
0.0000001
 43
0.0000001
 44
0.0000000001
 40
0.0
 40
0.0
 40
0.0
 40
0.0
 40
0.6439294666
 40
1.0
 40
1.0
 40
1.0
 40
1.0
 10
4.8214020846
 20
-28.0286629395
 30
0.0
 10
4.7890022465
 20
-27.9424410034
 30
0.0
 10
4.6927867234
 20
-27.8129762614
 30
0.0
 10
4.5463479047
 20
-27.7821519248
 30
0.0
 10
4.4954209623
 20
-27.7821519248
 30
0.0
  0
SPLINE
  5
431
100
AcDbEntity
  8
0
100
AcDbSpline
 62
7
  6
CONTINUOUS
 70
0
 71
3
 72
9
 73
5
 74
0
 42
0.0000001
 43
0.0000001
 44
0.0000000001
 40
0.0
 40
0.0
 40
0.0
 40
0.0
 40
0.4412847512
 40
1.0
 40
1.0
 40
1.0
 40
1.0
 10
5.0770156219
 20
-28.8778013544
 30
0.0
 10
5.0409723412
 20
-28.7524351727
 30
0.0
 10
4.9558677832
 20
-28.4695061601
 30
0.0
 10
4.8794973817
 20
-28.1832655892
 30
0.0
 10
4.8214020539
 20
-28.028662951
 30
0.0
  0
SPLINE
  5
432
100
AcDbEntity
  8
0
100
AcDbSpline
 62
7
  6
CONTINUOUS
 70
0
 71
3
 72
9
 73
5
 74
0
 42
0.0000001
 43
0.0000001
 44
0.0000000001
 40
0.0
 40
0.0
 40
0.0
 40
0.0
 40
0.8019701122
 40
1.0
 40
1.0
 40
1.0
 40
1.0
 10
5.4393791728
 20
-28.1201003278
 30
0.0
 10
5.4944413606
 20
-28.3222068222
 30
0.0
 10
5.5592396864
 20
-28.5752516928
 30
0.0
 10
5.6255909827
 20
-28.8278846732
 30
0.0
 10
5.6391482119
 20
-28.8778013544
 30
0.0
  0
SPLINE
  5
433
100
AcDbEntity
  8
0
100
AcDbSpline
 62
7
  6
CONTINUOUS
 70
0
 71
3
 72
9
 73
5
 74
0
 42
0.0000001
 43
0.0000001
 44
0.0000000001
 40
0.0
 40
0.0
 40
0.0
 40
0.0
 40
0.7572691364
 40
1.0
 40
1.0
 40
1.0
 40
1.0
 10
5.1025031649
 20
-27.5709244369
 30
0.0
 10
5.255367936
 20
-27.6318792643
 30
0.0
 10
5.3725710824
 20
-27.8637401452
 30
0.0
 10
5.4255129547
 20
-28.0692041956
 30
0.0
 10
5.4393791724
 20
-28.1201003279
 30
0.0
  0
SPLINE
  5
434
100
AcDbEntity
  8
0
100
AcDbSpline
 62
7
  6
CONTINUOUS
 70
0
 71
3
 72
17
 73
13
 74
0
 42
0.0000001
 43
0.0000001
 44
0.0000000001
 40
0.0
 40
0.0
 40
0.0
 40
0.0
 40
0.0799595168
 40
0.1896577306
 40
0.3223977561
 40
0.3986068941
 40
0.483386777
 40
0.5877249163
 40
0.678993766
 40
0.8312459613
 40
0.9440219048
 40
1.0
 40
1.0
 40
1.0
 40
1.0
 10
5.0422484297
 20
-26.1402838735
 30
0.0
 10
5.0859795369
 20
-26.1560600248
 30
0.0
 10
5.183634306
 20
-26.2099201326
 30
0.0
 10
5.325664752
 20
-26.3348013094
 30
0.0
 10
5.4262584299
 20
-26.4944905445
 30
0.0
 10
5.4798168525
 20
-26.6574351189
 30
0.0
 10
5.5019150414
 20
-26.8107834593
 30
0.0
 10
5.4977219253
 20
-26.9749694039
 30
0.0
 10
5.4530896147
 20
-27.1727887701
 30
0.0
 10
5.352899701
 20
-27.3624114407
 30
0.0
 10
5.2168310745
 20
-27.4855954586
 30
0.0
 10
5.1347821269
 20
-27.5502156007
 30
0.0
 10
5.1025031649
 20
-27.554380628
 30
0.0
  0
SPLINE
  5
435
100
AcDbEntity
  8
0
100
AcDbSpline
 62
7
  6
CONTINUOUS
 70
0
 71
3
 72
9
 73
5
 74
0
 42
0.0000001
 43
0.0000001
 44
0.0000000001
 40
0.0
 40
0.0
 40
0.0
 40
0.0
 40
0.7042582166
 40
1.0
 40
1.0
 40
1.0
 40
1.0
 10
3.6000188023
 20
-26.110807341
 30
0.0
 10
3.9372644821
 20
-26.0611927589
 30
0.0
 10
4.423711295
 20
-26.0123623732
 30
0.0
 10
4.9076197825
 20
-26.091645622
 30
0.0
 10
5.0422484297
 20
-26.1402838735
 30
0.0
  0
SPLINE
  5
436
100
AcDbEntity
  8
0
100
AcDbSpline
 62
7
  6
CONTINUOUS
 70
0
 71
3
 72
9
 73
5
 74
0
 42
0.0000001
 43
0.0000001
 44
0.0000000001
 40
0.0
 40
0.0
 40
0.0
 40
0.0
 40
0.729595832
 40
1.0
 40
1.0
 40
1.0
 40
1.0
 10
4.62051343
 20
-26.538572249
 30
0.0
 10
4.509611128
 20
-26.5257006641
 30
0.0
 10
4.3548035222
 20
-26.5252045035
 30
0.0
 10
4.2034864135
 20
-26.5480947605
 30
0.0
 10
4.1626972541
 20
-26.5550547959
 30
0.0
  0
SPLINE
  5
437
100
AcDbEntity
  8
0
100
AcDbSpline
 62
7
  6
CONTINUOUS
 70
0
 71
3
 72
9
 73
5
 74
0
 42
0.0000001
 43
0.0000001
 44
0.0000000001
 40
0.0
 40
0.0
 40
0.0
 40
0.0
 40
0.4988583596
 40
1.0
 40
1.0
 40
1.0
 40
1.0
 10
4.950652159
 20
-26.8887857334
 30
0.0
 10
4.9493698463
 20
-26.8029633033
 30
0.0
 10
4.8794958739
 20
-26.6239753862
 30
0.0
 10
4.7061699302
 20
-26.5485137461
 30
0.0
 10
4.62051343
 20
-26.5385722488
 30
0.0
  0
SPLINE
  5
438
100
AcDbEntity
  8
0
100
AcDbSpline
 62
7
  6
CONTINUOUS
 70
0
 71
3
 72
9
 73
5
 74
0
 42
0.0000001
 43
0.0000001
 44
0.0000000001
 40
0.0
 40
0.0
 40
0.0
 40
0.0
 40
0.4795375494
 40
1.0
 40
1.0
 40
1.0
 40
1.0
 10
4.4966806432
 20
-27.3236280866
 30
0.0
 10
4.6081111271
 20
-27.3211392056
 30
0.0
 10
4.8669268789
 20
-27.2739986466
 30
0.0
 10
4.952459695
 20
-27.0097627763
 30
0.0
 10
4.9506521347
 20
-26.8887857338
 30
0.0
  0
SPLINE
  5
439
100
AcDbEntity
  8
RACCORDO
100
AcDbSpline
 62
250
  6
CONTINUOUS
 70
0
 71
3
 72
11
 73
7
 74
0
 42
0.0000001
 43
0.0000001
 44
0.0000000001
 40
0.0
 40
0.0
 40
0.0
 40
0.0
 40
0.2518132804
 40
0.5024878192
 40
0.7516926537
 40
1.0
 40
1.0
 40
1.0
 40
1.0
 10
43.8781758769
 20
-44.6316825048
 30
0.0
 10
43.9700017891
 20
-44.6316856771
 30
0.0
 10
44.1553859713
 20
-44.5942209145
 30
0.0
 10
44.3868757931
 20
-44.4343345128
 30
0.0
 10
44.537895756
 20
-44.1988617765
 30
0.0
 10
44.5713176045
 20
-44.0151715791
 30
0.0
 10
44.5704696982
 20
-43.9246281065
 30
0.0
  0
SPLINE
  5
43A
100
AcDbEntity
  8
RACCORDO
100
AcDbSpline
 62
250
  6
CONTINUOUS
 70
0
 71
3
 72
11
 73
7
 74
0
 42
0.0000001
 43
0.0000001
 44
0.0000000001
 40
0.0
 40
0.0
 40
0.0
 40
0.0
 40
0.2483065073
 40
0.4975112282
 40
0.7481857848
 40
1.0
 40
1.0
 40
1.0
 40
1.0
 10
-44.5704696982
 20
-43.9246281065
 30
0.0
 10
-44.5713253015
 20
-44.0151712058
 30
0.0
 10
-44.5378900311
 20
-44.1988610759
 30
0.0
 10
-44.3868770857
 20
-44.4343324605
 30
0.0
 10
-44.1553871233
 20
-44.5942280108
 30
0.0
 10
-43.9700021349
 20
-44.631676086
 30
0.0
 10
-43.8781758769
 20
-44.6316825048
 30
0.0
  0
SPLINE
  5
43B
100
AcDbEntity
  8
RACCORDO
100
AcDbSpline
 62
250
  6
CONTINUOUS
 70
0
 71
3
 72
11
 73
7
 74
0
 42
0.0000001
 43
0.0000001
 44
0.0000000001
 40
0.0
 40
0.0
 40
0.0
 40
0.0
 40
0.2494342068
 40
0.4990858824
 40
0.7492754921
 40
1.0
 40
1.0
 40
1.0
 40
1.0
 10
-44.8700585586
 20
-43.8714290238
 30
0.0
 10
-44.8708149157
 20
-44.001145936
 30
0.0
 10
-44.8213326635
 20
-44.2638091196
 30
0.0
 10
-44.6028484551
 20
-44.5982899551
 30
0.0
 10
-44.2719854842
 20
-44.8238270642
 30
0.0
 10
-44.0085659718
 20
-44.8766936624
 30
0.0
 10
-43.8781758769
 20
-44.8768054117
 30
0.0
  0
SPLINE
  5
43C
100
AcDbEntity
  8
RACCORDO
100
AcDbSpline
 62
250
  6
CONTINUOUS
 70
0
 71
3
 72
11
 73
7
 74
0
 42
0.0000001
 43
0.0000001
 44
0.0000000001
 40
0.0
 40
0.0
 40
0.0
 40
0.0
 40
0.2507235208
 40
0.5009133858
 40
0.7505648805
 40
1.0
 40
1.0
 40
1.0
 40
1.0
 10
-43.8781758769
 20
44.8768054117
 30
0.0
 10
-44.0085654654
 20
44.8767007602
 30
0.0
 10
-44.2719846872
 20
44.8238239883
 30
0.0
 10
-44.602846979
 20
44.5982919702
 30
0.0
 10
-44.8213345733
 20
44.2638097105
 30
0.0
 10
-44.8708100858
 20
44.0011464398
 30
0.0
 10
-44.8700585586
 20
43.8714290238
 30
0.0
  0
SPLINE
  5
43D
100
AcDbEntity
  8
RACCORDO
100
AcDbSpline
 62
250
  6
CONTINUOUS
 70
0
 71
3
 72
11
 73
7
 74
0
 42
0.0000001
 43
0.0000001
 44
0.0000000001
 40
0.0
 40
0.0
 40
0.0
 40
0.0
 40
0.2507235208
 40
0.5009133858
 40
0.7505648805
 40
1.0
 40
1.0
 40
1.0
 40
1.0
 10
43.8781758769
 20
-44.8768054117
 30
0.0
 10
44.0085654654
 20
-44.8767007602
 30
0.0
 10
44.2719846872
 20
-44.8238239883
 30
0.0
 10
44.602846979
 20
-44.5982919702
 30
0.0
 10
44.8213345733
 20
-44.2638097105
 30
0.0
 10
44.8708100858
 20
-44.0011464398
 30
0.0
 10
44.8700585586
 20
-43.8714290238
 30
0.0
  0
SPLINE
  5
43E
100
AcDbEntity
  8
RACCORDO
100
AcDbSpline
 62
250
  6
CONTINUOUS
 70
0
 71
3
 72
11
 73
7
 74
0
 42
0.0000001
 43
0.0000001
 44
0.0000000001
 40
0.0
 40
0.0
 40
0.0
 40
0.0
 40
0.2494342068
 40
0.4990858824
 40
0.7492754921
 40
1.0
 40
1.0
 40
1.0
 40
1.0
 10
44.8700585586
 20
43.8714290238
 30
0.0
 10
44.8708149157
 20
44.001145936
 30
0.0
 10
44.8213326635
 20
44.2638091196
 30
0.0
 10
44.6028484551
 20
44.5982899551
 30
0.0
 10
44.2719854842
 20
44.8238270642
 30
0.0
 10
44.0085659718
 20
44.8766936624
 30
0.0
 10
43.8781758769
 20
44.8768054117
 30
0.0
  0
SPLINE
  5
43F
100
AcDbEntity
  8
RACCORDO
100
AcDbSpline
 62
250
  6
CONTINUOUS
 70
0
 71
3
 72
13
 73
9
 74
0
 42
0.0000001
 43
0.0000001
 44
0.0000000001
 40
0.0
 40
0.0
 40
0.0
 40
0.0
 40
0.3594637566
 40
0.6696706049
 40
0.7929532182
 40
0.8896584024
 40
0.9579009014
 40
1.0
 40
1.0
 40
1.0
 40
1.0
 10
-44.5704696982
 20
43.9246280943
 30
0.0
 10
-44.6075786548
 20
43.9242886885
 30
0.0
 10
-44.6766879744
 20
43.921433029
 30
0.0
 10
-44.758216094
 20
43.9122812798
 30
0.0
 10
-44.811827142
 20
43.9013605335
 30
0.0
 10
-44.8405061231
 20
43.8927080344
 30
0.0
 10
-44.8597828577
 20
43.8840331218
 30
0.0
 10
-44.8688477969
 20
43.8756032227
 30
0.0
 10
-44.8700585586
 20
43.8714290238
 30
0.0
  0
SPLINE
  5
440
100
AcDbEntity
  8
RACCORDO
100
AcDbSpline
 62
250
  6
CONTINUOUS
 70
0
 71
3
 72
16
 73
12
 74
0
 42
0.0000001
 43
0.0000001
 44
0.0000000001
 40
0.0
 40
0.0
 40
0.0
 40
0.0
 40
0.3699259212
 40
0.5382268072
 40
0.6873077625
 40
0.811788968
 40
0.9072712504
 40
0.9430816484
 40
0.9705150828
 40
0.9894318306
 40
1.0
 40
1.0
 40
1.0
 40
1.0
 10
-44.4427702181
 20
22.6677048931
 30
0.0
 10
-44.4798325001
 20
22.6676071759
 30
0.0
 10
-44.5337585933
 20
22.6669863745
 30
0.0
 10
-44.6025921866
 20
22.6650633263
 30
0.0
 10
-44.6468295931
 20
22.6632539588
 30
0.0
 10
-44.683734442
 20
22.6610920538
 30
0.0
 10
-44.7092953101
 20
22.6589748912
 30
0.0
 10
-44.7250577244
 20
22.6570214455
 30
0.0
 10
-44.7332280536
 20
22.6557085357
 30
0.0
 10
-44.738691397
 20
22.6543605061
 30
0.0
 10
-44.7415971833
 20
22.6533283439
 30
0.0
 10
-44.7423590785
 20
22.6525930904
 30
0.0
  0
SPLINE
  5
441
100
AcDbEntity
  8
RACCORDO
100
AcDbSpline
 62
250
  6
CONTINUOUS
 70
0
 71
3
 72
16
 73
12
 74
0
 42
0.0000001
 43
0.0000001
 44
0.0000000001
 40
0.0
 40
0.0
 40
0.0
 40
0.0
 40
0.3699259182
 40
0.5382268031
 40
0.6873077578
 40
0.8117889634
 40
0.9072712467
 40
0.9430816454
 40
0.9705150807
 40
0.9894318295
 40
1.0
 40
1.0
 40
1.0
 40
1.0
 10
-44.4427702181
 20
-22.6677048929
 30
0.0
 10
-44.4798324998
 20
-22.6676071756
 30
0.0
 10
-44.5337585925
 20
-22.6669863743
 30
0.0
 10
-44.6025921854
 20
-22.6650633262
 30
0.0
 10
-44.6468295917
 20
-22.6632539587
 30
0.0
 10
-44.6837344406
 20
-22.6610920537
 30
0.0
 10
-44.7092953089
 20
-22.6589748911
 30
0.0
 10
-44.7250577235
 20
-22.6570214455
 30
0.0
 10
-44.7332280529
 20
-22.6557085357
 30
0.0
 10
-44.7386913967
 20
-22.654360506
 30
0.0
 10
-44.7415971831
 20
-22.6533283438
 30
0.0
 10
-44.7423590785
 20
-22.6525930904
 30
0.0
  0
SPLINE
  5
442
100
AcDbEntity
  8
RACCORDO
100
AcDbSpline
 62
250
  6
CONTINUOUS
 70
0
 71
3
 72
13
 73
9
 74
0
 42
0.0000001
 43
0.0000001
 44
0.0000000001
 40
0.0
 40
0.0
 40
0.0
 40
0.0
 40
0.3594655749
 40
0.6696721421
 40
0.7929541827
 40
0.8896587751
 40
0.9579008811
 40
1.0
 40
1.0
 40
1.0
 40
1.0
 10
-44.5704696982
 20
-43.9246280955
 30
0.0
 10
-44.60757801
 20
-43.9242885758
 30
0.0
 10
-44.6766859315
 20
-43.9214327677
 30
0.0
 10
-44.7582122928
 20
-43.9122809351
 30
0.0
 10
-44.8118219481
 20
-43.9013602123
 30
0.0
 10
-44.8405000725
 20
-43.8927077809
 30
0.0
 10
-44.8597762364
 20
-43.8840329422
 30
0.0
 10
-44.8688408164
 20
-43.8756031408
 30
0.0
 10
-44.8700515186
 20
-43.871429024
 30
0.0
  0
SPLINE
  5
443
100
AcDbEntity
  8
RACCORDO
100
AcDbSpline
 62
250
  6
CONTINUOUS
 70
0
 71
3
 72
13
 73
9
 74
0
 42
0.0000001
 43
0.0000001
 44
0.0000000001
 40
0.0
 40
0.0
 40
0.0
 40
0.0
 40
0.3594637566
 40
0.6696706049
 40
0.7929532182
 40
0.8896584024
 40
0.9579009014
 40
1.0
 40
1.0
 40
1.0
 40
1.0
 10
44.5704696982
 20
-43.9246280943
 30
0.0
 10
44.6075786548
 20
-43.9242886885
 30
0.0
 10
44.6766879744
 20
-43.921433029
 30
0.0
 10
44.758216094
 20
-43.9122812798
 30
0.0
 10
44.811827142
 20
-43.9013605335
 30
0.0
 10
44.8405061231
 20
-43.8927080344
 30
0.0
 10
44.8597828577
 20
-43.8840331218
 30
0.0
 10
44.8688477969
 20
-43.8756032227
 30
0.0
 10
44.8700585586
 20
-43.8714290238
 30
0.0
  0
SPLINE
  5
444
100
AcDbEntity
  8
RACCORDO
100
AcDbSpline
 62
250
  6
CONTINUOUS
 70
0
 71
3
 72
16
 73
12
 74
0
 42
0.0000001
 43
0.0000001
 44
0.0000000001
 40
0.0
 40
0.0
 40
0.0
 40
0.0
 40
0.3699259219
 40
0.5382268082
 40
0.6873077635
 40
0.811788969
 40
0.9072712513
 40
0.9430816491
 40
0.9705150833
 40
0.9894318309
 40
1.0
 40
1.0
 40
1.0
 40
1.0
 10
44.4427702181
 20
-22.6677048932
 30
0.0
 10
44.4798325002
 20
-22.6676071759
 30
0.0
 10
44.5337585935
 20
-22.6669863746
 30
0.0
 10
44.6025921869
 20
-22.6650633264
 30
0.0
 10
44.6468295934
 20
-22.6632539589
 30
0.0
 10
44.6837344423
 20
-22.6610920539
 30
0.0
 10
44.7092953104
 20
-22.6589748912
 30
0.0
 10
44.7250577246
 20
-22.6570214455
 30
0.0
 10
44.7332280537
 20
-22.6557085357
 30
0.0
 10
44.7386913971
 20
-22.6543605061
 30
0.0
 10
44.7415971833
 20
-22.6533283439
 30
0.0
 10
44.7423590785
 20
-22.6525930904
 30
0.0
  0
SPLINE
  5
445
100
AcDbEntity
  8
RACCORDO
100
AcDbSpline
 62
250
  6
CONTINUOUS
 70
0
 71
3
 72
16
 73
12
 74
0
 42
0.0000001
 43
0.0000001
 44
0.0000000001
 40
0.0
 40
0.0
 40
0.0
 40
0.0
 40
0.3699259182
 40
0.5382268031
 40
0.6873077578
 40
0.8117889634
 40
0.9072712467
 40
0.9430816454
 40
0.9705150807
 40
0.9894318295
 40
1.0
 40
1.0
 40
1.0
 40
1.0
 10
44.4427702181
 20
22.6677048929
 30
0.0
 10
44.4798324998
 20
22.6676071756
 30
0.0
 10
44.5337585925
 20
22.6669863743
 30
0.0
 10
44.6025921854
 20
22.6650633262
 30
0.0
 10
44.6468295917
 20
22.6632539587
 30
0.0
 10
44.6837344406
 20
22.6610920537
 30
0.0
 10
44.7092953089
 20
22.6589748911
 30
0.0
 10
44.7250577235
 20
22.6570214455
 30
0.0
 10
44.7332280529
 20
22.6557085357
 30
0.0
 10
44.7386913967
 20
22.654360506
 30
0.0
 10
44.7415971831
 20
22.6533283438
 30
0.0
 10
44.7423590785
 20
22.6525930904
 30
0.0
  0
SPLINE
  5
446
100
AcDbEntity
  8
RACCORDO
100
AcDbSpline
 62
250
  6
CONTINUOUS
 70
0
 71
3
 72
13
 73
9
 74
0
 42
0.0000001
 43
0.0000001
 44
0.0000000001
 40
0.0
 40
0.0
 40
0.0
 40
0.0
 40
0.3594655749
 40
0.6696721421
 40
0.7929541827
 40
0.8896587751
 40
0.9579008811
 40
1.0
 40
1.0
 40
1.0
 40
1.0
 10
44.5704696982
 20
43.9246280955
 30
0.0
 10
44.60757801
 20
43.9242885758
 30
0.0
 10
44.6766859315
 20
43.9214327677
 30
0.0
 10
44.7582122928
 20
43.9122809351
 30
0.0
 10
44.8118219481
 20
43.9013602123
 30
0.0
 10
44.8405000725
 20
43.8927077809
 30
0.0
 10
44.8597762364
 20
43.8840329422
 30
0.0
 10
44.8688408164
 20
43.8756031408
 30
0.0
 10
44.8700515186
 20
43.871429024
 30
0.0
  0
SPLINE
  5
447
100
AcDbEntity
  8
RACCORDO
100
AcDbSpline
 62
250
  6
CONTINUOUS
 70
0
 71
3
 72
18
 73
14
 74
0
 42
0.0000001
 43
0.0000001
 44
0.0000000001
 40
0.0
 40
0.0
 40
0.0
 40
0.0
 40
0.1883056664
 40
0.3700043885
 40
0.5383357521
 40
0.6874391592
 40
0.8119314039
 40
0.86353695
 40
0.9074124094
 40
0.9432110805
 40
0.9706235142
 40
0.9895037386
 40
1.0
 40
1.0
 40
1.0
 40
1.0
 10
23.2442885593
 20
-21.8703704105
 30
0.0
 10
23.2128516211
 20
-21.8702904488
 30
0.0
 10
23.1510810299
 20
-21.8698519819
 30
0.0
 10
23.0612185768
 20
-21.8683702353
 30
0.0
 10
22.9779177032
 20
-21.8661247612
 30
0.0
 10
22.9041964196
 20
-21.8632053302
 30
0.0
 10
22.8499825064
 20
-21.8601691232
 30
0.0
 10
22.8133687792
 20
-21.8573679225
 30
0.0
 10
22.791536692
 20
-21.855316869
 30
0.0
 10
22.7738107912
 20
-21.8531893157
 30
0.0
 10
22.760195888
 20
-21.8510841777
 30
0.0
 10
22.7510955245
 20
-21.8489091296
 30
0.0
 10
22.7462533578
 20
-21.8472641998
 30
0.0
 10
22.7449708223
 20
-21.8460701642
 30
0.0
  0
SPLINE
  5
448
100
AcDbEntity
  8
RACCORDO
100
AcDbSpline
 62
250
  6
CONTINUOUS
 70
0
 71
3
 72
16
 73
12
 74
0
 42
0.0000001
 43
0.0000001
 44
0.0000000001
 40
0.0
 40
0.0
 40
0.0
 40
0.0
 40
0.3639984375
 40
0.5310171203
 40
0.679892674
 40
0.8051680661
 40
0.9023274181
 40
0.9392555619
 40
0.9679516527
 40
0.988210365
 40
1.0
 40
1.0
 40
1.0
 40
1.0
 10
22.9679615937
 20
-22.6677046126
 30
0.0
 10
22.9187379159
 20
-22.6292000393
 30
0.0
 10
22.8473242018
 20
-22.5725165899
 30
0.0
 10
22.756823718
 20
-22.4987894959
 30
0.0
 10
22.6985755998
 20
-22.4503655422
 30
0.0
 10
22.6501044567
 20
-22.4089628915
 30
0.0
 10
22.6167607383
 20
-22.3794233572
 30
0.0
 10
22.5964059471
 20
-22.3602891798
 30
0.0
 10
22.5859018534
 20
-22.3498994518
 30
0.0
 10
22.5789516274
 20
-22.3421886084
 30
0.0
 10
22.5754875889
 20
-22.3377995702
 30
0.0
 10
22.5746777662
 20
-22.3359444745
 30
0.0
  0
SPLINE
  5
449
100
AcDbEntity
  8
RACCORDO
100
AcDbSpline
 62
250
  6
CONTINUOUS
 70
0
 71
3
 72
16
 73
12
 74
0
 42
0.0000001
 43
0.0000001
 44
0.0000000001
 40
0.0
 40
0.0
 40
0.0
 40
0.0
 40
0.3639988383
 40
0.5310175508
 40
0.6798930487
 40
0.8051683326
 40
0.9023275627
 40
0.939255652
 40
0.9679516983
 40
0.9882103795
 40
1.0
 40
1.0
 40
1.0
 40
1.0
 10
-22.9679615935
 20
-22.6677046708
 30
0.0
 10
-22.9187379618
 20
-22.6292001323
 30
0.0
 10
-22.8473243364
 20
-22.572516749
 30
0.0
 10
-22.756823994
 20
-22.498789754
 30
0.0
 10
-22.6985760191
 20
-22.4503659037
 30
0.0
 10
-22.6501050212
 20
-22.4089633576
 30
0.0
 10
-22.6167614165
 20
-22.3794239044
 30
0.0
 10
-22.5964067034
 20
-22.3602897819
 30
0.0
 10
-22.5859026534
 20
-22.3499000839
 30
0.0
 10
-22.5789524586
 20
-22.3421892617
 30
0.0
 10
-22.5754884377
 20
-22.3378002334
 30
0.0
 10
-22.5746786217
 20
-22.335945142
 30
0.0
  0
SPLINE
  5
44A
100
AcDbEntity
  8
RACCORDO
100
AcDbSpline
 62
250
  6
CONTINUOUS
 70
0
 71
3
 72
18
 73
14
 74
0
 42
0.0000001
 43
0.0000001
 44
0.0000000001
 40
0.0
 40
0.0
 40
0.0
 40
0.0
 40
0.1883064479
 40
0.370005591
 40
0.5383370468
 40
0.6874402836
 40
0.8119321966
 40
0.8635375542
 40
0.9074128303
 40
0.9432113372
 40
0.970623639
 40
0.9895037745
 40
1.0
 40
1.0
 40
1.0
 40
1.0
 10
-23.2442885593
 20
-21.8703705753
 30
0.0
 10
-23.2128516759
 20
-21.8702905982
 30
0.0
 10
-23.1510812481
 20
-21.8698521028
 30
0.0
 10
-23.0612191092
 20
-21.8683703171
 30
0.0
 10
-22.9779186703
 20
-21.8661248101
 30
0.0
 10
-22.9041978912
 20
-21.863205354
 30
0.0
 10
-22.8499844147
 20
-21.8601691316
 30
0.0
 10
-22.8133710229
 20
-21.857367923
 30
0.0
 10
-22.7915391556
 20
-21.8553168664
 30
0.0
 10
-22.7738134414
 20
-21.8531893123
 30
0.0
 10
-22.7601986856
 20
-21.8510841729
 30
0.0
 10
-22.7510984218
 20
-21.8489091282
 30
0.0
 10
-22.7462563093
 20
-21.8472641952
 30
0.0
 10
-22.744973792
 20
-21.8460701642
 30
0.0
  0
SPLINE
  5
44B
100
AcDbEntity
  8
RACCORDO
100
AcDbSpline
 62
250
  6
CONTINUOUS
 70
0
 71
3
 72
18
 73
14
 74
0
 42
0.0000001
 43
0.0000001
 44
0.0000000001
 40
0.0
 40
0.0
 40
0.0
 40
0.0
 40
0.1883056345
 40
0.3700043393
 40
0.5383356991
 40
0.6874391132
 40
0.8119313713
 40
0.8635369251
 40
0.907412392
 40
0.9432110698
 40
0.9706235089
 40
0.989503737
 40
1.0
 40
1.0
 40
1.0
 40
1.0
 10
-23.2442885593
 20
21.8703704037
 30
0.0
 10
-23.2128516188
 20
21.8702904427
 30
0.0
 10
-23.1510810208
 20
21.8698519769
 30
0.0
 10
-23.0612185548
 20
21.868370232
 30
0.0
 10
-22.9779176633
 20
21.8661247593
 30
0.0
 10
-22.904196359
 20
21.8632053292
 30
0.0
 10
-22.8499824279
 20
21.8601691228
 30
0.0
 10
-22.813368687
 20
21.8573679225
 30
0.0
 10
-22.7915365908
 20
21.8553168691
 30
0.0
 10
-22.7738106823
 20
21.8531893158
 30
0.0
 10
-22.7601957731
 20
21.8510841779
 30
0.0
 10
-22.7510954054
 20
21.8489091296
 30
0.0
 10
-22.7462532364
 20
21.8472642
 30
0.0
 10
-22.7449707002
 20
21.8460701642
 30
0.0
  0
SPLINE
  5
44C
100
AcDbEntity
  8
RACCORDO
100
AcDbSpline
 62
250
  6
CONTINUOUS
 70
0
 71
3
 72
16
 73
12
 74
0
 42
0.0000001
 43
0.0000001
 44
0.0000000001
 40
0.0
 40
0.0
 40
0.0
 40
0.0
 40
0.3639984375
 40
0.5310171203
 40
0.679892674
 40
0.8051680661
 40
0.9023274181
 40
0.9392555619
 40
0.9679516527
 40
0.988210365
 40
1.0
 40
1.0
 40
1.0
 40
1.0
 10
-22.9679615937
 20
22.6677046126
 30
0.0
 10
-22.9187379159
 20
22.6292000393
 30
0.0
 10
-22.8473242018
 20
22.5725165899
 30
0.0
 10
-22.756823718
 20
22.4987894959
 30
0.0
 10
-22.6985755998
 20
22.4503655422
 30
0.0
 10
-22.6501044567
 20
22.4089628915
 30
0.0
 10
-22.6167607383
 20
22.3794233572
 30
0.0
 10
-22.5964059471
 20
22.3602891798
 30
0.0
 10
-22.5859018534
 20
22.3498994518
 30
0.0
 10
-22.5789516273
 20
22.3421886084
 30
0.0
 10
-22.5754875889
 20
22.3377995702
 30
0.0
 10
-22.5746777662
 20
22.3359444745
 30
0.0
  0
SPLINE
  5
44D
100
AcDbEntity
  8
RACCORDO
100
AcDbSpline
 62
250
  6
CONTINUOUS
 70
0
 71
3
 72
16
 73
12
 74
0
 42
0.0000001
 43
0.0000001
 44
0.0000000001
 40
0.0
 40
0.0
 40
0.0
 40
0.0
 40
0.3639987362
 40
0.5310174407
 40
0.6798929535
 40
0.8051682664
 40
0.9023275288
 40
0.9392556321
 40
0.9679516893
 40
0.9882103773
 40
1.0
 40
1.0
 40
1.0
 40
1.0
 10
22.9679615935
 20
22.6677046554
 30
0.0
 10
22.9187379521
 20
22.6292001117
 30
0.0
 10
22.8473243074
 20
22.5725167163
 30
0.0
 10
22.7568239339
 20
22.4987897012
 30
0.0
 10
22.6985759257
 20
22.4503658274
 30
0.0
 10
22.6501048936
 20
22.4089632563
 30
0.0
 10
22.6167612621
 20
22.3794237833
 30
0.0
 10
22.596406531
 20
22.3602896472
 30
0.0
 10
22.5859024711
 20
22.3498999418
 30
0.0
 10
22.5789522699
 20
22.3421891145
 30
0.0
 10
22.5754882454
 20
22.3378000838
 30
0.0
 10
22.5746784285
 20
22.3359449913
 30
0.0
  0
SPLINE
  5
44E
100
AcDbEntity
  8
RACCORDO
100
AcDbSpline
 62
250
  6
CONTINUOUS
 70
0
 71
3
 72
18
 73
14
 74
0
 42
0.0000001
 43
0.0000001
 44
0.0000000001
 40
0.0
 40
0.0
 40
0.0
 40
0.0
 40
0.1883064479
 40
0.370005591
 40
0.5383370468
 40
0.6874402836
 40
0.8119321966
 40
0.8635375542
 40
0.9074128303
 40
0.9432113372
 40
0.970623639
 40
0.9895037745
 40
1.0
 40
1.0
 40
1.0
 40
1.0
 10
23.2442885593
 20
21.8703705753
 30
0.0
 10
23.2128516759
 20
21.8702905982
 30
0.0
 10
23.1510812481
 20
21.8698521028
 30
0.0
 10
23.0612191092
 20
21.8683703171
 30
0.0
 10
22.9779186703
 20
21.8661248101
 30
0.0
 10
22.9041978912
 20
21.863205354
 30
0.0
 10
22.8499844147
 20
21.8601691316
 30
0.0
 10
22.8133710229
 20
21.857367923
 30
0.0
 10
22.7915391556
 20
21.8553168664
 30
0.0
 10
22.7738134414
 20
21.8531893123
 30
0.0
 10
22.7601986856
 20
21.8510841729
 30
0.0
 10
22.7510984218
 20
21.8489091282
 30
0.0
 10
22.7462563093
 20
21.8472641952
 30
0.0
 10
22.744973792
 20
21.8460701642
 30
0.0
  0
SPLINE
  5
44F
100
AcDbEntity
  8
RACCORDO
100
AcDbSpline
 62
250
  6
CONTINUOUS
 70
0
 71
3
 72
11
 73
7
 74
0
 42
0.0000001
 43
0.0000001
 44
0.0000000001
 40
0.0
 40
0.0
 40
0.0
 40
0.0
 40
0.2518132804
 40
0.5024878192
 40
0.7516926537
 40
1.0
 40
1.0
 40
1.0
 40
1.0
 10
-43.8781758769
 20
44.6316825048
 30
0.0
 10
-43.9700017891
 20
44.6316856771
 30
0.0
 10
-44.1553859713
 20
44.5942209145
 30
0.0
 10
-44.3868757931
 20
44.4343345128
 30
0.0
 10
-44.537895756
 20
44.1988617765
 30
0.0
 10
-44.5713176045
 20
44.0151715791
 30
0.0
 10
-44.5704696982
 20
43.9246281065
 30
0.0
  0
SPLINE
  5
450
100
AcDbEntity
  8
RACCORDO
100
AcDbSpline
 62
250
  6
CONTINUOUS
 70
0
 71
3
 72
11
 73
7
 74
0
 42
0.0000001
 43
0.0000001
 44
0.0000000001
 40
0.0
 40
0.0
 40
0.0
 40
0.0
 40
0.2483065073
 40
0.4975112282
 40
0.7481857848
 40
1.0
 40
1.0
 40
1.0
 40
1.0
 10
44.5704696982
 20
43.9246281065
 30
0.0
 10
44.5713253015
 20
44.0151712058
 30
0.0
 10
44.5378900311
 20
44.1988610759
 30
0.0
 10
44.3868770857
 20
44.4343324605
 30
0.0
 10
44.1553871233
 20
44.5942280108
 30
0.0
 10
43.9700021349
 20
44.631676086
 30
0.0
 10
43.8781758769
 20
44.6316825048
 30
0.0
  0
SPLINE
  5
451
100
AcDbEntity
  8
ASSI
100
AcDbSpline
 62
7
  6
CONTINUOUS
 70
0
 71
3
 72
9
 73
5
 74
0
 42
0.0000001
 43
0.0000001
 44
0.0000000001
 40
0.0
 40
0.0
 40
0.0
 40
0.0
 40
0.6439294666
 40
1.0
 40
1.0
 40
1.0
 40
1.0
 10
4.8214020846
 20
-28.0286629395
 30
0.0
 10
4.7890022465
 20
-27.9424410034
 30
0.0
 10
4.6927867234
 20
-27.8129762614
 30
0.0
 10
4.5463479047
 20
-27.7821519248
 30
0.0
 10
4.4954209623
 20
-27.7821519248
 30
0.0
  0
SPLINE
  5
452
100
AcDbEntity
  8
ASSI
100
AcDbSpline
 62
7
  6
CONTINUOUS
 70
0
 71
3
 72
9
 73
5
 74
0
 42
0.0000001
 43
0.0000001
 44
0.0000000001
 40
0.0
 40
0.0
 40
0.0
 40
0.0
 40
0.4412847512
 40
1.0
 40
1.0
 40
1.0
 40
1.0
 10
5.0770156219
 20
-28.8778013544
 30
0.0
 10
5.0409723412
 20
-28.7524351727
 30
0.0
 10
4.9558677832
 20
-28.4695061601
 30
0.0
 10
4.8794973817
 20
-28.1832655892
 30
0.0
 10
4.8214020539
 20
-28.028662951
 30
0.0
  0
SPLINE
  5
453
100
AcDbEntity
  8
ASSI
100
AcDbSpline
 62
7
  6
CONTINUOUS
 70
0
 71
3
 72
9
 73
5
 74
0
 42
0.0000001
 43
0.0000001
 44
0.0000000001
 40
0.0
 40
0.0
 40
0.0
 40
0.0
 40
0.8019701122
 40
1.0
 40
1.0
 40
1.0
 40
1.0
 10
5.4393791728
 20
-28.1201003278
 30
0.0
 10
5.4944413606
 20
-28.3222068222
 30
0.0
 10
5.5592396864
 20
-28.5752516928
 30
0.0
 10
5.6255909827
 20
-28.8278846732
 30
0.0
 10
5.6391482119
 20
-28.8778013544
 30
0.0
  0
SPLINE
  5
454
100
AcDbEntity
  8
ASSI
100
AcDbSpline
 62
7
  6
CONTINUOUS
 70
0
 71
3
 72
9
 73
5
 74
0
 42
0.0000001
 43
0.0000001
 44
0.0000000001
 40
0.0
 40
0.0
 40
0.0
 40
0.0
 40
0.7572691364
 40
1.0
 40
1.0
 40
1.0
 40
1.0
 10
5.1025031649
 20
-27.5709244369
 30
0.0
 10
5.255367936
 20
-27.6318792643
 30
0.0
 10
5.3725710824
 20
-27.8637401452
 30
0.0
 10
5.4255129547
 20
-28.0692041956
 30
0.0
 10
5.4393791724
 20
-28.1201003279
 30
0.0
  0
SPLINE
  5
455
100
AcDbEntity
  8
ASSI
100
AcDbSpline
 62
7
  6
CONTINUOUS
 70
0
 71
3
 72
17
 73
13
 74
0
 42
0.0000001
 43
0.0000001
 44
0.0000000001
 40
0.0
 40
0.0
 40
0.0
 40
0.0
 40
0.0799595168
 40
0.1896577306
 40
0.3223977561
 40
0.3986068941
 40
0.483386777
 40
0.5877249163
 40
0.678993766
 40
0.8312459613
 40
0.9440219048
 40
1.0
 40
1.0
 40
1.0
 40
1.0
 10
5.0422484297
 20
-26.1402838735
 30
0.0
 10
5.0859795369
 20
-26.1560600248
 30
0.0
 10
5.183634306
 20
-26.2099201326
 30
0.0
 10
5.325664752
 20
-26.3348013094
 30
0.0
 10
5.4262584299
 20
-26.4944905445
 30
0.0
 10
5.4798168525
 20
-26.6574351189
 30
0.0
 10
5.5019150414
 20
-26.8107834593
 30
0.0
 10
5.4977219253
 20
-26.9749694039
 30
0.0
 10
5.4530896147
 20
-27.1727887701
 30
0.0
 10
5.352899701
 20
-27.3624114407
 30
0.0
 10
5.2168310745
 20
-27.4855954586
 30
0.0
 10
5.1347821269
 20
-27.5502156007
 30
0.0
 10
5.1025031649
 20
-27.554380628
 30
0.0
  0
SPLINE
  5
456
100
AcDbEntity
  8
ASSI
100
AcDbSpline
 62
7
  6
CONTINUOUS
 70
0
 71
3
 72
9
 73
5
 74
0
 42
0.0000001
 43
0.0000001
 44
0.0000000001
 40
0.0
 40
0.0
 40
0.0
 40
0.0
 40
0.7042582166
 40
1.0
 40
1.0
 40
1.0
 40
1.0
 10
3.6000188023
 20
-26.110807341
 30
0.0
 10
3.9372644821
 20
-26.0611927589
 30
0.0
 10
4.423711295
 20
-26.0123623732
 30
0.0
 10
4.9076197825
 20
-26.091645622
 30
0.0
 10
5.0422484297
 20
-26.1402838735
 30
0.0
  0
SPLINE
  5
457
100
AcDbEntity
  8
ASSI
100
AcDbSpline
 62
7
  6
CONTINUOUS
 70
0
 71
3
 72
9
 73
5
 74
0
 42
0.0000001
 43
0.0000001
 44
0.0000000001
 40
0.0
 40
0.0
 40
0.0
 40
0.0
 40
0.729595832
 40
1.0
 40
1.0
 40
1.0
 40
1.0
 10
4.62051343
 20
-26.538572249
 30
0.0
 10
4.509611128
 20
-26.5257006641
 30
0.0
 10
4.3548035222
 20
-26.5252045035
 30
0.0
 10
4.2034864135
 20
-26.5480947605
 30
0.0
 10
4.1626972541
 20
-26.5550547959
 30
0.0
  0
SPLINE
  5
458
100
AcDbEntity
  8
ASSI
100
AcDbSpline
 62
7
  6
CONTINUOUS
 70
0
 71
3
 72
9
 73
5
 74
0
 42
0.0000001
 43
0.0000001
 44
0.0000000001
 40
0.0
 40
0.0
 40
0.0
 40
0.0
 40
0.4988583596
 40
1.0
 40
1.0
 40
1.0
 40
1.0
 10
4.950652159
 20
-26.8887857334
 30
0.0
 10
4.9493698463
 20
-26.8029633033
 30
0.0
 10
4.8794958739
 20
-26.6239753862
 30
0.0
 10
4.7061699302
 20
-26.5485137461
 30
0.0
 10
4.62051343
 20
-26.5385722488
 30
0.0
  0
SPLINE
  5
459
100
AcDbEntity
  8
ASSI
100
AcDbSpline
 62
7
  6
CONTINUOUS
 70
0
 71
3
 72
9
 73
5
 74
0
 42
0.0000001
 43
0.0000001
 44
0.0000000001
 40
0.0
 40
0.0
 40
0.0
 40
0.0
 40
0.4795375494
 40
1.0
 40
1.0
 40
1.0
 40
1.0
 10
4.4966806432
 20
-27.3236280866
 30
0.0
 10
4.6081111271
 20
-27.3211392056
 30
0.0
 10
4.8669268789
 20
-27.2739986466
 30
0.0
 10
4.952459695
 20
-27.0097627763
 30
0.0
 10
4.9506521347
 20
-26.8887857338
 30
0.0
  0
SPLINE
  5
45A
100
AcDbEntity
  8
ASSI
100
AcDbSpline
 62
250
  6
CONTINUOUS
 70
0
 71
3
 72
11
 73
7
 74
0
 42
0.0000001
 43
0.0000001
 44
0.0000000001
 40
0.0
 40
0.0
 40
0.0
 40
0.0
 40
0.2494342068
 40
0.4990858824
 40
0.7492754921
 40
1.0
 40
1.0
 40
1.0
 40
1.0
 10
-44.8700585586
 20
-43.8714290238
 30
0.0
 10
-44.8708149157
 20
-44.001145936
 30
0.0
 10
-44.8213326635
 20
-44.2638091196
 30
0.0
 10
-44.6028484551
 20
-44.5982899551
 30
0.0
 10
-44.2719854842
 20
-44.8238270642
 30
0.0
 10
-44.0085659718
 20
-44.8766936624
 30
0.0
 10
-43.8781758769
 20
-44.8768054117
 30
0.0
  0
SPLINE
  5
45B
100
AcDbEntity
  8
ASSI
100
AcDbSpline
 62
250
  6
CONTINUOUS
 70
0
 71
3
 72
11
 73
7
 74
0
 42
0.0000001
 43
0.0000001
 44
0.0000000001
 40
0.0
 40
0.0
 40
0.0
 40
0.0
 40
0.2507235208
 40
0.5009133858
 40
0.7505648805
 40
1.0
 40
1.0
 40
1.0
 40
1.0
 10
-43.8781758769
 20
44.8768054117
 30
0.0
 10
-44.0085654654
 20
44.8767007602
 30
0.0
 10
-44.2719846872
 20
44.8238239883
 30
0.0
 10
-44.602846979
 20
44.5982919702
 30
0.0
 10
-44.8213345733
 20
44.2638097105
 30
0.0
 10
-44.8708100858
 20
44.0011464398
 30
0.0
 10
-44.8700585586
 20
43.8714290238
 30
0.0
  0
SPLINE
  5
45C
100
AcDbEntity
  8
ASSI
100
AcDbSpline
 62
250
  6
CONTINUOUS
 70
0
 71
3
 72
11
 73
7
 74
0
 42
0.0000001
 43
0.0000001
 44
0.0000000001
 40
0.0
 40
0.0
 40
0.0
 40
0.0
 40
0.2507235208
 40
0.5009133858
 40
0.7505648805
 40
1.0
 40
1.0
 40
1.0
 40
1.0
 10
43.8781758769
 20
-44.8768054117
 30
0.0
 10
44.0085654654
 20
-44.8767007602
 30
0.0
 10
44.2719846872
 20
-44.8238239883
 30
0.0
 10
44.602846979
 20
-44.5982919702
 30
0.0
 10
44.8213345733
 20
-44.2638097105
 30
0.0
 10
44.8708100858
 20
-44.0011464398
 30
0.0
 10
44.8700585586
 20
-43.8714290238
 30
0.0
  0
SPLINE
  5
45D
100
AcDbEntity
  8
ASSI
100
AcDbSpline
 62
250
  6
CONTINUOUS
 70
0
 71
3
 72
11
 73
7
 74
0
 42
0.0000001
 43
0.0000001
 44
0.0000000001
 40
0.0
 40
0.0
 40
0.0
 40
0.0
 40
0.2494342068
 40
0.4990858824
 40
0.7492754921
 40
1.0
 40
1.0
 40
1.0
 40
1.0
 10
44.8700585586
 20
43.8714290238
 30
0.0
 10
44.8708149157
 20
44.001145936
 30
0.0
 10
44.8213326635
 20
44.2638091196
 30
0.0
 10
44.6028484551
 20
44.5982899551
 30
0.0
 10
44.2719854842
 20
44.8238270642
 30
0.0
 10
44.0085659718
 20
44.8766936624
 30
0.0
 10
43.8781758769
 20
44.8768054117
 30
0.0
  0
SPLINE
  5
45E
100
AcDbEntity
  8
ASSI
100
AcDbSpline
 62
250
  6
CONTINUOUS
 70
0
 71
3
 72
13
 73
9
 74
0
 42
0.0000001
 43
0.0000001
 44
0.0000000001
 40
0.0
 40
0.0
 40
0.0
 40
0.0
 40
0.3594637566
 40
0.6696706049
 40
0.7929532182
 40
0.8896584024
 40
0.9579009014
 40
1.0
 40
1.0
 40
1.0
 40
1.0
 10
-44.5704696982
 20
43.9246280943
 30
0.0
 10
-44.6075786548
 20
43.9242886885
 30
0.0
 10
-44.6766879744
 20
43.921433029
 30
0.0
 10
-44.758216094
 20
43.9122812798
 30
0.0
 10
-44.811827142
 20
43.9013605335
 30
0.0
 10
-44.8405061231
 20
43.8927080344
 30
0.0
 10
-44.8597828577
 20
43.8840331218
 30
0.0
 10
-44.8688477969
 20
43.8756032227
 30
0.0
 10
-44.8700585586
 20
43.8714290238
 30
0.0
  0
SPLINE
  5
45F
100
AcDbEntity
  8
ASSI
100
AcDbSpline
 62
250
  6
CONTINUOUS
 70
0
 71
3
 72
16
 73
12
 74
0
 42
0.0000001
 43
0.0000001
 44
0.0000000001
 40
0.0
 40
0.0
 40
0.0
 40
0.0
 40
0.3699259212
 40
0.5382268072
 40
0.6873077625
 40
0.811788968
 40
0.9072712504
 40
0.9430816484
 40
0.9705150828
 40
0.9894318306
 40
1.0
 40
1.0
 40
1.0
 40
1.0
 10
-44.4427702181
 20
22.6677048931
 30
0.0
 10
-44.4798325001
 20
22.6676071759
 30
0.0
 10
-44.5337585933
 20
22.6669863745
 30
0.0
 10
-44.6025921866
 20
22.6650633263
 30
0.0
 10
-44.6468295931
 20
22.6632539588
 30
0.0
 10
-44.683734442
 20
22.6610920538
 30
0.0
 10
-44.7092953101
 20
22.6589748912
 30
0.0
 10
-44.7250577244
 20
22.6570214455
 30
0.0
 10
-44.7332280536
 20
22.6557085357
 30
0.0
 10
-44.738691397
 20
22.6543605061
 30
0.0
 10
-44.7415971833
 20
22.6533283439
 30
0.0
 10
-44.7423590785
 20
22.6525930904
 30
0.0
  0
SPLINE
  5
460
100
AcDbEntity
  8
ASSI
100
AcDbSpline
 62
250
  6
CONTINUOUS
 70
0
 71
3
 72
16
 73
12
 74
0
 42
0.0000001
 43
0.0000001
 44
0.0000000001
 40
0.0
 40
0.0
 40
0.0
 40
0.0
 40
0.3699259182
 40
0.5382268031
 40
0.6873077578
 40
0.8117889634
 40
0.9072712467
 40
0.9430816454
 40
0.9705150807
 40
0.9894318295
 40
1.0
 40
1.0
 40
1.0
 40
1.0
 10
-44.4427702181
 20
-22.6677048929
 30
0.0
 10
-44.4798324998
 20
-22.6676071756
 30
0.0
 10
-44.5337585925
 20
-22.6669863743
 30
0.0
 10
-44.6025921854
 20
-22.6650633262
 30
0.0
 10
-44.6468295917
 20
-22.6632539587
 30
0.0
 10
-44.6837344406
 20
-22.6610920537
 30
0.0
 10
-44.7092953089
 20
-22.6589748911
 30
0.0
 10
-44.7250577235
 20
-22.6570214455
 30
0.0
 10
-44.7332280529
 20
-22.6557085357
 30
0.0
 10
-44.7386913967
 20
-22.654360506
 30
0.0
 10
-44.7415971831
 20
-22.6533283438
 30
0.0
 10
-44.7423590785
 20
-22.6525930904
 30
0.0
  0
SPLINE
  5
461
100
AcDbEntity
  8
ASSI
100
AcDbSpline
 62
250
  6
CONTINUOUS
 70
0
 71
3
 72
13
 73
9
 74
0
 42
0.0000001
 43
0.0000001
 44
0.0000000001
 40
0.0
 40
0.0
 40
0.0
 40
0.0
 40
0.3594655749
 40
0.6696721421
 40
0.7929541827
 40
0.8896587751
 40
0.9579008811
 40
1.0
 40
1.0
 40
1.0
 40
1.0
 10
-44.5704696982
 20
-43.9246280955
 30
0.0
 10
-44.60757801
 20
-43.9242885758
 30
0.0
 10
-44.6766859315
 20
-43.9214327677
 30
0.0
 10
-44.7582122928
 20
-43.9122809351
 30
0.0
 10
-44.8118219481
 20
-43.9013602123
 30
0.0
 10
-44.8405000725
 20
-43.8927077809
 30
0.0
 10
-44.8597762364
 20
-43.8840329422
 30
0.0
 10
-44.8688408164
 20
-43.8756031408
 30
0.0
 10
-44.8700515186
 20
-43.871429024
 30
0.0
  0
SPLINE
  5
462
100
AcDbEntity
  8
ASSI
100
AcDbSpline
 62
250
  6
CONTINUOUS
 70
0
 71
3
 72
13
 73
9
 74
0
 42
0.0000001
 43
0.0000001
 44
0.0000000001
 40
0.0
 40
0.0
 40
0.0
 40
0.0
 40
0.3594637566
 40
0.6696706049
 40
0.7929532182
 40
0.8896584024
 40
0.9579009014
 40
1.0
 40
1.0
 40
1.0
 40
1.0
 10
44.5704696982
 20
-43.9246280943
 30
0.0
 10
44.6075786548
 20
-43.9242886885
 30
0.0
 10
44.6766879744
 20
-43.921433029
 30
0.0
 10
44.758216094
 20
-43.9122812798
 30
0.0
 10
44.811827142
 20
-43.9013605335
 30
0.0
 10
44.8405061231
 20
-43.8927080344
 30
0.0
 10
44.8597828577
 20
-43.8840331218
 30
0.0
 10
44.8688477969
 20
-43.8756032227
 30
0.0
 10
44.8700585586
 20
-43.8714290238
 30
0.0
  0
SPLINE
  5
463
100
AcDbEntity
  8
ASSI
100
AcDbSpline
 62
250
  6
CONTINUOUS
 70
0
 71
3
 72
16
 73
12
 74
0
 42
0.0000001
 43
0.0000001
 44
0.0000000001
 40
0.0
 40
0.0
 40
0.0
 40
0.0
 40
0.3699259219
 40
0.5382268082
 40
0.6873077635
 40
0.811788969
 40
0.9072712513
 40
0.9430816491
 40
0.9705150833
 40
0.9894318309
 40
1.0
 40
1.0
 40
1.0
 40
1.0
 10
44.4427702181
 20
-22.6677048932
 30
0.0
 10
44.4798325002
 20
-22.6676071759
 30
0.0
 10
44.5337585935
 20
-22.6669863746
 30
0.0
 10
44.6025921869
 20
-22.6650633264
 30
0.0
 10
44.6468295934
 20
-22.6632539589
 30
0.0
 10
44.6837344423
 20
-22.6610920539
 30
0.0
 10
44.7092953104
 20
-22.6589748912
 30
0.0
 10
44.7250577246
 20
-22.6570214455
 30
0.0
 10
44.7332280537
 20
-22.6557085357
 30
0.0
 10
44.7386913971
 20
-22.6543605061
 30
0.0
 10
44.7415971833
 20
-22.6533283439
 30
0.0
 10
44.7423590785
 20
-22.6525930904
 30
0.0
  0
SPLINE
  5
464
100
AcDbEntity
  8
ASSI
100
AcDbSpline
 62
250
  6
CONTINUOUS
 70
0
 71
3
 72
16
 73
12
 74
0
 42
0.0000001
 43
0.0000001
 44
0.0000000001
 40
0.0
 40
0.0
 40
0.0
 40
0.0
 40
0.3699259182
 40
0.5382268031
 40
0.6873077578
 40
0.8117889634
 40
0.9072712467
 40
0.9430816454
 40
0.9705150807
 40
0.9894318295
 40
1.0
 40
1.0
 40
1.0
 40
1.0
 10
44.4427702181
 20
22.6677048929
 30
0.0
 10
44.4798324998
 20
22.6676071756
 30
0.0
 10
44.5337585925
 20
22.6669863743
 30
0.0
 10
44.6025921854
 20
22.6650633262
 30
0.0
 10
44.6468295917
 20
22.6632539587
 30
0.0
 10
44.6837344406
 20
22.6610920537
 30
0.0
 10
44.7092953089
 20
22.6589748911
 30
0.0
 10
44.7250577235
 20
22.6570214455
 30
0.0
 10
44.7332280529
 20
22.6557085357
 30
0.0
 10
44.7386913967
 20
22.654360506
 30
0.0
 10
44.7415971831
 20
22.6533283438
 30
0.0
 10
44.7423590785
 20
22.6525930904
 30
0.0
  0
SPLINE
  5
465
100
AcDbEntity
  8
ASSI
100
AcDbSpline
 62
250
  6
CONTINUOUS
 70
0
 71
3
 72
13
 73
9
 74
0
 42
0.0000001
 43
0.0000001
 44
0.0000000001
 40
0.0
 40
0.0
 40
0.0
 40
0.0
 40
0.3594655749
 40
0.6696721421
 40
0.7929541827
 40
0.8896587751
 40
0.9579008811
 40
1.0
 40
1.0
 40
1.0
 40
1.0
 10
44.5704696982
 20
43.9246280955
 30
0.0
 10
44.60757801
 20
43.9242885758
 30
0.0
 10
44.6766859315
 20
43.9214327677
 30
0.0
 10
44.7582122928
 20
43.9122809351
 30
0.0
 10
44.8118219481
 20
43.9013602123
 30
0.0
 10
44.8405000725
 20
43.8927077809
 30
0.0
 10
44.8597762364
 20
43.8840329422
 30
0.0
 10
44.8688408164
 20
43.8756031408
 30
0.0
 10
44.8700515186
 20
43.871429024
 30
0.0
  0
SPLINE
  5
466
100
AcDbEntity
  8
ASSI
100
AcDbSpline
 62
250
  6
CONTINUOUS
 70
0
 71
3
 72
11
 73
7
 74
0
 42
0.0000001
 43
0.0000001
 44
0.0000000001
 40
0.0
 40
0.0
 40
0.0
 40
0.0
 40
0.2518132804
 40
0.5024878192
 40
0.7516926537
 40
1.0
 40
1.0
 40
1.0
 40
1.0
 10
43.8781758769
 20
-44.6316825048
 30
0.0
 10
43.9700017891
 20
-44.6316856771
 30
0.0
 10
44.1553859713
 20
-44.5942209145
 30
0.0
 10
44.3868757931
 20
-44.4343345128
 30
0.0
 10
44.537895756
 20
-44.1988617765
 30
0.0
 10
44.5713176045
 20
-44.0151715791
 30
0.0
 10
44.5704696982
 20
-43.9246281065
 30
0.0
  0
SPLINE
  5
467
100
AcDbEntity
  8
ASSI
100
AcDbSpline
 62
250
  6
CONTINUOUS
 70
0
 71
3
 72
18
 73
14
 74
0
 42
0.0000001
 43
0.0000001
 44
0.0000000001
 40
0.0
 40
0.0
 40
0.0
 40
0.0
 40
0.1883056664
 40
0.3700043885
 40
0.5383357521
 40
0.6874391592
 40
0.8119314039
 40
0.86353695
 40
0.9074124094
 40
0.9432110805
 40
0.9706235142
 40
0.9895037386
 40
1.0
 40
1.0
 40
1.0
 40
1.0
 10
23.2442885593
 20
-21.8703704105
 30
0.0
 10
23.2128516211
 20
-21.8702904488
 30
0.0
 10
23.1510810299
 20
-21.8698519819
 30
0.0
 10
23.0612185768
 20
-21.8683702353
 30
0.0
 10
22.9779177032
 20
-21.8661247612
 30
0.0
 10
22.9041964196
 20
-21.8632053302
 30
0.0
 10
22.8499825064
 20
-21.8601691232
 30
0.0
 10
22.8133687792
 20
-21.8573679225
 30
0.0
 10
22.791536692
 20
-21.855316869
 30
0.0
 10
22.7738107912
 20
-21.8531893157
 30
0.0
 10
22.760195888
 20
-21.8510841777
 30
0.0
 10
22.7510955245
 20
-21.8489091296
 30
0.0
 10
22.7462533578
 20
-21.8472641998
 30
0.0
 10
22.7449708223
 20
-21.8460701642
 30
0.0
  0
SPLINE
  5
468
100
AcDbEntity
  8
ASSI
100
AcDbSpline
 62
250
  6
CONTINUOUS
 70
0
 71
3
 72
16
 73
12
 74
0
 42
0.0000001
 43
0.0000001
 44
0.0000000001
 40
0.0
 40
0.0
 40
0.0
 40
0.0
 40
0.3639984375
 40
0.5310171203
 40
0.679892674
 40
0.8051680661
 40
0.9023274181
 40
0.9392555619
 40
0.9679516527
 40
0.988210365
 40
1.0
 40
1.0
 40
1.0
 40
1.0
 10
22.9679615937
 20
-22.6677046126
 30
0.0
 10
22.9187379159
 20
-22.6292000393
 30
0.0
 10
22.8473242018
 20
-22.5725165899
 30
0.0
 10
22.756823718
 20
-22.4987894959
 30
0.0
 10
22.6985755998
 20
-22.4503655422
 30
0.0
 10
22.6501044567
 20
-22.4089628915
 30
0.0
 10
22.6167607383
 20
-22.3794233572
 30
0.0
 10
22.5964059471
 20
-22.3602891798
 30
0.0
 10
22.5859018534
 20
-22.3498994518
 30
0.0
 10
22.5789516274
 20
-22.3421886084
 30
0.0
 10
22.5754875889
 20
-22.3377995702
 30
0.0
 10
22.5746777662
 20
-22.3359444745
 30
0.0
  0
SPLINE
  5
469
100
AcDbEntity
  8
ASSI
100
AcDbSpline
 62
250
  6
CONTINUOUS
 70
0
 71
3
 72
16
 73
12
 74
0
 42
0.0000001
 43
0.0000001
 44
0.0000000001
 40
0.0
 40
0.0
 40
0.0
 40
0.0
 40
0.3639988383
 40
0.5310175508
 40
0.6798930487
 40
0.8051683326
 40
0.9023275627
 40
0.939255652
 40
0.9679516983
 40
0.9882103795
 40
1.0
 40
1.0
 40
1.0
 40
1.0
 10
-22.9679615935
 20
-22.6677046708
 30
0.0
 10
-22.9187379618
 20
-22.6292001323
 30
0.0
 10
-22.8473243364
 20
-22.572516749
 30
0.0
 10
-22.756823994
 20
-22.498789754
 30
0.0
 10
-22.6985760191
 20
-22.4503659037
 30
0.0
 10
-22.6501050212
 20
-22.4089633576
 30
0.0
 10
-22.6167614165
 20
-22.3794239044
 30
0.0
 10
-22.5964067034
 20
-22.3602897819
 30
0.0
 10
-22.5859026534
 20
-22.3499000839
 30
0.0
 10
-22.5789524586
 20
-22.3421892617
 30
0.0
 10
-22.5754884377
 20
-22.3378002334
 30
0.0
 10
-22.5746786217
 20
-22.335945142
 30
0.0
  0
SPLINE
  5
46A
100
AcDbEntity
  8
ASSI
100
AcDbSpline
 62
250
  6
CONTINUOUS
 70
0
 71
3
 72
18
 73
14
 74
0
 42
0.0000001
 43
0.0000001
 44
0.0000000001
 40
0.0
 40
0.0
 40
0.0
 40
0.0
 40
0.1883064479
 40
0.370005591
 40
0.5383370468
 40
0.6874402836
 40
0.8119321966
 40
0.8635375542
 40
0.9074128303
 40
0.9432113372
 40
0.970623639
 40
0.9895037745
 40
1.0
 40
1.0
 40
1.0
 40
1.0
 10
-23.2442885593
 20
-21.8703705753
 30
0.0
 10
-23.2128516759
 20
-21.8702905982
 30
0.0
 10
-23.1510812481
 20
-21.8698521028
 30
0.0
 10
-23.0612191092
 20
-21.8683703171
 30
0.0
 10
-22.9779186703
 20
-21.8661248101
 30
0.0
 10
-22.9041978912
 20
-21.863205354
 30
0.0
 10
-22.8499844147
 20
-21.8601691316
 30
0.0
 10
-22.8133710229
 20
-21.857367923
 30
0.0
 10
-22.7915391556
 20
-21.8553168664
 30
0.0
 10
-22.7738134414
 20
-21.8531893123
 30
0.0
 10
-22.7601986856
 20
-21.8510841729
 30
0.0
 10
-22.7510984218
 20
-21.8489091282
 30
0.0
 10
-22.7462563093
 20
-21.8472641952
 30
0.0
 10
-22.744973792
 20
-21.8460701642
 30
0.0
  0
SPLINE
  5
46B
100
AcDbEntity
  8
ASSI
100
AcDbSpline
 62
250
  6
CONTINUOUS
 70
0
 71
3
 72
18
 73
14
 74
0
 42
0.0000001
 43
0.0000001
 44
0.0000000001
 40
0.0
 40
0.0
 40
0.0
 40
0.0
 40
0.1883056345
 40
0.3700043393
 40
0.5383356991
 40
0.6874391132
 40
0.8119313713
 40
0.8635369251
 40
0.907412392
 40
0.9432110698
 40
0.9706235089
 40
0.989503737
 40
1.0
 40
1.0
 40
1.0
 40
1.0
 10
-23.2442885593
 20
21.8703704037
 30
0.0
 10
-23.2128516188
 20
21.8702904427
 30
0.0
 10
-23.1510810208
 20
21.8698519769
 30
0.0
 10
-23.0612185548
 20
21.868370232
 30
0.0
 10
-22.9779176633
 20
21.8661247593
 30
0.0
 10
-22.904196359
 20
21.8632053292
 30
0.0
 10
-22.8499824279
 20
21.8601691228
 30
0.0
 10
-22.813368687
 20
21.8573679225
 30
0.0
 10
-22.7915365908
 20
21.8553168691
 30
0.0
 10
-22.7738106823
 20
21.8531893158
 30
0.0
 10
-22.7601957731
 20
21.8510841779
 30
0.0
 10
-22.7510954054
 20
21.8489091296
 30
0.0
 10
-22.7462532364
 20
21.8472642
 30
0.0
 10
-22.7449707002
 20
21.8460701642
 30
0.0
  0
SPLINE
  5
46C
100
AcDbEntity
  8
ASSI
100
AcDbSpline
 62
250
  6
CONTINUOUS
 70
0
 71
3
 72
16
 73
12
 74
0
 42
0.0000001
 43
0.0000001
 44
0.0000000001
 40
0.0
 40
0.0
 40
0.0
 40
0.0
 40
0.3639984375
 40
0.5310171203
 40
0.679892674
 40
0.8051680661
 40
0.9023274181
 40
0.9392555619
 40
0.9679516527
 40
0.988210365
 40
1.0
 40
1.0
 40
1.0
 40
1.0
 10
-22.9679615937
 20
22.6677046126
 30
0.0
 10
-22.9187379159
 20
22.6292000393
 30
0.0
 10
-22.8473242018
 20
22.5725165899
 30
0.0
 10
-22.756823718
 20
22.4987894959
 30
0.0
 10
-22.6985755998
 20
22.4503655422
 30
0.0
 10
-22.6501044567
 20
22.4089628915
 30
0.0
 10
-22.6167607383
 20
22.3794233572
 30
0.0
 10
-22.5964059471
 20
22.3602891798
 30
0.0
 10
-22.5859018534
 20
22.3498994518
 30
0.0
 10
-22.5789516273
 20
22.3421886084
 30
0.0
 10
-22.5754875889
 20
22.3377995702
 30
0.0
 10
-22.5746777662
 20
22.3359444745
 30
0.0
  0
SPLINE
  5
46D
100
AcDbEntity
  8
ASSI
100
AcDbSpline
 62
250
  6
CONTINUOUS
 70
0
 71
3
 72
16
 73
12
 74
0
 42
0.0000001
 43
0.0000001
 44
0.0000000001
 40
0.0
 40
0.0
 40
0.0
 40
0.0
 40
0.3639987362
 40
0.5310174407
 40
0.6798929535
 40
0.8051682664
 40
0.9023275288
 40
0.9392556321
 40
0.9679516893
 40
0.9882103773
 40
1.0
 40
1.0
 40
1.0
 40
1.0
 10
22.9679615935
 20
22.6677046554
 30
0.0
 10
22.9187379521
 20
22.6292001117
 30
0.0
 10
22.8473243074
 20
22.5725167163
 30
0.0
 10
22.7568239339
 20
22.4987897012
 30
0.0
 10
22.6985759257
 20
22.4503658274
 30
0.0
 10
22.6501048936
 20
22.4089632563
 30
0.0
 10
22.6167612621
 20
22.3794237833
 30
0.0
 10
22.596406531
 20
22.3602896472
 30
0.0
 10
22.5859024711
 20
22.3498999418
 30
0.0
 10
22.5789522699
 20
22.3421891145
 30
0.0
 10
22.5754882454
 20
22.3378000838
 30
0.0
 10
22.5746784285
 20
22.3359449913
 30
0.0
  0
SPLINE
  5
46E
100
AcDbEntity
  8
ASSI
100
AcDbSpline
 62
250
  6
CONTINUOUS
 70
0
 71
3
 72
18
 73
14
 74
0
 42
0.0000001
 43
0.0000001
 44
0.0000000001
 40
0.0
 40
0.0
 40
0.0
 40
0.0
 40
0.1883064479
 40
0.370005591
 40
0.5383370468
 40
0.6874402836
 40
0.8119321966
 40
0.8635375542
 40
0.9074128303
 40
0.9432113372
 40
0.970623639
 40
0.9895037745
 40
1.0
 40
1.0
 40
1.0
 40
1.0
 10
23.2442885593
 20
21.8703705753
 30
0.0
 10
23.2128516759
 20
21.8702905982
 30
0.0
 10
23.1510812481
 20
21.8698521028
 30
0.0
 10
23.0612191092
 20
21.8683703171
 30
0.0
 10
22.9779186703
 20
21.8661248101
 30
0.0
 10
22.9041978912
 20
21.863205354
 30
0.0
 10
22.8499844147
 20
21.8601691316
 30
0.0
 10
22.8133710229
 20
21.857367923
 30
0.0
 10
22.7915391556
 20
21.8553168664
 30
0.0
 10
22.7738134414
 20
21.8531893123
 30
0.0
 10
22.7601986856
 20
21.8510841729
 30
0.0
 10
22.7510984218
 20
21.8489091282
 30
0.0
 10
22.7462563093
 20
21.8472641952
 30
0.0
 10
22.744973792
 20
21.8460701642
 30
0.0
  0
SPLINE
  5
46F
100
AcDbEntity
  8
ASSI
100
AcDbSpline
 62
250
  6
CONTINUOUS
 70
0
 71
3
 72
11
 73
7
 74
0
 42
0.0000001
 43
0.0000001
 44
0.0000000001
 40
0.0
 40
0.0
 40
0.0
 40
0.0
 40
0.2518132804
 40
0.5024878192
 40
0.7516926537
 40
1.0
 40
1.0
 40
1.0
 40
1.0
 10
-43.8781758769
 20
44.6316825048
 30
0.0
 10
-43.9700017891
 20
44.6316856771
 30
0.0
 10
-44.1553859713
 20
44.5942209145
 30
0.0
 10
-44.3868757931
 20
44.4343345128
 30
0.0
 10
-44.537895756
 20
44.1988617765
 30
0.0
 10
-44.5713176045
 20
44.0151715791
 30
0.0
 10
-44.5704696982
 20
43.9246281065
 30
0.0
  0
SPLINE
  5
470
100
AcDbEntity
  8
ASSI
100
AcDbSpline
 62
250
  6
CONTINUOUS
 70
0
 71
3
 72
11
 73
7
 74
0
 42
0.0000001
 43
0.0000001
 44
0.0000000001
 40
0.0
 40
0.0
 40
0.0
 40
0.0
 40
0.2483065073
 40
0.4975112282
 40
0.7481857848
 40
1.0
 40
1.0
 40
1.0
 40
1.0
 10
44.5704696982
 20
43.9246281065
 30
0.0
 10
44.5713253015
 20
44.0151712058
 30
0.0
 10
44.5378900311
 20
44.1988610759
 30
0.0
 10
44.3868770857
 20
44.4343324605
 30
0.0
 10
44.1553871233
 20
44.5942280108
 30
0.0
 10
43.9700021349
 20
44.631676086
 30
0.0
 10
43.8781758769
 20
44.6316825048
 30
0.0
  0
SPLINE
  5
471
100
AcDbEntity
  8
ASSI
100
AcDbSpline
 62
250
  6
CONTINUOUS
 70
0
 71
3
 72
11
 73
7
 74
0
 42
0.0000001
 43
0.0000001
 44
0.0000000001
 40
0.0
 40
0.0
 40
0.0
 40
0.0
 40
0.2483065073
 40
0.4975112282
 40
0.7481857848
 40
1.0
 40
1.0
 40
1.0
 40
1.0
 10
-44.5704696982
 20
-43.9246281065
 30
0.0
 10
-44.5713253015
 20
-44.0151712058
 30
0.0
 10
-44.5378900311
 20
-44.1988610759
 30
0.0
 10
-44.3868770857
 20
-44.4343324605
 30
0.0
 10
-44.1553871233
 20
-44.5942280108
 30
0.0
 10
-43.9700021349
 20
-44.631676086
 30
0.0
 10
-43.8781758769
 20
-44.6316825048
 30
0.0
  0
SPLINE
  5
472
100
AcDbEntity
  8
RACCORDO
100
AcDbSpline
 62
250
  6
CONTINUOUS
 70
0
 71
3
 72
23
 73
19
 74
0
 42
0.0000001
 43
0.0000001
 44
0.0000000001
 40
0.0
 40
0.0
 40
0.0
 40
0.0
 40
0.1932274757
 40
0.3795055261
 40
0.5518384659
 40
0.6306674686
 40
0.703550534
 40
0.7697625925
 40
0.8286252474
 40
0.8795422813
 40
0.9219856852
 40
0.9555222934
 40
0.9688401667
 40
0.9798148332
 40
0.9884168169
 40
0.9946311463
 40
0.9984643095
 40
1.0
 40
1.0
 40
1.0
 40
1.0
 10
-67.5674540828
 20
43.8714290238
 30
0.0
 10
-67.5602428208
 20
43.9363397745
 30
0.0
 10
-67.5458661471
 20
44.0638031823
 30
0.0
 10
-67.5242820174
 20
44.2490696402
 30
0.0
 10
-67.5065937391
 20
44.3958611907
 30
0.0
 10
-67.4930963845
 20
44.5045523514
 30
0.0
 10
-67.483821504
 20
44.5776235637
 30
0.0
 10
-67.4751886649
 20
44.6439735879
 30
0.0
 10
-67.4672893045
 20
44.7029306679
 30
0.0
 10
-67.4602127882
 20
44.753894958
 30
0.0
 10
-67.4540344163
 20
44.7963324227
 30
0.0
 10
-67.4494109014
 20
44.8261738478
 30
0.0
 10
-67.4461608671
 20
44.8454259687
 30
0.0
 10
-67.4441861773
 20
44.8564147454
 30
0.0
 10
-67.4424737037
 20
44.8648404146
 30
0.0
 10
-67.4410804324
 20
44.8712706653
 30
0.0
 10
-67.4399454253
 20
44.874507489
 30
0.0
 10
-67.4392347381
 20
44.8767770378
 30
0.0
 10
-67.4387164572
 20
44.8768054117
 30
0.0
  0
SPLINE
  5
473
100
AcDbEntity
  8
RACCORDO
100
AcDbSpline
 62
250
  6
CONTINUOUS
 70
0
 71
3
 72
9
 73
5
 74
0
 42
0.0000001
 43
0.0000001
 44
0.0000000001
 40
0.0
 40
0.0
 40
0.0
 40
0.0
 40
0.5136729799
 40
1.0
 40
1.0
 40
1.0
 40
1.0
 10
-63.6710119528
 20
43.7518378099
 30
0.0
 10
-63.4202029627
 20
43.6738217142
 30
0.0
 10
-62.9420123797
 20
43.4871472102
 30
0.0
 10
-62.4951967152
 20
43.2346284021
 30
0.0
 10
-62.2880236971
 20
43.097075387
 30
0.0
  0
SPLINE
  5
474
100
AcDbEntity
  8
RACCORDO
100
AcDbSpline
 62
250
  6
CONTINUOUS
 70
0
 71
3
 72
9
 73
5
 74
0
 42
0.0000001
 43
0.0000001
 44
0.0000000001
 40
0.0
 40
0.0
 40
0.0
 40
0.0
 40
0.4863423339
 40
1.0
 40
1.0
 40
1.0
 40
1.0
 10
-62.288023722
 20
-43.0970754028
 30
0.0
 10
-62.4952060554
 20
-43.2346348017
 30
0.0
 10
-62.942029726
 20
-43.4871542699
 30
0.0
 10
-63.4202271651
 20
-43.6738305061
 30
0.0
 10
-63.6710326165
 20
-43.7518439217
 30
0.0
  0
SPLINE
  5
475
100
AcDbEntity
  8
RACCORDO
100
AcDbSpline
 62
250
  6
CONTINUOUS
 70
0
 71
3
 72
23
 73
19
 74
0
 42
0.0000001
 43
0.0000001
 44
0.0000000001
 40
0.0
 40
0.0
 40
0.0
 40
0.0
 40
0.0015340252
 40
0.0053674024
 40
0.0115827224
 40
0.020185436
 40
0.0311601726
 40
0.0444777571
 40
0.0780138888
 40
0.120457171
 40
0.1713741302
 40
0.230236567
 40
0.2964484699
 40
0.369331472
 40
0.4481604618
 40
0.6204931569
 40
0.8067721668
 40
1.0
 40
1.0
 40
1.0
 40
1.0
 10
-67.4387164572
 20
-44.8768054117
 30
0.0
 10
-67.4392342687
 20
-44.8767788143
 30
0.0
 10
-67.4399449519
 20
-44.8745064539
 30
0.0
 10
-67.4410797807
 20
-44.8712729747
 30
0.0
 10
-67.4424737837
 20
-44.864840415
 30
0.0
 10
-67.4441867446
 20
-44.8564149983
 30
0.0
 10
-67.4461617765
 20
-44.8454258151
 30
0.0
 10
-67.4494119769
 20
-44.8261740956
 30
0.0
 10
-67.4540352893
 20
-44.796332852
 30
0.0
 10
-67.4602131497
 20
-44.7538955805
 30
0.0
 10
-67.467289147
 20
-44.7029313461
 30
0.0
 10
-67.475187998
 20
-44.6439743549
 30
0.0
 10
-67.4838202988
 20
-44.5776244078
 30
0.0
 10
-67.493094972
 20
-44.5045532485
 30
0.0
 10
-67.506592768
 20
-44.3958622516
 30
0.0
 10
-67.5242825014
 20
-44.2490706349
 30
0.0
 10
-67.5458658291
 20
-44.0638037172
 30
0.0
 10
-67.5602433952
 20
-43.9363399605
 30
0.0
 10
-67.5674540828
 20
-43.8714290238
 30
0.0
  0
SPLINE
  5
476
100
AcDbEntity
  8
RACCORDO
100
AcDbSpline
 62
250
  6
CONTINUOUS
 70
0
 71
3
 72
21
 73
17
 74
0
 42
0.0000001
 43
0.0000001
 44
0.0000000001
 40
0.0
 40
0.0
 40
0.0
 40
0.0
 40
0.0012790813
 40
0.0048754235
 40
0.0108198821
 40
0.0191049931
 40
0.0426464913
 40
0.0753099907
 40
0.1167724955
 40
0.166689072
 40
0.2246018962
 40
0.2899803913
 40
0.4407659148
 40
0.6135602147
 40
0.8023222888
 40
1.0
 40
1.0
 40
1.0
 40
1.0
 10
-67.8469986474
 20
-43.9246280943
 30
0.0
 10
-67.8470201657
 20
-43.924508672
 30
0.0
 10
-67.8463433256
 20
-43.9243760883
 30
0.0
 10
-67.8455887136
 20
-43.9240451342
 30
0.0
 10
-67.8438221843
 20
-43.9236467241
 30
0.0
 10
-67.8404116808
 20
-43.9228116057
 30
0.0
 10
-67.8343751212
 20
-43.9215243029
 30
0.0
 10
-67.82532942
 20
-43.9196399882
 30
0.0
 10
-67.8137813066
 20
-43.9173253295
 30
0.0
 10
-67.799887861
 20
-43.9145922762
 30
0.0
 10
-67.7837539373
 20
-43.9114698657
 30
0.0
 10
-67.7582156198
 20
-43.9065866594
 30
0.0
 10
-67.7219522283
 20
-43.8997591726
 30
0.0
 10
-67.6741633472
 20
-43.8908874372
 30
0.0
 10
-67.6219802143
 20
-43.8813132632
 30
0.0
 10
-67.5859087975
 20
-43.8747634377
 30
0.0
 10
-67.5674540828
 20
-43.8714290238
 30
0.0
  0
SPLINE
  5
477
100
AcDbEntity
  8
RACCORDO
100
AcDbSpline
 62
250
  6
CONTINUOUS
 70
0
 71
3
 72
21
 73
17
 74
0
 42
0.0000001
 43
0.0000001
 44
0.0000000001
 40
0.0
 40
0.0
 40
0.0
 40
0.0
 40
0.0011992043
 40
0.0047679412
 40
0.010695841
 40
0.0189692261
 40
0.0424947786
 40
0.0751477294
 40
0.1166032418
 40
0.1665157432
 40
0.2244273066
 40
0.2898075252
 40
0.4406068219
 40
0.6134317262
 40
0.8022453641
 40
1.0
 40
1.0
 40
1.0
 40
1.0
 10
-70.2880236672
 20
-22.6677048932
 30
0.0
 10
-70.2880293924
 20
-22.6675913833
 30
0.0
 10
-70.2872984694
 20
-22.6677432199
 30
0.0
 10
-70.2865586171
 20
-22.6674671981
 30
0.0
 10
-70.2847262095
 20
-22.6674564947
 30
0.0
 10
-70.2812505746
 20
-22.6671564874
 30
0.0
 10
-70.2750850894
 20
-22.6668362603
 30
0.0
 10
-70.2658798506
 20
-22.6662785721
 30
0.0
 10
-70.2541317727
 20
-22.6656291271
 30
0.0
 10
-70.2400095837
 20
-22.6648495728
 30
0.0
 10
-70.2236167193
 20
-22.6639635232
 30
0.0
 10
-70.1976774885
 20
-22.6625760189
 30
0.0
 10
-70.1608603926
 20
-22.6606372128
 30
0.0
 10
-70.1123597789
 20
-22.6581178614
 30
0.0
 10
-70.0594131738
 20
-22.6553993665
 30
0.0
 10
-70.0228235246
 20
-22.6535397682
 30
0.0
 10
-70.0041053176
 20
-22.6525930904
 30
0.0
  0
SPLINE
  5
478
100
AcDbEntity
  8
RACCORDO
100
AcDbSpline
 62
250
  6
CONTINUOUS
 70
0
 71
3
 72
21
 73
17
 74
0
 42
0.0000001
 43
0.0000001
 44
0.0000000001
 40
0.0
 40
0.0
 40
0.0
 40
0.0
 40
0.0011992042
 40
0.0047679411
 40
0.0106958408
 40
0.0189692258
 40
0.0424947782
 40
0.0751477288
 40
0.116603241
 40
0.1665157422
 40
0.2244273054
 40
0.2898075238
 40
0.4406068203
 40
0.6134317246
 40
0.8022453631
 40
1.0
 40
1.0
 40
1.0
 40
1.0
 10
-70.2880236618
 20
22.6677048929
 30
0.0
 10
-70.288029387
 20
22.667591383
 30
0.0
 10
-70.287298464
 20
22.6677432196
 30
0.0
 10
-70.2865586118
 20
22.6674671978
 30
0.0
 10
-70.2847262042
 20
22.6674564945
 30
0.0
 10
-70.2812505694
 20
22.6671564871
 30
0.0
 10
-70.2750850844
 20
22.66683626
 30
0.0
 10
-70.2658798458
 20
22.6662785719
 30
0.0
 10
-70.2541317682
 20
22.6656291268
 30
0.0
 10
-70.2400095795
 20
22.6648495726
 30
0.0
 10
-70.2236167155
 20
22.663963523
 30
0.0
 10
-70.1976774852
 20
22.6625760188
 30
0.0
 10
-70.16086039
 20
22.6606372127
 30
0.0
 10
-70.1123597772
 20
22.6581178613
 30
0.0
 10
-70.059413173
 20
22.6553993664
 30
0.0
 10
-70.0228235243
 20
22.6535397682
 30
0.0
 10
-70.0041053176
 20
22.6525930904
 30
0.0
  0
SPLINE
  5
479
100
AcDbEntity
  8
RACCORDO
100
AcDbSpline
 62
250
  6
CONTINUOUS
 70
0
 71
3
 72
21
 73
17
 74
0
 42
0.0000001
 43
0.0000001
 44
0.0000000001
 40
0.0
 40
0.0
 40
0.0
 40
0.0
 40
0.0012799504
 40
0.0048771717
 40
0.0108224623
 40
0.0191083515
 40
0.0426512324
 40
0.0753158672
 40
0.1167792486
 40
0.1666964324
 40
0.2246095889
 40
0.2899881404
 40
0.4407729652
 40
0.6135655892
 40
0.8023252109
 40
1.0
 40
1.0
 40
1.0
 40
1.0
 10
-67.8469986541
 20
43.9246280955
 30
0.0
 10
-67.8470199388
 20
43.9245085475
 30
0.0
 10
-67.8463432988
 20
43.9243762195
 30
0.0
 10
-67.8455880425
 20
43.924044961
 30
0.0
 10
-67.8438215202
 20
43.9236466514
 30
0.0
 10
-67.8404105783
 20
43.9228114057
 30
0.0
 10
-67.8343738171
 20
43.9215241138
 30
0.0
 10
-67.8253277307
 20
43.9196397184
 30
0.0
 10
-67.8137793788
 20
43.9173250316
 30
0.0
 10
-67.7998857376
 20
43.9145919479
 30
0.0
 10
-67.7837517027
 20
43.9114695248
 30
0.0
 10
-67.7582133805
 20
43.9065863259
 30
0.0
 10
-67.721950161
 20
43.8997588772
 30
0.0
 10
-67.674161672
 20
43.8908872151
 30
0.0
 10
-67.6219791349
 20
43.8813131453
 30
0.0
 10
-67.5859081773
 20
43.8747633966
 30
0.0
 10
-67.5674537138
 20
43.871429024
 30
0.0
  0
SPLINE
  5
47A
100
AcDbEntity
  8
ASSI
100
AcDbSpline
 62
250
  6
CONTINUOUS
 70
0
 71
3
 72
9
 73
5
 74
0
 42
0.0000001
 43
0.0000001
 44
0.0000000001
 40
0.0
 40
0.0
 40
0.0
 40
0.0
 40
0.4863423339
 40
1.0
 40
1.0
 40
1.0
 40
1.0
 10
-62.288023722
 20
-43.0970754028
 30
0.0
 10
-62.4952060554
 20
-43.2346348017
 30
0.0
 10
-62.942029726
 20
-43.4871542699
 30
0.0
 10
-63.4202271651
 20
-43.6738305061
 30
0.0
 10
-63.6710326165
 20
-43.7518439217
 30
0.0
  0
SPLINE
  5
47B
100
AcDbEntity
  8
ASSI
100
AcDbSpline
 62
250
  6
CONTINUOUS
 70
0
 71
3
 72
9
 73
5
 74
0
 42
0.0000001
 43
0.0000001
 44
0.0000000001
 40
0.0
 40
0.0
 40
0.0
 40
0.0
 40
0.5136729799
 40
1.0
 40
1.0
 40
1.0
 40
1.0
 10
-63.6710119528
 20
43.7518378099
 30
0.0
 10
-63.4202029627
 20
43.6738217142
 30
0.0
 10
-62.9420123797
 20
43.4871472102
 30
0.0
 10
-62.4951967152
 20
43.2346284021
 30
0.0
 10
-62.2880236971
 20
43.097075387
 30
0.0
  0
SPLINE
  5
47C
100
AcDbEntity
  8
ASSI
100
AcDbSpline
 62
250
  6
CONTINUOUS
 70
0
 71
3
 72
23
 73
19
 74
0
 42
0.0000001
 43
0.0000001
 44
0.0000000001
 40
0.0
 40
0.0
 40
0.0
 40
0.0
 40
0.0015340252
 40
0.0053674024
 40
0.0115827224
 40
0.020185436
 40
0.0311601726
 40
0.0444777571
 40
0.0780138888
 40
0.120457171
 40
0.1713741302
 40
0.230236567
 40
0.2964484699
 40
0.369331472
 40
0.4481604618
 40
0.6204931569
 40
0.8067721668
 40
1.0
 40
1.0
 40
1.0
 40
1.0
 10
-67.4387164572
 20
-44.8768054117
 30
0.0
 10
-67.4392342687
 20
-44.8767788143
 30
0.0
 10
-67.4399449519
 20
-44.8745064539
 30
0.0
 10
-67.4410797807
 20
-44.8712729747
 30
0.0
 10
-67.4424737837
 20
-44.864840415
 30
0.0
 10
-67.4441867446
 20
-44.8564149983
 30
0.0
 10
-67.4461617765
 20
-44.8454258151
 30
0.0
 10
-67.4494119769
 20
-44.8261740956
 30
0.0
 10
-67.4540352893
 20
-44.796332852
 30
0.0
 10
-67.4602131497
 20
-44.7538955805
 30
0.0
 10
-67.467289147
 20
-44.7029313461
 30
0.0
 10
-67.475187998
 20
-44.6439743549
 30
0.0
 10
-67.4838202988
 20
-44.5776244078
 30
0.0
 10
-67.493094972
 20
-44.5045532485
 30
0.0
 10
-67.506592768
 20
-44.3958622516
 30
0.0
 10
-67.5242825014
 20
-44.2490706349
 30
0.0
 10
-67.5458658291
 20
-44.0638037172
 30
0.0
 10
-67.5602433952
 20
-43.9363399605
 30
0.0
 10
-67.5674540828
 20
-43.8714290238
 30
0.0
  0
SPLINE
  5
47D
100
AcDbEntity
  8
ASSI
100
AcDbSpline
 62
250
  6
CONTINUOUS
 70
0
 71
3
 72
23
 73
19
 74
0
 42
0.0000001
 43
0.0000001
 44
0.0000000001
 40
0.0
 40
0.0
 40
0.0
 40
0.0
 40
0.1932274757
 40
0.3795055261
 40
0.5518384659
 40
0.6306674686
 40
0.703550534
 40
0.7697625925
 40
0.8286252474
 40
0.8795422813
 40
0.9219856852
 40
0.9555222934
 40
0.9688401667
 40
0.9798148332
 40
0.9884168169
 40
0.9946311463
 40
0.9984643095
 40
1.0
 40
1.0
 40
1.0
 40
1.0
 10
-67.5674540828
 20
43.8714290238
 30
0.0
 10
-67.5602428208
 20
43.9363397745
 30
0.0
 10
-67.5458661471
 20
44.0638031823
 30
0.0
 10
-67.5242820174
 20
44.2490696402
 30
0.0
 10
-67.5065937391
 20
44.3958611907
 30
0.0
 10
-67.4930963845
 20
44.5045523514
 30
0.0
 10
-67.483821504
 20
44.5776235637
 30
0.0
 10
-67.4751886649
 20
44.6439735879
 30
0.0
 10
-67.4672893045
 20
44.7029306679
 30
0.0
 10
-67.4602127882
 20
44.753894958
 30
0.0
 10
-67.4540344163
 20
44.7963324227
 30
0.0
 10
-67.4494109014
 20
44.8261738478
 30
0.0
 10
-67.4461608671
 20
44.8454259687
 30
0.0
 10
-67.4441861773
 20
44.8564147454
 30
0.0
 10
-67.4424737037
 20
44.8648404146
 30
0.0
 10
-67.4410804324
 20
44.8712706653
 30
0.0
 10
-67.4399454253
 20
44.874507489
 30
0.0
 10
-67.4392347381
 20
44.8767770378
 30
0.0
 10
-67.4387164572
 20
44.8768054117
 30
0.0
  0
SPLINE
  5
47E
100
AcDbEntity
  8
ASSI
100
AcDbSpline
 62
250
  6
CONTINUOUS
 70
0
 71
3
 72
21
 73
17
 74
0
 42
0.0000001
 43
0.0000001
 44
0.0000000001
 40
0.0
 40
0.0
 40
0.0
 40
0.0
 40
0.0012790813
 40
0.0048754235
 40
0.0108198821
 40
0.0191049931
 40
0.0426464913
 40
0.0753099907
 40
0.1167724955
 40
0.166689072
 40
0.2246018962
 40
0.2899803913
 40
0.4407659148
 40
0.6135602147
 40
0.8023222888
 40
1.0
 40
1.0
 40
1.0
 40
1.0
 10
-67.8469986474
 20
-43.9246280943
 30
0.0
 10
-67.8470201657
 20
-43.924508672
 30
0.0
 10
-67.8463433256
 20
-43.9243760883
 30
0.0
 10
-67.8455887136
 20
-43.9240451342
 30
0.0
 10
-67.8438221843
 20
-43.9236467241
 30
0.0
 10
-67.8404116808
 20
-43.9228116057
 30
0.0
 10
-67.8343751212
 20
-43.9215243029
 30
0.0
 10
-67.82532942
 20
-43.9196399882
 30
0.0
 10
-67.8137813066
 20
-43.9173253295
 30
0.0
 10
-67.799887861
 20
-43.9145922762
 30
0.0
 10
-67.7837539373
 20
-43.9114698657
 30
0.0
 10
-67.7582156198
 20
-43.9065866594
 30
0.0
 10
-67.7219522283
 20
-43.8997591726
 30
0.0
 10
-67.6741633472
 20
-43.8908874372
 30
0.0
 10
-67.6219802143
 20
-43.8813132632
 30
0.0
 10
-67.5859087975
 20
-43.8747634377
 30
0.0
 10
-67.5674540828
 20
-43.8714290238
 30
0.0
  0
SPLINE
  5
47F
100
AcDbEntity
  8
ASSI
100
AcDbSpline
 62
250
  6
CONTINUOUS
 70
0
 71
3
 72
21
 73
17
 74
0
 42
0.0000001
 43
0.0000001
 44
0.0000000001
 40
0.0
 40
0.0
 40
0.0
 40
0.0
 40
0.0011992043
 40
0.0047679412
 40
0.010695841
 40
0.0189692261
 40
0.0424947786
 40
0.0751477294
 40
0.1166032418
 40
0.1665157432
 40
0.2244273066
 40
0.2898075252
 40
0.4406068219
 40
0.6134317262
 40
0.8022453641
 40
1.0
 40
1.0
 40
1.0
 40
1.0
 10
-70.2880236672
 20
-22.6677048932
 30
0.0
 10
-70.2880293924
 20
-22.6675913833
 30
0.0
 10
-70.2872984694
 20
-22.6677432199
 30
0.0
 10
-70.2865586171
 20
-22.6674671981
 30
0.0
 10
-70.2847262095
 20
-22.6674564947
 30
0.0
 10
-70.2812505746
 20
-22.6671564874
 30
0.0
 10
-70.2750850894
 20
-22.6668362603
 30
0.0
 10
-70.2658798506
 20
-22.6662785721
 30
0.0
 10
-70.2541317727
 20
-22.6656291271
 30
0.0
 10
-70.2400095837
 20
-22.6648495728
 30
0.0
 10
-70.2236167193
 20
-22.6639635232
 30
0.0
 10
-70.1976774885
 20
-22.6625760189
 30
0.0
 10
-70.1608603926
 20
-22.6606372128
 30
0.0
 10
-70.1123597789
 20
-22.6581178614
 30
0.0
 10
-70.0594131738
 20
-22.6553993665
 30
0.0
 10
-70.0228235246
 20
-22.6535397682
 30
0.0
 10
-70.0041053176
 20
-22.6525930904
 30
0.0
  0
SPLINE
  5
480
100
AcDbEntity
  8
ASSI
100
AcDbSpline
 62
250
  6
CONTINUOUS
 70
0
 71
3
 72
21
 73
17
 74
0
 42
0.0000001
 43
0.0000001
 44
0.0000000001
 40
0.0
 40
0.0
 40
0.0
 40
0.0
 40
0.0011992042
 40
0.0047679411
 40
0.0106958408
 40
0.0189692258
 40
0.0424947782
 40
0.0751477288
 40
0.116603241
 40
0.1665157422
 40
0.2244273054
 40
0.2898075238
 40
0.4406068203
 40
0.6134317246
 40
0.8022453631
 40
1.0
 40
1.0
 40
1.0
 40
1.0
 10
-70.2880236618
 20
22.6677048929
 30
0.0
 10
-70.288029387
 20
22.667591383
 30
0.0
 10
-70.287298464
 20
22.6677432196
 30
0.0
 10
-70.2865586118
 20
22.6674671978
 30
0.0
 10
-70.2847262042
 20
22.6674564945
 30
0.0
 10
-70.2812505694
 20
22.6671564871
 30
0.0
 10
-70.2750850844
 20
22.66683626
 30
0.0
 10
-70.2658798458
 20
22.6662785719
 30
0.0
 10
-70.2541317682
 20
22.6656291268
 30
0.0
 10
-70.2400095795
 20
22.6648495726
 30
0.0
 10
-70.2236167155
 20
22.663963523
 30
0.0
 10
-70.1976774852
 20
22.6625760188
 30
0.0
 10
-70.16086039
 20
22.6606372127
 30
0.0
 10
-70.1123597772
 20
22.6581178613
 30
0.0
 10
-70.059413173
 20
22.6553993664
 30
0.0
 10
-70.0228235243
 20
22.6535397682
 30
0.0
 10
-70.0041053176
 20
22.6525930904
 30
0.0
  0
SPLINE
  5
481
100
AcDbEntity
  8
ASSI
100
AcDbSpline
 62
250
  6
CONTINUOUS
 70
0
 71
3
 72
21
 73
17
 74
0
 42
0.0000001
 43
0.0000001
 44
0.0000000001
 40
0.0
 40
0.0
 40
0.0
 40
0.0
 40
0.0012799504
 40
0.0048771717
 40
0.0108224623
 40
0.0191083515
 40
0.0426512324
 40
0.0753158672
 40
0.1167792486
 40
0.1666964324
 40
0.2246095889
 40
0.2899881404
 40
0.4407729652
 40
0.6135655892
 40
0.8023252109
 40
1.0
 40
1.0
 40
1.0
 40
1.0
 10
-67.8469986541
 20
43.9246280955
 30
0.0
 10
-67.8470199388
 20
43.9245085475
 30
0.0
 10
-67.8463432988
 20
43.9243762195
 30
0.0
 10
-67.8455880425
 20
43.924044961
 30
0.0
 10
-67.8438215202
 20
43.9236466514
 30
0.0
 10
-67.8404105783
 20
43.9228114057
 30
0.0
 10
-67.8343738171
 20
43.9215241138
 30
0.0
 10
-67.8253277307
 20
43.9196397184
 30
0.0
 10
-67.8137793788
 20
43.9173250316
 30
0.0
 10
-67.7998857376
 20
43.9145919479
 30
0.0
 10
-67.7837517027
 20
43.9114695248
 30
0.0
 10
-67.7582133805
 20
43.9065863259
 30
0.0
 10
-67.721950161
 20
43.8997588772
 30
0.0
 10
-67.674161672
 20
43.8908872151
 30
0.0
 10
-67.6219791349
 20
43.8813131453
 30
0.0
 10
-67.5859081773
 20
43.8747633966
 30
0.0
 10
-67.5674537138
 20
43.871429024
 30
0.0
  0
ELLIPSE
  5
482
100
AcDbEntity
  8
RACCORDO
100
AcDbEllipse
 62
7
  6
CONTINUOUS
 10
-43.998627654
 20
-43.998627654
 30
0.0
 11
0.7090462434
 21
0.7090462434
 31
0.0
 40
0.9972646886
 41
-3.9256212891
 42
-2.3575640181
  0
ELLIPSE
  5
483
100
AcDbEntity
  8
RACCORDO
100
AcDbEllipse
 62
7
  6
CONTINUOUS
 10
43.998627654
 20
-43.998627654
 30
0.0
 11
-0.7090462434
 21
0.7090462434
 31
0.0
 40
0.9972646886
 41
-3.9256212891
 42
-2.3575640181
  0
ELLIPSE
  5
484
100
AcDbEntity
  8
RACCORDO
100
AcDbEllipse
 62
7
  6
CONTINUOUS
 10
43.998627654
 20
43.998627654
 30
0.0
 11
0.7090462434
 21
0.7090462434
 31
0.0
 40
0.9972646886
 41
-0.7840286355
 42
0.7840286355
  0
ELLIPSE
  5
485
100
AcDbEntity
  8
RACCORDO
100
AcDbEllipse
 62
7
  6
CONTINUOUS
 10
-43.998627654
 20
43.998627654
 30
0.0
 11
-0.7090462434
 21
0.7090462434
 31
0.0
 40
0.9972646886
 41
-0.7840286355
 42
0.7840286355
  0
ELLIPSE
  5
486
100
AcDbEntity
  8
0
100
AcDbEllipse
 62
7
  6
CONTINUOUS
 10
21.7989021232
 20
-21.6989021232
 30
0.0
 11
0.5672369947
 21
-0.5672369947
 31
0.0
 40
0.9972646886
 41
-0.7840286355
 42
0.7840286355
  0
ELLIPSE
  5
487
100
AcDbEntity
  8
0
100
AcDbEllipse
 62
7
  6
CONTINUOUS
 10
21.7989021232
 20
21.6989021232
 30
0.0
 11
0.5672369947
 21
0.5672369947
 31
0.0
 40
0.9972646886
 41
-0.7840286355
 42
0.7840286355
  0
ELLIPSE
  5
488
100
AcDbEntity
  8
0
100
AcDbEllipse
 62
7
  6
CONTINUOUS
 10
-21.7989021232
 20
21.6989021232
 30
0.0
 11
0.5672369947
 21
-0.5672369947
 31
0.0
 40
0.9972646886
 41
2.3575640181
 42
3.9256212891
  0
ELLIPSE
  5
489
100
AcDbEntity
  8
0
100
AcDbEllipse
 62
7
  6
CONTINUOUS
 10
-21.7989021232
 20
-21.6989021232
 30
0.0
 11
0.5672369947
 21
0.5672369947
 31
0.0
 40
0.9972646886
 41
-3.9256212891
 42
-2.3575640181
  0
ELLIPSE
  5
48A
100
AcDbEntity
  8
ASSI
100
AcDbEllipse
 62
7
  6
CONTINUOUS
 10
-43.998627654
 20
-43.998627654
 30
0.0
 11
0.7090462434
 21
0.7090462434
 31
0.0
 40
0.9972646886
 41
-3.9256212891
 42
-2.3575640181
  0
ELLIPSE
  5
48B
100
AcDbEntity
  8
ASSI
100
AcDbEllipse
 62
7
  6
CONTINUOUS
 10
43.998627654
 20
-43.998627654
 30
0.0
 11
-0.7090462434
 21
0.7090462434
 31
0.0
 40
0.9972646886
 41
-3.9256212891
 42
-2.3575640181
  0
ELLIPSE
  5
48C
100
AcDbEntity
  8
ASSI
100
AcDbEllipse
 62
7
  6
CONTINUOUS
 10
43.998627654
 20
43.998627654
 30
0.0
 11
0.7090462434
 21
0.7090462434
 31
0.0
 40
0.9972646886
 41
-0.7840286355
 42
0.7840286355
  0
ELLIPSE
  5
48D
100
AcDbEntity
  8
ASSI
100
AcDbEllipse
 62
7
  6
CONTINUOUS
 10
-43.998627654
 20
43.998627654
 30
0.0
 11
-0.7090462434
 21
0.7090462434
 31
0.0
 40
0.9972646886
 41
-0.7840286355
 42
0.7840286355
  0
ELLIPSE
  5
48E
100
AcDbEntity
  8
ASSI
100
AcDbEllipse
 62
7
  6
CONTINUOUS
 10
21.7989021232
 20
-21.6989021232
 30
0.0
 11
0.5672369947
 21
-0.5672369947
 31
0.0
 40
0.9972646886
 41
-0.7840286355
 42
0.7840286355
  0
ELLIPSE
  5
48F
100
AcDbEntity
  8
ASSI
100
AcDbEllipse
 62
7
  6
CONTINUOUS
 10
21.7989021232
 20
21.6989021232
 30
0.0
 11
0.5672369947
 21
0.5672369947
 31
0.0
 40
0.9972646886
 41
-0.7840286355
 42
0.7840286355
  0
ELLIPSE
  5
490
100
AcDbEntity
  8
ASSI
100
AcDbEllipse
 62
7
  6
CONTINUOUS
 10
-21.7989021232
 20
21.6989021232
 30
0.0
 11
0.5672369947
 21
-0.5672369947
 31
0.0
 40
0.9972646886
 41
2.3575640181
 42
3.9256212891
  0
ELLIPSE
  5
491
100
AcDbEntity
  8
ASSI
100
AcDbEllipse
 62
7
  6
CONTINUOUS
 10
-21.7989021232
 20
-21.6989021232
 30
0.0
 11
0.5672369947
 21
0.5672369947
 31
0.0
 40
0.9972646886
 41
-3.9256212891
 42
-2.3575640181
  0
ELLIPSE
  5
492
100
AcDbEntity
  8
0
100
AcDbEllipse
 62
250
  6
CONTINUOUS
 10
96.9326680896
 20
14.2336437913
 30
0.0
 11
0.0
 21
167.4332498099
 31
0.0
 40
1.0
 41
7.7674802418
 42
7.7842402785
  0
ENDSEC
  0
SECTION
  2
OBJECTS
  0
DICTIONARY
  5
C
100
AcDbDictionary
280
0
281
1
  3
ACAD_GROUP
350
D
  3
ACAD_MLINESTYLE
350
17
  3
ACAD_LAYOUT
350
1A
  3
ACAD_PLOTSETTINGS
350
19
  3
ACAD_PLOTSTYLENAME
350
E
  0
DICTIONARY
  5
D
102
{ACAD_REACTORS
330
C
102
}
100
AcDbDictionary
280
0
281
1
  0
ACDBDICTIONARYWDFLT
  5
E
102
{ACAD_REACTORS
330
C
102
}
100
AcDbDictionary
281
1
  3
Normal
350
F
100
AcDbDictionaryWithDefault
340
F
  0
DICTIONARY
  5
17
102
{ACAD_REACTORS
330
C
102
}
100
AcDbDictionary
280
0
281
1
  3
Standard
350
18
  0
DICTIONARY
  5
19
102
{ACAD_REACTORS
330
C
102
}
100
AcDbDictionary
281
1
  0
DICTIONARY
  5
1A
102
{ACAD_REACTORS
330
C
102
}
100
AcDbDictionary
281
1
  3
Model
350
493
  3
Layout1
350
494
  0
ACDBPLACEHOLDER
  5
F
102
{ACAD_REACTORS
330
E
102
}
  0
MLINESTYLE
  5
18
102
{ACAD_REACTORS
330
17
102
}
100
AcDbMlineStyle
  2
STANDARD
 70
0
  3

 62
256
 51
90.0
 52
90.0
 71
2
 49
0.5
 62
256
  6
BYLAYER
 49
-0.5
 62
256
  6
BYLAYER
  0
LAYOUT
  5
493
102
{ACAD_REACTORS
330
1A
102
}
100
AcDbPlotSettings
  1

  2
none_device
  4
ISO_A4_(297.00_x_210.00_MM)
  6

 40
0.0
 41
0.0
 42
0.0
 43
0.0
 44
297.0
 45
210.0
 46
0.0
 47
0.0
 48
0.0
 49
0.0
140
0.0
141
0.0
142
1.0
143
1.0
 70
1024
 72
1
 73
0
 74
0
  7

 75
0
147
1.0
148
0.0
149
0.0
100
AcDbLayout
  1
Model
 70
0
 71
0
 10
0.0
 20
0.0
 11
297.0
 21
210.0
 12
0.0
 22
0.0
 32
0.0
 14
0.0
 24
0.0
 34
0.0
 15
0.0
 25
0.0
 35
0.0
146
0.0
 13
0.0
 23
0.0
 33
0.0
 16
1.0
 26
0.0
 36
0.0
 17
0.0
 27
1.0
 37
0.0
 76
0
330
216
345
0
346
0
  0
LAYOUT
  5
494
102
{ACAD_REACTORS
330
1A
102
}
100
AcDbPlotSettings
  1

  2
none_device
  4
ISO_A4_(297.00_x_210.00_MM)
  6

 40
0.0
 41
0.0
 42
0.0
 43
0.0
 44
297.0
 45
210.0
 46
0.0
 47
0.0
 48
0.0
 49
0.0
140
0.0
141
0.0
142
1.0
143
1.0
 70
0
 72
1
 73
0
 74
0
  7

 75
0
147
1.0
148
0.0
149
0.0
100
AcDbLayout
  1
Layout1
 70
0
 71
1
 10
0.0
 20
0.0
 11
297.0
 21
210.0
 12
0.0
 22
0.0
 32
0.0
 14
0.0
 24
0.0
 34
0.0
 15
0.0
 25
0.0
 35
0.0
146
0.0
 13
0.0
 23
0.0
 33
0.0
 16
1.0
 26
0.0
 36
0.0
 17
0.0
 27
1.0
 37
0.0
 76
0
330
217
345
0
346
0
  0
ENDSEC
  0
EOF
