  0
SECTION
  2
HEADER
  9
$ACADVER
  1
AC1024
  9
$DWGCODEPAGE
  3
ANSI_1252
  9
$EXTMAX
 10
297.0
 20
210.0
 30
0.0
  9
$EXTMIN
 10
0.0
 20
0.0
 30
0.0
  9
$LIMMIN
 10
0.0
 20
0.0
  9
$LIMMAX
 10
297.0
 20
210.0
  9
$VIEWCTR
 10
148.5
 20
105.0
  9
$VIEWSIZE
 40
210.0
  9
$CLAYER
  8
0
  9
$LTSCALE
 40
16.335
  9
$CELTYPE
  6
BYLAYER
  9
$DIMSCALE
 40
1.0
  9
$DIMASZ
 40
3.0
  9
$DIMEXO
 40
0.5
  9
$DIMDLI
 40
11.286
  9
$DIMEXE
 40
1.5
  9
$DIMCEN
 40
2.673
  9
$DIMLFAC
 40
1.0
  9
$DIMBLK
  1
_FILLED
  9
$DIMALT
 70
0
  9
$DIMALTF
 40
0.0393700787
  9
$DIMTXT
 40
3.0
  9
$DIMTOL
 70
1
  9
$DIMLIM
 70
0
  9
$DIMTFAC
 40
1.0
  9
$DIMTP
 40
0.01
  9
$DIMTM
 40
0.01
  9
$DIMGAP
 40
0.625
  9
$DIMDSEP
 70
44
  9
$AUNITS
 70
0
  9
$PDMODE
 70
3
  9
$PDSIZE
 40
3.0
  9
$HANDSEED
  5
541
  9
$TILEMODE
 70
1
  9
$MEASUREMENT
 70
1
  9
$INSUNITS
 70
4
  0
ENDSEC
  0
SECTION
  2
CLASSES
  0
CLASS
  1
ACDBDICTIONARYWDFLT
  2
AcDbDictionaryWithDefault
  3
AutoCAD 2000
 90
0
 91
1
280
0
281
0
  0
CLASS
  1
ACDBPLACEHOLDER
  2
AcDbPlaceHolder
  3
AutoCAD 2000
 90
0
 91
1
280
0
281
0
  0
CLASS
  1
LAYOUT
  2
AcDbLayout
  3
AutoCAD 2000
 90
0
 91
0
280
0
281
0
  0
ENDSEC
  0
SECTION
  2
TABLES
  0
TABLE
  2
VPORT
  5
8
100
AcDbSymbolTable
 70
2
  0
VPORT
  5
1F4
100
AcDbSymbolTableRecord
100
AcDbViewportTableRecord
  2
*ACTIVE
 70
0
 10
0.0
 20
0.0
 11
1.0
 21
1.0
 12
148.5
 22
105.0
 13
0.0
 23
0.0
 14
1.0
 24
1.0
 15
0.0
 25
0.0
 16
0.0
 26
0.0
 36
1.0
 17
0.0
 27
0.0
 37
0.0
 40
210.0
 41
1.4142857143
 42
50.0
 43
0.0
 44
0.0
 50
0.0
 51
0.0
 71
0
 72
100
 73
1
 74
1
 75
0
 76
0
 77
0
 78
0
  0
ENDTAB
  0
TABLE
  2
LTYPE
  5
5
100
AcDbSymbolTable
 70
6
  0
LTYPE
  5
14
100
AcDbSymbolTableRecord
100
AcDbLinetypeTableRecord
  2
BYBLOCK
 70
0
  3

 72
65
 73
0
 40
0.0
  0
LTYPE
  5
15
100
AcDbSymbolTableRecord
100
AcDbLinetypeTableRecord
  2
BYLAYER
 70
0
  3

 72
65
 73
0
 40
0.0
  0
LTYPE
  5
16
100
AcDbSymbolTableRecord
100
AcDbLinetypeTableRecord
  2
CONTINUOUS
 70
64
  3
Solid line
 72
65
 73
0
 40
0.0
  0
LTYPE
  5
1F5
100
AcDbSymbolTableRecord
100
AcDbLinetypeTableRecord
  2
CENTER
 70
64
  3
____ _ ____ _ ____ _ ____ _ ____ _ ____ _ ____
 72
65
 73
4
 40
0.6
 49
0.375
 74
0
 49
-0.075
 74
0
 49
0.075
 74
0
 49
-0.075
 74
0
  0
LTYPE
  5
1F6
100
AcDbSymbolTableRecord
100
AcDbLinetypeTableRecord
  2
HIDDEN
 70
64
  3
- - - - - - - - - - - - - - - - - - - -
 72
65
 73
2
 40
0.2
 49
0.1
 74
0
 49
-0.1
 74
0
  0
LTYPE
  5
1F7
100
AcDbSymbolTableRecord
100
AcDbLinetypeTableRecord
  2
PHANTOM
 70
64
  3
_____ _ _ _____ _ _ _____ _ _ _____
 72
65
 73
6
 40
0.8
 49
0.45
 74
0
 49
-0.05
 74
0
 49
0.1
 74
0
 49
-0.05
 74
0
 49
0.1
 74
0
 49
-0.05
 74
0
  0
LTYPE
  5
1F8
100
AcDbSymbolTableRecord
100
AcDbLinetypeTableRecord
  2
DOT
 70
64
  3
. . . . . . . . . . . . . . . . . . . .
 72
65
 73
2
 40
0.2
 49
0.1
 74
0
 49
-0.1
 74
0
  0
LTYPE
  5
1F9
100
AcDbSymbolTableRecord
100
AcDbLinetypeTableRecord
  2
DASHED
 70
64
  3
- - - - - - - - - - - - - - - - - - - -
 72
65
 73
2
 40
0.2
 49
0.1
 74
0
 49
-0.1
 74
0
  0
ENDTAB
  0
TABLE
  2
LAYER
  5
2
100
AcDbSymbolTable
 70
36
  0
LAYER
  5
10
100
AcDbSymbolTableRecord
100
AcDbLayerTableRecord
  2
0
 70
0
 62
7
  6
CONTINUOUS
370
-3
390
F
  0
LAYER
  5
1FA
100
AcDbSymbolTableRecord
100
AcDbLayerTableRecord
  2
DEFAULT_1
 70
0
 62
7
  6
CENTER
370
-3
390
F
  0
LAYER
  5
1FB
100
AcDbSymbolTableRecord
100
AcDbLayerTableRecord
  2
DEFAULT_2
 70
0
 62
7
  6
HIDDEN
370
-3
390
F
  0
LAYER
  5
1FC
100
AcDbSymbolTableRecord
100
AcDbLayerTableRecord
  2
DEFAULT_3
 70
0
 62
7
  6
PHANTOM
370
-3
390
F
  0
LAYER
  5
1FD
100
AcDbSymbolTableRecord
100
AcDbLayerTableRecord
  2
ASSI
 70
0
 62
7
  6
CONTINUOUS
370
-3
390
F
  0
LAYER
  5
1FE
100
AcDbSymbolTableRecord
100
AcDbLayerTableRecord
  2
COORDINATE
 70
0
 62
7
  6
CONTINUOUS
370
-3
390
F
  0
LAYER
  5
1FF
100
AcDbSymbolTableRecord
100
AcDbLayerTableRecord
  2
COPY_PUBLISH
 70
0
 62
7
  6
CONTINUOUS
370
-3
390
F
  0
LAYER
  5
200
100
AcDbSymbolTableRecord
100
AcDbLayerTableRecord
  2
COSMETIC
 70
0
 62
7
  6
CONTINUOUS
370
-3
390
F
  0
LAYER
  5
201
100
AcDbSymbolTableRecord
100
AcDbLayerTableRecord
  2
COSMETICI
 70
0
 62
7
  6
CONTINUOUS
370
-3
390
F
  0
LAYER
  5
202
100
AcDbSymbolTableRecord
100
AcDbLayerTableRecord
  2
CURVE
 70
0
 62
7
  6
CONTINUOUS
370
-3
390
F
  0
LAYER
  5
203
100
AcDbSymbolTableRecord
100
AcDbLayerTableRecord
  2
CURVE_VERN
 70
0
 62
7
  6
CONTINUOUS
370
-3
390
F
  0
LAYER
  5
204
100
AcDbSymbolTableRecord
100
AcDbLayerTableRecord
  2
DRAFT
 70
0
 62
7
  6
CONTINUOUS
370
-3
390
F
  0
LAYER
  5
205
100
AcDbSymbolTableRecord
100
AcDbLayerTableRecord
  2
IMPORT_IGES
 70
0
 62
7
  6
CONTINUOUS
370
-3
390
F
  0
LAYER
  5
206
100
AcDbSymbolTableRecord
100
AcDbLayerTableRecord
  2
INTFCLR_1
 70
0
 62
7
  6
CONTINUOUS
370
-3
390
F
  0
LAYER
  5
207
100
AcDbSymbolTableRecord
100
AcDbLayerTableRecord
  2
INTF_1
 70
0
 62
7
  6
CONTINUOUS
370
-3
390
F
  0
LAYER
  5
208
100
AcDbSymbolTableRecord
100
AcDbLayerTableRecord
  2
INTF_CYAN
 70
0
 62
7
  6
CONTINUOUS
370
-3
390
F
  0
LAYER
  5
209
100
AcDbSymbolTableRecord
100
AcDbLayerTableRecord
  2
NOTE
 70
0
 62
7
  6
CONTINUOUS
370
-3
390
F
  0
LAYER
  5
20A
100
AcDbSymbolTableRecord
100
AcDbLayerTableRecord
  2
PIANI
 70
0
 62
7
  6
CONTINUOUS
370
-3
390
F
  0
LAYER
  5
20B
100
AcDbSymbolTableRecord
100
AcDbLayerTableRecord
  2
PUNTI
 70
0
 62
7
  6
CONTINUOUS
370
-3
390
F
  0
LAYER
  5
20C
100
AcDbSymbolTableRecord
100
AcDbLayerTableRecord
  2
RACCORDO
 70
0
 62
7
  6
CONTINUOUS
370
-3
390
F
  0
LAYER
  5
20D
100
AcDbSymbolTableRecord
100
AcDbLayerTableRecord
  2
RGB____0____0____0__
 70
0
 62
7
  6
CONTINUOUS
370
-3
390
F
  0
LAYER
  5
20E
100
AcDbSymbolTableRecord
100
AcDbLayerTableRecord
  2
SIMBOLI
 70
0
 62
7
  6
CONTINUOUS
370
-3
390
F
  0
LAYER
  5
20F
100
AcDbSymbolTableRecord
100
AcDbLayerTableRecord
  2
SMUSSO
 70
0
 62
7
  6
CONTINUOUS
370
-3
390
F
  0
LAYER
  5
210
100
AcDbSymbolTableRecord
100
AcDbLayerTableRecord
  2
SNAPLINE
 70
0
 62
7
  6
CONTINUOUS
370
-3
390
F
  0
LAYER
  5
211
100
AcDbSymbolTableRecord
100
AcDbLayerTableRecord
  2
SUPERFICI
 70
0
 62
7
  6
CONTINUOUS
370
-3
390
F
  0
LAYER
  5
212
100
AcDbSymbolTableRecord
100
AcDbLayerTableRecord
  2
TRASH
 70
0
 62
7
  6
CONTINUOUS
370
-3
390
F
  0
LAYER
  5
213
100
AcDbSymbolTableRecord
100
AcDbLayerTableRecord
  2
XSEC_DATUMS
 70
0
 62
7
  6
CONTINUOUS
370
-3
390
F
  0
ENDTAB
  0
TABLE
  2
STYLE
  5
3
100
AcDbSymbolTable
 70
1
  0
STYLE
  5
11
100
AcDbSymbolTableRecord
100
AcDbTextStyleTableRecord
  2
STANDARD
 70
0
 40
0.0
 41
0.8
 50
0.0
 71
0
 42
0.2
  3
txt
  4

  0
STYLE
  5
214
100
AcDbSymbolTableRecord
100
AcDbTextStyleTableRecord
  2
TEXTSTYLE_1
 70
0
 40
0.0
 41
0.8
 50
0.0
 71
0
 42
0.2
  3
gdt
  4

  0
ENDTAB
  0
TABLE
  2
VIEW
  5
6
100
AcDbSymbolTable
 70
0
  0
ENDTAB
  0
TABLE
  2
UCS
  5
7
100
AcDbSymbolTable
 70
0
  0
ENDTAB
  0
TABLE
  2
APPID
  5
9
100
AcDbSymbolTable
 70
1
  0
APPID
  5
215
100
AcDbSymbolTableRecord
100
AcDbRegAppTableRecord
  2
ACAD
 70
0
  0
ENDTAB
  0
TABLE
  2
BLOCK_RECORD
  5
1
100
AcDbSymbolTable
 70
0
  0
BLOCK_RECORD
  5
216
100
AcDbSymbolTableRecord
100
AcDbBlockTableRecord
  2
*Model_Space
  0
BLOCK_RECORD
  5
217
100
AcDbSymbolTableRecord
100
AcDbBlockTableRecord
  2
*Paper_Space
  0
BLOCK_RECORD
  5
218
100
AcDbSymbolTableRecord
100
AcDbBlockTableRecord
  2
_FILLED
  0
BLOCK_RECORD
  5
219
100
AcDbSymbolTableRecord
100
AcDbBlockTableRecord
  2
*D0
  0
BLOCK_RECORD
  5
21A
100
AcDbSymbolTableRecord
100
AcDbBlockTableRecord
  2
*D1
  0
BLOCK_RECORD
  5
21B
100
AcDbSymbolTableRecord
100
AcDbBlockTableRecord
  2
*D2
  0
ENDTAB
  0
TABLE
  2
DIMSTYLE
  5
A
100
AcDbSymbolTable
 70
1
100
AcDbDimStyleTable
 71
0
  0
DIMSTYLE
105
21C
100
AcDbSymbolTableRecord
100
AcDbDimStyleTableRecord
  2
STANDARD
 70
0
  3

  4

 40
1.0
 41
3.0
 42
0.5
 43
0.38
 44
1.5
 45
0.0
 46
0.0
 47
0.01
 48
0.01
140
3.0
141
0.09
142
0.0
143
25.4
144
1.0
145
0.0
146
1.0
147
0.625
 71
1
 72
0
 73
0
 74
0
 75
0
 76
0
 77
1
 78
8
 79
2
170
0
171
1
172
0
173
0
174
0
175
0
176
0
177
0
178
0
270
2
179
2
271
2
272
2
273
2
274
2
275
0
280
0
281
0
282
0
283
1
284
8
285
0
286
0
287
3
288
0
340
11
278
44
341
218
342
218
343
218
344
218
  0
DIMSTYLE
105
21D
100
AcDbSymbolTableRecord
100
AcDbDimStyleTableRecord
  2
DIMSTYLE_1
 70
0
  3

  4

 40
1.0
 41
3.0
 42
0.5
 43
0.38
 44
1.5
 45
0.0
 46
0.0
 47
0.0
 48
0.0
140
3.0
141
0.09
142
0.0
143
25.4
144
1.0
145
0.0
146
1.0
147
0.75
 71
0
 72
0
 73
0
 74
0
 75
0
 76
0
 77
1
 78
8
 79
2
170
0
171
1
172
0
173
0
174
0
175
0
176
0
177
0
178
0
270
2
179
2
271
2
272
2
273
2
274
2
275
0
280
0
281
0
282
0
283
1
284
8
285
0
286
0
287
3
288
0
340
11
278
44
341
218
342
218
343
218
344
218
  0
DIMSTYLE
105
21E
100
AcDbSymbolTableRecord
100
AcDbDimStyleTableRecord
  2
DIMSTYLE_2
 70
0
  3

  4

 40
1.0
 41
3.0
 42
0.5
 43
0.38
 44
1.5
 45
0.0
 46
0.0
 47
0.0
 48
0.0
140
3.0
141
0.09
142
0.0
143
25.4
144
1.0
145
0.0
146
1.0
147
0.75
 71
0
 72
0
 73
0
 74
0
 75
0
 76
0
 77
1
 78
8
 79
2
170
0
171
1
172
0
173
0
174
0
175
0
176
0
177
0
178
0
270
2
179
2
271
1
272
2
273
2
274
2
275
0
280
0
281
0
282
0
283
1
284
8
285
0
286
0
287
3
288
0
340
11
278
44
341
218
342
218
343
218
344
218
  0
ENDTAB
  0
ENDSEC
  0
SECTION
  2
BLOCKS
  0
BLOCK
  5
20
100
AcDbEntity
  8
0
100
AcDbBlockBegin
  2
*Model_Space
 70
0
 10
0.0
 20
0.0
 30
0.0
  3
*Model_Space
  1

  0
ENDBLK
  5
21
100
AcDbEntity
  8
0
100
AcDbBlockEnd
  0
BLOCK
  5
1C
100
AcDbEntity
  8
0
100
AcDbBlockBegin
  2
*Paper_Space
 70
0
 10
0.0
 20
0.0
 30
0.0
  3
*Paper_Space
  1

  0
ENDBLK
  5
1D
100
AcDbEntity
  8
0
100
AcDbBlockEnd
  0
BLOCK
  5
21F
100
AcDbEntity
  8
0
100
AcDbBlockBegin
  2
_FILLED
 70
64
 10
0.0
 20
0.0
  3
_FILLED
  1

  0
SOLID
  5
220
100
AcDbEntity
  8
0
  6
BYBLOCK
 62
0
100
AcDbTrace
 10
0.0
 20
0.0
 11
-1.0
 21
0.3166666667
 12
-1.0
 22
-0.3166666667
 13
-1.0
 23
-0.3166666667
  0
ENDBLK
  5
221
100
AcDbEntity
  8
0
  6
BYBLOCK
 62
0
100
AcDbBlockEnd
  0
BLOCK
  5
222
100
AcDbEntity
  8
0
100
AcDbBlockBegin
 62
7
  6
CONTINUOUS
  2
*D0
 70
65
 10
0.0
 20
0.0
  3
*D0
  1

  0
LINE
  5
223
100
AcDbEntity
  8
0
100
AcDbLine
 62
7
  6
CONTINUOUS
 10
-45.0
 20
44.5013704652
 11
-45.0
 21
59.5
  0
LINE
  5
224
100
AcDbEntity
  8
0
100
AcDbLine
 62
7
  6
CONTINUOUS
 10
45.0
 20
44.5013704652
 11
45.0
 21
59.5
  0
LINE
  5
225
100
AcDbEntity
  8
0
100
AcDbLine
 62
7
  6
CONTINUOUS
 10
-45.0
 20
58.0
 11
0.0
 21
58.0
  0
LINE
  5
226
100
AcDbEntity
  8
0
100
AcDbLine
 62
7
  6
CONTINUOUS
 10
45.0
 20
58.0
 11
0.0
 21
58.0
  0
INSERT
  5
227
100
AcDbEntity
  8
0
100
AcDbBlockReference
 62
7
  6
CONTINUOUS
  2
_FILLED
 10
-45.0
 20
58.0
 41
3.0
 42
3.0
 43
3.0
 50
180.0
  0
INSERT
  5
228
100
AcDbEntity
  8
0
100
AcDbBlockReference
 62
7
  6
CONTINUOUS
  2
_FILLED
 10
45.0
 20
58.0
 41
3.0
 42
3.0
 43
3.0
  0
ENDBLK
  5
229
100
AcDbEntity
  8
0
  6
BYBLOCK
 62
0
100
AcDbBlockEnd
  0
BLOCK
  5
22A
100
AcDbEntity
  8
0
100
AcDbBlockBegin
 62
7
  6
CONTINUOUS
  2
*D1
 70
65
 10
0.0
 20
0.0
  3
*D1
  1

  0
LINE
  5
22B
100
AcDbEntity
  8
0
100
AcDbLine
 62
7
  6
CONTINUOUS
 10
44.5013704652
 20
45.0
 11
62.0057643263
 21
45.0
  0
LINE
  5
22C
100
AcDbEntity
  8
0
100
AcDbLine
 62
7
  6
CONTINUOUS
 10
44.5013704652
 20
-45.0
 11
62.0057643263
 21
-45.0
  0
LINE
  5
22D
100
AcDbEntity
  8
0
100
AcDbLine
 62
7
  6
CONTINUOUS
 10
60.5057643263
 20
45.0
 11
60.5057643263
 21
0.0
  0
LINE
  5
22E
100
AcDbEntity
  8
0
100
AcDbLine
 62
7
  6
CONTINUOUS
 10
60.5057643263
 20
-45.0
 11
60.5057643263
 21
0.0
  0
INSERT
  5
22F
100
AcDbEntity
  8
0
100
AcDbBlockReference
 62
7
  6
CONTINUOUS
  2
_FILLED
 10
60.5057643263
 20
45.0
 41
3.0
 42
3.0
 43
3.0
 50
90.0
  0
INSERT
  5
230
100
AcDbEntity
  8
0
100
AcDbBlockReference
 62
7
  6
CONTINUOUS
  2
_FILLED
 10
60.5057643263
 20
-45.0
 41
3.0
 42
3.0
 43
3.0
 50
270.0
  0
ENDBLK
  5
231
100
AcDbEntity
  8
0
  6
BYBLOCK
 62
0
100
AcDbBlockEnd
  0
BLOCK
  5
232
100
AcDbEntity
  8
0
100
AcDbBlockBegin
 62
7
  6
CONTINUOUS
  2
*D2
 70
65
 10
0.0
 20
0.0
  3
*D2
  1

  0
LINE
  5
233
100
AcDbEntity
  8
0
100
AcDbLine
 62
7
  6
CONTINUOUS
 10
-62.2880236974
 20
43.597075387
 11
-62.2880237051
 21
59.5000000021
  0
LINE
  5
234
100
AcDbEntity
  8
0
100
AcDbLine
 62
7
  6
CONTINUOUS
 10
-70.8593027949
 20
0.4999997802
 11
-70.8593028237
 21
59.4999999979
  0
LINE
  5
235
100
AcDbEntity
  8
0
100
AcDbLine
 62
7
  6
CONTINUOUS
 10
-62.2880237044
 20
58.0000000021
 11
-58.2880237044
 21
58.000000004
  0
LINE
  5
236
100
AcDbEntity
  8
0
100
AcDbLine
 62
7
  6
CONTINUOUS
 10
-58.2880237044
 20
58.000000004
 11
-66.5736632637
 21
58.0
  0
LINE
  5
237
100
AcDbEntity
  8
0
100
AcDbLine
 62
7
  6
CONTINUOUS
 10
-70.8593028229
 20
57.9999999979
 11
-74.8593028229
 21
57.999999996
  0
LINE
  5
238
100
AcDbEntity
  8
0
100
AcDbLine
 62
7
  6
CONTINUOUS
 10
-74.8593028229
 20
57.999999996
 11
-66.5736632637
 21
58.0
  0
INSERT
  5
239
100
AcDbEntity
  8
0
100
AcDbBlockReference
 62
7
  6
CONTINUOUS
  2
_FILLED
 10
-62.2880237044
 20
58.0000000021
 41
3.0
 42
3.0
 43
3.0
 50
180.000000028
  0
INSERT
  5
23A
100
AcDbEntity
  8
0
100
AcDbBlockReference
 62
7
  6
CONTINUOUS
  2
_FILLED
 10
-70.8593028229
 20
57.9999999979
 41
3.0
 42
3.0
 43
3.0
 50
0.000000028
  0
ENDBLK
  5
23B
100
AcDbEntity
  8
0
  6
BYBLOCK
 62
0
100
AcDbBlockEnd
  0
ENDSEC
  0
SECTION
  2
ENTITIES
  0
DIMENSION
  5
23C
100
AcDbEntity
  8
0
100
AcDbDimension
 62
7
  6
CONTINUOUS
  2
*D0
 10
45.0
 20
58.0
 11
-2.3571428571
 21
58.0
 70
160
 71
2
 72
2
 41
0.9
 42
90.0
  3
DIMSTYLE_1
100
AcDbAlignedDimension
 13
-45.0
 23
44.0013704652
 14
45.0
 24
44.0013704652
100
AcDbRotatedDimension
  0
DIMENSION
  5
23D
100
AcDbEntity
  8
0
100
AcDbDimension
 62
7
  6
CONTINUOUS
  2
*D1
 10
60.5057643263
 20
-45.0
 11
60.5057643263
 21
-2.3571428571
 70
160
 71
2
 72
2
 41
0.9
 42
90.0
  3
DIMSTYLE_1
100
AcDbAlignedDimension
 13
44.0013704652
 23
45.0
 14
44.0013704652
 24
-45.0
 50
270.0
100
AcDbRotatedDimension
  0
DIMENSION
  5
23E
100
AcDbEntity
  8
0
100
AcDbDimension
 62
7
  6
CONTINUOUS
  2
*D2
 10
-70.8593028229
 20
57.9999999979
 11
-69.7879489787
 21
57.9999999984
 70
160
 71
2
 72
2
 41
0.9
 42
8.5712791185
  3
DIMSTYLE_2
100
AcDbAlignedDimension
 13
-62.2880236971
 23
43.097075387
 14
-70.8593027946
 24
-0.0000002198
 50
180.000000028
100
AcDbRotatedDimension
  0
LWPOLYLINE
  5
23F
100
AcDbEntity
  8
RACCORDO
100
AcDbPolyline
 62
250
  6
CONTINUOUS
 90
28
 70
0
 10
-44.8700585586
 20
-43.8714290238
 10
-44.8686844686
 20
-43.9304743766
 10
-44.8638791753
 20
-43.9892336337
 10
-44.855673708
 20
-44.0475080222
 10
-44.8441178827
 20
-44.1050781734
 10
-44.8292609004
 20
-44.1617759443
 10
-44.8111367022
 20
-44.2174811733
 10
-44.7897893175
 20
-44.2720490404
 10
-44.7653059647
 20
-44.3252495663
 10
-44.7377989693
 20
-44.3768420397
 10
-44.7073859689
 20
-44.4266363763
 10
-44.6741696803
 20
-44.474493136
 10
-44.6382628328
 20
-44.5202616709
 10
-44.5997942217
 20
-44.5637943459
 10
-44.5589019354
 20
-44.6049511246
 10
-44.5157222969
 20
-44.6436030133
 10
-44.4704085578
 20
-44.6796246207
 10
-44.4231162995
 20
-44.7129042432
 10
-44.3739924813
 20
-44.7433438558
 10
-44.3231994415
 20
-44.7708483634
 10
-44.2709145997
 20
-44.7953277337
 10
-44.2173134256
 20
-44.8167039603
 10
-44.1625837314
 20
-44.8349078545
 10
-44.1069030317
 20
-44.849886574
 10
-44.0504351778
 20
-44.8615986049
 10
-43.9933606624
 20
-44.8700064094
 10
-43.9358771298
 20
-44.8750808273
 10
-43.8781758769
 20
-44.8768054117
  0
LWPOLYLINE
  5
240
100
AcDbEntity
  8
ASSI
100
AcDbPolyline
 62
250
  6
CONTINUOUS
 90
28
 70
0
 10
-44.8700585586
 20
-43.8714290238
 10
-44.8686844686
 20
-43.9304743766
 10
-44.8638791753
 20
-43.9892336337
 10
-44.855673708
 20
-44.0475080222
 10
-44.8441178827
 20
-44.1050781734
 10
-44.8292609004
 20
-44.1617759443
 10
-44.8111367022
 20
-44.2174811733
 10
-44.7897893175
 20
-44.2720490404
 10
-44.7653059647
 20
-44.3252495663
 10
-44.7377989693
 20
-44.3768420397
 10
-44.7073859689
 20
-44.4266363763
 10
-44.6741696803
 20
-44.474493136
 10
-44.6382628328
 20
-44.5202616709
 10
-44.5997942217
 20
-44.5637943459
 10
-44.5589019354
 20
-44.6049511246
 10
-44.5157222969
 20
-44.6436030133
 10
-44.4704085578
 20
-44.6796246207
 10
-44.4231162995
 20
-44.7129042432
 10
-44.3739924813
 20
-44.7433438558
 10
-44.3231994415
 20
-44.7708483634
 10
-44.2709145997
 20
-44.7953277337
 10
-44.2173134256
 20
-44.8167039603
 10
-44.1625837314
 20
-44.8349078545
 10
-44.1069030317
 20
-44.849886574
 10
-44.0504351778
 20
-44.8615986049
 10
-43.9933606624
 20
-44.8700064094
 10
-43.9358771298
 20
-44.8750808273
 10
-43.8781758769
 20
-44.8768054117
  0
LWPOLYLINE
  5
241
100
AcDbEntity
  8
RACCORDO
100
AcDbPolyline
 62
250
  6
CONTINUOUS
 90
28
 70
0
 10
-44.5704696982
 20
-43.9246281065
 10
-44.5696252612
 20
-43.96629429
 10
-44.5664307296
 20
-44.0075145745
 10
-44.5608861034
 20
-44.0482890176
 10
-44.5529569095
 20
-44.0887456584
 10
-44.5426776209
 20
-44.1287565602
 10
-44.5301516566
 20
-44.1679378676
 10
-44.5153473063
 20
-44.2063007183
 10
-44.4982962802
 20
-44.2438341817
 10
-44.4791971275
 20
-44.2801213992
 10
-44.4580341378
 20
-44.3151318114
 10
-44.4348230214
 20
-44.3488962717
 10
-44.4098094588
 20
-44.3810901221
 10
-44.3829763229
 20
-44.4116984623
 10
-44.3543407408
 20
-44.4407365201
 10
-44.324199774
 20
-44.4679248808
 10
-44.2925403022
 20
-44.4932444941
 10
-44.2593754457
 20
-44.5167147349
 10
-44.2250416268
 20
-44.5381138549
 10
-44.1895275462
 20
-44.5574215069
 10
-44.1528445032
 20
-44.5746583208
 10
-44.1153628175
 20
-44.5896640194
 10
-44.0770676316
 20
-44.6024166075
 10
-44.0379738031
 20
-44.6129382887
 10
-43.9984962242
 20
-44.621135071
 10
-43.9587731922
 20
-44.6269756618
 10
-43.9186664098
 20
-44.6304914639
 10
-43.8781758769
 20
-44.6316825048
  0
LWPOLYLINE
  5
242
100
AcDbEntity
  8
ASSI
100
AcDbPolyline
 62
250
  6
CONTINUOUS
 90
28
 70
0
 10
-44.5704696982
 20
-43.9246281065
 10
-44.5696252612
 20
-43.96629429
 10
-44.5664307296
 20
-44.0075145745
 10
-44.5608861034
 20
-44.0482890176
 10
-44.5529569095
 20
-44.0887456584
 10
-44.5426776209
 20
-44.1287565602
 10
-44.5301516566
 20
-44.1679378676
 10
-44.5153473063
 20
-44.2063007183
 10
-44.4982962802
 20
-44.2438341817
 10
-44.4791971275
 20
-44.2801213992
 10
-44.4580341378
 20
-44.3151318114
 10
-44.4348230214
 20
-44.3488962717
 10
-44.4098094588
 20
-44.3810901221
 10
-44.3829763229
 20
-44.4116984623
 10
-44.3543407408
 20
-44.4407365201
 10
-44.324199774
 20
-44.4679248808
 10
-44.2925403022
 20
-44.4932444941
 10
-44.2593754457
 20
-44.5167147349
 10
-44.2250416268
 20
-44.5381138549
 10
-44.1895275462
 20
-44.5574215069
 10
-44.1528445032
 20
-44.5746583208
 10
-44.1153628175
 20
-44.5896640194
 10
-44.0770676316
 20
-44.6024166075
 10
-44.0379738031
 20
-44.6129382887
 10
-43.9984962242
 20
-44.621135071
 10
-43.9587731922
 20
-44.6269756618
 10
-43.9186664098
 20
-44.6304914639
 10
-43.8781758769
 20
-44.6316825048
  0
LWPOLYLINE
  5
243
100
AcDbEntity
  8
RACCORDO
100
AcDbPolyline
 62
250
  6
CONTINUOUS
 90
9
 70
0
 10
-44.8700585586
 20
43.8714290238
 10
-44.8488539353
 20
41.530635219
 10
-44.8294010733
 20
39.1852651697
 10
-44.8116999728
 20
36.8353188758
 10
-44.7957477181
 20
34.4803128887
 10
-44.7815472247
 20
32.1207306571
 10
-44.7691072395
 20
29.7580225269
 10
-44.7584306778
 20
27.3926719467
 10
-44.7495146241
 20
25.0241954679
  0
LWPOLYLINE
  5
244
100
AcDbEntity
  8
ASSI
100
AcDbPolyline
 62
250
  6
CONTINUOUS
 90
9
 70
0
 10
-44.8700585586
 20
43.8714290238
 10
-44.8488539353
 20
41.530635219
 10
-44.8294010733
 20
39.1852651697
 10
-44.8116999728
 20
36.8353188758
 10
-44.7957477181
 20
34.4803128887
 10
-44.7815472247
 20
32.1207306571
 10
-44.7691072395
 20
29.7580225269
 10
-44.7584306778
 20
27.3926719467
 10
-44.7495146241
 20
25.0241954679
  0
LWPOLYLINE
  5
245
100
AcDbEntity
  8
RACCORDO
100
AcDbPolyline
 62
250
  6
CONTINUOUS
 90
9
 70
0
 10
-44.5704696982
 20
43.9246281065
 10
-44.5492646814
 20
41.5803705021
 10
-44.5298115775
 20
39.2305985388
 10
-44.5121103866
 20
36.8757866537
 10
-44.4961582719
 20
34.5164144648
 10
-44.4819580701
 20
32.1529541779
 10
-44.4695182913
 20
29.7858704217
 10
-44.4588417721
 20
27.4156368628
 10
-44.4499256757
 20
25.0427361763
  0
LWPOLYLINE
  5
246
100
AcDbEntity
  8
ASSI
100
AcDbPolyline
 62
250
  6
CONTINUOUS
 90
9
 70
0
 10
-44.5704696982
 20
43.9246281065
 10
-44.5492646814
 20
41.5803705021
 10
-44.5298115775
 20
39.2305985388
 10
-44.5121103866
 20
36.8757866537
 10
-44.4961582719
 20
34.5164144648
 10
-44.4819580701
 20
32.1529541779
 10
-44.4695182913
 20
29.7858704217
 10
-44.4588417721
 20
27.4156368628
 10
-44.4499256757
 20
25.0427361763
  0
LINE
  5
247
100
AcDbEntity
  8
RACCORDO
100
AcDbLine
 62
250
  6
CONTINUOUS
 10
-44.7495146241
 20
25.0241954679
 11
-44.7332181219
 21
18.8795044447
  0
LINE
  5
248
100
AcDbEntity
  8
ASSI
100
AcDbLine
 62
250
  6
CONTINUOUS
 10
-44.7495146241
 20
25.0241954679
 11
-44.7332181219
 21
18.8795044447
  0
LINE
  5
249
100
AcDbEntity
  8
RACCORDO
100
AcDbLine
 62
250
  6
CONTINUOUS
 10
-44.4499256757
 20
25.0427361763
 11
-44.4336291884
 21
18.8925039473
  0
LINE
  5
24A
100
AcDbEntity
  8
ASSI
100
AcDbLine
 62
250
  6
CONTINUOUS
 10
-44.4499256757
 20
25.0427361763
 11
-44.4336291884
 21
18.8925039473
  0
LINE
  5
24B
100
AcDbEntity
  8
RACCORDO
100
AcDbLine
 62
250
  6
CONTINUOUS
 10
-44.7332181219
 20
18.8795044447
 11
-44.7199214545
 21
11.3305150114
  0
LINE
  5
24C
100
AcDbEntity
  8
ASSI
100
AcDbLine
 62
250
  6
CONTINUOUS
 10
-44.7332181219
 20
18.8795044447
 11
-44.7199214545
 21
11.3305150114
  0
LINE
  5
24D
100
AcDbEntity
  8
RACCORDO
100
AcDbLine
 62
250
  6
CONTINUOUS
 10
-44.4336291884
 20
18.8925039473
 11
-44.4203325766
 21
11.3380604683
  0
LINE
  5
24E
100
AcDbEntity
  8
ASSI
100
AcDbLine
 62
250
  6
CONTINUOUS
 10
-44.4336291884
 20
18.8925039473
 11
-44.4203325766
 21
11.3380604683
  0
LINE
  5
24F
100
AcDbEntity
  8
RACCORDO
100
AcDbLine
 62
250
  6
CONTINUOUS
 10
-44.7199214545
 20
11.3305150114
 11
-44.7132711867
 21
3.77715111
  0
LINE
  5
250
100
AcDbEntity
  8
ASSI
100
AcDbLine
 62
250
  6
CONTINUOUS
 10
-44.7199214545
 20
11.3305150114
 11
-44.7132711867
 21
3.77715111
  0
LINE
  5
251
100
AcDbEntity
  8
RACCORDO
100
AcDbLine
 62
250
  6
CONTINUOUS
 10
-44.4203325766
 20
11.3380604683
 11
-44.4136823257
 21
3.7797559319
  0
LINE
  5
252
100
AcDbEntity
  8
ASSI
100
AcDbLine
 62
250
  6
CONTINUOUS
 10
-44.4203325766
 20
11.3380604683
 11
-44.4136823257
 21
3.7797559319
  0
LINE
  5
253
100
AcDbEntity
  8
RACCORDO
100
AcDbLine
 62
7
  6
CONTINUOUS
 10
-45.0
 20
-44.0013704652
 11
-45.0
 21
44.0013704652
  0
LINE
  5
254
100
AcDbEntity
  8
ASSI
100
AcDbLine
 62
7
  6
CONTINUOUS
 10
-45.0
 20
-44.0013704652
 11
-45.0
 21
44.0013704652
  0
LINE
  5
255
100
AcDbEntity
  8
RACCORDO
100
AcDbLine
 62
250
  6
CONTINUOUS
 10
-43.8781758769
 20
-44.6316825048
 11
-43.8781758769
 21
-44.8768054117
  0
LINE
  5
256
100
AcDbEntity
  8
ASSI
100
AcDbLine
 62
250
  6
CONTINUOUS
 10
-43.8781758769
 20
-44.6316825048
 11
-43.8781758769
 21
-44.8768054117
  0
LINE
  5
257
100
AcDbEntity
  8
RACCORDO
100
AcDbLine
 62
250
  6
CONTINUOUS
 10
-43.8781758769
 20
44.6316825048
 11
-43.8781758772
 21
44.8768054117
  0
LINE
  5
258
100
AcDbEntity
  8
ASSI
100
AcDbLine
 62
250
  6
CONTINUOUS
 10
-43.8781758769
 20
44.6316825048
 11
-43.8781758772
 21
44.8768054117
  0
LINE
  5
259
100
AcDbEntity
  8
RACCORDO
100
AcDbLine
 62
250
  6
CONTINUOUS
 10
-44.7132711867
 20
3.77715111
 11
-44.713271186
 21
-3.7771499691
  0
LINE
  5
25A
100
AcDbEntity
  8
ASSI
100
AcDbLine
 62
250
  6
CONTINUOUS
 10
-44.7132711867
 20
3.77715111
 11
-44.713271186
 21
-3.7771499691
  0
LINE
  5
25B
100
AcDbEntity
  8
RACCORDO
100
AcDbLine
 62
250
  6
CONTINUOUS
 10
-44.4136823257
 20
3.7797559319
 11
-44.4136823261
 21
-3.7797569659
  0
LINE
  5
25C
100
AcDbEntity
  8
ASSI
100
AcDbLine
 62
250
  6
CONTINUOUS
 10
-44.4136823257
 20
3.7797559319
 11
-44.4136823261
 21
-3.7797569659
  0
LINE
  5
25D
100
AcDbEntity
  8
RACCORDO
100
AcDbLine
 62
250
  6
CONTINUOUS
 10
-44.713271186
 20
-3.7771499691
 11
-44.7199214528
 21
-11.3305136537
  0
LINE
  5
25E
100
AcDbEntity
  8
ASSI
100
AcDbLine
 62
250
  6
CONTINUOUS
 10
-44.713271186
 20
-3.7771499691
 11
-44.7199214528
 21
-11.3305136537
  0
LINE
  5
25F
100
AcDbEntity
  8
RACCORDO
100
AcDbLine
 62
250
  6
CONTINUOUS
 10
-44.4136823261
 20
-3.7797569659
 11
-44.4203325776
 21
-11.3380611962
  0
LINE
  5
260
100
AcDbEntity
  8
ASSI
100
AcDbLine
 62
250
  6
CONTINUOUS
 10
-44.4136823261
 20
-3.7797569659
 11
-44.4203325776
 21
-11.3380611962
  0
LINE
  5
261
100
AcDbEntity
  8
RACCORDO
100
AcDbLine
 62
250
  6
CONTINUOUS
 10
-44.7199214528
 20
-11.3305136537
 11
-44.7332181209
 21
-18.8795038031
  0
LINE
  5
262
100
AcDbEntity
  8
ASSI
100
AcDbLine
 62
250
  6
CONTINUOUS
 10
-44.7199214528
 20
-11.3305136537
 11
-44.7332181209
 21
-18.8795038031
  0
LINE
  5
263
100
AcDbEntity
  8
RACCORDO
100
AcDbLine
 62
250
  6
CONTINUOUS
 10
-44.4203325776
 20
-11.3380611962
 11
-44.433629189
 21
-18.892504222
  0
LINE
  5
264
100
AcDbEntity
  8
ASSI
100
AcDbLine
 62
250
  6
CONTINUOUS
 10
-44.4203325776
 20
-11.3380611962
 11
-44.433629189
 21
-18.892504222
  0
LWPOLYLINE
  5
265
100
AcDbEntity
  8
RACCORDO
100
AcDbPolyline
 62
250
  6
CONTINUOUS
 90
10
 70
0
 10
-44.433629189
 20
-18.892504222
 10
-44.449925677
 20
-25.0427362954
 10
-44.4588417737
 20
-27.4156370147
 10
-44.4695182923
 20
-29.7858705046
 10
-44.4819580688
 20
-32.1529539987
 10
-44.4961582673
 20
-34.516413923
 10
-44.5121103802
 20
-36.8757859222
 10
-44.5298115717
 20
-39.2305978808
 10
-44.5492646777
 20
-41.5803700883
 10
-44.5704696982
 20
-43.9246281065
  0
LWPOLYLINE
  5
266
100
AcDbEntity
  8
ASSI
100
AcDbPolyline
 62
250
  6
CONTINUOUS
 90
10
 70
0
 10
-44.433629189
 20
-18.892504222
 10
-44.449925677
 20
-25.0427362954
 10
-44.4588417737
 20
-27.4156370147
 10
-44.4695182923
 20
-29.7858705046
 10
-44.4819580688
 20
-32.1529539987
 10
-44.4961582673
 20
-34.516413923
 10
-44.5121103802
 20
-36.8757859222
 10
-44.5298115717
 20
-39.2305978808
 10
-44.5492646777
 20
-41.5803700883
 10
-44.5704696982
 20
-43.9246281065
  0
LWPOLYLINE
  5
267
100
AcDbEntity
  8
RACCORDO
100
AcDbPolyline
 62
250
  6
CONTINUOUS
 90
10
 70
0
 10
-44.7332181209
 20
-18.8795038031
 10
-44.7495146367
 20
-25.0241988665
 10
-44.7584307064
 20
-27.3926785798
 10
-44.7691072875
 20
-29.7580322302
 10
-44.7815473045
 20
-32.1207441804
 10
-44.7957478329
 20
-34.4803300678
 10
-44.8117000999
 20
-36.8353368046
 10
-44.829401181
 20
-39.1852800282
 10
-44.8488540005
 20
-41.5306441013
 10
-44.8700585586
 20
-43.8714290238
  0
LWPOLYLINE
  5
268
100
AcDbEntity
  8
ASSI
100
AcDbPolyline
 62
250
  6
CONTINUOUS
 90
10
 70
0
 10
-44.7332181209
 20
-18.8795038031
 10
-44.7495146367
 20
-25.0241988665
 10
-44.7584307064
 20
-27.3926785798
 10
-44.7691072875
 20
-29.7580322302
 10
-44.7815473045
 20
-32.1207441804
 10
-44.7957478329
 20
-34.4803300678
 10
-44.8117000999
 20
-36.8353368046
 10
-44.829401181
 20
-39.1852800282
 10
-44.8488540005
 20
-41.5306441013
 10
-44.8700585586
 20
-43.8714290238
  0
LWPOLYLINE
  5
269
100
AcDbEntity
  8
RACCORDO
100
AcDbPolyline
 62
250
  6
CONTINUOUS
 90
28
 70
0
 10
43.8781758769
 20
-44.8768054117
 10
43.9358790912
 20
-44.8750806058
 10
43.9933273885
 20
-44.8700102287
 10
44.0503303845
 20
-44.8616171492
 10
44.1066620052
 20
-44.8499439897
 10
44.1621751202
 20
-44.8350306373
 10
44.2167964506
 20
-44.8168925971
 10
44.270393801
 20
-44.7955529004
 10
44.3227268303
 20
-44.771086409
 10
44.3735626186
 20
-44.743592966
 10
44.4227052357
 20
-44.713175756
 10
44.4700127188
 20
-44.6799207097
 10
44.5153430184
 20
-44.6439229412
 10
44.558541784
 20
-44.6052929096
 10
44.5994543358
 20
-44.5641569719
 10
44.6379446408
 20
-44.5206436514
 10
44.6738754279
 20
-44.4748915901
 10
44.7071166854
 20
-44.4270494968
 10
44.7375534477
 20
-44.3772716237
 10
44.7650750393
 20
-44.3257147992
 10
44.789574811
 20
-44.2725531665
 10
44.8109589176
 20
-44.2179774542
 10
44.8291446967
 20
-44.1621714079
 10
44.8440619639
 20
-44.105319636
 10
44.8556541505
 20
-44.047622577
 10
44.8638742693
 20
-43.9892780405
 10
44.8686841964
 20
-43.9304802998
 10
44.8700585586
 20
-43.8714290238
  0
LWPOLYLINE
  5
26A
100
AcDbEntity
  8
ASSI
100
AcDbPolyline
 62
250
  6
CONTINUOUS
 90
28
 70
0
 10
43.8781758769
 20
-44.8768054117
 10
43.9358790912
 20
-44.8750806058
 10
43.9933273885
 20
-44.8700102287
 10
44.0503303845
 20
-44.8616171492
 10
44.1066620052
 20
-44.8499439897
 10
44.1621751202
 20
-44.8350306373
 10
44.2167964506
 20
-44.8168925971
 10
44.270393801
 20
-44.7955529004
 10
44.3227268303
 20
-44.771086409
 10
44.3735626186
 20
-44.743592966
 10
44.4227052357
 20
-44.713175756
 10
44.4700127188
 20
-44.6799207097
 10
44.5153430184
 20
-44.6439229412
 10
44.558541784
 20
-44.6052929096
 10
44.5994543358
 20
-44.5641569719
 10
44.6379446408
 20
-44.5206436514
 10
44.6738754279
 20
-44.4748915901
 10
44.7071166854
 20
-44.4270494968
 10
44.7375534477
 20
-44.3772716237
 10
44.7650750393
 20
-44.3257147992
 10
44.789574811
 20
-44.2725531665
 10
44.8109589176
 20
-44.2179774542
 10
44.8291446967
 20
-44.1621714079
 10
44.8440619639
 20
-44.105319636
 10
44.8556541505
 20
-44.047622577
 10
44.8638742693
 20
-43.9892780405
 10
44.8686841964
 20
-43.9304802998
 10
44.8700585586
 20
-43.8714290238
  0
LWPOLYLINE
  5
26B
100
AcDbEntity
  8
RACCORDO
100
AcDbPolyline
 62
250
  6
CONTINUOUS
 90
28
 70
0
 10
43.8781758769
 20
-44.6316825048
 10
43.9187038743
 20
-44.6304780836
 10
43.9588119933
 20
-44.626961863
 10
43.9985002339
 20
-44.6211338159
 10
44.037882471
 20
-44.6129688545
 10
44.0768448297
 20
-44.6024919575
 10
44.1150456852
 20
-44.5897781721
 10
44.1525079896
 20
-44.5747958048
 10
44.1892087907
 20
-44.5575763404
 10
44.2247376072
 20
-44.538289581
 10
44.2590663946
 20
-44.5169205958
 10
44.2922231974
 20
-44.4934840338
 10
44.3238816675
 20
-44.4681940731
 10
44.3540327652
 20
-44.4410301138
 10
44.3826855302
 20
-44.4120124308
 10
44.4095407336
 20
-44.3814165412
 10
44.4345831099
 20
-44.3492228294
 10
44.4578279245
 20
-44.3154505818
 10
44.479021745
 20
-44.2804337214
 10
44.4981438556
 20
-44.2441561065
 10
44.5152149721
 20
-44.2066335864
 10
44.5300438091
 20
-44.1682481484
 10
44.5426064825
 20
-44.1289768997
 10
44.5529268766
 20
-44.0888425141
 10
44.5608853584
 20
-44.0482954332
 10
44.5664420505
 20
-44.0074857957
 10
44.5696368304
 20
-43.9662633712
 10
44.5704696982
 20
-43.9246281065
  0
LWPOLYLINE
  5
26C
100
AcDbEntity
  8
ASSI
100
AcDbPolyline
 62
250
  6
CONTINUOUS
 90
28
 70
0
 10
43.8781758769
 20
-44.6316825048
 10
43.9187038743
 20
-44.6304780836
 10
43.9588119933
 20
-44.626961863
 10
43.9985002339
 20
-44.6211338159
 10
44.037882471
 20
-44.6129688545
 10
44.0768448297
 20
-44.6024919575
 10
44.1150456852
 20
-44.5897781721
 10
44.1525079896
 20
-44.5747958048
 10
44.1892087907
 20
-44.5575763404
 10
44.2247376072
 20
-44.538289581
 10
44.2590663946
 20
-44.5169205958
 10
44.2922231974
 20
-44.4934840338
 10
44.3238816675
 20
-44.4681940731
 10
44.3540327652
 20
-44.4410301138
 10
44.3826855302
 20
-44.4120124308
 10
44.4095407336
 20
-44.3814165412
 10
44.4345831099
 20
-44.3492228294
 10
44.4578279245
 20
-44.3154505818
 10
44.479021745
 20
-44.2804337214
 10
44.4981438556
 20
-44.2441561065
 10
44.5152149721
 20
-44.2066335864
 10
44.5300438091
 20
-44.1682481484
 10
44.5426064825
 20
-44.1289768997
 10
44.5529268766
 20
-44.0888425141
 10
44.5608853584
 20
-44.0482954332
 10
44.5664420505
 20
-44.0074857957
 10
44.5696368304
 20
-43.9662633712
 10
44.5704696982
 20
-43.9246281065
  0
LWPOLYLINE
  5
26D
100
AcDbEntity
  8
RACCORDO
100
AcDbPolyline
 62
250
  6
CONTINUOUS
 90
19
 70
0
 10
44.5704696982
 20
-43.9246280943
 10
44.5957596656
 20
-43.924207405
 10
44.6208695746
 20
-43.9234109463
 10
44.6456206487
 20
-43.9222443888
 10
44.6698366663
 20
-43.9207160381
 10
44.6933452151
 20
-43.9188367757
 10
44.7159789199
 20
-43.9166199815
 10
44.7375766343
 20
-43.9140814385
 10
44.7579845877
 20
-43.9112392206
 10
44.7770574805
 20
-43.9081135635
 10
44.7946595182
 20
-43.9047267214
 10
44.8106653787
 20
-43.9011028076
 10
44.824961104
 20
-43.8972676235
 10
44.837444912
 20
-43.8932484748
 10
44.8480279211
 20
-43.8890739767
 10
44.8566347828
 20
-43.8847738508
 10
44.8632042183
 20
-43.8803787129
 10
44.8676894548
 20
-43.8759198552
 10
44.8700585586
 20
-43.8714290238
  0
LWPOLYLINE
  5
26E
100
AcDbEntity
  8
ASSI
100
AcDbPolyline
 62
250
  6
CONTINUOUS
 90
19
 70
0
 10
44.5704696982
 20
-43.9246280943
 10
44.5957596656
 20
-43.924207405
 10
44.6208695746
 20
-43.9234109463
 10
44.6456206487
 20
-43.9222443888
 10
44.6698366663
 20
-43.9207160381
 10
44.6933452151
 20
-43.9188367757
 10
44.7159789199
 20
-43.9166199815
 10
44.7375766343
 20
-43.9140814385
 10
44.7579845877
 20
-43.9112392206
 10
44.7770574805
 20
-43.9081135635
 10
44.7946595182
 20
-43.9047267214
 10
44.8106653787
 20
-43.9011028076
 10
44.824961104
 20
-43.8972676235
 10
44.837444912
 20
-43.8932484748
 10
44.8480279211
 20
-43.8890739767
 10
44.8566347828
 20
-43.8847738508
 10
44.8632042183
 20
-43.8803787129
 10
44.8676894548
 20
-43.8759198552
 10
44.8700585586
 20
-43.8714290238
  0
LINE
  5
26F
100
AcDbEntity
  8
RACCORDO
100
AcDbLine
 62
7
  6
CONTINUOUS
 10
-44.0013704652
 20
-45.0
 11
44.0013704652
 21
-45.0
  0
LINE
  5
270
100
AcDbEntity
  8
ASSI
100
AcDbLine
 62
7
  6
CONTINUOUS
 10
-44.0013704652
 20
-45.0
 11
44.0013704652
 21
-45.0
  0
LINE
  5
271
100
AcDbEntity
  8
RACCORDO
100
AcDbLine
 62
250
  6
CONTINUOUS
 10
-43.8781758769
 20
-44.8768054117
 11
43.8781758769
 21
-44.8768054117
  0
LINE
  5
272
100
AcDbEntity
  8
ASSI
100
AcDbLine
 62
250
  6
CONTINUOUS
 10
-43.8781758769
 20
-44.8768054117
 11
43.8781758769
 21
-44.8768054117
  0
LINE
  5
273
100
AcDbEntity
  8
RACCORDO
100
AcDbLine
 62
250
  6
CONTINUOUS
 10
-43.8781758769
 20
-44.6316825048
 11
43.8781758769
 21
-44.6316825048
  0
LINE
  5
274
100
AcDbEntity
  8
ASSI
100
AcDbLine
 62
250
  6
CONTINUOUS
 10
-43.8781758769
 20
-44.6316825048
 11
43.8781758769
 21
-44.6316825048
  0
LWPOLYLINE
  5
275
100
AcDbEntity
  8
RACCORDO
100
AcDbPolyline
 62
250
  6
CONTINUOUS
 90
19
 70
0
 10
-44.5704696982
 20
-43.9246280955
 10
-44.595759238
 20
-43.9242073328
 10
-44.6208686854
 20
-43.9234108103
 10
-44.6456192716
 20
-43.9222441987
 10
-44.6698347824
 20
-43.9207158039
 10
-44.6933428136
 20
-43.9188365074
 10
-44.7159759974
 20
-43.9166196889
 10
-44.7375731949
 20
-43.9140811314
 10
-44.7579806431
 20
-43.9112389082
 10
-44.7770530492
 20
-43.9081132548
 10
-44.7946546255
 20
-43.9047264246
 10
-44.8106600561
 20
-43.9011025304
 10
-44.8249553888
 20
-43.8972673728
 10
-44.8374388469
 20
-43.8932482565
 10
-44.8480215531
 20
-43.889073796
 10
-44.856628163
 20
-43.8847737118
 10
-44.863197401
 20
-43.8803786186
 10
-44.8676824969
 20
-43.8759198077
 10
-44.8700515186
 20
-43.871429024
  0
LWPOLYLINE
  5
276
100
AcDbEntity
  8
ASSI
100
AcDbPolyline
 62
250
  6
CONTINUOUS
 90
19
 70
0
 10
-44.5704696982
 20
-43.9246280955
 10
-44.595759238
 20
-43.9242073328
 10
-44.6208686854
 20
-43.9234108103
 10
-44.6456192716
 20
-43.9222441987
 10
-44.6698347824
 20
-43.9207158039
 10
-44.6933428136
 20
-43.9188365074
 10
-44.7159759974
 20
-43.9166196889
 10
-44.7375731949
 20
-43.9140811314
 10
-44.7579806431
 20
-43.9112389082
 10
-44.7770530492
 20
-43.9081132548
 10
-44.7946546255
 20
-43.9047264246
 10
-44.8106600561
 20
-43.9011025304
 10
-44.8249553888
 20
-43.8972673728
 10
-44.8374388469
 20
-43.8932482565
 10
-44.8480215531
 20
-43.889073796
 10
-44.856628163
 20
-43.8847737118
 10
-44.863197401
 20
-43.8803786186
 10
-44.8676824969
 20
-43.8759198077
 10
-44.8700515186
 20
-43.871429024
  0
LWPOLYLINE
  5
277
100
AcDbEntity
  8
0
100
AcDbPolyline
 62
7
  6
CONTINUOUS
 90
10
 70
0
 43
0.3500000006
 10
-1.9285714102
 20
58.7499994812
 10
-1.0714285848
 20
59.6071464844
 10
-0.8571428254
 20
60.4642844238
 10
-0.8571428254
 20
61.321431427
 10
-1.2857142735
 20
61.7500003967
 10
-1.9285714102
 20
61.7500003967
 10
-2.3571427875
 20
61.321431427
 10
-2.3571427875
 20
60.4642844238
 10
-1.9285714102
 20
60.0357154541
 10
-1.0000000219
 20
60.0357154541
  0
LWPOLYLINE
  5
278
100
AcDbEntity
  8
RACCORDO
100
AcDbPolyline
 62
250
  6
CONTINUOUS
 90
16
 70
0
 10
-22.9679615936
 20
22.6677048937
 10
-22.9176363365
 20
22.7282260377
 10
-22.8640214126
 20
22.7853193983
 10
-22.8071168218
 20
22.8389851477
 10
-22.7466845071
 20
22.8894314127
 10
-22.6829625256
 20
22.936450379
 10
-22.6166650489
 20
22.9794183208
 10
-22.5477053311
 20
23.0182859396
 10
-22.4761701182
 20
23.0531028412
 10
-22.4030338202
 20
23.0833936784
 10
-22.3282470336
 20
23.1090594703
 10
-22.2518591619
 20
23.1301994383
 10
-22.1749928251
 20
23.1466355292
 10
-22.09802223
 20
23.1583084353
 10
-22.0205731699
 20
23.1652775911
 10
-21.9426456448
 20
23.1675430277
  0
LWPOLYLINE
  5
279
100
AcDbEntity
  8
ASSI
100
AcDbPolyline
 62
250
  6
CONTINUOUS
 90
16
 70
0
 10
-22.9679615936
 20
22.6677048937
 10
-22.9176363365
 20
22.7282260377
 10
-22.8640214126
 20
22.7853193983
 10
-22.8071168218
 20
22.8389851477
 10
-22.7466845071
 20
22.8894314127
 10
-22.6829625256
 20
22.936450379
 10
-22.6166650489
 20
22.9794183208
 10
-22.5477053311
 20
23.0182859396
 10
-22.4761701182
 20
23.0531028412
 10
-22.4030338202
 20
23.0833936784
 10
-22.3282470336
 20
23.1090594703
 10
-22.2518591619
 20
23.1301994383
 10
-22.1749928251
 20
23.1466355292
 10
-22.09802223
 20
23.1583084353
 10
-22.0205731699
 20
23.1652775911
 10
-21.9426456448
 20
23.1675430277
  0
LWPOLYLINE
  5
27A
100
AcDbEntity
  8
RACCORDO
100
AcDbPolyline
 62
250
  6
CONTINUOUS
 90
16
 70
0
 10
-22.5746817863
 20
22.3359476087
 10
-22.5437618923
 20
22.3729022731
 10
-22.5106074445
 20
22.4079839709
 10
-22.4753289471
 20
22.4410553377
 10
-22.4380428765
 20
22.4719860679
 10
-22.3988791706
 20
22.5006510469
 10
-22.3579817087
 20
22.5269320676
 10
-22.3154571622
 20
22.5507405148
 10
-22.2714905275
 20
22.5719537109
 10
-22.2263647211
 20
22.5904376773
 10
-22.1802422154
 20
22.6061366446
 10
-22.1333044135
 20
22.6189995156
 10
-22.0858844933
 20
22.6289643234
 10
-22.0382162373
 20
22.6360279061
 10
-21.9904248799
 20
22.6402149606
 10
-21.9426840957
 20
22.6415493366
  0
LWPOLYLINE
  5
27B
100
AcDbEntity
  8
ASSI
100
AcDbPolyline
 62
250
  6
CONTINUOUS
 90
16
 70
0
 10
-22.5746817863
 20
22.3359476087
 10
-22.5437618923
 20
22.3729022731
 10
-22.5106074445
 20
22.4079839709
 10
-22.4753289471
 20
22.4410553377
 10
-22.4380428765
 20
22.4719860679
 10
-22.3988791706
 20
22.5006510469
 10
-22.3579817087
 20
22.5269320676
 10
-22.3154571622
 20
22.5507405148
 10
-22.2714905275
 20
22.5719537109
 10
-22.2263647211
 20
22.5904376773
 10
-22.1802422154
 20
22.6061366446
 10
-22.1333044135
 20
22.6189995156
 10
-22.0858844933
 20
22.6289643234
 10
-22.0382162373
 20
22.6360279061
 10
-21.9904248799
 20
22.6402149606
 10
-21.9426840957
 20
22.6415493366
  0
LWPOLYLINE
  5
27C
100
AcDbEntity
  8
RACCORDO
100
AcDbPolyline
 62
250
  6
CONTINUOUS
 90
13
 70
0
 10
-22.5746817863
 20
-22.3359476087
 10
-22.6006557687
 20
-22.3010009824
 10
-22.6248203413
 20
-22.264462247
 10
-22.6470659179
 20
-22.2264169859
 10
-22.6673353876
 20
-22.1868568238
 10
-22.6854657963
 20
-22.1459797892
 10
-22.7012467764
 20
-22.1042156145
 10
-22.7146370571
 20
-22.0617066033
 10
-22.7256095632
 20
-22.0185810825
 10
-22.7340895554
 20
-21.9752853469
 10
-22.7401016143
 20
-21.9320674269
 10
-22.7437126284
 20
-21.8889625714
 10
-22.7449737014
 20
-21.8461021237
  0
LWPOLYLINE
  5
27D
100
AcDbEntity
  8
ASSI
100
AcDbPolyline
 62
250
  6
CONTINUOUS
 90
13
 70
0
 10
-22.5746817863
 20
-22.3359476087
 10
-22.6006557687
 20
-22.3010009824
 10
-22.6248203413
 20
-22.264462247
 10
-22.6470659179
 20
-22.2264169859
 10
-22.6673353876
 20
-22.1868568238
 10
-22.6854657963
 20
-22.1459797892
 10
-22.7012467764
 20
-22.1042156145
 10
-22.7146370571
 20
-22.0617066033
 10
-22.7256095632
 20
-22.0185810825
 10
-22.7340895554
 20
-21.9752853469
 10
-22.7401016143
 20
-21.9320674269
 10
-22.7437126284
 20
-21.8889625714
 10
-22.7449737014
 20
-21.8461021237
  0
LWPOLYLINE
  5
27E
100
AcDbEntity
  8
RACCORDO
100
AcDbPolyline
 62
250
  6
CONTINUOUS
 90
13
 70
0
 10
-22.9679615936
 20
-22.6677048937
 10
-23.0103004273
 20
-22.6106822652
 10
-23.0493880176
 20
-22.5513301182
 10
-23.0852243643
 20
-22.4896484074
 10
-23.1180084775
 20
-22.4252653073
 10
-23.1475413472
 20
-22.3585525425
 10
-23.1732259432
 20
-22.2906254159
 10
-23.1949016682
 20
-22.2214638456
 10
-23.2127291194
 20
-22.1510878612
 10
-23.226593058
 20
-22.0806729838
 10
-23.236455071
 20
-22.0106110663
 10
-23.2423535715
 20
-21.9405102634
 10
-23.2442885593
 20
-21.8703705759
  0
LWPOLYLINE
  5
27F
100
AcDbEntity
  8
ASSI
100
AcDbPolyline
 62
250
  6
CONTINUOUS
 90
13
 70
0
 10
-22.9679615936
 20
-22.6677048937
 10
-23.0103004273
 20
-22.6106822652
 10
-23.0493880176
 20
-22.5513301182
 10
-23.0852243643
 20
-22.4896484074
 10
-23.1180084775
 20
-22.4252653073
 10
-23.1475413472
 20
-22.3585525425
 10
-23.1732259432
 20
-22.2906254159
 10
-23.1949016682
 20
-22.2214638456
 10
-23.2127291194
 20
-22.1510878612
 10
-23.226593058
 20
-22.0806729838
 10
-23.236455071
 20
-22.0106110663
 10
-23.2423535715
 20
-21.9405102634
 10
-23.2442885593
 20
-21.8703705759
  0
LINE
  5
280
100
AcDbEntity
  8
0
100
AcDbLine
 62
250
  6
CONTINUOUS
 10
-25.248283
 20
28.14927
 11
-25.248283
 21
26.4507299861
  0
LINE
  5
281
100
AcDbEntity
  8
0
100
AcDbLine
 62
250
  6
CONTINUOUS
 10
-25.148369
 20
28.049356
 11
-25.148369
 21
26.5506439811
  0
LINE
  5
282
100
AcDbEntity
  8
0
100
AcDbLine
 62
250
  6
CONTINUOUS
 10
-25.048454
 20
27.949442
 11
-25.048454
 21
26.6505579787
  0
LINE
  5
283
100
AcDbEntity
  8
0
100
AcDbLine
 62
250
  6
CONTINUOUS
 10
-19.453263
 20
28.698798
 11
-20.252576
 21
25.901202
  0
LINE
  5
284
100
AcDbEntity
  8
0
100
AcDbLine
 62
250
  6
CONTINUOUS
 10
-9.706337
 20
27.389285
 11
-9.510657
 21
27.627378
  0
LINE
  5
285
100
AcDbEntity
  8
0
100
AcDbLine
 62
250
  6
CONTINUOUS
 10
-9.855148
 20
27.686902
 11
-9.98213
 21
27.567855
  0
LINE
  5
286
100
AcDbEntity
  8
0
100
AcDbLine
 62
250
  6
CONTINUOUS
 10
-10.09149
 20
26.317865
 11
-9.964508
 21
26.436912
  0
LINE
  5
287
100
AcDbEntity
  8
0
100
AcDbLine
 62
250
  6
CONTINUOUS
 10
-5.702415
 20
28.520228
 11
-5.956378
 21
28.282135
  0
LINE
  5
288
100
AcDbEntity
  8
0
100
AcDbLine
 62
250
  6
CONTINUOUS
 10
-10.064453
 20
25.960725
 11
-9.815697
 21
26.139295
  0
LINE
  5
289
100
AcDbEntity
  8
0
100
AcDbLine
 62
250
  6
CONTINUOUS
 10
-5.617094
 20
28.163088
 11
-5.431829
 21
28.282135
  0
LINE
  5
28A
100
AcDbEntity
  8
0
100
AcDbLine
 62
250
  6
CONTINUOUS
 10
-4.4276
 20
26.436912
 11
-4.612865
 21
26.317865
  0
LINE
  5
28B
100
AcDbEntity
  8
0
100
AcDbLine
 62
250
  6
CONTINUOUS
 10
-9.828111
 20
27.329762
 11
-9.706337
 21
27.389285
  0
LINE
  5
28C
100
AcDbEntity
  8
0
100
AcDbLine
 62
250
  6
CONTINUOUS
 10
-5.458866
 20
28.639275
 11
-5.702415
 21
28.520228
  0
LINE
  5
28D
100
AcDbEntity
  8
0
100
AcDbLine
 62
250
  6
CONTINUOUS
 10
-4.585827
 20
25.960725
 11
-4.342279
 21
26.079772
  0
LINE
  5
28E
100
AcDbEntity
  8
0
100
AcDbLine
 62
250
  6
CONTINUOUS
 10
-9.98213
 20
27.567855
 11
-10.162188
 21
27.508332
  0
LINE
  5
28F
100
AcDbEntity
  8
0
100
AcDbLine
 62
250
  6
CONTINUOUS
 10
-10.271548
 20
26.258342
 11
-10.09149
 21
26.317865
  0
LINE
  5
290
100
AcDbEntity
  8
0
100
AcDbLine
 62
250
  6
CONTINUOUS
 10
3.423016
 20
27.567855
 11
3.242959
 21
27.508332
  0
LWPOLYLINE
  5
291
100
AcDbEntity
  8
0
100
AcDbPolyline
 62
7
  6
CONTINUOUS
 90
25
 70
0
 10
3.6000188023
 20
-26.110807341
 10
3.6597712794
 20
-26.1021026293
 10
3.7194845538
 20
-26.0939040747
 10
3.7791586254
 20
-26.0862116824
 10
3.8387552179
 20
-26.0789738229
 10
3.8983126077
 20
-26.0722421351
 10
3.9579456243
 20
-26.0661715279
 10
4.0176664373
 20
-26.0607554022
 10
4.0774628772
 20
-26.0560003667
 10
4.137413265
 20
-26.0520811436
 10
4.1975292195
 20
-26.0489904459
 10
4.2577991218
 20
-26.0467355681
 10
4.3182664362
 20
-26.0455131054
 10
4.3789932183
 20
-26.0453205323
 10
4.4399174126
 20
-26.0461603762
 10
4.500896317
 20
-26.04823681
 10
4.5619367584
 20
-26.0514817567
 10
4.62303191
 20
-26.0559632851
 10
4.6840185894
 20
-26.0620897817
 10
4.745030771
 20
-26.0697723587
 10
4.8059344805
 20
-26.0790998756
 10
4.8661646116
 20
-26.0907473238
 10
4.9255327959
 20
-26.1049396712
 10
4.9842274019
 20
-26.1214518708
 10
5.0422484297
 20
-26.1402838735
  0
LWPOLYLINE
  5
292
100
AcDbEntity
  8
ASSI
100
AcDbPolyline
 62
7
  6
CONTINUOUS
 90
25
 70
0
 10
3.6000188023
 20
-26.110807341
 10
3.6597712794
 20
-26.1021026293
 10
3.7194845538
 20
-26.0939040747
 10
3.7791586254
 20
-26.0862116824
 10
3.8387552179
 20
-26.0789738229
 10
3.8983126077
 20
-26.0722421351
 10
3.9579456243
 20
-26.0661715279
 10
4.0176664373
 20
-26.0607554022
 10
4.0774628772
 20
-26.0560003667
 10
4.137413265
 20
-26.0520811436
 10
4.1975292195
 20
-26.0489904459
 10
4.2577991218
 20
-26.0467355681
 10
4.3182664362
 20
-26.0455131054
 10
4.3789932183
 20
-26.0453205323
 10
4.4399174126
 20
-26.0461603762
 10
4.500896317
 20
-26.04823681
 10
4.5619367584
 20
-26.0514817567
 10
4.62303191
 20
-26.0559632851
 10
4.6840185894
 20
-26.0620897817
 10
4.745030771
 20
-26.0697723587
 10
4.8059344805
 20
-26.0790998756
 10
4.8661646116
 20
-26.0907473238
 10
4.9255327959
 20
-26.1049396712
 10
4.9842274019
 20
-26.1214518708
 10
5.0422484297
 20
-26.1402838735
  0
LWPOLYLINE
  5
293
100
AcDbEntity
  8
0
100
AcDbPolyline
 62
7
  6
CONTINUOUS
 90
31
 70
0
 10
4.4966806432
 20
-27.3236280866
 10
4.5211207076
 20
-27.3228428753
 10
4.5454180977
 20
-27.3212870291
 10
4.5695728133
 20
-27.3189605463
 10
4.593660173
 20
-27.31591463
 10
4.6176048584
 20
-27.3120980715
 10
4.6411809136
 20
-27.3073572489
 10
4.6643845863
 20
-27.3017031606
 10
4.687219629
 20
-27.2951247948
 10
4.7094713429
 20
-27.2874355106
 10
4.7311782263
 20
-27.2786250732
 10
4.7523017809
 20
-27.2687036916
 10
4.7725118138
 20
-27.2575153836
 10
4.7917704343
 20
-27.2450060531
 10
4.810115533
 20
-27.2312297537
 10
4.8273305887
 20
-27.2161927224
 10
4.8433402568
 20
-27.1997999385
 10
4.8582198819
 20
-27.1821463663
 10
4.8719789764
 20
-27.1635232241
 10
4.8846107258
 20
-27.1439359477
 10
4.8961219446
 20
-27.1233790504
 10
4.9065425889
 20
-27.1021273801
 10
4.9158835776
 20
-27.0801990807
 10
4.9241339918
 20
-27.0575759677
 10
4.9312910308
 20
-27.0344784106
 10
4.9373765257
 20
-27.0108903816
 10
4.9423686454
 20
-26.9868278784
 10
4.9461990964
 20
-26.9625593237
 10
4.9488451143
 20
-26.9381741914
 10
4.9503294635
 20
-26.9135829968
 10
4.9506521441
 20
-26.8887857336
  0
LWPOLYLINE
  5
294
100
AcDbEntity
  8
ASSI
100
AcDbPolyline
 62
7
  6
CONTINUOUS
 90
31
 70
0
 10
4.4966806432
 20
-27.3236280866
 10
4.5211207076
 20
-27.3228428753
 10
4.5454180977
 20
-27.3212870291
 10
4.5695728133
 20
-27.3189605463
 10
4.593660173
 20
-27.31591463
 10
4.6176048584
 20
-27.3120980715
 10
4.6411809136
 20
-27.3073572489
 10
4.6643845863
 20
-27.3017031606
 10
4.687219629
 20
-27.2951247948
 10
4.7094713429
 20
-27.2874355106
 10
4.7311782263
 20
-27.2786250732
 10
4.7523017809
 20
-27.2687036916
 10
4.7725118138
 20
-27.2575153836
 10
4.7917704343
 20
-27.2450060531
 10
4.810115533
 20
-27.2312297537
 10
4.8273305887
 20
-27.2161927224
 10
4.8433402568
 20
-27.1997999385
 10
4.8582198819
 20
-27.1821463663
 10
4.8719789764
 20
-27.1635232241
 10
4.8846107258
 20
-27.1439359477
 10
4.8961219446
 20
-27.1233790504
 10
4.9065425889
 20
-27.1021273801
 10
4.9158835776
 20
-27.0801990807
 10
4.9241339918
 20
-27.0575759677
 10
4.9312910308
 20
-27.0344784106
 10
4.9373765257
 20
-27.0108903816
 10
4.9423686454
 20
-26.9868278784
 10
4.9461990964
 20
-26.9625593237
 10
4.9488451143
 20
-26.9381741914
 10
4.9503294635
 20
-26.9135829968
 10
4.9506521441
 20
-26.8887857336
  0
LINE
  5
295
100
AcDbEntity
  8
0
100
AcDbLine
 62
7
  6
CONTINUOUS
 10
5.6391482119
 20
-28.8778013544
 11
5.0770156219
 21
-28.8778013544
  0
LINE
  5
296
100
AcDbEntity
  8
ASSI
100
AcDbLine
 62
7
  6
CONTINUOUS
 10
5.6391482119
 20
-28.8778013544
 11
5.0770156219
 21
-28.8778013544
  0
LINE
  5
297
100
AcDbEntity
  8
0
100
AcDbLine
 62
7
  6
CONTINUOUS
 10
4.1820753449
 20
-28.8778013544
 11
3.6000188023
 21
-28.8778013544
  0
LINE
  5
298
100
AcDbEntity
  8
ASSI
100
AcDbLine
 62
7
  6
CONTINUOUS
 10
4.1820753449
 20
-28.8778013544
 11
3.6000188023
 21
-28.8778013544
  0
LINE
  5
299
100
AcDbEntity
  8
0
100
AcDbLine
 62
7
  6
CONTINUOUS
 10
3.298408
 20
-28.877801
 11
2.682466
 21
-28.877801
  0
LINE
  5
29A
100
AcDbEntity
  8
ASSI
100
AcDbLine
 62
7
  6
CONTINUOUS
 10
3.298408
 20
-28.877801
 11
2.682466
 21
-28.877801
  0
LINE
  5
29B
100
AcDbEntity
  8
0
100
AcDbLine
 62
7
  6
CONTINUOUS
 10
1.573947
 20
-28.877801
 11
0.99588
 21
-28.877801
  0
LINE
  5
29C
100
AcDbEntity
  8
ASSI
100
AcDbLine
 62
7
  6
CONTINUOUS
 10
1.573947
 20
-28.877801
 11
0.99588
 21
-28.877801
  0
LINE
  5
29D
100
AcDbEntity
  8
0
100
AcDbLine
 62
7
  6
CONTINUOUS
 10
0.694112
 20
-28.877801
 11
0.122406
 21
-28.877801
  0
LINE
  5
29E
100
AcDbEntity
  8
ASSI
100
AcDbLine
 62
7
  6
CONTINUOUS
 10
0.694112
 20
-28.877801
 11
0.122406
 21
-28.877801
  0
LINE
  5
29F
100
AcDbEntity
  8
0
100
AcDbLine
 62
7
  6
CONTINUOUS
 10
-0.692524
 20
-28.877801
 11
-0.774487
 21
-28.877801
  0
LINE
  5
2A0
100
AcDbEntity
  8
ASSI
100
AcDbLine
 62
7
  6
CONTINUOUS
 10
-0.692524
 20
-28.877801
 11
-0.774487
 21
-28.877801
  0
LINE
  5
2A1
100
AcDbEntity
  8
0
100
AcDbLine
 62
7
  6
CONTINUOUS
 10
-1.586183
 20
-28.877801
 11
-2.145272
 21
-28.877801
  0
LINE
  5
2A2
100
AcDbEntity
  8
ASSI
100
AcDbLine
 62
7
  6
CONTINUOUS
 10
-1.586183
 20
-28.877801
 11
-2.145272
 21
-28.877801
  0
LINE
  5
2A3
100
AcDbEntity
  8
0
100
AcDbLine
 62
7
  6
CONTINUOUS
 10
-2.449877
 20
-28.877801
 11
-3.034285
 21
-28.877801
  0
LINE
  5
2A4
100
AcDbEntity
  8
ASSI
100
AcDbLine
 62
7
  6
CONTINUOUS
 10
-2.449877
 20
-28.877801
 11
-3.034285
 21
-28.877801
  0
LINE
  5
2A5
100
AcDbEntity
  8
0
100
AcDbLine
 62
7
  6
CONTINUOUS
 10
-4.231097
 20
-28.877801
 11
-4.746107
 21
-28.877801
  0
LINE
  5
2A6
100
AcDbEntity
  8
ASSI
100
AcDbLine
 62
7
  6
CONTINUOUS
 10
-4.231097
 20
-28.877801
 11
-4.746107
 21
-28.877801
  0
LINE
  5
2A7
100
AcDbEntity
  8
0
100
AcDbLine
 62
7
  6
CONTINUOUS
 10
2.531074
 20
-28.318881
 11
1.735207
 21
-28.318881
  0
LINE
  5
2A8
100
AcDbEntity
  8
ASSI
100
AcDbLine
 62
7
  6
CONTINUOUS
 10
2.531074
 20
-28.318881
 11
1.735207
 21
-28.318881
  0
LINE
  5
2A9
100
AcDbEntity
  8
0
100
AcDbLine
 62
7
  6
CONTINUOUS
 10
2.41428
 20
-27.886391
 11
1.854751
 21
-27.886391
  0
LINE
  5
2AA
100
AcDbEntity
  8
ASSI
100
AcDbLine
 62
7
  6
CONTINUOUS
 10
2.41428
 20
-27.886391
 11
1.854751
 21
-27.886391
  0
LINE
  5
2AB
100
AcDbEntity
  8
0
100
AcDbLine
 62
7
  6
CONTINUOUS
 10
4.4954209623
 20
-27.7821519248
 11
4.1820753449
 21
-27.7821519248
  0
LINE
  5
2AC
100
AcDbEntity
  8
ASSI
100
AcDbLine
 62
7
  6
CONTINUOUS
 10
4.4954209623
 20
-27.7821519248
 11
4.1820753449
 21
-27.7821519248
  0
LINE
  5
2AD
100
AcDbEntity
  8
0
100
AcDbLine
 62
7
  6
CONTINUOUS
 10
4.4966806432
 20
-27.3236280866
 11
4.1626972541
 21
-27.3236280866
  0
LINE
  5
2AE
100
AcDbEntity
  8
ASSI
100
AcDbLine
 62
7
  6
CONTINUOUS
 10
4.4966806432
 20
-27.3236280866
 11
4.1626972541
 21
-27.3236280866
  0
LINE
  5
2AF
100
AcDbEntity
  8
0
100
AcDbLine
 62
7
  6
CONTINUOUS
 10
2.43939
 20
-26.078098
 11
1.874045
 21
-26.078098
  0
LINE
  5
2B0
100
AcDbEntity
  8
ASSI
100
AcDbLine
 62
7
  6
CONTINUOUS
 10
2.43939
 20
-26.078098
 11
1.874045
 21
-26.078098
  0
LINE
  5
2B1
100
AcDbEntity
  8
0
100
AcDbLine
 62
7
  6
CONTINUOUS
 10
0.432308
 20
-26.078098
 11
-0.145906
 21
-26.078098
  0
LINE
  5
2B2
100
AcDbEntity
  8
ASSI
100
AcDbLine
 62
7
  6
CONTINUOUS
 10
0.432308
 20
-26.078098
 11
-0.145906
 21
-26.078098
  0
LINE
  5
2B3
100
AcDbEntity
  8
0
100
AcDbLine
 62
7
  6
CONTINUOUS
 10
-1.30855
 20
-26.078098
 11
-1.892475
 21
-26.078098
  0
LINE
  5
2B4
100
AcDbEntity
  8
ASSI
100
AcDbLine
 62
7
  6
CONTINUOUS
 10
-1.30855
 20
-26.078098
 11
-1.892475
 21
-26.078098
  0
LINE
  5
2B5
100
AcDbEntity
  8
0
100
AcDbLine
 62
7
  6
CONTINUOUS
 10
-3.33116
 20
-26.078098
 11
-3.915169
 21
-26.078098
  0
LINE
  5
2B6
100
AcDbEntity
  8
ASSI
100
AcDbLine
 62
7
  6
CONTINUOUS
 10
-3.33116
 20
-26.078098
 11
-3.915169
 21
-26.078098
  0
LINE
  5
2B7
100
AcDbEntity
  8
0
100
AcDbLine
 62
7
  6
CONTINUOUS
 10
-4.99882
 20
-26.078098
 11
-5.633668
 21
-26.078098
  0
LINE
  5
2B8
100
AcDbEntity
  8
ASSI
100
AcDbLine
 62
7
  6
CONTINUOUS
 10
-4.99882
 20
-26.078098
 11
-5.633668
 21
-26.078098
  0
LINE
  5
2B9
100
AcDbEntity
  8
0
100
AcDbLine
 62
7
  6
CONTINUOUS
 10
-2.449877
 20
-26.07793
 11
-3.034285
 21
-26.07793
  0
LINE
  5
2BA
100
AcDbEntity
  8
ASSI
100
AcDbLine
 62
7
  6
CONTINUOUS
 10
-2.449877
 20
-26.07793
 11
-3.034285
 21
-26.07793
  0
LWPOLYLINE
  5
2BB
100
AcDbEntity
  8
0
100
AcDbPolyline
 62
7
  6
CONTINUOUS
 90
10
 70
0
 10
4.62051343
 20
-26.5385722489
 10
4.5718460578
 20
-26.53365397
 10
4.5225688745
 20
-26.530407371
 10
4.4726818802
 20
-26.528832459
 10
4.4221056909
 20
-26.528908258
 10
4.3709196905
 20
-26.5306557475
 10
4.3193620314
 20
-26.5341378621
 10
4.2675120977
 20
-26.5393755736
 10
4.2152905052
 20
-26.5463478902
 10
4.1626972541
 20
-26.5550547959
  0
LWPOLYLINE
  5
2BC
100
AcDbEntity
  8
ASSI
100
AcDbPolyline
 62
7
  6
CONTINUOUS
 90
10
 70
0
 10
4.62051343
 20
-26.5385722489
 10
4.5718460578
 20
-26.53365397
 10
4.5225688745
 20
-26.530407371
 10
4.4726818802
 20
-26.528832459
 10
4.4221056909
 20
-26.528908258
 10
4.3709196905
 20
-26.5306557475
 10
4.3193620314
 20
-26.5341378621
 10
4.2675120977
 20
-26.5393755736
 10
4.2152905052
 20
-26.5463478902
 10
4.1626972541
 20
-26.5550547959
  0
LINE
  5
2BD
100
AcDbEntity
  8
RACCORDO
100
AcDbLine
 62
250
  6
CONTINUOUS
 10
-23.2442885593
 20
-21.8703705759
 11
-23.2597532489
 21
-14.5834397175
  0
LINE
  5
2BE
100
AcDbEntity
  8
ASSI
100
AcDbLine
 62
250
  6
CONTINUOUS
 10
-23.2442885593
 20
-21.8703705759
 11
-23.2597532489
 21
-14.5834397175
  0
LINE
  5
2BF
100
AcDbEntity
  8
RACCORDO
100
AcDbLine
 62
250
  6
CONTINUOUS
 10
-22.7449737308
 20
-21.8461021525
 11
-22.7604384536
 21
-14.5669359818
  0
LINE
  5
2C0
100
AcDbEntity
  8
ASSI
100
AcDbLine
 62
250
  6
CONTINUOUS
 10
-22.7449737308
 20
-21.8461021525
 11
-22.7604384536
 21
-14.5669359818
  0
LINE
  5
2C1
100
AcDbEntity
  8
RACCORDO
100
AcDbLine
 62
250
  6
CONTINUOUS
 10
-23.2597532489
 20
-14.5834397175
 11
-23.2690327639
 21
-7.2926778504
  0
LINE
  5
2C2
100
AcDbEntity
  8
ASSI
100
AcDbLine
 62
250
  6
CONTINUOUS
 10
-23.2597532489
 20
-14.5834397175
 11
-23.2690327639
 21
-7.2926778504
  0
LINE
  5
2C3
100
AcDbEntity
  8
RACCORDO
100
AcDbLine
 62
250
  6
CONTINUOUS
 10
-22.7604384536
 20
-14.5669359818
 11
-22.7697179895
 21
-7.2846612491
  0
LINE
  5
2C4
100
AcDbEntity
  8
ASSI
100
AcDbLine
 62
250
  6
CONTINUOUS
 10
-22.7604384536
 20
-14.5669359818
 11
-22.7697179895
 21
-7.2846612491
  0
LINE
  5
2C5
100
AcDbEntity
  8
RACCORDO
100
AcDbLine
 62
250
  6
CONTINUOUS
 10
-23.2690327639
 20
-7.2926778504
 11
-23.2721266469
 21
-0.0000000449
  0
LINE
  5
2C6
100
AcDbEntity
  8
ASSI
100
AcDbLine
 62
250
  6
CONTINUOUS
 10
-23.2690327639
 20
-7.2926778504
 11
-23.2721266469
 21
-0.0000000449
  0
LINE
  5
2C7
100
AcDbEntity
  8
RACCORDO
100
AcDbLine
 62
250
  6
CONTINUOUS
 10
-22.7697179895
 20
-7.2846612491
 11
-22.7728118795
 21
0.0000046778
  0
LINE
  5
2C8
100
AcDbEntity
  8
ASSI
100
AcDbLine
 62
250
  6
CONTINUOUS
 10
-22.7697179895
 20
-7.2846612491
 11
-22.7728118795
 21
0.0000046778
  0
LINE
  5
2C9
100
AcDbEntity
  8
0
100
AcDbLine
 62
250
  6
CONTINUOUS
 10
-24.09927
 20
29.298283
 11
-24.09927
 21
28.1492700125
  0
LINE
  5
2CA
100
AcDbEntity
  8
0
100
AcDbLine
 62
250
  6
CONTINUOUS
 10
-24.09927
 20
26.45073
 11
-24.09927
 21
25.3017170125
  0
LINE
  5
2CB
100
AcDbEntity
  8
0
100
AcDbLine
 62
250
  6
CONTINUOUS
 10
-23.999356
 20
29.198369
 11
-23.999356
 21
28.0493560119
  0
LINE
  5
2CC
100
AcDbEntity
  8
0
100
AcDbLine
 62
250
  6
CONTINUOUS
 10
-23.999356
 20
26.550644
 11
-23.999356
 21
25.4016309866
  0
LINE
  5
2CD
100
AcDbEntity
  8
0
100
AcDbLine
 62
250
  6
CONTINUOUS
 10
-23.899442
 20
29.098454
 11
-23.899442
 21
27.9494419761
  0
LINE
  5
2CE
100
AcDbEntity
  8
0
100
AcDbLine
 62
250
  6
CONTINUOUS
 10
-23.899442
 20
26.650558
 11
-23.899442
 21
25.5015460004
  0
LINE
  5
2CF
100
AcDbEntity
  8
0
100
AcDbLine
 62
250
  6
CONTINUOUS
 10
-22.600558
 20
25.501546
 11
-22.600558
 21
26.6505579996
  0
LINE
  5
2D0
100
AcDbEntity
  8
0
100
AcDbLine
 62
250
  6
CONTINUOUS
 10
-22.600558
 20
27.949442
 11
-22.600558
 21
29.0984540239
  0
LINE
  5
2D1
100
AcDbEntity
  8
0
100
AcDbLine
 62
7
  6
CONTINUOUS
 10
-22.6
 20
-21.7010963722
 11
-22.6
 21
21.7010963722
  0
LINE
  5
2D2
100
AcDbEntity
  8
ASSI
100
AcDbLine
 62
7
  6
CONTINUOUS
 10
-22.6
 20
-21.7010963722
 11
-22.6
 21
21.7010963722
  0
LINE
  5
2D3
100
AcDbEntity
  8
0
100
AcDbLine
 62
250
  6
CONTINUOUS
 10
-22.500644
 20
25.401631
 11
-22.500644
 21
26.5506440134
  0
LINE
  5
2D4
100
AcDbEntity
  8
0
100
AcDbLine
 62
250
  6
CONTINUOUS
 10
-22.500644
 20
28.049356
 11
-22.500644
 21
29.1983689882
  0
LINE
  5
2D5
100
AcDbEntity
  8
0
100
AcDbLine
 62
250
  6
CONTINUOUS
 10
-22.40073
 20
25.301717
 11
-22.40073
 21
26.4507299876
  0
LINE
  5
2D6
100
AcDbEntity
  8
0
100
AcDbLine
 62
250
  6
CONTINUOUS
 10
-22.40073
 20
28.14927
 11
-22.40073
 21
29.2982829875
  0
LINE
  5
2D7
100
AcDbEntity
  8
RACCORDO
100
AcDbLine
 62
250
  6
CONTINUOUS
 10
-21.9426456448
 20
23.1675430277
 11
-21.9426456448
 21
22.6415492726
  0
LINE
  5
2D8
100
AcDbEntity
  8
ASSI
100
AcDbLine
 62
250
  6
CONTINUOUS
 10
-21.9426456448
 20
23.1675430277
 11
-21.9426456448
 21
22.6415492726
  0
LINE
  5
2D9
100
AcDbEntity
  8
RACCORDO
100
AcDbLine
 62
250
  6
CONTINUOUS
 10
-21.9426456448
 20
-23.1675430277
 11
-21.9426456448
 21
-22.6415492726
  0
LINE
  5
2DA
100
AcDbEntity
  8
ASSI
100
AcDbLine
 62
250
  6
CONTINUOUS
 10
-21.9426456448
 20
-23.1675430277
 11
-21.9426456448
 21
-22.6415492726
  0
LINE
  5
2DB
100
AcDbEntity
  8
0
100
AcDbLine
 62
250
  6
CONTINUOUS
 10
-21.451546
 20
26.650558
 11
-21.451546
 21
27.9494420213
  0
LINE
  5
2DC
100
AcDbEntity
  8
0
100
AcDbLine
 62
250
  6
CONTINUOUS
 10
-21.351631
 20
26.550644
 11
-21.351631
 21
28.0493560189
  0
LINE
  5
2DD
100
AcDbEntity
  8
0
100
AcDbLine
 62
250
  6
CONTINUOUS
 10
-21.251717
 20
26.45073
 11
-21.251717
 21
28.1492700139
  0
LINE
  5
2DE
100
AcDbEntity
  8
RACCORDO
100
AcDbLine
 62
250
  6
CONTINUOUS
 10
-23.2721266469
 20
-0.0000000449
 11
-23.2690327641
 21
7.2926777695
  0
LINE
  5
2DF
100
AcDbEntity
  8
ASSI
100
AcDbLine
 62
250
  6
CONTINUOUS
 10
-23.2721266469
 20
-0.0000000449
 11
-23.2690327641
 21
7.2926777695
  0
LINE
  5
2E0
100
AcDbEntity
  8
RACCORDO
100
AcDbLine
 62
250
  6
CONTINUOUS
 10
-22.7728118795
 20
0.0000046778
 11
-22.769717977
 21
7.2846728244
  0
LINE
  5
2E1
100
AcDbEntity
  8
ASSI
100
AcDbLine
 62
250
  6
CONTINUOUS
 10
-22.7728118795
 20
0.0000046778
 11
-22.769717977
 21
7.2846728244
  0
LINE
  5
2E2
100
AcDbEntity
  8
RACCORDO
100
AcDbLine
 62
250
  6
CONTINUOUS
 10
-23.2690327641
 20
7.2926777695
 11
-23.2597532492
 21
14.5834396663
  0
LINE
  5
2E3
100
AcDbEntity
  8
ASSI
100
AcDbLine
 62
250
  6
CONTINUOUS
 10
-23.2690327641
 20
7.2926777695
 11
-23.2597532492
 21
14.5834396663
  0
LINE
  5
2E4
100
AcDbEntity
  8
RACCORDO
100
AcDbLine
 62
250
  6
CONTINUOUS
 10
-22.769717977
 20
7.2846728244
 11
-22.7604384523
 21
14.5669384586
  0
LINE
  5
2E5
100
AcDbEntity
  8
ASSI
100
AcDbLine
 62
250
  6
CONTINUOUS
 10
-22.769717977
 20
7.2846728244
 11
-22.7604384523
 21
14.5669384586
  0
LINE
  5
2E6
100
AcDbEntity
  8
RACCORDO
100
AcDbLine
 62
250
  6
CONTINUOUS
 10
-23.2597532492
 20
14.5834396663
 11
-23.2442885593
 21
21.8703705759
  0
LINE
  5
2E7
100
AcDbEntity
  8
ASSI
100
AcDbLine
 62
250
  6
CONTINUOUS
 10
-23.2597532492
 20
14.5834396663
 11
-23.2442885593
 21
21.8703705759
  0
LINE
  5
2E8
100
AcDbEntity
  8
RACCORDO
100
AcDbLine
 62
250
  6
CONTINUOUS
 10
-22.7604384523
 20
14.5669384586
 11
-22.7449737716
 21
21.8460808361
  0
LINE
  5
2E9
100
AcDbEntity
  8
ASSI
100
AcDbLine
 62
250
  6
CONTINUOUS
 10
-22.7604384523
 20
14.5669384586
 11
-22.7449737716
 21
21.8460808361
  0
LWPOLYLINE
  5
2EA
100
AcDbEntity
  8
RACCORDO
100
AcDbPolyline
 62
250
  6
CONTINUOUS
 90
13
 70
0
 10
-23.2442885593
 20
21.8703705759
 10
-23.2424155439
 20
21.9398583102
 10
-23.2366078772
 20
22.0094119758
 10
-23.2268655593
 20
22.0790315696
 10
-23.21317883
 20
22.1490872379
 10
-23.1955574495
 20
22.2192088224
 10
-23.1740306982
 20
22.2882858881
 10
-23.1484214608
 20
22.3563516252
 10
-23.1189068525
 20
22.4233728872
 10
-23.0860474991
 20
22.4881397869
 10
-23.0500302758
 20
22.5502490714
 10
-23.0106683073
 20
22.6101040923
 10
-22.9679615936
 20
22.6677048937
  0
LWPOLYLINE
  5
2EB
100
AcDbEntity
  8
ASSI
100
AcDbPolyline
 62
250
  6
CONTINUOUS
 90
13
 70
0
 10
-23.2442885593
 20
21.8703705759
 10
-23.2424155439
 20
21.9398583102
 10
-23.2366078772
 20
22.0094119758
 10
-23.2268655593
 20
22.0790315696
 10
-23.21317883
 20
22.1490872379
 10
-23.1955574495
 20
22.2192088224
 10
-23.1740306982
 20
22.2882858881
 10
-23.1484214608
 20
22.3563516252
 10
-23.1189068525
 20
22.4233728872
 10
-23.0860474991
 20
22.4881397869
 10
-23.0500302758
 20
22.5502490714
 10
-23.0106683073
 20
22.6101040923
 10
-22.9679615936
 20
22.6677048937
  0
LWPOLYLINE
  5
2EC
100
AcDbEntity
  8
RACCORDO
100
AcDbPolyline
 62
250
  6
CONTINUOUS
 90
13
 70
0
 10
-22.7449737619
 20
21.8460808265
 10
-22.7437328644
 20
21.8886036479
 10
-22.7401738482
 20
21.9314160131
 10
-22.7342389437
 20
21.9743886709
 10
-22.7258591596
 20
22.0174673069
 10
-22.7150003536
 20
22.0604256281
 10
-22.7017087855
 20
22.1028768866
 10
-22.6859804906
 20
22.144722119
 10
-22.6678500493
 20
22.1857771256
 10
-22.6475336802
 20
22.2255624421
 10
-22.6251945359
 20
22.2638604283
 10
-22.6008761538
 20
22.3006865786
 10
-22.5746817863
 20
22.3359476087
  0
LWPOLYLINE
  5
2ED
100
AcDbEntity
  8
ASSI
100
AcDbPolyline
 62
250
  6
CONTINUOUS
 90
13
 70
0
 10
-22.7449737619
 20
21.8460808265
 10
-22.7437328644
 20
21.8886036479
 10
-22.7401738482
 20
21.9314160131
 10
-22.7342389437
 20
21.9743886709
 10
-22.7258591596
 20
22.0174673069
 10
-22.7150003536
 20
22.0604256281
 10
-22.7017087855
 20
22.1028768866
 10
-22.6859804906
 20
22.144722119
 10
-22.6678500493
 20
22.1857771256
 10
-22.6475336802
 20
22.2255624421
 10
-22.6251945359
 20
22.2638604283
 10
-22.6008761538
 20
22.3006865786
 10
-22.5746817863
 20
22.3359476087
  0
LINE
  5
2EE
100
AcDbEntity
  8
0
100
AcDbLine
 62
250
  6
CONTINUOUS
 10
-9.781242
 20
27.865471
 11
-9.855148
 21
27.686902
  0
LINE
  5
2EF
100
AcDbEntity
  8
0
100
AcDbLine
 62
250
  6
CONTINUOUS
 10
-9.510657
 20
27.627378
 11
-9.436751
 21
27.805948
  0
LINE
  5
2F0
100
AcDbEntity
  8
0
100
AcDbLine
 62
250
  6
CONTINUOUS
 10
-9.964508
 20
26.436912
 11
-9.890602
 21
26.615482
  0
LINE
  5
2F1
100
AcDbEntity
  8
0
100
AcDbLine
 62
250
  6
CONTINUOUS
 10
-9.620017
 20
26.377389
 11
-9.54611
 21
26.555959
  0
LINE
  5
2F2
100
AcDbEntity
  8
0
100
AcDbLine
 62
250
  6
CONTINUOUS
 10
-7.747536
 20
28.460705
 11
-8.412691
 21
26.853575
  0
LINE
  5
2F3
100
AcDbEntity
  8
0
100
AcDbLine
 62
250
  6
CONTINUOUS
 10
-8.787429
 20
25.901202
 11
-8.491804
 21
26.615482
  0
LINE
  5
2F4
100
AcDbEntity
  8
0
100
AcDbLine
 62
250
  6
CONTINUOUS
 10
-7.959838
 20
28.698798
 11
-9.137128
 21
25.901202
  0
LINE
  5
2F5
100
AcDbEntity
  8
0
100
AcDbLine
 62
250
  6
CONTINUOUS
 10
-5.956378
 20
28.282135
 11
-6.093775
 21
28.044042
  0
LINE
  5
2F6
100
AcDbEntity
  8
0
100
AcDbLine
 62
250
  6
CONTINUOUS
 10
-5.749283
 20
27.984518
 11
-5.617094
 21
28.163088
  0
LINE
  5
2F7
100
AcDbEntity
  8
0
100
AcDbLine
 62
250
  6
CONTINUOUS
 10
-9.815697
 20
26.139295
 11
-9.620017
 21
26.377389
  0
LINE
  5
2F8
100
AcDbEntity
  8
0
100
AcDbLine
 62
250
  6
CONTINUOUS
 10
-4.342279
 20
26.079772
 11
-4.088316
 21
26.317865
  0
LINE
  5
2F9
100
AcDbEntity
  8
0
100
AcDbLine
 62
250
  6
CONTINUOUS
 10
3.698809
 20
27.389285
 11
3.455262
 21
27.270238
  0
LWPOLYLINE
  5
2FA
100
AcDbEntity
  8
RACCORDO
100
AcDbPolyline
 62
250
  6
CONTINUOUS
 90
16
 70
0
 10
-23.119093969
 20
-21.8692779856
 10
-23.0787508969
 20
-21.8685789918
 10
-23.0395852216
 20
-21.8677199025
 10
-23.0018755116
 20
-21.8667068282
 10
-22.9658899793
 20
-21.8655469743
 10
-22.9318845742
 20
-21.8642485904
 10
-22.9001011618
 20
-21.8628209112
 10
-22.8707658036
 20
-21.8612740914
 10
-22.844087149
 20
-21.8596191327
 10
-22.8202549518
 20
-21.8578678061
 10
-22.7994387199
 20
-21.856032568
 10
-22.78178651
 20
-21.8541264717
 10
-22.7674238746
 20
-21.8521630745
 10
-22.7564529687
 20
-21.850156341
 10
-22.7489518238
 20
-21.8481205443
 10
-22.744973792
 20
-21.8460701642
  0
LWPOLYLINE
  5
2FB
100
AcDbEntity
  8
ASSI
100
AcDbPolyline
 62
250
  6
CONTINUOUS
 90
16
 70
0
 10
-23.119093969
 20
-21.8692779856
 10
-23.0787508969
 20
-21.8685789918
 10
-23.0395852216
 20
-21.8677199025
 10
-23.0018755116
 20
-21.8667068282
 10
-22.9658899793
 20
-21.8655469743
 10
-22.9318845742
 20
-21.8642485904
 10
-22.9001011618
 20
-21.8628209112
 10
-22.8707658036
 20
-21.8612740914
 10
-22.844087149
 20
-21.8596191327
 10
-22.8202549518
 20
-21.8578678061
 10
-22.7994387199
 20
-21.856032568
 10
-22.78178651
 20
-21.8541264717
 10
-22.7674238746
 20
-21.8521630745
 10
-22.7564529687
 20
-21.850156341
 10
-22.7489518238
 20
-21.8481205443
 10
-22.744973792
 20
-21.8460701642
  0
LWPOLYLINE
  5
2FC
100
AcDbEntity
  8
RACCORDO
100
AcDbPolyline
 62
250
  6
CONTINUOUS
 90
17
 70
0
 10
44.4931469953
 20
-22.667357485
 10
44.5178871765
 20
-22.6670254536
 10
44.5420930806
 20
-22.6665907705
 10
44.5655925403
 20
-22.6660565275
 10
44.5882184134
 20
-22.6654265243
 10
44.6098097709
 20
-22.664705242
 10
44.6302130421
 20
-22.6638978107
 10
44.6492831066
 20
-22.6630099734
 10
44.6668843265
 20
-22.6620480449
 10
44.6828915112
 20
-22.6610188671
 10
44.6971908081
 20
-22.6599297601
 10
44.7096805118
 20
-22.6587884702
 10
44.7202717881
 20
-22.657603115
 10
44.7288893053
 20
-22.6563821255
 10
44.7354717705
 20
-22.6551341861
 10
44.7399723652
 20
-22.6538681728
 10
44.7423590785
 20
-22.6525930904
  0
LWPOLYLINE
  5
2FD
100
AcDbEntity
  8
ASSI
100
AcDbPolyline
 62
250
  6
CONTINUOUS
 90
17
 70
0
 10
44.4931469953
 20
-22.667357485
 10
44.5178871765
 20
-22.6670254536
 10
44.5420930806
 20
-22.6665907705
 10
44.5655925403
 20
-22.6660565275
 10
44.5882184134
 20
-22.6654265243
 10
44.6098097709
 20
-22.664705242
 10
44.6302130421
 20
-22.6638978107
 10
44.6492831066
 20
-22.6630099734
 10
44.6668843265
 20
-22.6620480449
 10
44.6828915112
 20
-22.6610188671
 10
44.6971908081
 20
-22.6599297601
 10
44.7096805118
 20
-22.6587884702
 10
44.7202717881
 20
-22.657603115
 10
44.7288893053
 20
-22.6563821255
 10
44.7354717705
 20
-22.6551341861
 10
44.7399723652
 20
-22.6538681728
 10
44.7423590785
 20
-22.6525930904
  0
LINE
  5
2FE
100
AcDbEntity
  8
RACCORDO
100
AcDbLine
 62
250
  6
CONTINUOUS
 10
44.4427702181
 20
-22.6677048932
 11
44.4931469953
 21
-22.667357485
  0
LINE
  5
2FF
100
AcDbEntity
  8
ASSI
100
AcDbLine
 62
250
  6
CONTINUOUS
 10
44.4427702181
 20
-22.6677048932
 11
44.4931469953
 21
-22.667357485
  0
LWPOLYLINE
  5
300
100
AcDbEntity
  8
RACCORDO
100
AcDbPolyline
 62
250
  6
CONTINUOUS
 90
3
 70
0
 10
-23.2442885593
 20
-21.8703705753
 10
-23.2021581999
 20
-21.8701769744
 10
-23.119093969
 20
-21.8692779856
  0
LWPOLYLINE
  5
301
100
AcDbEntity
  8
ASSI
100
AcDbPolyline
 62
250
  6
CONTINUOUS
 90
3
 70
0
 10
-23.2442885593
 20
-21.8703705753
 10
-23.2021581999
 20
-21.8701769744
 10
-23.119093969
 20
-21.8692779856
  0
LINE
  5
302
100
AcDbEntity
  8
RACCORDO
100
AcDbLine
 62
250
  6
CONTINUOUS
 10
21.9426456448
 20
-23.1675430277
 11
-21.9426456448
 21
-23.1675430277
  0
LINE
  5
303
100
AcDbEntity
  8
ASSI
100
AcDbLine
 62
250
  6
CONTINUOUS
 10
21.9426456448
 20
-23.1675430277
 11
-21.9426456448
 21
-23.1675430277
  0
LINE
  5
304
100
AcDbEntity
  8
RACCORDO
100
AcDbLine
 62
250
  6
CONTINUOUS
 10
44.4427701044
 20
-22.6676475367
 11
22.9679615936
 21
-22.6677048937
  0
LINE
  5
305
100
AcDbEntity
  8
ASSI
100
AcDbLine
 62
250
  6
CONTINUOUS
 10
44.4427701044
 20
-22.6676475367
 11
22.9679615936
 21
-22.6677048937
  0
LINE
  5
306
100
AcDbEntity
  8
RACCORDO
100
AcDbLine
 62
250
  6
CONTINUOUS
 10
-22.9679615936
 20
-22.6677048937
 11
-44.4427701041
 21
-22.6676473889
  0
LINE
  5
307
100
AcDbEntity
  8
ASSI
100
AcDbLine
 62
250
  6
CONTINUOUS
 10
-22.9679615936
 20
-22.6677048937
 11
-44.4427701041
 21
-22.6676473889
  0
LINE
  5
308
100
AcDbEntity
  8
RACCORDO
100
AcDbLine
 62
250
  6
CONTINUOUS
 10
21.9426840308
 20
-22.6415492726
 11
-21.9426540141
 21
-22.6415492726
  0
LINE
  5
309
100
AcDbEntity
  8
ASSI
100
AcDbLine
 62
250
  6
CONTINUOUS
 10
21.9426840308
 20
-22.6415492726
 11
-21.9426540141
 21
-22.6415492726
  0
LINE
  5
30A
100
AcDbEntity
  8
0
100
AcDbLine
 62
7
  6
CONTINUOUS
 10
21.8010963722
 20
-22.5
 11
-21.8010963722
 21
-22.5
  0
LINE
  5
30B
100
AcDbEntity
  8
ASSI
100
AcDbLine
 62
7
  6
CONTINUOUS
 10
21.8010963722
 20
-22.5
 11
-21.8010963722
 21
-22.5
  0
LWPOLYLINE
  5
30C
100
AcDbEntity
  8
RACCORDO
100
AcDbPolyline
 62
250
  6
CONTINUOUS
 90
18
 70
0
 10
23.2442885593
 20
-21.8703704105
 10
23.1603272302
 20
-21.8698117862
 10
23.1190935311
 20
-21.8692778769
 10
23.0787502659
 20
-21.8685788992
 10
23.0395843821
 20
-21.8677198246
 10
23.0018744527
 20
-21.8667067634
 10
22.9658886954
 20
-21.8655469213
 10
22.9318830641
 20
-21.8642485476
 10
22.9000994291
 20
-21.8628208775
 10
22.870763856
 20
-21.8612740652
 10
22.8440849987
 20
-21.8596191129
 10
22.8202526143
 20
-21.8578677915
 10
22.7994362143
 20
-21.8560325576
 10
22.7817838585
 20
-21.8541264646
 10
22.7674211019
 20
-21.8521630699
 10
22.7564501016
 20
-21.8501563383
 10
22.7489488906
 20
-21.8481205432
 10
22.7449708223
 20
-21.8460701642
  0
LWPOLYLINE
  5
30D
100
AcDbEntity
  8
ASSI
100
AcDbPolyline
 62
250
  6
CONTINUOUS
 90
18
 70
0
 10
23.2442885593
 20
-21.8703704105
 10
23.1603272302
 20
-21.8698117862
 10
23.1190935311
 20
-21.8692778769
 10
23.0787502659
 20
-21.8685788992
 10
23.0395843821
 20
-21.8677198246
 10
23.0018744527
 20
-21.8667067634
 10
22.9658886954
 20
-21.8655469213
 10
22.9318830641
 20
-21.8642485476
 10
22.9000994291
 20
-21.8628208775
 10
22.870763856
 20
-21.8612740652
 10
22.8440849987
 20
-21.8596191129
 10
22.8202526143
 20
-21.8578677915
 10
22.7994362143
 20
-21.8560325576
 10
22.7817838585
 20
-21.8541264646
 10
22.7674211019
 20
-21.8521630699
 10
22.7564501016
 20
-21.8501563383
 10
22.7489488906
 20
-21.8481205432
 10
22.7449708223
 20
-21.8460701642
  0
LWPOLYLINE
  5
30E
100
AcDbEntity
  8
RACCORDO
100
AcDbPolyline
 62
250
  6
CONTINUOUS
 90
18
 70
0
 10
-44.4427702181
 20
-22.6677048929
 10
-44.4931469947
 20
-22.6673574847
 10
-44.5178871757
 20
-22.6670254534
 10
-44.5420930795
 20
-22.6665907703
 10
-44.565592539
 20
-22.6660565272
 10
-44.5882184119
 20
-22.6654265241
 10
-44.6098097693
 20
-22.6647052418
 10
-44.6302130404
 20
-22.6638978105
 10
-44.6492831048
 20
-22.6630099732
 10
-44.6668843246
 20
-22.6620480448
 10
-44.6828915094
 20
-22.661018867
 10
-44.6971908064
 20
-22.65992976
 10
-44.7096805103
 20
-22.6587884701
 10
-44.7202717867
 20
-22.6576031149
 10
-44.7288893042
 20
-22.6563821254
 10
-44.7354717697
 20
-22.655134186
 10
-44.7399723648
 20
-22.6538681728
 10
-44.7423590785
 20
-22.6525930904
  0
LWPOLYLINE
  5
30F
100
AcDbEntity
  8
ASSI
100
AcDbPolyline
 62
250
  6
CONTINUOUS
 90
18
 70
0
 10
-44.4427702181
 20
-22.6677048929
 10
-44.4931469947
 20
-22.6673574847
 10
-44.5178871757
 20
-22.6670254534
 10
-44.5420930795
 20
-22.6665907703
 10
-44.565592539
 20
-22.6660565272
 10
-44.5882184119
 20
-22.6654265241
 10
-44.6098097693
 20
-22.6647052418
 10
-44.6302130404
 20
-22.6638978105
 10
-44.6492831048
 20
-22.6630099732
 10
-44.6668843246
 20
-22.6620480448
 10
-44.6828915094
 20
-22.661018867
 10
-44.6971908064
 20
-22.65992976
 10
-44.7096805103
 20
-22.6587884701
 10
-44.7202717867
 20
-22.6576031149
 10
-44.7288893042
 20
-22.6563821254
 10
-44.7354717697
 20
-22.655134186
 10
-44.7399723648
 20
-22.6538681728
 10
-44.7423590785
 20
-22.6525930904
  0
LWPOLYLINE
  5
310
100
AcDbEntity
  8
RACCORDO
100
AcDbPolyline
 62
250
  6
CONTINUOUS
 90
31
 70
0
 10
-21.9426540284
 20
-22.6415492868
 10
-21.9685715428
 20
-22.6411766217
 10
-21.9941483086
 20
-22.6399902412
 10
-22.0193598364
 20
-22.6380213654
 10
-22.0441575594
 20
-22.6353048929
 10
-22.0685469879
 20
-22.6318708052
 10
-22.0925865257
 20
-22.6277361186
 10
-22.1162571518
 20
-22.622925904
 10
-22.1395423219
 20
-22.6174652554
 10
-22.1625035
 20
-22.6113574038
 10
-22.1851237762
 20
-22.6046211375
 10
-22.2073879565
 20
-22.5972752906
 10
-22.229357538
 20
-22.5893098196
 10
-22.251016237
 20
-22.5807374936
 10
-22.2723480612
 20
-22.5715715339
 10
-22.2934106964
 20
-22.5617899132
 10
-22.3141866017
 20
-22.5514000849
 10
-22.3346576616
 20
-22.5404103505
 10
-22.3548749003
 20
-22.5287881763
 10
-22.3748176077
 20
-22.5165367289
 10
-22.3944645253
 20
-22.5036600554
 10
-22.4138585502
 20
-22.490116087
 10
-22.4329740103
 20
-22.4759048756
 10
-22.4517853866
 20
-22.4610268761
 10
-22.4703268441
 20
-22.4454305803
 10
-22.4885650162
 20
-22.4291150656
 10
-22.5064697137
 20
-22.4120770846
 10
-22.5240685995
 20
-22.3942519821
 10
-22.5413414542
 20
-22.3756131463
 10
-22.5582265124
 20
-22.3561786662
 10
-22.5746817863
 20
-22.3359476087
  0
LWPOLYLINE
  5
311
100
AcDbEntity
  8
ASSI
100
AcDbPolyline
 62
250
  6
CONTINUOUS
 90
31
 70
0
 10
-21.9426540284
 20
-22.6415492868
 10
-21.9685715428
 20
-22.6411766217
 10
-21.9941483086
 20
-22.6399902412
 10
-22.0193598364
 20
-22.6380213654
 10
-22.0441575594
 20
-22.6353048929
 10
-22.0685469879
 20
-22.6318708052
 10
-22.0925865257
 20
-22.6277361186
 10
-22.1162571518
 20
-22.622925904
 10
-22.1395423219
 20
-22.6174652554
 10
-22.1625035
 20
-22.6113574038
 10
-22.1851237762
 20
-22.6046211375
 10
-22.2073879565
 20
-22.5972752906
 10
-22.229357538
 20
-22.5893098196
 10
-22.251016237
 20
-22.5807374936
 10
-22.2723480612
 20
-22.5715715339
 10
-22.2934106964
 20
-22.5617899132
 10
-22.3141866017
 20
-22.5514000849
 10
-22.3346576616
 20
-22.5404103505
 10
-22.3548749003
 20
-22.5287881763
 10
-22.3748176077
 20
-22.5165367289
 10
-22.3944645253
 20
-22.5036600554
 10
-22.4138585502
 20
-22.490116087
 10
-22.4329740103
 20
-22.4759048756
 10
-22.4517853866
 20
-22.4610268761
 10
-22.4703268441
 20
-22.4454305803
 10
-22.4885650162
 20
-22.4291150656
 10
-22.5064697137
 20
-22.4120770846
 10
-22.5240685995
 20
-22.3942519821
 10
-22.5413414542
 20
-22.3756131463
 10
-22.5582265124
 20
-22.3561786662
 10
-22.5746817863
 20
-22.3359476087
  0
LWPOLYLINE
  5
312
100
AcDbEntity
  8
RACCORDO
100
AcDbPolyline
 62
250
  6
CONTINUOUS
 90
31
 70
0
 10
-21.9426456448
 20
-23.1675430277
 10
-21.984757785
 20
-23.1667780232
 10
-22.0262417124
 20
-23.1647901401
 10
-22.0670974269
 20
-23.1615793761
 10
-22.1073144577
 20
-23.1571056169
 10
-22.1469032756
 20
-23.1514089677
 10
-22.1858952933
 20
-23.1446097537
 10
-22.2242861162
 20
-23.1367224701
 10
-22.2620801389
 20
-23.1277326063
 10
-22.2993219574
 20
-23.1177169786
 10
-22.3360106709
 20
-23.1066893212
 10
-22.3721471802
 20
-23.0946358794
 10
-22.4077787838
 20
-23.0815922361
 10
-22.4429085046
 20
-23.067570822
 10
-22.4775333197
 20
-23.0525591811
 10
-22.5116914586
 20
-23.0365555655
 10
-22.5453891411
 20
-23.0195707419
 10
-22.5786201473
 20
-23.0015939131
 10
-22.6114040483
 20
-22.9825909838
 10
-22.643749458
 20
-22.9625712578
 10
-22.6756477623
 20
-22.9415253944
 10
-22.7070926897
 20
-22.9193913273
 10
-22.7380948056
 20
-22.8961772198
 10
-22.7686435446
 20
-22.8718748636
 10
-22.7987009393
 20
-22.8463976308
 10
-22.8282798725
 20
-22.8197529995
 10
-22.8573674613
 20
-22.7919334365
 10
-22.8858870895
 20
-22.7628297909
 10
-22.9138132182
 20
-22.7324056551
 10
-22.9411713862
 20
-22.700697368
 10
-22.9679615936
 20
-22.6677048937
  0
LWPOLYLINE
  5
313
100
AcDbEntity
  8
ASSI
100
AcDbPolyline
 62
250
  6
CONTINUOUS
 90
31
 70
0
 10
-21.9426456448
 20
-23.1675430277
 10
-21.984757785
 20
-23.1667780232
 10
-22.0262417124
 20
-23.1647901401
 10
-22.0670974269
 20
-23.1615793761
 10
-22.1073144577
 20
-23.1571056169
 10
-22.1469032756
 20
-23.1514089677
 10
-22.1858952933
 20
-23.1446097537
 10
-22.2242861162
 20
-23.1367224701
 10
-22.2620801389
 20
-23.1277326063
 10
-22.2993219574
 20
-23.1177169786
 10
-22.3360106709
 20
-23.1066893212
 10
-22.3721471802
 20
-23.0946358794
 10
-22.4077787838
 20
-23.0815922361
 10
-22.4429085046
 20
-23.067570822
 10
-22.4775333197
 20
-23.0525591811
 10
-22.5116914586
 20
-23.0365555655
 10
-22.5453891411
 20
-23.0195707419
 10
-22.5786201473
 20
-23.0015939131
 10
-22.6114040483
 20
-22.9825909838
 10
-22.643749458
 20
-22.9625712578
 10
-22.6756477623
 20
-22.9415253944
 10
-22.7070926897
 20
-22.9193913273
 10
-22.7380948056
 20
-22.8961772198
 10
-22.7686435446
 20
-22.8718748636
 10
-22.7987009393
 20
-22.8463976308
 10
-22.8282798725
 20
-22.8197529995
 10
-22.8573674613
 20
-22.7919334365
 10
-22.8858870895
 20
-22.7628297909
 10
-22.9138132182
 20
-22.7324056551
 10
-22.9411713862
 20
-22.700697368
 10
-22.9679615936
 20
-22.6677048937
  0
LWPOLYLINE
  5
314
100
AcDbEntity
  8
0
100
AcDbPolyline
 62
7
  6
CONTINUOUS
 90
48
 70
0
 10
5.0422484297
 20
-26.1402838735
 10
5.0744544969
 20
-26.1533518158
 10
5.1068641464
 20
-26.1692357122
 10
5.1394773781
 20
-26.1879355053
 10
5.1724614223
 20
-26.209333483
 10
5.2056490488
 20
-26.2335472136
 10
5.2385385673
 20
-26.2609295327
 10
5.2713838745
 20
-26.2915592374
 10
5.3039310738
 20
-26.325357289
 10
5.3349167853
 20
-26.3624397333
 10
5.3644538875
 20
-26.4034006786
 10
5.392429502
 20
-26.4476456576
 10
5.417241614
 20
-26.4935079208
 10
5.43841628
 20
-26.5412132047
 10
5.4564274435
 20
-26.5905355564
 10
5.4710949201
 20
-26.639130934
 10
5.4820088705
 20
-26.686520132
 10
5.489579134
 20
-26.7331824615
 10
5.4948550445
 20
-26.7782118641
 10
5.4979584608
 20
-26.8212907141
 10
5.4987675242
 20
-26.8627368378
 10
5.4979659922
 20
-26.9025974042
 10
5.4956455546
 20
-26.9408643565
 10
5.4917145217
 20
-26.9775459164
 10
5.4865815818
 20
-27.0127136606
 10
5.4802623055
 20
-27.0463648349
 10
5.4727411222
 20
-27.0785023339
 10
5.4643800094
 20
-27.1092061962
 10
5.4552000356
 20
-27.1384578927
 10
5.4451801322
 20
-27.16627607
 10
5.4346190705
 20
-27.1927965175
 10
5.4235450007
 20
-27.2180238715
 10
5.4119297726
 20
-27.2419535879
 10
5.399987706
 20
-27.264707672
 10
5.3877428035
 20
-27.286286584
 10
5.3751710626
 20
-27.3066899361
 10
5.3624147963
 20
-27.3260384512
 10
5.3494752461
 20
-27.3443285427
 10
5.3363511705
 20
-27.3615638528
 10
5.3231811579
 20
-27.3778759389
 10
5.3099590628
 20
-27.3932413975
 10
5.2966910307
 20
-27.4076836736
 10
5.2835340865
 20
-27.4214045875
 10
5.2705027724
 20
-27.4344159609
 10
5.2575825462
 20
-27.4467059993
 10
5.2448868064
 20
-27.4584410906
 10
5.232438523
 20
-27.4696351985
 10
5.2202147259
 20
-27.4802743772
  0
LWPOLYLINE
  5
315
100
AcDbEntity
  8
ASSI
100
AcDbPolyline
 62
7
  6
CONTINUOUS
 90
48
 70
0
 10
5.0422484297
 20
-26.1402838735
 10
5.0744544969
 20
-26.1533518158
 10
5.1068641464
 20
-26.1692357122
 10
5.1394773781
 20
-26.1879355053
 10
5.1724614223
 20
-26.209333483
 10
5.2056490488
 20
-26.2335472136
 10
5.2385385673
 20
-26.2609295327
 10
5.2713838745
 20
-26.2915592374
 10
5.3039310738
 20
-26.325357289
 10
5.3349167853
 20
-26.3624397333
 10
5.3644538875
 20
-26.4034006786
 10
5.392429502
 20
-26.4476456576
 10
5.417241614
 20
-26.4935079208
 10
5.43841628
 20
-26.5412132047
 10
5.4564274435
 20
-26.5905355564
 10
5.4710949201
 20
-26.639130934
 10
5.4820088705
 20
-26.686520132
 10
5.489579134
 20
-26.7331824615
 10
5.4948550445
 20
-26.7782118641
 10
5.4979584608
 20
-26.8212907141
 10
5.4987675242
 20
-26.8627368378
 10
5.4979659922
 20
-26.9025974042
 10
5.4956455546
 20
-26.9408643565
 10
5.4917145217
 20
-26.9775459164
 10
5.4865815818
 20
-27.0127136606
 10
5.4802623055
 20
-27.0463648349
 10
5.4727411222
 20
-27.0785023339
 10
5.4643800094
 20
-27.1092061962
 10
5.4552000356
 20
-27.1384578927
 10
5.4451801322
 20
-27.16627607
 10
5.4346190705
 20
-27.1927965175
 10
5.4235450007
 20
-27.2180238715
 10
5.4119297726
 20
-27.2419535879
 10
5.399987706
 20
-27.264707672
 10
5.3877428035
 20
-27.286286584
 10
5.3751710626
 20
-27.3066899361
 10
5.3624147963
 20
-27.3260384512
 10
5.3494752461
 20
-27.3443285427
 10
5.3363511705
 20
-27.3615638528
 10
5.3231811579
 20
-27.3778759389
 10
5.3099590628
 20
-27.3932413975
 10
5.2966910307
 20
-27.4076836736
 10
5.2835340865
 20
-27.4214045875
 10
5.2705027724
 20
-27.4344159609
 10
5.2575825462
 20
-27.4467059993
 10
5.2448868064
 20
-27.4584410906
 10
5.232438523
 20
-27.4696351985
 10
5.2202147259
 20
-27.4802743772
  0
LINE
  5
316
100
AcDbEntity
  8
0
100
AcDbLine
 62
7
  6
CONTINUOUS
 10
5.1025031649
 20
-27.5709244369
 11
5.1300929757
 21
-27.5841392077
  0
LINE
  5
317
100
AcDbEntity
  8
ASSI
100
AcDbLine
 62
7
  6
CONTINUOUS
 10
5.1025031649
 20
-27.5709244369
 11
5.1300929757
 21
-27.5841392077
  0
LINE
  5
318
100
AcDbEntity
  8
0
100
AcDbLine
 62
7
  6
CONTINUOUS
 10
5.1300929757
 20
-27.5841392077
 11
5.1558641893
 21
-27.5987831769
  0
LINE
  5
319
100
AcDbEntity
  8
ASSI
100
AcDbLine
 62
7
  6
CONTINUOUS
 10
5.1300929757
 20
-27.5841392077
 11
5.1558641893
 21
-27.5987831769
  0
LWPOLYLINE
  5
31A
100
AcDbEntity
  8
0
100
AcDbPolyline
 62
7
  6
CONTINUOUS
 90
22
 70
0
 10
5.1558641893
 20
-27.5987831769
 10
5.1798168054
 20
-27.614856314
 10
5.2018349254
 20
-27.6326243365
 10
5.2220344481
 20
-27.6518214525
 10
5.2407630699
 20
-27.6716503861
 10
5.2579961445
 20
-27.6919568726
 10
5.2737583183
 20
-27.7128951423
 10
5.2884712274
 20
-27.734130692
 10
5.3021928573
 20
-27.7556283352
 10
5.3148652226
 20
-27.77742324
 10
5.3267360022
 20
-27.7992864517
 10
5.3378324994
 20
-27.8211979786
 10
5.3481274111
 20
-27.8431778077
 10
5.3577865069
 20
-27.8650569663
 10
5.3668152673
 20
-27.8867915254
 10
5.3752082118
 20
-27.9084254207
 10
5.3831146685
 20
-27.9299214825
 10
5.390527116
 20
-27.9512401757
 10
5.3974530756
 20
-27.9724210443
 10
5.4040644399
 20
-27.9935455371
 10
5.4103477927
 20
-28.0146101069
 10
5.41631655
 20
-28.0356183039
  0
LWPOLYLINE
  5
31B
100
AcDbEntity
  8
ASSI
100
AcDbPolyline
 62
7
  6
CONTINUOUS
 90
22
 70
0
 10
5.1558641893
 20
-27.5987831769
 10
5.1798168054
 20
-27.614856314
 10
5.2018349254
 20
-27.6326243365
 10
5.2220344481
 20
-27.6518214525
 10
5.2407630699
 20
-27.6716503861
 10
5.2579961445
 20
-27.6919568726
 10
5.2737583183
 20
-27.7128951423
 10
5.2884712274
 20
-27.734130692
 10
5.3021928573
 20
-27.7556283352
 10
5.3148652226
 20
-27.77742324
 10
5.3267360022
 20
-27.7992864517
 10
5.3378324994
 20
-27.8211979786
 10
5.3481274111
 20
-27.8431778077
 10
5.3577865069
 20
-27.8650569663
 10
5.3668152673
 20
-27.8867915254
 10
5.3752082118
 20
-27.9084254207
 10
5.3831146685
 20
-27.9299214825
 10
5.390527116
 20
-27.9512401757
 10
5.3974530756
 20
-27.9724210443
 10
5.4040644399
 20
-27.9935455371
 10
5.4103477927
 20
-28.0146101069
 10
5.41631655
 20
-28.0356183039
  0
LINE
  5
31C
100
AcDbEntity
  8
0
100
AcDbLine
 62
250
  6
CONTINUOUS
 10
-17.854637
 20
28.698798
 11
-17.854637
 21
25.9012020459
  0
LINE
  5
31D
100
AcDbEntity
  8
0
100
AcDbLine
 62
250
  6
CONTINUOUS
 10
-16.455839
 20
28.698798
 11
-16.455839
 21
25.9012020459
  0
LINE
  5
31E
100
AcDbEntity
  8
0
100
AcDbLine
 62
250
  6
CONTINUOUS
 10
-14.857212
 20
28.698798
 11
-14.857212
 21
25.9012020459
  0
LINE
  5
31F
100
AcDbEntity
  8
0
100
AcDbLine
 62
250
  6
CONTINUOUS
 10
-12.725711
 20
28.698798
 11
-12.725711
 21
25.9012020459
  0
LINE
  5
320
100
AcDbEntity
  8
0
100
AcDbLine
 62
250
  6
CONTINUOUS
 10
-11.515116
 20
28.698798
 11
-11.759874
 21
25.901202
  0
LINE
  5
321
100
AcDbEntity
  8
0
100
AcDbLine
 62
250
  6
CONTINUOUS
 10
-11.300815
 20
27.151192
 11
-11.378929
 21
26.258342
  0
LINE
  5
322
100
AcDbEntity
  8
0
100
AcDbLine
 62
250
  6
CONTINUOUS
 10
-11.269569
 20
27.508332
 11
-11.196663
 21
28.341658
  0
LINE
  5
323
100
AcDbEntity
  8
0
100
AcDbLine
 62
250
  6
CONTINUOUS
 10
-9.770827
 20
27.984518
 11
-9.781242
 21
27.865471
  0
LINE
  5
324
100
AcDbEntity
  8
0
100
AcDbLine
 62
250
  6
CONTINUOUS
 10
-9.890602
 20
26.615482
 11
-9.87498
 21
26.794052
  0
LINE
  5
325
100
AcDbEntity
  8
0
100
AcDbLine
 62
250
  6
CONTINUOUS
 10
-9.436751
 20
27.805948
 11
-9.41592
 21
28.044042
  0
LINE
  5
326
100
AcDbEntity
  8
0
100
AcDbLine
 62
250
  6
CONTINUOUS
 10
-9.54611
 20
26.555959
 11
-9.520072
 21
26.853575
  0
LINE
  5
327
100
AcDbEntity
  8
0
100
AcDbLine
 62
250
  6
CONTINUOUS
 10
-6.093775
 20
28.044042
 11
-6.178096
 21
27.746425
  0
LINE
  5
328
100
AcDbEntity
  8
0
100
AcDbLine
 62
250
  6
CONTINUOUS
 10
-5.828397
 20
27.746425
 11
-5.749283
 21
27.984518
  0
LINE
  5
329
100
AcDbEntity
  8
0
100
AcDbLine
 62
250
  6
CONTINUOUS
 10
-4.353694
 20
26.615482
 11
-4.4276
 21
26.436912
  0
LINE
  5
32A
100
AcDbEntity
  8
0
100
AcDbLine
 62
250
  6
CONTINUOUS
 10
3.89449
 20
27.627378
 11
3.698809
 21
27.389285
  0
LINE
  5
32B
100
AcDbEntity
  8
0
100
AcDbLine
 62
250
  6
CONTINUOUS
 10
3.549998
 20
27.686902
 11
3.423016
 21
27.567855
  0
LINE
  5
32C
100
AcDbEntity
  8
0
100
AcDbLine
 62
7
  6
CONTINUOUS
 10
-4.746107
 20
-28.877801
 11
-5.633668
 21
-26.078098
  0
LINE
  5
32D
100
AcDbEntity
  8
ASSI
100
AcDbLine
 62
7
  6
CONTINUOUS
 10
-4.746107
 20
-28.877801
 11
-5.633668
 21
-26.078098
  0
LINE
  5
32E
100
AcDbEntity
  8
0
100
AcDbLine
 62
7
  6
CONTINUOUS
 10
-4.465146
 20
-28.00522
 11
-4.99882
 21
-26.078098
  0
LINE
  5
32F
100
AcDbEntity
  8
ASSI
100
AcDbLine
 62
7
  6
CONTINUOUS
 10
-4.465146
 20
-28.00522
 11
-4.99882
 21
-26.078098
  0
LINE
  5
330
100
AcDbEntity
  8
0
100
AcDbLine
 62
250
  6
CONTINUOUS
 10
-6.178096
 20
27.746425
 11
-6.256211
 21
26.853575
  0
LINE
  5
331
100
AcDbEntity
  8
0
100
AcDbLine
 62
250
  6
CONTINUOUS
 10
-5.906511
 20
26.853575
 11
-5.828397
 21
27.746425
  0
LINE
  5
332
100
AcDbEntity
  8
0
100
AcDbLine
 62
250
  6
CONTINUOUS
 10
-3.355462
 20
28.698798
 11
-3.3815
 21
28.401181
  0
LINE
  5
333
100
AcDbEntity
  8
0
100
AcDbLine
 62
250
  6
CONTINUOUS
 10
-4.088316
 20
26.317865
 11
-4.003994
 21
26.615482
  0
LINE
  5
334
100
AcDbEntity
  8
0
100
AcDbLine
 62
250
  6
CONTINUOUS
 10
3.623904
 20
27.865471
 11
3.549998
 21
27.686902
  0
LINE
  5
335
100
AcDbEntity
  8
0
100
AcDbLine
 62
250
  6
CONTINUOUS
 10
3.968396
 20
27.805948
 11
3.89449
 21
27.627378
  0
LWPOLYLINE
  5
336
100
AcDbEntity
  8
0
100
AcDbPolyline
 62
7
  6
CONTINUOUS
 90
19
 70
0
 10
4.8214020604
 20
-28.0286629486
 10
4.8119778712
 20
-28.0055521113
 10
4.8013890199
 20
-27.9831718583
 10
4.7896355066
 20
-27.9615222144
 10
4.7766872954
 20
-27.9404939965
 10
4.7625744222
 20
-27.9201964322
 10
4.7473869947
 20
-27.9009571699
 10
4.7311382885
 20
-27.8827613547
 10
4.713815028
 20
-27.8656239001
 10
4.6954674938
 20
-27.8499171241
 10
4.6760200933
 20
-27.8356557688
 10
4.655548419
 20
-27.8228251553
 10
4.6343295296
 20
-27.8117534811
 10
4.6123245862
 20
-27.8025785673
 10
4.5895724275
 20
-27.7951626462
 10
4.5664666284
 20
-27.7894205301
 10
4.5431383802
 20
-27.7853238308
 10
4.5194564915
 20
-27.7829009604
 10
4.4954209623
 20
-27.7821519248
  0
LWPOLYLINE
  5
337
100
AcDbEntity
  8
ASSI
100
AcDbPolyline
 62
7
  6
CONTINUOUS
 90
19
 70
0
 10
4.8214020604
 20
-28.0286629486
 10
4.8119778712
 20
-28.0055521113
 10
4.8013890199
 20
-27.9831718583
 10
4.7896355066
 20
-27.9615222144
 10
4.7766872954
 20
-27.9404939965
 10
4.7625744222
 20
-27.9201964322
 10
4.7473869947
 20
-27.9009571699
 10
4.7311382885
 20
-27.8827613547
 10
4.713815028
 20
-27.8656239001
 10
4.6954674938
 20
-27.8499171241
 10
4.6760200933
 20
-27.8356557688
 10
4.655548419
 20
-27.8228251553
 10
4.6343295296
 20
-27.8117534811
 10
4.6123245862
 20
-27.8025785673
 10
4.5895724275
 20
-27.7951626462
 10
4.5664666284
 20
-27.7894205301
 10
4.5431383802
 20
-27.7853238308
 10
4.5194564915
 20
-27.7829009604
 10
4.4954209623
 20
-27.7821519248
  0
LINE
  5
338
100
AcDbEntity
  8
0
100
AcDbLine
 62
7
  6
CONTINUOUS
 10
-0.774487
 20
-28.877801
 11
-1.460068
 21
-27.049647
  0
LINE
  5
339
100
AcDbEntity
  8
ASSI
100
AcDbLine
 62
7
  6
CONTINUOUS
 10
-0.774487
 20
-28.877801
 11
-1.460068
 21
-27.049647
  0
LINE
  5
33A
100
AcDbEntity
  8
0
100
AcDbLine
 62
7
  6
CONTINUOUS
 10
-0.730314
 20
-27.632502
 11
-1.30855
 21
-26.078098
  0
LINE
  5
33B
100
AcDbEntity
  8
ASSI
100
AcDbLine
 62
7
  6
CONTINUOUS
 10
-0.730314
 20
-27.632502
 11
-1.30855
 21
-26.078098
  0
LINE
  5
33C
100
AcDbEntity
  8
0
100
AcDbLine
 62
250
  6
CONTINUOUS
 10
-18.65395
 20
25.901202
 11
-19.453263
 21
28.698798
  0
LINE
  5
33D
100
AcDbEntity
  8
0
100
AcDbLine
 62
250
  6
CONTINUOUS
 10
-6.256211
 20
26.853575
 11
-6.223965
 21
26.555959
  0
LINE
  5
33E
100
AcDbEntity
  8
0
100
AcDbLine
 62
250
  6
CONTINUOUS
 10
-3.884219
 20
27.984518
 11
-3.916464
 21
28.282135
  0
LINE
  5
33F
100
AcDbEntity
  8
0
100
AcDbLine
 62
7
  6
CONTINUOUS
 10
0.694112
 20
-28.877801
 11
0.432308
 21
-26.078098
  0
LINE
  5
340
100
AcDbEntity
  8
ASSI
100
AcDbLine
 62
7
  6
CONTINUOUS
 10
0.694112
 20
-28.877801
 11
0.432308
 21
-26.078098
  0
LINE
  5
341
100
AcDbEntity
  8
0
100
AcDbLine
 62
7
  6
CONTINUOUS
 10
0.122406
 20
-28.877801
 11
0.002337
 21
-27.057269
  0
LINE
  5
342
100
AcDbEntity
  8
ASSI
100
AcDbLine
 62
7
  6
CONTINUOUS
 10
0.122406
 20
-28.877801
 11
0.002337
 21
-27.057269
  0
LINE
  5
343
100
AcDbEntity
  8
0
100
AcDbLine
 62
7
  6
CONTINUOUS
 10
-3.034285
 20
-28.877801
 11
-3.034285
 21
-26.07793
  0
LINE
  5
344
100
AcDbEntity
  8
ASSI
100
AcDbLine
 62
7
  6
CONTINUOUS
 10
-3.034285
 20
-28.877801
 11
-3.034285
 21
-26.07793
  0
LINE
  5
345
100
AcDbEntity
  8
0
100
AcDbLine
 62
7
  6
CONTINUOUS
 10
-2.449877
 20
-28.877801
 11
-2.449877
 21
-26.07793
  0
LINE
  5
346
100
AcDbEntity
  8
ASSI
100
AcDbLine
 62
7
  6
CONTINUOUS
 10
-2.449877
 20
-28.877801
 11
-2.449877
 21
-26.07793
  0
LWPOLYLINE
  5
347
100
AcDbEntity
  8
0
100
AcDbPolyline
 62
7
  6
CONTINUOUS
 90
13
 70
0
 43
0.3500000006
 10
0.0
 20
59.6071464844
 10
0.0
 20
60.8928533936
 10
0.2142857063
 20
61.321431427
 10
0.6428571367
 20
61.7500003967
 10
0.8571428254
 20
61.7500003967
 10
1.2857142735
 20
61.321431427
 10
1.5000000329
 20
60.8928533936
 10
1.5000000329
 20
59.6071464844
 10
1.2857142735
 20
59.1785684509
 10
0.8571428254
 20
58.7499994812
 10
0.6428571367
 20
58.7499994812
 10
0.2142857063
 20
59.1785684509
 10
0.0
 20
59.6071464844
  0
LINE
  5
348
100
AcDbEntity
  8
0
100
AcDbLine
 62
7
  6
CONTINUOUS
 10
-1.586183
 20
-28.877801
 11
-1.460068
 21
-27.049647
  0
LINE
  5
349
100
AcDbEntity
  8
ASSI
100
AcDbLine
 62
7
  6
CONTINUOUS
 10
-1.586183
 20
-28.877801
 11
-1.460068
 21
-27.049647
  0
LINE
  5
34A
100
AcDbEntity
  8
0
100
AcDbLine
 62
250
  6
CONTINUOUS
 10
-2.448968
 20
28.401181
 11
-2.667688
 21
25.901202
  0
LINE
  5
34B
100
AcDbEntity
  8
0
100
AcDbLine
 62
250
  6
CONTINUOUS
 10
-2.317988
 20
25.901202
 11
-2.099269
 21
28.401181
  0
LINE
  5
34C
100
AcDbEntity
  8
0
100
AcDbLine
 62
250
  6
CONTINUOUS
 10
-1.166737
 20
28.401181
 11
-1.140699
 21
28.698798
  0
LINE
  5
34D
100
AcDbEntity
  8
0
100
AcDbLine
 62
250
  6
CONTINUOUS
 10
-0.674433
 20
28.698798
 11
-0.919191
 21
25.901202
  0
LINE
  5
34E
100
AcDbEntity
  8
0
100
AcDbLine
 62
250
  6
CONTINUOUS
 10
-0.423678
 20
27.567855
 11
-0.355979
 21
28.341658
  0
LINE
  5
34F
100
AcDbEntity
  8
0
100
AcDbLine
 62
250
  6
CONTINUOUS
 10
-0.538245
 20
26.258342
 11
-0.454924
 21
27.210715
  0
LINE
  5
350
100
AcDbEntity
  8
0
100
AcDbLine
 62
250
  6
CONTINUOUS
 10
1.06044
 20
27.210715
 11
1.091686
 21
27.567855
  0
LINE
  5
351
100
AcDbEntity
  8
0
100
AcDbLine
 62
250
  6
CONTINUOUS
 10
1.179006
 20
25.901202
 11
1.210252
 21
26.258342
  0
LINE
  5
352
100
AcDbEntity
  8
0
100
AcDbLine
 62
250
  6
CONTINUOUS
 10
1.392519
 20
28.341658
 11
1.423764
 21
28.698798
  0
LINE
  5
353
100
AcDbEntity
  8
0
100
AcDbLine
 62
250
  6
CONTINUOUS
 10
1.645272
 20
25.901202
 11
1.89003
 21
28.698798
  0
LINE
  5
354
100
AcDbEntity
  8
0
100
AcDbLine
 62
250
  6
CONTINUOUS
 10
2.104331
 20
27.151192
 11
1.994971
 21
25.901202
  0
LINE
  5
355
100
AcDbEntity
  8
0
100
AcDbLine
 62
250
  6
CONTINUOUS
 10
2.135577
 20
27.508332
 11
2.213691
 21
28.401181
  0
LINE
  5
356
100
AcDbEntity
  8
0
100
AcDbLine
 62
7
  6
CONTINUOUS
 10
-2.145272
 20
-28.877801
 11
-1.892475
 21
-26.078098
  0
LINE
  5
357
100
AcDbEntity
  8
ASSI
100
AcDbLine
 62
7
  6
CONTINUOUS
 10
-2.145272
 20
-28.877801
 11
-1.892475
 21
-26.078098
  0
LINE
  5
358
100
AcDbEntity
  8
0
100
AcDbLine
 62
250
  6
CONTINUOUS
 10
6.53186
 20
28.460705
 11
5.866705
 21
26.853575
  0
LINE
  5
359
100
AcDbEntity
  8
0
100
AcDbLine
 62
250
  6
CONTINUOUS
 10
5.491966
 20
25.901202
 11
5.787591
 21
26.615482
  0
LINE
  5
35A
100
AcDbEntity
  8
0
100
AcDbLine
 62
250
  6
CONTINUOUS
 10
6.319557
 20
28.698798
 11
5.142267
 21
25.901202
  0
LINE
  5
35B
100
AcDbEntity
  8
RACCORDO
100
AcDbLine
 62
250
  6
CONTINUOUS
 10
-44.8700585586
 20
-43.8714290238
 11
-45.0
 21
-44.0013704652
  0
LINE
  5
35C
100
AcDbEntity
  8
ASSI
100
AcDbLine
 62
250
  6
CONTINUOUS
 10
-44.8700585586
 20
-43.8714290238
 11
-45.0
 21
-44.0013704652
  0
LINE
  5
35D
100
AcDbEntity
  8
RACCORDO
100
AcDbLine
 62
250
  6
CONTINUOUS
 10
43.8781758769
 20
44.8768054117
 11
44.0013704652
 21
45.0
  0
LINE
  5
35E
100
AcDbEntity
  8
ASSI
100
AcDbLine
 62
250
  6
CONTINUOUS
 10
43.8781758769
 20
44.8768054117
 11
44.0013704652
 21
45.0
  0
LINE
  5
35F
100
AcDbEntity
  8
0
100
AcDbLine
 62
250
  6
CONTINUOUS
 10
-22.7449737308
 20
-21.8461021525
 11
-22.6
 21
-21.7010963722
  0
LINE
  5
360
100
AcDbEntity
  8
ASSI
100
AcDbLine
 62
250
  6
CONTINUOUS
 10
-22.7449737308
 20
-21.8461021525
 11
-22.6
 21
-21.7010963722
  0
LINE
  5
361
100
AcDbEntity
  8
0
100
AcDbLine
 62
250
  6
CONTINUOUS
 10
21.9426540141
 20
22.6415492726
 11
21.8010963722
 21
22.5
  0
LINE
  5
362
100
AcDbEntity
  8
ASSI
100
AcDbLine
 62
250
  6
CONTINUOUS
 10
21.9426540141
 20
22.6415492726
 11
21.8010963722
 21
22.5
  0
LINE
  5
363
100
AcDbEntity
  8
0
100
AcDbLine
 62
250
  6
CONTINUOUS
 10
-21.9426540141
 20
-22.6415492726
 11
-21.8010963722
 21
-22.5
  0
LINE
  5
364
100
AcDbEntity
  8
ASSI
100
AcDbLine
 62
250
  6
CONTINUOUS
 10
-21.9426540141
 20
-22.6415492726
 11
-21.8010963722
 21
-22.5
  0
LINE
  5
365
100
AcDbEntity
  8
0
100
AcDbLine
 62
250
  6
CONTINUOUS
 10
22.7449737296
 20
21.8461028089
 11
22.6
 21
21.7010963722
  0
LINE
  5
366
100
AcDbEntity
  8
ASSI
100
AcDbLine
 62
250
  6
CONTINUOUS
 10
22.7449737296
 20
21.8461028089
 11
22.6
 21
21.7010963722
  0
LINE
  5
367
100
AcDbEntity
  8
RACCORDO
100
AcDbLine
 62
250
  6
CONTINUOUS
 10
-43.8781758769
 20
-44.8768054117
 11
-44.0013704652
 21
-45.0
  0
LINE
  5
368
100
AcDbEntity
  8
ASSI
100
AcDbLine
 62
250
  6
CONTINUOUS
 10
-43.8781758769
 20
-44.8768054117
 11
-44.0013704652
 21
-45.0
  0
LINE
  5
369
100
AcDbEntity
  8
RACCORDO
100
AcDbLine
 62
250
  6
CONTINUOUS
 10
44.8700585586
 20
43.8714290238
 11
45.0
 21
44.0013704652
  0
LINE
  5
36A
100
AcDbEntity
  8
ASSI
100
AcDbLine
 62
250
  6
CONTINUOUS
 10
44.8700585586
 20
43.8714290238
 11
45.0
 21
44.0013704652
  0
LWPOLYLINE
  5
36B
100
AcDbEntity
  8
RACCORDO
100
AcDbPolyline
 62
250
  6
CONTINUOUS
 90
12
 70
0
 10
22.7475271439
 20
22.4909531247
 10
22.7206626907
 20
22.4686674018
 10
22.6955801744
 20
22.4476343779
 10
22.6724603337
 20
22.4280056119
 10
22.6514697646
 20
22.4099225439
 10
22.6327597199
 20
22.3935154762
 10
22.61646502
 20
22.378902634
 10
22.6027030804
 20
22.366189314
 10
22.5915730664
 20
22.3554671254
 10
22.5831551782
 20
22.3468133296
 10
22.5775100732
 20
22.3402902837
 10
22.5746784285
 20
22.3359449913
  0
LWPOLYLINE
  5
36C
100
AcDbEntity
  8
ASSI
100
AcDbPolyline
 62
250
  6
CONTINUOUS
 90
12
 70
0
 10
22.7475271439
 20
22.4909531247
 10
22.7206626907
 20
22.4686674018
 10
22.6955801744
 20
22.4476343779
 10
22.6724603337
 20
22.4280056119
 10
22.6514697646
 20
22.4099225439
 10
22.6327597199
 20
22.3935154762
 10
22.61646502
 20
22.378902634
 10
22.6027030804
 20
22.366189314
 10
22.5915730664
 20
22.3554671254
 10
22.5831551782
 20
22.3468133296
 10
22.5775100732
 20
22.3402902837
 10
22.5746784285
 20
22.3359449913
  0
LINE
  5
36D
100
AcDbEntity
  8
RACCORDO
100
AcDbLine
 62
250
  6
CONTINUOUS
 10
22.8058161004
 20
22.5386324556
 11
22.7475271439
 21
22.4909531247
  0
LINE
  5
36E
100
AcDbEntity
  8
ASSI
100
AcDbLine
 62
250
  6
CONTINUOUS
 10
22.8058161004
 20
22.5386324556
 11
22.7475271439
 21
22.4909531247
  0
LINE
  5
36F
100
AcDbEntity
  8
RACCORDO
100
AcDbLine
 62
250
  6
CONTINUOUS
 10
22.8687700057
 20
22.5893005832
 11
22.8058161004
 21
22.5386324556
  0
LINE
  5
370
100
AcDbEntity
  8
ASSI
100
AcDbLine
 62
250
  6
CONTINUOUS
 10
22.8687700057
 20
22.5893005832
 11
22.8058161004
 21
22.5386324556
  0
LWPOLYLINE
  5
371
100
AcDbEntity
  8
RACCORDO
100
AcDbPolyline
 62
250
  6
CONTINUOUS
 90
3
 70
0
 10
22.9679615935
 20
22.6677046554
 10
22.9345776055
 20
22.6414997293
 10
22.8687700057
 20
22.5893005832
  0
LWPOLYLINE
  5
372
100
AcDbEntity
  8
ASSI
100
AcDbPolyline
 62
250
  6
CONTINUOUS
 90
3
 70
0
 10
22.9679615935
 20
22.6677046554
 10
22.9345776055
 20
22.6414997293
 10
22.8687700057
 20
22.5893005832
  0
LWPOLYLINE
  5
373
100
AcDbEntity
  8
0
100
AcDbPolyline
 62
7
  6
CONTINUOUS
 90
13
 70
0
 43
0.3500000006
 10
58.8986221619
 20
-0.0000003204
 10
57.612906189
 20
-0.0000003204
 10
57.1843372192
 20
0.2142864304
 10
56.7557637177
 20
0.642857666
 10
56.7557637177
 20
0.8571421509
 10
57.1843372192
 20
1.2857133865
 10
57.612906189
 20
1.5000001373
 10
58.8986221619
 20
1.5000001373
 10
59.3271911316
 20
1.2857133865
 10
59.7557646332
 20
0.8571421509
 10
59.7557646332
 20
0.642857666
 10
59.3271911316
 20
0.2142864304
 10
58.8986221619
 20
-0.0000003204
  0
LINE
  5
374
100
AcDbEntity
  8
RACCORDO
100
AcDbLine
 62
250
  6
CONTINUOUS
 10
22.9679615937
 20
-22.6677046126
 11
22.9014340853
 21
-22.6153020317
  0
LINE
  5
375
100
AcDbEntity
  8
ASSI
100
AcDbLine
 62
250
  6
CONTINUOUS
 10
22.9679615937
 20
-22.6677046126
 11
22.9014340853
 21
-22.6153020317
  0
LINE
  5
376
100
AcDbEntity
  8
RACCORDO
100
AcDbLine
 62
250
  6
CONTINUOUS
 10
22.9014340853
 20
-22.6153020317
 11
22.8368204632
 21
-22.5636823587
  0
LINE
  5
377
100
AcDbEntity
  8
ASSI
100
AcDbLine
 62
250
  6
CONTINUOUS
 10
22.9014340853
 20
-22.6153020317
 11
22.8368204632
 21
-22.5636823587
  0
LWPOLYLINE
  5
378
100
AcDbEntity
  8
RACCORDO
100
AcDbPolyline
 62
250
  6
CONTINUOUS
 90
14
 70
0
 10
22.8368204632
 20
-22.5636823587
 10
22.7759797398
 20
-22.5143307538
 10
22.7475268797
 20
-22.4909528815
 10
22.7206623767
 20
-22.4686671222
 10
22.6955798109
 20
-22.4476340624
 10
22.6724599217
 20
-22.4280052615
 10
22.6514693062
 20
-22.4099221605
 10
22.6327592182
 20
-22.3935150623
 10
22.6164644786
 20
-22.3789021927
 10
22.6027025038
 20
-22.3661888489
 10
22.5915724596
 20
-22.3554666405
 10
22.5831545469
 20
-22.3468128293
 10
22.5775094232
 20
-22.3402897727
 10
22.5746777662
 20
-22.3359444745
  0
LWPOLYLINE
  5
379
100
AcDbEntity
  8
ASSI
100
AcDbPolyline
 62
250
  6
CONTINUOUS
 90
14
 70
0
 10
22.8368204632
 20
-22.5636823587
 10
22.7759797398
 20
-22.5143307538
 10
22.7475268797
 20
-22.4909528815
 10
22.7206623767
 20
-22.4686671222
 10
22.6955798109
 20
-22.4476340624
 10
22.6724599217
 20
-22.4280052615
 10
22.6514693062
 20
-22.4099221605
 10
22.6327592182
 20
-22.3935150623
 10
22.6164644786
 20
-22.3789021927
 10
22.6027025038
 20
-22.3661888489
 10
22.5915724596
 20
-22.3554666405
 10
22.5831545469
 20
-22.3468128293
 10
22.5775094232
 20
-22.3402897727
 10
22.5746777662
 20
-22.3359444745
  0
LINE
  5
37A
100
AcDbEntity
  8
0
100
AcDbLine
 62
250
  6
CONTINUOUS
 10
21.9426840308
 20
-22.6415492726
 11
21.8010963722
 21
-22.5
  0
LINE
  5
37B
100
AcDbEntity
  8
ASSI
100
AcDbLine
 62
250
  6
CONTINUOUS
 10
21.9426840308
 20
-22.6415492726
 11
21.8010963722
 21
-22.5
  0
LINE
  5
37C
100
AcDbEntity
  8
0
100
AcDbLine
 62
250
  6
CONTINUOUS
 10
-21.9426840308
 20
22.6415492726
 11
-21.8010963722
 21
22.5
  0
LINE
  5
37D
100
AcDbEntity
  8
ASSI
100
AcDbLine
 62
250
  6
CONTINUOUS
 10
-21.9426840308
 20
22.6415492726
 11
-21.8010963722
 21
22.5
  0
LINE
  5
37E
100
AcDbEntity
  8
RACCORDO
100
AcDbLine
 62
250
  6
CONTINUOUS
 10
43.8781758769
 20
-44.8768054117
 11
44.0013704652
 21
-45.0
  0
LINE
  5
37F
100
AcDbEntity
  8
ASSI
100
AcDbLine
 62
250
  6
CONTINUOUS
 10
43.8781758769
 20
-44.8768054117
 11
44.0013704652
 21
-45.0
  0
LINE
  5
380
100
AcDbEntity
  8
RACCORDO
100
AcDbLine
 62
250
  6
CONTINUOUS
 10
-44.8700585586
 20
43.8714290238
 11
-45.0
 21
44.0013704652
  0
LINE
  5
381
100
AcDbEntity
  8
ASSI
100
AcDbLine
 62
250
  6
CONTINUOUS
 10
-44.8700585586
 20
43.8714290238
 11
-45.0
 21
44.0013704652
  0
LINE
  5
382
100
AcDbEntity
  8
0
100
AcDbLine
 62
250
  6
CONTINUOUS
 10
-22.7449737716
 20
21.8460808361
 11
-22.6
 21
21.7010963722
  0
LINE
  5
383
100
AcDbEntity
  8
ASSI
100
AcDbLine
 62
250
  6
CONTINUOUS
 10
-22.7449737716
 20
21.8460808361
 11
-22.6
 21
21.7010963722
  0
LINE
  5
384
100
AcDbEntity
  8
0
100
AcDbLine
 62
250
  6
CONTINUOUS
 10
22.7449737709
 20
-21.8460811902
 11
22.6
 21
-21.7010963722
  0
LINE
  5
385
100
AcDbEntity
  8
ASSI
100
AcDbLine
 62
250
  6
CONTINUOUS
 10
22.7449737709
 20
-21.8460811902
 11
22.6
 21
-21.7010963722
  0
LINE
  5
386
100
AcDbEntity
  8
RACCORDO
100
AcDbLine
 62
250
  6
CONTINUOUS
 10
44.8700585586
 20
-43.8714290238
 11
45.0
 21
-44.0013704652
  0
LINE
  5
387
100
AcDbEntity
  8
ASSI
100
AcDbLine
 62
250
  6
CONTINUOUS
 10
44.8700585586
 20
-43.8714290238
 11
45.0
 21
-44.0013704652
  0
LINE
  5
388
100
AcDbEntity
  8
RACCORDO
100
AcDbLine
 62
250
  6
CONTINUOUS
 10
-43.8781758769
 20
44.8768054117
 11
-44.0013704652
 21
45.0
  0
LINE
  5
389
100
AcDbEntity
  8
ASSI
100
AcDbLine
 62
250
  6
CONTINUOUS
 10
-43.8781758769
 20
44.8768054117
 11
-44.0013704652
 21
45.0
  0
LINE
  5
38A
100
AcDbEntity
  8
0
100
AcDbLine
 62
250
  6
CONTINUOUS
 10
-16.455839
 20
25.901202
 11
-17.854637
 21
28.698798
  0
LINE
  5
38B
100
AcDbEntity
  8
0
100
AcDbLine
 62
7
  6
CONTINUOUS
 10
3.298408
 20
-28.877801
 11
2.43939
 21
-26.078098
  0
LINE
  5
38C
100
AcDbEntity
  8
ASSI
100
AcDbLine
 62
7
  6
CONTINUOUS
 10
3.298408
 20
-28.877801
 11
2.43939
 21
-26.078098
  0
LWPOLYLINE
  5
38D
100
AcDbEntity
  8
0
100
AcDbPolyline
 62
7
  6
CONTINUOUS
 90
8
 70
0
 10
4.9109609504
 20
-28.3034369377
 10
4.8992767245
 20
-28.2638731742
 10
4.8873360785
 20
-28.224417387
 10
4.8751387858
 20
-28.1850746239
 10
4.8624683839
 20
-28.1458293455
 10
4.8492527186
 20
-28.1066763769
 10
4.8355639441
 20
-28.0676209086
 10
4.8214020604
 20
-28.0286629486
  0
LWPOLYLINE
  5
38E
100
AcDbEntity
  8
ASSI
100
AcDbPolyline
 62
7
  6
CONTINUOUS
 90
8
 70
0
 10
4.9109609504
 20
-28.3034369377
 10
4.8992767245
 20
-28.2638731742
 10
4.8873360785
 20
-28.224417387
 10
4.8751387858
 20
-28.1850746239
 10
4.8624683839
 20
-28.1458293455
 10
4.8492527186
 20
-28.1066763769
 10
4.8355639441
 20
-28.0676209086
 10
4.8214020604
 20
-28.0286629486
  0
LINE
  5
38F
100
AcDbEntity
  8
0
100
AcDbLine
 62
7
  6
CONTINUOUS
 10
5.0770156219
 20
-28.8778013544
 11
4.9795527848
 21
-28.5437437064
  0
LINE
  5
390
100
AcDbEntity
  8
ASSI
100
AcDbLine
 62
7
  6
CONTINUOUS
 10
5.0770156219
 20
-28.8778013544
 11
4.9795527848
 21
-28.5437437064
  0
LWPOLYLINE
  5
391
100
AcDbEntity
  8
0
100
AcDbPolyline
 62
7
  6
CONTINUOUS
 90
4
 70
0
 10
4.9795527848
 20
-28.5437437064
 10
4.9564529854
 20
-28.4629991748
 10
4.945134547
 20
-28.4228948371
 10
4.9109609504
 20
-28.3034369377
  0
LWPOLYLINE
  5
392
100
AcDbEntity
  8
ASSI
100
AcDbPolyline
 62
7
  6
CONTINUOUS
 90
4
 70
0
 10
4.9795527848
 20
-28.5437437064
 10
4.9564529854
 20
-28.4629991748
 10
4.945134547
 20
-28.4228948371
 10
4.9109609504
 20
-28.3034369377
  0
LWPOLYLINE
  5
393
100
AcDbEntity
  8
0
100
AcDbPolyline
 62
7
  6
CONTINUOUS
 90
3
 70
0
 10
5.41631655
 20
-28.0356183039
 10
5.4280174139
 20
-28.0777725418
 10
5.4337495205
 20
-28.0989185791
  0
LWPOLYLINE
  5
394
100
AcDbEntity
  8
ASSI
100
AcDbPolyline
 62
7
  6
CONTINUOUS
 90
3
 70
0
 10
5.41631655
 20
-28.0356183039
 10
5.4280174139
 20
-28.0777725418
 10
5.4337495205
 20
-28.0989185791
  0
LINE
  5
395
100
AcDbEntity
  8
0
100
AcDbLine
 62
7
  6
CONTINUOUS
 10
2.682466
 20
-28.877801
 11
2.531074
 21
-28.318881
  0
LINE
  5
396
100
AcDbEntity
  8
ASSI
100
AcDbLine
 62
7
  6
CONTINUOUS
 10
2.682466
 20
-28.877801
 11
2.531074
 21
-28.318881
  0
LINE
  5
397
100
AcDbEntity
  8
0
100
AcDbLine
 62
7
  6
CONTINUOUS
 10
5.4337495205
 20
-28.0989185791
 11
5.5089497042
 21
-28.380931
  0
LINE
  5
398
100
AcDbEntity
  8
ASSI
100
AcDbLine
 62
7
  6
CONTINUOUS
 10
5.4337495205
 20
-28.0989185791
 11
5.5089497042
 21
-28.380931
  0
LINE
  5
399
100
AcDbEntity
  8
0
100
AcDbLine
 62
7
  6
CONTINUOUS
 10
5.5089497042
 20
-28.380931
 11
5.6391482119
 21
-28.8778013544
  0
LINE
  5
39A
100
AcDbEntity
  8
ASSI
100
AcDbLine
 62
7
  6
CONTINUOUS
 10
5.5089497042
 20
-28.380931
 11
5.6391482119
 21
-28.8778013544
  0
LINE
  5
39B
100
AcDbEntity
  8
0
100
AcDbLine
 62
7
  6
CONTINUOUS
 10
2.41428
 20
-27.886391
 11
2.145737
 21
-26.847385
  0
LINE
  5
39C
100
AcDbEntity
  8
ASSI
100
AcDbLine
 62
7
  6
CONTINUOUS
 10
2.41428
 20
-27.886391
 11
2.145737
 21
-26.847385
  0
LINE
  5
39D
100
AcDbEntity
  8
0
100
AcDbLine
 62
250
  6
CONTINUOUS
 10
-6.805798
 20
25.901202
 11
-7.493572
 21
28.698798
  0
LINE
  5
39E
100
AcDbEntity
  8
0
100
AcDbLine
 62
250
  6
CONTINUOUS
 10
-9.87498
 20
26.794052
 11
-9.91764
 21
26.972622
  0
LINE
  5
39F
100
AcDbEntity
  8
0
100
AcDbLine
 62
250
  6
CONTINUOUS
 10
-9.520072
 20
26.853575
 11
-9.562733
 21
27.032145
  0
LINE
  5
3A0
100
AcDbEntity
  8
0
100
AcDbLine
 62
250
  6
CONTINUOUS
 10
-9.813488
 20
28.163088
 11
-9.770827
 21
27.984518
  0
LINE
  5
3A1
100
AcDbEntity
  8
0
100
AcDbLine
 62
250
  6
CONTINUOUS
 10
-9.41592
 20
28.044042
 11
-9.45858
 21
28.222611
  0
LINE
  5
3A2
100
AcDbEntity
  8
0
100
AcDbLine
 62
250
  6
CONTINUOUS
 10
-7.326139
 20
26.615482
 11
-7.155498
 21
25.901202
  0
LINE
  5
3A3
100
AcDbEntity
  8
0
100
AcDbLine
 62
250
  6
CONTINUOUS
 10
-7.363592
 20
26.853575
 11
-7.747536
 21
28.460705
  0
LINE
  5
3A4
100
AcDbEntity
  8
0
100
AcDbLine
 62
250
  6
CONTINUOUS
 10
-5.869059
 20
26.615482
 11
-5.906511
 21
26.853575
  0
LWPOLYLINE
  5
3A5
100
AcDbEntity
  8
0
100
AcDbPolyline
 62
7
  6
CONTINUOUS
 90
19
 70
0
 10
4.9506521441
 20
-26.8887857336
 10
4.9491853585
 20
-26.8617065256
 10
4.9455687136
 20
-26.8347794202
 10
4.9398022094
 20
-26.8080044237
 10
4.9319440224
 20
-26.7812150231
 10
4.921935976
 20
-26.7545777399
 10
4.9096035409
 20
-26.7285921502
 10
4.894818864
 20
-26.7030715526
 10
4.8777097982
 20
-26.6782026907
 10
4.8584853734
 20
-26.6550453595
 10
4.8369200757
 20
-26.6338011652
 10
4.8132394188
 20
-26.614268608
 10
4.7883289744
 20
-26.596902865
 10
4.7622727654
 20
-26.5818761394
 10
4.7349867688
 20
-26.5690163241
 10
4.7071044868
 20
-26.5582621328
 10
4.6788370867
 20
-26.549593154
 10
4.6499734011
 20
-26.5430298533
 10
4.62051343
 20
-26.5385722489
  0
LWPOLYLINE
  5
3A6
100
AcDbEntity
  8
ASSI
100
AcDbPolyline
 62
7
  6
CONTINUOUS
 90
19
 70
0
 10
4.9506521441
 20
-26.8887857336
 10
4.9491853585
 20
-26.8617065256
 10
4.9455687136
 20
-26.8347794202
 10
4.9398022094
 20
-26.8080044237
 10
4.9319440224
 20
-26.7812150231
 10
4.921935976
 20
-26.7545777399
 10
4.9096035409
 20
-26.7285921502
 10
4.894818864
 20
-26.7030715526
 10
4.8777097982
 20
-26.6782026907
 10
4.8584853734
 20
-26.6550453595
 10
4.8369200757
 20
-26.6338011652
 10
4.8132394188
 20
-26.614268608
 10
4.7883289744
 20
-26.596902865
 10
4.7622727654
 20
-26.5818761394
 10
4.7349867688
 20
-26.5690163241
 10
4.7071044868
 20
-26.5582621328
 10
4.6788370867
 20
-26.549593154
 10
4.6499734011
 20
-26.5430298533
 10
4.62051343
 20
-26.5385722489
  0
LINE
  5
3A7
100
AcDbEntity
  8
0
100
AcDbLine
 62
7
  6
CONTINUOUS
 10
3.6000188023
 20
-28.8778013544
 11
3.6000188023
 21
-26.110807341
  0
LINE
  5
3A8
100
AcDbEntity
  8
ASSI
100
AcDbLine
 62
7
  6
CONTINUOUS
 10
3.6000188023
 20
-28.8778013544
 11
3.6000188023
 21
-26.110807341
  0
LINE
  5
3A9
100
AcDbEntity
  8
0
100
AcDbLine
 62
7
  6
CONTINUOUS
 10
4.1626972541
 20
-27.3236280866
 11
4.1626972541
 21
-26.5550547959
  0
LINE
  5
3AA
100
AcDbEntity
  8
ASSI
100
AcDbLine
 62
7
  6
CONTINUOUS
 10
4.1626972541
 20
-27.3236280866
 11
4.1626972541
 21
-26.5550547959
  0
LINE
  5
3AB
100
AcDbEntity
  8
0
100
AcDbLine
 62
7
  6
CONTINUOUS
 10
4.1820753449
 20
-28.8778013544
 11
4.1820753449
 21
-27.7821519248
  0
LINE
  5
3AC
100
AcDbEntity
  8
ASSI
100
AcDbLine
 62
7
  6
CONTINUOUS
 10
4.1820753449
 20
-28.8778013544
 11
4.1820753449
 21
-27.7821519248
  0
LINE
  5
3AD
100
AcDbEntity
  8
0
100
AcDbLine
 62
7
  6
CONTINUOUS
 10
5.1025031649
 20
-27.5709244369
 11
5.1025031649
 21
-27.554380628
  0
LINE
  5
3AE
100
AcDbEntity
  8
ASSI
100
AcDbLine
 62
7
  6
CONTINUOUS
 10
5.1025031649
 20
-27.5709244369
 11
5.1025031649
 21
-27.554380628
  0
LINE
  5
3AF
100
AcDbEntity
  8
0
100
AcDbLine
 62
250
  6
CONTINUOUS
 10
3.639527
 20
28.044042
 11
3.623904
 21
27.865471
  0
LINE
  5
3B0
100
AcDbEntity
  8
0
100
AcDbLine
 62
250
  6
CONTINUOUS
 10
3.989227
 20
28.044042
 11
3.968396
 21
27.805948
  0
LINE
  5
3B1
100
AcDbEntity
  8
0
100
AcDbLine
 62
250
  6
CONTINUOUS
 10
4.57106
 20
28.698798
 11
4.326302
 21
25.901202
  0
LINE
  5
3B2
100
AcDbEntity
  8
0
100
AcDbLine
 62
250
  6
CONTINUOUS
 10
4.676001
 20
25.901202
 11
4.920759
 21
28.698798
  0
LINE
  5
3B3
100
AcDbEntity
  8
0
100
AcDbLine
 62
250
  6
CONTINUOUS
 10
8.18462
 20
28.698798
 11
7.939862
 21
25.901202
  0
LINE
  5
3B4
100
AcDbEntity
  8
0
100
AcDbLine
 62
250
  6
CONTINUOUS
 10
8.320808
 20
26.258342
 11
8.53432
 21
28.698798
  0
LINE
  5
3B5
100
AcDbEntity
  8
0
100
AcDbLine
 62
7
  6
CONTINUOUS
 10
-4.465146
 20
-28.00522
 11
-3.915169
 21
-26.078098
  0
LINE
  5
3B6
100
AcDbEntity
  8
ASSI
100
AcDbLine
 62
7
  6
CONTINUOUS
 10
-4.465146
 20
-28.00522
 11
-3.915169
 21
-26.078098
  0
LINE
  5
3B7
100
AcDbEntity
  8
0
100
AcDbLine
 62
7
  6
CONTINUOUS
 10
-4.231097
 20
-28.877801
 11
-3.33116
 21
-26.078098
  0
LINE
  5
3B8
100
AcDbEntity
  8
ASSI
100
AcDbLine
 62
7
  6
CONTINUOUS
 10
-4.231097
 20
-28.877801
 11
-3.33116
 21
-26.078098
  0
LWPOLYLINE
  5
3B9
100
AcDbEntity
  8
RACCORDO
100
AcDbPolyline
 62
250
  6
CONTINUOUS
 90
12
 70
0
 10
-22.7475272282
 20
-22.4909531968
 10
-22.7206627899
 20
-22.4686674846
 10
-22.6955802882
 20
-22.4476344712
 10
-22.6724604615
 20
-22.4280057154
 10
-22.6514699056
 20
-22.409922657
 10
-22.6327598731
 20
-22.3935155981
 10
-22.616465184
 20
-22.3789027639
 10
-22.6027032538
 20
-22.3661894508
 10
-22.5915732475
 20
-22.3554672678
 10
-22.5831553653
 20
-22.3468134762
 10
-22.5775102643
 20
-22.3402904331
 10
-22.5746786217
 20
-22.335945142
  0
LWPOLYLINE
  5
3BA
100
AcDbEntity
  8
ASSI
100
AcDbPolyline
 62
250
  6
CONTINUOUS
 90
12
 70
0
 10
-22.7475272282
 20
-22.4909531968
 10
-22.7206627899
 20
-22.4686674846
 10
-22.6955802882
 20
-22.4476344712
 10
-22.6724604615
 20
-22.4280057154
 10
-22.6514699056
 20
-22.409922657
 10
-22.6327598731
 20
-22.3935155981
 10
-22.616465184
 20
-22.3789027639
 10
-22.6027032538
 20
-22.3661894508
 10
-22.5915732475
 20
-22.3554672678
 10
-22.5831553653
 20
-22.3468134762
 10
-22.5775102643
 20
-22.3402904331
 10
-22.5746786217
 20
-22.335945142
  0
LINE
  5
3BB
100
AcDbEntity
  8
RACCORDO
100
AcDbLine
 62
250
  6
CONTINUOUS
 10
-22.8058161556
 20
-22.5386325071
 11
-22.7475272282
 21
-22.4909531968
  0
LINE
  5
3BC
100
AcDbEntity
  8
ASSI
100
AcDbLine
 62
250
  6
CONTINUOUS
 10
-22.8058161556
 20
-22.5386325071
 11
-22.7475272282
 21
-22.4909531968
  0
LINE
  5
3BD
100
AcDbEntity
  8
RACCORDO
100
AcDbLine
 62
250
  6
CONTINUOUS
 10
-22.8687700344
 20
-22.5893006167
 11
-22.8058161556
 21
-22.5386325071
  0
LINE
  5
3BE
100
AcDbEntity
  8
ASSI
100
AcDbLine
 62
250
  6
CONTINUOUS
 10
-22.8687700344
 20
-22.5893006167
 11
-22.8058161556
 21
-22.5386325071
  0
LWPOLYLINE
  5
3BF
100
AcDbEntity
  8
RACCORDO
100
AcDbPolyline
 62
250
  6
CONTINUOUS
 90
3
 70
0
 10
-22.9679615935
 20
-22.6677046708
 10
-22.9345776132
 20
-22.6414997491
 10
-22.8687700344
 20
-22.5893006167
  0
LWPOLYLINE
  5
3C0
100
AcDbEntity
  8
ASSI
100
AcDbPolyline
 62
250
  6
CONTINUOUS
 90
3
 70
0
 10
-22.9679615935
 20
-22.6677046708
 10
-22.9345776132
 20
-22.6414997491
 10
-22.8687700344
 20
-22.5893006167
  0
LINE
  5
3C1
100
AcDbEntity
  8
RACCORDO
100
AcDbLine
 62
250
  6
CONTINUOUS
 10
-22.9679615937
 20
22.6677046126
 11
-22.9014340853
 21
22.6153020317
  0
LINE
  5
3C2
100
AcDbEntity
  8
ASSI
100
AcDbLine
 62
250
  6
CONTINUOUS
 10
-22.9679615937
 20
22.6677046126
 11
-22.9014340853
 21
22.6153020317
  0
LINE
  5
3C3
100
AcDbEntity
  8
RACCORDO
100
AcDbLine
 62
250
  6
CONTINUOUS
 10
-22.9014340853
 20
22.6153020317
 11
-22.8368204632
 21
22.5636823587
  0
LINE
  5
3C4
100
AcDbEntity
  8
ASSI
100
AcDbLine
 62
250
  6
CONTINUOUS
 10
-22.9014340853
 20
22.6153020317
 11
-22.8368204632
 21
22.5636823587
  0
LWPOLYLINE
  5
3C5
100
AcDbEntity
  8
RACCORDO
100
AcDbPolyline
 62
250
  6
CONTINUOUS
 90
14
 70
0
 10
-22.8368204632
 20
22.5636823587
 10
-22.7759797398
 20
22.5143307538
 10
-22.7475268796
 20
22.4909528815
 10
-22.7206623767
 20
22.4686671222
 10
-22.6955798109
 20
22.4476340624
 10
-22.6724599217
 20
22.4280052615
 10
-22.6514693062
 20
22.4099221605
 10
-22.6327592182
 20
22.3935150623
 10
-22.6164644786
 20
22.3789021927
 10
-22.6027025038
 20
22.3661888489
 10
-22.5915724596
 20
22.3554666405
 10
-22.5831545469
 20
22.3468128293
 10
-22.5775094232
 20
22.3402897727
 10
-22.5746777662
 20
22.3359444745
  0
LWPOLYLINE
  5
3C6
100
AcDbEntity
  8
ASSI
100
AcDbPolyline
 62
250
  6
CONTINUOUS
 90
14
 70
0
 10
-22.8368204632
 20
22.5636823587
 10
-22.7759797398
 20
22.5143307538
 10
-22.7475268796
 20
22.4909528815
 10
-22.7206623767
 20
22.4686671222
 10
-22.6955798109
 20
22.4476340624
 10
-22.6724599217
 20
22.4280052615
 10
-22.6514693062
 20
22.4099221605
 10
-22.6327592182
 20
22.3935150623
 10
-22.6164644786
 20
22.3789021927
 10
-22.6027025038
 20
22.3661888489
 10
-22.5915724596
 20
22.3554666405
 10
-22.5831545469
 20
22.3468128293
 10
-22.5775094232
 20
22.3402897727
 10
-22.5746777662
 20
22.3359444745
  0
LINE
  5
3C7
100
AcDbEntity
  8
0
100
AcDbLine
 62
250
  6
CONTINUOUS
 10
-9.562733
 20
27.032145
 11
-9.716752
 21
27.270238
  0
LINE
  5
3C8
100
AcDbEntity
  8
0
100
AcDbLine
 62
250
  6
CONTINUOUS
 10
-6.223965
 20
26.555959
 11
-6.128229
 21
26.317865
  0
LINE
  5
3C9
100
AcDbEntity
  8
0
100
AcDbLine
 62
250
  6
CONTINUOUS
 10
-4.276579
 20
28.163088
 11
-4.233919
 21
27.984518
  0
LINE
  5
3CA
100
AcDbEntity
  8
0
100
AcDbLine
 62
250
  6
CONTINUOUS
 10
10.038059
 20
25.901202
 11
10.069305
 21
26.258342
  0
LINE
  5
3CB
100
AcDbEntity
  8
0
100
AcDbLine
 62
7
  6
CONTINUOUS
 10
1.854751
 20
-27.886391
 11
2.145737
 21
-26.847385
  0
LINE
  5
3CC
100
AcDbEntity
  8
ASSI
100
AcDbLine
 62
7
  6
CONTINUOUS
 10
1.854751
 20
-27.886391
 11
2.145737
 21
-26.847385
  0
LINE
  5
3CD
100
AcDbEntity
  8
0
100
AcDbLine
 62
7
  6
CONTINUOUS
 10
1.573947
 20
-28.877801
 11
1.735207
 21
-28.318881
  0
LINE
  5
3CE
100
AcDbEntity
  8
ASSI
100
AcDbLine
 62
7
  6
CONTINUOUS
 10
1.573947
 20
-28.877801
 11
1.735207
 21
-28.318881
  0
LINE
  5
3CF
100
AcDbEntity
  8
0
100
AcDbLine
 62
7
  6
CONTINUOUS
 10
0.99588
 20
-28.877801
 11
1.874045
 21
-26.078098
  0
LINE
  5
3D0
100
AcDbEntity
  8
ASSI
100
AcDbLine
 62
7
  6
CONTINUOUS
 10
0.99588
 20
-28.877801
 11
1.874045
 21
-26.078098
  0
LINE
  5
3D1
100
AcDbEntity
  8
0
100
AcDbLine
 62
7
  6
CONTINUOUS
 10
-0.730314
 20
-27.632502
 11
-0.145906
 21
-26.078098
  0
LINE
  5
3D2
100
AcDbEntity
  8
ASSI
100
AcDbLine
 62
7
  6
CONTINUOUS
 10
-0.730314
 20
-27.632502
 11
-0.145906
 21
-26.078098
  0
LINE
  5
3D3
100
AcDbEntity
  8
0
100
AcDbLine
 62
7
  6
CONTINUOUS
 10
-0.692524
 20
-28.877801
 11
0.002337
 21
-27.057269
  0
LINE
  5
3D4
100
AcDbEntity
  8
ASSI
100
AcDbLine
 62
7
  6
CONTINUOUS
 10
-0.692524
 20
-28.877801
 11
0.002337
 21
-27.057269
  0
LINE
  5
3D5
100
AcDbEntity
  8
0
100
AcDbLine
 62
250
  6
CONTINUOUS
 10
-9.91764
 20
26.972622
 11
-10.023791
 21
27.091668
  0
LINE
  5
3D6
100
AcDbEntity
  8
0
100
AcDbLine
 62
250
  6
CONTINUOUS
 10
-9.919639
 20
28.282135
 11
-9.813488
 21
28.163088
  0
LINE
  5
3D7
100
AcDbEntity
  8
0
100
AcDbLine
 62
250
  6
CONTINUOUS
 10
-6.128229
 20
26.317865
 11
-5.915927
 21
26.079772
  0
LINE
  5
3D8
100
AcDbEntity
  8
0
100
AcDbLine
 62
250
  6
CONTINUOUS
 10
-9.45858
 20
28.222611
 11
-9.6126
 21
28.460705
  0
LINE
  5
3D9
100
AcDbEntity
  8
0
100
AcDbLine
 62
250
  6
CONTINUOUS
 10
-5.768115
 20
26.436912
 11
-5.869059
 21
26.615482
  0
LINE
  5
3DA
100
AcDbEntity
  8
0
100
AcDbLine
 62
250
  6
CONTINUOUS
 10
3.455262
 20
27.270238
 11
3.860036
 21
25.901202
  0
LINE
  5
3DB
100
AcDbEntity
  8
0
100
AcDbLine
 62
250
  6
CONTINUOUS
 10
3.452053
 20
25.901202
 11
3.095147
 21
27.151192
  0
LINE
  5
3DC
100
AcDbEntity
  8
0
100
AcDbLine
 62
250
  6
CONTINUOUS
 10
3.596866
 20
28.222611
 11
3.639527
 21
28.044042
  0
LINE
  5
3DD
100
AcDbEntity
  8
0
100
AcDbLine
 62
250
  6
CONTINUOUS
 10
3.946566
 20
28.222611
 11
3.989227
 21
28.044042
  0
LINE
  5
3DE
100
AcDbEntity
  8
0
100
AcDbLine
 62
250
  6
CONTINUOUS
 10
6.953255
 20
26.615482
 11
7.123897
 21
25.901202
  0
LINE
  5
3DF
100
AcDbEntity
  8
0
100
AcDbLine
 62
250
  6
CONTINUOUS
 10
6.915803
 20
26.853575
 11
6.53186
 21
28.460705
  0
LINE
  5
3E0
100
AcDbEntity
  8
0
100
AcDbLine
 62
250
  6
CONTINUOUS
 10
-9.716752
 20
27.270238
 11
-9.828111
 21
27.329762
  0
LINE
  5
3E1
100
AcDbEntity
  8
0
100
AcDbLine
 62
250
  6
CONTINUOUS
 10
-5.60368
 20
26.317865
 11
-5.768115
 21
26.436912
  0
LINE
  5
3E2
100
AcDbEntity
  8
0
100
AcDbLine
 62
250
  6
CONTINUOUS
 10
-9.6126
 20
28.460705
 11
-9.83011
 21
28.639275
  0
LINE
  5
3E3
100
AcDbEntity
  8
0
100
AcDbLine
 62
250
  6
CONTINUOUS
 10
-3.916464
 20
28.282135
 11
-4.128767
 21
28.520228
  0
LINE
  5
3E4
100
AcDbEntity
  8
0
100
AcDbLine
 62
250
  6
CONTINUOUS
 10
3.792546
 20
28.460705
 11
3.946566
 21
28.222611
  0
LINE
  5
3E5
100
AcDbEntity
  8
0
100
AcDbLine
 62
250
  6
CONTINUOUS
 10
7.473597
 20
25.901202
 11
6.785822
 21
28.698798
  0
LINE
  5
3E6
100
AcDbEntity
  8
RACCORDO
100
AcDbLine
 62
250
  6
CONTINUOUS
 10
22.7449737296
 20
21.8461028089
 11
22.7604384533
 21
14.5669361326
  0
LINE
  5
3E7
100
AcDbEntity
  8
ASSI
100
AcDbLine
 62
250
  6
CONTINUOUS
 10
22.7449737296
 20
21.8461028089
 11
22.7604384533
 21
14.5669361326
  0
LINE
  5
3E8
100
AcDbEntity
  8
RACCORDO
100
AcDbLine
 62
250
  6
CONTINUOUS
 10
23.2442885593
 20
21.8703705759
 11
23.2597532489
 21
14.5834397224
  0
LINE
  5
3E9
100
AcDbEntity
  8
ASSI
100
AcDbLine
 62
250
  6
CONTINUOUS
 10
23.2442885593
 20
21.8703705759
 11
23.2597532489
 21
14.5834397224
  0
LINE
  5
3EA
100
AcDbEntity
  8
RACCORDO
100
AcDbLine
 62
250
  6
CONTINUOUS
 10
22.7604384533
 20
14.5669361326
 11
22.7697179896
 21
7.284661208
  0
LINE
  5
3EB
100
AcDbEntity
  8
ASSI
100
AcDbLine
 62
250
  6
CONTINUOUS
 10
22.7604384533
 20
14.5669361326
 11
22.7697179896
 21
7.284661208
  0
LINE
  5
3EC
100
AcDbEntity
  8
RACCORDO
100
AcDbLine
 62
250
  6
CONTINUOUS
 10
23.2597532489
 20
14.5834397224
 11
23.2690327639
 21
7.2926778579
  0
LINE
  5
3ED
100
AcDbEntity
  8
ASSI
100
AcDbLine
 62
250
  6
CONTINUOUS
 10
23.2597532489
 20
14.5834397224
 11
23.2690327639
 21
7.2926778579
  0
LINE
  5
3EE
100
AcDbEntity
  8
RACCORDO
100
AcDbLine
 62
250
  6
CONTINUOUS
 10
22.7697179896
 20
7.284661208
 11
22.7728118795
 21
-0.0000046698
  0
LINE
  5
3EF
100
AcDbEntity
  8
ASSI
100
AcDbLine
 62
250
  6
CONTINUOUS
 10
22.7697179896
 20
7.284661208
 11
22.7728118795
 21
-0.0000046698
  0
LINE
  5
3F0
100
AcDbEntity
  8
RACCORDO
100
AcDbLine
 62
250
  6
CONTINUOUS
 10
23.2690327639
 20
7.2926778579
 11
23.2721266469
 21
0.0000000529
  0
LINE
  5
3F1
100
AcDbEntity
  8
ASSI
100
AcDbLine
 62
250
  6
CONTINUOUS
 10
23.2690327639
 20
7.2926778579
 11
23.2721266469
 21
0.0000000529
  0
LINE
  5
3F2
100
AcDbEntity
  8
RACCORDO
100
AcDbLine
 62
250
  6
CONTINUOUS
 10
21.9426456448
 20
23.1675430277
 11
21.9426456448
 21
22.6415492726
  0
LINE
  5
3F3
100
AcDbEntity
  8
ASSI
100
AcDbLine
 62
250
  6
CONTINUOUS
 10
21.9426456448
 20
23.1675430277
 11
21.9426456448
 21
22.6415492726
  0
LINE
  5
3F4
100
AcDbEntity
  8
RACCORDO
100
AcDbLine
 62
250
  6
CONTINUOUS
 10
21.9426456448
 20
-23.1675430277
 11
21.9426456448
 21
-22.6415492726
  0
LINE
  5
3F5
100
AcDbEntity
  8
ASSI
100
AcDbLine
 62
250
  6
CONTINUOUS
 10
21.9426456448
 20
-23.1675430277
 11
21.9426456448
 21
-22.6415492726
  0
LINE
  5
3F6
100
AcDbEntity
  8
0
100
AcDbLine
 62
7
  6
CONTINUOUS
 10
22.6
 20
21.7010963722
 11
22.6
 21
-21.7010963722
  0
LINE
  5
3F7
100
AcDbEntity
  8
ASSI
100
AcDbLine
 62
7
  6
CONTINUOUS
 10
22.6
 20
21.7010963722
 11
22.6
 21
-21.7010963722
  0
LINE
  5
3F8
100
AcDbEntity
  8
RACCORDO
100
AcDbLine
 62
250
  6
CONTINUOUS
 10
22.7728118795
 20
-0.0000046698
 11
22.7697179771
 21
-7.2846727906
  0
LINE
  5
3F9
100
AcDbEntity
  8
ASSI
100
AcDbLine
 62
250
  6
CONTINUOUS
 10
22.7728118795
 20
-0.0000046698
 11
22.7697179771
 21
-7.2846727906
  0
LINE
  5
3FA
100
AcDbEntity
  8
RACCORDO
100
AcDbLine
 62
250
  6
CONTINUOUS
 10
23.2721266469
 20
0.0000000529
 11
23.2690327641
 21
-7.292677762
  0
LINE
  5
3FB
100
AcDbEntity
  8
ASSI
100
AcDbLine
 62
250
  6
CONTINUOUS
 10
23.2721266469
 20
0.0000000529
 11
23.2690327641
 21
-7.292677762
  0
LINE
  5
3FC
100
AcDbEntity
  8
RACCORDO
100
AcDbLine
 62
250
  6
CONTINUOUS
 10
22.7697179771
 20
-7.2846727906
 11
22.7604384522
 21
-14.5669385324
  0
LINE
  5
3FD
100
AcDbEntity
  8
ASSI
100
AcDbLine
 62
250
  6
CONTINUOUS
 10
22.7697179771
 20
-7.2846727906
 11
22.7604384522
 21
-14.5669385324
  0
LINE
  5
3FE
100
AcDbEntity
  8
RACCORDO
100
AcDbLine
 62
250
  6
CONTINUOUS
 10
23.2690327641
 20
-7.292677762
 11
23.2597532492
 21
-14.5834396614
  0
LINE
  5
3FF
100
AcDbEntity
  8
ASSI
100
AcDbLine
 62
250
  6
CONTINUOUS
 10
23.2690327641
 20
-7.292677762
 11
23.2597532492
 21
-14.5834396614
  0
LINE
  5
400
100
AcDbEntity
  8
RACCORDO
100
AcDbLine
 62
250
  6
CONTINUOUS
 10
22.7604384522
 20
-14.5669385324
 11
22.7449737709
 21
-21.8460811902
  0
LINE
  5
401
100
AcDbEntity
  8
ASSI
100
AcDbLine
 62
250
  6
CONTINUOUS
 10
22.7604384522
 20
-14.5669385324
 11
22.7449737709
 21
-21.8460811902
  0
LINE
  5
402
100
AcDbEntity
  8
RACCORDO
100
AcDbLine
 62
250
  6
CONTINUOUS
 10
23.2597532492
 20
-14.5834396614
 11
23.2442885593
 21
-21.8703705759
  0
LINE
  5
403
100
AcDbEntity
  8
ASSI
100
AcDbLine
 62
250
  6
CONTINUOUS
 10
23.2597532492
 20
-14.5834396614
 11
23.2442885593
 21
-21.8703705759
  0
LWPOLYLINE
  5
404
100
AcDbEntity
  8
RACCORDO
100
AcDbPolyline
 62
250
  6
CONTINUOUS
 90
13
 70
0
 10
23.2442885593
 20
-21.8703705759
 10
23.242416098
 20
-21.9398660133
 10
23.2366066457
 20
-22.0094305253
 10
23.2268602025
 20
-22.0790641089
 10
23.2131656193
 20
-22.1491408256
 10
23.1955340452
 20
-22.2192866015
 10
23.1739989273
 20
-22.2883792558
 10
23.1483832336
 20
-22.3564474246
 10
23.1188639962
 20
-22.423462516
 10
23.0860057591
 20
-22.4882165587
 10
23.0499967036
 20
-22.5503069386
 10
23.0106486485
 20
-22.6101363689
 10
22.9679615936
 20
-22.6677048937
  0
LWPOLYLINE
  5
405
100
AcDbEntity
  8
ASSI
100
AcDbPolyline
 62
250
  6
CONTINUOUS
 90
13
 70
0
 10
23.2442885593
 20
-21.8703705759
 10
23.242416098
 20
-21.9398660133
 10
23.2366066457
 20
-22.0094305253
 10
23.2268602025
 20
-22.0790641089
 10
23.2131656193
 20
-22.1491408256
 10
23.1955340452
 20
-22.2192866015
 10
23.1739989273
 20
-22.2883792558
 10
23.1483832336
 20
-22.3564474246
 10
23.1188639962
 20
-22.423462516
 10
23.0860057591
 20
-22.4882165587
 10
23.0499967036
 20
-22.5503069386
 10
23.0106486485
 20
-22.6101363689
 10
22.9679615936
 20
-22.6677048937
  0
LWPOLYLINE
  5
406
100
AcDbEntity
  8
RACCORDO
100
AcDbPolyline
 62
250
  6
CONTINUOUS
 90
13
 70
0
 10
22.7449737609
 20
-21.8460811803
 10
22.7437327786
 20
-21.8886052515
 10
22.7401732154
 20
-21.9314217759
 10
22.7342368259
 20
-21.9744014273
 10
22.7258535437
 20
-22.0174924277
 10
22.7149890592
 20
-22.0604655599
 10
22.7016918617
 20
-22.1029260611
 10
22.6859600455
 20
-22.1447721932
 10
22.667828174
 20
-22.1858230987
 10
22.6475126767
 20
-22.2256008643
 10
22.625177045
 20
-22.2638885872
 10
22.6008655087
 20
-22.3007017748
 10
22.5746817863
 20
-22.3359476087
  0
LWPOLYLINE
  5
407
100
AcDbEntity
  8
ASSI
100
AcDbPolyline
 62
250
  6
CONTINUOUS
 90
13
 70
0
 10
22.7449737609
 20
-21.8460811803
 10
22.7437327786
 20
-21.8886052515
 10
22.7401732154
 20
-21.9314217759
 10
22.7342368259
 20
-21.9744014273
 10
22.7258535437
 20
-22.0174924277
 10
22.7149890592
 20
-22.0604655599
 10
22.7016918617
 20
-22.1029260611
 10
22.6859600455
 20
-22.1447721932
 10
22.667828174
 20
-22.1858230987
 10
22.6475126767
 20
-22.2256008643
 10
22.625177045
 20
-22.2638885872
 10
22.6008655087
 20
-22.3007017748
 10
22.5746817863
 20
-22.3359476087
  0
LWPOLYLINE
  5
408
100
AcDbEntity
  8
0
100
AcDbPolyline
 62
7
  6
CONTINUOUS
 90
10
 70
0
 10
5.2202147259
 20
-27.4802743772
 10
5.1966671108
 20
-27.5003524399
 10
5.1853432928
 20
-27.5097913352
 10
5.174053773
 20
-27.5186515497
 10
5.1628708591
 20
-27.5270682465
 10
5.1517222435
 20
-27.5349062756
 10
5.1401563262
 20
-27.541611893
 10
5.1280225741
 20
-27.5470005267
 10
5.1154715203
 20
-27.5512567694
 10
5.1025031649
 20
-27.554380628
  0
LWPOLYLINE
  5
409
100
AcDbEntity
  8
ASSI
100
AcDbPolyline
 62
7
  6
CONTINUOUS
 90
10
 70
0
 10
5.2202147259
 20
-27.4802743772
 10
5.1966671108
 20
-27.5003524399
 10
5.1853432928
 20
-27.5097913352
 10
5.174053773
 20
-27.5186515497
 10
5.1628708591
 20
-27.5270682465
 10
5.1517222435
 20
-27.5349062756
 10
5.1401563262
 20
-27.541611893
 10
5.1280225741
 20
-27.5470005267
 10
5.1154715203
 20
-27.5512567694
 10
5.1025031649
 20
-27.554380628
  0
LWPOLYLINE
  5
40A
100
AcDbEntity
  8
RACCORDO
100
AcDbPolyline
 62
250
  6
CONTINUOUS
 90
16
 70
0
 10
23.119093969
 20
21.8692779856
 10
23.0787508969
 20
21.8685789918
 10
23.0395852216
 20
21.8677199025
 10
23.0018755116
 20
21.8667068282
 10
22.9658899793
 20
21.8655469743
 10
22.9318845742
 20
21.8642485904
 10
22.9001011618
 20
21.8628209112
 10
22.8707658036
 20
21.8612740914
 10
22.844087149
 20
21.8596191327
 10
22.8202549518
 20
21.8578678061
 10
22.7994387199
 20
21.856032568
 10
22.78178651
 20
21.8541264717
 10
22.7674238746
 20
21.8521630745
 10
22.7564529687
 20
21.850156341
 10
22.7489518238
 20
21.8481205443
 10
22.744973792
 20
21.8460701642
  0
LWPOLYLINE
  5
40B
100
AcDbEntity
  8
ASSI
100
AcDbPolyline
 62
250
  6
CONTINUOUS
 90
16
 70
0
 10
23.119093969
 20
21.8692779856
 10
23.0787508969
 20
21.8685789918
 10
23.0395852216
 20
21.8677199025
 10
23.0018755116
 20
21.8667068282
 10
22.9658899793
 20
21.8655469743
 10
22.9318845742
 20
21.8642485904
 10
22.9001011618
 20
21.8628209112
 10
22.8707658036
 20
21.8612740914
 10
22.844087149
 20
21.8596191327
 10
22.8202549518
 20
21.8578678061
 10
22.7994387199
 20
21.856032568
 10
22.78178651
 20
21.8541264717
 10
22.7674238746
 20
21.8521630745
 10
22.7564529687
 20
21.850156341
 10
22.7489518238
 20
21.8481205443
 10
22.744973792
 20
21.8460701642
  0
LWPOLYLINE
  5
40C
100
AcDbEntity
  8
RACCORDO
100
AcDbPolyline
 62
250
  6
CONTINUOUS
 90
17
 70
0
 10
-44.4931469952
 20
22.667357485
 10
-44.5178871764
 20
22.6670254536
 10
-44.5420930804
 20
22.6665907705
 10
-44.5655925401
 20
22.6660565274
 10
-44.5882184131
 20
22.6654265242
 10
-44.6098097706
 20
22.6647052419
 10
-44.6302130418
 20
22.6638978107
 10
-44.6492831063
 20
22.6630099734
 10
-44.6668843261
 20
22.6620480449
 10
-44.6828915109
 20
22.6610188671
 10
-44.6971908078
 20
22.65992976
 10
-44.7096805115
 20
22.6587884702
 10
-44.7202717878
 20
22.657603115
 10
-44.7288893051
 20
22.6563821255
 10
-44.7354717704
 20
22.6551341861
 10
-44.7399723652
 20
22.6538681728
 10
-44.7423590785
 20
22.6525930904
  0
LWPOLYLINE
  5
40D
100
AcDbEntity
  8
ASSI
100
AcDbPolyline
 62
250
  6
CONTINUOUS
 90
17
 70
0
 10
-44.4931469952
 20
22.667357485
 10
-44.5178871764
 20
22.6670254536
 10
-44.5420930804
 20
22.6665907705
 10
-44.5655925401
 20
22.6660565274
 10
-44.5882184131
 20
22.6654265242
 10
-44.6098097706
 20
22.6647052419
 10
-44.6302130418
 20
22.6638978107
 10
-44.6492831063
 20
22.6630099734
 10
-44.6668843261
 20
22.6620480449
 10
-44.6828915109
 20
22.6610188671
 10
-44.6971908078
 20
22.65992976
 10
-44.7096805115
 20
22.6587884702
 10
-44.7202717878
 20
22.657603115
 10
-44.7288893051
 20
22.6563821255
 10
-44.7354717704
 20
22.6551341861
 10
-44.7399723652
 20
22.6538681728
 10
-44.7423590785
 20
22.6525930904
  0
LINE
  5
40E
100
AcDbEntity
  8
RACCORDO
100
AcDbLine
 62
250
  6
CONTINUOUS
 10
-44.4427702181
 20
22.6677048931
 11
-44.4931469952
 21
22.667357485
  0
LINE
  5
40F
100
AcDbEntity
  8
ASSI
100
AcDbLine
 62
250
  6
CONTINUOUS
 10
-44.4427702181
 20
22.6677048931
 11
-44.4931469952
 21
22.667357485
  0
LWPOLYLINE
  5
410
100
AcDbEntity
  8
RACCORDO
100
AcDbPolyline
 62
250
  6
CONTINUOUS
 90
3
 70
0
 10
23.2442885593
 20
21.8703705753
 10
23.2021581999
 20
21.8701769744
 10
23.119093969
 20
21.8692779856
  0
LWPOLYLINE
  5
411
100
AcDbEntity
  8
ASSI
100
AcDbPolyline
 62
250
  6
CONTINUOUS
 90
3
 70
0
 10
23.2442885593
 20
21.8703705753
 10
23.2021581999
 20
21.8701769744
 10
23.119093969
 20
21.8692779856
  0
LINE
  5
412
100
AcDbEntity
  8
0
100
AcDbLine
 62
7
  6
CONTINUOUS
 10
-21.8010963722
 20
22.5
 11
21.8010963722
 21
22.5
  0
LINE
  5
413
100
AcDbEntity
  8
ASSI
100
AcDbLine
 62
7
  6
CONTINUOUS
 10
-21.8010963722
 20
22.5
 11
21.8010963722
 21
22.5
  0
LINE
  5
414
100
AcDbEntity
  8
RACCORDO
100
AcDbLine
 62
250
  6
CONTINUOUS
 10
-21.9426840308
 20
22.6415492726
 11
21.9426540141
 21
22.6415492726
  0
LINE
  5
415
100
AcDbEntity
  8
ASSI
100
AcDbLine
 62
250
  6
CONTINUOUS
 10
-21.9426840308
 20
22.6415492726
 11
21.9426540141
 21
22.6415492726
  0
LINE
  5
416
100
AcDbEntity
  8
RACCORDO
100
AcDbLine
 62
250
  6
CONTINUOUS
 10
-44.4427701042
 20
22.6676474049
 11
-22.9679615936
 21
22.6677048937
  0
LINE
  5
417
100
AcDbEntity
  8
ASSI
100
AcDbLine
 62
250
  6
CONTINUOUS
 10
-44.4427701042
 20
22.6676474049
 11
-22.9679615936
 21
22.6677048937
  0
LINE
  5
418
100
AcDbEntity
  8
RACCORDO
100
AcDbLine
 62
250
  6
CONTINUOUS
 10
22.9679615936
 20
22.6677048937
 11
44.4427701039
 21
22.667647257
  0
LINE
  5
419
100
AcDbEntity
  8
ASSI
100
AcDbLine
 62
250
  6
CONTINUOUS
 10
22.9679615936
 20
22.6677048937
 11
44.4427701039
 21
22.667647257
  0
LINE
  5
41A
100
AcDbEntity
  8
RACCORDO
100
AcDbLine
 62
250
  6
CONTINUOUS
 10
-21.9426456448
 20
23.1675430277
 11
21.9426456448
 21
23.1675430277
  0
LINE
  5
41B
100
AcDbEntity
  8
ASSI
100
AcDbLine
 62
250
  6
CONTINUOUS
 10
-21.9426456448
 20
23.1675430277
 11
21.9426456448
 21
23.1675430277
  0
LINE
  5
41C
100
AcDbEntity
  8
0
100
AcDbLine
 62
250
  6
CONTINUOUS
 10
-24.09927
 20
25.301717
 11
-22.40073
 21
25.301717
  0
LINE
  5
41D
100
AcDbEntity
  8
0
100
AcDbLine
 62
250
  6
CONTINUOUS
 10
-23.999356
 20
25.401631
 11
-22.500644
 21
25.401631
  0
LINE
  5
41E
100
AcDbEntity
  8
0
100
AcDbLine
 62
250
  6
CONTINUOUS
 10
-23.899442
 20
25.501546
 11
-22.600558
 21
25.501546
  0
LINE
  5
41F
100
AcDbEntity
  8
0
100
AcDbLine
 62
250
  6
CONTINUOUS
 10
-11.759874
 20
25.901202
 11
-10.361076
 21
25.901202
  0
LINE
  5
420
100
AcDbEntity
  8
0
100
AcDbLine
 62
250
  6
CONTINUOUS
 10
-9.137128
 20
25.901202
 11
-8.787429
 21
25.901202
  0
LINE
  5
421
100
AcDbEntity
  8
0
100
AcDbLine
 62
250
  6
CONTINUOUS
 10
-7.155498
 20
25.901202
 11
-6.805798
 21
25.901202
  0
LINE
  5
422
100
AcDbEntity
  8
0
100
AcDbLine
 62
250
  6
CONTINUOUS
 10
-5.407001
 20
25.901202
 11
-4.882451
 21
25.901202
  0
LINE
  5
423
100
AcDbEntity
  8
0
100
AcDbLine
 62
250
  6
CONTINUOUS
 10
3.860036
 20
25.901202
 11
3.452053
 21
25.901202
  0
LINE
  5
424
100
AcDbEntity
  8
0
100
AcDbLine
 62
250
  6
CONTINUOUS
 10
-2.667688
 20
25.901202
 11
-2.317988
 21
25.901202
  0
LINE
  5
425
100
AcDbEntity
  8
0
100
AcDbLine
 62
250
  6
CONTINUOUS
 10
1.994971
 20
25.901202
 11
1.645272
 21
25.901202
  0
LINE
  5
426
100
AcDbEntity
  8
0
100
AcDbLine
 62
250
  6
CONTINUOUS
 10
-0.919191
 20
25.901202
 11
1.179006
 21
25.901202
  0
LINE
  5
427
100
AcDbEntity
  8
0
100
AcDbLine
 62
250
  6
CONTINUOUS
 10
4.326302
 20
25.901202
 11
4.676001
 21
25.901202
  0
LINE
  5
428
100
AcDbEntity
  8
0
100
AcDbLine
 62
250
  6
CONTINUOUS
 10
5.142267
 20
25.901202
 11
5.491966
 21
25.901202
  0
LINE
  5
429
100
AcDbEntity
  8
0
100
AcDbLine
 62
250
  6
CONTINUOUS
 10
7.123897
 20
25.901202
 11
7.473597
 21
25.901202
  0
LINE
  5
42A
100
AcDbEntity
  8
0
100
AcDbLine
 62
250
  6
CONTINUOUS
 10
7.939862
 20
25.901202
 11
10.038059
 21
25.901202
  0
LWPOLYLINE
  5
42B
100
AcDbEntity
  8
RACCORDO
100
AcDbPolyline
 62
250
  6
CONTINUOUS
 90
18
 70
0
 10
-23.2442885593
 20
21.8703704037
 10
-23.1603272194
 20
21.869811781
 10
-23.1190935132
 20
21.8692778725
 10
-23.0787502401
 20
21.8685788954
 10
-23.0395843477
 20
21.8677198214
 10
-23.0018744094
 20
21.8667067608
 10
-22.9658886428
 20
21.8655469191
 10
-22.9318830023
 20
21.8642485459
 10
-22.9000993581
 20
21.8628208761
 10
-22.8707637762
 20
21.8612740642
 10
-22.8440849105
 20
21.8596191121
 10
-22.8202525184
 20
21.8578677909
 10
-22.7994361115
 20
21.8560325572
 10
-22.7817837497
 20
21.8541264643
 10
-22.767420988
 20
21.8521630697
 10
-22.7564499838
 20
21.8501563382
 10
-22.74894877
 20
21.8481205431
 10
-22.7449707002
 20
21.8460701642
  0
LWPOLYLINE
  5
42C
100
AcDbEntity
  8
ASSI
100
AcDbPolyline
 62
250
  6
CONTINUOUS
 90
18
 70
0
 10
-23.2442885593
 20
21.8703704037
 10
-23.1603272194
 20
21.869811781
 10
-23.1190935132
 20
21.8692778725
 10
-23.0787502401
 20
21.8685788954
 10
-23.0395843477
 20
21.8677198214
 10
-23.0018744094
 20
21.8667067608
 10
-22.9658886428
 20
21.8655469191
 10
-22.9318830023
 20
21.8642485459
 10
-22.9000993581
 20
21.8628208761
 10
-22.8707637762
 20
21.8612740642
 10
-22.8440849105
 20
21.8596191121
 10
-22.8202525184
 20
21.8578677909
 10
-22.7994361115
 20
21.8560325572
 10
-22.7817837497
 20
21.8541264643
 10
-22.767420988
 20
21.8521630697
 10
-22.7564499838
 20
21.8501563382
 10
-22.74894877
 20
21.8481205431
 10
-22.7449707002
 20
21.8460701642
  0
LWPOLYLINE
  5
42D
100
AcDbEntity
  8
RACCORDO
100
AcDbPolyline
 62
250
  6
CONTINUOUS
 90
18
 70
0
 10
44.4427702181
 20
22.6677048929
 10
44.4931469947
 20
22.6673574847
 10
44.5178871757
 20
22.6670254534
 10
44.5420930795
 20
22.6665907703
 10
44.565592539
 20
22.6660565272
 10
44.5882184119
 20
22.6654265241
 10
44.6098097693
 20
22.6647052418
 10
44.6302130404
 20
22.6638978105
 10
44.6492831048
 20
22.6630099732
 10
44.6668843246
 20
22.6620480448
 10
44.6828915094
 20
22.661018867
 10
44.6971908064
 20
22.65992976
 10
44.7096805103
 20
22.6587884701
 10
44.7202717867
 20
22.6576031149
 10
44.7288893042
 20
22.6563821254
 10
44.7354717697
 20
22.655134186
 10
44.7399723648
 20
22.6538681728
 10
44.7423590785
 20
22.6525930904
  0
LWPOLYLINE
  5
42E
100
AcDbEntity
  8
ASSI
100
AcDbPolyline
 62
250
  6
CONTINUOUS
 90
18
 70
0
 10
44.4427702181
 20
22.6677048929
 10
44.4931469947
 20
22.6673574847
 10
44.5178871757
 20
22.6670254534
 10
44.5420930795
 20
22.6665907703
 10
44.565592539
 20
22.6660565272
 10
44.5882184119
 20
22.6654265241
 10
44.6098097693
 20
22.6647052418
 10
44.6302130404
 20
22.6638978105
 10
44.6492831048
 20
22.6630099732
 10
44.6668843246
 20
22.6620480448
 10
44.6828915094
 20
22.661018867
 10
44.6971908064
 20
22.65992976
 10
44.7096805103
 20
22.6587884701
 10
44.7202717867
 20
22.6576031149
 10
44.7288893042
 20
22.6563821254
 10
44.7354717697
 20
22.655134186
 10
44.7399723648
 20
22.6538681728
 10
44.7423590785
 20
22.6525930904
  0
LWPOLYLINE
  5
42F
100
AcDbEntity
  8
RACCORDO
100
AcDbPolyline
 62
250
  6
CONTINUOUS
 90
31
 70
0
 10
21.9426540284
 20
22.6415492868
 10
21.9685715426
 20
22.6411766217
 10
21.9941483083
 20
22.6399902412
 10
22.0193598359
 20
22.6380213654
 10
22.0441575588
 20
22.635304893
 10
22.0685469873
 20
22.6318708053
 10
22.0925865249
 20
22.6277361188
 10
22.1162571509
 20
22.6229259042
 10
22.139542321
 20
22.6174652557
 10
22.162503499
 20
22.6113574041
 10
22.1851237751
 20
22.6046211378
 10
22.2073879553
 20
22.597275291
 10
22.2293575368
 20
22.5893098201
 10
22.2510162357
 20
22.5807374941
 10
22.2723480598
 20
22.5715715346
 10
22.2934106948
 20
22.561789914
 10
22.3141866
 20
22.5514000857
 10
22.3346576598
 20
22.5404103515
 10
22.3548748984
 20
22.5287881774
 10
22.3748176058
 20
22.5165367301
 10
22.3944645233
 20
22.5036600567
 10
22.4138585482
 20
22.4901160884
 10
22.4329740083
 20
22.4759048771
 10
22.4517853847
 20
22.4610268776
 10
22.4703268424
 20
22.4454305818
 10
22.4885650147
 20
22.429115067
 10
22.5064697124
 20
22.4120770859
 10
22.5240685984
 20
22.3942519832
 10
22.5413414535
 20
22.3756131471
 10
22.558226512
 20
22.3561786666
 10
22.5746817863
 20
22.3359476087
  0
LWPOLYLINE
  5
430
100
AcDbEntity
  8
ASSI
100
AcDbPolyline
 62
250
  6
CONTINUOUS
 90
31
 70
0
 10
21.9426540284
 20
22.6415492868
 10
21.9685715426
 20
22.6411766217
 10
21.9941483083
 20
22.6399902412
 10
22.0193598359
 20
22.6380213654
 10
22.0441575588
 20
22.635304893
 10
22.0685469873
 20
22.6318708053
 10
22.0925865249
 20
22.6277361188
 10
22.1162571509
 20
22.6229259042
 10
22.139542321
 20
22.6174652557
 10
22.162503499
 20
22.6113574041
 10
22.1851237751
 20
22.6046211378
 10
22.2073879553
 20
22.597275291
 10
22.2293575368
 20
22.5893098201
 10
22.2510162357
 20
22.5807374941
 10
22.2723480598
 20
22.5715715346
 10
22.2934106948
 20
22.561789914
 10
22.3141866
 20
22.5514000857
 10
22.3346576598
 20
22.5404103515
 10
22.3548748984
 20
22.5287881774
 10
22.3748176058
 20
22.5165367301
 10
22.3944645233
 20
22.5036600567
 10
22.4138585482
 20
22.4901160884
 10
22.4329740083
 20
22.4759048771
 10
22.4517853847
 20
22.4610268776
 10
22.4703268424
 20
22.4454305818
 10
22.4885650147
 20
22.429115067
 10
22.5064697124
 20
22.4120770859
 10
22.5240685984
 20
22.3942519832
 10
22.5413414535
 20
22.3756131471
 10
22.558226512
 20
22.3561786666
 10
22.5746817863
 20
22.3359476087
  0
LWPOLYLINE
  5
431
100
AcDbEntity
  8
RACCORDO
100
AcDbPolyline
 62
250
  6
CONTINUOUS
 90
31
 70
0
 10
21.9426456448
 20
23.1675430277
 10
21.9847577847
 20
23.1667780232
 10
22.0262417119
 20
23.1647901402
 10
22.0670974262
 20
23.1615793762
 10
22.1073144567
 20
23.1571056171
 10
22.1469032745
 20
23.1514089679
 10
22.185895292
 20
23.144609754
 10
22.2242861148
 20
23.1367224704
 10
22.2620801373
 20
23.1277326067
 10
22.2993219557
 20
23.1177169791
 10
22.336010669
 20
23.1066893218
 10
22.3721471782
 20
23.0946358801
 10
22.4077787816
 20
23.0815922369
 10
22.4429085023
 20
23.0675708229
 10
22.4775333172
 20
23.0525591822
 10
22.511691456
 20
23.0365555668
 10
22.5453891382
 20
23.0195707434
 10
22.5786201443
 20
23.0015939148
 10
22.6114040451
 20
22.9825909856
 10
22.6437494547
 20
22.9625712599
 10
22.675647759
 20
22.9415253967
 10
22.7070926864
 20
22.9193913297
 10
22.7380948023
 20
22.8961772223
 10
22.7686435414
 20
22.8718748662
 10
22.7987009363
 20
22.8463976334
 10
22.8282798698
 20
22.819753002
 10
22.857367459
 20
22.7919334388
 10
22.8858870876
 20
22.7628297929
 10
22.9138132169
 20
22.7324056566
 10
22.9411713855
 20
22.7006973688
 10
22.9679615936
 20
22.6677048937
  0
LWPOLYLINE
  5
432
100
AcDbEntity
  8
ASSI
100
AcDbPolyline
 62
250
  6
CONTINUOUS
 90
31
 70
0
 10
21.9426456448
 20
23.1675430277
 10
21.9847577847
 20
23.1667780232
 10
22.0262417119
 20
23.1647901402
 10
22.0670974262
 20
23.1615793762
 10
22.1073144567
 20
23.1571056171
 10
22.1469032745
 20
23.1514089679
 10
22.185895292
 20
23.144609754
 10
22.2242861148
 20
23.1367224704
 10
22.2620801373
 20
23.1277326067
 10
22.2993219557
 20
23.1177169791
 10
22.336010669
 20
23.1066893218
 10
22.3721471782
 20
23.0946358801
 10
22.4077787816
 20
23.0815922369
 10
22.4429085023
 20
23.0675708229
 10
22.4775333172
 20
23.0525591822
 10
22.511691456
 20
23.0365555668
 10
22.5453891382
 20
23.0195707434
 10
22.5786201443
 20
23.0015939148
 10
22.6114040451
 20
22.9825909856
 10
22.6437494547
 20
22.9625712599
 10
22.675647759
 20
22.9415253967
 10
22.7070926864
 20
22.9193913297
 10
22.7380948023
 20
22.8961772223
 10
22.7686435414
 20
22.8718748662
 10
22.7987009363
 20
22.8463976334
 10
22.8282798698
 20
22.819753002
 10
22.857367459
 20
22.7919334388
 10
22.8858870876
 20
22.7628297929
 10
22.9138132169
 20
22.7324056566
 10
22.9411713855
 20
22.7006973688
 10
22.9679615936
 20
22.6677048937
  0
LINE
  5
433
100
AcDbEntity
  8
0
100
AcDbLine
 62
250
  6
CONTINUOUS
 10
-5.693209
 20
25.960725
 11
-5.407001
 21
25.901202
  0
LINE
  5
434
100
AcDbEntity
  8
0
100
AcDbLine
 62
250
  6
CONTINUOUS
 10
-5.375755
 20
26.258342
 11
-5.60368
 21
26.317865
  0
LINE
  5
435
100
AcDbEntity
  8
0
100
AcDbLine
 62
250
  6
CONTINUOUS
 10
-10.023791
 20
27.091668
 11
-10.193433
 21
27.151192
  0
LINE
  5
436
100
AcDbEntity
  8
0
100
AcDbLine
 62
250
  6
CONTINUOUS
 10
-10.089281
 20
28.341658
 11
-9.919639
 21
28.282135
  0
LINE
  5
437
100
AcDbEntity
  8
0
100
AcDbLine
 62
250
  6
CONTINUOUS
 10
-5.915927
 20
26.079772
 11
-5.693209
 21
25.960725
  0
LINE
  5
438
100
AcDbEntity
  8
0
100
AcDbLine
 62
250
  6
CONTINUOUS
 10
-4.128767
 20
28.520228
 11
-4.351485
 21
28.639275
  0
LINE
  5
439
100
AcDbEntity
  8
0
100
AcDbLine
 62
250
  6
CONTINUOUS
 10
-4.441013
 20
28.282135
 11
-4.276579
 21
28.163088
  0
LINE
  5
43A
100
AcDbEntity
  8
0
100
AcDbLine
 62
250
  6
CONTINUOUS
 10
3.575037
 20
28.639275
 11
3.792546
 21
28.460705
  0
LINE
  5
43B
100
AcDbEntity
  8
0
100
AcDbLine
 62
250
  6
CONTINUOUS
 10
3.490715
 20
28.341658
 11
3.596866
 21
28.222611
  0
LWPOLYLINE
  5
43C
100
AcDbEntity
  8
RACCORDO
100
AcDbPolyline
 62
250
  6
CONTINUOUS
 90
16
 70
0
 10
22.9679615936
 20
-22.6677048937
 10
22.9176363366
 20
-22.7282260376
 10
22.8640214129
 20
-22.785319398
 10
22.8071168224
 20
-22.8389851472
 10
22.746684508
 20
-22.889431412
 10
22.6829625268
 20
-22.9364503781
 10
22.6166650505
 20
-22.9794183199
 10
22.5477053328
 20
-23.0182859387
 10
22.47617012
 20
-23.0531028405
 10
22.4030338219
 20
-23.0833936777
 10
22.3282470351
 20
-23.1090594699
 10
22.2518591631
 20
-23.130199438
 10
22.174992826
 20
-23.146635529
 10
22.0980222306
 20
-23.1583084353
 10
22.0205731702
 20
-23.165277591
 10
21.9426456448
 20
-23.1675430277
  0
LWPOLYLINE
  5
43D
100
AcDbEntity
  8
ASSI
100
AcDbPolyline
 62
250
  6
CONTINUOUS
 90
16
 70
0
 10
22.9679615936
 20
-22.6677048937
 10
22.9176363366
 20
-22.7282260376
 10
22.8640214129
 20
-22.785319398
 10
22.8071168224
 20
-22.8389851472
 10
22.746684508
 20
-22.889431412
 10
22.6829625268
 20
-22.9364503781
 10
22.6166650505
 20
-22.9794183199
 10
22.5477053328
 20
-23.0182859387
 10
22.47617012
 20
-23.0531028405
 10
22.4030338219
 20
-23.0833936777
 10
22.3282470351
 20
-23.1090594699
 10
22.2518591631
 20
-23.130199438
 10
22.174992826
 20
-23.146635529
 10
22.0980222306
 20
-23.1583084353
 10
22.0205731702
 20
-23.165277591
 10
21.9426456448
 20
-23.1675430277
  0
LWPOLYLINE
  5
43E
100
AcDbEntity
  8
RACCORDO
100
AcDbPolyline
 62
250
  6
CONTINUOUS
 90
16
 70
0
 10
22.5746817863
 20
-22.3359476087
 10
22.5437618924
 20
-22.372902273
 10
22.5106074447
 20
-22.4079839707
 10
22.4753289474
 20
-22.4410553374
 10
22.4380428771
 20
-22.4719860675
 10
22.3988791713
 20
-22.5006510464
 10
22.3579817096
 20
-22.526932067
 10
22.3154571632
 20
-22.5507405142
 10
22.2714905285
 20
-22.5719537104
 10
22.2263647221
 20
-22.5904376769
 10
22.1802422163
 20
-22.6061366443
 10
22.1333044142
 20
-22.6189995155
 10
22.0858844938
 20
-22.6289643233
 10
22.0382162375
 20
-22.636027906
 10
21.99042488
 20
-22.6402149606
 10
21.9426840957
 20
-22.6415493366
  0
LWPOLYLINE
  5
43F
100
AcDbEntity
  8
ASSI
100
AcDbPolyline
 62
250
  6
CONTINUOUS
 90
16
 70
0
 10
22.5746817863
 20
-22.3359476087
 10
22.5437618924
 20
-22.372902273
 10
22.5106074447
 20
-22.4079839707
 10
22.4753289474
 20
-22.4410553374
 10
22.4380428771
 20
-22.4719860675
 10
22.3988791713
 20
-22.5006510464
 10
22.3579817096
 20
-22.526932067
 10
22.3154571632
 20
-22.5507405142
 10
22.2714905285
 20
-22.5719537104
 10
22.2263647221
 20
-22.5904376769
 10
22.1802422163
 20
-22.6061366443
 10
22.1333044142
 20
-22.6189995155
 10
22.0858844938
 20
-22.6289643233
 10
22.0382162375
 20
-22.636027906
 10
21.99042488
 20
-22.6402149606
 10
21.9426840957
 20
-22.6415493366
  0
LINE
  5
440
100
AcDbEntity
  8
0
100
AcDbLine
 62
250
  6
CONTINUOUS
 10
-4.612865
 20
26.317865
 11
-4.851206
 21
26.258342
  0
LINE
  5
441
100
AcDbEntity
  8
0
100
AcDbLine
 62
250
  6
CONTINUOUS
 10
-5.431829
 20
28.282135
 11
-5.193488
 21
28.341658
  0
LINE
  5
442
100
AcDbEntity
  8
0
100
AcDbLine
 62
250
  6
CONTINUOUS
 10
-4.882451
 20
25.901202
 11
-4.585827
 21
25.960725
  0
LINE
  5
443
100
AcDbEntity
  8
0
100
AcDbLine
 62
250
  6
CONTINUOUS
 10
-10.361076
 20
25.901202
 11
-10.064453
 21
25.960725
  0
LINE
  5
444
100
AcDbEntity
  8
0
100
AcDbLine
 62
250
  6
CONTINUOUS
 10
-5.162243
 20
28.698798
 11
-5.458866
 21
28.639275
  0
LINE
  5
445
100
AcDbEntity
  8
0
100
AcDbLine
 62
250
  6
CONTINUOUS
 10
-11.378929
 20
26.258342
 11
-10.271548
 21
26.258342
  0
LINE
  5
446
100
AcDbEntity
  8
0
100
AcDbLine
 62
250
  6
CONTINUOUS
 10
10.069305
 20
26.258342
 11
8.320808
 21
26.258342
  0
LINE
  5
447
100
AcDbEntity
  8
0
100
AcDbLine
 62
250
  6
CONTINUOUS
 10
1.210252
 20
26.258342
 11
-0.538245
 21
26.258342
  0
LINE
  5
448
100
AcDbEntity
  8
0
100
AcDbLine
 62
250
  6
CONTINUOUS
 10
-4.851206
 20
26.258342
 11
-5.375755
 21
26.258342
  0
LINE
  5
449
100
AcDbEntity
  8
0
100
AcDbLine
 62
250
  6
CONTINUOUS
 10
-25.248283
 20
26.45073
 11
-24.09927
 21
26.45073
  0
LINE
  5
44A
100
AcDbEntity
  8
0
100
AcDbLine
 62
250
  6
CONTINUOUS
 10
-22.40073
 20
26.45073
 11
-21.251717
 21
26.45073
  0
LINE
  5
44B
100
AcDbEntity
  8
0
100
AcDbLine
 62
250
  6
CONTINUOUS
 10
-25.148369
 20
26.550644
 11
-23.999356
 21
26.550644
  0
LINE
  5
44C
100
AcDbEntity
  8
0
100
AcDbLine
 62
250
  6
CONTINUOUS
 10
-22.500644
 20
26.550644
 11
-21.351631
 21
26.550644
  0
LINE
  5
44D
100
AcDbEntity
  8
0
100
AcDbLine
 62
250
  6
CONTINUOUS
 10
-8.491804
 20
26.615482
 11
-7.326139
 21
26.615482
  0
LINE
  5
44E
100
AcDbEntity
  8
0
100
AcDbLine
 62
250
  6
CONTINUOUS
 10
-4.003994
 20
26.615482
 11
-4.353694
 21
26.615482
  0
LINE
  5
44F
100
AcDbEntity
  8
0
100
AcDbLine
 62
250
  6
CONTINUOUS
 10
5.787591
 20
26.615482
 11
6.953255
 21
26.615482
  0
LINE
  5
450
100
AcDbEntity
  8
0
100
AcDbLine
 62
250
  6
CONTINUOUS
 10
-25.048454
 20
26.650558
 11
-23.899442
 21
26.650558
  0
LINE
  5
451
100
AcDbEntity
  8
0
100
AcDbLine
 62
250
  6
CONTINUOUS
 10
-22.600558
 20
26.650558
 11
-21.451546
 21
26.650558
  0
LINE
  5
452
100
AcDbEntity
  8
0
100
AcDbLine
 62
250
  6
CONTINUOUS
 10
-18.920387
 20
26.700515
 11
-19.986138
 21
26.700515
  0
LINE
  5
453
100
AcDbEntity
  8
0
100
AcDbLine
 62
250
  6
CONTINUOUS
 10
-8.412691
 20
26.853575
 11
-7.363592
 21
26.853575
  0
LINE
  5
454
100
AcDbEntity
  8
0
100
AcDbLine
 62
250
  6
CONTINUOUS
 10
5.866705
 20
26.853575
 11
6.915803
 21
26.853575
  0
LINE
  5
455
100
AcDbEntity
  8
0
100
AcDbLine
 62
250
  6
CONTINUOUS
 10
3.095147
 20
27.151192
 11
2.104331
 21
27.151192
  0
LINE
  5
456
100
AcDbEntity
  8
0
100
AcDbLine
 62
250
  6
CONTINUOUS
 10
-10.193433
 20
27.151192
 11
-11.300815
 21
27.151192
  0
LINE
  5
457
100
AcDbEntity
  8
0
100
AcDbLine
 62
250
  6
CONTINUOUS
 10
-0.454924
 20
27.210715
 11
1.06044
 21
27.210715
  0
LINE
  5
458
100
AcDbEntity
  8
0
100
AcDbLine
 62
250
  6
CONTINUOUS
 10
3.242959
 20
27.508332
 11
2.135577
 21
27.508332
  0
LINE
  5
459
100
AcDbEntity
  8
0
100
AcDbLine
 62
250
  6
CONTINUOUS
 10
-10.162188
 20
27.508332
 11
-11.269569
 21
27.508332
  0
LINE
  5
45A
100
AcDbEntity
  8
0
100
AcDbLine
 62
250
  6
CONTINUOUS
 10
1.091686
 20
27.567855
 11
-0.423678
 21
27.567855
  0
LINE
  5
45B
100
AcDbEntity
  8
0
100
AcDbLine
 62
250
  6
CONTINUOUS
 10
-21.451546
 20
27.949442
 11
-22.600558
 21
27.949442
  0
LINE
  5
45C
100
AcDbEntity
  8
0
100
AcDbLine
 62
250
  6
CONTINUOUS
 10
-23.899442
 20
27.949442
 11
-25.048454
 21
27.949442
  0
LINE
  5
45D
100
AcDbEntity
  8
0
100
AcDbLine
 62
250
  6
CONTINUOUS
 10
-4.233919
 20
27.984518
 11
-3.884219
 21
27.984518
  0
LINE
  5
45E
100
AcDbEntity
  8
0
100
AcDbLine
 62
250
  6
CONTINUOUS
 10
-21.351631
 20
28.049356
 11
-22.500644
 21
28.049356
  0
LINE
  5
45F
100
AcDbEntity
  8
0
100
AcDbLine
 62
250
  6
CONTINUOUS
 10
-23.999356
 20
28.049356
 11
-25.148369
 21
28.049356
  0
LINE
  5
460
100
AcDbEntity
  8
0
100
AcDbLine
 62
250
  6
CONTINUOUS
 10
-21.251717
 20
28.14927
 11
-22.40073
 21
28.14927
  0
LINE
  5
461
100
AcDbEntity
  8
0
100
AcDbLine
 62
250
  6
CONTINUOUS
 10
-24.09927
 20
28.14927
 11
-25.248283
 21
28.14927
  0
LINE
  5
462
100
AcDbEntity
  8
0
100
AcDbLine
 62
250
  6
CONTINUOUS
 10
-11.196663
 20
28.341658
 11
-10.089281
 21
28.341658
  0
LINE
  5
463
100
AcDbEntity
  8
0
100
AcDbLine
 62
250
  6
CONTINUOUS
 10
-5.193488
 20
28.341658
 11
-4.668939
 21
28.341658
  0
LINE
  5
464
100
AcDbEntity
  8
0
100
AcDbLine
 62
250
  6
CONTINUOUS
 10
-0.355979
 20
28.341658
 11
1.392519
 21
28.341658
  0
LINE
  5
465
100
AcDbEntity
  8
0
100
AcDbLine
 62
250
  6
CONTINUOUS
 10
-3.3815
 20
28.401181
 11
-2.448968
 21
28.401181
  0
LINE
  5
466
100
AcDbEntity
  8
0
100
AcDbLine
 62
250
  6
CONTINUOUS
 10
-2.099269
 20
28.401181
 11
-1.166737
 21
28.401181
  0
LINE
  5
467
100
AcDbEntity
  8
0
100
AcDbLine
 62
250
  6
CONTINUOUS
 10
2.213691
 20
28.401181
 11
3.321073
 21
28.401181
  0
LINE
  5
468
100
AcDbEntity
  8
0
100
AcDbLine
 62
250
  6
CONTINUOUS
 10
8.53432
 20
28.698798
 11
8.18462
 21
28.698798
  0
LINE
  5
469
100
AcDbEntity
  8
0
100
AcDbLine
 62
250
  6
CONTINUOUS
 10
6.785822
 20
28.698798
 11
6.319557
 21
28.698798
  0
LINE
  5
46A
100
AcDbEntity
  8
0
100
AcDbLine
 62
250
  6
CONTINUOUS
 10
4.920759
 20
28.698798
 11
4.57106
 21
28.698798
  0
LINE
  5
46B
100
AcDbEntity
  8
0
100
AcDbLine
 62
250
  6
CONTINUOUS
 10
1.423764
 20
28.698798
 11
-0.674433
 21
28.698798
  0
LINE
  5
46C
100
AcDbEntity
  8
0
100
AcDbLine
 62
250
  6
CONTINUOUS
 10
1.89003
 20
28.698798
 11
3.288828
 21
28.698798
  0
LINE
  5
46D
100
AcDbEntity
  8
0
100
AcDbLine
 62
250
  6
CONTINUOUS
 10
-1.140699
 20
28.698798
 11
-3.355462
 21
28.698798
  0
LINE
  5
46E
100
AcDbEntity
  8
0
100
AcDbLine
 62
250
  6
CONTINUOUS
 10
-4.637694
 20
28.698798
 11
-5.162243
 21
28.698798
  0
LINE
  5
46F
100
AcDbEntity
  8
0
100
AcDbLine
 62
250
  6
CONTINUOUS
 10
-7.493572
 20
28.698798
 11
-7.959838
 21
28.698798
  0
LINE
  5
470
100
AcDbEntity
  8
0
100
AcDbLine
 62
250
  6
CONTINUOUS
 10
-10.116318
 20
28.698798
 11
-11.515116
 21
28.698798
  0
LINE
  5
471
100
AcDbEntity
  8
0
100
AcDbLine
 62
250
  6
CONTINUOUS
 10
-14.0579
 20
28.698798
 11
-15.656525
 21
28.698798
  0
LINE
  5
472
100
AcDbEntity
  8
0
100
AcDbLine
 62
250
  6
CONTINUOUS
 10
-22.600558
 20
29.098454
 11
-23.899442
 21
29.098454
  0
LINE
  5
473
100
AcDbEntity
  8
0
100
AcDbLine
 62
250
  6
CONTINUOUS
 10
-22.500644
 20
29.198369
 11
-23.999356
 21
29.198369
  0
LINE
  5
474
100
AcDbEntity
  8
0
100
AcDbLine
 62
250
  6
CONTINUOUS
 10
-22.40073
 20
29.298283
 11
-24.09927
 21
29.298283
  0
LINE
  5
475
100
AcDbEntity
  8
0
100
AcDbLine
 62
250
  6
CONTINUOUS
 10
-9.83011
 20
28.639275
 11
-10.116318
 21
28.698798
  0
LINE
  5
476
100
AcDbEntity
  8
0
100
AcDbLine
 62
250
  6
CONTINUOUS
 10
-4.351485
 20
28.639275
 11
-4.637694
 21
28.698798
  0
LINE
  5
477
100
AcDbEntity
  8
0
100
AcDbLine
 62
250
  6
CONTINUOUS
 10
3.288828
 20
28.698798
 11
3.575037
 21
28.639275
  0
LINE
  5
478
100
AcDbEntity
  8
0
100
AcDbLine
 62
250
  6
CONTINUOUS
 10
-4.668939
 20
28.341658
 11
-4.441013
 21
28.282135
  0
LINE
  5
479
100
AcDbEntity
  8
0
100
AcDbLine
 62
250
  6
CONTINUOUS
 10
3.321073
 20
28.401181
 11
3.490715
 21
28.341658
  0
LWPOLYLINE
  5
47A
100
AcDbEntity
  8
RACCORDO
100
AcDbPolyline
 62
250
  6
CONTINUOUS
 90
13
 70
0
 10
22.5746817863
 20
22.3359476087
 10
22.6006671573
 20
22.3009847399
 10
22.6248390157
 20
22.2644322383
 10
22.6470882814
 20
22.2263761875
 10
22.6673583313
 20
22.1868087836
 10
22.6854869097
 20
22.1459283201
 10
22.7012644829
 20
22.1041644472
 10
22.7146500926
 20
22.0616607816
 10
22.725617737
 20
22.0185447306
 10
22.7340939832
 20
21.9752588584
 10
22.7401035717
 20
21.9320498242
 10
22.7437131093
 20
21.888954044
 10
22.7449736995
 20
21.8461027795
  0
LWPOLYLINE
  5
47B
100
AcDbEntity
  8
ASSI
100
AcDbPolyline
 62
250
  6
CONTINUOUS
 90
13
 70
0
 10
22.5746817863
 20
22.3359476087
 10
22.6006671573
 20
22.3009847399
 10
22.6248390157
 20
22.2644322383
 10
22.6470882814
 20
22.2263761875
 10
22.6673583313
 20
22.1868087836
 10
22.6854869097
 20
22.1459283201
 10
22.7012644829
 20
22.1041644472
 10
22.7146500926
 20
22.0616607816
 10
22.725617737
 20
22.0185447306
 10
22.7340939832
 20
21.9752588584
 10
22.7401035717
 20
21.9320498242
 10
22.7437131093
 20
21.888954044
 10
22.7449736995
 20
21.8461027795
  0
LWPOLYLINE
  5
47C
100
AcDbEntity
  8
RACCORDO
100
AcDbPolyline
 62
250
  6
CONTINUOUS
 90
13
 70
0
 10
22.9679615936
 20
22.6677048937
 10
23.0103205644
 20
22.6106490843
 10
23.0494223064
 20
22.5512709454
 10
23.0852668194
 20
22.4895704319
 10
23.1180515472
 20
22.4251760457
 10
23.147579046
 20
22.3584591843
 10
23.1732569848
 20
22.2905341686
 10
23.1949253505
 20
22.2213824348
 10
23.2127441561
 20
22.1510224948
 10
23.226601109
 20
22.0806243342
 10
23.2364587784
 20
22.0105779607
 10
23.2423545952
 20
21.9404933744
 10
23.2442885593
 20
21.8703705759
  0
LWPOLYLINE
  5
47D
100
AcDbEntity
  8
ASSI
100
AcDbPolyline
 62
250
  6
CONTINUOUS
 90
13
 70
0
 10
22.9679615936
 20
22.6677048937
 10
23.0103205644
 20
22.6106490843
 10
23.0494223064
 20
22.5512709454
 10
23.0852668194
 20
22.4895704319
 10
23.1180515472
 20
22.4251760457
 10
23.147579046
 20
22.3584591843
 10
23.1732569848
 20
22.2905341686
 10
23.1949253505
 20
22.2213824348
 10
23.2127441561
 20
22.1510224948
 10
23.226601109
 20
22.0806243342
 10
23.2364587784
 20
22.0105779607
 10
23.2423545952
 20
21.9404933744
 10
23.2442885593
 20
21.8703705759
  0
LWPOLYLINE
  5
47E
100
AcDbEntity
  8
RACCORDO
100
AcDbPolyline
 62
250
  6
CONTINUOUS
 90
9
 70
0
 10
44.5704696982
 20
-43.9246281065
 10
44.5492646814
 20
-41.5803705021
 10
44.5298115775
 20
-39.2305985388
 10
44.5121103866
 20
-36.8757866537
 10
44.4961582719
 20
-34.51641446
 10
44.4819580701
 20
-32.1529541681
 10
44.4695182913
 20
-29.7858704217
 10
44.4588417722
 20
-27.415636892
 10
44.449925676
 20
-25.0427362495
  0
LWPOLYLINE
  5
47F
100
AcDbEntity
  8
ASSI
100
AcDbPolyline
 62
250
  6
CONTINUOUS
 90
9
 70
0
 10
44.5704696982
 20
-43.9246281065
 10
44.5492646814
 20
-41.5803705021
 10
44.5298115775
 20
-39.2305985388
 10
44.5121103866
 20
-36.8757866537
 10
44.4961582719
 20
-34.51641446
 10
44.4819580701
 20
-32.1529541681
 10
44.4695182913
 20
-29.7858704217
 10
44.4588417722
 20
-27.415636892
 10
44.449925676
 20
-25.0427362495
  0
LWPOLYLINE
  5
480
100
AcDbEntity
  8
RACCORDO
100
AcDbPolyline
 62
250
  6
CONTINUOUS
 90
9
 70
0
 10
44.8700585586
 20
-43.8714290238
 10
44.8488539353
 20
-41.530635219
 10
44.8294010733
 20
-39.1852651697
 10
44.8116999728
 20
-36.8353188758
 10
44.7957477181
 20
-34.4803128887
 10
44.7815472247
 20
-32.1207306571
 10
44.7691072395
 20
-29.7580225269
 10
44.7584306778
 20
-27.3926719467
 10
44.7495146241
 20
-25.0241954679
  0
LWPOLYLINE
  5
481
100
AcDbEntity
  8
ASSI
100
AcDbPolyline
 62
250
  6
CONTINUOUS
 90
9
 70
0
 10
44.8700585586
 20
-43.8714290238
 10
44.8488539353
 20
-41.530635219
 10
44.8294010733
 20
-39.1852651697
 10
44.8116999728
 20
-36.8353188758
 10
44.7957477181
 20
-34.4803128887
 10
44.7815472247
 20
-32.1207306571
 10
44.7691072395
 20
-29.7580225269
 10
44.7584306778
 20
-27.3926719467
 10
44.7495146241
 20
-25.0241954679
  0
LINE
  5
482
100
AcDbEntity
  8
RACCORDO
100
AcDbLine
 62
250
  6
CONTINUOUS
 10
44.449925676
 20
-25.0427362495
 11
44.4336291891
 21
-18.8925043042
  0
LINE
  5
483
100
AcDbEntity
  8
ASSI
100
AcDbLine
 62
250
  6
CONTINUOUS
 10
44.449925676
 20
-25.0427362495
 11
44.4336291891
 21
-18.8925043042
  0
LINE
  5
484
100
AcDbEntity
  8
RACCORDO
100
AcDbLine
 62
250
  6
CONTINUOUS
 10
44.7495146241
 20
-25.0241954679
 11
44.7332181209
 21
-18.8795038031
  0
LINE
  5
485
100
AcDbEntity
  8
ASSI
100
AcDbLine
 62
250
  6
CONTINUOUS
 10
44.7495146241
 20
-25.0241954679
 11
44.7332181209
 21
-18.8795038031
  0
LINE
  5
486
100
AcDbEntity
  8
RACCORDO
100
AcDbLine
 62
250
  6
CONTINUOUS
 10
44.4336291891
 20
-18.8925043042
 11
44.4203325776
 21
-11.3380611962
  0
LINE
  5
487
100
AcDbEntity
  8
ASSI
100
AcDbLine
 62
250
  6
CONTINUOUS
 10
44.4336291891
 20
-18.8925043042
 11
44.4203325776
 21
-11.3380611962
  0
LINE
  5
488
100
AcDbEntity
  8
RACCORDO
100
AcDbLine
 62
250
  6
CONTINUOUS
 10
44.7332181209
 20
-18.8795038031
 11
44.7199214528
 21
-11.3305136537
  0
LINE
  5
489
100
AcDbEntity
  8
ASSI
100
AcDbLine
 62
250
  6
CONTINUOUS
 10
44.7332181209
 20
-18.8795038031
 11
44.7199214528
 21
-11.3305136537
  0
LINE
  5
48A
100
AcDbEntity
  8
RACCORDO
100
AcDbLine
 62
250
  6
CONTINUOUS
 10
44.4203325776
 20
-11.3380611962
 11
44.4136823261
 21
-3.7797569604
  0
LINE
  5
48B
100
AcDbEntity
  8
ASSI
100
AcDbLine
 62
250
  6
CONTINUOUS
 10
44.4203325776
 20
-11.3380611962
 11
44.4136823261
 21
-3.7797569604
  0
LINE
  5
48C
100
AcDbEntity
  8
RACCORDO
100
AcDbLine
 62
250
  6
CONTINUOUS
 10
44.7199214528
 20
-11.3305136537
 11
44.713271186
 21
-3.7771499691
  0
LINE
  5
48D
100
AcDbEntity
  8
ASSI
100
AcDbLine
 62
250
  6
CONTINUOUS
 10
44.7199214528
 20
-11.3305136537
 11
44.713271186
 21
-3.7771499691
  0
LINE
  5
48E
100
AcDbEntity
  8
RACCORDO
100
AcDbLine
 62
250
  6
CONTINUOUS
 10
43.8781758769
 20
-44.6316825048
 11
43.8781758772
 21
-44.8768054117
  0
LINE
  5
48F
100
AcDbEntity
  8
ASSI
100
AcDbLine
 62
250
  6
CONTINUOUS
 10
43.8781758769
 20
-44.6316825048
 11
43.8781758772
 21
-44.8768054117
  0
LINE
  5
490
100
AcDbEntity
  8
RACCORDO
100
AcDbLine
 62
250
  6
CONTINUOUS
 10
43.8781758769
 20
44.6316825048
 11
43.8781758769
 21
44.8768054117
  0
LINE
  5
491
100
AcDbEntity
  8
ASSI
100
AcDbLine
 62
250
  6
CONTINUOUS
 10
43.8781758769
 20
44.6316825048
 11
43.8781758769
 21
44.8768054117
  0
LINE
  5
492
100
AcDbEntity
  8
RACCORDO
100
AcDbLine
 62
250
  6
CONTINUOUS
 10
44.4136823261
 20
-3.7797569604
 11
44.4136823257
 21
3.7797559374
  0
LINE
  5
493
100
AcDbEntity
  8
ASSI
100
AcDbLine
 62
250
  6
CONTINUOUS
 10
44.4136823261
 20
-3.7797569604
 11
44.4136823257
 21
3.7797559374
  0
LINE
  5
494
100
AcDbEntity
  8
RACCORDO
100
AcDbLine
 62
250
  6
CONTINUOUS
 10
44.713271186
 20
-3.7771499691
 11
44.7132711867
 21
3.77715111
  0
LINE
  5
495
100
AcDbEntity
  8
ASSI
100
AcDbLine
 62
250
  6
CONTINUOUS
 10
44.713271186
 20
-3.7771499691
 11
44.7132711867
 21
3.77715111
  0
LINE
  5
496
100
AcDbEntity
  8
RACCORDO
100
AcDbLine
 62
250
  6
CONTINUOUS
 10
44.4136823257
 20
3.7797559374
 11
44.4203325766
 21
11.3380604683
  0
LINE
  5
497
100
AcDbEntity
  8
ASSI
100
AcDbLine
 62
250
  6
CONTINUOUS
 10
44.4136823257
 20
3.7797559374
 11
44.4203325766
 21
11.3380604683
  0
LINE
  5
498
100
AcDbEntity
  8
RACCORDO
100
AcDbLine
 62
250
  6
CONTINUOUS
 10
44.7132711867
 20
3.77715111
 11
44.7199214545
 21
11.3305150114
  0
LINE
  5
499
100
AcDbEntity
  8
ASSI
100
AcDbLine
 62
250
  6
CONTINUOUS
 10
44.7132711867
 20
3.77715111
 11
44.7199214545
 21
11.3305150114
  0
LINE
  5
49A
100
AcDbEntity
  8
RACCORDO
100
AcDbLine
 62
250
  6
CONTINUOUS
 10
44.4203325766
 20
11.3380604683
 11
44.4336291883
 21
18.8925038652
  0
LINE
  5
49B
100
AcDbEntity
  8
ASSI
100
AcDbLine
 62
250
  6
CONTINUOUS
 10
44.4203325766
 20
11.3380604683
 11
44.4336291883
 21
18.8925038652
  0
LINE
  5
49C
100
AcDbEntity
  8
RACCORDO
100
AcDbLine
 62
250
  6
CONTINUOUS
 10
44.7199214545
 20
11.3305150114
 11
44.7332181219
 21
18.8795044447
  0
LINE
  5
49D
100
AcDbEntity
  8
ASSI
100
AcDbLine
 62
250
  6
CONTINUOUS
 10
44.7199214545
 20
11.3305150114
 11
44.7332181219
 21
18.8795044447
  0
LWPOLYLINE
  5
49E
100
AcDbEntity
  8
RACCORDO
100
AcDbPolyline
 62
250
  6
CONTINUOUS
 90
10
 70
0
 10
44.4336291883
 20
18.8925038652
 10
44.4499256767
 20
25.0427362222
 10
44.4588417736
 20
27.4156369854
 10
44.4695182923
 20
29.7858705046
 10
44.4819580689
 20
32.1529540084
 10
44.4961582673
 20
34.5164139278
 10
44.5121103802
 20
36.8757859222
 10
44.5298115717
 20
39.2305978808
 10
44.5492646777
 20
41.5803700883
 10
44.5704696982
 20
43.9246281065
  0
LWPOLYLINE
  5
49F
100
AcDbEntity
  8
ASSI
100
AcDbPolyline
 62
250
  6
CONTINUOUS
 90
10
 70
0
 10
44.4336291883
 20
18.8925038652
 10
44.4499256767
 20
25.0427362222
 10
44.4588417736
 20
27.4156369854
 10
44.4695182923
 20
29.7858705046
 10
44.4819580689
 20
32.1529540084
 10
44.4961582673
 20
34.5164139278
 10
44.5121103802
 20
36.8757859222
 10
44.5298115717
 20
39.2305978808
 10
44.5492646777
 20
41.5803700883
 10
44.5704696982
 20
43.9246281065
  0
LWPOLYLINE
  5
4A0
100
AcDbEntity
  8
RACCORDO
100
AcDbPolyline
 62
250
  6
CONTINUOUS
 90
10
 70
0
 10
44.7332181219
 20
18.8795044447
 10
44.7495146367
 20
25.0241988665
 10
44.7584307064
 20
27.3926785798
 10
44.7691072875
 20
29.7580322302
 10
44.7815473045
 20
32.1207441804
 10
44.7957478329
 20
34.4803300678
 10
44.8117000999
 20
36.8353368046
 10
44.829401181
 20
39.1852800282
 10
44.8488540005
 20
41.5306441013
 10
44.8700585586
 20
43.8714290238
  0
LWPOLYLINE
  5
4A1
100
AcDbEntity
  8
ASSI
100
AcDbPolyline
 62
250
  6
CONTINUOUS
 90
10
 70
0
 10
44.7332181219
 20
18.8795044447
 10
44.7495146367
 20
25.0241988665
 10
44.7584307064
 20
27.3926785798
 10
44.7691072875
 20
29.7580322302
 10
44.7815473045
 20
32.1207441804
 10
44.7957478329
 20
34.4803300678
 10
44.8117000999
 20
36.8353368046
 10
44.829401181
 20
39.1852800282
 10
44.8488540005
 20
41.5306441013
 10
44.8700585586
 20
43.8714290238
  0
LWPOLYLINE
  5
4A2
100
AcDbEntity
  8
RACCORDO
100
AcDbPolyline
 62
250
  6
CONTINUOUS
 90
19
 70
0
 10
-44.5704696982
 20
43.9246280943
 10
-44.5957596656
 20
43.924207405
 10
-44.6208695746
 20
43.9234109463
 10
-44.6456206487
 20
43.9222443888
 10
-44.6698366663
 20
43.9207160381
 10
-44.6933452151
 20
43.9188367757
 10
-44.7159789199
 20
43.9166199815
 10
-44.7375766343
 20
43.9140814385
 10
-44.7579845877
 20
43.9112392206
 10
-44.7770574805
 20
43.9081135635
 10
-44.7946595182
 20
43.9047267214
 10
-44.8106653787
 20
43.9011028076
 10
-44.824961104
 20
43.8972676235
 10
-44.837444912
 20
43.8932484748
 10
-44.8480279211
 20
43.8890739767
 10
-44.8566347828
 20
43.8847738508
 10
-44.8632042183
 20
43.8803787129
 10
-44.8676894548
 20
43.8759198552
 10
-44.8700585586
 20
43.8714290238
  0
LWPOLYLINE
  5
4A3
100
AcDbEntity
  8
ASSI
100
AcDbPolyline
 62
250
  6
CONTINUOUS
 90
19
 70
0
 10
-44.5704696982
 20
43.9246280943
 10
-44.5957596656
 20
43.924207405
 10
-44.6208695746
 20
43.9234109463
 10
-44.6456206487
 20
43.9222443888
 10
-44.6698366663
 20
43.9207160381
 10
-44.6933452151
 20
43.9188367757
 10
-44.7159789199
 20
43.9166199815
 10
-44.7375766343
 20
43.9140814385
 10
-44.7579845877
 20
43.9112392206
 10
-44.7770574805
 20
43.9081135635
 10
-44.7946595182
 20
43.9047267214
 10
-44.8106653787
 20
43.9011028076
 10
-44.824961104
 20
43.8972676235
 10
-44.837444912
 20
43.8932484748
 10
-44.8480279211
 20
43.8890739767
 10
-44.8566347828
 20
43.8847738508
 10
-44.8632042183
 20
43.8803787129
 10
-44.8676894548
 20
43.8759198552
 10
-44.8700585586
 20
43.8714290238
  0
LINE
  5
4A4
100
AcDbEntity
  8
RACCORDO
100
AcDbLine
 62
250
  6
CONTINUOUS
 10
43.8781758769
 20
44.6316825048
 11
-43.8781758769
 21
44.6316825048
  0
LINE
  5
4A5
100
AcDbEntity
  8
ASSI
100
AcDbLine
 62
250
  6
CONTINUOUS
 10
43.8781758769
 20
44.6316825048
 11
-43.8781758769
 21
44.6316825048
  0
LWPOLYLINE
  5
4A6
100
AcDbEntity
  8
RACCORDO
100
AcDbPolyline
 62
250
  6
CONTINUOUS
 90
19
 70
0
 10
44.5704696982
 20
43.9246280955
 10
44.595759238
 20
43.9242073328
 10
44.6208686854
 20
43.9234108103
 10
44.6456192716
 20
43.9222441987
 10
44.6698347824
 20
43.9207158039
 10
44.6933428136
 20
43.9188365074
 10
44.7159759974
 20
43.9166196889
 10
44.7375731949
 20
43.9140811314
 10
44.7579806431
 20
43.9112389082
 10
44.7770530492
 20
43.9081132548
 10
44.7946546255
 20
43.9047264246
 10
44.8106600561
 20
43.9011025304
 10
44.8249553888
 20
43.8972673728
 10
44.8374388469
 20
43.8932482565
 10
44.8480215531
 20
43.889073796
 10
44.856628163
 20
43.8847737118
 10
44.863197401
 20
43.8803786186
 10
44.8676824969
 20
43.8759198077
 10
44.8700515186
 20
43.871429024
  0
LWPOLYLINE
  5
4A7
100
AcDbEntity
  8
ASSI
100
AcDbPolyline
 62
250
  6
CONTINUOUS
 90
19
 70
0
 10
44.5704696982
 20
43.9246280955
 10
44.595759238
 20
43.9242073328
 10
44.6208686854
 20
43.9234108103
 10
44.6456192716
 20
43.9222441987
 10
44.6698347824
 20
43.9207158039
 10
44.6933428136
 20
43.9188365074
 10
44.7159759974
 20
43.9166196889
 10
44.7375731949
 20
43.9140811314
 10
44.7579806431
 20
43.9112389082
 10
44.7770530492
 20
43.9081132548
 10
44.7946546255
 20
43.9047264246
 10
44.8106600561
 20
43.9011025304
 10
44.8249553888
 20
43.8972673728
 10
44.8374388469
 20
43.8932482565
 10
44.8480215531
 20
43.889073796
 10
44.856628163
 20
43.8847737118
 10
44.863197401
 20
43.8803786186
 10
44.8676824969
 20
43.8759198077
 10
44.8700515186
 20
43.871429024
  0
LWPOLYLINE
  5
4A8
100
AcDbEntity
  8
0
100
AcDbPolyline
 62
7
  6
CONTINUOUS
 90
10
 70
0
 43
0.3500000006
 10
59.7557646332
 20
-1.9285708809
 10
58.8986221619
 20
-1.0714295425
 10
58.0414796906
 20
-0.8571427917
 10
57.1843372192
 20
-0.8571427917
 10
56.7557637177
 20
-1.2857140274
 10
56.7557637177
 20
-1.9285708809
 10
57.1843372192
 20
-2.3571432495
 10
58.0414796906
 20
-2.3571432495
 10
58.4700486603
 20
-1.9285708809
 10
58.4700486603
 20
-1.0000006256
  0
LWPOLYLINE
  5
4A9
100
AcDbEntity
  8
RACCORDO
100
AcDbPolyline
 62
250
  6
CONTINUOUS
 90
28
 70
0
 10
44.8700585586
 20
43.8714290238
 10
44.8686844686
 20
43.9304743766
 10
44.8638791753
 20
43.9892336337
 10
44.855673708
 20
44.0475080222
 10
44.8441178827
 20
44.1050781734
 10
44.8292609004
 20
44.1617759443
 10
44.8111367022
 20
44.2174811733
 10
44.7897893175
 20
44.2720490404
 10
44.7653059647
 20
44.3252495663
 10
44.7377989693
 20
44.3768420397
 10
44.7073859689
 20
44.4266363763
 10
44.6741696803
 20
44.474493136
 10
44.6382628328
 20
44.5202616709
 10
44.5997942217
 20
44.5637943459
 10
44.5589019354
 20
44.6049511246
 10
44.5157222969
 20
44.6436030133
 10
44.4704085578
 20
44.6796246207
 10
44.4231162995
 20
44.7129042432
 10
44.3739924813
 20
44.7433438558
 10
44.3231994415
 20
44.7708483634
 10
44.2709145997
 20
44.7953277337
 10
44.2173134256
 20
44.8167039603
 10
44.1625837314
 20
44.8349078545
 10
44.1069030317
 20
44.849886574
 10
44.0504351778
 20
44.8615986049
 10
43.9933606624
 20
44.8700064094
 10
43.9358771298
 20
44.8750808273
 10
43.8781758769
 20
44.8768054117
  0
LWPOLYLINE
  5
4AA
100
AcDbEntity
  8
ASSI
100
AcDbPolyline
 62
250
  6
CONTINUOUS
 90
28
 70
0
 10
44.8700585586
 20
43.8714290238
 10
44.8686844686
 20
43.9304743766
 10
44.8638791753
 20
43.9892336337
 10
44.855673708
 20
44.0475080222
 10
44.8441178827
 20
44.1050781734
 10
44.8292609004
 20
44.1617759443
 10
44.8111367022
 20
44.2174811733
 10
44.7897893175
 20
44.2720490404
 10
44.7653059647
 20
44.3252495663
 10
44.7377989693
 20
44.3768420397
 10
44.7073859689
 20
44.4266363763
 10
44.6741696803
 20
44.474493136
 10
44.6382628328
 20
44.5202616709
 10
44.5997942217
 20
44.5637943459
 10
44.5589019354
 20
44.6049511246
 10
44.5157222969
 20
44.6436030133
 10
44.4704085578
 20
44.6796246207
 10
44.4231162995
 20
44.7129042432
 10
44.3739924813
 20
44.7433438558
 10
44.3231994415
 20
44.7708483634
 10
44.2709145997
 20
44.7953277337
 10
44.2173134256
 20
44.8167039603
 10
44.1625837314
 20
44.8349078545
 10
44.1069030317
 20
44.849886574
 10
44.0504351778
 20
44.8615986049
 10
43.9933606624
 20
44.8700064094
 10
43.9358771298
 20
44.8750808273
 10
43.8781758769
 20
44.8768054117
  0
LWPOLYLINE
  5
4AB
100
AcDbEntity
  8
RACCORDO
100
AcDbPolyline
 62
250
  6
CONTINUOUS
 90
28
 70
0
 10
44.5704696982
 20
43.9246281065
 10
44.5696252612
 20
43.96629429
 10
44.5664307296
 20
44.0075145745
 10
44.5608861034
 20
44.0482890176
 10
44.5529569095
 20
44.0887456584
 10
44.5426776209
 20
44.1287565602
 10
44.5301516566
 20
44.1679378676
 10
44.5153473063
 20
44.2063007183
 10
44.4982962802
 20
44.2438341817
 10
44.4791971275
 20
44.2801213992
 10
44.4580341378
 20
44.3151318114
 10
44.4348230214
 20
44.3488962717
 10
44.4098094588
 20
44.3810901221
 10
44.3829763229
 20
44.4116984623
 10
44.3543407408
 20
44.4407365201
 10
44.324199774
 20
44.4679248808
 10
44.2925403022
 20
44.4932444941
 10
44.2593754457
 20
44.5167147349
 10
44.2250416268
 20
44.5381138549
 10
44.1895275462
 20
44.5574215069
 10
44.1528445032
 20
44.5746583208
 10
44.1153628175
 20
44.5896640194
 10
44.0770676316
 20
44.6024166075
 10
44.0379738031
 20
44.6129382887
 10
43.9984962242
 20
44.621135071
 10
43.9587731922
 20
44.6269756618
 10
43.9186664098
 20
44.6304914639
 10
43.8781758769
 20
44.6316825048
  0
LWPOLYLINE
  5
4AC
100
AcDbEntity
  8
ASSI
100
AcDbPolyline
 62
250
  6
CONTINUOUS
 90
28
 70
0
 10
44.5704696982
 20
43.9246281065
 10
44.5696252612
 20
43.96629429
 10
44.5664307296
 20
44.0075145745
 10
44.5608861034
 20
44.0482890176
 10
44.5529569095
 20
44.0887456584
 10
44.5426776209
 20
44.1287565602
 10
44.5301516566
 20
44.1679378676
 10
44.5153473063
 20
44.2063007183
 10
44.4982962802
 20
44.2438341817
 10
44.4791971275
 20
44.2801213992
 10
44.4580341378
 20
44.3151318114
 10
44.4348230214
 20
44.3488962717
 10
44.4098094588
 20
44.3810901221
 10
44.3829763229
 20
44.4116984623
 10
44.3543407408
 20
44.4407365201
 10
44.324199774
 20
44.4679248808
 10
44.2925403022
 20
44.4932444941
 10
44.2593754457
 20
44.5167147349
 10
44.2250416268
 20
44.5381138549
 10
44.1895275462
 20
44.5574215069
 10
44.1528445032
 20
44.5746583208
 10
44.1153628175
 20
44.5896640194
 10
44.0770676316
 20
44.6024166075
 10
44.0379738031
 20
44.6129382887
 10
43.9984962242
 20
44.621135071
 10
43.9587731922
 20
44.6269756618
 10
43.9186664098
 20
44.6304914639
 10
43.8781758769
 20
44.6316825048
  0
LINE
  5
4AD
100
AcDbEntity
  8
RACCORDO
100
AcDbLine
 62
7
  6
CONTINUOUS
 10
45.0
 20
-44.0013704652
 11
45.0
 21
44.0013704652
  0
LINE
  5
4AE
100
AcDbEntity
  8
ASSI
100
AcDbLine
 62
7
  6
CONTINUOUS
 10
45.0
 20
-44.0013704652
 11
45.0
 21
44.0013704652
  0
LWPOLYLINE
  5
4AF
100
AcDbEntity
  8
RACCORDO
100
AcDbPolyline
 62
250
  6
CONTINUOUS
 90
28
 70
0
 10
-43.8781758769
 20
44.8768054117
 10
-43.9358790912
 20
44.8750806058
 10
-43.9933273885
 20
44.8700102287
 10
-44.0503303845
 20
44.8616171492
 10
-44.1066620052
 20
44.8499439897
 10
-44.1621751202
 20
44.8350306373
 10
-44.2167964506
 20
44.8168925971
 10
-44.270393801
 20
44.7955529004
 10
-44.3227268303
 20
44.771086409
 10
-44.3735626186
 20
44.743592966
 10
-44.4227052357
 20
44.713175756
 10
-44.4700127188
 20
44.6799207097
 10
-44.5153430184
 20
44.6439229412
 10
-44.558541784
 20
44.6052929096
 10
-44.5994543358
 20
44.5641569719
 10
-44.6379446408
 20
44.5206436514
 10
-44.6738754279
 20
44.4748915901
 10
-44.7071166854
 20
44.4270494968
 10
-44.7375534477
 20
44.3772716237
 10
-44.7650750393
 20
44.3257147992
 10
-44.789574811
 20
44.2725531665
 10
-44.8109589176
 20
44.2179774542
 10
-44.8291446967
 20
44.1621714079
 10
-44.8440619639
 20
44.105319636
 10
-44.8556541505
 20
44.047622577
 10
-44.8638742693
 20
43.9892780405
 10
-44.8686841964
 20
43.9304802998
 10
-44.8700585586
 20
43.8714290238
  0
LWPOLYLINE
  5
4B0
100
AcDbEntity
  8
ASSI
100
AcDbPolyline
 62
250
  6
CONTINUOUS
 90
28
 70
0
 10
-43.8781758769
 20
44.8768054117
 10
-43.9358790912
 20
44.8750806058
 10
-43.9933273885
 20
44.8700102287
 10
-44.0503303845
 20
44.8616171492
 10
-44.1066620052
 20
44.8499439897
 10
-44.1621751202
 20
44.8350306373
 10
-44.2167964506
 20
44.8168925971
 10
-44.270393801
 20
44.7955529004
 10
-44.3227268303
 20
44.771086409
 10
-44.3735626186
 20
44.743592966
 10
-44.4227052357
 20
44.713175756
 10
-44.4700127188
 20
44.6799207097
 10
-44.5153430184
 20
44.6439229412
 10
-44.558541784
 20
44.6052929096
 10
-44.5994543358
 20
44.5641569719
 10
-44.6379446408
 20
44.5206436514
 10
-44.6738754279
 20
44.4748915901
 10
-44.7071166854
 20
44.4270494968
 10
-44.7375534477
 20
44.3772716237
 10
-44.7650750393
 20
44.3257147992
 10
-44.789574811
 20
44.2725531665
 10
-44.8109589176
 20
44.2179774542
 10
-44.8291446967
 20
44.1621714079
 10
-44.8440619639
 20
44.105319636
 10
-44.8556541505
 20
44.047622577
 10
-44.8638742693
 20
43.9892780405
 10
-44.8686841964
 20
43.9304802998
 10
-44.8700585586
 20
43.8714290238
  0
LWPOLYLINE
  5
4B1
100
AcDbEntity
  8
RACCORDO
100
AcDbPolyline
 62
250
  6
CONTINUOUS
 90
28
 70
0
 10
-43.8781758769
 20
44.6316825048
 10
-43.9187038743
 20
44.6304780836
 10
-43.9588119933
 20
44.626961863
 10
-43.9985002339
 20
44.6211338159
 10
-44.037882471
 20
44.6129688545
 10
-44.0768448297
 20
44.6024919575
 10
-44.1150456852
 20
44.5897781721
 10
-44.1525079896
 20
44.5747958048
 10
-44.1892087907
 20
44.5575763404
 10
-44.2247376072
 20
44.538289581
 10
-44.2590663946
 20
44.5169205958
 10
-44.2922231974
 20
44.4934840338
 10
-44.3238816675
 20
44.4681940731
 10
-44.3540327652
 20
44.4410301138
 10
-44.3826855302
 20
44.4120124308
 10
-44.4095407336
 20
44.3814165412
 10
-44.4345831099
 20
44.3492228294
 10
-44.4578279245
 20
44.3154505818
 10
-44.479021745
 20
44.2804337214
 10
-44.4981438556
 20
44.2441561065
 10
-44.5152149721
 20
44.2066335864
 10
-44.5300438091
 20
44.1682481484
 10
-44.5426064825
 20
44.1289768997
 10
-44.5529268766
 20
44.0888425141
 10
-44.5608853584
 20
44.0482954332
 10
-44.5664420505
 20
44.0074857957
 10
-44.5696368304
 20
43.9662633712
 10
-44.5704696982
 20
43.9246281065
  0
LWPOLYLINE
  5
4B2
100
AcDbEntity
  8
ASSI
100
AcDbPolyline
 62
250
  6
CONTINUOUS
 90
28
 70
0
 10
-43.8781758769
 20
44.6316825048
 10
-43.9187038743
 20
44.6304780836
 10
-43.9588119933
 20
44.626961863
 10
-43.9985002339
 20
44.6211338159
 10
-44.037882471
 20
44.6129688545
 10
-44.0768448297
 20
44.6024919575
 10
-44.1150456852
 20
44.5897781721
 10
-44.1525079896
 20
44.5747958048
 10
-44.1892087907
 20
44.5575763404
 10
-44.2247376072
 20
44.538289581
 10
-44.2590663946
 20
44.5169205958
 10
-44.2922231974
 20
44.4934840338
 10
-44.3238816675
 20
44.4681940731
 10
-44.3540327652
 20
44.4410301138
 10
-44.3826855302
 20
44.4120124308
 10
-44.4095407336
 20
44.3814165412
 10
-44.4345831099
 20
44.3492228294
 10
-44.4578279245
 20
44.3154505818
 10
-44.479021745
 20
44.2804337214
 10
-44.4981438556
 20
44.2441561065
 10
-44.5152149721
 20
44.2066335864
 10
-44.5300438091
 20
44.1682481484
 10
-44.5426064825
 20
44.1289768997
 10
-44.5529268766
 20
44.0888425141
 10
-44.5608853584
 20
44.0482954332
 10
-44.5664420505
 20
44.0074857957
 10
-44.5696368304
 20
43.9662633712
 10
-44.5704696982
 20
43.9246281065
  0
LINE
  5
4B3
100
AcDbEntity
  8
RACCORDO
100
AcDbLine
 62
250
  6
CONTINUOUS
 10
43.8781758769
 20
44.8768054117
 11
-43.8781758769
 21
44.8768054117
  0
LINE
  5
4B4
100
AcDbEntity
  8
ASSI
100
AcDbLine
 62
250
  6
CONTINUOUS
 10
43.8781758769
 20
44.8768054117
 11
-43.8781758769
 21
44.8768054117
  0
LINE
  5
4B5
100
AcDbEntity
  8
RACCORDO
100
AcDbLine
 62
7
  6
CONTINUOUS
 10
-44.0013704652
 20
45.0
 11
44.0013704652
 21
45.0
  0
LINE
  5
4B6
100
AcDbEntity
  8
ASSI
100
AcDbLine
 62
7
  6
CONTINUOUS
 10
-44.0013704652
 20
45.0
 11
44.0013704652
 21
45.0
  0
LINE
  5
4B7
100
AcDbEntity
  8
RACCORDO
100
AcDbLine
 62
7
  6
CONTINUOUS
 10
-67.4387164572
 20
-44.8768054117
 11
-65.088023678
 21
-45.0
  0
LINE
  5
4B8
100
AcDbEntity
  8
ASSI
100
AcDbLine
 62
7
  6
CONTINUOUS
 10
-67.4387164572
 20
-44.8768054117
 11
-65.088023678
 21
-45.0
  0
LINE
  5
4B9
100
AcDbEntity
  8
RACCORDO
100
AcDbLine
 62
250
  6
CONTINUOUS
 10
-67.5674540828
 20
-43.8714290238
 11
-65.088023678
 21
-44.0013704652
  0
LINE
  5
4BA
100
AcDbEntity
  8
ASSI
100
AcDbLine
 62
250
  6
CONTINUOUS
 10
-67.5674540828
 20
-43.8714290238
 11
-65.088023678
 21
-44.0013704652
  0
LWPOLYLINE
  5
4BB
100
AcDbEntity
  8
0
100
AcDbPolyline
 62
7
  6
CONTINUOUS
 90
10
 70
0
 43
0.3500000006
 10
-64.6450935974
 20
61.7500003967
 10
-65.287947052
 20
61.1071469421
 10
-65.7165205536
 20
60.249999939
 10
-65.7165205536
 20
59.1785684509
 10
-65.287947052
 20
58.7499994812
 10
-64.6450935974
 20
58.7499994812
 10
-64.2165200958
 20
59.1785684509
 10
-64.2165200958
 20
60.0357154541
 10
-64.6450935974
 20
60.4642844238
 10
-65.5736627197
 20
60.4642844238
  0
LINE
  5
4BC
100
AcDbEntity
  8
RACCORDO
100
AcDbLine
 62
250
  6
CONTINUOUS
 10
-67.8212974955
 20
-43.9188367757
 11
-67.7972242927
 21
-43.9140814385
  0
LINE
  5
4BD
100
AcDbEntity
  8
ASSI
100
AcDbLine
 62
250
  6
CONTINUOUS
 10
-67.8212974955
 20
-43.9188367757
 11
-67.7972242927
 21
-43.9140814385
  0
LINE
  5
4BE
100
AcDbEntity
  8
RACCORDO
100
AcDbLine
 62
250
  6
CONTINUOUS
 10
-67.7972242927
 20
-43.9140814385
 11
-67.7482988683
 21
-43.9047267214
  0
LINE
  5
4BF
100
AcDbEntity
  8
ASSI
100
AcDbLine
 62
250
  6
CONTINUOUS
 10
-67.7972242927
 20
-43.9140814385
 11
-67.7482988683
 21
-43.9047267214
  0
LINE
  5
4C0
100
AcDbEntity
  8
RACCORDO
100
AcDbLine
 62
250
  6
CONTINUOUS
 10
-67.7482988683
 20
-43.9047267214
 11
-67.6408119819
 21
-43.8847738508
  0
LINE
  5
4C1
100
AcDbEntity
  8
ASSI
100
AcDbLine
 62
250
  6
CONTINUOUS
 10
-67.7482988683
 20
-43.9047267214
 11
-67.6408119819
 21
-43.8847738508
  0
LINE
  5
4C2
100
AcDbEntity
  8
RACCORDO
100
AcDbLine
 62
250
  6
CONTINUOUS
 10
-67.6408119819
 20
-43.8847738508
 11
-67.5674540828
 21
-43.8714290238
  0
LINE
  5
4C3
100
AcDbEntity
  8
ASSI
100
AcDbLine
 62
250
  6
CONTINUOUS
 10
-67.6408119819
 20
-43.8847738508
 11
-67.5674540828
 21
-43.8714290238
  0
LWPOLYLINE
  5
4C4
100
AcDbEntity
  8
RACCORDO
100
AcDbPolyline
 62
250
  6
CONTINUOUS
 90
9
 70
0
 10
-67.4387164572
 20
-44.8768054117
 10
-67.4398096095
 20
-44.8750806058
 10
-67.4412838304
 20
-44.8700102287
 10
-67.4431303408
 20
-44.8616171492
 10
-67.4453405177
 20
-44.8499439897
 10
-67.4479077493
 20
-44.8350306373
 10
-67.4508260342
 20
-44.8168925971
 10
-67.4540955993
 20
-44.7955529004
 10
-67.4577018242
 20
-44.771086409
  0
LWPOLYLINE
  5
4C5
100
AcDbEntity
  8
ASSI
100
AcDbPolyline
 62
250
  6
CONTINUOUS
 90
9
 70
0
 10
-67.4387164572
 20
-44.8768054117
 10
-67.4398096095
 20
-44.8750806058
 10
-67.4412838304
 20
-44.8700102287
 10
-67.4431303408
 20
-44.8616171492
 10
-67.4453405177
 20
-44.8499439897
 10
-67.4479077493
 20
-44.8350306373
 10
-67.4508260342
 20
-44.8168925971
 10
-67.4540955993
 20
-44.7955529004
 10
-67.4577018242
 20
-44.771086409
  0
LWPOLYLINE
  5
4C6
100
AcDbEntity
  8
0
100
AcDbPolyline
 62
7
  6
CONTINUOUS
 90
3
 70
0
 43
0.3500000006
 10
-66.7165208588
 20
59.0357151489
 10
-66.7879475098
 20
58.8214306641
 10
-66.9308053436
 20
58.5357149963
  0
LWPOLYLINE
  5
4C7
100
AcDbEntity
  8
RACCORDO
100
AcDbPolyline
 62
250
  6
CONTINUOUS
 90
3
 70
0
 10
-70.2880236672
 20
-22.6677048932
 10
-70.2869614924
 20
-22.6675845031
 10
-70.2837757999
 20
-22.667357485
  0
LWPOLYLINE
  5
4C8
100
AcDbEntity
  8
ASSI
100
AcDbPolyline
 62
250
  6
CONTINUOUS
 90
3
 70
0
 10
-70.2880236672
 20
-22.6677048932
 10
-70.2869614924
 20
-22.6675845031
 10
-70.2837757999
 20
-22.667357485
  0
LINE
  5
4C9
100
AcDbEntity
  8
RACCORDO
100
AcDbLine
 62
250
  6
CONTINUOUS
 10
-70.2837757999
 20
-22.667357485
 11
-70.2711394383
 21
-22.6665907705
  0
LINE
  5
4CA
100
AcDbEntity
  8
ASSI
100
AcDbLine
 62
250
  6
CONTINUOUS
 10
-70.2837757999
 20
-22.667357485
 11
-70.2711394383
 21
-22.6665907705
  0
LINE
  5
4CB
100
AcDbEntity
  8
RACCORDO
100
AcDbLine
 62
250
  6
CONTINUOUS
 10
-70.2711394383
 20
-22.6665907705
 11
-70.1876116245
 21
-22.6620480449
  0
LINE
  5
4CC
100
AcDbEntity
  8
ASSI
100
AcDbLine
 62
250
  6
CONTINUOUS
 10
-70.2711394383
 20
-22.6665907705
 11
-70.1876116245
 21
-22.6620480449
  0
LINE
  5
4CD
100
AcDbEntity
  8
RACCORDO
100
AcDbLine
 62
250
  6
CONTINUOUS
 10
-70.1876116245
 20
-22.6620480449
 11
-70.0041053176
 21
-22.6525930904
  0
LINE
  5
4CE
100
AcDbEntity
  8
ASSI
100
AcDbLine
 62
250
  6
CONTINUOUS
 10
-70.1876116245
 20
-22.6620480449
 11
-70.0041053176
 21
-22.6525930904
  0
LINE
  5
4CF
100
AcDbEntity
  8
0
100
AcDbLine
 62
7
  6
CONTINUOUS
 10
-69.9802468477
 20
-27.423487196
 11
-69.9814092893
 21
-27.4087686351
  0
LINE
  5
4D0
100
AcDbEntity
  8
ASSI
100
AcDbLine
 62
7
  6
CONTINUOUS
 10
-69.9802468477
 20
-27.423487196
 11
-69.9814092893
 21
-27.4087686351
  0
LINE
  5
4D1
100
AcDbEntity
  8
0
100
AcDbLine
 62
250
  6
CONTINUOUS
 10
-69.9805822611
 20
27.4192419681
 11
-69.9810572185
 21
27.4132282182
  0
LINE
  5
4D2
100
AcDbEntity
  8
RACCORDO
100
AcDbLine
 62
250
  6
CONTINUOUS
 10
-67.5674540828
 20
43.8714290238
 11
-67.5344118445
 21
44.1617759443
  0
LINE
  5
4D3
100
AcDbEntity
  8
ASSI
100
AcDbLine
 62
250
  6
CONTINUOUS
 10
-67.5674540828
 20
43.8714290238
 11
-67.5344118445
 21
44.1617759443
  0
LINE
  5
4D4
100
AcDbEntity
  8
RACCORDO
100
AcDbLine
 62
250
  6
CONTINUOUS
 10
-67.5344118445
 20
44.1617759443
 11
-67.5088301159
 21
44.3768420397
  0
LINE
  5
4D5
100
AcDbEntity
  8
ASSI
100
AcDbLine
 62
250
  6
CONTINUOUS
 10
-67.5344118445
 20
44.1617759443
 11
-67.5088301159
 21
44.3768420397
  0
LINE
  5
4D6
100
AcDbEntity
  8
RACCORDO
100
AcDbLine
 62
250
  6
CONTINUOUS
 10
-67.5088301159
 20
44.3768420397
 11
-67.4910847821
 21
44.5202616709
  0
LINE
  5
4D7
100
AcDbEntity
  8
ASSI
100
AcDbLine
 62
250
  6
CONTINUOUS
 10
-67.5088301159
 20
44.3768420397
 11
-67.4910847821
 21
44.5202616709
  0
LINE
  5
4D8
100
AcDbEntity
  8
RACCORDO
100
AcDbLine
 62
250
  6
CONTINUOUS
 10
-67.4910847821
 20
44.5202616709
 11
-67.4751969369
 21
44.6436030133
  0
LINE
  5
4D9
100
AcDbEntity
  8
ASSI
100
AcDbLine
 62
250
  6
CONTINUOUS
 10
-67.4910847821
 20
44.5202616709
 11
-67.4751969369
 21
44.6436030133
  0
LINE
  5
4DA
100
AcDbEntity
  8
RACCORDO
100
AcDbLine
 62
250
  6
CONTINUOUS
 10
-67.4751969369
 20
44.6436030133
 11
-67.4658785665
 21
44.7129042432
  0
LINE
  5
4DB
100
AcDbEntity
  8
ASSI
100
AcDbLine
 62
250
  6
CONTINUOUS
 10
-67.4751969369
 20
44.6436030133
 11
-67.4658785665
 21
44.7129042432
  0
LWPOLYLINE
  5
4DC
100
AcDbEntity
  8
RACCORDO
100
AcDbPolyline
 62
250
  6
CONTINUOUS
 90
10
 70
0
 10
-67.4658785665
 20
44.7129042432
 10
-67.4577346098
 20
44.7708483634
 10
-67.4541269133
 20
44.7953277337
 10
-67.4508545579
 20
44.8167039603
 10
-67.4479293007
 20
44.8349078545
 10
-67.4453521351
 20
44.849886574
 10
-67.443133777
 20
44.8615986049
 10
-67.4412831532
 20
44.8700064094
 10
-67.4398076588
 20
44.8750808273
 10
-67.4387164572
 20
44.8768054117
  0
LWPOLYLINE
  5
4DD
100
AcDbEntity
  8
ASSI
100
AcDbPolyline
 62
250
  6
CONTINUOUS
 90
10
 70
0
 10
-67.4658785665
 20
44.7129042432
 10
-67.4577346098
 20
44.7708483634
 10
-67.4541269133
 20
44.7953277337
 10
-67.4508545579
 20
44.8167039603
 10
-67.4479293007
 20
44.8349078545
 10
-67.4453521351
 20
44.849886574
 10
-67.443133777
 20
44.8615986049
 10
-67.4412831532
 20
44.8700064094
 10
-67.4398076588
 20
44.8750808273
 10
-67.4387164572
 20
44.8768054117
  0
LWPOLYLINE
  5
4DE
100
AcDbEntity
  8
RACCORDO
100
AcDbPolyline
 62
250
  6
CONTINUOUS
 90
10
 70
0
 10
-67.5674540828
 20
-43.8714290238
 10
-67.9720623989
 20
-41.530635219
 10
-68.3432451165
 20
-39.1852651697
 10
-68.6810022356
 20
-36.8353188758
 10
-68.9853893883
 20
-34.4803128887
 10
-69.2563509424
 20
-32.1207306571
 10
-69.4937200021
 20
-29.7580225269
 10
-69.6974409351
 20
-27.3926719467
 10
-69.8675693736
 20
-25.0241954679
 10
-70.0041053176
 20
-22.6525930904
  0
LWPOLYLINE
  5
4DF
100
AcDbEntity
  8
ASSI
100
AcDbPolyline
 62
250
  6
CONTINUOUS
 90
10
 70
0
 10
-67.5674540828
 20
-43.8714290238
 10
-67.9720623989
 20
-41.530635219
 10
-68.3432451165
 20
-39.1852651697
 10
-68.6810022356
 20
-36.8353188758
 10
-68.9853893883
 20
-34.4803128887
 10
-69.2563509424
 20
-32.1207306571
 10
-69.4937200021
 20
-29.7580225269
 10
-69.6974409351
 20
-27.3926719467
 10
-69.8675693736
 20
-25.0241954679
 10
-70.0041053176
 20
-22.6525930904
  0
LINE
  5
4E0
100
AcDbEntity
  8
RACCORDO
100
AcDbLine
 62
250
  6
CONTINUOUS
 10
-67.4577018242
 20
-44.771086409
 11
-67.4658411982
 21
-44.713175756
  0
LINE
  5
4E1
100
AcDbEntity
  8
ASSI
100
AcDbLine
 62
250
  6
CONTINUOUS
 10
-67.4577018242
 20
-44.771086409
 11
-67.4658411982
 21
-44.713175756
  0
LINE
  5
4E2
100
AcDbEntity
  8
RACCORDO
100
AcDbLine
 62
250
  6
CONTINUOUS
 10
-67.4658411982
 20
-44.713175756
 11
-67.4751541468
 21
-44.6439229412
  0
LINE
  5
4E3
100
AcDbEntity
  8
ASSI
100
AcDbLine
 62
250
  6
CONTINUOUS
 10
-67.4658411982
 20
-44.713175756
 11
-67.4751541468
 21
-44.6439229412
  0
LINE
  5
4E4
100
AcDbEntity
  8
RACCORDO
100
AcDbLine
 62
250
  6
CONTINUOUS
 10
-67.4751541468
 20
-44.6439229412
 11
-67.491035391
 21
-44.5206436514
  0
LINE
  5
4E5
100
AcDbEntity
  8
ASSI
100
AcDbLine
 62
250
  6
CONTINUOUS
 10
-67.4751541468
 20
-44.6439229412
 11
-67.491035391
 21
-44.5206436514
  0
LINE
  5
4E6
100
AcDbEntity
  8
RACCORDO
100
AcDbLine
 62
250
  6
CONTINUOUS
 10
-67.491035391
 20
-44.5206436514
 11
-67.5150062398
 21
-44.3257147992
  0
LINE
  5
4E7
100
AcDbEntity
  8
ASSI
100
AcDbLine
 62
250
  6
CONTINUOUS
 10
-67.491035391
 20
-44.5206436514
 11
-67.5150062398
 21
-44.3257147992
  0
LINE
  5
4E8
100
AcDbEntity
  8
RACCORDO
100
AcDbLine
 62
250
  6
CONTINUOUS
 10
-67.5150062398
 20
-44.3257147992
 11
-67.5409827601
 21
-44.105319636
  0
LINE
  5
4E9
100
AcDbEntity
  8
ASSI
100
AcDbLine
 62
250
  6
CONTINUOUS
 10
-67.5150062398
 20
-44.3257147992
 11
-67.5409827601
 21
-44.105319636
  0
LINE
  5
4EA
100
AcDbEntity
  8
RACCORDO
100
AcDbLine
 62
250
  6
CONTINUOUS
 10
-67.5409827601
 20
-44.105319636
 11
-67.5674540828
 21
-43.8714290238
  0
LINE
  5
4EB
100
AcDbEntity
  8
ASSI
100
AcDbLine
 62
250
  6
CONTINUOUS
 10
-67.5409827601
 20
-44.105319636
 11
-67.5674540828
 21
-43.8714290238
  0
LWPOLYLINE
  5
4EC
100
AcDbEntity
  8
RACCORDO
100
AcDbPolyline
 62
250
  6
CONTINUOUS
 90
13
 70
0
 10
-70.0041053176
 20
-22.6525930904
 10
-70.1785251791
 20
-18.8795038031
 10
-70.3212369803
 20
-15.1054773242
 10
-70.4322407212
 20
-11.3305136537
 10
-70.5115420761
 20
-7.5543004072
 10
-70.5591353707
 20
-3.7771499691
 10
-70.5750035815
 20
0.0000005072
 10
-70.5591353571
 20
3.77715111
 10
-70.5115420489
 20
7.554301751
 10
-70.4322406878
 20
11.3305150114
 10
-70.3212369507
 20
15.1054784183
 10
-70.1785251606
 20
18.8795044447
 10
-70.0041053176
 20
22.6525930904
  0
LWPOLYLINE
  5
4ED
100
AcDbEntity
  8
ASSI
100
AcDbPolyline
 62
250
  6
CONTINUOUS
 90
13
 70
0
 10
-70.0041053176
 20
-22.6525930904
 10
-70.1785251791
 20
-18.8795038031
 10
-70.3212369803
 20
-15.1054773242
 10
-70.4322407212
 20
-11.3305136537
 10
-70.5115420761
 20
-7.5543004072
 10
-70.5591353707
 20
-3.7771499691
 10
-70.5750035815
 20
0.0000005072
 10
-70.5591353571
 20
3.77715111
 10
-70.5115420489
 20
7.554301751
 10
-70.4322406878
 20
11.3305150114
 10
-70.3212369507
 20
15.1054784183
 10
-70.1785251606
 20
18.8795044447
 10
-70.0041053176
 20
22.6525930904
  0
LWPOLYLINE
  5
4EE
100
AcDbEntity
  8
0
100
AcDbPolyline
 62
7
  6
CONTINUOUS
 90
4
 70
0
 43
0.3500000006
 10
-69.7879484253
 20
59.1785684509
 10
-69.7879484253
 20
60.0357154541
 10
-69.3593794556
 20
60.4642844238
 10
-68.7165214691
 20
60.4642844238
  0
LWPOLYLINE
  5
4EF
100
AcDbEntity
  8
RACCORDO
100
AcDbPolyline
 62
250
  6
CONTINUOUS
 90
10
 70
0
 10
-70.0041053176
 20
22.6525930904
 10
-69.8675691333
 20
25.0241988665
 10
-69.6974403889
 20
27.3926785798
 10
-69.4937190845
 20
29.7580322302
 10
-69.2563494204
 20
32.1207441804
 10
-68.9853871964
 20
34.4803300678
 10
-68.6809998107
 20
36.8353368046
 10
-68.343243063
 20
39.1852800282
 10
-67.9720611537
 20
41.5306441013
 10
-67.5674540828
 20
43.8714290238
  0
LWPOLYLINE
  5
4F0
100
AcDbEntity
  8
ASSI
100
AcDbPolyline
 62
250
  6
CONTINUOUS
 90
10
 70
0
 10
-70.0041053176
 20
22.6525930904
 10
-69.8675691333
 20
25.0241988665
 10
-69.6974403889
 20
27.3926785798
 10
-69.4937190845
 20
29.7580322302
 10
-69.2563494204
 20
32.1207441804
 10
-68.9853871964
 20
34.4803300678
 10
-68.6809998107
 20
36.8353368046
 10
-68.343243063
 20
39.1852800282
 10
-67.9720611537
 20
41.5306441013
 10
-67.5674540828
 20
43.8714290238
  0
LINE
  5
4F1
100
AcDbEntity
  8
DRAFT
100
AcDbLine
 62
7
  6
CONTINUOUS
 10
-62.288023678
 20
-3.8526539614
 11
-64.288023678
 21
-3.5
  0
LINE
  5
4F2
100
AcDbEntity
  8
ASSI
100
AcDbLine
 62
7
  6
CONTINUOUS
 10
-62.288023678
 20
-3.8526539614
 11
-64.288023678
 21
-3.5
  0
LINE
  5
4F3
100
AcDbEntity
  8
RACCORDO
100
AcDbLine
 62
7
  6
CONTINUOUS
 10
-65.088023678
 20
-45.0
 11
-65.088023678
 21
45.0
  0
LINE
  5
4F4
100
AcDbEntity
  8
ASSI
100
AcDbLine
 62
7
  6
CONTINUOUS
 10
-65.088023678
 20
-45.0
 11
-65.088023678
 21
45.0
  0
LINE
  5
4F5
100
AcDbEntity
  8
DRAFT
100
AcDbLine
 62
7
  6
CONTINUOUS
 10
-64.288023678
 20
3.5
 11
-64.288023678
 21
-3.5
  0
LINE
  5
4F6
100
AcDbEntity
  8
ASSI
100
AcDbLine
 62
7
  6
CONTINUOUS
 10
-64.288023678
 20
3.5
 11
-64.288023678
 21
-3.5
  0
LINE
  5
4F7
100
AcDbEntity
  8
DRAFT
100
AcDbLine
 62
7
  6
CONTINUOUS
 10
-62.288023678
 20
43.0970752324
 11
-62.288023678
 21
3.8526539614
  0
LINE
  5
4F8
100
AcDbEntity
  8
RACCORDO
100
AcDbLine
 62
7
  6
CONTINUOUS
 10
-62.288023678
 20
43.5000000005
 11
-62.288023678
 21
43.0970752324
  0
LINE
  5
4F9
100
AcDbEntity
  8
ASSI
100
AcDbLine
 62
7
  6
CONTINUOUS
 10
-62.288023678
 20
43.5000000005
 11
-62.288023678
 21
3.8526539614
  0
LINE
  5
4FA
100
AcDbEntity
  8
DRAFT
100
AcDbLine
 62
7
  6
CONTINUOUS
 10
-62.288023678
 20
-3.8526539614
 11
-62.288023678
 21
-43.0970750476
  0
LINE
  5
4FB
100
AcDbEntity
  8
RACCORDO
100
AcDbLine
 62
7
  6
CONTINUOUS
 10
-62.288023678
 20
-43.0970750476
 11
-62.288023678
 21
-43.4986610712
  0
LINE
  5
4FC
100
AcDbEntity
  8
ASSI
100
AcDbLine
 62
7
  6
CONTINUOUS
 10
-62.288023678
 20
-3.8526539614
 11
-62.288023678
 21
-43.4986610712
  0
LINE
  5
4FD
100
AcDbEntity
  8
DRAFT
100
AcDbLine
 62
7
  6
CONTINUOUS
 10
-62.288023678
 20
3.8526539614
 11
-64.288023678
 21
3.5
  0
LINE
  5
4FE
100
AcDbEntity
  8
ASSI
100
AcDbLine
 62
7
  6
CONTINUOUS
 10
-62.288023678
 20
3.8526539614
 11
-64.288023678
 21
3.5
  0
LINE
  5
4FF
100
AcDbEntity
  8
RACCORDO
100
AcDbLine
 62
250
  6
CONTINUOUS
 10
-70.2504734484
 20
22.6654265241
 11
-70.0041053176
 21
22.6525930904
  0
LINE
  5
500
100
AcDbEntity
  8
ASSI
100
AcDbLine
 62
250
  6
CONTINUOUS
 10
-70.2504734484
 20
22.6654265241
 11
-70.0041053176
 21
22.6525930904
  0
LWPOLYLINE
  5
501
100
AcDbEntity
  8
RACCORDO
100
AcDbPolyline
 62
250
  6
CONTINUOUS
 90
5
 70
0
 10
-70.2880236618
 20
22.6677048929
 10
-70.2869614871
 20
22.6675845028
 10
-70.2837757946
 20
22.6673574847
 10
-70.278489243
 20
22.6670254534
 10
-70.2504734484
 20
22.6654265241
  0
LWPOLYLINE
  5
502
100
AcDbEntity
  8
ASSI
100
AcDbPolyline
 62
250
  6
CONTINUOUS
 90
5
 70
0
 10
-70.2880236618
 20
22.6677048929
 10
-70.2869614871
 20
22.6675845028
 10
-70.2837757946
 20
22.6673574847
 10
-70.278489243
 20
22.6670254534
 10
-70.2504734484
 20
22.6654265241
  0
LWPOLYLINE
  5
503
100
AcDbEntity
  8
0
100
AcDbPolyline
 62
7
  6
CONTINUOUS
 90
10
 70
0
 43
0.3500000006
 10
-66.7879475098
 20
59.2499996338
 10
-66.7165208588
 20
59.1071463318
 10
-66.7165208588
 20
59.0357151489
 10
-66.8593786926
 20
58.8928527832
 10
-66.9308053436
 20
58.8928527832
 10
-67.0022365265
 20
58.9642839661
 10
-67.0022365265
 20
59.0357151489
 10
-66.9308053436
 20
59.1785684509
 10
-66.8593786926
 20
59.2499996338
 10
-66.7879475098
 20
59.2499996338
  0
LWPOLYLINE
  5
504
100
AcDbEntity
  8
RACCORDO
100
AcDbPolyline
 62
250
  6
CONTINUOUS
 90
13
 70
0
 10
-62.288023722
 20
-43.0970754028
 10
-62.3742787009
 20
-43.1536176709
 10
-62.4661196908
 20
-43.2106011035
 10
-62.5636949231
 20
-43.2680257006
 10
-62.667439961
 20
-43.3263497254
 10
-62.7772090131
 20
-43.3851149147
 10
-62.8922304318
 20
-43.4429464784
 10
-63.0130975807
 20
-43.4999689762
 10
-63.1393825696
 20
-43.5560578485
 10
-63.2686290731
 20
-43.6094646261
 10
-63.3999420328
 20
-43.659606486
 10
-63.5340963365
 20
-43.7070662512
 10
-63.6710326165
 20
-43.7518439217
  0
LWPOLYLINE
  5
505
100
AcDbEntity
  8
ASSI
100
AcDbPolyline
 62
250
  6
CONTINUOUS
 90
13
 70
0
 10
-62.288023722
 20
-43.0970754028
 10
-62.3742787009
 20
-43.1536176709
 10
-62.4661196908
 20
-43.2106011035
 10
-62.5636949231
 20
-43.2680257006
 10
-62.667439961
 20
-43.3263497254
 10
-62.7772090131
 20
-43.3851149147
 10
-62.8922304318
 20
-43.4429464784
 10
-63.0130975807
 20
-43.4999689762
 10
-63.1393825696
 20
-43.5560578485
 10
-63.2686290731
 20
-43.6094646261
 10
-63.3999420328
 20
-43.659606486
 10
-63.5340963365
 20
-43.7070662512
 10
-63.6710326165
 20
-43.7518439217
  0
LWPOLYLINE
  5
506
100
AcDbEntity
  8
RACCORDO
100
AcDbPolyline
 62
250
  6
CONTINUOUS
 90
6
 70
0
 10
-67.8469986474
 20
-43.9246280943
 10
-67.8459892879
 20
-43.924207405
 10
-67.8428850389
 20
-43.9234109463
 10
-67.8377080018
 20
-43.9222443888
 10
-67.8304950358
 20
-43.9207160381
 10
-67.8212974955
 20
-43.9188367757
  0
LWPOLYLINE
  5
507
100
AcDbEntity
  8
ASSI
100
AcDbPolyline
 62
250
  6
CONTINUOUS
 90
6
 70
0
 10
-67.8469986474
 20
-43.9246280943
 10
-67.8459892879
 20
-43.924207405
 10
-67.8428850389
 20
-43.9234109463
 10
-67.8377080018
 20
-43.9222443888
 10
-67.8304950358
 20
-43.9207160381
 10
-67.8212974955
 20
-43.9188367757
  0
LWPOLYLINE
  5
508
100
AcDbEntity
  8
RACCORDO
100
AcDbPolyline
 62
250
  6
CONTINUOUS
 90
7
 70
0
 10
-67.8469986541
 20
43.9246280955
 10
-67.8459888376
 20
43.9242073328
 10
-67.8428841845
 20
43.9234108103
 10
-67.8377067987
 20
43.9222441987
 10
-67.830493541
 20
43.9207158039
 10
-67.821295767
 20
43.9188365074
 10
-67.79722227
 20
43.9140811314
  0
LWPOLYLINE
  5
509
100
AcDbEntity
  8
ASSI
100
AcDbPolyline
 62
250
  6
CONTINUOUS
 90
7
 70
0
 10
-67.8469986541
 20
43.9246280955
 10
-67.8459888376
 20
43.9242073328
 10
-67.8428841845
 20
43.9234108103
 10
-67.8377067987
 20
43.9222441987
 10
-67.830493541
 20
43.9207158039
 10
-67.821295767
 20
43.9188365074
 10
-67.79722227
 20
43.9140811314
  0
LWPOLYLINE
  5
50A
100
AcDbEntity
  8
RACCORDO
100
AcDbPolyline
 62
250
  6
CONTINUOUS
 90
10
 70
0
 10
-63.6710326165
 20
-43.7518439217
 10
-63.8234173351
 20
-43.7968862232
 10
-63.9769167322
 20
-43.8375523286
 10
-64.131375313
 20
-43.8738422378
 10
-64.2859726838
 20
-43.9057187785
 10
-64.4412127716
 20
-43.933219123
 10
-64.5989638795
 20
-43.9564547889
 10
-64.7597770566
 20
-43.9754629486
 10
-64.922845969
 20
-43.9902064297
 10
-65.0880236719
 20
-44.0006852321
  0
LWPOLYLINE
  5
50B
100
AcDbEntity
  8
ASSI
100
AcDbPolyline
 62
250
  6
CONTINUOUS
 90
10
 70
0
 10
-63.6710326165
 20
-43.7518439217
 10
-63.8234173351
 20
-43.7968862232
 10
-63.9769167322
 20
-43.8375523286
 10
-64.131375313
 20
-43.8738422378
 10
-64.2859726838
 20
-43.9057187785
 10
-64.4412127716
 20
-43.933219123
 10
-64.5989638795
 20
-43.9564547889
 10
-64.7597770566
 20
-43.9754629486
 10
-64.922845969
 20
-43.9902064297
 10
-65.0880236719
 20
-44.0006852321
  0
LINE
  5
50C
100
AcDbEntity
  8
RACCORDO
100
AcDbLine
 62
250
  6
CONTINUOUS
 10
-67.5674540828
 20
43.8714290238
 11
-65.088023678
 21
44.0013704652
  0
LINE
  5
50D
100
AcDbEntity
  8
ASSI
100
AcDbLine
 62
250
  6
CONTINUOUS
 10
-67.5674540828
 20
43.8714290238
 11
-65.088023678
 21
44.0013704652
  0
LWPOLYLINE
  5
50E
100
AcDbEntity
  8
RACCORDO
100
AcDbPolyline
 62
250
  6
CONTINUOUS
 90
13
 70
0
 10
-65.0880236541
 20
44.0006852308
 10
-64.9700304581
 20
43.993887186
 10
-64.8520511938
 20
43.9846325241
 10
-64.7341484717
 20
43.9729212452
 10
-64.6165630835
 20
43.9587976303
 10
-64.4991795151
 20
43.9422173982
 10
-64.3815322765
 20
43.9230477058
 10
-64.2636023456
 20
43.9013015824
 10
-64.1455545744
 20
43.8769659985
 10
-64.0272121927
 20
43.8498690225
 10
-63.9085742957
 20
43.8199533438
 10
-63.7898113141
 20
43.7872762729
 10
-63.6710119528
 20
43.7518378099
  0
LWPOLYLINE
  5
50F
100
AcDbEntity
  8
ASSI
100
AcDbPolyline
 62
250
  6
CONTINUOUS
 90
13
 70
0
 10
-65.0880236541
 20
44.0006852308
 10
-64.9700304581
 20
43.993887186
 10
-64.8520511938
 20
43.9846325241
 10
-64.7341484717
 20
43.9729212452
 10
-64.6165630835
 20
43.9587976303
 10
-64.4991795151
 20
43.9422173982
 10
-64.3815322765
 20
43.9230477058
 10
-64.2636023456
 20
43.9013015824
 10
-64.1455545744
 20
43.8769659985
 10
-64.0272121927
 20
43.8498690225
 10
-63.9085742957
 20
43.8199533438
 10
-63.7898113141
 20
43.7872762729
 10
-63.6710119528
 20
43.7518378099
  0
LINE
  5
510
100
AcDbEntity
  8
RACCORDO
100
AcDbLine
 62
250
  6
CONTINUOUS
 10
-67.6868372841
 20
43.8932482565
 11
-67.5674537138
 21
43.871429024
  0
LINE
  5
511
100
AcDbEntity
  8
ASSI
100
AcDbLine
 62
250
  6
CONTINUOUS
 10
-67.6868372841
 20
43.8932482565
 11
-67.5674537138
 21
43.871429024
  0
LINE
  5
512
100
AcDbEntity
  8
RACCORDO
100
AcDbLine
 62
250
  6
CONTINUOUS
 10
-67.766170661
 20
43.9081132548
 11
-67.6868372841
 21
43.8932482565
  0
LINE
  5
513
100
AcDbEntity
  8
ASSI
100
AcDbLine
 62
250
  6
CONTINUOUS
 10
-67.766170661
 20
43.9081132548
 11
-67.6868372841
 21
43.8932482565
  0
LINE
  5
514
100
AcDbEntity
  8
RACCORDO
100
AcDbLine
 62
250
  6
CONTINUOUS
 10
-67.79722227
 20
43.9140811314
 11
-67.766170661
 21
43.9081132548
  0
LINE
  5
515
100
AcDbEntity
  8
ASSI
100
AcDbLine
 62
250
  6
CONTINUOUS
 10
-67.79722227
 20
43.9140811314
 11
-67.766170661
 21
43.9081132548
  0
LWPOLYLINE
  5
516
100
AcDbEntity
  8
RACCORDO
100
AcDbPolyline
 62
250
  6
CONTINUOUS
 90
13
 70
0
 10
-63.6710119528
 20
43.7518378099
 10
-63.5211424926
 20
43.7022200254
 10
-63.3775160986
 20
43.6509469089
 10
-63.2400998571
 20
43.5980184605
 10
-63.1084313213
 20
43.5428516548
 10
-62.9828618852
 20
43.486029517
 10
-62.8645040672
 20
43.4293011232
 10
-62.7540428515
 20
43.3731503189
 10
-62.6504630706
 20
43.3170932585
 10
-62.552315623
 20
43.2614274812
 10
-62.4590600754
 20
43.2062521667
 10
-62.3710054888
 20
43.1514681353
 10
-62.2880236971
 20
43.097075387
  0
LWPOLYLINE
  5
517
100
AcDbEntity
  8
ASSI
100
AcDbPolyline
 62
250
  6
CONTINUOUS
 90
13
 70
0
 10
-63.6710119528
 20
43.7518378099
 10
-63.5211424926
 20
43.7022200254
 10
-63.3775160986
 20
43.6509469089
 10
-63.2400998571
 20
43.5980184605
 10
-63.1084313213
 20
43.5428516548
 10
-62.9828618852
 20
43.486029517
 10
-62.8645040672
 20
43.4293011232
 10
-62.7540428515
 20
43.3731503189
 10
-62.6504630706
 20
43.3170932585
 10
-62.552315623
 20
43.2614274812
 10
-62.4590600754
 20
43.2062521667
 10
-62.3710054888
 20
43.1514681353
 10
-62.2880236971
 20
43.097075387
  0
LINE
  5
518
100
AcDbEntity
  8
RACCORDO
100
AcDbLine
 62
7
  6
CONTINUOUS
 10
-67.4387164572
 20
44.8768054117
 11
-65.088023678
 21
45.0
  0
LINE
  5
519
100
AcDbEntity
  8
ASSI
100
AcDbLine
 62
7
  6
CONTINUOUS
 10
-67.4387164572
 20
44.8768054117
 11
-65.088023678
 21
45.0
  0
LWPOLYLINE
  5
51A
100
AcDbEntity
  8
0
100
AcDbPolyline
 62
7
  6
CONTINUOUS
 90
13
 70
0
 43
0.3500000006
 10
-69.3593794556
 20
60.4642844238
 10
-69.6450905914
 20
60.6785689087
 10
-69.6450905914
 20
61.321431427
 10
-69.3593794556
 20
61.7500003967
 10
-68.7165214691
 20
61.7500003967
 10
-68.4308058014
 20
61.321431427
 10
-68.4308058014
 20
60.6785689087
 10
-68.7165214691
 20
60.4642844238
 10
-68.2879479675
 20
60.0357154541
 10
-68.2879479675
 20
59.1785684509
 10
-68.7165214691
 20
58.7499994812
 10
-69.3593794556
 20
58.7499994812
 10
-69.7879484253
 20
59.1785684509
  0
ARC
  5
51B
100
AcDbEntity
  8
RACCORDO
100
AcDbCircle
 62
7
  6
CONTINUOUS
 10
-65.3595034944
 20
-39.3198565139
 40
5.1872524353
100
AcDbArc
 50
273.0000000399
 51
306.3076478614
  0
ARC
  5
51C
100
AcDbEntity
  8
ASSI
100
AcDbCircle
 62
7
  6
CONTINUOUS
 10
-65.3595034944
 20
-39.3198565139
 40
5.1872524353
100
AcDbArc
 50
273.0000000399
 51
306.3076478614
  0
ARC
  5
51D
100
AcDbEntity
  8
RACCORDO
100
AcDbCircle
 62
7
  6
CONTINUOUS
 10
-67.4230169203
 20
-44.577209968
 40
0.3000000001
100
AcDbArc
 50
190.4615209044
 51
267.0003041861
  0
ARC
  5
51E
100
AcDbEntity
  8
ASSI
100
AcDbCircle
 62
7
  6
CONTINUOUS
 10
-67.4230169203
 20
-44.577209968
 40
0.3000000001
100
AcDbArc
 50
190.4615209044
 51
267.0003041861
  0
ARC
  5
51F
100
AcDbEntity
  8
RACCORDO
100
AcDbCircle
 62
7
  6
CONTINUOUS
 10
96.9326680896
 20
-14.2336437913
 40
167.4332498099
100
AcDbArc
 50
182.8873441217
 51
190.4598220317
  0
ARC
  5
520
100
AcDbEntity
  8
0
100
AcDbCircle
 62
7
  6
CONTINUOUS
 10
96.9326680896
 20
-14.2336437913
 40
167.4332498099
100
AcDbArc
 50
184.5182554331
 51
185.0176525292
  0
ARC
  5
521
100
AcDbEntity
  8
0
100
AcDbCircle
 62
7
  6
CONTINUOUS
 10
96.9326680896
 20
-14.2336437913
 40
167.4332498099
100
AcDbArc
 50
184.4839778236
 51
184.5132030469
  0
ARC
  5
522
100
AcDbEntity
  8
0
100
AcDbCircle
 62
7
  6
CONTINUOUS
 10
96.9326680896
 20
-14.2336437913
 40
167.4332498099
100
AcDbArc
 50
184.0677903884
 51
184.2111555131
  0
ARC
  5
523
100
AcDbEntity
  8
0
100
AcDbCircle
 62
7
  6
CONTINUOUS
 10
96.9326680896
 20
-14.2336437913
 40
167.4332498099
100
AcDbArc
 50
184.211753473
 51
184.4831742835
  0
ARC
  5
524
100
AcDbEntity
  8
ASSI
100
AcDbCircle
 62
7
  6
CONTINUOUS
 10
96.9326680896
 20
-14.2336437913
 40
167.4332498099
100
AcDbArc
 50
182.8873441217
 51
190.4598220317
  0
ARC
  5
525
100
AcDbEntity
  8
RACCORDO
100
AcDbCircle
 62
7
  6
CONTINUOUS
 10
-65.3595034944
 20
39.3198565139
 40
5.1872524353
100
AcDbArc
 50
53.692351894
 51
86.9999997364
  0
ARC
  5
526
100
AcDbEntity
  8
ASSI
100
AcDbCircle
 62
7
  6
CONTINUOUS
 10
-65.3595034944
 20
39.3198565139
 40
5.1872524353
100
AcDbArc
 50
53.692351894
 51
86.9999997364
  0
ARC
  5
527
100
AcDbEntity
  8
RACCORDO
100
AcDbCircle
 62
7
  6
CONTINUOUS
 10
-67.4230156703
 20
44.5772165512
 40
0.3
100
AcDbArc
 50
93.0
 51
169.5397588495
  0
ARC
  5
528
100
AcDbEntity
  8
ASSI
100
AcDbCircle
 62
7
  6
CONTINUOUS
 10
-67.4230156703
 20
44.5772165512
 40
0.3
100
AcDbArc
 50
93.0
 51
169.5397588495
  0
ARC
  5
529
100
AcDbEntity
  8
RACCORDO
100
AcDbCircle
 62
7
  6
CONTINUOUS
 10
96.9326680896
 20
14.2336437913
 40
167.4332498099
100
AcDbArc
 50
169.5397588495
 51
177.1126559741
  0
ARC
  5
52A
100
AcDbEntity
  8
ASSI
100
AcDbCircle
 62
7
  6
CONTINUOUS
 10
96.9326680896
 20
14.2336437913
 40
167.4332498099
100
AcDbArc
 50
169.5397588495
 51
177.1126559741
  0
ARC
  5
52B
100
AcDbEntity
  8
0
100
AcDbCircle
 62
250
  6
CONTINUOUS
 10
96.9326680896
 20
14.2336437913
 40
167.4332498099
100
AcDbArc
 50
174.8378886711
 51
176.2097334504
  0
ARC
  5
52C
100
AcDbEntity
  8
RACCORDO
100
AcDbCircle
 62
7
  6
CONTINUOUS
 10
379.1406972054
 20
-0.0
 40
450.0
100
AcDbArc
 50
177.1126435736
 51
182.8873564621
  0
ARC
  5
52D
100
AcDbEntity
  8
ASSI
100
AcDbCircle
 62
7
  6
CONTINUOUS
 10
379.1406972054
 20
-0.0
 40
450.0
100
AcDbArc
 50
177.1126435736
 51
182.8873564621
  0
ELLIPSE
  5
52E
100
AcDbEntity
  8
RACCORDO
100
AcDbEllipse
 62
7
  6
CONTINUOUS
 10
-43.998627654
 20
-43.998627654
 30
0.0
 11
0.7090462434
 21
0.7090462434
 31
0.0
 40
0.9972646886
 41
-3.9256212891
 42
-2.3575640181
  0
ELLIPSE
  5
52F
100
AcDbEntity
  8
RACCORDO
100
AcDbEllipse
 62
7
  6
CONTINUOUS
 10
43.998627654
 20
-43.998627654
 30
0.0
 11
-0.7090462434
 21
0.7090462434
 31
0.0
 40
0.9972646886
 41
-3.9256212891
 42
-2.3575640181
  0
ELLIPSE
  5
530
100
AcDbEntity
  8
RACCORDO
100
AcDbEllipse
 62
7
  6
CONTINUOUS
 10
43.998627654
 20
43.998627654
 30
0.0
 11
0.7090462434
 21
0.7090462434
 31
0.0
 40
0.9972646886
 41
-0.7840286355
 42
0.7840286355
  0
ELLIPSE
  5
531
100
AcDbEntity
  8
RACCORDO
100
AcDbEllipse
 62
7
  6
CONTINUOUS
 10
-43.998627654
 20
43.998627654
 30
0.0
 11
-0.7090462434
 21
0.7090462434
 31
0.0
 40
0.9972646886
 41
-0.7840286355
 42
0.7840286355
  0
ELLIPSE
  5
532
100
AcDbEntity
  8
0
100
AcDbEllipse
 62
7
  6
CONTINUOUS
 10
21.7989021232
 20
-21.6989021232
 30
0.0
 11
0.5672369947
 21
-0.5672369947
 31
0.0
 40
0.9972646886
 41
-0.7840286355
 42
0.7840286355
  0
ELLIPSE
  5
533
100
AcDbEntity
  8
0
100
AcDbEllipse
 62
7
  6
CONTINUOUS
 10
21.7989021232
 20
21.6989021232
 30
0.0
 11
0.5672369947
 21
0.5672369947
 31
0.0
 40
0.9972646886
 41
-0.7840286355
 42
0.7840286355
  0
ELLIPSE
  5
534
100
AcDbEntity
  8
0
100
AcDbEllipse
 62
7
  6
CONTINUOUS
 10
-21.7989021232
 20
21.6989021232
 30
0.0
 11
0.5672369947
 21
-0.5672369947
 31
0.0
 40
0.9972646886
 41
2.3575640181
 42
3.9256212891
  0
ELLIPSE
  5
535
100
AcDbEntity
  8
0
100
AcDbEllipse
 62
7
  6
CONTINUOUS
 10
-21.7989021232
 20
-21.6989021232
 30
0.0
 11
0.5672369947
 21
0.5672369947
 31
0.0
 40
0.9972646886
 41
-3.9256212891
 42
-2.3575640181
  0
ELLIPSE
  5
536
100
AcDbEntity
  8
ASSI
100
AcDbEllipse
 62
7
  6
CONTINUOUS
 10
-43.998627654
 20
-43.998627654
 30
0.0
 11
0.7090462434
 21
0.7090462434
 31
0.0
 40
0.9972646886
 41
-3.9256212891
 42
-2.3575640181
  0
ELLIPSE
  5
537
100
AcDbEntity
  8
ASSI
100
AcDbEllipse
 62
7
  6
CONTINUOUS
 10
43.998627654
 20
-43.998627654
 30
0.0
 11
-0.7090462434
 21
0.7090462434
 31
0.0
 40
0.9972646886
 41
-3.9256212891
 42
-2.3575640181
  0
ELLIPSE
  5
538
100
AcDbEntity
  8
ASSI
100
AcDbEllipse
 62
7
  6
CONTINUOUS
 10
43.998627654
 20
43.998627654
 30
0.0
 11
0.7090462434
 21
0.7090462434
 31
0.0
 40
0.9972646886
 41
-0.7840286355
 42
0.7840286355
  0
ELLIPSE
  5
539
100
AcDbEntity
  8
ASSI
100
AcDbEllipse
 62
7
  6
CONTINUOUS
 10
-43.998627654
 20
43.998627654
 30
0.0
 11
-0.7090462434
 21
0.7090462434
 31
0.0
 40
0.9972646886
 41
-0.7840286355
 42
0.7840286355
  0
ELLIPSE
  5
53A
100
AcDbEntity
  8
ASSI
100
AcDbEllipse
 62
7
  6
CONTINUOUS
 10
21.7989021232
 20
-21.6989021232
 30
0.0
 11
0.5672369947
 21
-0.5672369947
 31
0.0
 40
0.9972646886
 41
-0.7840286355
 42
0.7840286355
  0
ELLIPSE
  5
53B
100
AcDbEntity
  8
ASSI
100
AcDbEllipse
 62
7
  6
CONTINUOUS
 10
21.7989021232
 20
21.6989021232
 30
0.0
 11
0.5672369947
 21
0.5672369947
 31
0.0
 40
0.9972646886
 41
-0.7840286355
 42
0.7840286355
  0
ELLIPSE
  5
53C
100
AcDbEntity
  8
ASSI
100
AcDbEllipse
 62
7
  6
CONTINUOUS
 10
-21.7989021232
 20
21.6989021232
 30
0.0
 11
0.5672369947
 21
-0.5672369947
 31
0.0
 40
0.9972646886
 41
2.3575640181
 42
3.9256212891
  0
ELLIPSE
  5
53D
100
AcDbEntity
  8
ASSI
100
AcDbEllipse
 62
7
  6
CONTINUOUS
 10
-21.7989021232
 20
-21.6989021232
 30
0.0
 11
0.5672369947
 21
0.5672369947
 31
0.0
 40
0.9972646886
 41
-3.9256212891
 42
-2.3575640181
  0
ELLIPSE
  5
53E
100
AcDbEntity
  8
0
100
AcDbEllipse
 62
250
  6
CONTINUOUS
 10
96.9326680896
 20
14.2336437913
 30
0.0
 11
0.0
 21
167.4332498099
 31
0.0
 40
1.0
 41
7.7674802418
 42
7.7842402785
  0
ENDSEC
  0
SECTION
  2
OBJECTS
  0
DICTIONARY
  5
C
100
AcDbDictionary
280
0
281
1
  3
ACAD_GROUP
350
D
  3
ACAD_MLINESTYLE
350
17
  3
ACAD_LAYOUT
350
1A
  3
ACAD_PLOTSETTINGS
350
19
  3
ACAD_PLOTSTYLENAME
350
E
  0
DICTIONARY
  5
D
102
{ACAD_REACTORS
330
C
102
}
100
AcDbDictionary
280
0
281
1
  0
ACDBDICTIONARYWDFLT
  5
E
102
{ACAD_REACTORS
330
C
102
}
100
AcDbDictionary
281
1
  3
Normal
350
F
100
AcDbDictionaryWithDefault
340
F
  0
DICTIONARY
  5
17
102
{ACAD_REACTORS
330
C
102
}
100
AcDbDictionary
280
0
281
1
  3
Standard
350
18
  0
DICTIONARY
  5
19
102
{ACAD_REACTORS
330
C
102
}
100
AcDbDictionary
281
1
  0
DICTIONARY
  5
1A
102
{ACAD_REACTORS
330
C
102
}
100
AcDbDictionary
281
1
  3
Model
350
53F
  3
Layout1
350
540
  0
ACDBPLACEHOLDER
  5
F
102
{ACAD_REACTORS
330
E
102
}
  0
MLINESTYLE
  5
18
102
{ACAD_REACTORS
330
17
102
}
100
AcDbMlineStyle
  2
STANDARD
 70
0
  3

 62
256
 51
90.0
 52
90.0
 71
2
 49
0.5
 62
256
  6
BYLAYER
 49
-0.5
 62
256
  6
BYLAYER
  0
LAYOUT
  5
53F
102
{ACAD_REACTORS
330
1A
102
}
100
AcDbPlotSettings
  1

  2
none_device
  4
ISO_A4_(297.00_x_210.00_MM)
  6

 40
0.0
 41
0.0
 42
0.0
 43
0.0
 44
297.0
 45
210.0
 46
0.0
 47
0.0
 48
0.0
 49
0.0
140
0.0
141
0.0
142
1.0
143
1.0
 70
1024
 72
1
 73
0
 74
0
  7

 75
0
147
1.0
148
0.0
149
0.0
100
AcDbLayout
  1
Model
 70
0
 71
0
 10
0.0
 20
0.0
 11
297.0
 21
210.0
 12
0.0
 22
0.0
 32
0.0
 14
0.0
 24
0.0
 34
0.0
 15
0.0
 25
0.0
 35
0.0
146
0.0
 13
0.0
 23
0.0
 33
0.0
 16
1.0
 26
0.0
 36
0.0
 17
0.0
 27
1.0
 37
0.0
 76
0
330
216
345
0
346
0
  0
LAYOUT
  5
540
102
{ACAD_REACTORS
330
1A
102
}
100
AcDbPlotSettings
  1

  2
none_device
  4
ISO_A4_(297.00_x_210.00_MM)
  6

 40
0.0
 41
0.0
 42
0.0
 43
0.0
 44
297.0
 45
210.0
 46
0.0
 47
0.0
 48
0.0
 49
0.0
140
0.0
141
0.0
142
1.0
143
1.0
 70
0
 72
1
 73
0
 74
0
  7

 75
0
147
1.0
148
0.0
149
0.0
100
AcDbLayout
  1
Layout1
 70
0
 71
1
 10
0.0
 20
0.0
 11
297.0
 21
210.0
 12
0.0
 22
0.0
 32
0.0
 14
0.0
 24
0.0
 34
0.0
 15
0.0
 25
0.0
 35
0.0
146
0.0
 13
0.0
 23
0.0
 33
0.0
 16
1.0
 26
0.0
 36
0.0
 17
0.0
 27
1.0
 37
0.0
 76
0
330
217
345
0
346
0
  0
ENDSEC
  0
EOF
