  0
SECTION
  2
HEADER
  9
$ACADVER
  1
AC1024
  9
$DWGCODEPAGE
  3
ANSI_1252
  9
$EXTMAX
 10
297.0
 20
210.0
 30
0.0
  9
$EXTMIN
 10
0.0
 20
0.0
 30
0.0
  9
$LIMMIN
 10
0.0
 20
0.0
  9
$LIMMAX
 10
297.0
 20
210.0
  9
$VIEWCTR
 10
148.5
 20
105.0
  9
$VIEWSIZE
 40
210.0
  9
$CLAYER
  8
0
  9
$LTSCALE
 40
16.335
  9
$CELTYPE
  6
BYLAYER
  9
$DIMSCALE
 40
1.0
  9
$DIMASZ
 40
3.0
  9
$DIMEXO
 40
0.5
  9
$DIMDLI
 40
11.286
  9
$DIMEXE
 40
1.5
  9
$DIMCEN
 40
2.673
  9
$DIMLFAC
 40
1.0
  9
$DIMBLK
  1
_FILLED
  9
$DIMALT
 70
0
  9
$DIMALTF
 40
0.0393700787
  9
$DIMTXT
 40
3.0
  9
$DIMTOL
 70
1
  9
$DIMLIM
 70
0
  9
$DIMTFAC
 40
1.0
  9
$DIMTP
 40
0.01
  9
$DIMTM
 40
0.01
  9
$DIMGAP
 40
0.625
  9
$DIMDSEP
 70
44
  9
$AUNITS
 70
0
  9
$PDMODE
 70
3
  9
$PDSIZE
 40
3.0
  9
$HANDSEED
  5
593
  9
$TILEMODE
 70
1
  9
$MEASUREMENT
 70
1
  9
$INSUNITS
 70
4
  0
ENDSEC
  0
SECTION
  2
CLASSES
  0
CLASS
  1
ACDBDICTIONARYWDFLT
  2
AcDbDictionaryWithDefault
  3
AutoCAD 2000
 90
0
 91
1
280
0
281
0
  0
CLASS
  1
ACDBPLACEHOLDER
  2
AcDbPlaceHolder
  3
AutoCAD 2000
 90
0
 91
1
280
0
281
0
  0
CLASS
  1
LAYOUT
  2
AcDbLayout
  3
AutoCAD 2000
 90
0
 91
0
280
0
281
0
  0
ENDSEC
  0
SECTION
  2
TABLES
  0
TABLE
  2
VPORT
  5
8
100
AcDbSymbolTable
 70
2
  0
VPORT
  5
1F4
100
AcDbSymbolTableRecord
100
AcDbViewportTableRecord
  2
*ACTIVE
 70
0
 10
0.0
 20
0.0
 11
1.0
 21
1.0
 12
148.5
 22
105.0
 13
0.0
 23
0.0
 14
1.0
 24
1.0
 15
0.0
 25
0.0
 16
0.0
 26
0.0
 36
1.0
 17
0.0
 27
0.0
 37
0.0
 40
210.0
 41
1.4142857143
 42
50.0
 43
0.0
 44
0.0
 50
0.0
 51
0.0
 71
0
 72
100
 73
1
 74
1
 75
0
 76
0
 77
0
 78
0
  0
ENDTAB
  0
TABLE
  2
LTYPE
  5
5
100
AcDbSymbolTable
 70
6
  0
LTYPE
  5
14
100
AcDbSymbolTableRecord
100
AcDbLinetypeTableRecord
  2
BYBLOCK
 70
0
  3

 72
65
 73
0
 40
0.0
  0
LTYPE
  5
15
100
AcDbSymbolTableRecord
100
AcDbLinetypeTableRecord
  2
BYLAYER
 70
0
  3

 72
65
 73
0
 40
0.0
  0
LTYPE
  5
16
100
AcDbSymbolTableRecord
100
AcDbLinetypeTableRecord
  2
CONTINUOUS
 70
64
  3
Solid line
 72
65
 73
0
 40
0.0
  0
LTYPE
  5
1F5
100
AcDbSymbolTableRecord
100
AcDbLinetypeTableRecord
  2
CENTER
 70
64
  3
____ _ ____ _ ____ _ ____ _ ____ _ ____ _ ____
 72
65
 73
4
 40
0.6
 49
0.375
 74
0
 49
-0.075
 74
0
 49
0.075
 74
0
 49
-0.075
 74
0
  0
LTYPE
  5
1F6
100
AcDbSymbolTableRecord
100
AcDbLinetypeTableRecord
  2
HIDDEN
 70
64
  3
- - - - - - - - - - - - - - - - - - - -
 72
65
 73
2
 40
0.2
 49
0.1
 74
0
 49
-0.1
 74
0
  0
LTYPE
  5
1F7
100
AcDbSymbolTableRecord
100
AcDbLinetypeTableRecord
  2
PHANTOM
 70
64
  3
_____ _ _ _____ _ _ _____ _ _ _____
 72
65
 73
6
 40
0.8
 49
0.45
 74
0
 49
-0.05
 74
0
 49
0.1
 74
0
 49
-0.05
 74
0
 49
0.1
 74
0
 49
-0.05
 74
0
  0
LTYPE
  5
1F8
100
AcDbSymbolTableRecord
100
AcDbLinetypeTableRecord
  2
DOT
 70
64
  3
. . . . . . . . . . . . . . . . . . . .
 72
65
 73
2
 40
0.2
 49
0.1
 74
0
 49
-0.1
 74
0
  0
LTYPE
  5
1F9
100
AcDbSymbolTableRecord
100
AcDbLinetypeTableRecord
  2
DASHED
 70
64
  3
- - - - - - - - - - - - - - - - - - - -
 72
65
 73
2
 40
0.2
 49
0.1
 74
0
 49
-0.1
 74
0
  0
ENDTAB
  0
TABLE
  2
LAYER
  5
2
100
AcDbSymbolTable
 70
36
  0
LAYER
  5
10
100
AcDbSymbolTableRecord
100
AcDbLayerTableRecord
  2
0
 70
0
 62
7
  6
CONTINUOUS
370
-3
390
F
  0
LAYER
  5
1FA
100
AcDbSymbolTableRecord
100
AcDbLayerTableRecord
  2
DEFAULT_1
 70
0
 62
7
  6
CENTER
370
-3
390
F
  0
LAYER
  5
1FB
100
AcDbSymbolTableRecord
100
AcDbLayerTableRecord
  2
DEFAULT_2
 70
0
 62
7
  6
HIDDEN
370
-3
390
F
  0
LAYER
  5
1FC
100
AcDbSymbolTableRecord
100
AcDbLayerTableRecord
  2
DEFAULT_3
 70
0
 62
7
  6
PHANTOM
370
-3
390
F
  0
LAYER
  5
1FD
100
AcDbSymbolTableRecord
100
AcDbLayerTableRecord
  2
ASSI
 70
0
 62
7
  6
CONTINUOUS
370
-3
390
F
  0
LAYER
  5
1FE
100
AcDbSymbolTableRecord
100
AcDbLayerTableRecord
  2
COORDINATE
 70
0
 62
7
  6
CONTINUOUS
370
-3
390
F
  0
LAYER
  5
1FF
100
AcDbSymbolTableRecord
100
AcDbLayerTableRecord
  2
COPY_PUBLISH
 70
0
 62
7
  6
CONTINUOUS
370
-3
390
F
  0
LAYER
  5
200
100
AcDbSymbolTableRecord
100
AcDbLayerTableRecord
  2
COSMETIC
 70
0
 62
7
  6
CONTINUOUS
370
-3
390
F
  0
LAYER
  5
201
100
AcDbSymbolTableRecord
100
AcDbLayerTableRecord
  2
COSMETICI
 70
0
 62
7
  6
CONTINUOUS
370
-3
390
F
  0
LAYER
  5
202
100
AcDbSymbolTableRecord
100
AcDbLayerTableRecord
  2
CURVE
 70
0
 62
7
  6
CONTINUOUS
370
-3
390
F
  0
LAYER
  5
203
100
AcDbSymbolTableRecord
100
AcDbLayerTableRecord
  2
CURVE_VERN
 70
0
 62
7
  6
CONTINUOUS
370
-3
390
F
  0
LAYER
  5
204
100
AcDbSymbolTableRecord
100
AcDbLayerTableRecord
  2
DRAFT
 70
0
 62
7
  6
CONTINUOUS
370
-3
390
F
  0
LAYER
  5
205
100
AcDbSymbolTableRecord
100
AcDbLayerTableRecord
  2
IMPORT_IGES
 70
0
 62
7
  6
CONTINUOUS
370
-3
390
F
  0
LAYER
  5
206
100
AcDbSymbolTableRecord
100
AcDbLayerTableRecord
  2
INTFCLR_1
 70
0
 62
7
  6
CONTINUOUS
370
-3
390
F
  0
LAYER
  5
207
100
AcDbSymbolTableRecord
100
AcDbLayerTableRecord
  2
INTF_1
 70
0
 62
7
  6
CONTINUOUS
370
-3
390
F
  0
LAYER
  5
208
100
AcDbSymbolTableRecord
100
AcDbLayerTableRecord
  2
NOTE
 70
0
 62
7
  6
CONTINUOUS
370
-3
390
F
  0
LAYER
  5
209
100
AcDbSymbolTableRecord
100
AcDbLayerTableRecord
  2
PIANI
 70
0
 62
7
  6
CONTINUOUS
370
-3
390
F
  0
LAYER
  5
20A
100
AcDbSymbolTableRecord
100
AcDbLayerTableRecord
  2
PUNTI
 70
0
 62
7
  6
CONTINUOUS
370
-3
390
F
  0
LAYER
  5
20B
100
AcDbSymbolTableRecord
100
AcDbLayerTableRecord
  2
RACCORDO
 70
0
 62
7
  6
CONTINUOUS
370
-3
390
F
  0
LAYER
  5
20C
100
AcDbSymbolTableRecord
100
AcDbLayerTableRecord
  2
RGB____0____0____0__
 70
0
 62
7
  6
CONTINUOUS
370
-3
390
F
  0
LAYER
  5
20D
100
AcDbSymbolTableRecord
100
AcDbLayerTableRecord
  2
SIMBOLI
 70
0
 62
7
  6
CONTINUOUS
370
-3
390
F
  0
LAYER
  5
20E
100
AcDbSymbolTableRecord
100
AcDbLayerTableRecord
  2
SMUSSO
 70
0
 62
7
  6
CONTINUOUS
370
-3
390
F
  0
LAYER
  5
20F
100
AcDbSymbolTableRecord
100
AcDbLayerTableRecord
  2
SNAPLINE
 70
0
 62
7
  6
CONTINUOUS
370
-3
390
F
  0
LAYER
  5
210
100
AcDbSymbolTableRecord
100
AcDbLayerTableRecord
  2
SUPERFICI
 70
0
 62
7
  6
CONTINUOUS
370
-3
390
F
  0
LAYER
  5
211
100
AcDbSymbolTableRecord
100
AcDbLayerTableRecord
  2
TRASH
 70
0
 62
7
  6
CONTINUOUS
370
-3
390
F
  0
LAYER
  5
212
100
AcDbSymbolTableRecord
100
AcDbLayerTableRecord
  2
XSEC_DATUMS
 70
0
 62
7
  6
CONTINUOUS
370
-3
390
F
  0
ENDTAB
  0
TABLE
  2
STYLE
  5
3
100
AcDbSymbolTable
 70
1
  0
STYLE
  5
11
100
AcDbSymbolTableRecord
100
AcDbTextStyleTableRecord
  2
STANDARD
 70
0
 40
0.0
 41
0.8
 50
0.0
 71
0
 42
0.2
  3
txt
  4

  0
STYLE
  5
213
100
AcDbSymbolTableRecord
100
AcDbTextStyleTableRecord
  2
TEXTSTYLE_1
 70
0
 40
0.0
 41
0.8
 50
0.0
 71
0
 42
0.2
  3
gdt
  4

  0
ENDTAB
  0
TABLE
  2
VIEW
  5
6
100
AcDbSymbolTable
 70
0
  0
ENDTAB
  0
TABLE
  2
UCS
  5
7
100
AcDbSymbolTable
 70
0
  0
ENDTAB
  0
TABLE
  2
APPID
  5
9
100
AcDbSymbolTable
 70
1
  0
APPID
  5
214
100
AcDbSymbolTableRecord
100
AcDbRegAppTableRecord
  2
ACAD
 70
0
  0
ENDTAB
  0
TABLE
  2
BLOCK_RECORD
  5
1
100
AcDbSymbolTable
 70
0
  0
BLOCK_RECORD
  5
215
100
AcDbSymbolTableRecord
100
AcDbBlockTableRecord
  2
*Model_Space
  0
BLOCK_RECORD
  5
216
100
AcDbSymbolTableRecord
100
AcDbBlockTableRecord
  2
*Paper_Space
  0
BLOCK_RECORD
  5
217
100
AcDbSymbolTableRecord
100
AcDbBlockTableRecord
  2
_FILLED
  0
BLOCK_RECORD
  5
218
100
AcDbSymbolTableRecord
100
AcDbBlockTableRecord
  2
*D0
  0
BLOCK_RECORD
  5
219
100
AcDbSymbolTableRecord
100
AcDbBlockTableRecord
  2
*D1
  0
BLOCK_RECORD
  5
21A
100
AcDbSymbolTableRecord
100
AcDbBlockTableRecord
  2
*D2
  0
ENDTAB
  0
TABLE
  2
DIMSTYLE
  5
A
100
AcDbSymbolTable
 70
1
100
AcDbDimStyleTable
 71
0
  0
DIMSTYLE
105
21B
100
AcDbSymbolTableRecord
100
AcDbDimStyleTableRecord
  2
STANDARD
 70
0
  3

  4

 40
1.0
 41
3.0
 42
0.5
 43
0.38
 44
1.5
 45
0.0
 46
0.0
 47
0.01
 48
0.01
140
3.0
141
0.09
142
0.0
143
25.4
144
1.0
145
0.0
146
1.0
147
0.625
 71
1
 72
0
 73
0
 74
0
 75
0
 76
0
 77
1
 78
8
 79
2
170
0
171
1
172
0
173
0
174
0
175
0
176
0
177
0
178
0
270
2
179
2
271
2
272
2
273
2
274
2
275
0
280
0
281
0
282
0
283
1
284
8
285
0
286
0
287
3
288
0
340
11
278
44
341
217
342
217
343
217
344
217
  0
DIMSTYLE
105
21C
100
AcDbSymbolTableRecord
100
AcDbDimStyleTableRecord
  2
DIMSTYLE_1
 70
0
  3

  4

 40
1.0
 41
3.0
 42
0.5
 43
0.38
 44
1.5
 45
0.0
 46
0.0
 47
0.0
 48
0.0
140
3.0
141
0.09
142
0.0
143
25.4
144
1.0
145
0.0
146
1.0
147
0.75
 71
0
 72
0
 73
0
 74
0
 75
0
 76
0
 77
1
 78
8
 79
2
170
0
171
1
172
0
173
0
174
0
175
0
176
0
177
0
178
0
270
2
179
2
271
1
272
1
273
2
274
2
275
0
280
0
281
0
282
0
283
1
284
8
285
0
286
0
287
3
288
0
340
11
278
44
341
217
342
217
343
217
344
217
  0
DIMSTYLE
105
21D
100
AcDbSymbolTableRecord
100
AcDbDimStyleTableRecord
  2
DIMSTYLE_2
 70
0
  3

  4

 40
1.0
 41
3.0
 42
0.5
 43
0.38
 44
1.5
 45
0.0
 46
0.0
 47
0.0
 48
0.0
140
3.0
141
0.09
142
0.0
143
25.4
144
1.0
145
0.0
146
1.0
147
0.75
 71
0
 72
0
 73
0
 74
0
 75
0
 76
0
 77
1
 78
8
 79
2
170
0
171
1
172
0
173
0
174
0
175
0
176
0
177
0
178
0
270
2
179
2
271
2
272
2
273
2
274
2
275
0
280
0
281
0
282
0
283
1
284
8
285
0
286
0
287
3
288
0
340
11
278
44
341
217
342
217
343
217
344
217
  0
ENDTAB
  0
ENDSEC
  0
SECTION
  2
BLOCKS
  0
BLOCK
  5
20
100
AcDbEntity
  8
0
100
AcDbBlockBegin
  2
*Model_Space
 70
0
 10
0.0
 20
0.0
 30
0.0
  3
*Model_Space
  1

  0
ENDBLK
  5
21
100
AcDbEntity
  8
0
100
AcDbBlockEnd
  0
BLOCK
  5
1C
100
AcDbEntity
  8
0
100
AcDbBlockBegin
  2
*Paper_Space
 70
0
 10
0.0
 20
0.0
 30
0.0
  3
*Paper_Space
  1

  0
ENDBLK
  5
1D
100
AcDbEntity
  8
0
100
AcDbBlockEnd
  0
BLOCK
  5
21E
100
AcDbEntity
  8
0
100
AcDbBlockBegin
  2
_FILLED
 70
64
 10
0.0
 20
0.0
  3
_FILLED
  1

  0
SOLID
  5
21F
100
AcDbEntity
  8
0
  6
BYBLOCK
 62
0
100
AcDbTrace
 10
0.0
 20
0.0
 11
-1.0
 21
0.3166666667
 12
-1.0
 22
-0.3166666667
 13
-1.0
 23
-0.3166666667
  0
ENDBLK
  5
220
100
AcDbEntity
  8
0
  6
BYBLOCK
 62
0
100
AcDbBlockEnd
  0
BLOCK
  5
221
100
AcDbEntity
  8
0
100
AcDbBlockBegin
 62
7
  6
CONTINUOUS
  2
*D0
 70
65
 10
0.0
 20
0.0
  3
*D0
  1

  0
LINE
  5
222
100
AcDbEntity
  8
0
100
AcDbLine
 62
7
  6
CONTINUOUS
 10
62.0372412119
 20
156.1808335685
 11
62.0372412344
 21
174.251582684
  0
LINE
  5
223
100
AcDbEntity
  8
0
100
AcDbLine
 62
7
  6
CONTINUOUS
 10
53.4659620464
 20
113.0837587839
 11
53.4659621225
 21
174.2515826947
  0
LINE
  5
224
100
AcDbEntity
  8
0
100
AcDbLine
 62
7
  6
CONTINUOUS
 10
62.0372412325
 20
172.751582684
 11
57.7516016766
 21
172.7515826894
  0
LINE
  5
225
100
AcDbEntity
  8
0
100
AcDbLine
 62
7
  6
CONTINUOUS
 10
57.7516016766
 20
172.7515826894
 11
73.631025138
 21
172.7515826776
  0
LINE
  5
226
100
AcDbEntity
  8
0
100
AcDbLine
 62
7
  6
CONTINUOUS
 10
53.4659621207
 20
172.7515826947
 11
57.7516016766
 21
172.7515826894
  0
INSERT
  5
227
100
AcDbEntity
  8
0
100
AcDbBlockReference
 62
7
  6
CONTINUOUS
  2
_FILLED
 10
62.0372412325
 20
172.751582684
 41
3.0
 42
3.0
 43
3.0
 50
359.9999999287
  0
INSERT
  5
228
100
AcDbEntity
  8
0
100
AcDbBlockReference
 62
7
  6
CONTINUOUS
  2
_FILLED
 10
53.4659621207
 20
172.7515826947
 41
3.0
 42
3.0
 43
3.0
 50
179.9999999287
  0
ENDBLK
  5
229
100
AcDbEntity
  8
0
  6
BYBLOCK
 62
0
100
AcDbBlockEnd
  0
BLOCK
  5
22A
100
AcDbEntity
  8
0
100
AcDbBlockBegin
 62
7
  6
CONTINUOUS
  2
*D1
 70
65
 10
0.0
 20
0.0
  3
*D1
  1

  0
LINE
  5
22B
100
AcDbEntity
  8
0
100
AcDbLine
 62
7
  6
CONTINUOUS
 10
102.7863692434
 20
157.0851286889
 11
102.7863692434
 21
174.0837582237
  0
LINE
  5
22C
100
AcDbEntity
  8
0
100
AcDbLine
 62
7
  6
CONTINUOUS
 10
263.7863692434
 20
157.0851286889
 11
263.7863692434
 21
174.0837582237
  0
LINE
  5
22D
100
AcDbEntity
  8
0
100
AcDbLine
 62
7
  6
CONTINUOUS
 10
102.7863692434
 20
172.5837582237
 11
183.2863692434
 21
172.5837582237
  0
LINE
  5
22E
100
AcDbEntity
  8
0
100
AcDbLine
 62
7
  6
CONTINUOUS
 10
263.7863692434
 20
172.5837582237
 11
183.2863692434
 21
172.5837582237
  0
INSERT
  5
22F
100
AcDbEntity
  8
0
100
AcDbBlockReference
 62
7
  6
CONTINUOUS
  2
_FILLED
 10
102.7863692434
 20
172.5837582237
 41
3.0
 42
3.0
 43
3.0
 50
180.0
  0
INSERT
  5
230
100
AcDbEntity
  8
0
100
AcDbBlockReference
 62
7
  6
CONTINUOUS
  2
_FILLED
 10
263.7863692434
 20
172.5837582237
 41
3.0
 42
3.0
 43
3.0
  0
ENDBLK
  5
231
100
AcDbEntity
  8
0
  6
BYBLOCK
 62
0
100
AcDbBlockEnd
  0
BLOCK
  5
232
100
AcDbEntity
  8
0
100
AcDbBlockBegin
 62
7
  6
CONTINUOUS
  2
*D2
 70
65
 10
0.0
 20
0.0
  3
*D2
  1

  0
LINE
  5
233
100
AcDbEntity
  8
0
100
AcDbLine
 62
7
  6
CONTINUOUS
 10
263.2877397087
 20
157.5837582237
 11
284.7863692434
 21
157.5837582237
  0
LINE
  5
234
100
AcDbEntity
  8
0
100
AcDbLine
 62
7
  6
CONTINUOUS
 10
263.2877397087
 20
67.5837582237
 11
284.7863692434
 21
67.5837582237
  0
LINE
  5
235
100
AcDbEntity
  8
0
100
AcDbLine
 62
7
  6
CONTINUOUS
 10
283.2863692434
 20
157.5837582237
 11
283.2863692434
 21
112.5837582237
  0
LINE
  5
236
100
AcDbEntity
  8
0
100
AcDbLine
 62
7
  6
CONTINUOUS
 10
283.2863692434
 20
67.5837582237
 11
283.2863692434
 21
112.5837582237
  0
INSERT
  5
237
100
AcDbEntity
  8
0
100
AcDbBlockReference
 62
7
  6
CONTINUOUS
  2
_FILLED
 10
283.2863692434
 20
157.5837582237
 41
3.0
 42
3.0
 43
3.0
 50
90.0
  0
INSERT
  5
238
100
AcDbEntity
  8
0
100
AcDbBlockReference
 62
7
  6
CONTINUOUS
  2
_FILLED
 10
283.2863692434
 20
67.5837582237
 41
3.0
 42
3.0
 43
3.0
 50
270.0
  0
ENDBLK
  5
239
100
AcDbEntity
  8
0
  6
BYBLOCK
 62
0
100
AcDbBlockEnd
  0
ENDSEC
  0
SECTION
  2
ENTITIES
  0
DIMENSION
  5
23A
100
AcDbEntity
  8
0
100
AcDbDimension
 62
7
  6
CONTINUOUS
  2
*D0
 10
53.4659621207
 20
172.7515826947
 11
67.2024537085
 21
172.7515826776
 70
160
 71
1
 72
2
 41
0.9
 42
8.5712791118
  3
DIMSTYLE_1
100
AcDbAlignedDimension
 13
62.0372412113
 23
155.6808335685
 14
53.4659620458
 24
112.5837587839
 50
179.9999999287
100
AcDbRotatedDimension
  0
DIMENSION
  5
23B
100
AcDbEntity
  8
0
100
AcDbDimension
 62
7
  6
CONTINUOUS
  2
*D1
 10
263.7863692434
 20
172.5837582237
 11
180.3935121006
 21
172.5837582237
 70
160
 71
2
 72
2
 41
0.9
 42
161.0
  3
DIMSTYLE_2
100
AcDbAlignedDimension
 13
102.7863692434
 23
156.5851286889
 14
263.7863692434
 24
156.5851286889
100
AcDbRotatedDimension
  0
DIMENSION
  5
23C
100
AcDbEntity
  8
0
100
AcDbDimension
 62
7
  6
CONTINUOUS
  2
*D2
 10
283.2863692434
 20
67.5837582237
 11
283.2863692434
 21
110.2266153665
 70
160
 71
2
 72
2
 41
0.9
 42
90.0
  3
DIMSTYLE_2
100
AcDbAlignedDimension
 13
262.7877397087
 23
157.5837582237
 14
262.7877397087
 24
67.5837582237
 50
270.0
100
AcDbRotatedDimension
  0
LWPOLYLINE
  5
23D
100
AcDbEntity
  8
RACCORDO
100
AcDbPolyline
 62
250
  6
CONTINUOUS
 90
28
 70
0
 10
102.9163106848
 20
68.7123291998
 10
102.9176847748
 20
68.6532838471
 10
102.9224900681
 20
68.59452459
 10
102.9306955354
 20
68.5362502015
 10
102.9422513607
 20
68.4786800503
 10
102.957108343
 20
68.4219822794
 10
102.9752325413
 20
68.3662770504
 10
102.9965799259
 20
68.3117091833
 10
103.0210632788
 20
68.2585086574
 10
103.0485702741
 20
68.206916184
 10
103.0789832746
 20
68.1571218474
 10
103.1121995631
 20
68.1092650876
 10
103.1481064106
 20
68.0634965528
 10
103.1865750217
 20
68.0199638778
 10
103.2274673081
 20
67.9788070991
 10
103.2706469465
 20
67.9401552104
 10
103.3159606857
 20
67.904133603
 10
103.3632529439
 20
67.8708539805
 10
103.4123767621
 20
67.8404143678
 10
103.4631698019
 20
67.8129098603
 10
103.5154546437
 20
67.78843049
 10
103.5690558179
 20
67.7670542634
 10
103.6237855121
 20
67.7488503692
 10
103.6794662117
 20
67.7338716497
 10
103.7359340657
 20
67.7221596188
 10
103.793008581
 20
67.7137518142
 10
103.8504921136
 20
67.7086773964
 10
103.9081933665
 20
67.706952812
  0
LWPOLYLINE
  5
23E
100
AcDbEntity
  8
ASSI
100
AcDbPolyline
 62
250
  6
CONTINUOUS
 90
28
 70
0
 10
102.9163106848
 20
68.7123291998
 10
102.9176847748
 20
68.6532838471
 10
102.9224900681
 20
68.59452459
 10
102.9306955354
 20
68.5362502015
 10
102.9422513607
 20
68.4786800503
 10
102.957108343
 20
68.4219822794
 10
102.9752325413
 20
68.3662770504
 10
102.9965799259
 20
68.3117091833
 10
103.0210632788
 20
68.2585086574
 10
103.0485702741
 20
68.206916184
 10
103.0789832746
 20
68.1571218474
 10
103.1121995631
 20
68.1092650876
 10
103.1481064106
 20
68.0634965528
 10
103.1865750217
 20
68.0199638778
 10
103.2274673081
 20
67.9788070991
 10
103.2706469465
 20
67.9401552104
 10
103.3159606857
 20
67.904133603
 10
103.3632529439
 20
67.8708539805
 10
103.4123767621
 20
67.8404143678
 10
103.4631698019
 20
67.8129098603
 10
103.5154546437
 20
67.78843049
 10
103.5690558179
 20
67.7670542634
 10
103.6237855121
 20
67.7488503692
 10
103.6794662117
 20
67.7338716497
 10
103.7359340657
 20
67.7221596188
 10
103.793008581
 20
67.7137518142
 10
103.8504921136
 20
67.7086773964
 10
103.9081933665
 20
67.706952812
  0
LWPOLYLINE
  5
23F
100
AcDbEntity
  8
RACCORDO
100
AcDbPolyline
 62
250
  6
CONTINUOUS
 90
28
 70
0
 10
103.2158995453
 20
68.6591301172
 10
103.2167439822
 20
68.6174639337
 10
103.2199385138
 20
68.5762436492
 10
103.2254831401
 20
68.5354692061
 10
103.233412334
 20
68.4950125653
 10
103.2436916225
 20
68.4550016634
 10
103.2562175869
 20
68.415820356
 10
103.2710219371
 20
68.3774575054
 10
103.2880729632
 20
68.339924042
 10
103.3071721159
 20
68.3036368245
 10
103.3283351056
 20
68.2686264123
 10
103.351546222
 20
68.234861952
 10
103.3765597846
 20
68.2026681016
 10
103.4033929205
 20
68.1720597613
 10
103.4320285026
 20
68.1430217036
 10
103.4621694694
 20
68.1158333429
 10
103.4938289412
 20
68.0905137296
 10
103.5269937977
 20
68.0670434888
 10
103.5613276167
 20
68.0456443688
 10
103.5968416972
 20
68.0263367168
 10
103.6335247403
 20
68.0090999028
 10
103.671006426
 20
67.9940942043
 10
103.7093016118
 20
67.9813416161
 10
103.7483954403
 20
67.970819935
 10
103.7878730193
 20
67.9626231527
 10
103.8275960512
 20
67.9567825619
 10
103.8677028337
 20
67.9532667598
 10
103.9081933665
 20
67.9520757189
  0
LWPOLYLINE
  5
240
100
AcDbEntity
  8
ASSI
100
AcDbPolyline
 62
250
  6
CONTINUOUS
 90
28
 70
0
 10
103.2158995453
 20
68.6591301172
 10
103.2167439822
 20
68.6174639337
 10
103.2199385138
 20
68.5762436492
 10
103.2254831401
 20
68.5354692061
 10
103.233412334
 20
68.4950125653
 10
103.2436916225
 20
68.4550016634
 10
103.2562175869
 20
68.415820356
 10
103.2710219371
 20
68.3774575054
 10
103.2880729632
 20
68.339924042
 10
103.3071721159
 20
68.3036368245
 10
103.3283351056
 20
68.2686264123
 10
103.351546222
 20
68.234861952
 10
103.3765597846
 20
68.2026681016
 10
103.4033929205
 20
68.1720597613
 10
103.4320285026
 20
68.1430217036
 10
103.4621694694
 20
68.1158333429
 10
103.4938289412
 20
68.0905137296
 10
103.5269937977
 20
68.0670434888
 10
103.5613276167
 20
68.0456443688
 10
103.5968416972
 20
68.0263367168
 10
103.6335247403
 20
68.0090999028
 10
103.671006426
 20
67.9940942043
 10
103.7093016118
 20
67.9813416161
 10
103.7483954403
 20
67.970819935
 10
103.7878730193
 20
67.9626231527
 10
103.8275960512
 20
67.9567825619
 10
103.8677028337
 20
67.9532667598
 10
103.9081933665
 20
67.9520757189
  0
LWPOLYLINE
  5
241
100
AcDbEntity
  8
RACCORDO
100
AcDbPolyline
 62
250
  6
CONTINUOUS
 90
9
 70
0
 10
102.9163106848
 20
156.4551872475
 10
102.9375153082
 20
154.1143934427
 10
102.9569681701
 20
151.7690233934
 10
102.9746692706
 20
149.4190770995
 10
102.9906215254
 20
147.0640711124
 10
103.0048220187
 20
144.7044888808
 10
103.017262004
 20
142.3417807506
 10
103.0279385657
 20
139.9764301704
 10
103.0368546193
 20
137.6079536915
  0
LWPOLYLINE
  5
242
100
AcDbEntity
  8
ASSI
100
AcDbPolyline
 62
250
  6
CONTINUOUS
 90
9
 70
0
 10
102.9163106848
 20
156.4551872475
 10
102.9375153082
 20
154.1143934427
 10
102.9569681701
 20
151.7690233934
 10
102.9746692706
 20
149.4190770995
 10
102.9906215254
 20
147.0640711124
 10
103.0048220187
 20
144.7044888808
 10
103.017262004
 20
142.3417807506
 10
103.0279385657
 20
139.9764301704
 10
103.0368546193
 20
137.6079536915
  0
LWPOLYLINE
  5
243
100
AcDbEntity
  8
RACCORDO
100
AcDbPolyline
 62
250
  6
CONTINUOUS
 90
9
 70
0
 10
103.2158995453
 20
156.5083863302
 10
103.237104562
 20
154.1641287258
 10
103.2565576659
 20
151.8143567625
 10
103.2742588569
 20
149.4595448774
 10
103.2902109715
 20
147.1001726885
 10
103.3044111733
 20
144.7367124016
 10
103.3168509521
 20
142.3696286454
 10
103.3275274714
 20
139.9993950864
 10
103.3364435677
 20
137.6264944
  0
LWPOLYLINE
  5
244
100
AcDbEntity
  8
ASSI
100
AcDbPolyline
 62
250
  6
CONTINUOUS
 90
9
 70
0
 10
103.2158995453
 20
156.5083863302
 10
103.237104562
 20
154.1641287258
 10
103.2565576659
 20
151.8143567625
 10
103.2742588569
 20
149.4595448774
 10
103.2902109715
 20
147.1001726885
 10
103.3044111733
 20
144.7367124016
 10
103.3168509521
 20
142.3696286454
 10
103.3275274714
 20
139.9993950864
 10
103.3364435677
 20
137.6264944
  0
LINE
  5
245
100
AcDbEntity
  8
RACCORDO
100
AcDbLine
 62
250
  6
CONTINUOUS
 10
103.0368546193
 20
137.6079536915
 11
103.0531511216
 21
131.4632626683
  0
LINE
  5
246
100
AcDbEntity
  8
ASSI
100
AcDbLine
 62
250
  6
CONTINUOUS
 10
103.0368546193
 20
137.6079536915
 11
103.0531511216
 21
131.4632626683
  0
LINE
  5
247
100
AcDbEntity
  8
RACCORDO
100
AcDbLine
 62
250
  6
CONTINUOUS
 10
103.3364435677
 20
137.6264944
 11
103.352740055
 21
131.476262171
  0
LINE
  5
248
100
AcDbEntity
  8
ASSI
100
AcDbLine
 62
250
  6
CONTINUOUS
 10
103.3364435677
 20
137.6264944
 11
103.352740055
 21
131.476262171
  0
LINE
  5
249
100
AcDbEntity
  8
RACCORDO
100
AcDbLine
 62
250
  6
CONTINUOUS
 10
103.0531511216
 20
131.4632626683
 11
103.0664477889
 21
123.9142732351
  0
LINE
  5
24A
100
AcDbEntity
  8
ASSI
100
AcDbLine
 62
250
  6
CONTINUOUS
 10
103.0531511216
 20
131.4632626683
 11
103.0664477889
 21
123.9142732351
  0
LINE
  5
24B
100
AcDbEntity
  8
RACCORDO
100
AcDbLine
 62
250
  6
CONTINUOUS
 10
103.352740055
 20
131.476262171
 11
103.3660366668
 21
123.921818692
  0
LINE
  5
24C
100
AcDbEntity
  8
ASSI
100
AcDbLine
 62
250
  6
CONTINUOUS
 10
103.352740055
 20
131.476262171
 11
103.3660366668
 21
123.921818692
  0
LINE
  5
24D
100
AcDbEntity
  8
RACCORDO
100
AcDbLine
 62
250
  6
CONTINUOUS
 10
103.0664477889
 20
123.9142732351
 11
103.0730980567
 21
116.3609093337
  0
LINE
  5
24E
100
AcDbEntity
  8
ASSI
100
AcDbLine
 62
250
  6
CONTINUOUS
 10
103.0664477889
 20
123.9142732351
 11
103.0730980567
 21
116.3609093337
  0
LINE
  5
24F
100
AcDbEntity
  8
RACCORDO
100
AcDbLine
 62
250
  6
CONTINUOUS
 10
103.3660366668
 20
123.921818692
 11
103.3726869177
 21
116.3635141556
  0
LINE
  5
250
100
AcDbEntity
  8
ASSI
100
AcDbLine
 62
250
  6
CONTINUOUS
 10
103.3660366668
 20
123.921818692
 11
103.3726869177
 21
116.3635141556
  0
LINE
  5
251
100
AcDbEntity
  8
RACCORDO
100
AcDbLine
 62
7
  6
CONTINUOUS
 10
102.7863692434
 20
68.5823877584
 11
102.7863692434
 21
156.5851286889
  0
LINE
  5
252
100
AcDbEntity
  8
ASSI
100
AcDbLine
 62
7
  6
CONTINUOUS
 10
102.7863692434
 20
68.5823877584
 11
102.7863692434
 21
156.5851286889
  0
LINE
  5
253
100
AcDbEntity
  8
RACCORDO
100
AcDbLine
 62
250
  6
CONTINUOUS
 10
103.9081933665
 20
67.9520757189
 11
103.9081933665
 21
67.706952812
  0
LINE
  5
254
100
AcDbEntity
  8
ASSI
100
AcDbLine
 62
250
  6
CONTINUOUS
 10
103.9081933665
 20
67.9520757189
 11
103.9081933665
 21
67.706952812
  0
LINE
  5
255
100
AcDbEntity
  8
RACCORDO
100
AcDbLine
 62
250
  6
CONTINUOUS
 10
103.9081933665
 20
157.2154407285
 11
103.9081933662
 21
157.4605636353
  0
LINE
  5
256
100
AcDbEntity
  8
ASSI
100
AcDbLine
 62
250
  6
CONTINUOUS
 10
103.9081933665
 20
157.2154407285
 11
103.9081933662
 21
157.4605636353
  0
LINE
  5
257
100
AcDbEntity
  8
RACCORDO
100
AcDbLine
 62
250
  6
CONTINUOUS
 10
103.0730980567
 20
116.3609093337
 11
103.0730980574
 21
108.8066082546
  0
LINE
  5
258
100
AcDbEntity
  8
ASSI
100
AcDbLine
 62
250
  6
CONTINUOUS
 10
103.0730980567
 20
116.3609093337
 11
103.0730980574
 21
108.8066082546
  0
LINE
  5
259
100
AcDbEntity
  8
RACCORDO
100
AcDbLine
 62
250
  6
CONTINUOUS
 10
103.3726869177
 20
116.3635141556
 11
103.3726869173
 21
108.8040012578
  0
LINE
  5
25A
100
AcDbEntity
  8
ASSI
100
AcDbLine
 62
250
  6
CONTINUOUS
 10
103.3726869177
 20
116.3635141556
 11
103.3726869173
 21
108.8040012578
  0
LINE
  5
25B
100
AcDbEntity
  8
RACCORDO
100
AcDbLine
 62
250
  6
CONTINUOUS
 10
103.0730980574
 20
108.8066082546
 11
103.0664477907
 21
101.25324457
  0
LINE
  5
25C
100
AcDbEntity
  8
ASSI
100
AcDbLine
 62
250
  6
CONTINUOUS
 10
103.0730980574
 20
108.8066082546
 11
103.0664477907
 21
101.25324457
  0
LINE
  5
25D
100
AcDbEntity
  8
RACCORDO
100
AcDbLine
 62
250
  6
CONTINUOUS
 10
103.3726869173
 20
108.8040012578
 11
103.3660366658
 21
101.2456970275
  0
LINE
  5
25E
100
AcDbEntity
  8
ASSI
100
AcDbLine
 62
250
  6
CONTINUOUS
 10
103.3726869173
 20
108.8040012578
 11
103.3660366658
 21
101.2456970275
  0
LINE
  5
25F
100
AcDbEntity
  8
RACCORDO
100
AcDbLine
 62
250
  6
CONTINUOUS
 10
103.0664477907
 20
101.25324457
 11
103.0531511225
 21
93.7042544206
  0
LINE
  5
260
100
AcDbEntity
  8
ASSI
100
AcDbLine
 62
250
  6
CONTINUOUS
 10
103.0664477907
 20
101.25324457
 11
103.0531511225
 21
93.7042544206
  0
LINE
  5
261
100
AcDbEntity
  8
RACCORDO
100
AcDbLine
 62
250
  6
CONTINUOUS
 10
103.3660366658
 20
101.2456970275
 11
103.3527400545
 21
93.6912540016
  0
LINE
  5
262
100
AcDbEntity
  8
ASSI
100
AcDbLine
 62
250
  6
CONTINUOUS
 10
103.3660366658
 20
101.2456970275
 11
103.3527400545
 21
93.6912540016
  0
LWPOLYLINE
  5
263
100
AcDbEntity
  8
RACCORDO
100
AcDbPolyline
 62
250
  6
CONTINUOUS
 90
10
 70
0
 10
103.3527400545
 20
93.6912540016
 10
103.3364435664
 20
87.5410219283
 10
103.3275274697
 20
85.168121209
 10
103.3168509511
 20
82.7978877191
 10
103.3044111746
 20
80.430804225
 10
103.2902109761
 20
78.0673443007
 10
103.2742588632
 20
75.7079723014
 10
103.2565576717
 20
73.3531603428
 10
103.2371045657
 20
71.0033881353
 10
103.2158995453
 20
68.6591301172
  0
LWPOLYLINE
  5
264
100
AcDbEntity
  8
ASSI
100
AcDbPolyline
 62
250
  6
CONTINUOUS
 90
10
 70
0
 10
103.3527400545
 20
93.6912540016
 10
103.3364435664
 20
87.5410219283
 10
103.3275274697
 20
85.168121209
 10
103.3168509511
 20
82.7978877191
 10
103.3044111746
 20
80.430804225
 10
103.2902109761
 20
78.0673443007
 10
103.2742588632
 20
75.7079723014
 10
103.2565576717
 20
73.3531603428
 10
103.2371045657
 20
71.0033881353
 10
103.2158995453
 20
68.6591301172
  0
LWPOLYLINE
  5
265
100
AcDbEntity
  8
RACCORDO
100
AcDbPolyline
 62
250
  6
CONTINUOUS
 90
10
 70
0
 10
103.0531511225
 20
93.7042544206
 10
103.0368546067
 20
87.5595593572
 10
103.027938537
 20
85.1910796439
 10
103.0172619559
 20
82.8257259935
 10
103.0048219389
 20
80.4630140433
 10
102.9906214105
 20
78.1034281559
 10
102.9746691436
 20
75.7484214191
 10
102.9569680625
 20
73.3984781955
 10
102.9375152429
 20
71.0531141224
 10
102.9163106848
 20
68.7123291998
  0
LWPOLYLINE
  5
266
100
AcDbEntity
  8
ASSI
100
AcDbPolyline
 62
250
  6
CONTINUOUS
 90
10
 70
0
 10
103.0531511225
 20
93.7042544206
 10
103.0368546067
 20
87.5595593572
 10
103.027938537
 20
85.1910796439
 10
103.0172619559
 20
82.8257259935
 10
103.0048219389
 20
80.4630140433
 10
102.9906214105
 20
78.1034281559
 10
102.9746691436
 20
75.7484214191
 10
102.9569680625
 20
73.3984781955
 10
102.9375152429
 20
71.0531141224
 10
102.9163106848
 20
68.7123291998
  0
LINE
  5
267
100
AcDbEntity
  8
0
100
AcDbLine
 62
250
  6
CONTINUOUS
 10
118.4880862434
 20
136.6830282237
 11
118.4880862434
 21
134.9844882265
  0
LINE
  5
268
100
AcDbEntity
  8
0
100
AcDbLine
 62
250
  6
CONTINUOUS
 10
118.5880002434
 20
136.5831142237
 11
118.5880002434
 21
135.0844022256
  0
LINE
  5
269
100
AcDbEntity
  8
0
100
AcDbLine
 62
250
  6
CONTINUOUS
 10
118.6879152434
 20
136.4832002237
 11
118.6879152434
 21
135.1843162244
  0
LINE
  5
26A
100
AcDbEntity
  8
0
100
AcDbLine
 62
250
  6
CONTINUOUS
 10
119.0875712434
 20
124.3436322237
 11
119.0875712434
 21
122.9448342289
  0
LINE
  5
26B
100
AcDbEntity
  8
0
100
AcDbLine
 62
250
  6
CONTINUOUS
 10
119.0875712434
 20
121.7208862237
 11
119.0875712434
 21
121.3711872228
  0
LINE
  5
26C
100
AcDbEntity
  8
0
100
AcDbLine
 62
250
  6
CONTINUOUS
 10
119.0875712434
 20
119.7392562237
 11
119.0875712434
 21
119.389556229
  0
LINE
  5
26D
100
AcDbEntity
  8
0
100
AcDbLine
 62
250
  6
CONTINUOUS
 10
119.0875712434
 20
117.9907592237
 11
119.0875712434
 21
117.4662092467
  0
LINE
  5
26E
100
AcDbEntity
  8
0
100
AcDbLine
 62
250
  6
CONTINUOUS
 10
119.0875712434
 20
115.2514462237
 11
119.0875712434
 21
114.9017462347
  0
LINE
  5
26F
100
AcDbEntity
  8
0
100
AcDbLine
 62
250
  6
CONTINUOUS
 10
119.0875712434
 20
113.5029492237
 11
119.0875712434
 21
111.4047521385
  0
LINE
  5
270
100
AcDbEntity
  8
0
100
AcDbLine
 62
250
  6
CONTINUOUS
 10
119.0875712434
 20
108.2574562237
 11
119.0875712434
 21
107.9077572319
  0
LINE
  5
271
100
AcDbEntity
  8
0
100
AcDbLine
 62
250
  6
CONTINUOUS
 10
119.0875712434
 20
107.4414912237
 11
119.0875712434
 21
107.0917922355
  0
LINE
  5
272
100
AcDbEntity
  8
0
100
AcDbLine
 62
250
  6
CONTINUOUS
 10
119.0875712434
 20
105.4598612237
 11
119.0875712434
 21
105.1101612235
  0
LINE
  5
273
100
AcDbEntity
  8
0
100
AcDbLine
 62
250
  6
CONTINUOUS
 10
119.0875712434
 20
104.6438962237
 11
119.0875712434
 21
102.5456993239
  0
LINE
  5
274
100
AcDbEntity
  8
0
100
AcDbLine
 62
250
  6
CONTINUOUS
 10
119.0875712434
 20
108.7237222237
 11
119.0875712434
 21
109.131705215
  0
LINE
  5
275
100
AcDbEntity
  8
0
100
AcDbLine
 62
250
  6
CONTINUOUS
 10
119.0875712434
 20
110.5887872237
 11
119.0875712434
 21
110.9384862343
  0
LINE
  5
276
100
AcDbEntity
  8
0
100
AcDbLine
 62
250
  6
CONTINUOUS
 10
119.4447112434
 20
123.9626872237
 11
119.4447112434
 21
122.8553062388
  0
LINE
  5
277
100
AcDbEntity
  8
0
100
AcDbLine
 62
250
  6
CONTINUOUS
 10
119.4447112434
 20
102.5144532237
 11
119.4447112434
 21
104.2629502324
  0
LINE
  5
278
100
AcDbEntity
  8
0
100
AcDbLine
 62
250
  6
CONTINUOUS
 10
119.4447112434
 20
111.3735062237
 11
119.4447112434
 21
113.1220032703
  0
LINE
  5
279
100
AcDbEntity
  8
0
100
AcDbLine
 62
250
  6
CONTINUOUS
 10
119.4447112434
 20
117.4349642237
 11
119.4447112434
 21
117.9595132015
  0
LINE
  5
27A
100
AcDbEntity
  8
0
100
AcDbLine
 62
250
  6
CONTINUOUS
 10
119.6370992434
 20
137.8320412237
 11
119.6370992434
 21
136.683028202
  0
LINE
  5
27B
100
AcDbEntity
  8
0
100
AcDbLine
 62
250
  6
CONTINUOUS
 10
119.6370992434
 20
134.9844882237
 11
119.6370992434
 21
133.835475182
  0
LINE
  5
27C
100
AcDbEntity
  8
0
100
AcDbLine
 62
250
  6
CONTINUOUS
 10
119.7370132434
 20
137.7321272237
 11
119.7370132434
 21
136.5831142091
  0
LINE
  5
27D
100
AcDbEntity
  8
0
100
AcDbLine
 62
250
  6
CONTINUOUS
 10
119.7370132434
 20
135.0844022237
 11
119.7370132434
 21
133.9353892649
  0
LINE
  5
27E
100
AcDbEntity
  8
0
100
AcDbLine
 62
250
  6
CONTINUOUS
 10
119.8018512434
 20
121.0755622237
 11
119.8018512434
 21
119.9098972194
  0
LINE
  5
27F
100
AcDbEntity
  8
0
100
AcDbLine
 62
250
  6
CONTINUOUS
 10
119.8018512434
 20
106.7961672237
 11
119.8018512434
 21
105.6305031889
  0
LINE
  5
280
100
AcDbEntity
  8
0
100
AcDbLine
 62
250
  6
CONTINUOUS
 10
119.8018512434
 20
116.5877522237
 11
119.8018512434
 21
116.937452217
  0
LINE
  5
281
100
AcDbEntity
  8
0
100
AcDbLine
 62
250
  6
CONTINUOUS
 10
119.8369272434
 20
137.6322122237
 11
119.8369272434
 21
136.4832002541
  0
LINE
  5
282
100
AcDbEntity
  8
0
100
AcDbLine
 62
250
  6
CONTINUOUS
 10
119.8369272434
 20
135.1843162237
 11
119.8369272434
 21
134.0353042422
  0
LINE
  5
283
100
AcDbEntity
  8
0
100
AcDbLine
 62
250
  6
CONTINUOUS
 10
119.8868842434
 20
131.5041452237
 11
119.8868842434
 21
132.5698962156
  0
LINE
  5
284
100
AcDbEntity
  8
0
100
AcDbLine
 62
250
  6
CONTINUOUS
 10
120.0399442434
 20
120.9964492237
 11
120.0399442434
 21
119.9473502095
  0
LINE
  5
285
100
AcDbEntity
  8
0
100
AcDbLine
 62
250
  6
CONTINUOUS
 10
120.0399442434
 20
106.7170532237
 11
120.0399442434
 21
105.6679551882
  0
LINE
  5
286
100
AcDbEntity
  8
0
100
AcDbLine
 62
250
  6
CONTINUOUS
 10
120.3375612434
 20
109.4886112237
 11
120.3375612434
 21
110.4794272251
  0
LINE
  5
287
100
AcDbEntity
  8
0
100
AcDbLine
 62
250
  6
CONTINUOUS
 10
120.3375612434
 20
122.7771912237
 11
120.3375612434
 21
123.8845732575
  0
LINE
  5
288
100
AcDbEntity
  8
0
100
AcDbLine
 62
250
  6
CONTINUOUS
 10
120.3970842434
 20
113.0386822237
 11
120.3970842434
 21
111.5233182749
  0
LINE
  5
289
100
AcDbEntity
  8
0
100
AcDbLine
 62
250
  6
CONTINUOUS
 10
120.6947012434
 20
109.3407992237
 11
120.6947012434
 21
110.4481812333
  0
LINE
  5
28A
100
AcDbEntity
  8
0
100
AcDbLine
 62
250
  6
CONTINUOUS
 10
120.6947012434
 20
122.7459462237
 11
120.6947012434
 21
123.8533272641
  0
LINE
  5
28B
100
AcDbEntity
  8
0
100
AcDbLine
 62
250
  6
CONTINUOUS
 10
120.7542242434
 20
111.4920722237
 11
120.7542242434
 21
113.0074362028
  0
LINE
  5
28C
100
AcDbEntity
  8
0
100
AcDbLine
 62
250
  6
CONTINUOUS
 10
121.1358112434
 20
134.0353042237
 11
121.1358112434
 21
135.1843162052
  0
LINE
  5
28D
100
AcDbEntity
  8
0
100
AcDbLine
 62
250
  6
CONTINUOUS
 10
121.1358112434
 20
136.4832002237
 11
121.1358112434
 21
137.6322121933
  0
LINE
  5
28E
100
AcDbEntity
  8
0
100
AcDbLine
 62
250
  6
CONTINUOUS
 10
121.1708872434
 20
116.8176772237
 11
121.1708872434
 21
116.4679772165
  0
LINE
  5
28F
100
AcDbEntity
  8
0
100
AcDbLine
 62
250
  6
CONTINUOUS
 10
121.2357252434
 20
133.9353892237
 11
121.2357252434
 21
135.0844021825
  0
LINE
  5
290
100
AcDbEntity
  8
0
100
AcDbLine
 62
250
  6
CONTINUOUS
 10
121.2357252434
 20
136.5831142237
 11
121.2357252434
 21
137.7321272382
  0
LINE
  5
291
100
AcDbEntity
  8
0
100
AcDbLine
 62
250
  6
CONTINUOUS
 10
121.3356392434
 20
133.8354752237
 11
121.3356392434
 21
134.9844882654
  0
LINE
  5
292
100
AcDbEntity
  8
0
100
AcDbLine
 62
250
  6
CONTINUOUS
 10
121.3356392434
 20
136.6830282237
 11
121.3356392434
 21
137.8320412453
  0
LINE
  5
293
100
AcDbEntity
  8
0
100
AcDbLine
 62
250
  6
CONTINUOUS
 10
121.5280272434
 20
123.7804212237
 11
121.5280272434
 21
122.6730392749
  0
LINE
  5
294
100
AcDbEntity
  8
0
100
AcDbLine
 62
250
  6
CONTINUOUS
 10
121.5280272434
 20
117.7772462237
 11
121.5280272434
 21
117.2526972316
  0
LINE
  5
295
100
AcDbEntity
  8
0
100
AcDbLine
 62
250
  6
CONTINUOUS
 10
121.5280272434
 20
112.9397372237
 11
121.5280272434
 21
111.1912391729
  0
LINE
  5
296
100
AcDbEntity
  8
0
100
AcDbLine
 62
250
  6
CONTINUOUS
 10
121.5875502434
 20
115.9652582237
 11
121.5875502434
 21
115.032726272
  0
LINE
  5
297
100
AcDbEntity
  8
0
100
AcDbLine
 62
250
  6
CONTINUOUS
 10
121.5875502434
 20
114.6830272237
 11
121.5875502434
 21
113.7504952543
  0
LINE
  5
298
100
AcDbEntity
  8
0
100
AcDbLine
 62
250
  6
CONTINUOUS
 10
121.5875502434
 20
110.3700672237
 11
121.5875502434
 21
109.2626852271
  0
LINE
  5
299
100
AcDbEntity
  8
0
100
AcDbLine
 62
250
  6
CONTINUOUS
 10
121.8851672434
 20
110.6937282237
 11
121.8851672434
 21
109.2949301771
  0
LINE
  5
29A
100
AcDbEntity
  8
0
100
AcDbLine
 62
250
  6
CONTINUOUS
 10
121.8851672434
 20
104.0494382237
 11
121.8851672434
 21
104.3991382301
  0
LINE
  5
29B
100
AcDbEntity
  8
0
100
AcDbLine
 62
250
  6
CONTINUOUS
 10
121.8851672434
 20
105.7979362237
 11
121.8851672434
 21
106.2642012149
  0
LINE
  5
29C
100
AcDbEntity
  8
0
100
AcDbLine
 62
250
  6
CONTINUOUS
 10
121.8851672434
 20
107.6629992237
 11
121.8851672434
 21
108.0126982255
  0
LINE
  5
29D
100
AcDbEntity
  8
0
100
AcDbLine
 62
250
  6
CONTINUOUS
 10
121.8851672434
 20
111.1599942237
 11
121.8851672434
 21
113.2581912976
  0
LINE
  5
29E
100
AcDbEntity
  8
0
100
AcDbLine
 62
250
  6
CONTINUOUS
 10
121.8851672434
 20
113.7244572237
 11
121.8851672434
 21
115.9392201634
  0
LINE
  5
29F
100
AcDbEntity
  8
0
100
AcDbLine
 62
250
  6
CONTINUOUS
 10
121.8851672434
 20
117.2214522237
 11
121.8851672434
 21
117.746001247
  0
LINE
  5
2A0
100
AcDbEntity
  8
0
100
AcDbLine
 62
250
  6
CONTINUOUS
 10
121.8851672434
 20
120.0773302237
 11
121.8851672434
 21
120.5435962333
  0
LINE
  5
2A1
100
AcDbEntity
  8
0
100
AcDbLine
 62
250
  6
CONTINUOUS
 10
121.8851672434
 20
122.7000762237
 11
121.8851672434
 21
124.0988741831
  0
LINE
  5
2A2
100
AcDbEntity
  8
0
100
AcDbLine
 62
250
  6
CONTINUOUS
 10
121.8851672434
 20
126.6416582237
 11
121.8851672434
 21
128.2402832059
  0
LINE
  5
2A3
100
AcDbEntity
  8
0
100
AcDbLine
 62
250
  6
CONTINUOUS
 10
122.2848232434
 20
135.1843162237
 11
122.2848232434
 21
136.4832002089
  0
LINE
  5
2A4
100
AcDbEntity
  8
0
100
AcDbLine
 62
250
  6
CONTINUOUS
 10
122.3847382434
 20
135.0844022237
 11
122.3847382434
 21
136.5831142957
  0
LINE
  5
2A5
100
AcDbEntity
  8
0
100
AcDbLine
 62
250
  6
CONTINUOUS
 10
119.1470942434
 20
118.2769672237
 11
119.0875712434
 21
117.9907592237
  0
LINE
  5
2A6
100
AcDbEntity
  8
0
100
AcDbLine
 62
250
  6
CONTINUOUS
 10
121.8256442434
 20
122.4138682237
 11
121.8851672434
 21
122.7000762237
  0
LINE
  5
2A7
100
AcDbEntity
  8
0
100
AcDbLine
 62
250
  6
CONTINUOUS
 10
121.8256442434
 20
116.9352432237
 11
121.8851672434
 21
117.2214522237
  0
LINE
  5
2A8
100
AcDbEntity
  8
0
100
AcDbLine
 62
250
  6
CONTINUOUS
 10
119.4447112434
 20
117.9595132237
 11
119.5042342434
 21
118.1874382237
  0
LINE
  5
2A9
100
AcDbEntity
  8
0
100
AcDbLine
 62
250
  6
CONTINUOUS
 10
121.5280272434
 20
117.2526972237
 11
121.4685042434
 21
117.0247712237
  0
LINE
  5
2AA
100
AcDbEntity
  8
0
100
AcDbLine
 62
250
  6
CONTINUOUS
 10
120.2780372434
 20
122.6075492237
 11
120.3375612434
 21
122.7771912237
  0
LINE
  5
2AB
100
AcDbEntity
  8
0
100
AcDbLine
 62
250
  6
CONTINUOUS
 10
121.5280272434
 20
122.6730392237
 11
121.4685042434
 21
122.5033972237
  0
LWPOLYLINE
  5
2AC
100
AcDbEntity
  8
RACCORDO
100
AcDbPolyline
 62
250
  6
CONTINUOUS
 90
22
 70
0
 10
124.5901048781
 20
135.2514631174
 10
124.622576976
 20
135.3100947517
 10
124.6579840565
 20
135.3668519332
 10
124.6963261198
 20
135.4217347525
 10
124.7377280625
 20
135.4749285475
 10
124.7820649879
 20
135.5262481498
 10
124.8289622057
 20
135.5751379137
 10
124.8784466443
 20
135.6215567832
 10
124.9304913752
 20
135.6655460252
 10
124.9846409232
 20
135.7066735165
 10
125.0409229983
 20
135.7449045184
 10
125.0993098905
 20
135.7802739825
 10
125.1592629939
 20
135.8124543393
 10
125.2208156692
 20
135.8414075925
 10
125.2839345557
 20
135.8671719252
 10
125.3479809655
 20
135.8895340401
 10
125.4129705832
 20
135.9084415124
 10
125.4788877243
 20
135.9239469034
 10
125.5450466467
 20
135.9359943848
 10
125.6112187698
 20
135.9445653707
 10
125.6776326743
 20
135.9496785167
 10
125.7442883602
 20
135.9513338401
  0
LWPOLYLINE
  5
2AD
100
AcDbEntity
  8
ASSI
100
AcDbPolyline
 62
250
  6
CONTINUOUS
 90
22
 70
0
 10
124.5901048781
 20
135.2514631174
 10
124.622576976
 20
135.3100947517
 10
124.6579840565
 20
135.3668519332
 10
124.6963261198
 20
135.4217347525
 10
124.7377280625
 20
135.4749285475
 10
124.7820649879
 20
135.5262481498
 10
124.8289622057
 20
135.5751379137
 10
124.8784466443
 20
135.6215567832
 10
124.9304913752
 20
135.6655460252
 10
124.9846409232
 20
135.7066735165
 10
125.0409229983
 20
135.7449045184
 10
125.0993098905
 20
135.7802739825
 10
125.1592629939
 20
135.8124543393
 10
125.2208156692
 20
135.8414075925
 10
125.2839345557
 20
135.8671719252
 10
125.3479809655
 20
135.8895340401
 10
125.4129705832
 20
135.9084415124
 10
125.4788877243
 20
135.9239469034
 10
125.5450466467
 20
135.9359943848
 10
125.6112187698
 20
135.9445653707
 10
125.6776326743
 20
135.9496785167
 10
125.7442883602
 20
135.9513338401
  0
LWPOLYLINE
  5
2AE
100
AcDbEntity
  8
RACCORDO
100
AcDbPolyline
 62
250
  6
CONTINUOUS
 90
22
 70
0
 10
125.0328072307
 20
134.9965535839
 10
125.0527968037
 20
135.0324054259
 10
125.074676573
 20
135.0672828086
 10
125.0984042285
 20
135.101083319
 10
125.1239424622
 20
135.1337181976
 10
125.1512281158
 20
135.1650750955
 10
125.1801658465
 20
135.1950239011
 10
125.2106846502
 20
135.2234747238
 10
125.2427100203
 20
135.2503428684
 10
125.276123673
 20
135.2755214058
 10
125.3108372266
 20
135.2989381142
 10
125.3467581523
 20
135.3205253689
 10
125.3837479753
 20
135.3402015371
 10
125.4217129955
 20
135.357918977
 10
125.4605403227
 20
135.3736272357
 10
125.5000510863
 20
135.3872654364
 10
125.54013745
 20
135.3988110386
 10
125.5806834316
 20
135.4082450487
 10
125.6214900563
 20
135.4155445806
 10
125.6624146893
 20
135.4207148498
 10
125.7033747395
 20
135.4237745385
 10
125.7442612165
 20
135.4247427804
  0
LWPOLYLINE
  5
2AF
100
AcDbEntity
  8
ASSI
100
AcDbPolyline
 62
250
  6
CONTINUOUS
 90
22
 70
0
 10
125.0328072307
 20
134.9965535839
 10
125.0527968037
 20
135.0324054259
 10
125.074676573
 20
135.0672828086
 10
125.0984042285
 20
135.101083319
 10
125.1239424622
 20
135.1337181976
 10
125.1512281158
 20
135.1650750955
 10
125.1801658465
 20
135.1950239011
 10
125.2106846502
 20
135.2234747238
 10
125.2427100203
 20
135.2503428684
 10
125.276123673
 20
135.2755214058
 10
125.3108372266
 20
135.2989381142
 10
125.3467581523
 20
135.3205253689
 10
125.3837479753
 20
135.3402015371
 10
125.4217129955
 20
135.357918977
 10
125.4605403227
 20
135.3736272357
 10
125.5000510863
 20
135.3872654364
 10
125.54013745
 20
135.3988110386
 10
125.5806834316
 20
135.4082450487
 10
125.6214900563
 20
135.4155445806
 10
125.6624146893
 20
135.4207148498
 10
125.7033747395
 20
135.4237745385
 10
125.7442612165
 20
135.4247427804
  0
LWPOLYLINE
  5
2B0
100
AcDbEntity
  8
RACCORDO
100
AcDbPolyline
 62
250
  6
CONTINUOUS
 90
10
 70
0
 10
125.0328072307
 20
90.1709628635
 10
125.0141757238
 20
90.2089258031
 10
124.9975684981
 20
90.2478760915
 10
124.9830405537
 20
90.2877077648
 10
124.970633908
 20
90.32833809
 10
124.9604026789
 20
90.3696292188
 10
124.9523986561
 20
90.4113850047
 10
124.9466437942
 20
90.4534591515
 10
124.9431444332
 20
90.4957590307
 10
124.9419065893
 20
90.5381649565
  0
LWPOLYLINE
  5
2B1
100
AcDbEntity
  8
ASSI
100
AcDbPolyline
 62
250
  6
CONTINUOUS
 90
10
 70
0
 10
125.0328072307
 20
90.1709628635
 10
125.0141757238
 20
90.2089258031
 10
124.9975684981
 20
90.2478760915
 10
124.9830405537
 20
90.2877077648
 10
124.970633908
 20
90.32833809
 10
124.9604026789
 20
90.3696292188
 10
124.9523986561
 20
90.4113850047
 10
124.9466437942
 20
90.4534591515
 10
124.9431444332
 20
90.4957590307
 10
124.9419065893
 20
90.5381649565
  0
LWPOLYLINE
  5
2B2
100
AcDbEntity
  8
RACCORDO
100
AcDbPolyline
 62
250
  6
CONTINUOUS
 90
10
 70
0
 10
124.5901048781
 20
89.91605333
 10
124.5597913285
 20
89.9780158174
 10
124.532906234
 20
90.0412741763
 10
124.5094495945
 20
90.1058284329
 10
124.4893516171
 20
90.1719264769
 10
124.4726820949
 20
90.239320476
 10
124.4596504065
 20
90.3072668574
 10
124.4503263451
 20
90.3755177632
 10
124.4446401176
 20
90.4443210694
 10
124.442591724
 20
90.5136767868
  0
LWPOLYLINE
  5
2B3
100
AcDbEntity
  8
ASSI
100
AcDbPolyline
 62
250
  6
CONTINUOUS
 90
10
 70
0
 10
124.5901048781
 20
89.91605333
 10
124.5597913285
 20
89.9780158174
 10
124.532906234
 20
90.0412741763
 10
124.5094495945
 20
90.1058284329
 10
124.4893516171
 20
90.1719264769
 10
124.4726820949
 20
90.239320476
 10
124.4596504065
 20
90.3072668574
 10
124.4503263451
 20
90.3755177632
 10
124.4446401176
 20
90.4443210694
 10
124.442591724
 20
90.5136767868
  0
LINE
  5
2B4
100
AcDbEntity
  8
0
100
AcDbLine
 62
250
  6
CONTINUOUS
 10
119.0875712434
 20
117.4662092237
 11
119.1470942434
 21
117.1695852237
  0
LINE
  5
2B5
100
AcDbEntity
  8
0
100
AcDbLine
 62
250
  6
CONTINUOUS
 10
119.0875712434
 20
122.9448342237
 11
119.1470942434
 21
122.6482112237
  0
LINE
  5
2B6
100
AcDbEntity
  8
RACCORDO
100
AcDbLine
 62
250
  6
CONTINUOUS
 10
124.442591724
 20
90.5136767868
 11
124.4268431569
 21
97.8670898963
  0
LINE
  5
2B7
100
AcDbEntity
  8
ASSI
100
AcDbLine
 62
250
  6
CONTINUOUS
 10
124.442591724
 20
90.5136767868
 11
124.4268431569
 21
97.8670898963
  0
LINE
  5
2B8
100
AcDbEntity
  8
RACCORDO
100
AcDbLine
 62
250
  6
CONTINUOUS
 10
124.9419065574
 20
90.5381649253
 11
124.9261579536
 21
97.8837497798
  0
LINE
  5
2B9
100
AcDbEntity
  8
ASSI
100
AcDbLine
 62
250
  6
CONTINUOUS
 10
124.9419065574
 20
90.5381649253
 11
124.9261579536
 21
97.8837497798
  0
LINE
  5
2BA
100
AcDbEntity
  8
RACCORDO
100
AcDbLine
 62
250
  6
CONTINUOUS
 10
124.4268431569
 20
97.8670898963
 11
124.4173932897
 21
105.2244396867
  0
LINE
  5
2BB
100
AcDbEntity
  8
ASSI
100
AcDbLine
 62
250
  6
CONTINUOUS
 10
124.4268431569
 20
97.8670898963
 11
124.4173932897
 21
105.2244396867
  0
LINE
  5
2BC
100
AcDbEntity
  8
RACCORDO
100
AcDbLine
 62
250
  6
CONTINUOUS
 10
124.9261579536
 20
97.8837497798
 11
124.916708064
 21
105.2325281252
  0
LINE
  5
2BD
100
AcDbEntity
  8
ASSI
100
AcDbLine
 62
250
  6
CONTINUOUS
 10
124.9261579536
 20
97.8837497798
 11
124.916708064
 21
105.2325281252
  0
LINE
  5
2BE
100
AcDbEntity
  8
RACCORDO
100
AcDbLine
 62
250
  6
CONTINUOUS
 10
124.4173932897
 20
105.2244396867
 11
124.4142425965
 21
112.5837581845
  0
LINE
  5
2BF
100
AcDbEntity
  8
ASSI
100
AcDbLine
 62
250
  6
CONTINUOUS
 10
124.4173932897
 20
105.2244396867
 11
124.4142425965
 21
112.5837581845
  0
LINE
  5
2C0
100
AcDbEntity
  8
RACCORDO
100
AcDbLine
 62
250
  6
CONTINUOUS
 10
124.916708064
 20
105.2325281252
 11
124.9135573639
 21
112.5837629945
  0
LINE
  5
2C1
100
AcDbEntity
  8
ASSI
100
AcDbLine
 62
250
  6
CONTINUOUS
 10
124.916708064
 20
105.2325281252
 11
124.9135573639
 21
112.5837629945
  0
LINE
  5
2C2
100
AcDbEntity
  8
0
100
AcDbLine
 62
250
  6
CONTINUOUS
 10
122.4846522434
 20
134.9844882237
 11
122.4846522434
 21
136.683028162
  0
LINE
  5
2C3
100
AcDbEntity
  8
0
100
AcDbLine
 62
7
  6
CONTINUOUS
 10
125.0863692434
 20
90.6826618515
 11
125.0863692434
 21
134.4848545959
  0
LINE
  5
2C4
100
AcDbEntity
  8
ASSI
100
AcDbLine
 62
7
  6
CONTINUOUS
 10
125.0863692434
 20
90.6826618515
 11
125.0863692434
 21
134.4848545959
  0
LINE
  5
2C5
100
AcDbEntity
  8
RACCORDO
100
AcDbLine
 62
250
  6
CONTINUOUS
 10
125.7442883602
 20
135.9513338401
 11
125.7442883602
 21
135.4247427347
  0
LINE
  5
2C6
100
AcDbEntity
  8
ASSI
100
AcDbLine
 62
250
  6
CONTINUOUS
 10
125.7442883602
 20
135.9513338401
 11
125.7442883602
 21
135.4247427347
  0
LINE
  5
2C7
100
AcDbEntity
  8
RACCORDO
100
AcDbLine
 62
250
  6
CONTINUOUS
 10
125.7442883602
 20
89.2161826073
 11
125.7442883601
 21
89.7427737127
  0
LINE
  5
2C8
100
AcDbEntity
  8
ASSI
100
AcDbLine
 62
250
  6
CONTINUOUS
 10
125.7442883602
 20
89.2161826073
 11
125.7442883601
 21
89.7427737127
  0
LINE
  5
2C9
100
AcDbEntity
  8
RACCORDO
100
AcDbLine
 62
250
  6
CONTINUOUS
 10
124.4142425965
 20
112.5837581845
 11
124.4173932895
 21
119.9430766896
  0
LINE
  5
2CA
100
AcDbEntity
  8
ASSI
100
AcDbLine
 62
250
  6
CONTINUOUS
 10
124.4142425965
 20
112.5837581845
 11
124.4173932895
 21
119.9430766896
  0
LINE
  5
2CB
100
AcDbEntity
  8
RACCORDO
100
AcDbLine
 62
250
  6
CONTINUOUS
 10
124.9135573639
 20
112.5837629945
 11
124.9167080768
 21
119.9350001081
  0
LINE
  5
2CC
100
AcDbEntity
  8
ASSI
100
AcDbLine
 62
250
  6
CONTINUOUS
 10
124.9135573639
 20
112.5837629945
 11
124.9167080768
 21
119.9350001081
  0
LINE
  5
2CD
100
AcDbEntity
  8
RACCORDO
100
AcDbLine
 62
250
  6
CONTINUOUS
 10
124.4173932895
 20
119.9430766896
 11
124.4268431567
 21
127.3004265059
  0
LINE
  5
2CE
100
AcDbEntity
  8
ASSI
100
AcDbLine
 62
250
  6
CONTINUOUS
 10
124.4173932895
 20
119.9430766896
 11
124.4268431567
 21
127.3004265059
  0
LINE
  5
2CF
100
AcDbEntity
  8
RACCORDO
100
AcDbLine
 62
250
  6
CONTINUOUS
 10
124.9167080768
 20
119.9350001081
 11
124.9261579551
 21
127.2837692438
  0
LINE
  5
2D0
100
AcDbEntity
  8
ASSI
100
AcDbLine
 62
250
  6
CONTINUOUS
 10
124.9167080768
 20
119.9350001081
 11
124.9261579551
 21
127.2837692438
  0
LINE
  5
2D1
100
AcDbEntity
  8
RACCORDO
100
AcDbLine
 62
250
  6
CONTINUOUS
 10
124.4268431567
 20
127.3004265059
 11
124.442591724
 21
134.6538396606
  0
LINE
  5
2D2
100
AcDbEntity
  8
ASSI
100
AcDbLine
 62
250
  6
CONTINUOUS
 10
124.4268431567
 20
127.3004265059
 11
124.442591724
 21
134.6538396606
  0
LINE
  5
2D3
100
AcDbEntity
  8
RACCORDO
100
AcDbLine
 62
250
  6
CONTINUOUS
 10
124.9261579551
 20
127.2837692438
 11
124.9419065159
 21
134.6293300182
  0
LINE
  5
2D4
100
AcDbEntity
  8
ASSI
100
AcDbLine
 62
250
  6
CONTINUOUS
 10
124.9261579551
 20
127.2837692438
 11
124.9419065159
 21
134.6293300182
  0
LWPOLYLINE
  5
2D5
100
AcDbEntity
  8
RACCORDO
100
AcDbPolyline
 62
250
  6
CONTINUOUS
 90
10
 70
0
 10
124.9419065275
 20
134.6293300066
 10
124.943142585
 20
134.6717243627
 10
124.9466385487
 20
134.7140094444
 10
124.9523878754
 20
134.7560657358
 10
124.9603817247
 20
134.7977918341
 10
124.9705986858
 20
134.8390509585
 10
124.9829953365
 20
134.8796735995
 10
124.9975246998
 20
134.9195294467
 10
125.0141458655
 20
134.9585253855
 10
125.0328072307
 20
134.9965535839
  0
LWPOLYLINE
  5
2D6
100
AcDbEntity
  8
ASSI
100
AcDbPolyline
 62
250
  6
CONTINUOUS
 90
10
 70
0
 10
124.9419065275
 20
134.6293300066
 10
124.943142585
 20
134.6717243627
 10
124.9466385487
 20
134.7140094444
 10
124.9523878754
 20
134.7560657358
 10
124.9603817247
 20
134.7977918341
 10
124.9705986858
 20
134.8390509585
 10
124.9829953365
 20
134.8796735995
 10
124.9975246998
 20
134.9195294467
 10
125.0141458655
 20
134.9585253855
 10
125.0328072307
 20
134.9965535839
  0
LWPOLYLINE
  5
2D7
100
AcDbEntity
  8
RACCORDO
100
AcDbPolyline
 62
250
  6
CONTINUOUS
 90
10
 70
0
 10
124.442591724
 20
134.6538396606
 10
124.4446293545
 20
134.7230901131
 10
124.4503016137
 20
134.7918076962
 10
124.4596085016
 20
134.8599924202
 10
124.4726119497
 20
134.927883126
 10
124.4892500266
 20
134.9952409901
 10
124.5093369373
 20
135.0613495419
 10
124.5328107504
 20
135.1259699823
 10
124.5597333973
 20
135.1893411657
 10
124.5901048781
 20
135.2514631174
  0
LWPOLYLINE
  5
2D8
100
AcDbEntity
  8
ASSI
100
AcDbPolyline
 62
250
  6
CONTINUOUS
 90
10
 70
0
 10
124.442591724
 20
134.6538396606
 10
124.4446293545
 20
134.7230901131
 10
124.4503016137
 20
134.7918076962
 10
124.4596085016
 20
134.8599924202
 10
124.4726119497
 20
134.927883126
 10
124.4892500266
 20
134.9952409901
 10
124.5093369373
 20
135.0613495419
 10
124.5328107504
 20
135.1259699823
 10
124.5597333973
 20
135.1893411657
 10
124.5901048781
 20
135.2514631174
  0
LINE
  5
2D9
100
AcDbEntity
  8
0
100
AcDbLine
 62
250
  6
CONTINUOUS
 10
121.8851672434
 20
109.2949302237
 11
121.8256442434
 21
109.0087212237
  0
LINE
  5
2DA
100
AcDbEntity
  8
0
100
AcDbLine
 62
250
  6
CONTINUOUS
 10
121.5875502434
 20
109.2626852237
 11
121.5280272434
 21
109.0930432237
  0
LINE
  5
2DB
100
AcDbEntity
  8
0
100
AcDbLine
 62
250
  6
CONTINUOUS
 10
120.4566072434
 20
122.3005102237
 11
120.5161312434
 21
122.4118692237
  0
LINE
  5
2DC
100
AcDbEntity
  8
0
100
AcDbLine
 62
250
  6
CONTINUOUS
 10
119.2661412434
 20
118.4996852237
 11
119.1470942434
 21
118.2769672237
  0
LINE
  5
2DD
100
AcDbEntity
  8
0
100
AcDbLine
 62
250
  6
CONTINUOUS
 10
121.7065972434
 20
116.7125252237
 11
121.8256442434
 21
116.9352432237
  0
LINE
  5
2DE
100
AcDbEntity
  8
0
100
AcDbLine
 62
250
  6
CONTINUOUS
 10
119.5042342434
 20
118.1874382237
 11
119.6232812434
 21
118.3518732237
  0
LINE
  5
2DF
100
AcDbEntity
  8
0
100
AcDbLine
 62
250
  6
CONTINUOUS
 10
120.5756542434
 20
108.8849492237
 11
120.4566072434
 21
109.1284962237
  0
LINE
  5
2E0
100
AcDbEntity
  8
0
100
AcDbLine
 62
250
  6
CONTINUOUS
 10
119.1470942434
 20
117.1695852237
 11
119.2661412434
 21
116.9260372237
  0
LINE
  5
2E1
100
AcDbEntity
  8
0
100
AcDbLine
 62
250
  6
CONTINUOUS
 10
120.7542242434
 20
109.1607422237
 11
120.6947012434
 21
109.3407992237
  0
LINE
  5
2E2
100
AcDbEntity
  8
0
100
AcDbLine
 62
250
  6
CONTINUOUS
 10
119.4447112434
 20
122.8553062237
 11
119.5042342434
 21
122.6752482237
  0
LINE
  5
2E3
100
AcDbEntity
  8
0
100
AcDbLine
 62
250
  6
CONTINUOUS
 10
120.7542242434
 20
122.5658882237
 11
120.6947012434
 21
122.7459462237
  0
LINE
  5
2E4
100
AcDbEntity
  8
0
100
AcDbLine
 62
250
  6
CONTINUOUS
 10
119.5042342434
 20
117.1966232237
 11
119.4447112434
 21
117.4349642237
  0
LINE
  5
2E5
100
AcDbEntity
  8
0
100
AcDbLine
 62
250
  6
CONTINUOUS
 10
121.4685042434
 20
118.0155872237
 11
121.5280272434
 21
117.7772462237
  0
LINE
  5
2E6
100
AcDbEntity
  8
0
100
AcDbLine
 62
250
  6
CONTINUOUS
 10
121.8851672434
 20
117.7460012237
 11
121.8256442434
 21
118.0426242237
  0
LINE
  5
2E7
100
AcDbEntity
  8
0
100
AcDbLine
 62
250
  6
CONTINUOUS
 10
121.4685042434
 20
117.0247712237
 11
121.3494572434
 21
116.8603372237
  0
LINE
  5
2E8
100
AcDbEntity
  8
0
100
AcDbLine
 62
250
  6
CONTINUOUS
 10
121.6470742434
 20
122.1963582237
 11
121.8256442434
 21
122.4138682237
  0
LINE
  5
2E9
100
AcDbEntity
  8
0
100
AcDbLine
 62
250
  6
CONTINUOUS
 10
120.1589912434
 20
122.5013982237
 11
120.2780372434
 21
122.6075492237
  0
LINE
  5
2EA
100
AcDbEntity
  8
0
100
AcDbLine
 62
250
  6
CONTINUOUS
 10
121.4685042434
 20
122.5033972237
 11
121.3494572434
 21
122.3972462237
  0
LWPOLYLINE
  5
2EB
100
AcDbEntity
  8
RACCORDO
100
AcDbPolyline
 62
250
  6
CONTINUOUS
 90
28
 70
0
 10
262.6645451203
 20
67.706952812
 10
262.7222483346
 20
67.7086776179
 10
262.779696632
 20
67.713747995
 10
262.8366996279
 20
67.7221410745
 10
262.8930312486
 20
67.7338142339
 10
262.9485443637
 20
67.7487275864
 10
263.003165694
 20
67.7668656266
 10
263.0567630445
 20
67.7882053232
 10
263.1090960738
 20
67.8126718147
 10
263.159931862
 20
67.8401652577
 10
263.2090744792
 20
67.8705824677
 10
263.2563819622
 20
67.903837514
 10
263.3017122618
 20
67.9398352825
 10
263.3449110275
 20
67.9784653141
 10
263.3858235793
 20
68.0196012518
 10
263.4243138842
 20
68.0631145723
 10
263.4602446713
 20
68.1088666336
 10
263.4934859288
 20
68.1567087269
 10
263.5239226911
 20
68.2064866
 10
263.5514442827
 20
68.2580434245
 10
263.5759440544
 20
68.3112050572
 10
263.597328161
 20
68.3657807695
 10
263.6155139401
 20
68.4215868158
 10
263.6304312073
 20
68.4784385877
 10
263.6420233939
 20
68.5361356467
 10
263.6502435127
 20
68.5944801832
 10
263.6550534398
 20
68.6532779239
 10
263.656427802
 20
68.7123291998
  0
LWPOLYLINE
  5
2EC
100
AcDbEntity
  8
ASSI
100
AcDbPolyline
 62
250
  6
CONTINUOUS
 90
28
 70
0
 10
262.6645451203
 20
67.706952812
 10
262.7222483346
 20
67.7086776179
 10
262.779696632
 20
67.713747995
 10
262.8366996279
 20
67.7221410745
 10
262.8930312486
 20
67.7338142339
 10
262.9485443637
 20
67.7487275864
 10
263.003165694
 20
67.7668656266
 10
263.0567630445
 20
67.7882053232
 10
263.1090960738
 20
67.8126718147
 10
263.159931862
 20
67.8401652577
 10
263.2090744792
 20
67.8705824677
 10
263.2563819622
 20
67.903837514
 10
263.3017122618
 20
67.9398352825
 10
263.3449110275
 20
67.9784653141
 10
263.3858235793
 20
68.0196012518
 10
263.4243138842
 20
68.0631145723
 10
263.4602446713
 20
68.1088666336
 10
263.4934859288
 20
68.1567087269
 10
263.5239226911
 20
68.2064866
 10
263.5514442827
 20
68.2580434245
 10
263.5759440544
 20
68.3112050572
 10
263.597328161
 20
68.3657807695
 10
263.6155139401
 20
68.4215868158
 10
263.6304312073
 20
68.4784385877
 10
263.6420233939
 20
68.5361356467
 10
263.6502435127
 20
68.5944801832
 10
263.6550534398
 20
68.6532779239
 10
263.656427802
 20
68.7123291998
  0
LINE
  5
2ED
100
AcDbEntity
  8
0
100
AcDbLine
 62
250
  6
CONTINUOUS
 10
120.8732712434
 20
109.0337602237
 11
120.7542242434
 21
109.1607422237
  0
LINE
  5
2EE
100
AcDbEntity
  8
0
100
AcDbLine
 62
250
  6
CONTINUOUS
 10
119.6232812434
 20
117.0113582237
 11
119.5042342434
 21
117.1966232237
  0
LINE
  5
2EF
100
AcDbEntity
  8
0
100
AcDbLine
 62
250
  6
CONTINUOUS
 10
121.3494572434
 20
118.2008522237
 11
121.4685042434
 21
118.0155872237
  0
LINE
  5
2F0
100
AcDbEntity
  8
0
100
AcDbLine
 62
250
  6
CONTINUOUS
 10
121.8256442434
 20
118.0426242237
 11
121.7065972434
 21
118.2861732237
  0
LINE
  5
2F1
100
AcDbEntity
  8
0
100
AcDbLine
 62
250
  6
CONTINUOUS
 10
120.5161312434
 20
122.4118692237
 11
120.5756542434
 21
122.2900952237
  0
LINE
  5
2F2
100
AcDbEntity
  8
0
100
AcDbLine
 62
250
  6
CONTINUOUS
 10
121.8256442434
 20
109.0087212237
 11
121.6470742434
 21
108.7912122237
  0
LWPOLYLINE
  5
2F3
100
AcDbEntity
  8
0
100
AcDbPolyline
 62
7
  6
CONTINUOUS
 90
3
 70
0
 43
0.3500000006
 10
180.3935110474
 20
175.4766099243
 10
181.2506489868
 20
176.3337659912
 10
181.2506489868
 20
173.3337650757
  0
LWPOLYLINE
  5
2F4
100
AcDbEntity
  8
0
100
AcDbPolyline
 62
7
  6
CONTINUOUS
 90
10
 70
0
 43
0.3500000006
 10
183.179227478
 20
176.3337659912
 10
182.5363740234
 20
175.6908944092
 10
182.1078050537
 20
174.8337564697
 10
182.1078050537
 20
173.7623340454
 10
182.5363740234
 20
173.3337650757
 10
183.179227478
 20
173.3337650757
 10
183.6077964478
 20
173.7623340454
 10
183.6077964478
 20
174.6194719849
 10
183.179227478
 20
175.0480409546
 10
182.250649292
 20
175.0480409546
  0
LWPOLYLINE
  5
2F5
100
AcDbEntity
  8
0
100
AcDbPolyline
 62
7
  6
CONTINUOUS
 90
3
 70
0
 43
0.3500000006
 10
184.4649343872
 20
175.4766099243
 10
185.3220904541
 20
176.3337659912
 10
185.3220904541
 20
173.3337650757
  0
LINE
  5
2F6
100
AcDbEntity
  8
0
100
AcDbLine
 62
250
  6
CONTINUOUS
 10
119.5042342434
 20
118.7119872237
 11
119.2661412434
 21
118.4996852237
  0
LINE
  5
2F7
100
AcDbEntity
  8
0
100
AcDbLine
 62
250
  6
CONTINUOUS
 10
121.4685042434
 20
116.5002222237
 11
121.7065972434
 21
116.7125252237
  0
LINE
  5
2F8
100
AcDbEntity
  8
0
100
AcDbLine
 62
250
  6
CONTINUOUS
 10
120.2185142434
 20
122.1464912237
 11
120.4566072434
 21
122.3005102237
  0
LINE
  5
2F9
100
AcDbEntity
  8
0
100
AcDbLine
 62
250
  6
CONTINUOUS
 10
121.4089802434
 20
122.0423382237
 11
121.6470742434
 21
122.1963582237
  0
LINE
  5
2FA
100
AcDbEntity
  8
0
100
AcDbLine
 62
250
  6
CONTINUOUS
 10
119.0875712434
 20
129.0395972237
 11
121.8851672434
 21
130.4383952237
  0
LWPOLYLINE
  5
2FB
100
AcDbEntity
  8
RACCORDO
100
AcDbPolyline
 62
250
  6
CONTINUOUS
 90
28
 70
0
 10
262.6645451203
 20
67.9520757189
 10
262.7050731177
 20
67.9532801401
 10
262.7451812367
 20
67.9567963607
 10
262.7848694773
 20
67.9626244078
 10
262.8242517144
 20
67.9707893692
 10
262.8632140732
 20
67.9812662662
 10
262.9014149286
 20
67.9939800516
 10
262.938877233
 20
68.0089624189
 10
262.9755780342
 20
68.0261818833
 10
263.0111068507
 20
68.0454686427
 10
263.0454356381
 20
68.0668376279
 10
263.0785924408
 20
68.0902741899
 10
263.1102509109
 20
68.1155641505
 10
263.1404020086
 20
68.1427281099
 10
263.1690547736
 20
68.1717457929
 10
263.195909977
 20
68.2023416824
 10
263.2209523533
 20
68.2345353943
 10
263.2441971679
 20
68.2683076419
 10
263.2653909884
 20
68.3033245023
 10
263.284513099
 20
68.3396021172
 10
263.3015842155
 20
68.3771246373
 10
263.3164130525
 20
68.4155100753
 10
263.328975726
 20
68.454781324
 10
263.33929612
 20
68.4949157096
 10
263.3472546018
 20
68.5354627905
 10
263.3528112939
 20
68.576272428
 10
263.3560060738
 20
68.6174948525
 10
263.3568389416
 20
68.6591301172
  0
LWPOLYLINE
  5
2FC
100
AcDbEntity
  8
ASSI
100
AcDbPolyline
 62
250
  6
CONTINUOUS
 90
28
 70
0
 10
262.6645451203
 20
67.9520757189
 10
262.7050731177
 20
67.9532801401
 10
262.7451812367
 20
67.9567963607
 10
262.7848694773
 20
67.9626244078
 10
262.8242517144
 20
67.9707893692
 10
262.8632140732
 20
67.9812662662
 10
262.9014149286
 20
67.9939800516
 10
262.938877233
 20
68.0089624189
 10
262.9755780342
 20
68.0261818833
 10
263.0111068507
 20
68.0454686427
 10
263.0454356381
 20
68.0668376279
 10
263.0785924408
 20
68.0902741899
 10
263.1102509109
 20
68.1155641505
 10
263.1404020086
 20
68.1427281099
 10
263.1690547736
 20
68.1717457929
 10
263.195909977
 20
68.2023416824
 10
263.2209523533
 20
68.2345353943
 10
263.2441971679
 20
68.2683076419
 10
263.2653909884
 20
68.3033245023
 10
263.284513099
 20
68.3396021172
 10
263.3015842155
 20
68.3771246373
 10
263.3164130525
 20
68.4155100753
 10
263.328975726
 20
68.454781324
 10
263.33929612
 20
68.4949157096
 10
263.3472546018
 20
68.5354627905
 10
263.3528112939
 20
68.576272428
 10
263.3560060738
 20
68.6174948525
 10
263.3568389416
 20
68.6591301172
  0
LWPOLYLINE
  5
2FD
100
AcDbEntity
  8
RACCORDO
100
AcDbPolyline
 62
250
  6
CONTINUOUS
 90
19
 70
0
 10
263.3568389416
 20
68.6591301294
 10
263.382128909
 20
68.6595508187
 10
263.4072388181
 20
68.6603472774
 10
263.4319898922
 20
68.6615138349
 10
263.4562059097
 20
68.6630421855
 10
263.4797144585
 20
68.6649214479
 10
263.5023481633
 20
68.6671382422
 10
263.5239458777
 20
68.6696767852
 10
263.5443538311
 20
68.6725190031
 10
263.5634267239
 20
68.6756446601
 10
263.5810287616
 20
68.6790315023
 10
263.5970346221
 20
68.6826554161
 10
263.6113303474
 20
68.6864906002
 10
263.6238141554
 20
68.6905097489
 10
263.6343971645
 20
68.6946842469
 10
263.6430040262
 20
68.6989843729
 10
263.6495734617
 20
68.7033795108
 10
263.6540586983
 20
68.7078383685
 10
263.656427802
 20
68.7123291998
  0
LWPOLYLINE
  5
2FE
100
AcDbEntity
  8
ASSI
100
AcDbPolyline
 62
250
  6
CONTINUOUS
 90
19
 70
0
 10
263.3568389416
 20
68.6591301294
 10
263.382128909
 20
68.6595508187
 10
263.4072388181
 20
68.6603472774
 10
263.4319898922
 20
68.6615138349
 10
263.4562059097
 20
68.6630421855
 10
263.4797144585
 20
68.6649214479
 10
263.5023481633
 20
68.6671382422
 10
263.5239458777
 20
68.6696767852
 10
263.5443538311
 20
68.6725190031
 10
263.5634267239
 20
68.6756446601
 10
263.5810287616
 20
68.6790315023
 10
263.5970346221
 20
68.6826554161
 10
263.6113303474
 20
68.6864906002
 10
263.6238141554
 20
68.6905097489
 10
263.6343971645
 20
68.6946842469
 10
263.6430040262
 20
68.6989843729
 10
263.6495734617
 20
68.7033795108
 10
263.6540586983
 20
68.7078383685
 10
263.656427802
 20
68.7123291998
  0
LINE
  5
2FF
100
AcDbEntity
  8
RACCORDO
100
AcDbLine
 62
7
  6
CONTINUOUS
 10
103.7849987782
 20
67.5837582237
 11
262.7877397087
 21
67.5837582237
  0
LINE
  5
300
100
AcDbEntity
  8
ASSI
100
AcDbLine
 62
7
  6
CONTINUOUS
 10
103.7849987782
 20
67.5837582237
 11
262.7877397087
 21
67.5837582237
  0
LINE
  5
301
100
AcDbEntity
  8
RACCORDO
100
AcDbLine
 62
250
  6
CONTINUOUS
 10
103.9081933665
 20
67.706952812
 11
262.6645451203
 21
67.706952812
  0
LINE
  5
302
100
AcDbEntity
  8
ASSI
100
AcDbLine
 62
250
  6
CONTINUOUS
 10
103.9081933665
 20
67.706952812
 11
262.6645451203
 21
67.706952812
  0
LINE
  5
303
100
AcDbEntity
  8
RACCORDO
100
AcDbLine
 62
250
  6
CONTINUOUS
 10
103.9081933665
 20
67.9520757189
 11
262.6645451203
 21
67.9520757189
  0
LINE
  5
304
100
AcDbEntity
  8
ASSI
100
AcDbLine
 62
250
  6
CONTINUOUS
 10
103.9081933665
 20
67.9520757189
 11
262.6645451203
 21
67.9520757189
  0
LWPOLYLINE
  5
305
100
AcDbEntity
  8
RACCORDO
100
AcDbPolyline
 62
250
  6
CONTINUOUS
 90
19
 70
0
 10
103.2158995453
 20
68.6591301282
 10
103.1906100055
 20
68.6595508909
 10
103.165500558
 20
68.6603474134
 10
103.1407499718
 20
68.661514025
 10
103.116534461
 20
68.6630424198
 10
103.0930264299
 20
68.6649217163
 10
103.070393246
 20
68.6671385347
 10
103.0487960485
 20
68.6696770923
 10
103.0283886003
 20
68.6725193155
 10
103.0093161942
 20
68.6756449688
 10
102.9917146179
 20
68.6790317991
 10
102.9757091873
 20
68.6826556933
 10
102.9614138546
 20
68.6864908509
 10
102.9489303966
 20
68.6905099672
 10
102.9383476903
 20
68.6946844276
 10
102.9297410804
 20
68.6989845119
 10
102.9231718424
 20
68.7033796051
 10
102.9186867465
 20
68.707838416
 10
102.9163177248
 20
68.7123291997
  0
LWPOLYLINE
  5
306
100
AcDbEntity
  8
ASSI
100
AcDbPolyline
 62
250
  6
CONTINUOUS
 90
19
 70
0
 10
103.2158995453
 20
68.6591301282
 10
103.1906100055
 20
68.6595508909
 10
103.165500558
 20
68.6603474134
 10
103.1407499718
 20
68.661514025
 10
103.116534461
 20
68.6630424198
 10
103.0930264299
 20
68.6649217163
 10
103.070393246
 20
68.6671385347
 10
103.0487960485
 20
68.6696770923
 10
103.0283886003
 20
68.6725193155
 10
103.0093161942
 20
68.6756449688
 10
102.9917146179
 20
68.6790317991
 10
102.9757091873
 20
68.6826556933
 10
102.9614138546
 20
68.6864908509
 10
102.9489303966
 20
68.6905099672
 10
102.9383476903
 20
68.6946844276
 10
102.9297410804
 20
68.6989845119
 10
102.9231718424
 20
68.7033796051
 10
102.9186867465
 20
68.707838416
 10
102.9163177248
 20
68.7123291997
  0
LINE
  5
307
100
AcDbEntity
  8
0
100
AcDbLine
 62
250
  6
CONTINUOUS
 10
120.8137472434
 20
108.6892682237
 11
120.5756542434
 21
108.8849492237
  0
LINE
  5
308
100
AcDbEntity
  8
0
100
AcDbLine
 62
250
  6
CONTINUOUS
 10
119.2661412434
 20
116.9260372237
 11
119.5042342434
 21
116.6720742237
  0
LINE
  5
309
100
AcDbEntity
  8
0
100
AcDbLine
 62
250
  6
CONTINUOUS
 10
121.7065972434
 20
118.2861732237
 11
121.4685042434
 21
118.5401362237
  0
LINE
  5
30A
100
AcDbEntity
  8
0
100
AcDbLine
 62
250
  6
CONTINUOUS
 10
119.1470942434
 20
122.6482112237
 11
119.3256642434
 21
122.3994552237
  0
LINE
  5
30B
100
AcDbEntity
  8
0
100
AcDbLine
 62
250
  6
CONTINUOUS
 10
121.5280272434
 20
109.0930432237
 11
121.4089802434
 21
108.9868922237
  0
LINE
  5
30C
100
AcDbEntity
  8
0
100
AcDbLine
 62
250
  6
CONTINUOUS
 10
119.6232812434
 20
118.3518732237
 11
119.8018512434
 21
118.4528172237
  0
LINE
  5
30D
100
AcDbEntity
  8
0
100
AcDbLine
 62
250
  6
CONTINUOUS
 10
119.0875712434
 20
131.2377082237
 11
121.8851672434
 21
132.0370212237
  0
LINE
  5
30E
100
AcDbEntity
  8
0
100
AcDbLine
 62
250
  6
CONTINUOUS
 10
119.5042342434
 20
122.6752482237
 11
119.6232812434
 21
122.5482662237
  0
LINE
  5
30F
100
AcDbEntity
  8
0
100
AcDbLine
 62
250
  6
CONTINUOUS
 10
120.8732712434
 20
122.4389062237
 11
120.7542242434
 21
122.5658882237
  0
LINE
  5
310
100
AcDbEntity
  8
0
100
AcDbLine
 62
250
  6
CONTINUOUS
 10
121.6470742434
 20
108.7912122237
 11
121.4089802434
 21
108.6371922237
  0
LINE
  5
311
100
AcDbEntity
  8
0
100
AcDbLine
 62
250
  6
CONTINUOUS
 10
119.7423282434
 20
118.8077232237
 11
119.5042342434
 21
118.7119872237
  0
LINE
  5
312
100
AcDbEntity
  8
0
100
AcDbLine
 62
250
  6
CONTINUOUS
 10
119.0875712434
 20
107.0917922237
 11
119.8018512434
 21
106.7961672237
  0
LINE
  5
313
100
AcDbEntity
  8
0
100
AcDbLine
 62
250
  6
CONTINUOUS
 10
121.6470742434
 20
106.0518982237
 11
120.0399442434
 21
106.7170532237
  0
LINE
  5
314
100
AcDbEntity
  8
0
100
AcDbLine
 62
250
  6
CONTINUOUS
 10
120.9923172434
 20
108.6153622237
 11
120.8137472434
 21
108.6892682237
  0
LINE
  5
315
100
AcDbEntity
  8
0
100
AcDbLine
 62
250
  6
CONTINUOUS
 10
121.0518402434
 20
108.9598542237
 11
120.8732712434
 21
109.0337602237
  0
LINE
  5
316
100
AcDbEntity
  8
0
100
AcDbLine
 62
250
  6
CONTINUOUS
 10
121.8851672434
 20
106.2642012237
 11
119.0875712434
 21
107.4414912237
  0
LINE
  5
317
100
AcDbEntity
  8
0
100
AcDbLine
 62
250
  6
CONTINUOUS
 10
121.1708872434
 20
118.3330412237
 11
121.3494572434
 21
118.2008522237
  0
LINE
  5
318
100
AcDbEntity
  8
0
100
AcDbLine
 62
250
  6
CONTINUOUS
 10
119.3256642434
 20
122.3994552237
 11
119.5637582434
 21
122.2037752237
  0
LINE
  5
319
100
AcDbEntity
  8
0
100
AcDbLine
 62
250
  6
CONTINUOUS
 10
120.5756542434
 20
122.2900952237
 11
120.8137472434
 21
122.0944152237
  0
LINE
  5
31A
100
AcDbEntity
  8
RACCORDO
100
AcDbLine
 62
250
  6
CONTINUOUS
 10
102.9163106848
 20
68.7123291998
 11
102.7863692434
 21
68.5823877584
  0
LINE
  5
31B
100
AcDbEntity
  8
ASSI
100
AcDbLine
 62
250
  6
CONTINUOUS
 10
102.9163106848
 20
68.7123291998
 11
102.7863692434
 21
68.5823877584
  0
LINE
  5
31C
100
AcDbEntity
  8
0
100
AcDbLine
 62
250
  6
CONTINUOUS
 10
124.9419065574
 20
90.5381649253
 11
125.0863692434
 21
90.6826618515
  0
LINE
  5
31D
100
AcDbEntity
  8
ASSI
100
AcDbLine
 62
250
  6
CONTINUOUS
 10
124.9419065574
 20
90.5381649253
 11
125.0863692434
 21
90.6826618515
  0
LINE
  5
31E
100
AcDbEntity
  8
0
100
AcDbLine
 62
250
  6
CONTINUOUS
 10
169.8284562336
 20
135.4247427347
 11
169.6874656156
 21
135.2837582237
  0
LINE
  5
31F
100
AcDbEntity
  8
ASSI
100
AcDbLine
 62
250
  6
CONTINUOUS
 10
169.8284562336
 20
135.4247427347
 11
169.6874656156
 21
135.2837582237
  0
LINE
  5
320
100
AcDbEntity
  8
0
100
AcDbLine
 62
250
  6
CONTINUOUS
 10
170.630831928
 20
134.6293522798
 11
170.4863692434
 21
134.4848545959
  0
LINE
  5
321
100
AcDbEntity
  8
ASSI
100
AcDbLine
 62
250
  6
CONTINUOUS
 10
170.630831928
 20
134.6293522798
 11
170.4863692434
 21
134.4848545959
  0
LINE
  5
322
100
AcDbEntity
  8
0
100
AcDbLine
 62
250
  6
CONTINUOUS
 10
125.7442822533
 20
89.7427737127
 11
125.8852728712
 21
89.8837582237
  0
LINE
  5
323
100
AcDbEntity
  8
ASSI
100
AcDbLine
 62
250
  6
CONTINUOUS
 10
125.7442822533
 20
89.7427737127
 11
125.8852728712
 21
89.8837582237
  0
LINE
  5
324
100
AcDbEntity
  8
RACCORDO
100
AcDbLine
 62
250
  6
CONTINUOUS
 10
103.9081933665
 20
67.706952812
 11
103.7849987782
 21
67.5837582237
  0
LINE
  5
325
100
AcDbEntity
  8
ASSI
100
AcDbLine
 62
250
  6
CONTINUOUS
 10
103.9081933665
 20
67.706952812
 11
103.7849987782
 21
67.5837582237
  0
LWPOLYLINE
  5
326
100
AcDbEntity
  8
RACCORDO
100
AcDbPolyline
 62
250
  6
CONTINUOUS
 90
14
 70
0
 10
170.8006189952
 20
135.1543023543
 10
170.7671080745
 20
135.1358664494
 10
170.7351402487
 20
135.1180778498
 10
170.7049444032
 20
135.1010639198
 10
170.6767367367
 20
135.084946477
 10
170.6507192124
 20
135.0698409202
 10
170.6270781125
 20
135.0558554033
 10
170.6059827044
 20
135.0430900607
 10
170.5875840285
 20
135.0316362908
 10
170.572013817
 20
135.021576101
 10
170.5593835508
 20
135.0129815211
 10
170.5497836608
 20
135.0059140871
 10
170.5432828813
 20
135.000424401
 10
170.5399277568
 20
134.9965517682
  0
LWPOLYLINE
  5
327
100
AcDbEntity
  8
ASSI
100
AcDbPolyline
 62
250
  6
CONTINUOUS
 90
14
 70
0
 10
170.8006189952
 20
135.1543023543
 10
170.7671080745
 20
135.1358664494
 10
170.7351402487
 20
135.1180778498
 10
170.7049444032
 20
135.1010639198
 10
170.6767367367
 20
135.084946477
 10
170.6507192124
 20
135.0698409202
 10
170.6270781125
 20
135.0558554033
 10
170.6059827044
 20
135.0430900607
 10
170.5875840285
 20
135.0316362908
 10
170.572013817
 20
135.021576101
 10
170.5593835508
 20
135.0129815211
 10
170.5497836608
 20
135.0059140871
 10
170.5432828813
 20
135.000424401
 10
170.5399277568
 20
134.9965517682
  0
LINE
  5
328
100
AcDbEntity
  8
RACCORDO
100
AcDbLine
 62
250
  6
CONTINUOUS
 10
170.8713010545
 20
135.1925843961
 11
170.8006189952
 21
135.1543023543
  0
LINE
  5
329
100
AcDbEntity
  8
ASSI
100
AcDbLine
 62
250
  6
CONTINUOUS
 10
170.8713010545
 20
135.1925843961
 11
170.8006189952
 21
135.1543023543
  0
LWPOLYLINE
  5
32A
100
AcDbEntity
  8
RACCORDO
100
AcDbPolyline
 62
250
  6
CONTINUOUS
 90
3
 70
0
 10
170.9826336086
 20
135.2514629021
 10
170.9451657515
 20
135.2318295594
 10
170.8713010545
 20
135.1925843961
  0
LWPOLYLINE
  5
32B
100
AcDbEntity
  8
ASSI
100
AcDbPolyline
 62
250
  6
CONTINUOUS
 90
3
 70
0
 10
170.9826336086
 20
135.2514629021
 10
170.9451657515
 20
135.2318295594
 10
170.8713010545
 20
135.1925843961
  0
LWPOLYLINE
  5
32C
100
AcDbEntity
  8
RACCORDO
100
AcDbPolyline
 62
250
  6
CONTINUOUS
 90
16
 70
0
 10
195.5677863987
 20
90.5147793486
 10
195.6081294958
 20
90.515484724
 10
195.6472951935
 20
90.5163516571
 10
195.685004923
 20
90.5173739817
 10
195.720990471
 20
90.5185444264
 10
195.7549958877
 20
90.5198546665
 10
195.7867793071
 20
90.5212953826
 10
195.8161146674
 20
90.5228563277
 10
195.8427933187
 20
90.5245263994
 10
195.866625507
 20
90.5262937191
 10
195.8874417243
 20
90.5281457168
 10
195.9050939137
 20
90.5300692198
 10
195.9194565228
 20
90.5320505472
 10
195.9304273963
 20
90.5340756067
 10
195.9379285033
 20
90.5361299947
 10
195.9419064914
 20
90.5381990995
  0
LWPOLYLINE
  5
32D
100
AcDbEntity
  8
ASSI
100
AcDbPolyline
 62
250
  6
CONTINUOUS
 90
16
 70
0
 10
195.5677863987
 20
90.5147793486
 10
195.6081294958
 20
90.515484724
 10
195.6472951935
 20
90.5163516571
 10
195.685004923
 20
90.5173739817
 10
195.720990471
 20
90.5185444264
 10
195.7549958877
 20
90.5198546665
 10
195.7867793071
 20
90.5212953826
 10
195.8161146674
 20
90.5228563277
 10
195.8427933187
 20
90.5245263994
 10
195.866625507
 20
90.5262937191
 10
195.8874417243
 20
90.5281457168
 10
195.9050939137
 20
90.5300692198
 10
195.9194565228
 20
90.5320505472
 10
195.9304273963
 20
90.5340756067
 10
195.9379285033
 20
90.5361299947
 10
195.9419064914
 20
90.5381990995
  0
LWPOLYLINE
  5
32E
100
AcDbEntity
  8
RACCORDO
100
AcDbPolyline
 62
250
  6
CONTINUOUS
 90
16
 70
0
 10
124.5677863987
 20
90.5147793486
 10
124.6081294958
 20
90.515484724
 10
124.6472951935
 20
90.5163516571
 10
124.685004923
 20
90.5173739817
 10
124.720990471
 20
90.5185444264
 10
124.7549958877
 20
90.5198546665
 10
124.7867793071
 20
90.5212953826
 10
124.8161146674
 20
90.5228563277
 10
124.8427933187
 20
90.5245263994
 10
124.866625507
 20
90.5262937191
 10
124.8874417243
 20
90.5281457168
 10
124.9050939138
 20
90.5300692198
 10
124.9194565228
 20
90.5320505472
 10
124.9304273963
 20
90.5340756067
 10
124.9379285033
 20
90.5361299947
 10
124.9419064914
 20
90.5381990995
  0
LWPOLYLINE
  5
32F
100
AcDbEntity
  8
ASSI
100
AcDbPolyline
 62
250
  6
CONTINUOUS
 90
16
 70
0
 10
124.5677863987
 20
90.5147793486
 10
124.6081294958
 20
90.515484724
 10
124.6472951935
 20
90.5163516571
 10
124.685004923
 20
90.5173739817
 10
124.720990471
 20
90.5185444264
 10
124.7549958877
 20
90.5198546665
 10
124.7867793071
 20
90.5212953826
 10
124.8161146674
 20
90.5228563277
 10
124.8427933187
 20
90.5245263994
 10
124.866625507
 20
90.5262937191
 10
124.8874417243
 20
90.5281457168
 10
124.9050939138
 20
90.5300692198
 10
124.9194565228
 20
90.5320505472
 10
124.9304273963
 20
90.5340756067
 10
124.9379285033
 20
90.5361299947
 10
124.9419064914
 20
90.5381990995
  0
LWPOLYLINE
  5
330
100
AcDbEntity
  8
RACCORDO
100
AcDbPolyline
 62
250
  6
CONTINUOUS
 90
17
 70
0
 10
263.2795162387
 20
89.9164007387
 10
263.30425642
 20
89.9167327701
 10
263.328462324
 20
89.9171674532
 10
263.3519617837
 20
89.9177016962
 10
263.3745876568
 20
89.9183316994
 10
263.3961790144
 20
89.9190529817
 10
263.4165822856
 20
89.919860413
 10
263.43565235
 20
89.9207482503
 10
263.4532535699
 20
89.9217101787
 10
263.4692607546
 20
89.9227393566
 10
263.4835600515
 20
89.9238284636
 10
263.4960497552
 20
89.9249697535
 10
263.5066410315
 20
89.9261551087
 10
263.5152585487
 20
89.9273760982
 10
263.521841014
 20
89.9286240376
 10
263.5263416087
 20
89.9298900508
 10
263.5287283219
 20
89.9311651332
  0
LWPOLYLINE
  5
331
100
AcDbEntity
  8
ASSI
100
AcDbPolyline
 62
250
  6
CONTINUOUS
 90
17
 70
0
 10
263.2795162387
 20
89.9164007387
 10
263.30425642
 20
89.9167327701
 10
263.328462324
 20
89.9171674532
 10
263.3519617837
 20
89.9177016962
 10
263.3745876568
 20
89.9183316994
 10
263.3961790144
 20
89.9190529817
 10
263.4165822856
 20
89.919860413
 10
263.43565235
 20
89.9207482503
 10
263.4532535699
 20
89.9217101787
 10
263.4692607546
 20
89.9227393566
 10
263.4835600515
 20
89.9238284636
 10
263.4960497552
 20
89.9249697535
 10
263.5066410315
 20
89.9261551087
 10
263.5152585487
 20
89.9273760982
 10
263.521841014
 20
89.9286240376
 10
263.5263416087
 20
89.9298900508
 10
263.5287283219
 20
89.9311651332
  0
LINE
  5
332
100
AcDbEntity
  8
RACCORDO
100
AcDbLine
 62
250
  6
CONTINUOUS
 10
263.2291394615
 20
89.9160533305
 11
263.2795162387
 21
89.9164007387
  0
LINE
  5
333
100
AcDbEntity
  8
ASSI
100
AcDbLine
 62
250
  6
CONTINUOUS
 10
263.2291394615
 20
89.9160533305
 11
263.2795162387
 21
89.9164007387
  0
LWPOLYLINE
  5
334
100
AcDbEntity
  8
RACCORDO
100
AcDbPolyline
 62
250
  6
CONTINUOUS
 90
3
 70
0
 10
195.442591724
 20
90.5136767875
 10
195.4847221124
 20
90.5138721541
 10
195.5677863987
 20
90.5147793486
  0
LWPOLYLINE
  5
335
100
AcDbEntity
  8
ASSI
100
AcDbPolyline
 62
250
  6
CONTINUOUS
 90
3
 70
0
 10
195.442591724
 20
90.5136767875
 10
195.4847221124
 20
90.5138721541
 10
195.5677863987
 20
90.5147793486
  0
LWPOLYLINE
  5
336
100
AcDbEntity
  8
RACCORDO
100
AcDbPolyline
 62
250
  6
CONTINUOUS
 90
3
 70
0
 10
124.442591724
 20
90.5136767875
 10
124.4847221124
 20
90.5138721541
 10
124.5677863987
 20
90.5147793486
  0
LWPOLYLINE
  5
337
100
AcDbEntity
  8
ASSI
100
AcDbPolyline
 62
250
  6
CONTINUOUS
 90
3
 70
0
 10
124.442591724
 20
90.5136767875
 10
124.4847221124
 20
90.5138721541
 10
124.5677863987
 20
90.5147793486
  0
LINE
  5
338
100
AcDbEntity
  8
RACCORDO
100
AcDbLine
 62
250
  6
CONTINUOUS
 10
240.8284501266
 20
89.2161826073
 11
196.7442883602
 21
89.2161826073
  0
LINE
  5
339
100
AcDbEntity
  8
ASSI
100
AcDbLine
 62
250
  6
CONTINUOUS
 10
240.8284501266
 20
89.2161826073
 11
196.7442883602
 21
89.2161826073
  0
LINE
  5
33A
100
AcDbEntity
  8
RACCORDO
100
AcDbLine
 62
250
  6
CONTINUOUS
 10
169.8284501266
 20
89.2161826073
 11
125.7442883602
 21
89.2161826073
  0
LINE
  5
33B
100
AcDbEntity
  8
ASSI
100
AcDbLine
 62
250
  6
CONTINUOUS
 10
169.8284501266
 20
89.2161826073
 11
125.7442883602
 21
89.2161826073
  0
LINE
  5
33C
100
AcDbEntity
  8
RACCORDO
100
AcDbLine
 62
250
  6
CONTINUOUS
 10
240.8284772242
 20
89.7427737127
 11
196.7442822533
 21
89.7427737127
  0
LINE
  5
33D
100
AcDbEntity
  8
ASSI
100
AcDbLine
 62
250
  6
CONTINUOUS
 10
240.8284772242
 20
89.7427737127
 11
196.7442822533
 21
89.7427737127
  0
LINE
  5
33E
100
AcDbEntity
  8
RACCORDO
100
AcDbLine
 62
250
  6
CONTINUOUS
 10
169.8284772242
 20
89.7427737127
 11
125.7442822533
 21
89.7427737127
  0
LINE
  5
33F
100
AcDbEntity
  8
ASSI
100
AcDbLine
 62
250
  6
CONTINUOUS
 10
169.8284772242
 20
89.7427737127
 11
125.7442822533
 21
89.7427737127
  0
LINE
  5
340
100
AcDbEntity
  8
0
100
AcDbLine
 62
7
  6
CONTINUOUS
 10
240.6874656156
 20
89.8837582237
 11
196.8852728712
 21
89.8837582237
  0
LINE
  5
341
100
AcDbEntity
  8
ASSI
100
AcDbLine
 62
7
  6
CONTINUOUS
 10
240.6874656156
 20
89.8837582237
 11
196.8852728712
 21
89.8837582237
  0
LINE
  5
342
100
AcDbEntity
  8
0
100
AcDbLine
 62
7
  6
CONTINUOUS
 10
169.6874656156
 20
89.8837582237
 11
125.8852728712
 21
89.8837582237
  0
LINE
  5
343
100
AcDbEntity
  8
ASSI
100
AcDbLine
 62
7
  6
CONTINUOUS
 10
169.6874656156
 20
89.8837582237
 11
125.8852728712
 21
89.8837582237
  0
LINE
  5
344
100
AcDbEntity
  8
RACCORDO
100
AcDbLine
 62
250
  6
CONTINUOUS
 10
103.3435992411
 20
89.9161108348
 11
124.5901048781
 21
89.91605333
  0
LINE
  5
345
100
AcDbEntity
  8
ASSI
100
AcDbLine
 62
250
  6
CONTINUOUS
 10
103.3435992411
 20
89.9161108348
 11
124.5901048781
 21
89.91605333
  0
LINE
  5
346
100
AcDbEntity
  8
RACCORDO
100
AcDbLine
 62
250
  6
CONTINUOUS
 10
241.9826336087
 20
89.91605333
 11
263.2291392463
 21
89.916110687
  0
LINE
  5
347
100
AcDbEntity
  8
ASSI
100
AcDbLine
 62
250
  6
CONTINUOUS
 10
241.9826336087
 20
89.91605333
 11
263.2291392463
 21
89.916110687
  0
LINE
  5
348
100
AcDbEntity
  8
RACCORDO
100
AcDbLine
 62
250
  6
CONTINUOUS
 10
170.9826336087
 20
89.91605333
 11
195.5901048781
 21
89.91605333
  0
LINE
  5
349
100
AcDbEntity
  8
ASSI
100
AcDbLine
 62
250
  6
CONTINUOUS
 10
170.9826336087
 20
89.91605333
 11
195.5901048781
 21
89.91605333
  0
LWPOLYLINE
  5
34A
100
AcDbEntity
  8
RACCORDO
100
AcDbPolyline
 62
250
  6
CONTINUOUS
 90
18
 70
0
 10
171.1301467628
 20
90.5136769509
 10
171.0461853765
 20
90.5142406725
 10
171.0049516505
 20
90.5147794558
 10
170.9646083602
 20
90.5154848152
 10
170.9254424538
 20
90.5163517336
 10
170.8877325049
 20
90.517374045
 10
170.8517467318
 20
90.5185444781
 10
170.8177410888
 20
90.5198547079
 10
170.7859574466
 20
90.5212954152
 10
170.7566218714
 20
90.5228563528
 10
170.7299430172
 20
90.5245264182
 10
170.7061106415
 20
90.5262937328
 10
170.685294256
 20
90.5281457264
 10
170.6676419204
 20
90.5300692263
 10
170.6532791899
 20
90.5320505513
 10
170.6423082217
 20
90.5340756089
 10
170.6348070486
 20
90.5361299957
 10
170.6308290237
 20
90.5381990994
  0
LWPOLYLINE
  5
34B
100
AcDbEntity
  8
ASSI
100
AcDbPolyline
 62
250
  6
CONTINUOUS
 90
18
 70
0
 10
171.1301467628
 20
90.5136769509
 10
171.0461853765
 20
90.5142406725
 10
171.0049516505
 20
90.5147794558
 10
170.9646083602
 20
90.5154848152
 10
170.9254424538
 20
90.5163517336
 10
170.8877325049
 20
90.517374045
 10
170.8517467318
 20
90.5185444781
 10
170.8177410888
 20
90.5198547079
 10
170.7859574466
 20
90.5212954152
 10
170.7566218714
 20
90.5228563528
 10
170.7299430172
 20
90.5245264182
 10
170.7061106415
 20
90.5262937328
 10
170.685294256
 20
90.5281457264
 10
170.6676419204
 20
90.5300692263
 10
170.6532791899
 20
90.5320505513
 10
170.6423082217
 20
90.5340756089
 10
170.6348070486
 20
90.5361299957
 10
170.6308290237
 20
90.5381990994
  0
LWPOLYLINE
  5
34C
100
AcDbEntity
  8
RACCORDO
100
AcDbPolyline
 62
250
  6
CONTINUOUS
 90
18
 70
0
 10
242.1301467628
 20
90.5136769509
 10
242.0461853765
 20
90.5142406725
 10
242.0049516505
 20
90.5147794558
 10
241.9646083602
 20
90.5154848152
 10
241.9254424538
 20
90.5163517336
 10
241.8877325049
 20
90.517374045
 10
241.8517467318
 20
90.5185444781
 10
241.8177410888
 20
90.5198547079
 10
241.7859574466
 20
90.5212954152
 10
241.7566218714
 20
90.5228563528
 10
241.7299430172
 20
90.5245264182
 10
241.7061106415
 20
90.5262937328
 10
241.685294256
 20
90.5281457264
 10
241.6676419204
 20
90.5300692263
 10
241.6532791899
 20
90.5320505513
 10
241.6423082217
 20
90.5340756089
 10
241.6348070486
 20
90.5361299957
 10
241.6308290237
 20
90.5381990994
  0
LWPOLYLINE
  5
34D
100
AcDbEntity
  8
ASSI
100
AcDbPolyline
 62
250
  6
CONTINUOUS
 90
18
 70
0
 10
242.1301467628
 20
90.5136769509
 10
242.0461853765
 20
90.5142406725
 10
242.0049516505
 20
90.5147794558
 10
241.9646083602
 20
90.5154848152
 10
241.9254424538
 20
90.5163517336
 10
241.8877325049
 20
90.517374045
 10
241.8517467318
 20
90.5185444781
 10
241.8177410888
 20
90.5198547079
 10
241.7859574466
 20
90.5212954152
 10
241.7566218714
 20
90.5228563528
 10
241.7299430172
 20
90.5245264182
 10
241.7061106415
 20
90.5262937328
 10
241.685294256
 20
90.5281457264
 10
241.6676419204
 20
90.5300692263
 10
241.6532791899
 20
90.5320505513
 10
241.6423082217
 20
90.5340756089
 10
241.6348070486
 20
90.5361299957
 10
241.6308290237
 20
90.5381990994
  0
LWPOLYLINE
  5
34E
100
AcDbEntity
  8
RACCORDO
100
AcDbPolyline
 62
250
  6
CONTINUOUS
 90
18
 70
0
 10
103.3435990254
 20
89.9160533308
 10
103.2932222487
 20
89.9164007389
 10
103.2684820677
 20
89.9167327703
 10
103.2442761639
 20
89.9171674534
 10
103.2207767044
 20
89.9177016965
 10
103.1981508315
 20
89.9183316996
 10
103.1765594741
 20
89.9190529819
 10
103.156156203
 20
89.9198604132
 10
103.1370861386
 20
89.9207482504
 10
103.1194849188
 20
89.9217101789
 10
103.103477734
 20
89.9227393567
 10
103.089178437
 20
89.9238284637
 10
103.0766887332
 20
89.9249697536
 10
103.0660974567
 20
89.9261551088
 10
103.0574799392
 20
89.9273760982
 10
103.0508974737
 20
89.9286240376
 10
103.0463968786
 20
89.9298900509
 10
103.0440101649
 20
89.9311651332
  0
LWPOLYLINE
  5
34F
100
AcDbEntity
  8
ASSI
100
AcDbPolyline
 62
250
  6
CONTINUOUS
 90
18
 70
0
 10
103.3435990254
 20
89.9160533308
 10
103.2932222487
 20
89.9164007389
 10
103.2684820677
 20
89.9167327703
 10
103.2442761639
 20
89.9171674534
 10
103.2207767044
 20
89.9177016965
 10
103.1981508315
 20
89.9183316996
 10
103.1765594741
 20
89.9190529819
 10
103.156156203
 20
89.9198604132
 10
103.1370861386
 20
89.9207482504
 10
103.1194849188
 20
89.9217101789
 10
103.103477734
 20
89.9227393567
 10
103.089178437
 20
89.9238284637
 10
103.0766887332
 20
89.9249697536
 10
103.0660974567
 20
89.9261551088
 10
103.0574799392
 20
89.9273760982
 10
103.0508974737
 20
89.9286240376
 10
103.0463968786
 20
89.9298900509
 10
103.0440101649
 20
89.9311651332
  0
LWPOLYLINE
  5
350
100
AcDbEntity
  8
RACCORDO
100
AcDbPolyline
 62
250
  6
CONTINUOUS
 90
22
 70
0
 10
125.7442822429
 20
89.7427737023
 10
125.7034001253
 20
89.7437406795
 10
125.6625075653
 20
89.7467923028
 10
125.6217122764
 20
89.7519380474
 10
125.5811463057
 20
89.7591764096
 10
125.54089602
 20
89.7685085342
 10
125.5010046339
 20
89.7799501381
 10
125.4615133369
 20
89.7935256082
 10
125.4226143216
 20
89.8092059135
 10
125.3845720521
 20
89.826904475
 10
125.3475245991
 20
89.8465579575
 10
125.3115408927
 20
89.8681305737
 10
125.2767645645
 20
89.891538428
 10
125.2432927626
 20
89.9167105582
 10
125.2112098056
 20
89.9435775862
 10
125.1806267749
 20
89.9720401088
 10
125.1516186825
 20
90.0020157148
 10
125.1242595174
 20
90.0334143093
 10
125.0986430552
 20
90.066111179
 10
125.0748340337
 20
90.0999966298
 10
125.0528737151
 20
90.1349811648
 10
125.0328072307
 20
90.1709628635
  0
LWPOLYLINE
  5
351
100
AcDbEntity
  8
ASSI
100
AcDbPolyline
 62
250
  6
CONTINUOUS
 90
22
 70
0
 10
125.7442822429
 20
89.7427737023
 10
125.7034001253
 20
89.7437406795
 10
125.6625075653
 20
89.7467923028
 10
125.6217122764
 20
89.7519380474
 10
125.5811463057
 20
89.7591764096
 10
125.54089602
 20
89.7685085342
 10
125.5010046339
 20
89.7799501381
 10
125.4615133369
 20
89.7935256082
 10
125.4226143216
 20
89.8092059135
 10
125.3845720521
 20
89.826904475
 10
125.3475245991
 20
89.8465579575
 10
125.3115408927
 20
89.8681305737
 10
125.2767645645
 20
89.891538428
 10
125.2432927626
 20
89.9167105582
 10
125.2112098056
 20
89.9435775862
 10
125.1806267749
 20
89.9720401088
 10
125.1516186825
 20
90.0020157148
 10
125.1242595174
 20
90.0334143093
 10
125.0986430552
 20
90.066111179
 10
125.0748340337
 20
90.0999966298
 10
125.0528737151
 20
90.1349811648
 10
125.0328072307
 20
90.1709628635
  0
LWPOLYLINE
  5
352
100
AcDbEntity
  8
RACCORDO
100
AcDbPolyline
 62
250
  6
CONTINUOUS
 90
22
 70
0
 10
196.7442822429
 20
89.7427737023
 10
196.7034001253
 20
89.7437406795
 10
196.6625075653
 20
89.7467923028
 10
196.6217122764
 20
89.7519380474
 10
196.5811463057
 20
89.7591764096
 10
196.54089602
 20
89.7685085342
 10
196.5010046339
 20
89.7799501381
 10
196.4615133369
 20
89.7935256082
 10
196.4226143216
 20
89.8092059135
 10
196.3845720521
 20
89.826904475
 10
196.3475245991
 20
89.8465579575
 10
196.3115408927
 20
89.8681305737
 10
196.2767645645
 20
89.891538428
 10
196.2432927626
 20
89.9167105582
 10
196.2112098056
 20
89.9435775862
 10
196.1806267749
 20
89.9720401088
 10
196.1516186825
 20
90.0020157148
 10
196.1242595174
 20
90.0334143093
 10
196.0986430552
 20
90.066111179
 10
196.0748340337
 20
90.0999966298
 10
196.0528737151
 20
90.1349811648
 10
196.0328072307
 20
90.1709628635
  0
LWPOLYLINE
  5
353
100
AcDbEntity
  8
ASSI
100
AcDbPolyline
 62
250
  6
CONTINUOUS
 90
22
 70
0
 10
196.7442822429
 20
89.7427737023
 10
196.7034001253
 20
89.7437406795
 10
196.6625075653
 20
89.7467923028
 10
196.6217122764
 20
89.7519380474
 10
196.5811463057
 20
89.7591764096
 10
196.54089602
 20
89.7685085342
 10
196.5010046339
 20
89.7799501381
 10
196.4615133369
 20
89.7935256082
 10
196.4226143216
 20
89.8092059135
 10
196.3845720521
 20
89.826904475
 10
196.3475245991
 20
89.8465579575
 10
196.3115408927
 20
89.8681305737
 10
196.2767645645
 20
89.891538428
 10
196.2432927626
 20
89.9167105582
 10
196.2112098056
 20
89.9435775862
 10
196.1806267749
 20
89.9720401088
 10
196.1516186825
 20
90.0020157148
 10
196.1242595174
 20
90.0334143093
 10
196.0986430552
 20
90.066111179
 10
196.0748340337
 20
90.0999966298
 10
196.0528737151
 20
90.1349811648
 10
196.0328072307
 20
90.1709628635
  0
LWPOLYLINE
  5
354
100
AcDbEntity
  8
RACCORDO
100
AcDbPolyline
 62
250
  6
CONTINUOUS
 90
22
 70
0
 10
125.7442883602
 20
89.2161826073
 10
125.6778253476
 20
89.217842889
 10
125.6116545555
 20
89.2229185287
 10
125.5457759839
 20
89.2314095435
 10
125.4800319607
 20
89.2433100674
 10
125.414580158
 20
89.2586260344
 10
125.349893592
 20
89.2773751786
 10
125.2858691651
 20
89.2996382392
 10
125.2226099749
 20
89.3253346144
 10
125.1608983295
 20
89.3542400392
 10
125.1008094943
 20
89.3863899046
 10
125.0422682039
 20
89.4217490071
 10
124.9858309706
 20
89.4599871873
 10
124.9315300388
 20
89.5011378899
 10
124.879333164
 20
89.5451678844
 10
124.8297001245
 20
89.5916469795
 10
124.7826566651
 20
89.6406186669
 10
124.7381770411
 20
89.6920396681
 10
124.6966437959
 20
89.7453495988
 10
124.6581844444
 20
89.8003617113
 10
124.6226714718
 20
89.8572629245
 10
124.5901048781
 20
89.91605333
  0
LWPOLYLINE
  5
355
100
AcDbEntity
  8
ASSI
100
AcDbPolyline
 62
250
  6
CONTINUOUS
 90
22
 70
0
 10
125.7442883602
 20
89.2161826073
 10
125.6778253476
 20
89.217842889
 10
125.6116545555
 20
89.2229185287
 10
125.5457759839
 20
89.2314095435
 10
125.4800319607
 20
89.2433100674
 10
125.414580158
 20
89.2586260344
 10
125.349893592
 20
89.2773751786
 10
125.2858691651
 20
89.2996382392
 10
125.2226099749
 20
89.3253346144
 10
125.1608983295
 20
89.3542400392
 10
125.1008094943
 20
89.3863899046
 10
125.0422682039
 20
89.4217490071
 10
124.9858309706
 20
89.4599871873
 10
124.9315300388
 20
89.5011378899
 10
124.879333164
 20
89.5451678844
 10
124.8297001245
 20
89.5916469795
 10
124.7826566651
 20
89.6406186669
 10
124.7381770411
 20
89.6920396681
 10
124.6966437959
 20
89.7453495988
 10
124.6581844444
 20
89.8003617113
 10
124.6226714718
 20
89.8572629245
 10
124.5901048781
 20
89.91605333
  0
LWPOLYLINE
  5
356
100
AcDbEntity
  8
RACCORDO
100
AcDbPolyline
 62
250
  6
CONTINUOUS
 90
22
 70
0
 10
196.7442883602
 20
89.2161826073
 10
196.6778253476
 20
89.217842889
 10
196.6116545555
 20
89.2229185287
 10
196.5457759839
 20
89.2314095435
 10
196.4800319607
 20
89.2433100674
 10
196.414580158
 20
89.2586260344
 10
196.349893592
 20
89.2773751786
 10
196.2858691651
 20
89.2996382392
 10
196.2226099749
 20
89.3253346144
 10
196.1608983295
 20
89.3542400392
 10
196.1008094943
 20
89.3863899046
 10
196.0422682039
 20
89.4217490071
 10
195.9858309706
 20
89.4599871873
 10
195.9315300388
 20
89.5011378899
 10
195.879333164
 20
89.5451678844
 10
195.8297001245
 20
89.5916469795
 10
195.7826566651
 20
89.6406186669
 10
195.7381770411
 20
89.6920396681
 10
195.6966437959
 20
89.7453495988
 10
195.6581844444
 20
89.8003617113
 10
195.6226714718
 20
89.8572629245
 10
195.5901048781
 20
89.91605333
  0
LWPOLYLINE
  5
357
100
AcDbEntity
  8
ASSI
100
AcDbPolyline
 62
250
  6
CONTINUOUS
 90
22
 70
0
 10
196.7442883602
 20
89.2161826073
 10
196.6778253476
 20
89.217842889
 10
196.6116545555
 20
89.2229185287
 10
196.5457759839
 20
89.2314095435
 10
196.4800319607
 20
89.2433100674
 10
196.414580158
 20
89.2586260344
 10
196.349893592
 20
89.2773751786
 10
196.2858691651
 20
89.2996382392
 10
196.2226099749
 20
89.3253346144
 10
196.1608983295
 20
89.3542400392
 10
196.1008094943
 20
89.3863899046
 10
196.0422682039
 20
89.4217490071
 10
195.9858309706
 20
89.4599871873
 10
195.9315300388
 20
89.5011378899
 10
195.879333164
 20
89.5451678844
 10
195.8297001245
 20
89.5916469795
 10
195.7826566651
 20
89.6406186669
 10
195.7381770411
 20
89.6920396681
 10
195.6966437959
 20
89.7453495988
 10
195.6581844444
 20
89.8003617113
 10
195.6226714718
 20
89.8572629245
 10
195.5901048781
 20
89.91605333
  0
LINE
  5
358
100
AcDbEntity
  8
0
100
AcDbLine
 62
250
  6
CONTINUOUS
 10
119.8018512434
 20
116.9374522237
 11
119.6232812434
 21
117.0113582237
  0
LINE
  5
359
100
AcDbEntity
  8
RACCORDO
100
AcDbLine
 62
250
  6
CONTINUOUS
 10
170.9826336087
 20
89.9160534903
 11
170.9079662089
 21
89.955359925
  0
LINE
  5
35A
100
AcDbEntity
  8
ASSI
100
AcDbLine
 62
250
  6
CONTINUOUS
 10
170.9826336087
 20
89.9160534903
 11
170.9079662089
 21
89.955359925
  0
LWPOLYLINE
  5
35B
100
AcDbEntity
  8
RACCORDO
100
AcDbPolyline
 62
250
  6
CONTINUOUS
 90
16
 70
0
 10
170.9079662089
 20
89.955359925
 10
170.8354332891
 20
89.9942627486
 10
170.8006192766
 20
90.0132139306
 10
170.7671084281
 20
90.0316498034
 10
170.735140676
 20
90.0494383691
 10
170.7049449042
 20
90.0664522644
 10
170.6767373099
 20
90.0825696726
 10
170.6507198548
 20
90.0976751956
 10
170.6270788199
 20
90.1116606803
 10
170.6059834713
 20
90.1244259928
 10
170.5875848483
 20
90.1358797355
 10
170.5720146821
 20
90.1459399016
 10
170.5593844528
 20
90.1545344617
 10
170.5497845908
 20
90.1616018803
 10
170.5432838295
 20
90.1670915558
 10
170.5399287135
 20
90.170964183
  0
LWPOLYLINE
  5
35C
100
AcDbEntity
  8
ASSI
100
AcDbPolyline
 62
250
  6
CONTINUOUS
 90
16
 70
0
 10
170.9079662089
 20
89.955359925
 10
170.8354332891
 20
89.9942627486
 10
170.8006192766
 20
90.0132139306
 10
170.7671084281
 20
90.0316498034
 10
170.735140676
 20
90.0494383691
 10
170.7049449042
 20
90.0664522644
 10
170.6767373099
 20
90.0825696726
 10
170.6507198548
 20
90.0976751956
 10
170.6270788199
 20
90.1116606803
 10
170.6059834713
 20
90.1244259928
 10
170.5875848483
 20
90.1358797355
 10
170.5720146821
 20
90.1459399016
 10
170.5593844528
 20
90.1545344617
 10
170.5497845908
 20
90.1616018803
 10
170.5432838295
 20
90.1670915558
 10
170.5399287135
 20
90.170964183
  0
LINE
  5
35D
100
AcDbEntity
  8
0
100
AcDbLine
 62
250
  6
CONTINUOUS
 10
121.4685042434
 20
118.5401362237
 11
121.2304112434
 21
118.6775332237
  0
LINE
  5
35E
100
AcDbEntity
  8
RACCORDO
100
AcDbLine
 62
250
  6
CONTINUOUS
 10
102.9163106848
 20
156.4551872475
 11
102.7863692434
 21
156.5851286889
  0
LINE
  5
35F
100
AcDbEntity
  8
ASSI
100
AcDbLine
 62
250
  6
CONTINUOUS
 10
102.9163106848
 20
156.4551872475
 11
102.7863692434
 21
156.5851286889
  0
LINE
  5
360
100
AcDbEntity
  8
0
100
AcDbLine
 62
250
  6
CONTINUOUS
 10
124.9419065159
 20
134.6293300182
 11
125.0863692434
 21
134.4848545959
  0
LINE
  5
361
100
AcDbEntity
  8
ASSI
100
AcDbLine
 62
250
  6
CONTINUOUS
 10
124.9419065159
 20
134.6293300182
 11
125.0863692434
 21
134.4848545959
  0
LINE
  5
362
100
AcDbEntity
  8
0
100
AcDbLine
 62
250
  6
CONTINUOUS
 10
169.8284772242
 20
89.7427737127
 11
169.6874656156
 21
89.8837582237
  0
LINE
  5
363
100
AcDbEntity
  8
ASSI
100
AcDbLine
 62
250
  6
CONTINUOUS
 10
169.8284772242
 20
89.7427737127
 11
169.6874656156
 21
89.8837582237
  0
LINE
  5
364
100
AcDbEntity
  8
0
100
AcDbLine
 62
250
  6
CONTINUOUS
 10
170.6308319703
 20
90.5381861028
 11
170.4863692434
 21
90.6826618515
  0
LINE
  5
365
100
AcDbEntity
  8
ASSI
100
AcDbLine
 62
250
  6
CONTINUOUS
 10
170.6308319703
 20
90.5381861028
 11
170.4863692434
 21
90.6826618515
  0
LINE
  5
366
100
AcDbEntity
  8
0
100
AcDbLine
 62
250
  6
CONTINUOUS
 10
125.7442612627
 20
135.4247427347
 11
125.8852728712
 21
135.2837582237
  0
LINE
  5
367
100
AcDbEntity
  8
ASSI
100
AcDbLine
 62
250
  6
CONTINUOUS
 10
125.7442612627
 20
135.4247427347
 11
125.8852728712
 21
135.2837582237
  0
LINE
  5
368
100
AcDbEntity
  8
RACCORDO
100
AcDbLine
 62
250
  6
CONTINUOUS
 10
103.9081933665
 20
157.4605636354
 11
103.7849987782
 21
157.5837582237
  0
LINE
  5
369
100
AcDbEntity
  8
ASSI
100
AcDbLine
 62
250
  6
CONTINUOUS
 10
103.9081933665
 20
157.4605636354
 11
103.7849987782
 21
157.5837582237
  0
LINE
  5
36A
100
AcDbEntity
  8
RACCORDO
100
AcDbLine
 62
250
  6
CONTINUOUS
 10
169.8284501266
 20
135.9513338401
 11
169.8284501267
 21
135.4247427347
  0
LINE
  5
36B
100
AcDbEntity
  8
ASSI
100
AcDbLine
 62
250
  6
CONTINUOUS
 10
169.8284501266
 20
135.9513338401
 11
169.8284501267
 21
135.4247427347
  0
LINE
  5
36C
100
AcDbEntity
  8
RACCORDO
100
AcDbLine
 62
250
  6
CONTINUOUS
 10
169.8284501266
 20
89.2161826073
 11
169.8284501266
 21
89.7427737127
  0
LINE
  5
36D
100
AcDbEntity
  8
ASSI
100
AcDbLine
 62
250
  6
CONTINUOUS
 10
169.8284501266
 20
89.2161826073
 11
169.8284501266
 21
89.7427737127
  0
LINE
  5
36E
100
AcDbEntity
  8
0
100
AcDbLine
 62
250
  6
CONTINUOUS
 10
120.4566072434
 20
109.1284962237
 11
119.0875712434
 21
108.7237222237
  0
LINE
  5
36F
100
AcDbEntity
  8
0
100
AcDbLine
 62
250
  6
CONTINUOUS
 10
119.0875712434
 20
109.1317052237
 11
120.3375612434
 21
109.4886112237
  0
LINE
  5
370
100
AcDbEntity
  8
0
100
AcDbLine
 62
250
  6
CONTINUOUS
 10
119.0875712434
 20
102.5456992237
 11
119.4447112434
 21
102.5144532237
  0
LINE
  5
371
100
AcDbEntity
  8
0
100
AcDbLine
 62
250
  6
CONTINUOUS
 10
119.4447112434
 20
104.2629502237
 11
121.8851672434
 21
104.0494382237
  0
LINE
  5
372
100
AcDbEntity
  8
0
100
AcDbLine
 62
250
  6
CONTINUOUS
 10
121.8851672434
 20
104.3991382237
 11
119.0875712434
 21
104.6438962237
  0
LINE
  5
373
100
AcDbEntity
  8
0
100
AcDbLine
 62
250
  6
CONTINUOUS
 10
119.5042342434
 20
116.6720742237
 11
119.8018512434
 21
116.5877522237
  0
LINE
  5
374
100
AcDbEntity
  8
0
100
AcDbLine
 62
250
  6
CONTINUOUS
 10
120.9327942434
 20
118.4121552237
 11
121.1708872434
 21
118.3330412237
  0
LINE
  5
375
100
AcDbEntity
  8
0
100
AcDbLine
 62
250
  6
CONTINUOUS
 10
119.0875712434
 20
121.3711872237
 11
119.8018512434
 21
121.0755622237
  0
LINE
  5
376
100
AcDbEntity
  8
0
100
AcDbLine
 62
250
  6
CONTINUOUS
 10
121.6470742434
 20
120.3312942237
 11
120.0399442434
 21
120.9964492237
  0
LINE
  5
377
100
AcDbEntity
  8
0
100
AcDbLine
 62
250
  6
CONTINUOUS
 10
119.5637582434
 20
122.2037752237
 11
119.7423282434
 21
122.1298682237
  0
LINE
  5
378
100
AcDbEntity
  8
0
100
AcDbLine
 62
250
  6
CONTINUOUS
 10
119.6232812434
 20
122.5482662237
 11
119.8018512434
 21
122.4743602237
  0
LINE
  5
379
100
AcDbEntity
  8
0
100
AcDbLine
 62
250
  6
CONTINUOUS
 10
120.8137472434
 20
122.0944152237
 11
120.9923172434
 21
122.0205092237
  0
LINE
  5
37A
100
AcDbEntity
  8
0
100
AcDbLine
 62
250
  6
CONTINUOUS
 10
121.0518402434
 20
122.3650002237
 11
120.8732712434
 21
122.4389062237
  0
LINE
  5
37B
100
AcDbEntity
  8
0
100
AcDbLine
 62
250
  6
CONTINUOUS
 10
121.8851672434
 20
120.5435962237
 11
119.0875712434
 21
121.7208862237
  0
LINE
  5
37C
100
AcDbEntity
  8
RACCORDO
100
AcDbLine
 62
250
  6
CONTINUOUS
 10
170.630831928
 20
134.6293522798
 11
170.6465805329
 21
127.2837668396
  0
LINE
  5
37D
100
AcDbEntity
  8
ASSI
100
AcDbLine
 62
250
  6
CONTINUOUS
 10
170.630831928
 20
134.6293522798
 11
170.6465805329
 21
127.2837668396
  0
LINE
  5
37E
100
AcDbEntity
  8
RACCORDO
100
AcDbLine
 62
250
  6
CONTINUOUS
 10
171.1301467628
 20
134.6538396606
 11
171.1458953299
 21
127.3004265546
  0
LINE
  5
37F
100
AcDbEntity
  8
ASSI
100
AcDbLine
 62
250
  6
CONTINUOUS
 10
171.1301467628
 20
134.6538396606
 11
171.1458953299
 21
127.3004265546
  0
LINE
  5
380
100
AcDbEntity
  8
RACCORDO
100
AcDbLine
 62
250
  6
CONTINUOUS
 10
170.6465805329
 20
127.2837668396
 11
170.6560304229
 21
119.9349882714
  0
LINE
  5
381
100
AcDbEntity
  8
ASSI
100
AcDbLine
 62
250
  6
CONTINUOUS
 10
170.6465805329
 20
127.2837668396
 11
170.6560304229
 21
119.9349882714
  0
LINE
  5
382
100
AcDbEntity
  8
RACCORDO
100
AcDbLine
 62
250
  6
CONTINUOUS
 10
171.1458953299
 20
127.3004265546
 11
171.1553451971
 21
119.943076766
  0
LINE
  5
383
100
AcDbEntity
  8
ASSI
100
AcDbLine
 62
250
  6
CONTINUOUS
 10
171.1458953299
 20
127.3004265546
 11
171.1553451971
 21
119.943076766
  0
LINE
  5
384
100
AcDbEntity
  8
RACCORDO
100
AcDbLine
 62
250
  6
CONTINUOUS
 10
170.6560304229
 20
119.9349882714
 11
170.659181123
 21
112.5837534585
  0
LINE
  5
385
100
AcDbEntity
  8
ASSI
100
AcDbLine
 62
250
  6
CONTINUOUS
 10
170.6560304229
 20
119.9349882714
 11
170.659181123
 21
112.5837534585
  0
LINE
  5
386
100
AcDbEntity
  8
RACCORDO
100
AcDbLine
 62
250
  6
CONTINUOUS
 10
171.1553451971
 20
119.943076766
 11
171.1584958903
 21
112.5837582685
  0
LINE
  5
387
100
AcDbEntity
  8
ASSI
100
AcDbLine
 62
250
  6
CONTINUOUS
 10
171.1553451971
 20
119.943076766
 11
171.1584958903
 21
112.5837582685
  0
LINE
  5
388
100
AcDbEntity
  8
0
100
AcDbLine
 62
7
  6
CONTINUOUS
 10
170.4863692434
 20
134.4848545959
 11
170.4863692434
 21
90.6826618515
  0
LINE
  5
389
100
AcDbEntity
  8
ASSI
100
AcDbLine
 62
7
  6
CONTINUOUS
 10
170.4863692434
 20
134.4848545959
 11
170.4863692434
 21
90.6826618515
  0
LINE
  5
38A
100
AcDbEntity
  8
RACCORDO
100
AcDbLine
 62
250
  6
CONTINUOUS
 10
170.659181123
 20
112.5837534585
 11
170.6560304101
 21
105.2325163688
  0
LINE
  5
38B
100
AcDbEntity
  8
ASSI
100
AcDbLine
 62
250
  6
CONTINUOUS
 10
170.659181123
 20
112.5837534585
 11
170.6560304101
 21
105.2325163688
  0
LINE
  5
38C
100
AcDbEntity
  8
RACCORDO
100
AcDbLine
 62
250
  6
CONTINUOUS
 10
171.1584958903
 20
112.5837582685
 11
171.1553451974
 21
105.2244397631
  0
LINE
  5
38D
100
AcDbEntity
  8
ASSI
100
AcDbLine
 62
250
  6
CONTINUOUS
 10
171.1584958903
 20
112.5837582685
 11
171.1553451974
 21
105.2244397631
  0
LINE
  5
38E
100
AcDbEntity
  8
RACCORDO
100
AcDbLine
 62
250
  6
CONTINUOUS
 10
170.6560304101
 20
105.2325163688
 11
170.6465805316
 21
97.8837471346
  0
LINE
  5
38F
100
AcDbEntity
  8
ASSI
100
AcDbLine
 62
250
  6
CONTINUOUS
 10
170.6560304101
 20
105.2325163688
 11
170.6465805316
 21
97.8837471346
  0
LINE
  5
390
100
AcDbEntity
  8
RACCORDO
100
AcDbLine
 62
250
  6
CONTINUOUS
 10
171.1553451974
 20
105.2244397631
 11
171.1458953302
 21
97.867089945
  0
LINE
  5
391
100
AcDbEntity
  8
ASSI
100
AcDbLine
 62
250
  6
CONTINUOUS
 10
171.1553451974
 20
105.2244397631
 11
171.1458953302
 21
97.867089945
  0
LINE
  5
392
100
AcDbEntity
  8
RACCORDO
100
AcDbLine
 62
250
  6
CONTINUOUS
 10
170.6465805316
 20
97.8837471346
 11
170.6308319703
 21
90.5381861028
  0
LINE
  5
393
100
AcDbEntity
  8
ASSI
100
AcDbLine
 62
250
  6
CONTINUOUS
 10
170.6465805316
 20
97.8837471346
 11
170.6308319703
 21
90.5381861028
  0
LINE
  5
394
100
AcDbEntity
  8
RACCORDO
100
AcDbLine
 62
250
  6
CONTINUOUS
 10
171.1458953302
 20
97.867089945
 11
171.1301467628
 21
90.5136767868
  0
LINE
  5
395
100
AcDbEntity
  8
ASSI
100
AcDbLine
 62
250
  6
CONTINUOUS
 10
171.1458953302
 20
97.867089945
 11
171.1301467628
 21
90.5136767868
  0
LWPOLYLINE
  5
396
100
AcDbEntity
  8
RACCORDO
100
AcDbPolyline
 62
250
  6
CONTINUOUS
 90
10
 70
0
 10
170.6308319584
 20
90.5381861146
 10
170.6295957593
 20
90.4957895524
 10
170.6260995034
 20
90.4535030445
 10
170.6203498566
 20
90.4114461093
 10
170.6123558392
 20
90.3697204039
 10
170.6021389523
 20
90.3284624143
 10
170.5897424784
 20
90.2878408398
 10
170.5752132858
 20
90.247985732
 10
170.5585923472
 20
90.2089904635
 10
170.5399312562
 20
90.1709628635
  0
LWPOLYLINE
  5
397
100
AcDbEntity
  8
ASSI
100
AcDbPolyline
 62
250
  6
CONTINUOUS
 90
10
 70
0
 10
170.6308319584
 20
90.5381861146
 10
170.6295957593
 20
90.4957895524
 10
170.6260995034
 20
90.4535030445
 10
170.6203498566
 20
90.4114461093
 10
170.6123558392
 20
90.3697204039
 10
170.6021389523
 20
90.3284624143
 10
170.5897424784
 20
90.2878408398
 10
170.5752132858
 20
90.247985732
 10
170.5585923472
 20
90.2089904635
 10
170.5399312562
 20
90.1709628635
  0
LWPOLYLINE
  5
398
100
AcDbEntity
  8
RACCORDO
100
AcDbPolyline
 62
250
  6
CONTINUOUS
 90
10
 70
0
 10
171.1301467628
 20
90.5136767868
 10
171.1281079927
 20
90.4444181847
 10
171.1224348485
 20
90.3756950798
 10
171.1131273301
 20
90.3075074616
 10
171.1001234656
 20
90.2396172759
 10
171.083485227
 20
90.1722625594
 10
171.0633985303
 20
90.106157422
 10
171.0399253478
 20
90.0415398759
 10
171.0130037072
 20
89.9781718537
 10
170.9826336087
 20
89.91605333
  0
LWPOLYLINE
  5
399
100
AcDbEntity
  8
ASSI
100
AcDbPolyline
 62
250
  6
CONTINUOUS
 90
10
 70
0
 10
171.1301467628
 20
90.5136767868
 10
171.1281079927
 20
90.4444181847
 10
171.1224348485
 20
90.3756950798
 10
171.1131273301
 20
90.3075074616
 10
171.1001234656
 20
90.2396172759
 10
171.083485227
 20
90.1722625594
 10
171.0633985303
 20
90.106157422
 10
171.0399253478
 20
90.0415398759
 10
171.0130037072
 20
89.9781718537
 10
170.9826336087
 20
89.91605333
  0
LWPOLYLINE
  5
39A
100
AcDbEntity
  8
RACCORDO
100
AcDbPolyline
 62
250
  6
CONTINUOUS
 90
14
 70
0
 10
124.7721194186
 20
90.0132140458
 10
124.8056303201
 20
90.0316499421
 10
124.8375981264
 20
90.0494385327
 10
124.8677939521
 20
90.0664524535
 10
124.8960015993
 20
90.0825698873
 10
124.922019105
 20
90.0976754353
 10
124.9456601872
 20
90.1116609438
 10
124.9667555791
 20
90.1244262786
 10
124.9851542404
 20
90.1358800415
 10
125.0007244393
 20
90.1459402253
 10
125.0133546951
 20
90.1545348002
 10
125.022954577
 20
90.1616022303
 10
125.029455351
 20
90.1670919139
 10
125.0328104724
 20
90.1709645455
  0
LWPOLYLINE
  5
39B
100
AcDbEntity
  8
ASSI
100
AcDbPolyline
 62
250
  6
CONTINUOUS
 90
14
 70
0
 10
124.7721194186
 20
90.0132140458
 10
124.8056303201
 20
90.0316499421
 10
124.8375981264
 20
90.0494385327
 10
124.8677939521
 20
90.0664524535
 10
124.8960015993
 20
90.0825698873
 10
124.922019105
 20
90.0976754353
 10
124.9456601872
 20
90.1116609438
 10
124.9667555791
 20
90.1244262786
 10
124.9851542404
 20
90.1358800415
 10
125.0007244393
 20
90.1459402253
 10
125.0133546951
 20
90.1545348002
 10
125.022954577
 20
90.1616022303
 10
125.029455351
 20
90.1670919139
 10
125.0328104724
 20
90.1709645455
  0
LINE
  5
39C
100
AcDbEntity
  8
RACCORDO
100
AcDbLine
 62
250
  6
CONTINUOUS
 10
124.7014373942
 20
89.9749320191
 11
124.7721194186
 21
90.0132140458
  0
LINE
  5
39D
100
AcDbEntity
  8
ASSI
100
AcDbLine
 62
250
  6
CONTINUOUS
 10
124.7014373942
 20
89.9749320191
 11
124.7721194186
 21
90.0132140458
  0
LWPOLYLINE
  5
39E
100
AcDbEntity
  8
RACCORDO
100
AcDbPolyline
 62
250
  6
CONTINUOUS
 90
3
 70
0
 10
124.5901048782
 20
89.9160535277
 10
124.6275727252
 20
89.935686867
 10
124.7014373942
 20
89.9749320191
  0
LWPOLYLINE
  5
39F
100
AcDbEntity
  8
ASSI
100
AcDbPolyline
 62
250
  6
CONTINUOUS
 90
3
 70
0
 10
124.5901048782
 20
89.9160535277
 10
124.6275727252
 20
89.935686867
 10
124.7014373942
 20
89.9749320191
  0
LINE
  5
3A0
100
AcDbEntity
  8
0
100
AcDbLine
 62
250
  6
CONTINUOUS
 10
119.0875712434
 20
107.9077572237
 11
121.8851672434
 21
107.6629992237
  0
LINE
  5
3A1
100
AcDbEntity
  8
0
100
AcDbLine
 62
250
  6
CONTINUOUS
 10
121.8851672434
 20
108.0126982237
 11
119.0875712434
 21
108.2574562237
  0
LINE
  5
3A2
100
AcDbEntity
  8
0
100
AcDbLine
 62
250
  6
CONTINUOUS
 10
121.2304112434
 20
108.5945312237
 11
120.9923172434
 21
108.6153622237
  0
LINE
  5
3A3
100
AcDbEntity
  8
0
100
AcDbLine
 62
250
  6
CONTINUOUS
 10
121.2304112434
 20
108.9442312237
 11
121.0518402434
 21
108.9598542237
  0
LINE
  5
3A4
100
AcDbEntity
  8
0
100
AcDbLine
 62
250
  6
CONTINUOUS
 10
120.3375612434
 20
110.4794272237
 11
119.0875712434
 21
110.5887872237
  0
LINE
  5
3A5
100
AcDbEntity
  8
0
100
AcDbLine
 62
250
  6
CONTINUOUS
 10
120.6947012434
 20
110.4481812237
 11
121.5875502434
 21
110.3700672237
  0
LINE
  5
3A6
100
AcDbEntity
  8
0
100
AcDbLine
 62
250
  6
CONTINUOUS
 10
119.0875712434
 20
110.9384862237
 11
121.8851672434
 21
110.6937282237
  0
LINE
  5
3A7
100
AcDbEntity
  8
0
100
AcDbLine
 62
250
  6
CONTINUOUS
 10
119.0875712434
 20
111.4047522237
 11
119.4447112434
 21
111.3735062237
  0
LINE
  5
3A8
100
AcDbEntity
  8
0
100
AcDbLine
 62
250
  6
CONTINUOUS
 10
121.5280272434
 20
111.1912392237
 11
121.8851672434
 21
111.1599942237
  0
LINE
  5
3A9
100
AcDbEntity
  8
0
100
AcDbLine
 62
250
  6
CONTINUOUS
 10
120.3970842434
 20
111.5233182237
 11
120.7542242434
 21
111.4920722237
  0
LINE
  5
3AA
100
AcDbEntity
  8
0
100
AcDbLine
 62
250
  6
CONTINUOUS
 10
121.2304112434
 20
118.6775332237
 11
120.9327942434
 21
118.7618542237
  0
LINE
  5
3AB
100
AcDbEntity
  8
RACCORDO
100
AcDbLine
 62
250
  6
CONTINUOUS
 10
124.5901048781
 20
135.251462957
 11
124.664772278
 21
135.2121565224
  0
LINE
  5
3AC
100
AcDbEntity
  8
ASSI
100
AcDbLine
 62
250
  6
CONTINUOUS
 10
124.5901048781
 20
135.251462957
 11
124.664772278
 21
135.2121565224
  0
LWPOLYLINE
  5
3AD
100
AcDbEntity
  8
RACCORDO
100
AcDbPolyline
 62
250
  6
CONTINUOUS
 90
16
 70
0
 10
124.664772278
 20
135.2121565224
 10
124.7373051977
 20
135.1732536987
 10
124.7721192102
 20
135.1543025168
 10
124.8056300587
 20
135.135866644
 10
124.8375978109
 20
135.1180780783
 10
124.8677935826
 20
135.1010641829
 10
124.896001177
 20
135.0849467747
 10
124.922018632
 20
135.0698412517
 10
124.9456596669
 20
135.0558557671
 10
124.9667550156
 20
135.0430904546
 10
124.9851536386
 20
135.0316367118
 10
125.0007238047
 20
135.0215765458
 10
125.013354034
 20
135.0129819857
 10
125.0229538961
 20
135.0059145671
 10
125.0294546573
 20
135.0004248916
 10
125.0328097734
 20
134.9965522643
  0
LWPOLYLINE
  5
3AE
100
AcDbEntity
  8
ASSI
100
AcDbPolyline
 62
250
  6
CONTINUOUS
 90
16
 70
0
 10
124.664772278
 20
135.2121565224
 10
124.7373051977
 20
135.1732536987
 10
124.7721192102
 20
135.1543025168
 10
124.8056300587
 20
135.135866644
 10
124.8375978109
 20
135.1180780783
 10
124.8677935826
 20
135.1010641829
 10
124.896001177
 20
135.0849467747
 10
124.922018632
 20
135.0698412517
 10
124.9456596669
 20
135.0558557671
 10
124.9667550156
 20
135.0430904546
 10
124.9851536386
 20
135.0316367118
 10
125.0007238047
 20
135.0215765458
 10
125.013354034
 20
135.0129819857
 10
125.0229538961
 20
135.0059145671
 10
125.0294546573
 20
135.0004248916
 10
125.0328097734
 20
134.9965522643
  0
LWPOLYLINE
  5
3AF
100
AcDbEntity
  8
RACCORDO
100
AcDbPolyline
 62
250
  6
CONTINUOUS
 90
22
 70
0
 10
195.5901048781
 20
135.2514631174
 10
195.622576976
 20
135.3100947517
 10
195.6579840565
 20
135.3668519332
 10
195.6963261198
 20
135.4217347525
 10
195.7377280625
 20
135.4749285475
 10
195.7820649879
 20
135.5262481498
 10
195.8289622057
 20
135.5751379137
 10
195.8784466443
 20
135.6215567832
 10
195.9304913752
 20
135.6655460252
 10
195.9846409232
 20
135.7066735165
 10
196.0409229983
 20
135.7449045184
 10
196.0993098905
 20
135.7802739825
 10
196.1592629939
 20
135.8124543393
 10
196.2208156692
 20
135.8414075925
 10
196.2839345557
 20
135.8671719252
 10
196.3479809655
 20
135.8895340401
 10
196.4129705832
 20
135.9084415124
 10
196.4788877243
 20
135.9239469034
 10
196.5450466467
 20
135.9359943848
 10
196.6112187698
 20
135.9445653707
 10
196.6776326743
 20
135.9496785167
 10
196.7442883602
 20
135.9513338401
  0
LWPOLYLINE
  5
3B0
100
AcDbEntity
  8
ASSI
100
AcDbPolyline
 62
250
  6
CONTINUOUS
 90
22
 70
0
 10
195.5901048781
 20
135.2514631174
 10
195.622576976
 20
135.3100947517
 10
195.6579840565
 20
135.3668519332
 10
195.6963261198
 20
135.4217347525
 10
195.7377280625
 20
135.4749285475
 10
195.7820649879
 20
135.5262481498
 10
195.8289622057
 20
135.5751379137
 10
195.8784466443
 20
135.6215567832
 10
195.9304913752
 20
135.6655460252
 10
195.9846409232
 20
135.7066735165
 10
196.0409229983
 20
135.7449045184
 10
196.0993098905
 20
135.7802739825
 10
196.1592629939
 20
135.8124543393
 10
196.2208156692
 20
135.8414075925
 10
196.2839345557
 20
135.8671719252
 10
196.3479809655
 20
135.8895340401
 10
196.4129705832
 20
135.9084415124
 10
196.4788877243
 20
135.9239469034
 10
196.5450466467
 20
135.9359943848
 10
196.6112187698
 20
135.9445653707
 10
196.6776326743
 20
135.9496785167
 10
196.7442883602
 20
135.9513338401
  0
LWPOLYLINE
  5
3B1
100
AcDbEntity
  8
RACCORDO
100
AcDbPolyline
 62
250
  6
CONTINUOUS
 90
22
 70
0
 10
170.9826336087
 20
89.91605333
 10
170.9501615109
 20
89.8574216957
 10
170.9147544304
 20
89.8006645142
 10
170.8764123671
 20
89.745781695
 10
170.8350104245
 20
89.6925879
 10
170.7906734992
 20
89.6412682978
 10
170.7437762815
 20
89.592378534
 10
170.694291843
 20
89.5459596646
 10
170.6422471122
 20
89.5019704226
 10
170.5880975643
 20
89.4608429313
 10
170.5318154892
 20
89.4226119294
 10
170.4734285971
 20
89.3872424654
 10
170.4134754938
 20
89.3550621085
 10
170.3519228185
 20
89.3261088553
 10
170.288803932
 20
89.3003445224
 10
170.2247575222
 20
89.2779824075
 10
170.1597679043
 20
89.2590749352
 10
170.0938507632
 20
89.2435695441
 10
170.0276918406
 20
89.2315220626
 10
169.9615197173
 20
89.2229510767
 10
169.8951058127
 20
89.2178379307
 10
169.8284501266
 20
89.2161826073
  0
LWPOLYLINE
  5
3B2
100
AcDbEntity
  8
ASSI
100
AcDbPolyline
 62
250
  6
CONTINUOUS
 90
22
 70
0
 10
170.9826336087
 20
89.91605333
 10
170.9501615109
 20
89.8574216957
 10
170.9147544304
 20
89.8006645142
 10
170.8764123671
 20
89.745781695
 10
170.8350104245
 20
89.6925879
 10
170.7906734992
 20
89.6412682978
 10
170.7437762815
 20
89.592378534
 10
170.694291843
 20
89.5459596646
 10
170.6422471122
 20
89.5019704226
 10
170.5880975643
 20
89.4608429313
 10
170.5318154892
 20
89.4226119294
 10
170.4734285971
 20
89.3872424654
 10
170.4134754938
 20
89.3550621085
 10
170.3519228185
 20
89.3261088553
 10
170.288803932
 20
89.3003445224
 10
170.2247575222
 20
89.2779824075
 10
170.1597679043
 20
89.2590749352
 10
170.0938507632
 20
89.2435695441
 10
170.0276918406
 20
89.2315220626
 10
169.9615197173
 20
89.2229510767
 10
169.8951058127
 20
89.2178379307
 10
169.8284501266
 20
89.2161826073
  0
LWPOLYLINE
  5
3B3
100
AcDbEntity
  8
RACCORDO
100
AcDbPolyline
 62
250
  6
CONTINUOUS
 90
22
 70
0
 10
170.5399312562
 20
90.1709628635
 10
170.5199416831
 20
90.1351110214
 10
170.4980619138
 20
90.1002336388
 10
170.4743342583
 20
90.0664331284
 10
170.4487960247
 20
90.0337982499
 10
170.4215103712
 20
90.002441352
 10
170.3925726405
 20
89.9724925464
 10
170.3620538369
 20
89.9440417238
 10
170.3300284669
 20
89.9171735792
 10
170.2966148142
 20
89.8919950418
 10
170.2619012607
 20
89.8685783335
 10
170.225980335
 20
89.8469910788
 10
170.1889905121
 20
89.8273149106
 10
170.1510254919
 20
89.8095974706
 10
170.1121981647
 20
89.7938892119
 10
170.072687401
 20
89.7802510111
 10
170.0326010372
 20
89.7687054089
 10
169.9920550556
 20
89.7592713987
 10
169.9512484308
 20
89.7519718668
 10
169.9103237977
 20
89.7468015976
 10
169.8693637474
 20
89.7437419089
 10
169.8284772704
 20
89.742773667
  0
LWPOLYLINE
  5
3B4
100
AcDbEntity
  8
ASSI
100
AcDbPolyline
 62
250
  6
CONTINUOUS
 90
22
 70
0
 10
170.5399312562
 20
90.1709628635
 10
170.5199416831
 20
90.1351110214
 10
170.4980619138
 20
90.1002336388
 10
170.4743342583
 20
90.0664331284
 10
170.4487960247
 20
90.0337982499
 10
170.4215103712
 20
90.002441352
 10
170.3925726405
 20
89.9724925464
 10
170.3620538369
 20
89.9440417238
 10
170.3300284669
 20
89.9171735792
 10
170.2966148142
 20
89.8919950418
 10
170.2619012607
 20
89.8685783335
 10
170.225980335
 20
89.8469910788
 10
170.1889905121
 20
89.8273149106
 10
170.1510254919
 20
89.8095974706
 10
170.1121981647
 20
89.7938892119
 10
170.072687401
 20
89.7802510111
 10
170.0326010372
 20
89.7687054089
 10
169.9920550556
 20
89.7592713987
 10
169.9512484308
 20
89.7519718668
 10
169.9103237977
 20
89.7468015976
 10
169.8693637474
 20
89.7437419089
 10
169.8284772704
 20
89.742773667
  0
LWPOLYLINE
  5
3B5
100
AcDbEntity
  8
RACCORDO
100
AcDbPolyline
 62
250
  6
CONTINUOUS
 90
22
 70
0
 10
196.0328072307
 20
134.9965535839
 10
196.0527968037
 20
135.0324054259
 10
196.074676573
 20
135.0672828086
 10
196.0984042285
 20
135.101083319
 10
196.1239424622
 20
135.1337181976
 10
196.1512281158
 20
135.1650750955
 10
196.1801658465
 20
135.1950239011
 10
196.2106846502
 20
135.2234747238
 10
196.2427100203
 20
135.2503428684
 10
196.276123673
 20
135.2755214058
 10
196.3108372266
 20
135.2989381142
 10
196.3467581523
 20
135.3205253689
 10
196.3837479753
 20
135.3402015371
 10
196.4217129955
 20
135.357918977
 10
196.4605403227
 20
135.3736272357
 10
196.5000510863
 20
135.3872654364
 10
196.54013745
 20
135.3988110386
 10
196.5806834316
 20
135.4082450487
 10
196.6214900563
 20
135.4155445806
 10
196.6624146893
 20
135.4207148498
 10
196.7033747395
 20
135.4237745385
 10
196.7442612165
 20
135.4247427804
  0
LWPOLYLINE
  5
3B6
100
AcDbEntity
  8
ASSI
100
AcDbPolyline
 62
250
  6
CONTINUOUS
 90
22
 70
0
 10
196.0328072307
 20
134.9965535839
 10
196.0527968037
 20
135.0324054259
 10
196.074676573
 20
135.0672828086
 10
196.0984042285
 20
135.101083319
 10
196.1239424622
 20
135.1337181976
 10
196.1512281158
 20
135.1650750955
 10
196.1801658465
 20
135.1950239011
 10
196.2106846502
 20
135.2234747238
 10
196.2427100203
 20
135.2503428684
 10
196.276123673
 20
135.2755214058
 10
196.3108372266
 20
135.2989381142
 10
196.3467581523
 20
135.3205253689
 10
196.3837479753
 20
135.3402015371
 10
196.4217129955
 20
135.357918977
 10
196.4605403227
 20
135.3736272357
 10
196.5000510863
 20
135.3872654364
 10
196.54013745
 20
135.3988110386
 10
196.5806834316
 20
135.4082450487
 10
196.6214900563
 20
135.4155445806
 10
196.6624146893
 20
135.4207148498
 10
196.7033747395
 20
135.4237745385
 10
196.7442612165
 20
135.4247427804
  0
LWPOLYLINE
  5
3B7
100
AcDbEntity
  8
0
100
AcDbPolyline
 62
7
  6
CONTINUOUS
 90
13
 70
0
 43
0.3500000006
 10
281.6792303467
 20
112.5837601318
 10
280.3935053101
 20
112.5837601318
 10
279.9649363403
 20
112.7980446167
 10
279.5363673706
 20
113.2266135864
 10
279.5363673706
 20
113.4408980713
 10
279.9649363403
 20
113.8694761047
 10
280.3935053101
 20
114.0837605896
 10
281.6792303467
 20
114.0837605896
 10
282.1077993164
 20
113.8694761047
 10
282.5363682861
 20
113.4408980713
 10
282.5363682861
 20
113.2266135864
 10
282.1077993164
 20
112.7980446167
 10
281.6792303467
 20
112.5837601318
  0
LINE
  5
3B8
100
AcDbEntity
  8
0
100
AcDbLine
 62
250
  6
CONTINUOUS
 10
120.7542242434
 20
113.0074362237
 11
121.5280272434
 21
112.9397372237
  0
LINE
  5
3B9
100
AcDbEntity
  8
0
100
AcDbLine
 62
250
  6
CONTINUOUS
 10
119.4447112434
 20
113.1220032237
 11
120.3970842434
 21
113.0386822237
  0
LINE
  5
3BA
100
AcDbEntity
  8
0
100
AcDbLine
 62
250
  6
CONTINUOUS
 10
121.8851672434
 20
113.2581912237
 11
119.0875712434
 21
113.5029492237
  0
LINE
  5
3BB
100
AcDbEntity
  8
0
100
AcDbLine
 62
250
  6
CONTINUOUS
 10
121.5875502434
 20
113.7504952237
 11
121.8851672434
 21
113.7244572237
  0
LINE
  5
3BC
100
AcDbEntity
  8
0
100
AcDbLine
 62
250
  6
CONTINUOUS
 10
119.0875712434
 20
114.9017462237
 11
121.5875502434
 21
114.6830272237
  0
LINE
  5
3BD
100
AcDbEntity
  8
0
100
AcDbLine
 62
250
  6
CONTINUOUS
 10
121.5875502434
 20
115.0327262237
 11
119.0875712434
 21
115.2514462237
  0
LINE
  5
3BE
100
AcDbEntity
  8
0
100
AcDbLine
 62
250
  6
CONTINUOUS
 10
121.8851672434
 20
115.9392202237
 11
121.5875502434
 21
115.9652582237
  0
LINE
  5
3BF
100
AcDbEntity
  8
0
100
AcDbLine
 62
250
  6
CONTINUOUS
 10
120.0399442434
 20
118.4902692237
 11
120.9327942434
 21
118.4121552237
  0
LINE
  5
3C0
100
AcDbEntity
  8
0
100
AcDbLine
 62
250
  6
CONTINUOUS
 10
120.9327942434
 20
118.7618542237
 11
120.0399442434
 21
118.8399692237
  0
LWPOLYLINE
  5
3C1
100
AcDbEntity
  8
RACCORDO
100
AcDbPolyline
 62
250
  6
CONTINUOUS
 90
10
 70
0
 10
170.5399312562
 20
134.9965535839
 10
170.5585632769
 20
134.9585895218
 10
170.5751708686
 20
134.9196381281
 10
170.5896990381
 20
134.8798053802
 10
170.6021058664
 20
134.8391736942
 10
170.6123371189
 20
134.7978812512
 10
170.620340851
 20
134.7561252229
 10
170.6260952436
 20
134.7140522793
 10
170.6295942051
 20
134.6717547277
 10
170.6308318953
 20
134.6293522478
  0
LWPOLYLINE
  5
3C2
100
AcDbEntity
  8
ASSI
100
AcDbPolyline
 62
250
  6
CONTINUOUS
 90
10
 70
0
 10
170.5399312562
 20
134.9965535839
 10
170.5585632769
 20
134.9585895218
 10
170.5751708686
 20
134.9196381281
 10
170.5896990381
 20
134.8798053802
 10
170.6021058664
 20
134.8391736942
 10
170.6123371189
 20
134.7978812512
 10
170.620340851
 20
134.7561252229
 10
170.6260952436
 20
134.7140522793
 10
170.6295942051
 20
134.6717547277
 10
170.6308318953
 20
134.6293522478
  0
LWPOLYLINE
  5
3C3
100
AcDbEntity
  8
RACCORDO
100
AcDbPolyline
 62
250
  6
CONTINUOUS
 90
10
 70
0
 10
170.9826336087
 20
135.2514631174
 10
171.0129480934
 20
135.1894983177
 10
171.0398338935
 20
135.1262376419
 10
171.063291009
 20
135.0616810638
 10
171.0833892388
 20
134.9955799169
 10
171.100058784
 20
134.9281828104
 10
171.1130902486
 20
134.8602356475
 10
171.122413834
 20
134.791987063
 10
171.1280993387
 20
134.7231884043
 10
171.1301467628
 20
134.6538396606
  0
LWPOLYLINE
  5
3C4
100
AcDbEntity
  8
ASSI
100
AcDbPolyline
 62
250
  6
CONTINUOUS
 90
10
 70
0
 10
170.9826336087
 20
135.2514631174
 10
171.0129480934
 20
135.1894983177
 10
171.0398338935
 20
135.1262376419
 10
171.063291009
 20
135.0616810638
 10
171.0833892388
 20
134.9955799169
 10
171.100058784
 20
134.9281828104
 10
171.1130902486
 20
134.8602356475
 10
171.122413834
 20
134.791987063
 10
171.1280993387
 20
134.7231884043
 10
171.1301467628
 20
134.6538396606
  0
LWPOLYLINE
  5
3C5
100
AcDbEntity
  8
RACCORDO
100
AcDbPolyline
 62
250
  6
CONTINUOUS
 90
3
 70
0
 10
241.9826336086
 20
135.2514629021
 10
241.9451657515
 20
135.2318295594
 10
241.8713010545
 20
135.1925843961
  0
LWPOLYLINE
  5
3C6
100
AcDbEntity
  8
ASSI
100
AcDbPolyline
 62
250
  6
CONTINUOUS
 90
3
 70
0
 10
241.9826336086
 20
135.2514629021
 10
241.9451657515
 20
135.2318295594
 10
241.8713010545
 20
135.1925843961
  0
LINE
  5
3C7
100
AcDbEntity
  8
0
100
AcDbLine
 62
250
  6
CONTINUOUS
 10
120.9923172434
 20
122.0205092237
 11
121.2304112434
 21
121.9996782237
  0
LINE
  5
3C8
100
AcDbEntity
  8
0
100
AcDbLine
 62
250
  6
CONTINUOUS
 10
119.7423282434
 20
122.1298682237
 11
120.0399442434
 21
122.1038302237
  0
LINE
  5
3C9
100
AcDbEntity
  8
0
100
AcDbLine
 62
250
  6
CONTINUOUS
 10
121.1708872434
 20
122.3545852237
 11
121.0518402434
 21
122.3650002237
  0
LINE
  5
3CA
100
AcDbEntity
  8
0
100
AcDbLine
 62
250
  6
CONTINUOUS
 10
119.8018512434
 20
122.4743602237
 11
119.9804212434
 21
122.4587382237
  0
LINE
  5
3CB
100
AcDbEntity
  8
0
100
AcDbLine
 62
250
  6
CONTINUOUS
 10
120.3375612434
 20
123.8845732237
 11
119.4447112434
 21
123.9626872237
  0
LINE
  5
3CC
100
AcDbEntity
  8
0
100
AcDbLine
 62
250
  6
CONTINUOUS
 10
120.6947012434
 20
123.8533272237
 11
121.5280272434
 21
123.7804212237
  0
LINE
  5
3CD
100
AcDbEntity
  8
0
100
AcDbLine
 62
250
  6
CONTINUOUS
 10
121.8851672434
 20
124.0988742237
 11
119.0875712434
 21
124.3436322237
  0
LINE
  5
3CE
100
AcDbEntity
  8
0
100
AcDbLine
 62
250
  6
CONTINUOUS
 10
121.8851672434
 20
132.0370212237
 11
119.0875712434
 21
132.8363342237
  0
LWPOLYLINE
  5
3CF
100
AcDbEntity
  8
RACCORDO
100
AcDbPolyline
 62
250
  6
CONTINUOUS
 90
3
 70
0
 10
241.9826336087
 20
89.9160534903
 10
241.9079662089
 20
89.955359925
 10
241.8713012027
 20
89.9749319449
  0
LWPOLYLINE
  5
3D0
100
AcDbEntity
  8
ASSI
100
AcDbPolyline
 62
250
  6
CONTINUOUS
 90
3
 70
0
 10
241.9826336087
 20
89.9160534903
 10
241.9079662089
 20
89.955359925
 10
241.8713012027
 20
89.9749319449
  0
LWPOLYLINE
  5
3D1
100
AcDbEntity
  8
RACCORDO
100
AcDbPolyline
 62
250
  6
CONTINUOUS
 90
10
 70
0
 10
196.0328072307
 20
90.1709628635
 10
196.0141757238
 20
90.2089258031
 10
195.9975684981
 20
90.2478760915
 10
195.9830405537
 20
90.2877077648
 10
195.970633908
 20
90.32833809
 10
195.9604026789
 20
90.3696292188
 10
195.9523986561
 20
90.4113850047
 10
195.9466437942
 20
90.4534591515
 10
195.9431444332
 20
90.4957590307
 10
195.9419065893
 20
90.5381649565
  0
LWPOLYLINE
  5
3D2
100
AcDbEntity
  8
ASSI
100
AcDbPolyline
 62
250
  6
CONTINUOUS
 90
10
 70
0
 10
196.0328072307
 20
90.1709628635
 10
196.0141757238
 20
90.2089258031
 10
195.9975684981
 20
90.2478760915
 10
195.9830405537
 20
90.2877077648
 10
195.970633908
 20
90.32833809
 10
195.9604026789
 20
90.3696292188
 10
195.9523986561
 20
90.4113850047
 10
195.9466437942
 20
90.4534591515
 10
195.9431444332
 20
90.4957590307
 10
195.9419065893
 20
90.5381649565
  0
LWPOLYLINE
  5
3D3
100
AcDbEntity
  8
RACCORDO
100
AcDbPolyline
 62
250
  6
CONTINUOUS
 90
10
 70
0
 10
195.5901048781
 20
89.91605333
 10
195.5597913285
 20
89.9780158174
 10
195.532906234
 20
90.0412741763
 10
195.5094495945
 20
90.1058284329
 10
195.4893516171
 20
90.1719264769
 10
195.4726820949
 20
90.239320476
 10
195.4596504065
 20
90.3072668574
 10
195.4503263451
 20
90.3755177632
 10
195.4446401176
 20
90.4443210694
 10
195.442591724
 20
90.5136767868
  0
LWPOLYLINE
  5
3D4
100
AcDbEntity
  8
ASSI
100
AcDbPolyline
 62
250
  6
CONTINUOUS
 90
10
 70
0
 10
195.5901048781
 20
89.91605333
 10
195.5597913285
 20
89.9780158174
 10
195.532906234
 20
90.0412741763
 10
195.5094495945
 20
90.1058284329
 10
195.4893516171
 20
90.1719264769
 10
195.4726820949
 20
90.239320476
 10
195.4596504065
 20
90.3072668574
 10
195.4503263451
 20
90.3755177632
 10
195.4446401176
 20
90.4443210694
 10
195.442591724
 20
90.5136767868
  0
LINE
  5
3D5
100
AcDbEntity
  8
RACCORDO
100
AcDbLine
 62
250
  6
CONTINUOUS
 10
195.442591724
 20
90.5136767868
 11
195.4268431569
 21
97.8670898963
  0
LINE
  5
3D6
100
AcDbEntity
  8
ASSI
100
AcDbLine
 62
250
  6
CONTINUOUS
 10
195.442591724
 20
90.5136767868
 11
195.4268431569
 21
97.8670898963
  0
LINE
  5
3D7
100
AcDbEntity
  8
RACCORDO
100
AcDbLine
 62
250
  6
CONTINUOUS
 10
195.9419065574
 20
90.5381649253
 11
195.9261579536
 21
97.8837497798
  0
LINE
  5
3D8
100
AcDbEntity
  8
ASSI
100
AcDbLine
 62
250
  6
CONTINUOUS
 10
195.9419065574
 20
90.5381649253
 11
195.9261579536
 21
97.8837497798
  0
LINE
  5
3D9
100
AcDbEntity
  8
RACCORDO
100
AcDbLine
 62
250
  6
CONTINUOUS
 10
195.4268431569
 20
97.8670898963
 11
195.4173932897
 21
105.2244396867
  0
LINE
  5
3DA
100
AcDbEntity
  8
ASSI
100
AcDbLine
 62
250
  6
CONTINUOUS
 10
195.4268431569
 20
97.8670898963
 11
195.4173932897
 21
105.2244396867
  0
LINE
  5
3DB
100
AcDbEntity
  8
RACCORDO
100
AcDbLine
 62
250
  6
CONTINUOUS
 10
195.9261579536
 20
97.8837497798
 11
195.916708064
 21
105.2325281252
  0
LINE
  5
3DC
100
AcDbEntity
  8
ASSI
100
AcDbLine
 62
250
  6
CONTINUOUS
 10
195.9261579536
 20
97.8837497798
 11
195.916708064
 21
105.2325281252
  0
LINE
  5
3DD
100
AcDbEntity
  8
RACCORDO
100
AcDbLine
 62
250
  6
CONTINUOUS
 10
195.4173932897
 20
105.2244396867
 11
195.4142425965
 21
112.5837581845
  0
LINE
  5
3DE
100
AcDbEntity
  8
ASSI
100
AcDbLine
 62
250
  6
CONTINUOUS
 10
195.4173932897
 20
105.2244396867
 11
195.4142425965
 21
112.5837581845
  0
LINE
  5
3DF
100
AcDbEntity
  8
RACCORDO
100
AcDbLine
 62
250
  6
CONTINUOUS
 10
195.916708064
 20
105.2325281252
 11
195.9135573639
 21
112.5837629945
  0
LINE
  5
3E0
100
AcDbEntity
  8
ASSI
100
AcDbLine
 62
250
  6
CONTINUOUS
 10
195.916708064
 20
105.2325281252
 11
195.9135573639
 21
112.5837629945
  0
LINE
  5
3E1
100
AcDbEntity
  8
0
100
AcDbLine
 62
7
  6
CONTINUOUS
 10
196.0863692434
 20
90.6826618515
 11
196.0863692434
 21
134.4848545959
  0
LINE
  5
3E2
100
AcDbEntity
  8
ASSI
100
AcDbLine
 62
7
  6
CONTINUOUS
 10
196.0863692434
 20
90.6826618515
 11
196.0863692434
 21
134.4848545959
  0
LINE
  5
3E3
100
AcDbEntity
  8
RACCORDO
100
AcDbLine
 62
250
  6
CONTINUOUS
 10
196.7442883602
 20
135.9513338401
 11
196.7442883602
 21
135.4247427347
  0
LINE
  5
3E4
100
AcDbEntity
  8
ASSI
100
AcDbLine
 62
250
  6
CONTINUOUS
 10
196.7442883602
 20
135.9513338401
 11
196.7442883602
 21
135.4247427347
  0
LINE
  5
3E5
100
AcDbEntity
  8
RACCORDO
100
AcDbLine
 62
250
  6
CONTINUOUS
 10
196.7442883602
 20
89.2161826073
 11
196.7442883601
 21
89.7427737127
  0
LINE
  5
3E6
100
AcDbEntity
  8
ASSI
100
AcDbLine
 62
250
  6
CONTINUOUS
 10
196.7442883602
 20
89.2161826073
 11
196.7442883601
 21
89.7427737127
  0
LINE
  5
3E7
100
AcDbEntity
  8
RACCORDO
100
AcDbLine
 62
250
  6
CONTINUOUS
 10
195.4142425965
 20
112.5837581845
 11
195.4173932895
 21
119.9430766896
  0
LINE
  5
3E8
100
AcDbEntity
  8
ASSI
100
AcDbLine
 62
250
  6
CONTINUOUS
 10
195.4142425965
 20
112.5837581845
 11
195.4173932895
 21
119.9430766896
  0
LINE
  5
3E9
100
AcDbEntity
  8
RACCORDO
100
AcDbLine
 62
250
  6
CONTINUOUS
 10
195.9135573639
 20
112.5837629945
 11
195.9167080768
 21
119.9350001081
  0
LINE
  5
3EA
100
AcDbEntity
  8
ASSI
100
AcDbLine
 62
250
  6
CONTINUOUS
 10
195.9135573639
 20
112.5837629945
 11
195.9167080768
 21
119.9350001081
  0
LINE
  5
3EB
100
AcDbEntity
  8
RACCORDO
100
AcDbLine
 62
250
  6
CONTINUOUS
 10
195.4173932895
 20
119.9430766896
 11
195.4268431567
 21
127.3004265059
  0
LINE
  5
3EC
100
AcDbEntity
  8
ASSI
100
AcDbLine
 62
250
  6
CONTINUOUS
 10
195.4173932895
 20
119.9430766896
 11
195.4268431567
 21
127.3004265059
  0
LINE
  5
3ED
100
AcDbEntity
  8
RACCORDO
100
AcDbLine
 62
250
  6
CONTINUOUS
 10
195.9167080768
 20
119.9350001081
 11
195.9261579551
 21
127.2837692438
  0
LINE
  5
3EE
100
AcDbEntity
  8
ASSI
100
AcDbLine
 62
250
  6
CONTINUOUS
 10
195.9167080768
 20
119.9350001081
 11
195.9261579551
 21
127.2837692438
  0
LINE
  5
3EF
100
AcDbEntity
  8
RACCORDO
100
AcDbLine
 62
250
  6
CONTINUOUS
 10
195.4268431567
 20
127.3004265059
 11
195.442591724
 21
134.6538396606
  0
LINE
  5
3F0
100
AcDbEntity
  8
ASSI
100
AcDbLine
 62
250
  6
CONTINUOUS
 10
195.4268431567
 20
127.3004265059
 11
195.442591724
 21
134.6538396606
  0
LINE
  5
3F1
100
AcDbEntity
  8
RACCORDO
100
AcDbLine
 62
250
  6
CONTINUOUS
 10
195.9261579551
 20
127.2837692438
 11
195.9419065159
 21
134.6293300182
  0
LINE
  5
3F2
100
AcDbEntity
  8
ASSI
100
AcDbLine
 62
250
  6
CONTINUOUS
 10
195.9261579551
 20
127.2837692438
 11
195.9419065159
 21
134.6293300182
  0
LWPOLYLINE
  5
3F3
100
AcDbEntity
  8
RACCORDO
100
AcDbPolyline
 62
250
  6
CONTINUOUS
 90
10
 70
0
 10
195.9419065275
 20
134.6293300066
 10
195.943142585
 20
134.6717243627
 10
195.9466385487
 20
134.7140094444
 10
195.9523878754
 20
134.7560657358
 10
195.9603817247
 20
134.7977918341
 10
195.9705986858
 20
134.8390509585
 10
195.9829953365
 20
134.8796735995
 10
195.9975246998
 20
134.9195294467
 10
196.0141458655
 20
134.9585253855
 10
196.0328072307
 20
134.9965535839
  0
LWPOLYLINE
  5
3F4
100
AcDbEntity
  8
ASSI
100
AcDbPolyline
 62
250
  6
CONTINUOUS
 90
10
 70
0
 10
195.9419065275
 20
134.6293300066
 10
195.943142585
 20
134.6717243627
 10
195.9466385487
 20
134.7140094444
 10
195.9523878754
 20
134.7560657358
 10
195.9603817247
 20
134.7977918341
 10
195.9705986858
 20
134.8390509585
 10
195.9829953365
 20
134.8796735995
 10
195.9975246998
 20
134.9195294467
 10
196.0141458655
 20
134.9585253855
 10
196.0328072307
 20
134.9965535839
  0
LWPOLYLINE
  5
3F5
100
AcDbEntity
  8
RACCORDO
100
AcDbPolyline
 62
250
  6
CONTINUOUS
 90
10
 70
0
 10
195.442591724
 20
134.6538396606
 10
195.4446293545
 20
134.7230901131
 10
195.4503016137
 20
134.7918076962
 10
195.4596085016
 20
134.8599924202
 10
195.4726119497
 20
134.927883126
 10
195.4892500266
 20
134.9952409901
 10
195.5093369373
 20
135.0613495419
 10
195.5328107504
 20
135.1259699823
 10
195.5597333973
 20
135.1893411657
 10
195.5901048781
 20
135.2514631174
  0
LWPOLYLINE
  5
3F6
100
AcDbEntity
  8
ASSI
100
AcDbPolyline
 62
250
  6
CONTINUOUS
 90
10
 70
0
 10
195.442591724
 20
134.6538396606
 10
195.4446293545
 20
134.7230901131
 10
195.4503016137
 20
134.7918076962
 10
195.4596085016
 20
134.8599924202
 10
195.4726119497
 20
134.927883126
 10
195.4892500266
 20
134.9952409901
 10
195.5093369373
 20
135.0613495419
 10
195.5328107504
 20
135.1259699823
 10
195.5597333973
 20
135.1893411657
 10
195.5901048781
 20
135.2514631174
  0
LWPOLYLINE
  5
3F7
100
AcDbEntity
  8
RACCORDO
100
AcDbPolyline
 62
250
  6
CONTINUOUS
 90
14
 70
0
 10
241.8006189952
 20
135.1543023543
 10
241.7671080745
 20
135.1358664494
 10
241.7351402487
 20
135.1180778498
 10
241.7049444032
 20
135.1010639198
 10
241.6767367367
 20
135.084946477
 10
241.6507192124
 20
135.0698409202
 10
241.6270781125
 20
135.0558554033
 10
241.6059827044
 20
135.0430900607
 10
241.5875840285
 20
135.0316362908
 10
241.572013817
 20
135.021576101
 10
241.5593835508
 20
135.0129815211
 10
241.5497836608
 20
135.0059140871
 10
241.5432828813
 20
135.000424401
 10
241.5399277568
 20
134.9965517682
  0
LWPOLYLINE
  5
3F8
100
AcDbEntity
  8
ASSI
100
AcDbPolyline
 62
250
  6
CONTINUOUS
 90
14
 70
0
 10
241.8006189952
 20
135.1543023543
 10
241.7671080745
 20
135.1358664494
 10
241.7351402487
 20
135.1180778498
 10
241.7049444032
 20
135.1010639198
 10
241.6767367367
 20
135.084946477
 10
241.6507192124
 20
135.0698409202
 10
241.6270781125
 20
135.0558554033
 10
241.6059827044
 20
135.0430900607
 10
241.5875840285
 20
135.0316362908
 10
241.572013817
 20
135.021576101
 10
241.5593835508
 20
135.0129815211
 10
241.5497836608
 20
135.0059140871
 10
241.5432828813
 20
135.000424401
 10
241.5399277568
 20
134.9965517682
  0
LINE
  5
3F9
100
AcDbEntity
  8
RACCORDO
100
AcDbLine
 62
250
  6
CONTINUOUS
 10
241.8713010545
 20
135.1925843961
 11
241.8006189952
 21
135.1543023543
  0
LINE
  5
3FA
100
AcDbEntity
  8
ASSI
100
AcDbLine
 62
250
  6
CONTINUOUS
 10
241.8713010545
 20
135.1925843961
 11
241.8006189952
 21
135.1543023543
  0
LINE
  5
3FB
100
AcDbEntity
  8
0
100
AcDbLine
 62
250
  6
CONTINUOUS
 10
119.0875712434
 20
105.1101612237
 11
121.8851672434
 21
105.7979362237
  0
LINE
  5
3FC
100
AcDbEntity
  8
0
100
AcDbLine
 62
250
  6
CONTINUOUS
 10
120.0399442434
 20
105.6679552237
 11
121.6470742434
 21
106.0518982237
  0
LINE
  5
3FD
100
AcDbEntity
  8
0
100
AcDbLine
 62
250
  6
CONTINUOUS
 10
119.8018512434
 20
105.6305032237
 11
119.0875712434
 21
105.4598612237
  0
LINE
  5
3FE
100
AcDbEntity
  8
0
100
AcDbLine
 62
250
  6
CONTINUOUS
 10
121.4089802434
 20
108.6371922237
 11
121.2304112434
 21
108.5945312237
  0
LINE
  5
3FF
100
AcDbEntity
  8
0
100
AcDbLine
 62
250
  6
CONTINUOUS
 10
121.4089802434
 20
108.9868922237
 11
121.2304112434
 21
108.9442312237
  0
LINE
  5
400
100
AcDbEntity
  8
0
100
AcDbLine
 62
250
  6
CONTINUOUS
 10
121.1708872434
 20
116.4679772237
 11
121.4685042434
 21
116.5002222237
  0
LINE
  5
401
100
AcDbEntity
  8
0
100
AcDbLine
 62
250
  6
CONTINUOUS
 10
120.0399442434
 20
118.8399692237
 11
119.7423282434
 21
118.8077232237
  0
LINE
  5
402
100
AcDbEntity
  8
0
100
AcDbLine
 62
250
  6
CONTINUOUS
 10
121.8851672434
 20
125.3094692237
 11
119.0875712434
 21
125.3094692237
  0
LWPOLYLINE
  5
403
100
AcDbEntity
  8
RACCORDO
100
AcDbPolyline
 62
250
  6
CONTINUOUS
 90
15
 70
0
 10
241.8713012027
 20
89.9749319449
 10
241.8006192766
 20
90.0132139306
 10
241.7671084281
 20
90.0316498034
 10
241.735140676
 20
90.0494383691
 10
241.7049449042
 20
90.0664522644
 10
241.6767373099
 20
90.0825696726
 10
241.6507198548
 20
90.0976751956
 10
241.6270788199
 20
90.1116606803
 10
241.6059834713
 20
90.1244259928
 10
241.5875848483
 20
90.1358797355
 10
241.5720146821
 20
90.1459399016
 10
241.5593844528
 20
90.1545344617
 10
241.5497845908
 20
90.1616018803
 10
241.5432838295
 20
90.1670915558
 10
241.5399287135
 20
90.170964183
  0
LWPOLYLINE
  5
404
100
AcDbEntity
  8
ASSI
100
AcDbPolyline
 62
250
  6
CONTINUOUS
 90
15
 70
0
 10
241.8713012027
 20
89.9749319449
 10
241.8006192766
 20
90.0132139306
 10
241.7671084281
 20
90.0316498034
 10
241.735140676
 20
90.0494383691
 10
241.7049449042
 20
90.0664522644
 10
241.6767373099
 20
90.0825696726
 10
241.6507198548
 20
90.0976751956
 10
241.6270788199
 20
90.1116606803
 10
241.6059834713
 20
90.1244259928
 10
241.5875848483
 20
90.1358797355
 10
241.5720146821
 20
90.1459399016
 10
241.5593844528
 20
90.1545344617
 10
241.5497845908
 20
90.1616018803
 10
241.5432838295
 20
90.1670915558
 10
241.5399287135
 20
90.170964183
  0
LINE
  5
405
100
AcDbEntity
  8
0
100
AcDbLine
 62
250
  6
CONTINUOUS
 10
121.3494572434
 20
116.8603372237
 11
121.1708872434
 21
116.8176772237
  0
LINE
  5
406
100
AcDbEntity
  8
0
100
AcDbLine
 62
250
  6
CONTINUOUS
 10
119.8018512434
 20
118.4528172237
 11
120.0399442434
 21
118.4902692237
  0
LWPOLYLINE
  5
407
100
AcDbEntity
  8
RACCORDO
100
AcDbPolyline
 62
250
  6
CONTINUOUS
 90
17
 70
0
 10
242.0461856415
 20
134.6532758995
 10
242.0049520882
 20
134.6527370988
 10
241.964608991
 20
134.6520317233
 10
241.9254432933
 20
134.6511647903
 10
241.8877335638
 20
134.6501424657
 10
241.8517480158
 20
134.6489720209
 10
241.8177425991
 20
134.6476617809
 10
241.7859591797
 20
134.6462210647
 10
241.7566238194
 20
134.6446601196
 10
241.7299451682
 20
134.642990048
 10
241.7061129798
 20
134.6412227282
 10
241.6852967625
 20
134.6393707306
 10
241.6676445731
 20
134.6374472276
 10
241.6532819641
 20
134.6354659002
 10
241.6423110905
 20
134.6334408407
 10
241.6348099836
 20
134.6313864526
 10
241.6308319954
 20
134.6293173479
  0
LWPOLYLINE
  5
408
100
AcDbEntity
  8
ASSI
100
AcDbPolyline
 62
250
  6
CONTINUOUS
 90
17
 70
0
 10
242.0461856415
 20
134.6532758995
 10
242.0049520882
 20
134.6527370988
 10
241.964608991
 20
134.6520317233
 10
241.9254432933
 20
134.6511647903
 10
241.8877335638
 20
134.6501424657
 10
241.8517480158
 20
134.6489720209
 10
241.8177425991
 20
134.6476617809
 10
241.7859591797
 20
134.6462210647
 10
241.7566238194
 20
134.6446601196
 10
241.7299451682
 20
134.642990048
 10
241.7061129798
 20
134.6412227282
 10
241.6852967625
 20
134.6393707306
 10
241.6676445731
 20
134.6374472276
 10
241.6532819641
 20
134.6354659002
 10
241.6423110905
 20
134.6334408407
 10
241.6348099836
 20
134.6313864526
 10
241.6308319954
 20
134.6293173479
  0
LINE
  5
409
100
AcDbEntity
  8
0
100
AcDbLine
 62
250
  6
CONTINUOUS
 10
121.8851672434
 20
127.4409702237
 11
119.0875712434
 21
127.4409702237
  0
LINE
  5
40A
100
AcDbEntity
  8
0
100
AcDbLine
 62
250
  6
CONTINUOUS
 10
121.8851672434
 20
129.0395972237
 11
119.0875712434
 21
129.0395972237
  0
LINE
  5
40B
100
AcDbEntity
  8
0
100
AcDbLine
 62
250
  6
CONTINUOUS
 10
121.8851672434
 20
130.4383952237
 11
119.0875712434
 21
130.4383952237
  0
LINE
  5
40C
100
AcDbEntity
  8
0
100
AcDbLine
 62
250
  6
CONTINUOUS
 10
119.6370992434
 20
133.8354752237
 11
121.3356392434
 21
133.8354752237
  0
LINE
  5
40D
100
AcDbEntity
  8
0
100
AcDbLine
 62
250
  6
CONTINUOUS
 10
119.7370132434
 20
133.9353892237
 11
121.2357252434
 21
133.9353892237
  0
LINE
  5
40E
100
AcDbEntity
  8
0
100
AcDbLine
 62
250
  6
CONTINUOUS
 10
119.8369272434
 20
134.0353042237
 11
121.1358112434
 21
134.0353042237
  0
LINE
  5
40F
100
AcDbEntity
  8
RACCORDO
100
AcDbLine
 62
250
  6
CONTINUOUS
 10
262.6645451203
 20
157.4605636354
 11
262.7877397087
 21
157.5837582237
  0
LINE
  5
410
100
AcDbEntity
  8
ASSI
100
AcDbLine
 62
250
  6
CONTINUOUS
 10
262.6645451203
 20
157.4605636354
 11
262.7877397087
 21
157.5837582237
  0
LINE
  5
411
100
AcDbEntity
  8
0
100
AcDbLine
 62
250
  6
CONTINUOUS
 10
240.8284562336
 20
135.4247427347
 11
240.6874656156
 21
135.2837582237
  0
LINE
  5
412
100
AcDbEntity
  8
ASSI
100
AcDbLine
 62
250
  6
CONTINUOUS
 10
240.8284562336
 20
135.4247427347
 11
240.6874656156
 21
135.2837582237
  0
LINE
  5
413
100
AcDbEntity
  8
0
100
AcDbLine
 62
250
  6
CONTINUOUS
 10
195.9419065574
 20
90.5381649253
 11
196.0863692434
 21
90.6826618515
  0
LINE
  5
414
100
AcDbEntity
  8
ASSI
100
AcDbLine
 62
250
  6
CONTINUOUS
 10
195.9419065574
 20
90.5381649253
 11
196.0863692434
 21
90.6826618515
  0
LINE
  5
415
100
AcDbEntity
  8
0
100
AcDbLine
 62
250
  6
CONTINUOUS
 10
196.7442822533
 20
89.7427737127
 11
196.8852728712
 21
89.8837582237
  0
LINE
  5
416
100
AcDbEntity
  8
ASSI
100
AcDbLine
 62
250
  6
CONTINUOUS
 10
196.7442822533
 20
89.7427737127
 11
196.8852728712
 21
89.8837582237
  0
LINE
  5
417
100
AcDbEntity
  8
0
100
AcDbLine
 62
250
  6
CONTINUOUS
 10
241.630831928
 20
134.6293522798
 11
241.4863692434
 21
134.4848545959
  0
LINE
  5
418
100
AcDbEntity
  8
ASSI
100
AcDbLine
 62
250
  6
CONTINUOUS
 10
241.630831928
 20
134.6293522798
 11
241.4863692434
 21
134.4848545959
  0
LINE
  5
419
100
AcDbEntity
  8
RACCORDO
100
AcDbLine
 62
250
  6
CONTINUOUS
 10
263.656427802
 20
156.4551872475
 11
263.7863692434
 21
156.5851286889
  0
LINE
  5
41A
100
AcDbEntity
  8
ASSI
100
AcDbLine
 62
250
  6
CONTINUOUS
 10
263.656427802
 20
156.4551872475
 11
263.7863692434
 21
156.5851286889
  0
LWPOLYLINE
  5
41B
100
AcDbEntity
  8
RACCORDO
100
AcDbPolyline
 62
250
  6
CONTINUOUS
 90
14
 70
0
 10
195.7721194186
 20
90.0132140458
 10
195.8056303201
 20
90.0316499421
 10
195.8375981264
 20
90.0494385327
 10
195.8677939521
 20
90.0664524535
 10
195.8960015993
 20
90.0825698873
 10
195.922019105
 20
90.0976754353
 10
195.9456601872
 20
90.1116609438
 10
195.9667555791
 20
90.1244262786
 10
195.9851542404
 20
90.1358800415
 10
196.0007244393
 20
90.1459402253
 10
196.0133546951
 20
90.1545348002
 10
196.022954577
 20
90.1616022303
 10
196.029455351
 20
90.1670919139
 10
196.0328104724
 20
90.1709645455
  0
LWPOLYLINE
  5
41C
100
AcDbEntity
  8
ASSI
100
AcDbPolyline
 62
250
  6
CONTINUOUS
 90
14
 70
0
 10
195.7721194186
 20
90.0132140458
 10
195.8056303201
 20
90.0316499421
 10
195.8375981264
 20
90.0494385327
 10
195.8677939521
 20
90.0664524535
 10
195.8960015993
 20
90.0825698873
 10
195.922019105
 20
90.0976754353
 10
195.9456601872
 20
90.1116609438
 10
195.9667555791
 20
90.1244262786
 10
195.9851542404
 20
90.1358800415
 10
196.0007244393
 20
90.1459402253
 10
196.0133546951
 20
90.1545348002
 10
196.022954577
 20
90.1616022303
 10
196.029455351
 20
90.1670919139
 10
196.0328104724
 20
90.1709645455
  0
LINE
  5
41D
100
AcDbEntity
  8
RACCORDO
100
AcDbLine
 62
250
  6
CONTINUOUS
 10
195.7014373942
 20
89.9749320191
 11
195.7721194186
 21
90.0132140458
  0
LINE
  5
41E
100
AcDbEntity
  8
ASSI
100
AcDbLine
 62
250
  6
CONTINUOUS
 10
195.7014373942
 20
89.9749320191
 11
195.7721194186
 21
90.0132140458
  0
LWPOLYLINE
  5
41F
100
AcDbEntity
  8
RACCORDO
100
AcDbPolyline
 62
250
  6
CONTINUOUS
 90
3
 70
0
 10
195.5901048782
 20
89.9160535277
 10
195.6275727252
 20
89.935686867
 10
195.7014373942
 20
89.9749320191
  0
LWPOLYLINE
  5
420
100
AcDbEntity
  8
ASSI
100
AcDbPolyline
 62
250
  6
CONTINUOUS
 90
3
 70
0
 10
195.5901048782
 20
89.9160535277
 10
195.6275727252
 20
89.935686867
 10
195.7014373942
 20
89.9749320191
  0
LINE
  5
421
100
AcDbEntity
  8
0
100
AcDbLine
 62
250
  6
CONTINUOUS
 10
119.0875712434
 20
119.3895562237
 11
121.8851672434
 21
120.0773302237
  0
LINE
  5
422
100
AcDbEntity
  8
0
100
AcDbLine
 62
250
  6
CONTINUOUS
 10
120.0399442434
 20
119.9473502237
 11
121.6470742434
 21
120.3312942237
  0
LINE
  5
423
100
AcDbEntity
  8
0
100
AcDbLine
 62
250
  6
CONTINUOUS
 10
119.8018512434
 20
119.9098972237
 11
119.0875712434
 21
119.7392562237
  0
LINE
  5
424
100
AcDbEntity
  8
0
100
AcDbLine
 62
250
  6
CONTINUOUS
 10
121.2304112434
 20
121.9996782237
 11
121.4089802434
 21
122.0423382237
  0
LINE
  5
425
100
AcDbEntity
  8
0
100
AcDbLine
 62
250
  6
CONTINUOUS
 10
121.3494572434
 20
122.3972462237
 11
121.1708872434
 21
122.3545852237
  0
LINE
  5
426
100
AcDbEntity
  8
0
100
AcDbLine
 62
250
  6
CONTINUOUS
 10
120.0399442434
 20
122.1038302237
 11
120.2185142434
 21
122.1464912237
  0
LINE
  5
427
100
AcDbEntity
  8
0
100
AcDbLine
 62
250
  6
CONTINUOUS
 10
119.9804212434
 20
122.4587382237
 11
120.1589912434
 21
122.5013982237
  0
LWPOLYLINE
  5
428
100
AcDbEntity
  8
RACCORDO
100
AcDbPolyline
 62
250
  6
CONTINUOUS
 90
16
 70
0
 10
171.0049520882
 20
134.6527370988
 10
170.964608991
 20
134.6520317233
 10
170.9254432933
 20
134.6511647903
 10
170.8877335638
 20
134.6501424657
 10
170.8517480158
 20
134.6489720209
 10
170.8177425991
 20
134.6476617809
 10
170.7859591797
 20
134.6462210647
 10
170.7566238194
 20
134.6446601196
 10
170.7299451682
 20
134.642990048
 10
170.7061129798
 20
134.6412227282
 10
170.6852967625
 20
134.6393707306
 10
170.6676445731
 20
134.6374472276
 10
170.6532819641
 20
134.6354659002
 10
170.6423110905
 20
134.6334408407
 10
170.6348099836
 20
134.6313864526
 10
170.6308319954
 20
134.6293173479
  0
LWPOLYLINE
  5
429
100
AcDbEntity
  8
ASSI
100
AcDbPolyline
 62
250
  6
CONTINUOUS
 90
16
 70
0
 10
171.0049520882
 20
134.6527370988
 10
170.964608991
 20
134.6520317233
 10
170.9254432933
 20
134.6511647903
 10
170.8877335638
 20
134.6501424657
 10
170.8517480158
 20
134.6489720209
 10
170.8177425991
 20
134.6476617809
 10
170.7859591797
 20
134.6462210647
 10
170.7566238194
 20
134.6446601196
 10
170.7299451682
 20
134.642990048
 10
170.7061129798
 20
134.6412227282
 10
170.6852967625
 20
134.6393707306
 10
170.6676445731
 20
134.6374472276
 10
170.6532819641
 20
134.6354659002
 10
170.6423110905
 20
134.6334408407
 10
170.6348099836
 20
134.6313864526
 10
170.6308319954
 20
134.6293173479
  0
LWPOLYLINE
  5
42A
100
AcDbEntity
  8
RACCORDO
100
AcDbPolyline
 62
250
  6
CONTINUOUS
 90
17
 70
0
 10
103.2932222483
 20
135.2511157086
 10
103.268482067
 20
135.2507836773
 10
103.2442761631
 20
135.2503489942
 10
103.2207767034
 20
135.2498147511
 10
103.1981508303
 20
135.2491847479
 10
103.1765594728
 20
135.2484634656
 10
103.1561562016
 20
135.2476560343
 10
103.1370861372
 20
135.2467681971
 10
103.1194849173
 20
135.2458062686
 10
103.1034777325
 20
135.2447770908
 10
103.0891784356
 20
135.2436879837
 10
103.0766887319
 20
135.2425466938
 10
103.0660974556
 20
135.2413613387
 10
103.0574799383
 20
135.2401403492
 10
103.050897473
 20
135.2388924098
 10
103.0463968783
 20
135.2376263965
 10
103.0440101649
 20
135.2363513141
  0
LWPOLYLINE
  5
42B
100
AcDbEntity
  8
ASSI
100
AcDbPolyline
 62
250
  6
CONTINUOUS
 90
17
 70
0
 10
103.2932222483
 20
135.2511157086
 10
103.268482067
 20
135.2507836773
 10
103.2442761631
 20
135.2503489942
 10
103.2207767034
 20
135.2498147511
 10
103.1981508303
 20
135.2491847479
 10
103.1765594728
 20
135.2484634656
 10
103.1561562016
 20
135.2476560343
 10
103.1370861372
 20
135.2467681971
 10
103.1194849173
 20
135.2458062686
 10
103.1034777325
 20
135.2447770908
 10
103.0891784356
 20
135.2436879837
 10
103.0766887319
 20
135.2425466938
 10
103.0660974556
 20
135.2413613387
 10
103.0574799383
 20
135.2401403492
 10
103.050897473
 20
135.2388924098
 10
103.0463968783
 20
135.2376263965
 10
103.0440101649
 20
135.2363513141
  0
LINE
  5
42C
100
AcDbEntity
  8
RACCORDO
100
AcDbLine
 62
250
  6
CONTINUOUS
 10
103.3435990254
 20
135.2514631168
 11
103.2932222483
 21
135.2511157086
  0
LINE
  5
42D
100
AcDbEntity
  8
ASSI
100
AcDbLine
 62
250
  6
CONTINUOUS
 10
103.3435990254
 20
135.2514631168
 11
103.2932222483
 21
135.2511157086
  0
LINE
  5
42E
100
AcDbEntity
  8
RACCORDO
100
AcDbLine
 62
250
  6
CONTINUOUS
 10
242.1301467628
 20
134.6538396599
 11
242.0461856415
 21
134.6532758995
  0
LINE
  5
42F
100
AcDbEntity
  8
ASSI
100
AcDbLine
 62
250
  6
CONTINUOUS
 10
242.1301467628
 20
134.6538396599
 11
242.0461856415
 21
134.6532758995
  0
LWPOLYLINE
  5
430
100
AcDbEntity
  8
RACCORDO
100
AcDbPolyline
 62
250
  6
CONTINUOUS
 90
3
 70
0
 10
171.1301467628
 20
134.6538396599
 10
171.0880163744
 20
134.6536442933
 10
171.0049520882
 20
134.6527370988
  0
LWPOLYLINE
  5
431
100
AcDbEntity
  8
ASSI
100
AcDbPolyline
 62
250
  6
CONTINUOUS
 90
3
 70
0
 10
171.1301467628
 20
134.6538396599
 10
171.0880163744
 20
134.6536442933
 10
171.0049520882
 20
134.6527370988
  0
LINE
  5
432
100
AcDbEntity
  8
0
100
AcDbLine
 62
250
  6
CONTINUOUS
 10
118.4880862434
 20
134.9844882237
 11
119.6370992434
 21
134.9844882237
  0
LINE
  5
433
100
AcDbEntity
  8
0
100
AcDbLine
 62
250
  6
CONTINUOUS
 10
121.3356392434
 20
134.9844882237
 11
122.4846522434
 21
134.9844882237
  0
LINE
  5
434
100
AcDbEntity
  8
0
100
AcDbLine
 62
250
  6
CONTINUOUS
 10
118.5880002434
 20
135.0844022237
 11
119.7370132434
 21
135.0844022237
  0
LINE
  5
435
100
AcDbEntity
  8
0
100
AcDbLine
 62
250
  6
CONTINUOUS
 10
121.2357252434
 20
135.0844022237
 11
122.3847382434
 21
135.0844022237
  0
LINE
  5
436
100
AcDbEntity
  8
0
100
AcDbLine
 62
250
  6
CONTINUOUS
 10
118.6879152434
 20
135.1843162237
 11
119.8369272434
 21
135.1843162237
  0
LINE
  5
437
100
AcDbEntity
  8
0
100
AcDbLine
 62
250
  6
CONTINUOUS
 10
121.1358112434
 20
135.1843162237
 11
122.2848232434
 21
135.1843162237
  0
LINE
  5
438
100
AcDbEntity
  8
RACCORDO
100
AcDbLine
 62
250
  6
CONTINUOUS
 10
195.5901048781
 20
135.2514631174
 11
170.9826336087
 21
135.2514631174
  0
LINE
  5
439
100
AcDbEntity
  8
ASSI
100
AcDbLine
 62
250
  6
CONTINUOUS
 10
195.5901048781
 20
135.2514631174
 11
170.9826336087
 21
135.2514631174
  0
LINE
  5
43A
100
AcDbEntity
  8
RACCORDO
100
AcDbLine
 62
250
  6
CONTINUOUS
 10
263.2291392452
 20
135.2514054807
 11
241.9826336087
 21
135.2514631174
  0
LINE
  5
43B
100
AcDbEntity
  8
ASSI
100
AcDbLine
 62
250
  6
CONTINUOUS
 10
263.2291392452
 20
135.2514054807
 11
241.9826336087
 21
135.2514631174
  0
LINE
  5
43C
100
AcDbEntity
  8
RACCORDO
100
AcDbLine
 62
250
  6
CONTINUOUS
 10
124.5901048781
 20
135.2514631174
 11
103.3435992411
 21
135.2514056286
  0
LINE
  5
43D
100
AcDbEntity
  8
ASSI
100
AcDbLine
 62
250
  6
CONTINUOUS
 10
124.5901048781
 20
135.2514631174
 11
103.3435992411
 21
135.2514056286
  0
LINE
  5
43E
100
AcDbEntity
  8
0
100
AcDbLine
 62
7
  6
CONTINUOUS
 10
125.8852728712
 20
135.2837582237
 11
169.6874656156
 21
135.2837582237
  0
LINE
  5
43F
100
AcDbEntity
  8
ASSI
100
AcDbLine
 62
7
  6
CONTINUOUS
 10
125.8852728712
 20
135.2837582237
 11
169.6874656156
 21
135.2837582237
  0
LINE
  5
440
100
AcDbEntity
  8
0
100
AcDbLine
 62
7
  6
CONTINUOUS
 10
196.8852728712
 20
135.2837582237
 11
240.6874656156
 21
135.2837582237
  0
LINE
  5
441
100
AcDbEntity
  8
ASSI
100
AcDbLine
 62
7
  6
CONTINUOUS
 10
196.8852728712
 20
135.2837582237
 11
240.6874656156
 21
135.2837582237
  0
LINE
  5
442
100
AcDbEntity
  8
RACCORDO
100
AcDbLine
 62
250
  6
CONTINUOUS
 10
125.7442612627
 20
135.4247427347
 11
169.8284562336
 21
135.4247427347
  0
LINE
  5
443
100
AcDbEntity
  8
ASSI
100
AcDbLine
 62
250
  6
CONTINUOUS
 10
125.7442612627
 20
135.4247427347
 11
169.8284562336
 21
135.4247427347
  0
LINE
  5
444
100
AcDbEntity
  8
RACCORDO
100
AcDbLine
 62
250
  6
CONTINUOUS
 10
196.7442612627
 20
135.4247427347
 11
240.8284562336
 21
135.4247427347
  0
LINE
  5
445
100
AcDbEntity
  8
ASSI
100
AcDbLine
 62
250
  6
CONTINUOUS
 10
196.7442612627
 20
135.4247427347
 11
240.8284562336
 21
135.4247427347
  0
LINE
  5
446
100
AcDbEntity
  8
RACCORDO
100
AcDbLine
 62
250
  6
CONTINUOUS
 10
125.7442883602
 20
135.9513338401
 11
169.8284501266
 21
135.9513338401
  0
LINE
  5
447
100
AcDbEntity
  8
ASSI
100
AcDbLine
 62
250
  6
CONTINUOUS
 10
125.7442883602
 20
135.9513338401
 11
169.8284501266
 21
135.9513338401
  0
LINE
  5
448
100
AcDbEntity
  8
RACCORDO
100
AcDbLine
 62
250
  6
CONTINUOUS
 10
196.7442883602
 20
135.9513338401
 11
240.8284501266
 21
135.9513338401
  0
LINE
  5
449
100
AcDbEntity
  8
ASSI
100
AcDbLine
 62
250
  6
CONTINUOUS
 10
196.7442883602
 20
135.9513338401
 11
240.8284501266
 21
135.9513338401
  0
LINE
  5
44A
100
AcDbEntity
  8
0
100
AcDbLine
 62
250
  6
CONTINUOUS
 10
122.2848232434
 20
136.4832002237
 11
121.1358112434
 21
136.4832002237
  0
LINE
  5
44B
100
AcDbEntity
  8
0
100
AcDbLine
 62
250
  6
CONTINUOUS
 10
119.8369272434
 20
136.4832002237
 11
118.6879152434
 21
136.4832002237
  0
LINE
  5
44C
100
AcDbEntity
  8
0
100
AcDbLine
 62
250
  6
CONTINUOUS
 10
122.3847382434
 20
136.5831142237
 11
121.2357252434
 21
136.5831142237
  0
LINE
  5
44D
100
AcDbEntity
  8
0
100
AcDbLine
 62
250
  6
CONTINUOUS
 10
119.7370132434
 20
136.5831142237
 11
118.5880002434
 21
136.5831142237
  0
LINE
  5
44E
100
AcDbEntity
  8
0
100
AcDbLine
 62
250
  6
CONTINUOUS
 10
122.4846522434
 20
136.6830282237
 11
121.3356392434
 21
136.6830282237
  0
LINE
  5
44F
100
AcDbEntity
  8
0
100
AcDbLine
 62
250
  6
CONTINUOUS
 10
119.6370992434
 20
136.6830282237
 11
118.4880862434
 21
136.6830282237
  0
LINE
  5
450
100
AcDbEntity
  8
0
100
AcDbLine
 62
250
  6
CONTINUOUS
 10
121.1358112434
 20
137.6322122237
 11
119.8369272434
 21
137.6322122237
  0
LINE
  5
451
100
AcDbEntity
  8
0
100
AcDbLine
 62
250
  6
CONTINUOUS
 10
121.2357252434
 20
137.7321272237
 11
119.7370132434
 21
137.7321272237
  0
LINE
  5
452
100
AcDbEntity
  8
0
100
AcDbLine
 62
250
  6
CONTINUOUS
 10
121.3356392434
 20
137.8320412237
 11
119.6370992434
 21
137.8320412237
  0
LWPOLYLINE
  5
453
100
AcDbEntity
  8
RACCORDO
100
AcDbPolyline
 62
250
  6
CONTINUOUS
 90
18
 70
0
 10
124.4425917241
 20
134.6538394889
 10
124.5265531226
 20
134.6532757691
 10
124.5677868566
 20
134.6527369866
 10
124.6081301559
 20
134.652031628
 10
124.647296072
 20
134.6511647102
 10
124.6850060309
 20
134.6501423994
 10
124.7209918146
 20
134.6489719669
 10
124.754997468
 20
134.6476617376
 10
124.7867811206
 20
134.6462210307
 10
124.8161167058
 20
134.6446600935
 10
124.8427955695
 20
134.6429900283
 10
124.8666279539
 20
134.6412227139
 10
124.8874443473
 20
134.6393707206
 10
124.9050966896
 20
134.6374472208
 10
124.9194594258
 20
134.6354658959
 10
124.9304303984
 20
134.6334408383
 10
124.9379315748
 20
134.6313864516
 10
124.9419096014
 20
134.629317348
  0
LWPOLYLINE
  5
454
100
AcDbEntity
  8
ASSI
100
AcDbPolyline
 62
250
  6
CONTINUOUS
 90
18
 70
0
 10
124.4425917241
 20
134.6538394889
 10
124.5265531226
 20
134.6532757691
 10
124.5677868566
 20
134.6527369866
 10
124.6081301559
 20
134.652031628
 10
124.647296072
 20
134.6511647102
 10
124.6850060309
 20
134.6501423994
 10
124.7209918146
 20
134.6489719669
 10
124.754997468
 20
134.6476617376
 10
124.7867811206
 20
134.6462210307
 10
124.8161167058
 20
134.6446600935
 10
124.8427955695
 20
134.6429900283
 10
124.8666279539
 20
134.6412227139
 10
124.8874443473
 20
134.6393707206
 10
124.9050966896
 20
134.6374472208
 10
124.9194594258
 20
134.6354658959
 10
124.9304303984
 20
134.6334408383
 10
124.9379315748
 20
134.6313864516
 10
124.9419096014
 20
134.629317348
  0
LWPOLYLINE
  5
455
100
AcDbEntity
  8
RACCORDO
100
AcDbPolyline
 62
250
  6
CONTINUOUS
 90
18
 70
0
 10
195.4425917241
 20
134.6538394889
 10
195.5265531226
 20
134.6532757691
 10
195.5677868566
 20
134.6527369866
 10
195.6081301559
 20
134.652031628
 10
195.647296072
 20
134.6511647102
 10
195.6850060309
 20
134.6501423994
 10
195.7209918146
 20
134.6489719669
 10
195.754997468
 20
134.6476617376
 10
195.7867811206
 20
134.6462210307
 10
195.8161167058
 20
134.6446600935
 10
195.8427955695
 20
134.6429900283
 10
195.8666279539
 20
134.6412227139
 10
195.8874443473
 20
134.6393707206
 10
195.9050966896
 20
134.6374472208
 10
195.9194594258
 20
134.6354658959
 10
195.9304303984
 20
134.6334408383
 10
195.9379315748
 20
134.6313864516
 10
195.9419096014
 20
134.629317348
  0
LWPOLYLINE
  5
456
100
AcDbEntity
  8
ASSI
100
AcDbPolyline
 62
250
  6
CONTINUOUS
 90
18
 70
0
 10
195.4425917241
 20
134.6538394889
 10
195.5265531226
 20
134.6532757691
 10
195.5677868566
 20
134.6527369866
 10
195.6081301559
 20
134.652031628
 10
195.647296072
 20
134.6511647102
 10
195.6850060309
 20
134.6501423994
 10
195.7209918146
 20
134.6489719669
 10
195.754997468
 20
134.6476617376
 10
195.7867811206
 20
134.6462210307
 10
195.8161167058
 20
134.6446600935
 10
195.8427955695
 20
134.6429900283
 10
195.8666279539
 20
134.6412227139
 10
195.8874443473
 20
134.6393707206
 10
195.9050966896
 20
134.6374472208
 10
195.9194594258
 20
134.6354658959
 10
195.9304303984
 20
134.6334408383
 10
195.9379315748
 20
134.6313864516
 10
195.9419096014
 20
134.629317348
  0
LWPOLYLINE
  5
457
100
AcDbEntity
  8
RACCORDO
100
AcDbPolyline
 62
250
  6
CONTINUOUS
 90
18
 70
0
 10
263.2291394615
 20
135.2514631166
 10
263.2795162381
 20
135.2511157084
 10
263.3042564191
 20
135.250783677
 10
263.3284623229
 20
135.250348994
 10
263.3519617824
 20
135.2498147509
 10
263.3745876553
 20
135.2491847478
 10
263.3961790127
 20
135.2484634654
 10
263.4165822838
 20
135.2476560342
 10
263.4356523482
 20
135.2467681969
 10
263.4532535681
 20
135.2458062685
 10
263.4692607529
 20
135.2447770907
 10
263.4835600498
 20
135.2436879836
 10
263.4960497537
 20
135.2425466938
 10
263.5066410302
 20
135.2413613386
 10
263.5152585476
 20
135.2401403491
 10
263.5218410132
 20
135.2388924097
 10
263.5263416082
 20
135.2376263965
 10
263.5287283219
 20
135.2363513141
  0
LWPOLYLINE
  5
458
100
AcDbEntity
  8
ASSI
100
AcDbPolyline
 62
250
  6
CONTINUOUS
 90
18
 70
0
 10
263.2291394615
 20
135.2514631166
 10
263.2795162381
 20
135.2511157084
 10
263.3042564191
 20
135.250783677
 10
263.3284623229
 20
135.250348994
 10
263.3519617824
 20
135.2498147509
 10
263.3745876553
 20
135.2491847478
 10
263.3961790127
 20
135.2484634654
 10
263.4165822838
 20
135.2476560342
 10
263.4356523482
 20
135.2467681969
 10
263.4532535681
 20
135.2458062685
 10
263.4692607529
 20
135.2447770907
 10
263.4835600498
 20
135.2436879836
 10
263.4960497537
 20
135.2425466938
 10
263.5066410302
 20
135.2413613386
 10
263.5152585476
 20
135.2401403491
 10
263.5218410132
 20
135.2388924097
 10
263.5263416082
 20
135.2376263965
 10
263.5287283219
 20
135.2363513141
  0
LWPOLYLINE
  5
459
100
AcDbEntity
  8
RACCORDO
100
AcDbPolyline
 62
250
  6
CONTINUOUS
 90
22
 70
0
 10
169.828456244
 20
135.4247427451
 10
169.8693383616
 20
135.4237757679
 10
169.9102309215
 20
135.4207241445
 10
169.9510262104
 20
135.4155784
 10
169.991592181
 20
135.4083400378
 10
170.0318424665
 20
135.3990079132
 10
170.0717338524
 20
135.3875663094
 10
170.1112251494
 20
135.3739908394
 10
170.1501241647
 20
135.3583105341
 10
170.1881664342
 20
135.3406119727
 10
170.2252138872
 20
135.3209584902
 10
170.2611975937
 20
135.299385874
 10
170.2959739219
 20
135.2759780197
 10
170.3294457239
 20
135.2508058895
 10
170.361528681
 20
135.2239388614
 10
170.3921117118
 20
135.1954763388
 10
170.4211198042
 20
135.1655007327
 10
170.4484789694
 20
135.1341021382
 10
170.4740954316
 20
135.1014052683
 10
170.4979044531
 20
135.0675198176
 10
170.5198647718
 20
135.0325352825
 10
170.5399312562
 20
134.9965535839
  0
LWPOLYLINE
  5
45A
100
AcDbEntity
  8
ASSI
100
AcDbPolyline
 62
250
  6
CONTINUOUS
 90
22
 70
0
 10
169.828456244
 20
135.4247427451
 10
169.8693383616
 20
135.4237757679
 10
169.9102309215
 20
135.4207241445
 10
169.9510262104
 20
135.4155784
 10
169.991592181
 20
135.4083400378
 10
170.0318424665
 20
135.3990079132
 10
170.0717338524
 20
135.3875663094
 10
170.1112251494
 20
135.3739908394
 10
170.1501241647
 20
135.3583105341
 10
170.1881664342
 20
135.3406119727
 10
170.2252138872
 20
135.3209584902
 10
170.2611975937
 20
135.299385874
 10
170.2959739219
 20
135.2759780197
 10
170.3294457239
 20
135.2508058895
 10
170.361528681
 20
135.2239388614
 10
170.3921117118
 20
135.1954763388
 10
170.4211198042
 20
135.1655007327
 10
170.4484789694
 20
135.1341021382
 10
170.4740954316
 20
135.1014052683
 10
170.4979044531
 20
135.0675198176
 10
170.5198647718
 20
135.0325352825
 10
170.5399312562
 20
134.9965535839
  0
LWPOLYLINE
  5
45B
100
AcDbEntity
  8
RACCORDO
100
AcDbPolyline
 62
250
  6
CONTINUOUS
 90
22
 70
0
 10
240.828456244
 20
135.4247427451
 10
240.8693383616
 20
135.4237757679
 10
240.9102309215
 20
135.4207241445
 10
240.9510262104
 20
135.4155784
 10
240.991592181
 20
135.4083400378
 10
241.0318424665
 20
135.3990079132
 10
241.0717338524
 20
135.3875663094
 10
241.1112251494
 20
135.3739908394
 10
241.1501241647
 20
135.3583105341
 10
241.1881664342
 20
135.3406119727
 10
241.2252138872
 20
135.3209584902
 10
241.2611975937
 20
135.299385874
 10
241.2959739219
 20
135.2759780197
 10
241.3294457239
 20
135.2508058895
 10
241.361528681
 20
135.2239388614
 10
241.3921117118
 20
135.1954763388
 10
241.4211198042
 20
135.1655007327
 10
241.4484789694
 20
135.1341021382
 10
241.4740954316
 20
135.1014052683
 10
241.4979044531
 20
135.0675198176
 10
241.5198647718
 20
135.0325352825
 10
241.5399312562
 20
134.9965535839
  0
LWPOLYLINE
  5
45C
100
AcDbEntity
  8
ASSI
100
AcDbPolyline
 62
250
  6
CONTINUOUS
 90
22
 70
0
 10
240.828456244
 20
135.4247427451
 10
240.8693383616
 20
135.4237757679
 10
240.9102309215
 20
135.4207241445
 10
240.9510262104
 20
135.4155784
 10
240.991592181
 20
135.4083400378
 10
241.0318424665
 20
135.3990079132
 10
241.0717338524
 20
135.3875663094
 10
241.1112251494
 20
135.3739908394
 10
241.1501241647
 20
135.3583105341
 10
241.1881664342
 20
135.3406119727
 10
241.2252138872
 20
135.3209584902
 10
241.2611975937
 20
135.299385874
 10
241.2959739219
 20
135.2759780197
 10
241.3294457239
 20
135.2508058895
 10
241.361528681
 20
135.2239388614
 10
241.3921117118
 20
135.1954763388
 10
241.4211198042
 20
135.1655007327
 10
241.4484789694
 20
135.1341021382
 10
241.4740954316
 20
135.1014052683
 10
241.4979044531
 20
135.0675198176
 10
241.5198647718
 20
135.0325352825
 10
241.5399312562
 20
134.9965535839
  0
LWPOLYLINE
  5
45D
100
AcDbEntity
  8
RACCORDO
100
AcDbPolyline
 62
250
  6
CONTINUOUS
 90
22
 70
0
 10
169.8284501266
 20
135.9513338401
 10
169.8949131392
 20
135.9496735584
 10
169.9610839313
 20
135.9445979187
 10
170.0269625028
 20
135.9361069039
 10
170.0927065257
 20
135.9242063801
 10
170.1581583281
 20
135.9088904132
 10
170.222844894
 20
135.890141269
 10
170.2868693208
 20
135.8678782085
 10
170.3501285111
 20
135.8421818333
 10
170.4118401566
 20
135.8132764085
 10
170.4719289919
 20
135.7811265432
 10
170.5304702824
 20
135.7457674406
 10
170.5869075159
 20
135.7075292603
 10
170.6412084478
 20
135.6663785577
 10
170.6934053228
 20
135.6223485631
 10
170.7430383624
 20
135.5758694678
 10
170.7900818218
 20
135.5268977803
 10
170.8345614459
 20
135.4754767791
 10
170.876094691
 20
135.4221668484
 10
170.9145540426
 20
135.3671547359
 10
170.9500670152
 20
135.3102535228
 10
170.9826336087
 20
135.2514631174
  0
LWPOLYLINE
  5
45E
100
AcDbEntity
  8
ASSI
100
AcDbPolyline
 62
250
  6
CONTINUOUS
 90
22
 70
0
 10
169.8284501266
 20
135.9513338401
 10
169.8949131392
 20
135.9496735584
 10
169.9610839313
 20
135.9445979187
 10
170.0269625028
 20
135.9361069039
 10
170.0927065257
 20
135.9242063801
 10
170.1581583281
 20
135.9088904132
 10
170.222844894
 20
135.890141269
 10
170.2868693208
 20
135.8678782085
 10
170.3501285111
 20
135.8421818333
 10
170.4118401566
 20
135.8132764085
 10
170.4719289919
 20
135.7811265432
 10
170.5304702824
 20
135.7457674406
 10
170.5869075159
 20
135.7075292603
 10
170.6412084478
 20
135.6663785577
 10
170.6934053228
 20
135.6223485631
 10
170.7430383624
 20
135.5758694678
 10
170.7900818218
 20
135.5268977803
 10
170.8345614459
 20
135.4754767791
 10
170.876094691
 20
135.4221668484
 10
170.9145540426
 20
135.3671547359
 10
170.9500670152
 20
135.3102535228
 10
170.9826336087
 20
135.2514631174
  0
LWPOLYLINE
  5
45F
100
AcDbEntity
  8
RACCORDO
100
AcDbPolyline
 62
250
  6
CONTINUOUS
 90
22
 70
0
 10
240.8284501266
 20
135.9513338401
 10
240.8949131392
 20
135.9496735584
 10
240.9610839313
 20
135.9445979187
 10
241.0269625028
 20
135.9361069039
 10
241.0927065257
 20
135.9242063801
 10
241.1581583281
 20
135.9088904132
 10
241.222844894
 20
135.890141269
 10
241.2868693208
 20
135.8678782085
 10
241.3501285111
 20
135.8421818333
 10
241.4118401566
 20
135.8132764085
 10
241.4719289919
 20
135.7811265432
 10
241.5304702824
 20
135.7457674406
 10
241.5869075159
 20
135.7075292603
 10
241.6412084478
 20
135.6663785577
 10
241.6934053228
 20
135.6223485631
 10
241.7430383624
 20
135.5758694678
 10
241.7900818218
 20
135.5268977803
 10
241.8345614459
 20
135.4754767791
 10
241.876094691
 20
135.4221668484
 10
241.9145540426
 20
135.3671547359
 10
241.9500670152
 20
135.3102535228
 10
241.9826336087
 20
135.2514631174
  0
LWPOLYLINE
  5
460
100
AcDbEntity
  8
ASSI
100
AcDbPolyline
 62
250
  6
CONTINUOUS
 90
22
 70
0
 10
240.8284501266
 20
135.9513338401
 10
240.8949131392
 20
135.9496735584
 10
240.9610839313
 20
135.9445979187
 10
241.0269625028
 20
135.9361069039
 10
241.0927065257
 20
135.9242063801
 10
241.1581583281
 20
135.9088904132
 10
241.222844894
 20
135.890141269
 10
241.2868693208
 20
135.8678782085
 10
241.3501285111
 20
135.8421818333
 10
241.4118401566
 20
135.8132764085
 10
241.4719289919
 20
135.7811265432
 10
241.5304702824
 20
135.7457674406
 10
241.5869075159
 20
135.7075292603
 10
241.6412084478
 20
135.6663785577
 10
241.6934053228
 20
135.6223485631
 10
241.7430383624
 20
135.5758694678
 10
241.7900818218
 20
135.5268977803
 10
241.8345614459
 20
135.4754767791
 10
241.876094691
 20
135.4221668484
 10
241.9145540426
 20
135.3671547359
 10
241.9500670152
 20
135.3102535228
 10
241.9826336087
 20
135.2514631174
  0
LINE
  5
461
100
AcDbEntity
  8
RACCORDO
100
AcDbLine
 62
250
  6
CONTINUOUS
 10
195.5901048781
 20
135.251462957
 11
195.664772278
 21
135.2121565224
  0
LINE
  5
462
100
AcDbEntity
  8
ASSI
100
AcDbLine
 62
250
  6
CONTINUOUS
 10
195.5901048781
 20
135.251462957
 11
195.664772278
 21
135.2121565224
  0
LWPOLYLINE
  5
463
100
AcDbEntity
  8
RACCORDO
100
AcDbPolyline
 62
250
  6
CONTINUOUS
 90
16
 70
0
 10
195.664772278
 20
135.2121565224
 10
195.7373051977
 20
135.1732536987
 10
195.7721192102
 20
135.1543025168
 10
195.8056300587
 20
135.135866644
 10
195.8375978109
 20
135.1180780783
 10
195.8677935826
 20
135.1010641829
 10
195.896001177
 20
135.0849467747
 10
195.922018632
 20
135.0698412517
 10
195.9456596669
 20
135.0558557671
 10
195.9667550156
 20
135.0430904546
 10
195.9851536386
 20
135.0316367118
 10
196.0007238047
 20
135.0215765458
 10
196.013354034
 20
135.0129819857
 10
196.0229538961
 20
135.0059145671
 10
196.0294546573
 20
135.0004248916
 10
196.0328097734
 20
134.9965522643
  0
LWPOLYLINE
  5
464
100
AcDbEntity
  8
ASSI
100
AcDbPolyline
 62
250
  6
CONTINUOUS
 90
16
 70
0
 10
195.664772278
 20
135.2121565224
 10
195.7373051977
 20
135.1732536987
 10
195.7721192102
 20
135.1543025168
 10
195.8056300587
 20
135.135866644
 10
195.8375978109
 20
135.1180780783
 10
195.8677935826
 20
135.1010641829
 10
195.896001177
 20
135.0849467747
 10
195.922018632
 20
135.0698412517
 10
195.9456596669
 20
135.0558557671
 10
195.9667550156
 20
135.0430904546
 10
195.9851536386
 20
135.0316367118
 10
196.0007238047
 20
135.0215765458
 10
196.013354034
 20
135.0129819857
 10
196.0229538961
 20
135.0059145671
 10
196.0294546573
 20
135.0004248916
 10
196.0328097734
 20
134.9965522643
  0
LINE
  5
465
100
AcDbEntity
  8
RACCORDO
100
AcDbLine
 62
250
  6
CONTINUOUS
 10
262.6645451203
 20
67.706952812
 11
262.7877397087
 21
67.5837582237
  0
LINE
  5
466
100
AcDbEntity
  8
ASSI
100
AcDbLine
 62
250
  6
CONTINUOUS
 10
262.6645451203
 20
67.706952812
 11
262.7877397087
 21
67.5837582237
  0
LINE
  5
467
100
AcDbEntity
  8
0
100
AcDbLine
 62
250
  6
CONTINUOUS
 10
240.8284772242
 20
89.7427737127
 11
240.6874656156
 21
89.8837582237
  0
LINE
  5
468
100
AcDbEntity
  8
ASSI
100
AcDbLine
 62
250
  6
CONTINUOUS
 10
240.8284772242
 20
89.7427737127
 11
240.6874656156
 21
89.8837582237
  0
LINE
  5
469
100
AcDbEntity
  8
0
100
AcDbLine
 62
250
  6
CONTINUOUS
 10
195.9419065159
 20
134.6293300182
 11
196.0863692434
 21
134.4848545959
  0
LINE
  5
46A
100
AcDbEntity
  8
ASSI
100
AcDbLine
 62
250
  6
CONTINUOUS
 10
195.9419065159
 20
134.6293300182
 11
196.0863692434
 21
134.4848545959
  0
LINE
  5
46B
100
AcDbEntity
  8
0
100
AcDbLine
 62
250
  6
CONTINUOUS
 10
196.7442612627
 20
135.4247427347
 11
196.8852728712
 21
135.2837582237
  0
LINE
  5
46C
100
AcDbEntity
  8
ASSI
100
AcDbLine
 62
250
  6
CONTINUOUS
 10
196.7442612627
 20
135.4247427347
 11
196.8852728712
 21
135.2837582237
  0
LINE
  5
46D
100
AcDbEntity
  8
0
100
AcDbLine
 62
250
  6
CONTINUOUS
 10
241.6308319703
 20
90.5381861028
 11
241.4863692434
 21
90.6826618515
  0
LINE
  5
46E
100
AcDbEntity
  8
ASSI
100
AcDbLine
 62
250
  6
CONTINUOUS
 10
241.6308319703
 20
90.5381861028
 11
241.4863692434
 21
90.6826618515
  0
LINE
  5
46F
100
AcDbEntity
  8
RACCORDO
100
AcDbLine
 62
250
  6
CONTINUOUS
 10
263.656427802
 20
68.7123291998
 11
263.7863692434
 21
68.5823877584
  0
LINE
  5
470
100
AcDbEntity
  8
ASSI
100
AcDbLine
 62
250
  6
CONTINUOUS
 10
263.656427802
 20
68.7123291998
 11
263.7863692434
 21
68.5823877584
  0
LWPOLYLINE
  5
471
100
AcDbEntity
  8
RACCORDO
100
AcDbPolyline
 62
250
  6
CONTINUOUS
 90
28
 70
0
 10
103.9081933665
 20
157.4605636354
 10
103.8504901522
 20
157.4588388295
 10
103.7930418549
 20
157.4537684524
 10
103.736038859
 20
157.4453753728
 10
103.6797072382
 20
157.4337022134
 10
103.6241941232
 20
157.418788861
 10
103.5695727929
 20
157.4006508207
 10
103.5159754424
 20
157.3793111241
 10
103.4636424131
 20
157.3548446326
 10
103.4128066249
 20
157.3273511897
 10
103.3636640077
 20
157.2969339796
 10
103.3163565246
 20
157.2636789333
 10
103.271026225
 20
157.2276811648
 10
103.2278274594
 20
157.1890511332
 10
103.1869149076
 20
157.1479151956
 10
103.1484246026
 20
157.1044018751
 10
103.1124938155
 20
157.0586498138
 10
103.079252558
 20
157.0108077204
 10
103.0488157957
 20
156.9610298474
 10
103.0212942041
 20
156.9094730229
 10
102.9967944325
 20
156.8563113902
 10
102.9754103258
 20
156.8017356779
 10
102.9572245467
 20
156.7459296316
 10
102.9423072795
 20
156.6890778597
 10
102.9307150929
 20
156.6313808007
 10
102.9224949741
 20
156.5730362642
 10
102.917685047
 20
156.5142385235
 10
102.9163106848
 20
156.4551872475
  0
LWPOLYLINE
  5
472
100
AcDbEntity
  8
ASSI
100
AcDbPolyline
 62
250
  6
CONTINUOUS
 90
28
 70
0
 10
103.9081933665
 20
157.4605636354
 10
103.8504901522
 20
157.4588388295
 10
103.7930418549
 20
157.4537684524
 10
103.736038859
 20
157.4453753728
 10
103.6797072382
 20
157.4337022134
 10
103.6241941232
 20
157.418788861
 10
103.5695727929
 20
157.4006508207
 10
103.5159754424
 20
157.3793111241
 10
103.4636424131
 20
157.3548446326
 10
103.4128066249
 20
157.3273511897
 10
103.3636640077
 20
157.2969339796
 10
103.3163565246
 20
157.2636789333
 10
103.271026225
 20
157.2276811648
 10
103.2278274594
 20
157.1890511332
 10
103.1869149076
 20
157.1479151956
 10
103.1484246026
 20
157.1044018751
 10
103.1124938155
 20
157.0586498138
 10
103.079252558
 20
157.0108077204
 10
103.0488157957
 20
156.9610298474
 10
103.0212942041
 20
156.9094730229
 10
102.9967944325
 20
156.8563113902
 10
102.9754103258
 20
156.8017356779
 10
102.9572245467
 20
156.7459296316
 10
102.9423072795
 20
156.6890778597
 10
102.9307150929
 20
156.6313808007
 10
102.9224949741
 20
156.5730362642
 10
102.917685047
 20
156.5142385235
 10
102.9163106848
 20
156.4551872475
  0
LWPOLYLINE
  5
473
100
AcDbEntity
  8
RACCORDO
100
AcDbPolyline
 62
250
  6
CONTINUOUS
 90
28
 70
0
 10
103.9081933665
 20
157.2154407285
 10
103.8676653691
 20
157.2142363072
 10
103.8275572501
 20
157.2107200867
 10
103.7878690095
 20
157.2048920395
 10
103.7484867724
 20
157.1967270782
 10
103.7095244137
 20
157.1862501811
 10
103.6713235582
 20
157.1735363958
 10
103.6338612538
 20
157.1585540285
 10
103.5971604527
 20
157.141334564
 10
103.5616316362
 20
157.1220478047
 10
103.5273028488
 20
157.1006788194
 10
103.494146046
 20
157.0772422575
 10
103.462487576
 20
157.0519522968
 10
103.4323364783
 20
157.0247883374
 10
103.4036837132
 20
156.9957706544
 10
103.3768285098
 20
156.9651747649
 10
103.3517861336
 20
156.9329810531
 10
103.3285413189
 20
156.8992088055
 10
103.3073474984
 20
156.8641919451
 10
103.2882253878
 20
156.8279143302
 10
103.2711542714
 20
156.7903918101
 10
103.2563254343
 20
156.7520063721
 10
103.2437627609
 20
156.7127351233
 10
103.2334423669
 20
156.6726007377
 10
103.225483885
 20
156.6320536569
 10
103.2199271929
 20
156.5912440194
 10
103.216732413
 20
156.5500215949
 10
103.2158995453
 20
156.5083863302
  0
LWPOLYLINE
  5
474
100
AcDbEntity
  8
ASSI
100
AcDbPolyline
 62
250
  6
CONTINUOUS
 90
28
 70
0
 10
103.9081933665
 20
157.2154407285
 10
103.8676653691
 20
157.2142363072
 10
103.8275572501
 20
157.2107200867
 10
103.7878690095
 20
157.2048920395
 10
103.7484867724
 20
157.1967270782
 10
103.7095244137
 20
157.1862501811
 10
103.6713235582
 20
157.1735363958
 10
103.6338612538
 20
157.1585540285
 10
103.5971604527
 20
157.141334564
 10
103.5616316362
 20
157.1220478047
 10
103.5273028488
 20
157.1006788194
 10
103.494146046
 20
157.0772422575
 10
103.462487576
 20
157.0519522968
 10
103.4323364783
 20
157.0247883374
 10
103.4036837132
 20
156.9957706544
 10
103.3768285098
 20
156.9651747649
 10
103.3517861336
 20
156.9329810531
 10
103.3285413189
 20
156.8992088055
 10
103.3073474984
 20
156.8641919451
 10
103.2882253878
 20
156.8279143302
 10
103.2711542714
 20
156.7903918101
 10
103.2563254343
 20
156.7520063721
 10
103.2437627609
 20
156.7127351233
 10
103.2334423669
 20
156.6726007377
 10
103.225483885
 20
156.6320536569
 10
103.2199271929
 20
156.5912440194
 10
103.216732413
 20
156.5500215949
 10
103.2158995453
 20
156.5083863302
  0
LWPOLYLINE
  5
475
100
AcDbEntity
  8
RACCORDO
100
AcDbPolyline
 62
250
  6
CONTINUOUS
 90
19
 70
0
 10
103.2158995453
 20
156.508386318
 10
103.1906095778
 20
156.5079656287
 10
103.1654996688
 20
156.50716917
 10
103.1407485947
 20
156.5060026125
 10
103.1165325771
 20
156.5044742618
 10
103.0930240284
 20
156.5025949994
 10
103.0703903235
 20
156.5003782052
 10
103.0487926091
 20
156.4978396622
 10
103.0283846557
 20
156.4949974443
 10
103.009311763
 20
156.4918717872
 10
102.9917097252
 20
156.4884849451
 10
102.9757038648
 20
156.4848610313
 10
102.9614081395
 20
156.4810258472
 10
102.9489243314
 20
156.4770066985
 10
102.9383413223
 20
156.4728322004
 10
102.9297344606
 20
156.4685320745
 10
102.9231650251
 20
156.4641369366
 10
102.9186797886
 20
156.4596780789
 10
102.9163106848
 20
156.4551872475
  0
LWPOLYLINE
  5
476
100
AcDbEntity
  8
ASSI
100
AcDbPolyline
 62
250
  6
CONTINUOUS
 90
19
 70
0
 10
103.2158995453
 20
156.508386318
 10
103.1906095778
 20
156.5079656287
 10
103.1654996688
 20
156.50716917
 10
103.1407485947
 20
156.5060026125
 10
103.1165325771
 20
156.5044742618
 10
103.0930240284
 20
156.5025949994
 10
103.0703903235
 20
156.5003782052
 10
103.0487926091
 20
156.4978396622
 10
103.0283846557
 20
156.4949974443
 10
103.009311763
 20
156.4918717872
 10
102.9917097252
 20
156.4884849451
 10
102.9757038648
 20
156.4848610313
 10
102.9614081395
 20
156.4810258472
 10
102.9489243314
 20
156.4770066985
 10
102.9383413223
 20
156.4728322004
 10
102.9297344606
 20
156.4685320745
 10
102.9231650251
 20
156.4641369366
 10
102.9186797886
 20
156.4596780789
 10
102.9163106848
 20
156.4551872475
  0
LINE
  5
477
100
AcDbEntity
  8
RACCORDO
100
AcDbLine
 62
250
  6
CONTINUOUS
 10
262.6645451203
 20
157.2154407285
 11
103.9081933665
 21
157.2154407285
  0
LINE
  5
478
100
AcDbEntity
  8
ASSI
100
AcDbLine
 62
250
  6
CONTINUOUS
 10
262.6645451203
 20
157.2154407285
 11
103.9081933665
 21
157.2154407285
  0
LINE
  5
479
100
AcDbEntity
  8
RACCORDO
100
AcDbLine
 62
250
  6
CONTINUOUS
 10
262.6645451203
 20
157.4605636354
 11
103.9081933665
 21
157.4605636354
  0
LINE
  5
47A
100
AcDbEntity
  8
ASSI
100
AcDbLine
 62
250
  6
CONTINUOUS
 10
262.6645451203
 20
157.4605636354
 11
103.9081933665
 21
157.4605636354
  0
LINE
  5
47B
100
AcDbEntity
  8
RACCORDO
100
AcDbLine
 62
7
  6
CONTINUOUS
 10
103.7849987782
 20
157.5837582237
 11
262.7877397087
 21
157.5837582237
  0
LINE
  5
47C
100
AcDbEntity
  8
ASSI
100
AcDbLine
 62
7
  6
CONTINUOUS
 10
103.7849987782
 20
157.5837582237
 11
262.7877397087
 21
157.5837582237
  0
LWPOLYLINE
  5
47D
100
AcDbEntity
  8
RACCORDO
100
AcDbPolyline
 62
250
  6
CONTINUOUS
 90
19
 70
0
 10
263.3568389416
 20
156.5083863192
 10
263.3821284814
 20
156.5079655565
 10
263.4072379288
 20
156.507169034
 10
263.431988515
 20
156.5060024224
 10
263.4562040259
 20
156.5044740276
 10
263.479712057
 20
156.5025947311
 10
263.5023452408
 20
156.5003779126
 10
263.5239424384
 20
156.4978393551
 10
263.5443498865
 20
156.4949971319
 10
263.5634222926
 20
156.4918714785
 10
263.5810238689
 20
156.4884846483
 10
263.5970292995
 20
156.4848607541
 10
263.6113246323
 20
156.4810255965
 10
263.6238080903
 20
156.4770064802
 10
263.6343907965
 20
156.4728320197
 10
263.6429974064
 20
156.4685319355
 10
263.6495666444
 20
156.4641368423
 10
263.6540517403
 20
156.4596780314
 10
263.656420762
 20
156.4551872476
  0
LWPOLYLINE
  5
47E
100
AcDbEntity
  8
ASSI
100
AcDbPolyline
 62
250
  6
CONTINUOUS
 90
19
 70
0
 10
263.3568389416
 20
156.5083863192
 10
263.3821284814
 20
156.5079655565
 10
263.4072379288
 20
156.507169034
 10
263.431988515
 20
156.5060024224
 10
263.4562040259
 20
156.5044740276
 10
263.479712057
 20
156.5025947311
 10
263.5023452408
 20
156.5003779126
 10
263.5239424384
 20
156.4978393551
 10
263.5443498865
 20
156.4949971319
 10
263.5634222926
 20
156.4918714785
 10
263.5810238689
 20
156.4884846483
 10
263.5970292995
 20
156.4848607541
 10
263.6113246323
 20
156.4810255965
 10
263.6238080903
 20
156.4770064802
 10
263.6343907965
 20
156.4728320197
 10
263.6429974064
 20
156.4685319355
 10
263.6495666444
 20
156.4641368423
 10
263.6540517403
 20
156.4596780314
 10
263.656420762
 20
156.4551872476
  0
LINE
  5
47F
100
AcDbEntity
  8
RACCORDO
100
AcDbLine
 62
250
  6
CONTINUOUS
 10
241.630831928
 20
134.6293522798
 11
241.6465805329
 21
127.2837668396
  0
LINE
  5
480
100
AcDbEntity
  8
ASSI
100
AcDbLine
 62
250
  6
CONTINUOUS
 10
241.630831928
 20
134.6293522798
 11
241.6465805329
 21
127.2837668396
  0
LINE
  5
481
100
AcDbEntity
  8
RACCORDO
100
AcDbLine
 62
250
  6
CONTINUOUS
 10
242.1301467628
 20
134.6538396606
 11
242.1458953299
 21
127.3004265546
  0
LINE
  5
482
100
AcDbEntity
  8
ASSI
100
AcDbLine
 62
250
  6
CONTINUOUS
 10
242.1301467628
 20
134.6538396606
 11
242.1458953299
 21
127.3004265546
  0
LINE
  5
483
100
AcDbEntity
  8
RACCORDO
100
AcDbLine
 62
250
  6
CONTINUOUS
 10
241.6465805329
 20
127.2837668396
 11
241.6560304229
 21
119.9349882714
  0
LINE
  5
484
100
AcDbEntity
  8
ASSI
100
AcDbLine
 62
250
  6
CONTINUOUS
 10
241.6465805329
 20
127.2837668396
 11
241.6560304229
 21
119.9349882714
  0
LINE
  5
485
100
AcDbEntity
  8
RACCORDO
100
AcDbLine
 62
250
  6
CONTINUOUS
 10
242.1458953299
 20
127.3004265546
 11
242.1553451971
 21
119.943076766
  0
LINE
  5
486
100
AcDbEntity
  8
ASSI
100
AcDbLine
 62
250
  6
CONTINUOUS
 10
242.1458953299
 20
127.3004265546
 11
242.1553451971
 21
119.943076766
  0
LINE
  5
487
100
AcDbEntity
  8
RACCORDO
100
AcDbLine
 62
250
  6
CONTINUOUS
 10
241.6560304229
 20
119.9349882714
 11
241.659181123
 21
112.5837534585
  0
LINE
  5
488
100
AcDbEntity
  8
ASSI
100
AcDbLine
 62
250
  6
CONTINUOUS
 10
241.6560304229
 20
119.9349882714
 11
241.659181123
 21
112.5837534585
  0
LINE
  5
489
100
AcDbEntity
  8
RACCORDO
100
AcDbLine
 62
250
  6
CONTINUOUS
 10
242.1553451971
 20
119.943076766
 11
242.1584958903
 21
112.5837582685
  0
LINE
  5
48A
100
AcDbEntity
  8
ASSI
100
AcDbLine
 62
250
  6
CONTINUOUS
 10
242.1553451971
 20
119.943076766
 11
242.1584958903
 21
112.5837582685
  0
LINE
  5
48B
100
AcDbEntity
  8
RACCORDO
100
AcDbLine
 62
250
  6
CONTINUOUS
 10
240.8284501266
 20
135.9513338401
 11
240.8284501267
 21
135.4247427347
  0
LINE
  5
48C
100
AcDbEntity
  8
ASSI
100
AcDbLine
 62
250
  6
CONTINUOUS
 10
240.8284501266
 20
135.9513338401
 11
240.8284501267
 21
135.4247427347
  0
LINE
  5
48D
100
AcDbEntity
  8
RACCORDO
100
AcDbLine
 62
250
  6
CONTINUOUS
 10
240.8284501266
 20
89.2161826073
 11
240.8284501266
 21
89.7427737127
  0
LINE
  5
48E
100
AcDbEntity
  8
ASSI
100
AcDbLine
 62
250
  6
CONTINUOUS
 10
240.8284501266
 20
89.2161826073
 11
240.8284501266
 21
89.7427737127
  0
LINE
  5
48F
100
AcDbEntity
  8
0
100
AcDbLine
 62
7
  6
CONTINUOUS
 10
241.4863692434
 20
134.4848545959
 11
241.4863692434
 21
90.6826618515
  0
LINE
  5
490
100
AcDbEntity
  8
ASSI
100
AcDbLine
 62
7
  6
CONTINUOUS
 10
241.4863692434
 20
134.4848545959
 11
241.4863692434
 21
90.6826618515
  0
LINE
  5
491
100
AcDbEntity
  8
RACCORDO
100
AcDbLine
 62
250
  6
CONTINUOUS
 10
241.659181123
 20
112.5837534585
 11
241.6560304101
 21
105.2325163688
  0
LINE
  5
492
100
AcDbEntity
  8
ASSI
100
AcDbLine
 62
250
  6
CONTINUOUS
 10
241.659181123
 20
112.5837534585
 11
241.6560304101
 21
105.2325163688
  0
LINE
  5
493
100
AcDbEntity
  8
RACCORDO
100
AcDbLine
 62
250
  6
CONTINUOUS
 10
242.1584958903
 20
112.5837582685
 11
242.1553451974
 21
105.2244397631
  0
LINE
  5
494
100
AcDbEntity
  8
ASSI
100
AcDbLine
 62
250
  6
CONTINUOUS
 10
242.1584958903
 20
112.5837582685
 11
242.1553451974
 21
105.2244397631
  0
LINE
  5
495
100
AcDbEntity
  8
RACCORDO
100
AcDbLine
 62
250
  6
CONTINUOUS
 10
241.6560304101
 20
105.2325163688
 11
241.6465805316
 21
97.8837471346
  0
LINE
  5
496
100
AcDbEntity
  8
ASSI
100
AcDbLine
 62
250
  6
CONTINUOUS
 10
241.6560304101
 20
105.2325163688
 11
241.6465805316
 21
97.8837471346
  0
LINE
  5
497
100
AcDbEntity
  8
RACCORDO
100
AcDbLine
 62
250
  6
CONTINUOUS
 10
242.1553451974
 20
105.2244397631
 11
242.1458953302
 21
97.867089945
  0
LINE
  5
498
100
AcDbEntity
  8
ASSI
100
AcDbLine
 62
250
  6
CONTINUOUS
 10
242.1553451974
 20
105.2244397631
 11
242.1458953302
 21
97.867089945
  0
LINE
  5
499
100
AcDbEntity
  8
RACCORDO
100
AcDbLine
 62
250
  6
CONTINUOUS
 10
241.6465805316
 20
97.8837471346
 11
241.6308319703
 21
90.5381861028
  0
LINE
  5
49A
100
AcDbEntity
  8
ASSI
100
AcDbLine
 62
250
  6
CONTINUOUS
 10
241.6465805316
 20
97.8837471346
 11
241.6308319703
 21
90.5381861028
  0
LINE
  5
49B
100
AcDbEntity
  8
RACCORDO
100
AcDbLine
 62
250
  6
CONTINUOUS
 10
242.1458953302
 20
97.867089945
 11
242.1301467628
 21
90.5136767868
  0
LINE
  5
49C
100
AcDbEntity
  8
ASSI
100
AcDbLine
 62
250
  6
CONTINUOUS
 10
242.1458953302
 20
97.867089945
 11
242.1301467628
 21
90.5136767868
  0
LWPOLYLINE
  5
49D
100
AcDbEntity
  8
RACCORDO
100
AcDbPolyline
 62
250
  6
CONTINUOUS
 90
10
 70
0
 10
241.6308319584
 20
90.5381861146
 10
241.6295957593
 20
90.4957895524
 10
241.6260995034
 20
90.4535030445
 10
241.6203498566
 20
90.4114461093
 10
241.6123558392
 20
90.3697204039
 10
241.6021389523
 20
90.3284624143
 10
241.5897424784
 20
90.2878408398
 10
241.5752132858
 20
90.247985732
 10
241.5585923472
 20
90.2089904635
 10
241.5399312562
 20
90.1709628635
  0
LWPOLYLINE
  5
49E
100
AcDbEntity
  8
ASSI
100
AcDbPolyline
 62
250
  6
CONTINUOUS
 90
10
 70
0
 10
241.6308319584
 20
90.5381861146
 10
241.6295957593
 20
90.4957895524
 10
241.6260995034
 20
90.4535030445
 10
241.6203498566
 20
90.4114461093
 10
241.6123558392
 20
90.3697204039
 10
241.6021389523
 20
90.3284624143
 10
241.5897424784
 20
90.2878408398
 10
241.5752132858
 20
90.247985732
 10
241.5585923472
 20
90.2089904635
 10
241.5399312562
 20
90.1709628635
  0
LWPOLYLINE
  5
49F
100
AcDbEntity
  8
RACCORDO
100
AcDbPolyline
 62
250
  6
CONTINUOUS
 90
10
 70
0
 10
242.1301467628
 20
90.5136767868
 10
242.1281079927
 20
90.4444181847
 10
242.1224348485
 20
90.3756950798
 10
242.1131273301
 20
90.3075074616
 10
242.1001234656
 20
90.2396172759
 10
242.083485227
 20
90.1722625594
 10
242.0633985303
 20
90.106157422
 10
242.0399253478
 20
90.0415398759
 10
242.0130037072
 20
89.9781718537
 10
241.9826336087
 20
89.91605333
  0
LWPOLYLINE
  5
4A0
100
AcDbEntity
  8
ASSI
100
AcDbPolyline
 62
250
  6
CONTINUOUS
 90
10
 70
0
 10
242.1301467628
 20
90.5136767868
 10
242.1281079927
 20
90.4444181847
 10
242.1224348485
 20
90.3756950798
 10
242.1131273301
 20
90.3075074616
 10
242.1001234656
 20
90.2396172759
 10
242.083485227
 20
90.1722625594
 10
242.0633985303
 20
90.106157422
 10
242.0399253478
 20
90.0415398759
 10
242.0130037072
 20
89.9781718537
 10
241.9826336087
 20
89.91605333
  0
LWPOLYLINE
  5
4A1
100
AcDbEntity
  8
RACCORDO
100
AcDbPolyline
 62
250
  6
CONTINUOUS
 90
22
 70
0
 10
241.9826336087
 20
89.91605333
 10
241.9501615109
 20
89.8574216957
 10
241.9147544304
 20
89.8006645142
 10
241.8764123671
 20
89.745781695
 10
241.8350104245
 20
89.6925879
 10
241.7906734992
 20
89.6412682978
 10
241.7437762815
 20
89.592378534
 10
241.694291843
 20
89.5459596646
 10
241.6422471122
 20
89.5019704226
 10
241.5880975643
 20
89.4608429313
 10
241.5318154892
 20
89.4226119294
 10
241.4734285971
 20
89.3872424654
 10
241.4134754938
 20
89.3550621085
 10
241.3519228185
 20
89.3261088553
 10
241.288803932
 20
89.3003445224
 10
241.2247575222
 20
89.2779824075
 10
241.1597679043
 20
89.2590749352
 10
241.0938507631
 20
89.2435695441
 10
241.0276918406
 20
89.2315220626
 10
240.9615197173
 20
89.2229510767
 10
240.8951058127
 20
89.2178379307
 10
240.8284501266
 20
89.2161826073
  0
LWPOLYLINE
  5
4A2
100
AcDbEntity
  8
ASSI
100
AcDbPolyline
 62
250
  6
CONTINUOUS
 90
22
 70
0
 10
241.9826336087
 20
89.91605333
 10
241.9501615109
 20
89.8574216957
 10
241.9147544304
 20
89.8006645142
 10
241.8764123671
 20
89.745781695
 10
241.8350104245
 20
89.6925879
 10
241.7906734992
 20
89.6412682978
 10
241.7437762815
 20
89.592378534
 10
241.694291843
 20
89.5459596646
 10
241.6422471122
 20
89.5019704226
 10
241.5880975643
 20
89.4608429313
 10
241.5318154892
 20
89.4226119294
 10
241.4734285971
 20
89.3872424654
 10
241.4134754938
 20
89.3550621085
 10
241.3519228185
 20
89.3261088553
 10
241.288803932
 20
89.3003445224
 10
241.2247575222
 20
89.2779824075
 10
241.1597679043
 20
89.2590749352
 10
241.0938507631
 20
89.2435695441
 10
241.0276918406
 20
89.2315220626
 10
240.9615197173
 20
89.2229510767
 10
240.8951058127
 20
89.2178379307
 10
240.8284501266
 20
89.2161826073
  0
LWPOLYLINE
  5
4A3
100
AcDbEntity
  8
RACCORDO
100
AcDbPolyline
 62
250
  6
CONTINUOUS
 90
22
 70
0
 10
241.5399312562
 20
90.1709628635
 10
241.5199416831
 20
90.1351110214
 10
241.4980619138
 20
90.1002336388
 10
241.4743342583
 20
90.0664331284
 10
241.4487960247
 20
90.0337982499
 10
241.4215103712
 20
90.002441352
 10
241.3925726405
 20
89.9724925464
 10
241.3620538369
 20
89.9440417238
 10
241.3300284669
 20
89.9171735792
 10
241.2966148142
 20
89.8919950418
 10
241.2619012607
 20
89.8685783335
 10
241.225980335
 20
89.8469910788
 10
241.1889905121
 20
89.8273149106
 10
241.1510254919
 20
89.8095974706
 10
241.1121981647
 20
89.7938892119
 10
241.072687401
 20
89.7802510111
 10
241.0326010372
 20
89.7687054089
 10
240.9920550556
 20
89.7592713987
 10
240.9512484308
 20
89.7519718668
 10
240.9103237977
 20
89.7468015976
 10
240.8693637474
 20
89.7437419089
 10
240.8284772704
 20
89.742773667
  0
LWPOLYLINE
  5
4A4
100
AcDbEntity
  8
ASSI
100
AcDbPolyline
 62
250
  6
CONTINUOUS
 90
22
 70
0
 10
241.5399312562
 20
90.1709628635
 10
241.5199416831
 20
90.1351110214
 10
241.4980619138
 20
90.1002336388
 10
241.4743342583
 20
90.0664331284
 10
241.4487960247
 20
90.0337982499
 10
241.4215103712
 20
90.002441352
 10
241.3925726405
 20
89.9724925464
 10
241.3620538369
 20
89.9440417238
 10
241.3300284669
 20
89.9171735792
 10
241.2966148142
 20
89.8919950418
 10
241.2619012607
 20
89.8685783335
 10
241.225980335
 20
89.8469910788
 10
241.1889905121
 20
89.8273149106
 10
241.1510254919
 20
89.8095974706
 10
241.1121981647
 20
89.7938892119
 10
241.072687401
 20
89.7802510111
 10
241.0326010372
 20
89.7687054089
 10
240.9920550556
 20
89.7592713987
 10
240.9512484308
 20
89.7519718668
 10
240.9103237977
 20
89.7468015976
 10
240.8693637474
 20
89.7437419089
 10
240.8284772704
 20
89.742773667
  0
LWPOLYLINE
  5
4A5
100
AcDbEntity
  8
RACCORDO
100
AcDbPolyline
 62
250
  6
CONTINUOUS
 90
10
 70
0
 10
241.5399312562
 20
134.9965535839
 10
241.5585632769
 20
134.9585895218
 10
241.5751708686
 20
134.9196381281
 10
241.5896990381
 20
134.8798053802
 10
241.6021058664
 20
134.8391736942
 10
241.6123371189
 20
134.7978812512
 10
241.620340851
 20
134.7561252229
 10
241.6260952436
 20
134.7140522793
 10
241.6295942051
 20
134.6717547277
 10
241.6308318953
 20
134.6293522478
  0
LWPOLYLINE
  5
4A6
100
AcDbEntity
  8
ASSI
100
AcDbPolyline
 62
250
  6
CONTINUOUS
 90
10
 70
0
 10
241.5399312562
 20
134.9965535839
 10
241.5585632769
 20
134.9585895218
 10
241.5751708686
 20
134.9196381281
 10
241.5896990381
 20
134.8798053802
 10
241.6021058664
 20
134.8391736942
 10
241.6123371189
 20
134.7978812512
 10
241.620340851
 20
134.7561252229
 10
241.6260952436
 20
134.7140522793
 10
241.6295942051
 20
134.6717547277
 10
241.6308318953
 20
134.6293522478
  0
LWPOLYLINE
  5
4A7
100
AcDbEntity
  8
RACCORDO
100
AcDbPolyline
 62
250
  6
CONTINUOUS
 90
10
 70
0
 10
241.9826336087
 20
135.2514631174
 10
242.0129480934
 20
135.1894983177
 10
242.0398338935
 20
135.1262376419
 10
242.063291009
 20
135.0616810638
 10
242.0833892388
 20
134.9955799169
 10
242.100058784
 20
134.9281828104
 10
242.1130902486
 20
134.8602356475
 10
242.122413834
 20
134.791987063
 10
242.1280993387
 20
134.7231884043
 10
242.1301467628
 20
134.6538396606
  0
LWPOLYLINE
  5
4A8
100
AcDbEntity
  8
ASSI
100
AcDbPolyline
 62
250
  6
CONTINUOUS
 90
10
 70
0
 10
241.9826336087
 20
135.2514631174
 10
242.0129480934
 20
135.1894983177
 10
242.0398338935
 20
135.1262376419
 10
242.063291009
 20
135.0616810638
 10
242.0833892388
 20
134.9955799169
 10
242.100058784
 20
134.9281828104
 10
242.1130902486
 20
134.8602356475
 10
242.122413834
 20
134.791987063
 10
242.1280993387
 20
134.7231884043
 10
242.1301467628
 20
134.6538396606
  0
LWPOLYLINE
  5
4A9
100
AcDbEntity
  8
0
100
AcDbPolyline
 62
7
  6
CONTINUOUS
 90
10
 70
0
 43
0.3500000006
 10
282.5363682861
 20
110.6551907043
 10
281.6792303467
 20
111.5123286438
 10
280.8220924072
 20
111.7266131287
 10
279.9649363403
 20
111.7266131287
 10
279.5363673706
 20
111.2980441589
 10
279.5363673706
 20
110.6551907043
 10
279.9649363403
 20
110.2266126709
 10
280.8220924072
 20
110.2266126709
 10
281.250661377
 20
110.6551907043
 10
281.250661377
 20
111.5837598267
  0
LWPOLYLINE
  5
4AA
100
AcDbEntity
  8
RACCORDO
100
AcDbPolyline
 62
250
  6
CONTINUOUS
 90
28
 70
0
 10
263.656427802
 20
156.4551872475
 10
263.6550537121
 20
156.5142326003
 10
263.6502484187
 20
156.5729918574
 10
263.6420429514
 20
156.6312662459
 10
263.6304871261
 20
156.6888363971
 10
263.6156301438
 20
156.7455341679
 10
263.5975059456
 20
156.801239397
 10
263.5761585609
 20
156.8558072641
 10
263.5516752081
 20
156.90900779
 10
263.5241682127
 20
156.9606002634
 10
263.4937552123
 20
157.0103946
 10
263.4605389237
 20
157.0582513597
 10
263.4246320762
 20
157.1040198946
 10
263.3861634652
 20
157.1475525696
 10
263.3452711788
 20
157.1887093483
 10
263.3020915403
 20
157.2273612369
 10
263.2567778012
 20
157.2633828444
 10
263.2094855429
 20
157.2966624669
 10
263.1603617247
 20
157.3271020795
 10
263.1095686849
 20
157.3546065871
 10
263.0572838432
 20
157.3790859574
 10
263.003682669
 20
157.400462184
 10
262.9489529748
 20
157.4186660782
 10
262.8932722751
 20
157.4336447977
 10
262.8368044212
 20
157.4453568286
 10
262.7797299058
 20
157.4537646331
 10
262.7222463732
 20
157.458839051
 10
262.6645451203
 20
157.4605636354
  0
LWPOLYLINE
  5
4AB
100
AcDbEntity
  8
ASSI
100
AcDbPolyline
 62
250
  6
CONTINUOUS
 90
28
 70
0
 10
263.656427802
 20
156.4551872475
 10
263.6550537121
 20
156.5142326003
 10
263.6502484187
 20
156.5729918574
 10
263.6420429514
 20
156.6312662459
 10
263.6304871261
 20
156.6888363971
 10
263.6156301438
 20
156.7455341679
 10
263.5975059456
 20
156.801239397
 10
263.5761585609
 20
156.8558072641
 10
263.5516752081
 20
156.90900779
 10
263.5241682127
 20
156.9606002634
 10
263.4937552123
 20
157.0103946
 10
263.4605389237
 20
157.0582513597
 10
263.4246320762
 20
157.1040198946
 10
263.3861634652
 20
157.1475525696
 10
263.3452711788
 20
157.1887093483
 10
263.3020915403
 20
157.2273612369
 10
263.2567778012
 20
157.2633828444
 10
263.2094855429
 20
157.2966624669
 10
263.1603617247
 20
157.3271020795
 10
263.1095686849
 20
157.3546065871
 10
263.0572838432
 20
157.3790859574
 10
263.003682669
 20
157.400462184
 10
262.9489529748
 20
157.4186660782
 10
262.8932722751
 20
157.4336447977
 10
262.8368044212
 20
157.4453568286
 10
262.7797299058
 20
157.4537646331
 10
262.7222463732
 20
157.458839051
 10
262.6645451203
 20
157.4605636354
  0
LWPOLYLINE
  5
4AC
100
AcDbEntity
  8
RACCORDO
100
AcDbPolyline
 62
250
  6
CONTINUOUS
 90
28
 70
0
 10
263.3568389416
 20
156.5083863302
 10
263.3559945047
 20
156.5500525136
 10
263.352799973
 20
156.5912727982
 10
263.3472553468
 20
156.6320472413
 10
263.3393261529
 20
156.6725038821
 10
263.3290468643
 20
156.7125147839
 10
263.3165209
 20
156.7516960913
 10
263.3017165497
 20
156.790058942
 10
263.2846655237
 20
156.8275924054
 10
263.265566371
 20
156.8638796229
 10
263.2444033812
 20
156.8988900351
 10
263.2211922649
 20
156.9326544954
 10
263.1961787022
 20
156.9648483458
 10
263.1693455664
 20
156.995456686
 10
263.1407099842
 20
157.0244947437
 10
263.1105690174
 20
157.0516831045
 10
263.0789095456
 20
157.0770027178
 10
263.0457446891
 20
157.1004729586
 10
263.0114108702
 20
157.1218720786
 10
262.9758967896
 20
157.1411797305
 10
262.9392137466
 20
157.1584165445
 10
262.9017320609
 20
157.1734222431
 10
262.863436875
 20
157.1861748312
 10
262.8243430465
 20
157.1966965124
 10
262.7848654676
 20
157.2048932947
 10
262.7451424356
 20
157.2107338855
 10
262.7050356532
 20
157.2142496876
 10
262.6645451203
 20
157.2154407285
  0
LWPOLYLINE
  5
4AD
100
AcDbEntity
  8
ASSI
100
AcDbPolyline
 62
250
  6
CONTINUOUS
 90
28
 70
0
 10
263.3568389416
 20
156.5083863302
 10
263.3559945047
 20
156.5500525136
 10
263.352799973
 20
156.5912727982
 10
263.3472553468
 20
156.6320472413
 10
263.3393261529
 20
156.6725038821
 10
263.3290468643
 20
156.7125147839
 10
263.3165209
 20
156.7516960913
 10
263.3017165497
 20
156.790058942
 10
263.2846655237
 20
156.8275924054
 10
263.265566371
 20
156.8638796229
 10
263.2444033812
 20
156.8988900351
 10
263.2211922649
 20
156.9326544954
 10
263.1961787022
 20
156.9648483458
 10
263.1693455664
 20
156.995456686
 10
263.1407099842
 20
157.0244947437
 10
263.1105690174
 20
157.0516831045
 10
263.0789095456
 20
157.0770027178
 10
263.0457446891
 20
157.1004729586
 10
263.0114108702
 20
157.1218720786
 10
262.9758967896
 20
157.1411797305
 10
262.9392137466
 20
157.1584165445
 10
262.9017320609
 20
157.1734222431
 10
262.863436875
 20
157.1861748312
 10
262.8243430465
 20
157.1966965124
 10
262.7848654676
 20
157.2048932947
 10
262.7451424356
 20
157.2107338855
 10
262.7050356532
 20
157.2142496876
 10
262.6645451203
 20
157.2154407285
  0
LWPOLYLINE
  5
4AE
100
AcDbEntity
  8
RACCORDO
100
AcDbPolyline
 62
250
  6
CONTINUOUS
 90
9
 70
0
 10
263.3568389416
 20
68.6591301172
 10
263.3356339248
 20
71.0033877216
 10
263.3161808209
 20
73.3531596848
 10
263.29847963
 20
75.70797157
 10
263.2825275153
 20
78.0673437637
 10
263.2683273135
 20
80.4308040555
 10
263.2558875347
 20
82.7978878019
 10
263.2452110156
 20
85.1681213317
 10
263.2362949194
 20
87.5410219742
  0
LWPOLYLINE
  5
4AF
100
AcDbEntity
  8
ASSI
100
AcDbPolyline
 62
250
  6
CONTINUOUS
 90
9
 70
0
 10
263.3568389416
 20
68.6591301172
 10
263.3356339248
 20
71.0033877216
 10
263.3161808209
 20
73.3531596848
 10
263.29847963
 20
75.70797157
 10
263.2825275153
 20
78.0673437637
 10
263.2683273135
 20
80.4308040555
 10
263.2558875347
 20
82.7978878019
 10
263.2452110156
 20
85.1681213317
 10
263.2362949194
 20
87.5410219742
  0
LWPOLYLINE
  5
4B0
100
AcDbEntity
  8
RACCORDO
100
AcDbPolyline
 62
250
  6
CONTINUOUS
 90
9
 70
0
 10
263.656427802
 20
68.7123291998
 10
263.6352231787
 20
71.0531230046
 10
263.6157703168
 20
73.398493054
 10
263.5980692162
 20
75.7484393479
 10
263.5821169615
 20
78.103445335
 10
263.5679164682
 20
80.4630275666
 10
263.5554764829
 20
82.8257356968
 10
263.5447999212
 20
85.191086277
 10
263.5358838675
 20
87.5595627558
  0
LWPOLYLINE
  5
4B1
100
AcDbEntity
  8
ASSI
100
AcDbPolyline
 62
250
  6
CONTINUOUS
 90
9
 70
0
 10
263.656427802
 20
68.7123291998
 10
263.6352231787
 20
71.0531230046
 10
263.6157703168
 20
73.398493054
 10
263.5980692162
 20
75.7484393479
 10
263.5821169615
 20
78.103445335
 10
263.5679164682
 20
80.4630275666
 10
263.5554764829
 20
82.8257356968
 10
263.5447999212
 20
85.191086277
 10
263.5358838675
 20
87.5595627558
  0
LINE
  5
4B2
100
AcDbEntity
  8
RACCORDO
100
AcDbLine
 62
250
  6
CONTINUOUS
 10
263.2362949194
 20
87.5410219742
 11
263.2199984325
 21
93.6912539195
  0
LINE
  5
4B3
100
AcDbEntity
  8
ASSI
100
AcDbLine
 62
250
  6
CONTINUOUS
 10
263.2362949194
 20
87.5410219742
 11
263.2199984325
 21
93.6912539195
  0
LINE
  5
4B4
100
AcDbEntity
  8
RACCORDO
100
AcDbLine
 62
250
  6
CONTINUOUS
 10
263.5358838675
 20
87.5595627558
 11
263.5195873643
 21
93.7042544206
  0
LINE
  5
4B5
100
AcDbEntity
  8
ASSI
100
AcDbLine
 62
250
  6
CONTINUOUS
 10
263.5358838675
 20
87.5595627558
 11
263.5195873643
 21
93.7042544206
  0
LINE
  5
4B6
100
AcDbEntity
  8
RACCORDO
100
AcDbLine
 62
250
  6
CONTINUOUS
 10
263.2199984325
 20
93.6912539195
 11
263.206701821
 21
101.2456970275
  0
LINE
  5
4B7
100
AcDbEntity
  8
ASSI
100
AcDbLine
 62
250
  6
CONTINUOUS
 10
263.2199984325
 20
93.6912539195
 11
263.206701821
 21
101.2456970275
  0
LINE
  5
4B8
100
AcDbEntity
  8
RACCORDO
100
AcDbLine
 62
250
  6
CONTINUOUS
 10
263.5195873643
 20
93.7042544206
 11
263.5062906962
 21
101.25324457
  0
LINE
  5
4B9
100
AcDbEntity
  8
ASSI
100
AcDbLine
 62
250
  6
CONTINUOUS
 10
263.5195873643
 20
93.7042544206
 11
263.5062906962
 21
101.25324457
  0
LINE
  5
4BA
100
AcDbEntity
  8
RACCORDO
100
AcDbLine
 62
250
  6
CONTINUOUS
 10
263.206701821
 20
101.2456970275
 11
263.2000515696
 21
108.8040012633
  0
LINE
  5
4BB
100
AcDbEntity
  8
ASSI
100
AcDbLine
 62
250
  6
CONTINUOUS
 10
263.206701821
 20
101.2456970275
 11
263.2000515696
 21
108.8040012633
  0
LINE
  5
4BC
100
AcDbEntity
  8
RACCORDO
100
AcDbLine
 62
250
  6
CONTINUOUS
 10
263.5062906962
 20
101.25324457
 11
263.4996404294
 21
108.8066082546
  0
LINE
  5
4BD
100
AcDbEntity
  8
ASSI
100
AcDbLine
 62
250
  6
CONTINUOUS
 10
263.5062906962
 20
101.25324457
 11
263.4996404294
 21
108.8066082546
  0
LINE
  5
4BE
100
AcDbEntity
  8
RACCORDO
100
AcDbLine
 62
250
  6
CONTINUOUS
 10
262.6645451203
 20
67.9520757189
 11
262.6645451206
 21
67.706952812
  0
LINE
  5
4BF
100
AcDbEntity
  8
ASSI
100
AcDbLine
 62
250
  6
CONTINUOUS
 10
262.6645451203
 20
67.9520757189
 11
262.6645451206
 21
67.706952812
  0
LINE
  5
4C0
100
AcDbEntity
  8
RACCORDO
100
AcDbLine
 62
250
  6
CONTINUOUS
 10
262.6645451203
 20
157.2154407285
 11
262.6645451203
 21
157.4605636354
  0
LINE
  5
4C1
100
AcDbEntity
  8
ASSI
100
AcDbLine
 62
250
  6
CONTINUOUS
 10
262.6645451203
 20
157.2154407285
 11
262.6645451203
 21
157.4605636354
  0
LINE
  5
4C2
100
AcDbEntity
  8
RACCORDO
100
AcDbLine
 62
7
  6
CONTINUOUS
 10
263.7863692434
 20
68.5823877584
 11
263.7863692434
 21
156.5851286889
  0
LINE
  5
4C3
100
AcDbEntity
  8
ASSI
100
AcDbLine
 62
7
  6
CONTINUOUS
 10
263.7863692434
 20
68.5823877584
 11
263.7863692434
 21
156.5851286889
  0
LINE
  5
4C4
100
AcDbEntity
  8
RACCORDO
100
AcDbLine
 62
250
  6
CONTINUOUS
 10
263.2000515696
 20
108.8040012633
 11
263.2000515692
 21
116.3635141611
  0
LINE
  5
4C5
100
AcDbEntity
  8
ASSI
100
AcDbLine
 62
250
  6
CONTINUOUS
 10
263.2000515696
 20
108.8040012633
 11
263.2000515692
 21
116.3635141611
  0
LINE
  5
4C6
100
AcDbEntity
  8
RACCORDO
100
AcDbLine
 62
250
  6
CONTINUOUS
 10
263.4996404294
 20
108.8066082546
 11
263.4996404301
 21
116.3609093337
  0
LINE
  5
4C7
100
AcDbEntity
  8
ASSI
100
AcDbLine
 62
250
  6
CONTINUOUS
 10
263.4996404294
 20
108.8066082546
 11
263.4996404301
 21
116.3609093337
  0
LINE
  5
4C8
100
AcDbEntity
  8
RACCORDO
100
AcDbLine
 62
250
  6
CONTINUOUS
 10
263.2000515692
 20
116.3635141611
 11
263.20670182
 21
123.921818692
  0
LINE
  5
4C9
100
AcDbEntity
  8
ASSI
100
AcDbLine
 62
250
  6
CONTINUOUS
 10
263.2000515692
 20
116.3635141611
 11
263.20670182
 21
123.921818692
  0
LINE
  5
4CA
100
AcDbEntity
  8
RACCORDO
100
AcDbLine
 62
250
  6
CONTINUOUS
 10
263.4996404301
 20
116.3609093337
 11
263.5062906979
 21
123.9142732351
  0
LINE
  5
4CB
100
AcDbEntity
  8
ASSI
100
AcDbLine
 62
250
  6
CONTINUOUS
 10
263.4996404301
 20
116.3609093337
 11
263.5062906979
 21
123.9142732351
  0
LINE
  5
4CC
100
AcDbEntity
  8
RACCORDO
100
AcDbLine
 62
250
  6
CONTINUOUS
 10
263.20670182
 20
123.921818692
 11
263.2199984317
 21
131.4762620889
  0
LINE
  5
4CD
100
AcDbEntity
  8
ASSI
100
AcDbLine
 62
250
  6
CONTINUOUS
 10
263.20670182
 20
123.921818692
 11
263.2199984317
 21
131.4762620889
  0
LINE
  5
4CE
100
AcDbEntity
  8
RACCORDO
100
AcDbLine
 62
250
  6
CONTINUOUS
 10
263.5062906979
 20
123.9142732351
 11
263.5195873653
 21
131.4632626683
  0
LINE
  5
4CF
100
AcDbEntity
  8
ASSI
100
AcDbLine
 62
250
  6
CONTINUOUS
 10
263.5062906979
 20
123.9142732351
 11
263.5195873653
 21
131.4632626683
  0
LWPOLYLINE
  5
4D0
100
AcDbEntity
  8
RACCORDO
100
AcDbPolyline
 62
250
  6
CONTINUOUS
 90
10
 70
0
 10
263.2199984317
 20
131.4762620889
 10
263.2362949201
 20
137.6264944459
 10
263.245211017
 20
139.9993952091
 10
263.2558875358
 20
142.3696287282
 10
263.2683273123
 20
144.7367122321
 10
263.2825275107
 20
147.1001721515
 10
263.2984796236
 20
149.4595441459
 10
263.3161808152
 20
151.8143561045
 10
263.3356339211
 20
154.164128312
 10
263.3568389416
 20
156.5083863302
  0
LWPOLYLINE
  5
4D1
100
AcDbEntity
  8
ASSI
100
AcDbPolyline
 62
250
  6
CONTINUOUS
 90
10
 70
0
 10
263.2199984317
 20
131.4762620889
 10
263.2362949201
 20
137.6264944459
 10
263.245211017
 20
139.9993952091
 10
263.2558875358
 20
142.3696287282
 10
263.2683273123
 20
144.7367122321
 10
263.2825275107
 20
147.1001721515
 10
263.2984796236
 20
149.4595441459
 10
263.3161808152
 20
151.8143561045
 10
263.3356339211
 20
154.164128312
 10
263.3568389416
 20
156.5083863302
  0
LWPOLYLINE
  5
4D2
100
AcDbEntity
  8
RACCORDO
100
AcDbPolyline
 62
250
  6
CONTINUOUS
 90
10
 70
0
 10
263.5195873653
 20
131.4632626683
 10
263.5358838801
 20
137.6079570902
 10
263.5447999498
 20
139.9764368035
 10
263.555476531
 20
142.3417904539
 10
263.5679165479
 20
144.7045024041
 10
263.5821170764
 20
147.0640882915
 10
263.5980693433
 20
149.4190950283
 10
263.6157704244
 20
151.7690382519
 10
263.635223244
 20
154.114402325
 10
263.656427802
 20
156.4551872475
  0
LWPOLYLINE
  5
4D3
100
AcDbEntity
  8
ASSI
100
AcDbPolyline
 62
250
  6
CONTINUOUS
 90
10
 70
0
 10
263.5195873653
 20
131.4632626683
 10
263.5358838801
 20
137.6079570902
 10
263.5447999498
 20
139.9764368035
 10
263.555476531
 20
142.3417904539
 10
263.5679165479
 20
144.7045024041
 10
263.5821170764
 20
147.0640882915
 10
263.5980693433
 20
149.4190950283
 10
263.6157704244
 20
151.7690382519
 10
263.635223244
 20
154.114402325
 10
263.656427802
 20
156.4551872475
  0
LINE
  5
4D4
100
AcDbEntity
  8
RACCORDO
100
AcDbLine
 62
7
  6
CONTINUOUS
 10
56.8865483832
 20
67.706952812
 11
59.2372411624
 21
67.5837582237
  0
LINE
  5
4D5
100
AcDbEntity
  8
ASSI
100
AcDbLine
 62
7
  6
CONTINUOUS
 10
56.8865483832
 20
67.706952812
 11
59.2372411624
 21
67.5837582237
  0
LINE
  5
4D6
100
AcDbEntity
  8
RACCORDO
100
AcDbLine
 62
250
  6
CONTINUOUS
 10
56.7578107576
 20
68.7123291998
 11
59.2372411624
 21
68.5823877584
  0
LINE
  5
4D7
100
AcDbEntity
  8
ASSI
100
AcDbLine
 62
250
  6
CONTINUOUS
 10
56.7578107576
 20
68.7123291998
 11
59.2372411624
 21
68.5823877584
  0
LINE
  5
4D8
100
AcDbEntity
  8
RACCORDO
100
AcDbLine
 62
250
  6
CONTINUOUS
 10
56.5039673448
 20
68.6649214479
 11
56.5280405477
 21
68.6696767852
  0
LINE
  5
4D9
100
AcDbEntity
  8
ASSI
100
AcDbLine
 62
250
  6
CONTINUOUS
 10
56.5039673448
 20
68.6649214479
 11
56.5280405477
 21
68.6696767852
  0
LINE
  5
4DA
100
AcDbEntity
  8
RACCORDO
100
AcDbLine
 62
250
  6
CONTINUOUS
 10
56.5280405477
 20
68.6696767852
 11
56.576965972
 21
68.6790315023
  0
LINE
  5
4DB
100
AcDbEntity
  8
ASSI
100
AcDbLine
 62
250
  6
CONTINUOUS
 10
56.5280405477
 20
68.6696767852
 11
56.576965972
 21
68.6790315023
  0
LINE
  5
4DC
100
AcDbEntity
  8
RACCORDO
100
AcDbLine
 62
250
  6
CONTINUOUS
 10
56.576965972
 20
68.6790315023
 11
56.6844528585
 21
68.6989843729
  0
LINE
  5
4DD
100
AcDbEntity
  8
ASSI
100
AcDbLine
 62
250
  6
CONTINUOUS
 10
56.576965972
 20
68.6790315023
 11
56.6844528585
 21
68.6989843729
  0
LINE
  5
4DE
100
AcDbEntity
  8
RACCORDO
100
AcDbLine
 62
250
  6
CONTINUOUS
 10
56.6844528585
 20
68.6989843729
 11
56.7578107576
 21
68.7123291998
  0
LINE
  5
4DF
100
AcDbEntity
  8
ASSI
100
AcDbLine
 62
250
  6
CONTINUOUS
 10
56.6844528585
 20
68.6989843729
 11
56.7578107576
 21
68.7123291998
  0
LWPOLYLINE
  5
4E0
100
AcDbEntity
  8
0
100
AcDbPolyline
 62
7
  6
CONTINUOUS
 90
10
 70
0
 43
0.3500000006
 10
72.3453089447
 20
176.5015898438
 10
71.7024554901
 20
175.8587182617
 10
71.2738819885
 20
175.0015803223
 10
71.2738819885
 20
173.9301578979
 10
71.7024554901
 20
173.5015889282
 10
72.3453089447
 20
173.5015889282
 10
72.7738824463
 20
173.9301578979
 10
72.7738824463
 20
174.7872958374
 10
72.3453089447
 20
175.2158648071
 10
71.4167398224
 20
175.2158648071
  0
LWPOLYLINE
  5
4E1
100
AcDbEntity
  8
RACCORDO
100
AcDbPolyline
 62
250
  6
CONTINUOUS
 90
9
 70
0
 10
56.8865483832
 20
67.706952812
 10
56.8854552309
 20
67.7086776179
 10
56.8839810099
 20
67.713747995
 10
56.8821344995
 20
67.7221410745
 10
56.8799243227
 20
67.7338142339
 10
56.877357091
 20
67.7487275864
 10
56.8744388062
 20
67.7668656266
 10
56.871169241
 20
67.7882053232
 10
56.8675630162
 20
67.8126718147
  0
LWPOLYLINE
  5
4E2
100
AcDbEntity
  8
ASSI
100
AcDbPolyline
 62
250
  6
CONTINUOUS
 90
9
 70
0
 10
56.8865483832
 20
67.706952812
 10
56.8854552309
 20
67.7086776179
 10
56.8839810099
 20
67.713747995
 10
56.8821344995
 20
67.7221410745
 10
56.8799243227
 20
67.7338142339
 10
56.877357091
 20
67.7487275864
 10
56.8744388062
 20
67.7668656266
 10
56.871169241
 20
67.7882053232
 10
56.8675630162
 20
67.8126718147
  0
LWPOLYLINE
  5
4E3
100
AcDbEntity
  8
RACCORDO
100
AcDbPolyline
 62
250
  6
CONTINUOUS
 90
3
 70
0
 10
54.0372411732
 20
89.9160533305
 10
54.0383033479
 20
89.9161737206
 10
54.0414890405
 20
89.9164007387
  0
LWPOLYLINE
  5
4E4
100
AcDbEntity
  8
ASSI
100
AcDbPolyline
 62
250
  6
CONTINUOUS
 90
3
 70
0
 10
54.0372411732
 20
89.9160533305
 10
54.0383033479
 20
89.9161737206
 10
54.0414890405
 20
89.9164007387
  0
LINE
  5
4E5
100
AcDbEntity
  8
RACCORDO
100
AcDbLine
 62
250
  6
CONTINUOUS
 10
54.0414890405
 20
89.9164007387
 11
54.0541254021
 21
89.9171674532
  0
LINE
  5
4E6
100
AcDbEntity
  8
ASSI
100
AcDbLine
 62
250
  6
CONTINUOUS
 10
54.0414890405
 20
89.9164007387
 11
54.0541254021
 21
89.9171674532
  0
LINE
  5
4E7
100
AcDbEntity
  8
RACCORDO
100
AcDbLine
 62
250
  6
CONTINUOUS
 10
54.0541254021
 20
89.9171674532
 11
54.1376532159
 21
89.9217101787
  0
LINE
  5
4E8
100
AcDbEntity
  8
ASSI
100
AcDbLine
 62
250
  6
CONTINUOUS
 10
54.0541254021
 20
89.9171674532
 11
54.1376532159
 21
89.9217101787
  0
LINE
  5
4E9
100
AcDbEntity
  8
RACCORDO
100
AcDbLine
 62
250
  6
CONTINUOUS
 10
54.1376532159
 20
89.9217101787
 11
54.3211595228
 21
89.9311651332
  0
LINE
  5
4EA
100
AcDbEntity
  8
ASSI
100
AcDbLine
 62
250
  6
CONTINUOUS
 10
54.1376532159
 20
89.9217101787
 11
54.3211595228
 21
89.9311651332
  0
LINE
  5
4EB
100
AcDbEntity
  8
RACCORDO
100
AcDbLine
 62
250
  6
CONTINUOUS
 10
56.7578107576
 20
156.4551872475
 11
56.7908529958
 21
156.7455341679
  0
LINE
  5
4EC
100
AcDbEntity
  8
ASSI
100
AcDbLine
 62
250
  6
CONTINUOUS
 10
56.7578107576
 20
156.4551872475
 11
56.7908529958
 21
156.7455341679
  0
LINE
  5
4ED
100
AcDbEntity
  8
RACCORDO
100
AcDbLine
 62
250
  6
CONTINUOUS
 10
56.7908529958
 20
156.7455341679
 11
56.8164347245
 21
156.9606002634
  0
LINE
  5
4EE
100
AcDbEntity
  8
ASSI
100
AcDbLine
 62
250
  6
CONTINUOUS
 10
56.7908529958
 20
156.7455341679
 11
56.8164347245
 21
156.9606002634
  0
LINE
  5
4EF
100
AcDbEntity
  8
RACCORDO
100
AcDbLine
 62
250
  6
CONTINUOUS
 10
56.8164347245
 20
156.9606002634
 11
56.8341800582
 21
157.1040198946
  0
LINE
  5
4F0
100
AcDbEntity
  8
ASSI
100
AcDbLine
 62
250
  6
CONTINUOUS
 10
56.8164347245
 20
156.9606002634
 11
56.8341800582
 21
157.1040198946
  0
LINE
  5
4F1
100
AcDbEntity
  8
RACCORDO
100
AcDbLine
 62
250
  6
CONTINUOUS
 10
56.8341800582
 20
157.1040198946
 11
56.8500679034
 21
157.2273612369
  0
LINE
  5
4F2
100
AcDbEntity
  8
ASSI
100
AcDbLine
 62
250
  6
CONTINUOUS
 10
56.8341800582
 20
157.1040198946
 11
56.8500679034
 21
157.2273612369
  0
LINE
  5
4F3
100
AcDbEntity
  8
RACCORDO
100
AcDbLine
 62
250
  6
CONTINUOUS
 10
56.8500679034
 20
157.2273612369
 11
56.8593862739
 21
157.2966624669
  0
LINE
  5
4F4
100
AcDbEntity
  8
ASSI
100
AcDbLine
 62
250
  6
CONTINUOUS
 10
56.8500679034
 20
157.2273612369
 11
56.8593862739
 21
157.2966624669
  0
LWPOLYLINE
  5
4F5
100
AcDbEntity
  8
RACCORDO
100
AcDbPolyline
 62
250
  6
CONTINUOUS
 90
10
 70
0
 10
56.8593862739
 20
157.2966624669
 10
56.8675302305
 20
157.3546065871
 10
56.871137927
 20
157.3790859574
 10
56.8744102824
 20
157.400462184
 10
56.8773355397
 20
157.4186660782
 10
56.8799127053
 20
157.4336447977
 10
56.8821310633
 20
157.4453568286
 10
56.8839816871
 20
157.4537646331
 10
56.8854571816
 20
157.458839051
 10
56.8865483832
 20
157.4605636354
  0
LWPOLYLINE
  5
4F6
100
AcDbEntity
  8
ASSI
100
AcDbPolyline
 62
250
  6
CONTINUOUS
 90
10
 70
0
 10
56.8593862739
 20
157.2966624669
 10
56.8675302305
 20
157.3546065871
 10
56.871137927
 20
157.3790859574
 10
56.8744102824
 20
157.400462184
 10
56.8773355397
 20
157.4186660782
 10
56.8799127053
 20
157.4336447977
 10
56.8821310633
 20
157.4453568286
 10
56.8839816871
 20
157.4537646331
 10
56.8854571816
 20
157.458839051
 10
56.8865483832
 20
157.4605636354
  0
LWPOLYLINE
  5
4F7
100
AcDbEntity
  8
0
100
AcDbPolyline
 62
7
  6
CONTINUOUS
 90
3
 70
0
 43
0.3500000006
 10
70.2738816833
 20
173.7872955322
 10
70.2024550323
 20
173.5730110474
 10
70.0595971985
 20
173.2873044434
  0
LWPOLYLINE
  5
4F8
100
AcDbEntity
  8
RACCORDO
100
AcDbPolyline
 62
250
  6
CONTINUOUS
 90
10
 70
0
 10
56.7578107576
 20
68.7123291998
 10
56.3532024415
 20
71.0531230046
 10
55.9820197239
 20
73.398493054
 10
55.6442626048
 20
75.7484393479
 10
55.3398754521
 20
78.103445335
 10
55.0689138979
 20
80.4630275666
 10
54.8315448383
 20
82.8257356968
 10
54.6278239053
 20
85.191086277
 10
54.4576954668
 20
87.5595627558
 10
54.3211595228
 20
89.9311651332
  0
LWPOLYLINE
  5
4F9
100
AcDbEntity
  8
ASSI
100
AcDbPolyline
 62
250
  6
CONTINUOUS
 90
10
 70
0
 10
56.7578107576
 20
68.7123291998
 10
56.3532024415
 20
71.0531230046
 10
55.9820197239
 20
73.398493054
 10
55.6442626048
 20
75.7484393479
 10
55.3398754521
 20
78.103445335
 10
55.0689138979
 20
80.4630275666
 10
54.8315448383
 20
82.8257356968
 10
54.6278239053
 20
85.191086277
 10
54.4576954668
 20
87.5595627558
 10
54.3211595228
 20
89.9311651332
  0
LINE
  5
4FA
100
AcDbEntity
  8
RACCORDO
100
AcDbLine
 62
250
  6
CONTINUOUS
 10
56.8675630162
 20
67.8126718147
 11
56.8594236422
 21
67.8705824677
  0
LINE
  5
4FB
100
AcDbEntity
  8
ASSI
100
AcDbLine
 62
250
  6
CONTINUOUS
 10
56.8675630162
 20
67.8126718147
 11
56.8594236422
 21
67.8705824677
  0
LINE
  5
4FC
100
AcDbEntity
  8
RACCORDO
100
AcDbLine
 62
250
  6
CONTINUOUS
 10
56.8594236422
 20
67.8705824677
 11
56.8501106936
 21
67.9398352825
  0
LINE
  5
4FD
100
AcDbEntity
  8
ASSI
100
AcDbLine
 62
250
  6
CONTINUOUS
 10
56.8594236422
 20
67.8705824677
 11
56.8501106936
 21
67.9398352825
  0
LINE
  5
4FE
100
AcDbEntity
  8
RACCORDO
100
AcDbLine
 62
250
  6
CONTINUOUS
 10
56.8501106936
 20
67.9398352825
 11
56.8342294493
 21
68.0631145723
  0
LINE
  5
4FF
100
AcDbEntity
  8
ASSI
100
AcDbLine
 62
250
  6
CONTINUOUS
 10
56.8501106936
 20
67.9398352825
 11
56.8342294493
 21
68.0631145723
  0
LINE
  5
500
100
AcDbEntity
  8
RACCORDO
100
AcDbLine
 62
250
  6
CONTINUOUS
 10
56.8342294493
 20
68.0631145723
 11
56.8102586006
 21
68.2580434245
  0
LINE
  5
501
100
AcDbEntity
  8
ASSI
100
AcDbLine
 62
250
  6
CONTINUOUS
 10
56.8342294493
 20
68.0631145723
 11
56.8102586006
 21
68.2580434245
  0
LINE
  5
502
100
AcDbEntity
  8
RACCORDO
100
AcDbLine
 62
250
  6
CONTINUOUS
 10
56.8102586006
 20
68.2580434245
 11
56.7842820803
 21
68.4784385877
  0
LINE
  5
503
100
AcDbEntity
  8
ASSI
100
AcDbLine
 62
250
  6
CONTINUOUS
 10
56.8102586006
 20
68.2580434245
 11
56.7842820803
 21
68.4784385877
  0
LINE
  5
504
100
AcDbEntity
  8
RACCORDO
100
AcDbLine
 62
250
  6
CONTINUOUS
 10
56.7842820803
 20
68.4784385877
 11
56.7578107576
 21
68.7123291998
  0
LINE
  5
505
100
AcDbEntity
  8
ASSI
100
AcDbLine
 62
250
  6
CONTINUOUS
 10
56.7842820803
 20
68.4784385877
 11
56.7578107576
 21
68.7123291998
  0
LWPOLYLINE
  5
506
100
AcDbEntity
  8
RACCORDO
100
AcDbPolyline
 62
250
  6
CONTINUOUS
 90
13
 70
0
 10
54.3211595228
 20
89.9311651332
 10
54.1467396612
 20
93.7042544206
 10
54.00402786
 20
97.4782808995
 10
53.8930241192
 20
101.25324457
 10
53.8137227643
 20
105.0294578165
 10
53.7661294697
 20
108.8066082546
 10
53.7502612589
 20
112.5837587309
 10
53.7661294833
 20
116.3609093337
 10
53.8137227914
 20
120.1380599747
 10
53.8930241525
 20
123.9142732351
 10
54.0040278897
 20
127.689236642
 10
54.1467396798
 20
131.4632626683
 10
54.3211595228
 20
135.2363513141
  0
LWPOLYLINE
  5
507
100
AcDbEntity
  8
ASSI
100
AcDbPolyline
 62
250
  6
CONTINUOUS
 90
13
 70
0
 10
54.3211595228
 20
89.9311651332
 10
54.1467396612
 20
93.7042544206
 10
54.00402786
 20
97.4782808995
 10
53.8930241192
 20
101.25324457
 10
53.8137227643
 20
105.0294578165
 10
53.7661294697
 20
108.8066082546
 10
53.7502612589
 20
112.5837587309
 10
53.7661294833
 20
116.3609093337
 10
53.8137227914
 20
120.1380599747
 10
53.8930241525
 20
123.9142732351
 10
54.0040278897
 20
127.689236642
 10
54.1467396798
 20
131.4632626683
 10
54.3211595228
 20
135.2363513141
  0
LINE
  5
508
100
AcDbEntity
  8
0
100
AcDbLine
 62
250
  6
CONTINUOUS
 10
53.5261554926
 20
105.2236985164
 11
53.5261318298
 21
105.2251452271
  0
LINE
  5
509
100
AcDbEntity
  8
0
100
AcDbLine
 62
250
  6
CONTINUOUS
 10
53.4819438909
 20
108.7912122237
 11
53.4818139644
 21
108.8066594009
  0
LINE
  5
50A
100
AcDbEntity
  8
0
100
AcDbLine
 62
250
  6
CONTINUOUS
 10
53.5262377193
 20
119.9488429475
 11
53.5256019008
 21
119.9098972229
  0
LINE
  5
50B
100
AcDbEntity
  8
0
100
AcDbLine
 62
250
  6
CONTINUOUS
 10
53.5298323781
 20
120.165263328
 11
53.5291067742
 21
120.1220782197
  0
LINE
  5
50C
100
AcDbEntity
  8
0
100
AcDbLine
 62
250
  6
CONTINUOUS
 10
53.5720512849
 20
122.3545852237
 11
53.5722775992
 21
122.3650002237
  0
LINE
  5
50D
100
AcDbEntity
  8
0
100
AcDbLine
 62
250
  6
CONTINUOUS
 10
53.6008529032
 20
123.6011797082
 11
53.6018725774
 21
123.6427367842
  0
LINE
  5
50E
100
AcDbEntity
  8
0
100
AcDbLine
 62
250
  6
CONTINUOUS
 10
53.6098517451
 20
123.9626872237
 11
53.608660147
 21
123.9154804388
  0
LINE
  5
50F
100
AcDbEntity
  8
0
100
AcDbLine
 62
250
  6
CONTINUOUS
 10
53.7062479946
 20
127.2874862056
 11
53.7071650002
 21
127.3155089731
  0
LINE
  5
510
100
AcDbEntity
  8
0
100
AcDbLine
 62
250
  6
CONTINUOUS
 10
53.8626511469
 20
131.474571567
 11
53.8627933162
 21
131.4779549075
  0
LINE
  5
511
100
AcDbEntity
  8
0
100
AcDbLine
 62
250
  6
CONTINUOUS
 10
54.0748836447
 20
135.967329533
 11
54.0740089683
 21
135.9513338452
  0
LWPOLYLINE
  5
512
100
AcDbEntity
  8
RACCORDO
100
AcDbPolyline
 62
250
  6
CONTINUOUS
 90
10
 70
0
 10
54.3211595228
 20
135.2363513141
 10
54.4576957071
 20
137.6079570902
 10
54.6278244515
 20
139.9764368035
 10
54.8315457559
 20
142.3417904539
 10
55.0689154199
 20
144.7045024041
 10
55.339877644
 20
147.0640882915
 10
55.6442650297
 20
149.4190950283
 10
55.9820217774
 20
151.7690382519
 10
56.3532036867
 20
154.114402325
 10
56.7578107576
 20
156.4551872475
  0
LWPOLYLINE
  5
513
100
AcDbEntity
  8
ASSI
100
AcDbPolyline
 62
250
  6
CONTINUOUS
 90
10
 70
0
 10
54.3211595228
 20
135.2363513141
 10
54.4576957071
 20
137.6079570902
 10
54.6278244515
 20
139.9764368035
 10
54.8315457559
 20
142.3417904539
 10
55.0689154199
 20
144.7045024041
 10
55.339877644
 20
147.0640882915
 10
55.6442650297
 20
149.4190950283
 10
55.9820217774
 20
151.7690382519
 10
56.3532036867
 20
154.114402325
 10
56.7578107576
 20
156.4551872475
  0
LINE
  5
514
100
AcDbEntity
  8
0
100
AcDbLine
 62
250
  6
CONTINUOUS
 10
54.1743220579
 20
137.6322122237
 11
54.1738823929
 21
137.625417468
  0
LINE
  5
515
100
AcDbEntity
  8
DRAFT
100
AcDbLine
 62
7
  6
CONTINUOUS
 10
62.0372411624
 20
108.7311042623
 11
60.0372411624
 21
109.0837582237
  0
LINE
  5
516
100
AcDbEntity
  8
ASSI
100
AcDbLine
 62
7
  6
CONTINUOUS
 10
62.0372411624
 20
108.7311042623
 11
60.0372411624
 21
109.0837582237
  0
LINE
  5
517
100
AcDbEntity
  8
RACCORDO
100
AcDbLine
 62
7
  6
CONTINUOUS
 10
59.2372411624
 20
67.5837582237
 11
59.2372411624
 21
157.5837582237
  0
LINE
  5
518
100
AcDbEntity
  8
ASSI
100
AcDbLine
 62
7
  6
CONTINUOUS
 10
59.2372411624
 20
67.5837582237
 11
59.2372411624
 21
157.5837582237
  0
LINE
  5
519
100
AcDbEntity
  8
DRAFT
100
AcDbLine
 62
7
  6
CONTINUOUS
 10
60.0372411624
 20
116.0837582237
 11
60.0372411624
 21
109.0837582237
  0
LINE
  5
51A
100
AcDbEntity
  8
ASSI
100
AcDbLine
 62
7
  6
CONTINUOUS
 10
60.0372411624
 20
116.0837582237
 11
60.0372411624
 21
109.0837582237
  0
LINE
  5
51B
100
AcDbEntity
  8
DRAFT
100
AcDbLine
 62
7
  6
CONTINUOUS
 10
62.0372411624
 20
155.6808339615
 11
62.0372411624
 21
116.4364121851
  0
LINE
  5
51C
100
AcDbEntity
  8
RACCORDO
100
AcDbLine
 62
7
  6
CONTINUOUS
 10
62.0372411624
 20
156.0837581589
 11
62.0372411624
 21
155.6808339615
  0
LINE
  5
51D
100
AcDbEntity
  8
ASSI
100
AcDbLine
 62
7
  6
CONTINUOUS
 10
62.0372411624
 20
156.0837581589
 11
62.0372411624
 21
116.4364121851
  0
LINE
  5
51E
100
AcDbEntity
  8
DRAFT
100
AcDbLine
 62
7
  6
CONTINUOUS
 10
62.0372411624
 20
108.7311042623
 11
62.0372411624
 21
69.4866826902
  0
LINE
  5
51F
100
AcDbEntity
  8
RACCORDO
100
AcDbLine
 62
7
  6
CONTINUOUS
 10
62.0372411624
 20
69.4866826902
 11
62.0372411624
 21
69.0852848069
  0
LINE
  5
520
100
AcDbEntity
  8
ASSI
100
AcDbLine
 62
7
  6
CONTINUOUS
 10
62.0372411624
 20
108.7311042623
 11
62.0372411624
 21
69.0852848069
  0
LINE
  5
521
100
AcDbEntity
  8
DRAFT
100
AcDbLine
 62
7
  6
CONTINUOUS
 10
62.0372411624
 20
116.4364121851
 11
60.0372411624
 21
116.0837582237
  0
LINE
  5
522
100
AcDbEntity
  8
ASSI
100
AcDbLine
 62
7
  6
CONTINUOUS
 10
62.0372411624
 20
116.4364121851
 11
60.0372411624
 21
116.0837582237
  0
LWPOLYLINE
  5
523
100
AcDbEntity
  8
0
100
AcDbPolyline
 62
7
  6
CONTINUOUS
 90
4
 70
0
 43
0.3500000006
 10
67.2024541168
 20
173.9301578979
 10
67.2024541168
 20
174.7872958374
 10
67.6310230865
 20
175.2158648071
 10
68.273881073
 20
175.2158648071
  0
LINE
  5
524
100
AcDbEntity
  8
RACCORDO
100
AcDbLine
 62
250
  6
CONTINUOUS
 10
54.074791392
 20
135.2491847478
 11
54.3211595228
 21
135.2363513141
  0
LINE
  5
525
100
AcDbEntity
  8
ASSI
100
AcDbLine
 62
250
  6
CONTINUOUS
 10
54.074791392
 20
135.2491847478
 11
54.3211595228
 21
135.2363513141
  0
LWPOLYLINE
  5
526
100
AcDbEntity
  8
RACCORDO
100
AcDbPolyline
 62
250
  6
CONTINUOUS
 90
5
 70
0
 10
54.0372411786
 20
135.2514631166
 10
54.0383033533
 20
135.2513427265
 10
54.0414890458
 20
135.2511157084
 10
54.0467755974
 20
135.250783677
 10
54.074791392
 20
135.2491847478
  0
LWPOLYLINE
  5
527
100
AcDbEntity
  8
ASSI
100
AcDbPolyline
 62
250
  6
CONTINUOUS
 90
5
 70
0
 10
54.0372411786
 20
135.2514631166
 10
54.0383033533
 20
135.2513427265
 10
54.0414890458
 20
135.2511157084
 10
54.0467755974
 20
135.250783677
 10
54.074791392
 20
135.2491847478
  0
LWPOLYLINE
  5
528
100
AcDbEntity
  8
RACCORDO
100
AcDbPolyline
 62
250
  6
CONTINUOUS
 90
13
 70
0
 10
62.0372411845
 20
69.4866828627
 10
61.925484716
 20
69.4145964465
 10
61.8129126598
 20
69.345867166
 10
61.6996684978
 20
69.2804950213
 10
61.5860773505
 20
69.2186089581
 10
61.4720928017
 20
69.1600800307
 10
61.357269896
 20
69.1045214012
 10
61.2415489491
 20
69.0518358978
 10
61.1251896351
 20
69.0021206925
 10
61.0081952625
 20
68.9552804625
 10
60.8906274492
 20
68.9112834337
 10
60.7726097525
 20
68.8701613803
 10
60.6542322252
 20
68.8319143024
  0
LWPOLYLINE
  5
529
100
AcDbEntity
  8
ASSI
100
AcDbPolyline
 62
250
  6
CONTINUOUS
 90
13
 70
0
 10
62.0372411845
 20
69.4866828627
 10
61.925484716
 20
69.4145964465
 10
61.8129126598
 20
69.345867166
 10
61.6996684978
 20
69.2804950213
 10
61.5860773505
 20
69.2186089581
 10
61.4720928017
 20
69.1600800307
 10
61.357269896
 20
69.1045214012
 10
61.2415489491
 20
69.0518358978
 10
61.1251896351
 20
69.0021206925
 10
61.0081952625
 20
68.9552804625
 10
60.8906274492
 20
68.9112834337
 10
60.7726097525
 20
68.8701613803
 10
60.6542322252
 20
68.8319143024
  0
LWPOLYLINE
  5
52A
100
AcDbEntity
  8
RACCORDO
100
AcDbPolyline
 62
250
  6
CONTINUOUS
 90
6
 70
0
 10
56.478266193
 20
68.6591301294
 10
56.4792755524
 20
68.6595508187
 10
56.4823798015
 20
68.6603472774
 10
56.4875568386
 20
68.6615138349
 10
56.4947698046
 20
68.6630421855
 10
56.5039673448
 20
68.6649214479
  0
LWPOLYLINE
  5
52B
100
AcDbEntity
  8
ASSI
100
AcDbPolyline
 62
250
  6
CONTINUOUS
 90
6
 70
0
 10
56.478266193
 20
68.6591301294
 10
56.4792755524
 20
68.6595508187
 10
56.4823798015
 20
68.6603472774
 10
56.4875568386
 20
68.6615138349
 10
56.4947698046
 20
68.6630421855
 10
56.5039673448
 20
68.6649214479
  0
LWPOLYLINE
  5
52C
100
AcDbEntity
  8
RACCORDO
100
AcDbPolyline
 62
250
  6
CONTINUOUS
 90
7
 70
0
 10
56.4782661862
 20
156.5083863192
 10
56.4792760028
 20
156.5079655565
 10
56.4823806559
 20
156.507169034
 10
56.4875580417
 20
156.5060024224
 10
56.4947712993
 20
156.5044740276
 10
56.5039690734
 20
156.5025947311
 10
56.5280425704
 20
156.4978393551
  0
LWPOLYLINE
  5
52D
100
AcDbEntity
  8
ASSI
100
AcDbPolyline
 62
250
  6
CONTINUOUS
 90
7
 70
0
 10
56.4782661862
 20
156.5083863192
 10
56.4792760028
 20
156.5079655565
 10
56.4823806559
 20
156.507169034
 10
56.4875580417
 20
156.5060024224
 10
56.4947712993
 20
156.5044740276
 10
56.5039690734
 20
156.5025947311
 10
56.5280425704
 20
156.4978393551
  0
LWPOLYLINE
  5
52E
100
AcDbEntity
  8
0
100
AcDbPolyline
 62
7
  6
CONTINUOUS
 90
10
 70
0
 43
0.3500000006
 10
70.2024550323
 20
174.0015800171
 10
70.2738816833
 20
173.8587176514
 10
70.2738816833
 20
173.7872955322
 10
70.1310238495
 20
173.6444331665
 10
70.0595971985
 20
173.6444331665
 10
69.9881660156
 20
173.7158734131
 10
69.9881660156
 20
173.7872955322
 10
70.0595971985
 20
173.9301578979
 10
70.1310238495
 20
174.0015800171
 10
70.2024550323
 20
174.0015800171
  0
LWPOLYLINE
  5
52F
100
AcDbEntity
  8
RACCORDO
100
AcDbPolyline
 62
250
  6
CONTINUOUS
 90
13
 70
0
 10
60.6542322252
 20
68.8319143024
 10
60.5276449761
 20
68.7943344519
 10
60.4017351015
 20
68.7599582766
 10
60.2766226454
 20
68.7287857765
 10
60.1520741897
 20
68.7008801916
 10
60.0285402853
 20
68.676178282
 10
59.9071743931
 20
68.6544903278
 10
59.7882467079
 20
68.6359087645
 10
59.6716950745
 20
68.6203411567
 10
59.5581824091
 20
68.6073204783
 10
59.4479841739
 20
68.5966910539
 10
59.3409826048
 20
68.588608559
 10
59.2372411938
 20
68.5830729934
  0
LWPOLYLINE
  5
530
100
AcDbEntity
  8
ASSI
100
AcDbPolyline
 62
250
  6
CONTINUOUS
 90
13
 70
0
 10
60.6542322252
 20
68.8319143024
 10
60.5276449761
 20
68.7943344519
 10
60.4017351015
 20
68.7599582766
 10
60.2766226454
 20
68.7287857765
 10
60.1520741897
 20
68.7008801916
 10
60.0285402853
 20
68.676178282
 10
59.9071743931
 20
68.6544903278
 10
59.7882467079
 20
68.6359087645
 10
59.6716950745
 20
68.6203411567
 10
59.5581824091
 20
68.6073204783
 10
59.4479841739
 20
68.5966910539
 10
59.3409826048
 20
68.588608559
 10
59.2372411938
 20
68.5830729934
  0
LINE
  5
531
100
AcDbEntity
  8
RACCORDO
100
AcDbLine
 62
250
  6
CONTINUOUS
 10
56.7578107576
 20
156.4551872475
 11
59.2372411624
 21
156.5851286889
  0
LINE
  5
532
100
AcDbEntity
  8
ASSI
100
AcDbLine
 62
250
  6
CONTINUOUS
 10
56.7578107576
 20
156.4551872475
 11
59.2372411624
 21
156.5851286889
  0
LWPOLYLINE
  5
533
100
AcDbEntity
  8
RACCORDO
100
AcDbPolyline
 62
250
  6
CONTINUOUS
 90
13
 70
0
 10
59.2372411977
 20
156.5844434536
 10
59.3461257608
 20
156.5784986722
 10
59.4574442431
 20
156.5699633676
 10
59.5711307775
 20
156.5588375396
 10
59.6874274357
 20
156.5451996012
 10
59.8059347951
 20
156.5289711395
 10
59.9256226363
 20
156.5099169161
 10
60.0463723513
 20
156.4879653356
 10
60.1681256064
 20
156.4631879934
 10
60.2899580347
 20
156.4355644374
 10
60.4115100076
 20
156.40508785
 10
60.5329715677
 20
156.3717650488
 10
60.6542528873
 20
156.3355960336
  0
LWPOLYLINE
  5
534
100
AcDbEntity
  8
ASSI
100
AcDbPolyline
 62
250
  6
CONTINUOUS
 90
13
 70
0
 10
59.2372411977
 20
156.5844434536
 10
59.3461257608
 20
156.5784986722
 10
59.4574442431
 20
156.5699633676
 10
59.5711307775
 20
156.5588375396
 10
59.6874274357
 20
156.5451996012
 10
59.8059347951
 20
156.5289711395
 10
59.9256226363
 20
156.5099169161
 10
60.0463723513
 20
156.4879653356
 10
60.1681256064
 20
156.4631879934
 10
60.2899580347
 20
156.4355644374
 10
60.4115100076
 20
156.40508785
 10
60.5329715677
 20
156.3717650488
 10
60.6542528873
 20
156.3355960336
  0
LINE
  5
535
100
AcDbEntity
  8
RACCORDO
100
AcDbLine
 62
250
  6
CONTINUOUS
 10
56.6384275563
 20
156.4770064802
 11
56.7578111266
 21
156.4551872476
  0
LINE
  5
536
100
AcDbEntity
  8
ASSI
100
AcDbLine
 62
250
  6
CONTINUOUS
 10
56.6384275563
 20
156.4770064802
 11
56.7578111266
 21
156.4551872476
  0
LINE
  5
537
100
AcDbEntity
  8
RACCORDO
100
AcDbLine
 62
250
  6
CONTINUOUS
 10
56.5590941794
 20
156.4918714785
 11
56.6384275563
 21
156.4770064802
  0
LINE
  5
538
100
AcDbEntity
  8
ASSI
100
AcDbLine
 62
250
  6
CONTINUOUS
 10
56.5590941794
 20
156.4918714785
 11
56.6384275563
 21
156.4770064802
  0
LINE
  5
539
100
AcDbEntity
  8
RACCORDO
100
AcDbLine
 62
250
  6
CONTINUOUS
 10
56.5280425704
 20
156.4978393551
 11
56.5590941794
 21
156.4918714785
  0
LINE
  5
53A
100
AcDbEntity
  8
ASSI
100
AcDbLine
 62
250
  6
CONTINUOUS
 10
56.5280425704
 20
156.4978393551
 11
56.5590941794
 21
156.4918714785
  0
LWPOLYLINE
  5
53B
100
AcDbEntity
  8
RACCORDO
100
AcDbPolyline
 62
250
  6
CONTINUOUS
 90
10
 70
0
 10
60.6542528873
 20
156.3355960336
 10
60.8078354264
 20
156.2855530106
 10
60.9616323686
 20
156.2301670562
 10
61.1154087463
 20
156.1694381705
 10
61.2683333202
 20
156.103811899
 10
61.4207524998
 20
156.0328426961
 10
61.5740912734
 20
155.9551939253
 10
61.7285192071
 20
155.870420041
 10
61.8830490887
 20
155.7789665887
 10
62.0372412113
 20
155.6808335685
  0
LWPOLYLINE
  5
53C
100
AcDbEntity
  8
ASSI
100
AcDbPolyline
 62
250
  6
CONTINUOUS
 90
10
 70
0
 10
60.6542528873
 20
156.3355960336
 10
60.8078354264
 20
156.2855530106
 10
60.9616323686
 20
156.2301670562
 10
61.1154087463
 20
156.1694381705
 10
61.2683333202
 20
156.103811899
 10
61.4207524998
 20
156.0328426961
 10
61.5740912734
 20
155.9551939253
 10
61.7285192071
 20
155.870420041
 10
61.8830490887
 20
155.7789665887
 10
62.0372412113
 20
155.6808335685
  0
LINE
  5
53D
100
AcDbEntity
  8
RACCORDO
100
AcDbLine
 62
7
  6
CONTINUOUS
 10
56.8865483832
 20
157.4605636354
 11
59.2372411624
 21
157.5837582237
  0
LINE
  5
53E
100
AcDbEntity
  8
ASSI
100
AcDbLine
 62
7
  6
CONTINUOUS
 10
56.8865483832
 20
157.4605636354
 11
59.2372411624
 21
157.5837582237
  0
LWPOLYLINE
  5
53F
100
AcDbEntity
  8
0
100
AcDbPolyline
 62
7
  6
CONTINUOUS
 90
13
 70
0
 43
0.3500000006
 10
67.6310230865
 20
175.2158648071
 10
67.3453119507
 20
175.430149292
 10
67.3453119507
 20
176.0730027466
 10
67.6310230865
 20
176.5015898438
 10
68.273881073
 20
176.5015898438
 10
68.5595967407
 20
176.0730027466
 10
68.5595967407
 20
175.430149292
 10
68.273881073
 20
175.2158648071
 10
68.7024545746
 20
174.7872958374
 10
68.7024545746
 20
173.9301578979
 10
68.273881073
 20
173.5015889282
 10
67.6310230865
 20
173.5015889282
 10
67.2024541168
 20
173.9301578979
  0
ARC
  5
540
100
AcDbEntity
  8
RACCORDO
100
AcDbCircle
 62
7
  6
CONTINUOUS
 10
221.25793293
 20
98.3501144324
 40
167.4332498099
100
AcDbArc
 50
182.887344071
 51
190.4598220317
  0
ARC
  5
541
100
AcDbEntity
  8
ASSI
100
AcDbCircle
 62
7
  6
CONTINUOUS
 10
221.25793293
 20
98.3501144324
 40
167.4332498099
100
AcDbArc
 50
182.887344071
 51
190.4598220317
  0
ARC
  5
542
100
AcDbEntity
  8
RACCORDO
100
AcDbCircle
 62
7
  6
CONTINUOUS
 10
58.9657613459
 20
73.2639017098
 40
5.1872524353
100
AcDbArc
 50
273.0000002146
 51
306.307648455
  0
ARC
  5
543
100
AcDbEntity
  8
ASSI
100
AcDbCircle
 62
7
  6
CONTINUOUS
 10
58.9657613459
 20
73.2639017098
 40
5.1872524353
100
AcDbArc
 50
273.0000002146
 51
306.307648455
  0
ARC
  5
544
100
AcDbEntity
  8
RACCORDO
100
AcDbCircle
 62
7
  6
CONTINUOUS
 10
56.9022479201
 20
68.0065482557
 40
0.3000000001
100
AcDbArc
 50
190.4615209044
 51
267.0003041861
  0
ARC
  5
545
100
AcDbEntity
  8
ASSI
100
AcDbCircle
 62
7
  6
CONTINUOUS
 10
56.9022479201
 20
68.0065482557
 40
0.3000000001
100
AcDbArc
 50
190.4615209044
 51
267.0003041861
  0
ARC
  5
546
100
AcDbEntity
  8
RACCORDO
100
AcDbCircle
 62
7
  6
CONTINUOUS
 10
58.9657613459
 20
151.9036147376
 40
5.1872524353
100
AcDbArc
 50
53.6923506758
 51
86.9999996094
  0
ARC
  5
547
100
AcDbEntity
  8
ASSI
100
AcDbCircle
 62
7
  6
CONTINUOUS
 10
58.9657613459
 20
151.9036147376
 40
5.1872524353
100
AcDbArc
 50
53.6923506758
 51
86.9999996094
  0
ARC
  5
548
100
AcDbEntity
  8
RACCORDO
100
AcDbCircle
 62
7
  6
CONTINUOUS
 10
56.9022491701
 20
157.1609747749
 40
0.3
100
AcDbArc
 50
93.0
 51
169.5397588495
  0
ARC
  5
549
100
AcDbEntity
  8
ASSI
100
AcDbCircle
 62
7
  6
CONTINUOUS
 10
56.9022491701
 20
157.1609747749
 40
0.3
100
AcDbArc
 50
93.0
 51
169.5397588495
  0
ARC
  5
54A
100
AcDbEntity
  8
RACCORDO
100
AcDbCircle
 62
7
  6
CONTINUOUS
 10
221.25793293
 20
126.817402015
 40
167.4332498099
100
AcDbArc
 50
169.5397588495
 51
177.1126362258
  0
ARC
  5
54B
100
AcDbEntity
  8
ASSI
100
AcDbCircle
 62
7
  6
CONTINUOUS
 10
221.25793293
 20
126.817402015
 40
167.4332498099
100
AcDbArc
 50
169.5397588495
 51
177.1126362258
  0
ARC
  5
54C
100
AcDbEntity
  8
0
100
AcDbCircle
 62
250
  6
CONTINUOUS
 10
221.25793293
 20
126.817402015
 40
167.4332498099
100
AcDbArc
 50
176.2280584927
 51
177.0077210096
  0
ARC
  5
54D
100
AcDbEntity
  8
RACCORDO
100
AcDbCircle
 62
7
  6
CONTINUOUS
 10
503.4659620458
 20
112.5837582237
 40
450.0
100
AcDbArc
 50
177.1126435736
 51
182.8873564621
  0
ARC
  5
54E
100
AcDbEntity
  8
ASSI
100
AcDbCircle
 62
7
  6
CONTINUOUS
 10
503.4659620458
 20
112.5837582237
 40
450.0
100
AcDbArc
 50
177.1126435736
 51
182.8873564621
  0
ARC
  5
54F
100
AcDbEntity
  8
0
100
AcDbCircle
 62
250
  6
CONTINUOUS
 10
503.4659620458
 20
112.5837582237
 40
450.0
100
AcDbArc
 50
179.5727653499
 51
179.8547615369
  0
ARC
  5
550
100
AcDbEntity
  8
0
100
AcDbCircle
 62
250
  6
CONTINUOUS
 10
503.4659620458
 20
112.5837582237
 40
450.0
100
AcDbArc
 50
179.4456618152
 51
179.5054397356
  0
ARC
  5
551
100
AcDbEntity
  8
0
100
AcDbCircle
 62
250
  6
CONTINUOUS
 10
503.4659620458
 20
112.5837582237
 40
450.0
100
AcDbArc
 50
179.3115426843
 51
179.4095000068
  0
ARC
  5
552
100
AcDbEntity
  8
0
100
AcDbCircle
 62
250
  6
CONTINUOUS
 10
503.4659620458
 20
112.5837582237
 40
450.0
100
AcDbArc
 50
179.0888953009
 51
179.1334258471
  0
ARC
  5
553
100
AcDbEntity
  8
0
100
AcDbCircle
 62
250
  6
CONTINUOUS
 10
503.4659620458
 20
112.5837582237
 40
450.0
100
AcDbArc
 50
178.9187257536
 51
179.0371008243
  0
ARC
  5
554
100
AcDbEntity
  8
0
100
AcDbCircle
 62
250
  6
CONTINUOUS
 10
503.4659620458
 20
112.5837582237
 40
450.0
100
AcDbArc
 50
179.0378425095
 51
179.0622064163
  0
ARC
  5
555
100
AcDbEntity
  8
0
100
AcDbCircle
 62
250
  6
CONTINUOUS
 10
503.4659620458
 20
112.5837582237
 40
450.0
100
AcDbArc
 50
181.0109870885
 51
181.2821707428
  0
ARC
  5
556
100
AcDbEntity
  8
0
100
AcDbCircle
 62
250
  6
CONTINUOUS
 10
503.4659620458
 20
112.5837582237
 40
450.0
100
AcDbArc
 50
178.8365447759
 51
178.8810786697
  0
ARC
  5
557
100
AcDbEntity
  8
0
100
AcDbCircle
 62
250
  6
CONTINUOUS
 10
503.4659620458
 20
112.5837582237
 40
450.0
100
AcDbArc
 50
180.6547480197
 51
180.6992761888
  0
ARC
  5
558
100
AcDbEntity
  8
0
100
AcDbCircle
 62
250
  6
CONTINUOUS
 10
503.4659620458
 20
112.5837582237
 40
450.0
100
AcDbArc
 50
180.4815900285
 51
180.4914810752
  0
ARC
  5
559
100
AcDbEntity
  8
0
100
AcDbCircle
 62
250
  6
CONTINUOUS
 10
503.4659620458
 20
112.5837582237
 40
450.0
100
AcDbArc
 50
180.43953335
 51
180.4809208056
  0
ARC
  5
55A
100
AcDbEntity
  8
0
100
AcDbCircle
 62
250
  6
CONTINUOUS
 10
503.4659620458
 20
112.5837582237
 40
450.0
100
AcDbArc
 50
178.5025158575
 51
178.7152851956
  0
ARC
  5
55B
100
AcDbEntity
  8
0
100
AcDbCircle
 62
250
  6
CONTINUOUS
 10
503.4659620458
 20
112.5837582237
 40
450.0
100
AcDbArc
 50
178.1275299158
 51
178.209801317
  0
ARC
  5
55C
100
AcDbEntity
  8
0
100
AcDbCircle
 62
250
  6
CONTINUOUS
 10
503.4659620458
 20
112.5837582237
 40
450.0
100
AcDbArc
 50
178.0061469249
 51
178.1239600363
  0
ARC
  5
55D
100
AcDbEntity
  8
0
100
AcDbCircle
 62
250
  6
CONTINUOUS
 10
503.4659620458
 20
112.5837582237
 40
450.0
100
AcDbArc
 50
177.4544485266
 51
177.5902711615
  0
ARC
  5
55E
100
AcDbEntity
  8
0
100
AcDbCircle
 62
250
  6
CONTINUOUS
 10
503.4659620458
 20
112.5837582237
 40
450.0
100
AcDbArc
 50
180.5508503649
 51
180.6265429818
  0
ARC
  5
55F
100
AcDbEntity
  8
0
100
AcDbCircle
 62
250
  6
CONTINUOUS
 10
503.4659620458
 20
112.5837582237
 40
450.0
100
AcDbArc
 50
180.9070806283
 51
180.9516116741
  0
ARC
  5
560
100
AcDbEntity
  8
0
100
AcDbCircle
 62
250
  6
CONTINUOUS
 10
503.4659620458
 20
112.5837582237
 40
450.0
100
AcDbArc
 50
180.73691929
 51
180.8853511557
  0
ELLIPSE
  5
561
100
AcDbEntity
  8
RACCORDO
100
AcDbEllipse
 62
7
  6
CONTINUOUS
 10
103.7877415894
 20
68.5851305697
 30
0.0
 11
0.7090462434
 21
0.7090462434
 31
0.0
 40
0.9972646886
 41
-3.9256212891
 42
-2.3575640181
  0
ELLIPSE
  5
562
100
AcDbEntity
  8
RACCORDO
100
AcDbEllipse
 62
7
  6
CONTINUOUS
 10
262.7849968974
 20
68.5851305697
 30
0.0
 11
-0.7090462434
 21
0.7090462434
 31
0.0
 40
0.9972646886
 41
-3.9256212891
 42
-2.3575640181
  0
ELLIPSE
  5
563
100
AcDbEntity
  8
RACCORDO
100
AcDbEllipse
 62
7
  6
CONTINUOUS
 10
262.7849968974
 20
156.5823858777
 30
0.0
 11
0.7090462434
 21
0.7090462434
 31
0.0
 40
0.9972646886
 41
-0.7840286355
 42
0.7840286355
  0
ELLIPSE
  5
564
100
AcDbEntity
  8
RACCORDO
100
AcDbEllipse
 62
7
  6
CONTINUOUS
 10
103.7877415894
 20
156.5823858777
 30
0.0
 11
-0.7090462434
 21
0.7090462434
 31
0.0
 40
0.9972646886
 41
-0.7840286355
 42
0.7840286355
  0
ELLIPSE
  5
565
100
AcDbEntity
  8
0
100
AcDbEllipse
 62
7
  6
CONTINUOUS
 10
169.6852713666
 20
90.6848561005
 30
0.0
 11
0.5672369947
 21
-0.5672369947
 31
0.0
 40
0.9972646886
 41
-0.7840286355
 42
0.7840286355
  0
ELLIPSE
  5
566
100
AcDbEntity
  8
0
100
AcDbEllipse
 62
7
  6
CONTINUOUS
 10
169.6852713666
 20
134.4826603469
 30
0.0
 11
0.5672369947
 21
0.5672369947
 31
0.0
 40
0.9972646886
 41
-0.7840286355
 42
0.7840286355
  0
ELLIPSE
  5
567
100
AcDbEntity
  8
0
100
AcDbEllipse
 62
7
  6
CONTINUOUS
 10
125.8874671202
 20
134.4826603469
 30
0.0
 11
0.5672369947
 21
-0.5672369947
 31
0.0
 40
0.9972646886
 41
2.3575640181
 42
3.9256212891
  0
ELLIPSE
  5
568
100
AcDbEntity
  8
0
100
AcDbEllipse
 62
7
  6
CONTINUOUS
 10
125.8874671202
 20
90.6848561005
 30
0.0
 11
0.5672369947
 21
0.5672369947
 31
0.0
 40
0.9972646886
 41
-3.9256212891
 42
-2.3575640181
  0
ELLIPSE
  5
569
100
AcDbEntity
  8
0
100
AcDbEllipse
 62
7
  6
CONTINUOUS
 10
240.6852713666
 20
90.6848561005
 30
0.0
 11
0.5672369947
 21
-0.5672369947
 31
0.0
 40
0.9972646886
 41
-0.7840286355
 42
0.7840286355
  0
ELLIPSE
  5
56A
100
AcDbEntity
  8
0
100
AcDbEllipse
 62
7
  6
CONTINUOUS
 10
196.8874671202
 20
90.6848561005
 30
0.0
 11
0.5672369947
 21
0.5672369947
 31
0.0
 40
0.9972646886
 41
2.3575640181
 42
3.9256212891
  0
ELLIPSE
  5
56B
100
AcDbEntity
  8
0
100
AcDbEllipse
 62
7
  6
CONTINUOUS
 10
196.8874671202
 20
134.4826603469
 30
0.0
 11
0.5672369947
 21
-0.5672369947
 31
0.0
 40
0.9972646886
 41
2.3575640181
 42
3.9256212891
  0
ELLIPSE
  5
56C
100
AcDbEntity
  8
0
100
AcDbEllipse
 62
7
  6
CONTINUOUS
 10
240.6852713666
 20
134.4826603469
 30
0.0
 11
0.5672369947
 21
0.5672369947
 31
0.0
 40
0.9972646886
 41
-0.7840286355
 42
0.7840286355
  0
ELLIPSE
  5
56D
100
AcDbEntity
  8
ASSI
100
AcDbEllipse
 62
7
  6
CONTINUOUS
 10
103.7877415894
 20
68.5851305697
 30
0.0
 11
0.7090462434
 21
0.7090462434
 31
0.0
 40
0.9972646886
 41
-3.9256212891
 42
-2.3575640181
  0
ELLIPSE
  5
56E
100
AcDbEntity
  8
ASSI
100
AcDbEllipse
 62
7
  6
CONTINUOUS
 10
262.7849968974
 20
68.5851305697
 30
0.0
 11
-0.7090462434
 21
0.7090462434
 31
0.0
 40
0.9972646886
 41
-3.9256212891
 42
-2.3575640181
  0
ELLIPSE
  5
56F
100
AcDbEntity
  8
ASSI
100
AcDbEllipse
 62
7
  6
CONTINUOUS
 10
262.7849968974
 20
156.5823858777
 30
0.0
 11
0.7090462434
 21
0.7090462434
 31
0.0
 40
0.9972646886
 41
-0.7840286355
 42
0.7840286355
  0
ELLIPSE
  5
570
100
AcDbEntity
  8
ASSI
100
AcDbEllipse
 62
7
  6
CONTINUOUS
 10
103.7877415894
 20
156.5823858777
 30
0.0
 11
-0.7090462434
 21
0.7090462434
 31
0.0
 40
0.9972646886
 41
-0.7840286355
 42
0.7840286355
  0
ELLIPSE
  5
571
100
AcDbEntity
  8
ASSI
100
AcDbEllipse
 62
7
  6
CONTINUOUS
 10
169.6852713666
 20
90.6848561005
 30
0.0
 11
0.5672369947
 21
-0.5672369947
 31
0.0
 40
0.9972646886
 41
-0.7840286355
 42
0.7840286355
  0
ELLIPSE
  5
572
100
AcDbEntity
  8
ASSI
100
AcDbEllipse
 62
7
  6
CONTINUOUS
 10
169.6852713666
 20
134.4826603469
 30
0.0
 11
0.5672369947
 21
0.5672369947
 31
0.0
 40
0.9972646886
 41
-0.7840286355
 42
0.7840286355
  0
ELLIPSE
  5
573
100
AcDbEntity
  8
ASSI
100
AcDbEllipse
 62
7
  6
CONTINUOUS
 10
125.8874671202
 20
134.4826603469
 30
0.0
 11
0.5672369947
 21
-0.5672369947
 31
0.0
 40
0.9972646886
 41
2.3575640181
 42
3.9256212891
  0
ELLIPSE
  5
574
100
AcDbEntity
  8
ASSI
100
AcDbEllipse
 62
7
  6
CONTINUOUS
 10
125.8874671202
 20
90.6848561005
 30
0.0
 11
0.5672369947
 21
0.5672369947
 31
0.0
 40
0.9972646886
 41
-3.9256212891
 42
-2.3575640181
  0
ELLIPSE
  5
575
100
AcDbEntity
  8
ASSI
100
AcDbEllipse
 62
7
  6
CONTINUOUS
 10
240.6852713666
 20
90.6848561005
 30
0.0
 11
0.5672369947
 21
-0.5672369947
 31
0.0
 40
0.9972646886
 41
-0.7840286355
 42
0.7840286355
  0
ELLIPSE
  5
576
100
AcDbEntity
  8
ASSI
100
AcDbEllipse
 62
7
  6
CONTINUOUS
 10
196.8874671202
 20
90.6848561005
 30
0.0
 11
0.5672369947
 21
0.5672369947
 31
0.0
 40
0.9972646886
 41
2.3575640181
 42
3.9256212891
  0
ELLIPSE
  5
577
100
AcDbEntity
  8
ASSI
100
AcDbEllipse
 62
7
  6
CONTINUOUS
 10
196.8874671202
 20
134.4826603469
 30
0.0
 11
0.5672369947
 21
-0.5672369947
 31
0.0
 40
0.9972646886
 41
2.3575640181
 42
3.9256212891
  0
ELLIPSE
  5
578
100
AcDbEntity
  8
ASSI
100
AcDbEllipse
 62
7
  6
CONTINUOUS
 10
240.6852713666
 20
134.4826603469
 30
0.0
 11
0.5672369947
 21
0.5672369947
 31
0.0
 40
0.9972646886
 41
-0.7840286355
 42
0.7840286355
  0
ELLIPSE
  5
579
100
AcDbEntity
  8
0
100
AcDbEllipse
 62
250
  6
CONTINUOUS
 10
503.4659620458
 20
112.5837582237
 30
0.0
 11
450.0
 21
0.0
 31
0.0
 40
1.0
 41
3.1340781384
 42
3.1341360023
  0
ELLIPSE
  5
57A
100
AcDbEntity
  8
0
100
AcDbEllipse
 62
250
  6
CONTINUOUS
 10
503.4659620458
 20
112.5837582237
 30
0.0
 11
450.0
 21
0.0
 31
0.0
 40
1.0
 41
3.1389999018
 42
3.1390577642
  0
ELLIPSE
  5
57B
100
AcDbEntity
  8
0
100
AcDbEllipse
 62
250
  6
CONTINUOUS
 10
503.4659620458
 20
112.5837582237
 30
0.0
 11
450.0
 21
0.0
 31
0.0
 40
1.0
 41
3.1364415464
 42
3.1369275944
  0
ELLIPSE
  5
57C
100
AcDbEntity
  8
0
100
AcDbEllipse
 62
250
  6
CONTINUOUS
 10
503.4659620458
 20
112.5837582237
 30
0.0
 11
450.0
 21
0.0
 31
0.0
 40
1.0
 41
3.1356644233
 42
3.1361504756
  0
ELLIPSE
  5
57D
100
AcDbEntity
  8
0
100
AcDbEllipse
 62
250
  6
CONTINUOUS
 10
503.4659620458
 20
112.5837582237
 30
0.0
 11
450.0
 21
0.0
 31
0.0
 40
1.0
 41
-3.1192840054
 42
-3.1192145526
  0
ELLIPSE
  5
57E
100
AcDbEntity
  8
0
100
AcDbEllipse
 62
250
  6
CONTINUOUS
 10
503.4659620458
 20
112.5837582237
 30
0.0
 11
0.0
 21
450.0
 31
0.0
 40
1.0
 41
7.84313153
 42
7.845349929
  0
ELLIPSE
  5
57F
100
AcDbEntity
  8
0
100
AcDbEllipse
 62
250
  6
CONTINUOUS
 10
503.4659620458
 20
112.5837582237
 30
0.0
 11
-0.0
 21
450.0
 31
0.0
 40
1.0
 41
7.840078495
 42
7.8425097312
  0
ELLIPSE
  5
580
100
AcDbEntity
  8
0
100
AcDbEllipse
 62
250
  6
CONTINUOUS
 10
503.4659620458
 20
112.5837582237
 30
0.0
 11
450.0
 21
0.0
 31
0.0
 40
1.0
 41
3.1212865292
 42
3.1264680814
  0
ELLIPSE
  5
581
100
AcDbEntity
  8
0
100
AcDbEllipse
 62
250
  6
CONTINUOUS
 10
503.4659620458
 20
112.5837582237
 30
0.0
 11
450.0
 21
0.0
 31
0.0
 40
1.0
 41
3.1165465484
 42
3.1167086122
  0
ELLIPSE
  5
582
100
AcDbEntity
  8
0
100
AcDbEllipse
 62
250
  6
CONTINUOUS
 10
503.4659620458
 20
112.5837582237
 30
0.0
 11
450.0
 21
0.0
 31
0.0
 40
1.0
 41
3.1163034492
 42
3.116477091
  0
ELLIPSE
  5
583
100
AcDbEntity
  8
0
100
AcDbEllipse
 62
250
  6
CONTINUOUS
 10
503.4659620458
 20
112.5837582237
 30
0.0
 11
450.0
 21
0.0
 31
0.0
 40
1.0
 41
-3.1312013533
 42
-3.1306574157
  0
ELLIPSE
  5
584
100
AcDbEntity
  8
0
100
AcDbEllipse
 62
250
  6
CONTINUOUS
 10
503.4659620458
 20
112.5837582237
 30
0.0
 11
-0.0
 21
450.0
 31
0.0
 40
1.0
 41
1.5477696786
 42
1.549870533
  0
ELLIPSE
  5
585
100
AcDbEntity
  8
0
100
AcDbEllipse
 62
250
  6
CONTINUOUS
 10
503.4659620458
 20
112.5837582237
 30
0.0
 11
450.0
 21
0.0
 31
0.0
 40
1.0
 41
3.1154566248
 42
3.1160007135
  0
ELLIPSE
  5
586
100
AcDbEntity
  8
0
100
AcDbEllipse
 62
250
  6
CONTINUOUS
 10
503.4659620458
 20
112.5837582237
 30
0.0
 11
0.0
 21
450.0
 31
0.0
 40
1.0
 41
1.531108938
 42
1.5342196405
  0
ELLIPSE
  5
587
100
AcDbEntity
  8
0
100
AcDbEllipse
 62
250
  6
CONTINUOUS
 10
503.4659620458
 20
112.5837582237
 30
0.0
 11
0.0
 21
450.0
 31
0.0
 40
1.0
 41
1.5288044018
 42
1.5293312234
  0
ELLIPSE
  5
588
100
AcDbEntity
  8
0
100
AcDbEllipse
 62
250
  6
CONTINUOUS
 10
503.4659620458
 20
112.5837582237
 30
0.0
 11
0.0
 21
450.0
 31
0.0
 40
1.0
 41
7.8089607024
 42
7.8119821838
  0
ELLIPSE
  5
589
100
AcDbEntity
  8
0
100
AcDbEllipse
 62
250
  6
CONTINUOUS
 10
503.4659620458
 20
112.5837582237
 30
0.0
 11
450.0
 21
0.0
 31
0.0
 40
1.0
 41
-3.131978501
 42
-3.1314345678
  0
ELLIPSE
  5
58A
100
AcDbEntity
  8
0
100
AcDbEllipse
 62
250
  6
CONTINUOUS
 10
503.4659620458
 20
112.5837582237
 30
0.0
 11
0.0
 21
450.0
 31
0.0
 40
1.0
 41
1.5776744855
 42
1.5796613918
  0
ELLIPSE
  5
58B
100
AcDbEntity
  8
0
100
AcDbEllipse
 62
250
  6
CONTINUOUS
 10
503.4659620458
 20
112.5837582237
 30
0.0
 11
0.0
 21
450.0
 31
0.0
 40
1.0
 41
-4.6960325628
 42
-4.6957802235
  0
ELLIPSE
  5
58C
100
AcDbEntity
  8
0
100
AcDbEllipse
 62
250
  6
CONTINUOUS
 10
503.4659620458
 20
112.5837582237
 30
0.0
 11
450.0
 21
0.0
 31
0.0
 40
1.0
 41
-3.1239476002
 42
-3.1234036062
  0
ELLIPSE
  5
58D
100
AcDbEntity
  8
0
100
AcDbEllipse
 62
250
  6
CONTINUOUS
 10
503.4659620458
 20
112.5837582237
 30
0.0
 11
0.0
 21
450.0
 31
0.0
 40
1.0
 41
1.5822238355
 42
1.587149529
  0
ELLIPSE
  5
58E
100
AcDbEntity
  8
0
100
AcDbEllipse
 62
250
  6
CONTINUOUS
 10
503.4659620458
 20
112.5837582237
 30
0.0
 11
450.0
 21
0.0
 31
0.0
 40
1.0
 41
-3.1231009153
 42
-3.122626361
  0
ELLIPSE
  5
58F
100
AcDbEntity
  8
0
100
AcDbEllipse
 62
250
  6
CONTINUOUS
 10
503.4659620458
 20
112.5837582237
 30
0.0
 11
450.0
 21
0.0
 31
0.0
 40
1.0
 41
3.1403965533
 42
3.1405817112
  0
ELLIPSE
  5
590
100
AcDbEntity
  8
0
100
AcDbEllipse
 62
250
  6
CONTINUOUS
 10
503.4659620458
 20
112.5837582237
 30
0.0
 11
450.0
 21
0.0
 31
0.0
 40
1.0
 41
3.1395500055
 42
3.140093913
  0
ENDSEC
  0
SECTION
  2
OBJECTS
  0
DICTIONARY
  5
C
100
AcDbDictionary
280
0
281
1
  3
ACAD_GROUP
350
D
  3
ACAD_MLINESTYLE
350
17
  3
ACAD_LAYOUT
350
1A
  3
ACAD_PLOTSETTINGS
350
19
  3
ACAD_PLOTSTYLENAME
350
E
  0
DICTIONARY
  5
D
102
{ACAD_REACTORS
330
C
102
}
100
AcDbDictionary
280
0
281
1
  0
ACDBDICTIONARYWDFLT
  5
E
102
{ACAD_REACTORS
330
C
102
}
100
AcDbDictionary
281
1
  3
Normal
350
F
100
AcDbDictionaryWithDefault
340
F
  0
DICTIONARY
  5
17
102
{ACAD_REACTORS
330
C
102
}
100
AcDbDictionary
280
0
281
1
  3
Standard
350
18
  0
DICTIONARY
  5
19
102
{ACAD_REACTORS
330
C
102
}
100
AcDbDictionary
281
1
  0
DICTIONARY
  5
1A
102
{ACAD_REACTORS
330
C
102
}
100
AcDbDictionary
281
1
  3
Model
350
591
  3
Layout1
350
592
  0
ACDBPLACEHOLDER
  5
F
102
{ACAD_REACTORS
330
E
102
}
  0
MLINESTYLE
  5
18
102
{ACAD_REACTORS
330
17
102
}
100
AcDbMlineStyle
  2
STANDARD
 70
0
  3

 62
256
 51
90.0
 52
90.0
 71
2
 49
0.5
 62
256
  6
BYLAYER
 49
-0.5
 62
256
  6
BYLAYER
  0
LAYOUT
  5
591
102
{ACAD_REACTORS
330
1A
102
}
100
AcDbPlotSettings
  1

  2
none_device
  4
ISO_A4_(297.00_x_210.00_MM)
  6

 40
0.0
 41
0.0
 42
0.0
 43
0.0
 44
297.0
 45
210.0
 46
0.0
 47
0.0
 48
0.0
 49
0.0
140
0.0
141
0.0
142
1.0
143
1.0
 70
1024
 72
1
 73
0
 74
0
  7

 75
0
147
1.0
148
0.0
149
0.0
100
AcDbLayout
  1
Model
 70
0
 71
0
 10
0.0
 20
0.0
 11
297.0
 21
210.0
 12
0.0
 22
0.0
 32
0.0
 14
0.0
 24
0.0
 34
0.0
 15
0.0
 25
0.0
 35
0.0
146
0.0
 13
0.0
 23
0.0
 33
0.0
 16
1.0
 26
0.0
 36
0.0
 17
0.0
 27
1.0
 37
0.0
 76
0
330
215
345
0
346
0
  0
LAYOUT
  5
592
102
{ACAD_REACTORS
330
1A
102
}
100
AcDbPlotSettings
  1

  2
none_device
  4
ISO_A4_(297.00_x_210.00_MM)
  6

 40
0.0
 41
0.0
 42
0.0
 43
0.0
 44
297.0
 45
210.0
 46
0.0
 47
0.0
 48
0.0
 49
0.0
140
0.0
141
0.0
142
1.0
143
1.0
 70
0
 72
1
 73
0
 74
0
  7

 75
0
147
1.0
148
0.0
149
0.0
100
AcDbLayout
  1
Layout1
 70
0
 71
1
 10
0.0
 20
0.0
 11
297.0
 21
210.0
 12
0.0
 22
0.0
 32
0.0
 14
0.0
 24
0.0
 34
0.0
 15
0.0
 25
0.0
 35
0.0
146
0.0
 13
0.0
 23
0.0
 33
0.0
 16
1.0
 26
0.0
 36
0.0
 17
0.0
 27
1.0
 37
0.0
 76
0
330
216
345
0
346
0
  0
ENDSEC
  0
EOF
