  0
SECTION
  2
HEADER
  9
$ACADVER
  1
AC1024
  9
$DWGCODEPAGE
  3
ANSI_1252
  9
$EXTMAX
 10
297.0
 20
210.0
 30
0.0
  9
$EXTMIN
 10
0.0
 20
0.0
 30
0.0
  9
$LIMMIN
 10
0.0
 20
0.0
  9
$LIMMAX
 10
297.0
 20
210.0
  9
$VIEWCTR
 10
148.5
 20
105.0
  9
$VIEWSIZE
 40
210.0
  9
$CLAYER
  8
0
  9
$LTSCALE
 40
16.335
  9
$CELTYPE
  6
BYLAYER
  9
$DIMSCALE
 40
1.0
  9
$DIMASZ
 40
3.0
  9
$DIMEXO
 40
0.5
  9
$DIMDLI
 40
11.286
  9
$DIMEXE
 40
1.5
  9
$DIMCEN
 40
2.673
  9
$DIMLFAC
 40
1.0
  9
$DIMBLK
  1
_FILLED
  9
$DIMALT
 70
0
  9
$DIMALTF
 40
0.0393700787
  9
$DIMTXT
 40
3.0
  9
$DIMTOL
 70
1
  9
$DIMLIM
 70
0
  9
$DIMTFAC
 40
1.0
  9
$DIMTP
 40
0.01
  9
$DIMTM
 40
0.01
  9
$DIMGAP
 40
0.625
  9
$DIMDSEP
 70
44
  9
$AUNITS
 70
0
  9
$PDMODE
 70
3
  9
$PDSIZE
 40
3.0
  9
$HANDSEED
  5
3C7
  9
$TILEMODE
 70
1
  9
$MEASUREMENT
 70
1
  9
$INSUNITS
 70
4
  0
ENDSEC
  0
SECTION
  2
CLASSES
  0
CLASS
  1
ACDBDICTIONARYWDFLT
  2
AcDbDictionaryWithDefault
  3
AutoCAD 2000
 90
0
 91
1
280
0
281
0
  0
CLASS
  1
ACDBPLACEHOLDER
  2
AcDbPlaceHolder
  3
AutoCAD 2000
 90
0
 91
1
280
0
281
0
  0
CLASS
  1
LAYOUT
  2
AcDbLayout
  3
AutoCAD 2000
 90
0
 91
0
280
0
281
0
  0
ENDSEC
  0
SECTION
  2
TABLES
  0
TABLE
  2
VPORT
  5
8
100
AcDbSymbolTable
 70
2
  0
VPORT
  5
1F4
100
AcDbSymbolTableRecord
100
AcDbViewportTableRecord
  2
*ACTIVE
 70
0
 10
0.0
 20
0.0
 11
1.0
 21
1.0
 12
148.5
 22
105.0
 13
0.0
 23
0.0
 14
1.0
 24
1.0
 15
0.0
 25
0.0
 16
0.0
 26
0.0
 36
1.0
 17
0.0
 27
0.0
 37
0.0
 40
210.0
 41
1.4142857143
 42
50.0
 43
0.0
 44
0.0
 50
0.0
 51
0.0
 71
0
 72
100
 73
1
 74
1
 75
0
 76
0
 77
0
 78
0
  0
ENDTAB
  0
TABLE
  2
LTYPE
  5
5
100
AcDbSymbolTable
 70
6
  0
LTYPE
  5
14
100
AcDbSymbolTableRecord
100
AcDbLinetypeTableRecord
  2
BYBLOCK
 70
0
  3

 72
65
 73
0
 40
0.0
  0
LTYPE
  5
15
100
AcDbSymbolTableRecord
100
AcDbLinetypeTableRecord
  2
BYLAYER
 70
0
  3

 72
65
 73
0
 40
0.0
  0
LTYPE
  5
16
100
AcDbSymbolTableRecord
100
AcDbLinetypeTableRecord
  2
CONTINUOUS
 70
64
  3
Solid line
 72
65
 73
0
 40
0.0
  0
LTYPE
  5
1F5
100
AcDbSymbolTableRecord
100
AcDbLinetypeTableRecord
  2
CENTER
 70
64
  3
____ _ ____ _ ____ _ ____ _ ____ _ ____ _ ____
 72
65
 73
4
 40
0.6
 49
0.375
 74
0
 49
-0.075
 74
0
 49
0.075
 74
0
 49
-0.075
 74
0
  0
LTYPE
  5
1F6
100
AcDbSymbolTableRecord
100
AcDbLinetypeTableRecord
  2
HIDDEN
 70
64
  3
- - - - - - - - - - - - - - - - - - - -
 72
65
 73
2
 40
0.2
 49
0.1
 74
0
 49
-0.1
 74
0
  0
LTYPE
  5
1F7
100
AcDbSymbolTableRecord
100
AcDbLinetypeTableRecord
  2
PHANTOM
 70
64
  3
_____ _ _ _____ _ _ _____ _ _ _____
 72
65
 73
6
 40
0.8
 49
0.45
 74
0
 49
-0.05
 74
0
 49
0.1
 74
0
 49
-0.05
 74
0
 49
0.1
 74
0
 49
-0.05
 74
0
  0
LTYPE
  5
1F8
100
AcDbSymbolTableRecord
100
AcDbLinetypeTableRecord
  2
DOT
 70
64
  3
. . . . . . . . . . . . . . . . . . . .
 72
65
 73
2
 40
0.2
 49
0.1
 74
0
 49
-0.1
 74
0
  0
LTYPE
  5
1F9
100
AcDbSymbolTableRecord
100
AcDbLinetypeTableRecord
  2
DASHED
 70
64
  3
- - - - - - - - - - - - - - - - - - - -
 72
65
 73
2
 40
0.2
 49
0.1
 74
0
 49
-0.1
 74
0
  0
ENDTAB
  0
TABLE
  2
LAYER
  5
2
100
AcDbSymbolTable
 70
36
  0
LAYER
  5
10
100
AcDbSymbolTableRecord
100
AcDbLayerTableRecord
  2
0
 70
0
 62
7
  6
CONTINUOUS
370
-3
390
F
  0
LAYER
  5
1FA
100
AcDbSymbolTableRecord
100
AcDbLayerTableRecord
  2
DEFAULT_1
 70
0
 62
7
  6
CENTER
370
-3
390
F
  0
LAYER
  5
1FB
100
AcDbSymbolTableRecord
100
AcDbLayerTableRecord
  2
DEFAULT_2
 70
0
 62
7
  6
HIDDEN
370
-3
390
F
  0
LAYER
  5
1FC
100
AcDbSymbolTableRecord
100
AcDbLayerTableRecord
  2
DEFAULT_3
 70
0
 62
7
  6
PHANTOM
370
-3
390
F
  0
LAYER
  5
1FD
100
AcDbSymbolTableRecord
100
AcDbLayerTableRecord
  2
ASSI
 70
0
 62
7
  6
CONTINUOUS
370
-3
390
F
  0
LAYER
  5
1FE
100
AcDbSymbolTableRecord
100
AcDbLayerTableRecord
  2
COORDINATE
 70
0
 62
7
  6
CONTINUOUS
370
-3
390
F
  0
LAYER
  5
1FF
100
AcDbSymbolTableRecord
100
AcDbLayerTableRecord
  2
COPY_PUBLISH
 70
0
 62
7
  6
CONTINUOUS
370
-3
390
F
  0
LAYER
  5
200
100
AcDbSymbolTableRecord
100
AcDbLayerTableRecord
  2
COSMETICI
 70
0
 62
7
  6
CONTINUOUS
370
-3
390
F
  0
LAYER
  5
201
100
AcDbSymbolTableRecord
100
AcDbLayerTableRecord
  2
COSTOLE_APPOGGIO
 70
0
 62
7
  6
CONTINUOUS
370
-3
390
F
  0
LAYER
  5
202
100
AcDbSymbolTableRecord
100
AcDbLayerTableRecord
  2
CURVE
 70
0
 62
7
  6
CONTINUOUS
370
-3
390
F
  0
LAYER
  5
203
100
AcDbSymbolTableRecord
100
AcDbLayerTableRecord
  2
DRAFT
 70
0
 62
7
  6
CONTINUOUS
370
-3
390
F
  0
LAYER
  5
204
100
AcDbSymbolTableRecord
100
AcDbLayerTableRecord
  2
IMPORT_IGES
 70
0
 62
7
  6
CONTINUOUS
370
-3
390
F
  0
LAYER
  5
205
100
AcDbSymbolTableRecord
100
AcDbLayerTableRecord
  2
INTF_1
 70
0
 62
7
  6
CONTINUOUS
370
-3
390
F
  0
LAYER
  5
206
100
AcDbSymbolTableRecord
100
AcDbLayerTableRecord
  2
NOTE
 70
0
 62
7
  6
CONTINUOUS
370
-3
390
F
  0
LAYER
  5
207
100
AcDbSymbolTableRecord
100
AcDbLayerTableRecord
  2
PIANI
 70
0
 62
7
  6
CONTINUOUS
370
-3
390
F
  0
LAYER
  5
208
100
AcDbSymbolTableRecord
100
AcDbLayerTableRecord
  2
PUNTI
 70
0
 62
7
  6
CONTINUOUS
370
-3
390
F
  0
LAYER
  5
209
100
AcDbSymbolTableRecord
100
AcDbLayerTableRecord
  2
RACCORDO
 70
0
 62
7
  6
CONTINUOUS
370
-3
390
F
  0
LAYER
  5
20A
100
AcDbSymbolTableRecord
100
AcDbLayerTableRecord
  2
RGB____0____0____0__
 70
0
 62
7
  6
CONTINUOUS
370
-3
390
F
  0
LAYER
  5
20B
100
AcDbSymbolTableRecord
100
AcDbLayerTableRecord
  2
SIMBOLI
 70
0
 62
7
  6
CONTINUOUS
370
-3
390
F
  0
LAYER
  5
20C
100
AcDbSymbolTableRecord
100
AcDbLayerTableRecord
  2
SMUSSO
 70
0
 62
7
  6
CONTINUOUS
370
-3
390
F
  0
LAYER
  5
20D
100
AcDbSymbolTableRecord
100
AcDbLayerTableRecord
  2
SNAPLINE
 70
0
 62
7
  6
CONTINUOUS
370
-3
390
F
  0
LAYER
  5
20E
100
AcDbSymbolTableRecord
100
AcDbLayerTableRecord
  2
SUPERFICI
 70
0
 62
7
  6
CONTINUOUS
370
-3
390
F
  0
LAYER
  5
20F
100
AcDbSymbolTableRecord
100
AcDbLayerTableRecord
  2
TRASH
 70
0
 62
7
  6
CONTINUOUS
370
-3
390
F
  0
LAYER
  5
210
100
AcDbSymbolTableRecord
100
AcDbLayerTableRecord
  2
XSEC_DATUMS
 70
0
 62
7
  6
CONTINUOUS
370
-3
390
F
  0
ENDTAB
  0
TABLE
  2
STYLE
  5
3
100
AcDbSymbolTable
 70
1
  0
STYLE
  5
11
100
AcDbSymbolTableRecord
100
AcDbTextStyleTableRecord
  2
STANDARD
 70
0
 40
0.0
 41
0.8
 50
0.0
 71
0
 42
0.2
  3
txt
  4

  0
STYLE
  5
211
100
AcDbSymbolTableRecord
100
AcDbTextStyleTableRecord
  2
TEXTSTYLE_1
 70
0
 40
0.0
 41
0.8
 50
0.0
 71
0
 42
0.2
  3
gdt
  4

  0
ENDTAB
  0
TABLE
  2
VIEW
  5
6
100
AcDbSymbolTable
 70
0
  0
ENDTAB
  0
TABLE
  2
UCS
  5
7
100
AcDbSymbolTable
 70
0
  0
ENDTAB
  0
TABLE
  2
APPID
  5
9
100
AcDbSymbolTable
 70
1
  0
APPID
  5
212
100
AcDbSymbolTableRecord
100
AcDbRegAppTableRecord
  2
ACAD
 70
0
  0
ENDTAB
  0
TABLE
  2
BLOCK_RECORD
  5
1
100
AcDbSymbolTable
 70
0
  0
BLOCK_RECORD
  5
213
100
AcDbSymbolTableRecord
100
AcDbBlockTableRecord
  2
*Model_Space
  0
BLOCK_RECORD
  5
214
100
AcDbSymbolTableRecord
100
AcDbBlockTableRecord
  2
*Paper_Space
  0
BLOCK_RECORD
  5
215
100
AcDbSymbolTableRecord
100
AcDbBlockTableRecord
  2
_FILLED
  0
BLOCK_RECORD
  5
216
100
AcDbSymbolTableRecord
100
AcDbBlockTableRecord
  2
*D0
  0
BLOCK_RECORD
  5
217
100
AcDbSymbolTableRecord
100
AcDbBlockTableRecord
  2
*D1
  0
BLOCK_RECORD
  5
218
100
AcDbSymbolTableRecord
100
AcDbBlockTableRecord
  2
*D2
  0
ENDTAB
  0
TABLE
  2
DIMSTYLE
  5
A
100
AcDbSymbolTable
 70
1
100
AcDbDimStyleTable
 71
0
  0
DIMSTYLE
105
219
100
AcDbSymbolTableRecord
100
AcDbDimStyleTableRecord
  2
STANDARD
 70
0
  3

  4

 40
1.0
 41
3.0
 42
0.5
 43
0.38
 44
1.5
 45
0.0
 46
0.0
 47
0.01
 48
0.01
140
3.0
141
0.09
142
0.0
143
25.4
144
1.0
145
0.0
146
1.0
147
0.625
 71
1.0
 72
0.0
 73
0
 74
0
 75
0
 76
0
 77
1
 78
8
 79
2
170
0
171
1
172
0
173
0
174
0
175
0
176
0
177
0
178
0
270
2
179
2
271
2
272
2
273
2
274
2
275
0
280
0
281
0
282
0
283
1
284
8
285
0
286
0
287
3
288
0
340
11
278
44
341
215
342
215
343
215
344
215
  0
DIMSTYLE
105
21A
100
AcDbSymbolTableRecord
100
AcDbDimStyleTableRecord
  2
DIMSTYLE_1
 70
0
  3

  4

 40
1.0
 41
3.0
 42
0.5
 43
0.38
 44
1.5
 45
0.0
 46
0.0
 47
0.0
 48
0.0
140
3.0
141
0.09
142
0.0
143
25.4
144
1.0
145
0.0
146
1.0
147
0.75
 71
0.0
 72
0.0
 73
0
 74
0
 75
0
 76
0
 77
1
 78
8
 79
2
170
0
171
1
172
0
173
0
174
0
175
0
176
0
177
0
178
0
270
2
179
2
271
1
272
1
273
2
274
2
275
0
280
0
281
0
282
0
283
1
284
8
285
0
286
0
287
3
288
0
340
11
278
44
341
215
342
215
343
215
344
215
  0
DIMSTYLE
105
21B
100
AcDbSymbolTableRecord
100
AcDbDimStyleTableRecord
  2
DIMSTYLE_2
 70
0
  3

  4

 40
1.0
 41
3.0
 42
0.5
 43
0.38
 44
1.5
 45
0.0
 46
0.0
 47
0.0
 48
0.0
140
3.0
141
0.09
142
0.0
143
25.4
144
1.0
145
0.0
146
1.0
147
0.75
 71
0.0
 72
0.0
 73
0
 74
0
 75
0
 76
0
 77
1
 78
8
 79
2
170
0
171
1
172
0
173
0
174
0
175
0
176
0
177
0
178
0
270
2
179
2
271
2
272
2
273
2
274
2
275
0
280
0
281
0
282
0
283
1
284
8
285
0
286
0
287
3
288
0
340
11
278
44
341
215
342
215
343
215
344
215
  0
ENDTAB
  0
ENDSEC
  0
SECTION
  2
BLOCKS
  0
BLOCK
  5
20
100
AcDbEntity
  8
0
100
AcDbBlockBegin
  2
*Model_Space
 70
0
 10
0.0
 20
0.0
 30
0.0
  3
*Model_Space
  1

  0
ENDBLK
  5
21
100
AcDbEntity
  8
0
100
AcDbBlockEnd
  0
BLOCK
  5
1C
100
AcDbEntity
  8
0
100
AcDbBlockBegin
  2
*Paper_Space
 70
0
 10
0.0
 20
0.0
 30
0.0
  3
*Paper_Space
  1

  0
ENDBLK
  5
1D
100
AcDbEntity
  8
0
100
AcDbBlockEnd
  0
BLOCK
  5
21C
100
AcDbEntity
  8
0
100
AcDbBlockBegin
  2
_FILLED
 70
64
 10
0.0
 20
0.0
  3
_FILLED
  1

  0
SOLID
  5
21D
100
AcDbEntity
  8
0
  6
BYBLOCK
 62
0
100
AcDbTrace
 10
0.0
 20
0.0
 11
-1.0
 21
0.3166666667
 12
-1.0
 22
-0.3166666667
 13
-1.0
 23
-0.3166666667
  0
ENDBLK
  5
21E
100
AcDbEntity
  8
0
  6
BYBLOCK
 62
0
100
AcDbBlockEnd
  0
BLOCK
  5
21F
100
AcDbEntity
  8
0
100
AcDbBlockBegin
 62
7
  6
CONTINUOUS
  2
*D0
 70
65
 10
0.0
 20
0.0
  3
*D0
  1

  0
LINE
  5
220
100
AcDbEntity
  8
0
100
AcDbLine
 62
7
  6
CONTINUOUS
 10
23.8857561056
 20
137.7652628577
 11
23.8857561056
 21
180.8398151529
  0
LINE
  5
221
100
AcDbEntity
  8
0
100
AcDbLine
 62
7
  6
CONTINUOUS
 10
15.3176445087
 20
115.3918585526
 11
15.3176445087
 21
180.8398151529
  0
LINE
  5
222
100
AcDbEntity
  8
0
100
AcDbLine
 62
7
  6
CONTINUOUS
 10
23.8857561056
 20
179.3398151529
 11
19.6017003072
 21
179.3398151529
  0
LINE
  5
223
100
AcDbEntity
  8
0
100
AcDbLine
 62
7
  6
CONTINUOUS
 10
19.6017003072
 20
179.3398151529
 11
34.3687159373
 21
179.3398151529
  0
LINE
  5
224
100
AcDbEntity
  8
0
100
AcDbLine
 62
7
  6
CONTINUOUS
 10
15.3176445087
 20
179.3398151529
 11
19.6017003072
 21
179.3398151529
  0
INSERT
  5
225
100
AcDbEntity
  8
0
100
AcDbBlockReference
 62
7
  6
CONTINUOUS
  2
_FILLED
 10
23.8857561056
 20
179.3398151529
 41
3.0
 42
3.0
 43
3.0
  0
INSERT
  5
226
100
AcDbEntity
  8
0
100
AcDbBlockReference
 62
7
  6
CONTINUOUS
  2
_FILLED
 10
15.3176445087
 20
179.3398151529
 41
3.0
 42
3.0
 43
3.0
 50
180.0
  0
ENDBLK
  5
227
100
AcDbEntity
  8
0
  6
BYBLOCK
 62
0
100
AcDbBlockEnd
  0
BLOCK
  5
228
100
AcDbEntity
  8
0
100
AcDbBlockBegin
 62
7
  6
CONTINUOUS
  2
*D1
 70
65
 10
0.0
 20
0.0
  3
*D1
  1

  0
LINE
  5
229
100
AcDbEntity
  8
0
100
AcDbLine
 62
7
  6
CONTINUOUS
 10
38.6824115954
 20
159.5918585526
 11
38.6824115954
 21
181.1975203734
  0
LINE
  5
22A
100
AcDbEntity
  8
0
100
AcDbLine
 62
7
  6
CONTINUOUS
 10
270.6824115954
 20
159.5918585526
 11
270.6824115954
 21
181.1975203734
  0
LINE
  5
22B
100
AcDbEntity
  8
0
100
AcDbLine
 62
7
  6
CONTINUOUS
 10
38.6824115954
 20
179.6975203734
 11
154.6824115954
 21
179.6975203734
  0
LINE
  5
22C
100
AcDbEntity
  8
0
100
AcDbLine
 62
7
  6
CONTINUOUS
 10
270.6824115954
 20
179.6975203734
 11
154.6824115954
 21
179.6975203734
  0
INSERT
  5
22D
100
AcDbEntity
  8
0
100
AcDbBlockReference
 62
7
  6
CONTINUOUS
  2
_FILLED
 10
38.6824115954
 20
179.6975203734
 41
3.0
 42
3.0
 43
3.0
 50
180.0
  0
INSERT
  5
22E
100
AcDbEntity
  8
0
100
AcDbBlockReference
 62
7
  6
CONTINUOUS
  2
_FILLED
 10
270.6824115954
 20
179.6975203734
 41
3.0
 42
3.0
 43
3.0
  0
ENDBLK
  5
22F
100
AcDbEntity
  8
0
  6
BYBLOCK
 62
0
100
AcDbBlockEnd
  0
BLOCK
  5
230
100
AcDbEntity
  8
0
100
AcDbBlockBegin
 62
7
  6
CONTINUOUS
  2
*D2
 70
65
 10
0.0
 20
0.0
  3
*D2
  1

  0
LINE
  5
231
100
AcDbEntity
  8
0
100
AcDbLine
 62
7
  6
CONTINUOUS
 10
270.3824115954
 20
159.8918585526
 11
291.1824115954
 21
159.8918585526
  0
LINE
  5
232
100
AcDbEntity
  8
0
100
AcDbLine
 62
7
  6
CONTINUOUS
 10
270.3824115954
 20
69.8918585526
 11
291.1824115954
 21
69.8918585526
  0
LINE
  5
233
100
AcDbEntity
  8
0
100
AcDbLine
 62
7
  6
CONTINUOUS
 10
289.6824115954
 20
159.8918585526
 11
289.6824115954
 21
114.8918585526
  0
LINE
  5
234
100
AcDbEntity
  8
0
100
AcDbLine
 62
7
  6
CONTINUOUS
 10
289.6824115954
 20
69.8918585526
 11
289.6824115954
 21
114.8918585526
  0
INSERT
  5
235
100
AcDbEntity
  8
0
100
AcDbBlockReference
 62
7
  6
CONTINUOUS
  2
_FILLED
 10
289.6824115954
 20
159.8918585526
 41
3.0
 42
3.0
 43
3.0
 50
90.0
  0
INSERT
  5
236
100
AcDbEntity
  8
0
100
AcDbBlockReference
 62
7
  6
CONTINUOUS
  2
_FILLED
 10
289.6824115954
 20
69.8918585526
 41
3.0
 42
3.0
 43
3.0
 50
270.0
  0
ENDBLK
  5
237
100
AcDbEntity
  8
0
  6
BYBLOCK
 62
0
100
AcDbBlockEnd
  0
ENDSEC
  0
SECTION
  2
ENTITIES
  0
DIMENSION
  5
238
100
AcDbEntity
  8
0
100
AcDbDimension
 62
7
  6
CONTINUOUS
  2
*D0
 10
15.3176445087
 20
179.3398151529
 11
27.9401445087
 21
179.3398151529
 70
160
 71
1
 72
2
 41
0.9
 42
8.5681115969
  3
DIMSTYLE_1
100
AcDbAlignedDimension
 13
23.8857561056
 23
137.2652628577
 14
15.3176445087
 24
114.8918585526
 50
180.0
100
AcDbRotatedDimension
  0
DIMENSION
  5
239
100
AcDbEntity
  8
0
100
AcDbDimension
 62
7
  6
CONTINUOUS
  2
*D1
 10
270.6824115954
 20
179.6975203734
 11
151.2538401668
 21
179.6975203734
 70
160
 71
2
 72
2
 41
0.9
 42
232.0
  3
DIMSTYLE_2
100
AcDbAlignedDimension
 13
38.6824115954
 23
159.0918585526
 14
270.6824115954
 24
159.0918585526
100
AcDbRotatedDimension
  0
DIMENSION
  5
23A
100
AcDbEntity
  8
0
100
AcDbDimension
 62
7
  6
CONTINUOUS
  2
*D2
 10
289.6824115954
 20
69.8918585526
 11
289.6824115954
 21
112.5347156955
 70
160
 71
2
 72
2
 41
0.9
 42
90.0
  3
DIMSTYLE_2
100
AcDbAlignedDimension
 13
269.8824115954
 23
159.8918585526
 14
269.8824115954
 24
69.8918585526
 50
270.0
100
AcDbRotatedDimension
  0
LWPOLYLINE
  5
23B
100
AcDbEntity
  8
RACCORDO
100
AcDbPolyline
 62
250
  6
CONTINUOUS
 90
28
 70
0
 10
38.7930643704
 20
158.9822161758
 10
38.7950602926
 20
159.028441142
 10
38.7996939031
 20
159.0744228604
 10
38.8069421505
 20
159.1200112627
 10
38.8167685648
 20
159.1650441119
 10
38.8291364304
 20
159.2093900968
 10
38.844017528
 20
159.2529468825
 10
38.8613734088
 20
159.2955945608
 10
38.8811397562
 20
159.3371694148
 10
38.9032408056
 20
159.3775075993
 10
38.9275941158
 20
159.4164694114
 10
38.9541208129
 20
159.4539394132
 10
38.9827361329
 20
159.4897987311
 10
39.0133443355
 20
159.5239323334
 10
39.0458418394
 20
159.5562299101
 10
39.0801236785
 20
159.5865874723
 10
39.1160748867
 20
159.6149064843
 10
39.1535767161
 20
159.6410972389
 10
39.1925115663
 20
159.6650778492
 10
39.2327536361
 20
159.6867716756
 10
39.274168244
 20
159.7061075586
 10
39.3166188279
 20
159.7230222552
 10
39.3599614911
 20
159.7374597781
 10
39.404058467
 20
159.7493760285
 10
39.4487787745
 20
159.7587355297
 10
39.49398104
 20
159.7655067841
 10
39.5395133045
 20
159.7696649208
 10
39.5852268956
 20
159.7711946528
  0
LWPOLYLINE
  5
23C
100
AcDbEntity
  8
RACCORDO
100
AcDbPolyline
 62
250
  6
CONTINUOUS
 90
22
 70
0
 10
38.7930685992
 20
158.982216118
 10
38.7974318896
 20
158.9884653561
 10
38.8042530809
 20
158.9946438174
 10
38.8134982115
 20
159.0007207401
 10
38.8251212512
 20
159.0066658681
 10
38.8390643307
 20
159.0124496014
 10
38.8552580298
 20
159.0180431436
 10
38.8736217224
 20
159.0234186452
 10
38.8940639787
 20
159.0285493423
 10
38.9164830199
 20
159.03340969
 10
38.940767225
 20
159.0379754892
 10
38.9667956868
 20
159.0422240074
 10
38.9944388137
 20
159.0461340919
 10
39.0235589749
 20
159.049686275
 10
39.0540111857
 20
159.0528628708
 10
39.0856438293
 20
159.0556480635
 10
39.1182994117
 20
159.058027986
 10
39.151815346
 20
159.0599907892
 10
39.1860247614
 20
159.0615267004
 10
39.2207573348
 20
159.0626280727
 10
39.2558401381
 20
159.0632894225
 10
39.2910984995
 20
159.0635074572
  0
LWPOLYLINE
  5
23D
100
AcDbEntity
  8
RACCORDO
100
AcDbPolyline
 62
250
  6
CONTINUOUS
 90
22
 70
0
 10
38.7930643736
 20
70.8015009196
 10
38.7974277241
 20
70.7952516927
 10
38.8042489975
 20
70.7890732417
 10
38.8134942316
 20
70.7829963284
 10
38.8251173957
 20
70.777051209
 10
38.8390606194
 20
70.7712674833
 10
38.8552544812
 20
70.7656739479
 10
38.873618354
 20
70.7602984523
 10
38.8940608065
 20
70.7551677603
 10
38.9164800583
 20
70.7503074169
 10
38.9407644869
 20
70.7457416213
 10
38.9667931833
 20
70.7414931059
 10
38.9944365538
 20
70.7375830235
 10
39.0235569659
 20
70.7340308419
 10
39.0540094326
 20
70.7308542469
 10
39.0856423351
 20
70.7280690545
 10
39.1182981773
 20
70.7256891318
 10
39.15181437
 20
70.723726328
 10
39.1860240403
 20
70.7221904157
 10
39.2207568628
 20
70.721089042
 10
39.2558399071
 20
70.7204276906
 10
39.2910984995
 20
70.7202096541
  0
LINE
  5
23E
100
AcDbEntity
  8
RACCORDO
100
AcDbLine
 62
7
  6
CONTINUOUS
 10
38.6824115954
 20
70.6918585526
 11
38.6824115954
 21
92.372438964
  0
LINE
  5
23F
100
AcDbEntity
  8
DRAFT
100
AcDbLine
 62
7
  6
CONTINUOUS
 10
38.6824115954
 20
92.372438964
 11
38.6824115954
 21
137.4112781413
  0
LINE
  5
240
100
AcDbEntity
  8
RACCORDO
100
AcDbLine
 62
7
  6
CONTINUOUS
 10
38.6824115954
 20
137.4112781413
 11
38.6824115954
 21
159.0918585526
  0
LINE
  5
241
100
AcDbEntity
  8
RACCORDO
100
AcDbLine
 62
250
  6
CONTINUOUS
 10
38.7930643706
 20
70.8015009297
 11
38.7912341358
 21
107.3825951933
  0
LINE
  5
242
100
AcDbEntity
  8
RACCORDO
100
AcDbLine
 62
250
  6
CONTINUOUS
 10
39.2910984995
 20
70.7202096461
 11
39.2893309453
 21
107.3749718955
  0
LINE
  5
243
100
AcDbEntity
  8
RACCORDO
100
AcDbLine
 62
250
  6
CONTINUOUS
 10
39.5852268956
 20
159.7711946528
 11
39.5852268956
 21
159.3632460451
  0
LINE
  5
244
100
AcDbEntity
  8
RACCORDO
100
AcDbLine
 62
250
  6
CONTINUOUS
 10
39.5852268956
 20
70.0125224525
 11
39.5852268956
 21
70.4204710602
  0
LWPOLYLINE
  5
245
100
AcDbEntity
  8
RACCORDO
100
AcDbPolyline
 62
250
  6
CONTINUOUS
 90
3
 70
0
 10
38.7912341358
 20
107.3825951933
 10
38.791566058
 20
142.278236506
 10
38.7930643706
 20
158.9822161757
  0
LWPOLYLINE
  5
246
100
AcDbEntity
  8
RACCORDO
100
AcDbPolyline
 62
250
  6
CONTINUOUS
 90
3
 70
0
 10
39.2893309453
 20
107.3749718955
 10
39.2896580245
 20
142.3142025327
 10
39.2910984995
 20
159.0635074592
  0
LWPOLYLINE
  5
247
100
AcDbEntity
  8
RACCORDO
100
AcDbPolyline
 62
250
  6
CONTINUOUS
 90
28
 70
0
 10
39.2910984995
 20
159.0635074592
 10
39.291608793
 20
159.0811822584
 10
39.2930939753
 20
159.0986633058
 10
39.2955540461
 20
159.1159506123
 10
39.2990029208
 20
159.1330992231
 10
39.3034266841
 20
159.1500541124
 10
39.3087835905
 20
159.1666501939
 10
39.3150846629
 20
159.1828872572
 10
39.3223188784
 20
159.1987655511
 10
39.3304114233
 20
159.214120696
 10
39.3393696615
 20
159.2289437769
 10
39.3491862291
 20
159.243243761
 10
39.35976422
 20
159.2568831053
 10
39.3711120112
 20
159.2698563728
 10
39.3832212258
 20
159.2821690587
 10
39.3959698269
 20
159.2937000284
 10
39.4093629937
 20
159.3044405297
 10
39.4233955471
 20
159.3143993726
 10
39.437929913
 20
159.3234817706
 10
39.4529709386
 20
159.3316792851
 10
39.4685137768
 20
159.3390004051
 10
39.4844063127
 20
159.345375736
 10
39.5006561398
 20
159.350796315
 10
39.5172556645
 20
159.355271142
 10
39.534029992
 20
159.3587577653
 10
39.5509208239
 20
159.361242041
 10
39.5679864584
 20
159.3627381326
 10
39.5852268956
 20
159.3632460451
  0
LWPOLYLINE
  5
248
100
AcDbEntity
  8
RACCORDO
100
AcDbPolyline
 62
7
  6
CONTINUOUS
 90
25
 70
0
 10
60.8824115777
 20
92.6910152407
 10
60.8837131209
 20
92.6517775654
 10
60.8875253987
 20
92.6129900672
 10
60.893848411
 20
92.5746527405
 10
60.9027335439
 20
92.5365861849
 10
60.9141294115
 20
92.4989697915
 10
60.9278818554
 20
92.4623417353
 10
60.9439904302
 20
92.4267665631
 10
60.9624555814
 20
92.3921797041
 10
60.9831244874
 20
92.3589256466
 10
61.0060644578
 20
92.3269559572
 10
61.0312081829
 20
92.2963190407
 10
61.0582009125
 20
92.2675046341
 10
61.0870949415
 20
92.2405490499
 10
61.1178379749
 20
92.2154159412
 10
61.1499183775
 20
92.1924860497
 10
61.1832829286
 20
92.1718355284
 10
61.2179848489
 20
92.1533881914
 10
61.2536721651
 20
92.1372962693
 10
61.2903985441
 20
92.1235606378
 10
61.328110319
 20
92.1121803973
 10
61.366294516
 20
92.1033051173
 10
61.4047801435
 20
92.0969846495
 10
61.4437381931
 20
92.093169129
 10
61.4831686646
 20
92.0918585526
  0
LINE
  5
249
100
AcDbEntity
  8
RACCORDO
100
AcDbLine
 62
250
  6
CONTINUOUS
 10
60.3292514507
 20
92.6138583157
 11
60.3292514507
 21
137.1698587896
  0
LINE
  5
24A
100
AcDbEntity
  8
RACCORDO
100
AcDbLine
 62
250
  6
CONTINUOUS
 10
60.8285645334
 20
92.6373164138
 11
60.8285645152
 21
137.1464285875
  0
LINE
  5
24B
100
AcDbEntity
  8
RACCORDO
100
AcDbLine
 62
7
  6
CONTINUOUS
 10
60.8824115777
 20
137.0927018646
 11
60.8824115777
 21
92.6910152407
  0
LINE
  5
24C
100
AcDbEntity
  8
RACCORDO
100
AcDbLine
 62
250
  6
CONTINUOUS
 10
61.4307304893
 20
138.2708945309
 11
61.4307304893
 21
137.7441607315
  0
LINE
  5
24D
100
AcDbEntity
  8
RACCORDO
100
AcDbLine
 62
250
  6
CONTINUOUS
 10
61.4307304893
 20
91.5128225744
 11
61.4307304893
 21
92.0395563738
  0
LWPOLYLINE
  5
24E
100
AcDbEntity
  8
RACCORDO
100
AcDbPolyline
 62
250
  6
CONTINUOUS
 90
7
 70
0
 10
60.828564537
 20
137.1464285662
 10
60.8293250751
 20
137.1765876858
 10
60.8316083689
 20
137.2066503041
 10
60.8354062212
 20
137.2365404882
 10
60.8407066443
 20
137.2661829242
 10
60.8474939054
 20
137.2955031059
 10
60.85574858
 20
137.3244275198
  0
LWPOLYLINE
  5
24F
100
AcDbEntity
  8
RACCORDO
100
AcDbPolyline
 62
250
  6
CONTINUOUS
 90
7
 70
0
 10
60.3292514507
 20
137.1698587896
 10
60.330697385
 20
137.2255378982
 10
60.3348821967
 20
137.2807330408
 10
60.3418058857
 20
137.3354442254
 10
60.351468452
 20
137.38967146
 10
60.3638698956
 20
137.4434147527
 10
60.3790102165
 20
137.4966741112
  0
LWPOLYLINE
  5
250
100
AcDbEntity
  8
RACCORDO
100
AcDbPolyline
 62
250
  6
CONTINUOUS
 90
25
 70
0
 10
60.3790102165
 20
137.4966741112
 10
60.3977606113
 20
137.5517648995
 10
60.4192912852
 20
137.6055695657
 10
60.4436022383
 20
137.6580881668
 10
60.4707993303
 20
137.7095007525
 10
60.5007767014
 20
137.7596273799
 10
60.5332167721
 20
137.8079281415
 10
60.5681059994
 20
137.8543271098
 10
60.6054579263
 20
137.898900368
 10
60.644995603
 20
137.9413360596
 10
60.6867124876
 20
137.9816185883
 10
60.730615122
 20
138.019763713
 10
60.7764461821
 20
138.0555066269
 10
60.8242563343
 20
138.0888652696
 10
60.8739949122
 20
138.1198218573
 10
60.9252525917
 20
138.1480580099
 10
60.9781418094
 20
138.173563219
 10
61.0325501288
 20
138.1963481333
 10
61.0877309166
 20
138.2161261144
 10
61.1435395074
 20
138.2328084364
 10
61.2001205666
 20
138.2464839328
 10
61.2571614581
 20
138.257132298
 10
61.3145579696
 20
138.2647467815
 10
61.3724143134
 20
138.2693341879
 10
61.4307304893
 20
138.2708945309
  0
LWPOLYLINE
  5
251
100
AcDbEntity
  8
RACCORDO
100
AcDbPolyline
 62
250
  6
CONTINUOUS
 90
25
 70
0
 10
60.85574858
 20
137.3244275198
 10
60.865981225
 20
137.3543222707
 10
60.877792728
 20
137.3836516192
 10
60.8911531331
 20
137.412332633
 10
60.9060368981
 20
137.4402986274
 10
60.9223981112
 20
137.4674543436
 10
60.9401627557
 20
137.4936808434
 10
60.9592589079
 20
137.5188845295
 10
60.9796453265
 20
137.5430229548
 10
61.0012861802
 20
137.5660591165
 10
61.0241151637
 20
137.5879220533
 10
61.048075872
 20
137.6085574095
 10
61.0731533992
 20
137.62794652
 10
61.0993066132
 20
137.646040724
 10
61.1264485505
 20
137.6627636811
 10
61.1544955931
 20
137.6780539356
 10
61.1834198298
 20
137.691881038
 10
61.2130989399
 20
137.7041718262
 10
61.2432917709
 20
137.7148328303
 10
61.2738208629
 20
137.7238271812
 10
61.3046795251
 20
137.7311781827
 10
61.3358767132
 20
137.7368992275
 10
61.3673589502
 20
137.7409796538
 10
61.3990064097
 20
137.7434019656
 10
61.4307314458
 20
137.7441607293
  0
LWPOLYLINE
  5
252
100
AcDbEntity
  8
RACCORDO
100
AcDbPolyline
 62
250
  6
CONTINUOUS
 90
10
 70
0
 10
60.85574858
 20
92.4592895855
 10
60.8501240581
 20
92.47837824
 10
60.8451259674
 20
92.4977039072
 10
60.8407657869
 20
92.5172466269
 10
60.837050878
 20
92.5370062423
 10
60.8339963613
 20
92.5569415126
 10
60.8316182073
 20
92.5769690986
 10
60.8299204813
 20
92.5970456854
 10
60.8289022236
 20
92.61716904
 10
60.8285645297
 20
92.63731641
  0
LWPOLYLINE
  5
253
100
AcDbEntity
  8
RACCORDO
100
AcDbPolyline
 62
250
  6
CONTINUOUS
 90
10
 70
0
 10
60.3790376627
 20
92.2869364915
 10
60.3687220152
 20
92.3220036801
 10
60.3595873063
 20
92.3574503311
 10
60.3516335358
 20
92.3932764488
 10
60.3448406732
 20
92.4295688464
 10
60.3392287492
 20
92.4662407202
 10
60.3348578557
 20
92.5030316459
 10
60.3317480235
 20
92.5398548151
 10
60.3298792218
 20
92.5767970379
 10
60.3292514507
 20
92.6138583157
  0
LWPOLYLINE
  5
254
100
AcDbEntity
  8
RACCORDO
100
AcDbPolyline
 62
250
  6
CONTINUOUS
 90
15
 70
0
 10
38.7913539846
 20
137.4737658892
 10
38.7956758296
 20
137.4755262436
 10
38.8024604988
 20
137.4772668034
 10
38.8116741517
 20
137.4789788872
 10
38.8232708325
 20
137.4806539553
 10
38.8371926995
 20
137.4822836531
 10
38.8533703132
 20
137.4838598517
 10
38.8717229832
 20
137.4853746896
 10
38.8921591702
 20
137.4868206109
 10
38.9145769427
 20
137.4881904038
 10
38.9388644858
 20
137.489477236
 10
38.964900658
 20
137.4906746891
 10
38.9925555967
 20
137.4917767904
 10
39.0216913646
 20
137.4927780428
 10
39.0521626387
 20
137.4936734524
  0
LWPOLYLINE
  5
255
100
AcDbEntity
  8
RACCORDO
100
AcDbPolyline
 62
250
  6
CONTINUOUS
 90
15
 70
0
 10
38.791352498
 20
137.4112823308
 10
38.7956742898
 20
137.4130379068
 10
38.8024589121
 20
137.4147737942
 10
38.8116725245
 20
137.4164813346
 10
38.8232691714
 20
137.4181520112
 10
38.837191011
 20
137.4197774909
 10
38.8533686039
 20
137.4213496663
 10
38.8717212595
 20
137.4228606956
 10
38.8921574385
 20
137.4243030421
 10
38.9145752091
 20
137.4256695117
 10
38.938862756
 20
137.4269532886
 10
38.9648989378
 20
137.4281479697
 10
38.9925538912
 20
137.4292475961
 10
39.0216896787
 20
137.4302466832
 10
39.0521609769
 20
137.4311402476
  0
LWPOLYLINE
  5
256
100
AcDbEntity
  8
RACCORDO
100
AcDbPolyline
 62
250
  6
CONTINUOUS
 90
17
 70
0
 10
38.7913524984
 20
92.372438964
 10
38.7956742906
 20
92.3706833883
 10
38.8024589132
 20
92.3689475013
 10
38.8116725259
 20
92.3672399612
 10
38.823269173
 20
92.3655692849
 10
38.8371910128
 20
92.3639438055
 10
38.8533686058
 20
92.3623716304
 10
38.8717212615
 20
92.3608606014
 10
38.8921574405
 20
92.3594182551
 10
38.9145752111
 20
92.3580517858
 10
38.9388627581
 20
92.3567680091
 10
38.9648989398
 20
92.3555733282
 10
38.9925538931
 20
92.354473702
 10
39.0216896805
 20
92.3534746151
 10
39.0521609785
 20
92.3525810508
 10
39.0838158023
 20
92.3517974661
 10
39.1500393599
 20
92.3505753007
  0
LWPOLYLINE
  5
257
100
AcDbEntity
  8
RACCORDO
100
AcDbPolyline
 62
250
  6
CONTINUOUS
 90
16
 70
0
 10
38.7913539828
 20
92.309951216
 10
38.7956758262
 20
92.3081908616
 10
38.802460494
 20
92.3064503017
 10
38.8116741457
 20
92.3047382179
 10
38.8232708255
 20
92.3030631496
 10
38.8371926916
 20
92.3014334518
 10
38.8533703047
 20
92.2998572531
 10
38.8717229743
 20
92.2983424151
 10
38.892159161
 20
92.2968964937
 10
38.9145769335
 20
92.2955267007
 10
38.9388644766
 20
92.2942398685
 10
38.9649006491
 20
92.2930424153
 10
38.9925555881
 20
92.2919403139
 10
39.0216913566
 20
92.2909390614
 10
39.0521626314
 20
92.2900436518
 10
39.1164978597
 20
92.2885876754
  0
LWPOLYLINE
  5
258
100
AcDbEntity
  8
0
100
AcDbPolyline
 62
7
  6
CONTINUOUS
 90
5
 70
0
 43
0.3500000006
 10
154.4681337891
 20
182.1618109131
 10
154.8252625122
 20
182.3760953979
 10
154.8252625122
 20
183.0189488525
 10
154.4681337891
 20
183.4475178223
 10
153.6109777222
 20
183.4475178223
  0
LWPOLYLINE
  5
259
100
AcDbEntity
  8
RACCORDO
100
AcDbPolyline
 62
7
  6
CONTINUOUS
 90
25
 70
0
 10
106.4824116131
 20
137.0927018646
 10
106.481103264
 20
137.131966047
 10
106.4772886828
 20
137.1707651486
 10
106.4709678694
 20
137.2090991751
 10
106.4620919234
 20
137.2471383629
 10
106.4507097453
 20
137.2847124855
 10
106.4369680369
 20
137.3213108606
 10
106.4208662494
 20
137.3568799842
 10
106.4024049316
 20
137.391473384
 10
106.3817324319
 20
137.4247409351
 10
106.3587724805
 20
137.4567365143
 10
106.3336013473
 20
137.4874062732
 10
106.3065961901
 20
137.516238508
 10
106.2777193959
 20
137.5431821829
 10
106.2470085778
 20
137.5682883684
 10
106.2149537327
 20
137.5911985264
 10
106.1816028858
 20
137.6118452926
 10
106.146908012
 20
137.6302960639
 10
106.1112150331
 20
137.6463944458
 10
106.0744590442
 20
137.6601406775
 10
106.0367049503
 20
137.6715345435
 10
105.9984933878
 20
137.6804189662
 10
105.9600045691
 20
137.6867415909
 10
105.9210582819
 20
137.6905547853
 10
105.8816545262
 20
137.6918585526
  0
LINE
  5
25A
100
AcDbEntity
  8
RACCORDO
100
AcDbLine
 62
250
  6
CONTINUOUS
 10
105.9340927014
 20
138.2708945309
 11
105.9340927014
 21
137.7441607315
  0
LINE
  5
25B
100
AcDbEntity
  8
RACCORDO
100
AcDbLine
 62
250
  6
CONTINUOUS
 10
105.9340927014
 20
91.5128225744
 11
105.9340927014
 21
92.0395563738
  0
LINE
  5
25C
100
AcDbEntity
  8
RACCORDO
100
AcDbLine
 62
7
  6
CONTINUOUS
 10
106.4824116131
 20
92.6910152407
 11
106.4824116131
 21
137.0927018646
  0
LINE
  5
25D
100
AcDbEntity
  8
RACCORDO
100
AcDbLine
 62
250
  6
CONTINUOUS
 10
106.5362586756
 20
137.1464286303
 11
106.5362586754
 21
92.6372888464
  0
LINE
  5
25E
100
AcDbEntity
  8
RACCORDO
100
AcDbLine
 62
250
  6
CONTINUOUS
 10
107.0355717401
 20
137.1698587896
 11
107.0355717401
 21
92.6138583157
  0
LWPOLYLINE
  5
25F
100
AcDbEntity
  8
RACCORDO
100
AcDbPolyline
 62
250
  6
CONTINUOUS
 90
7
 70
0
 10
106.5362586539
 20
92.6372888674
 10
106.5354978656
 20
92.6071245277
 10
106.5332140062
 20
92.5770587852
 10
106.5294155874
 20
92.5471675739
 10
106.5241149082
 20
92.5175261775
 10
106.5173280081
 20
92.4882090408
 10
106.5090746108
 20
92.4592895855
  0
LWPOLYLINE
  5
260
100
AcDbEntity
  8
RACCORDO
100
AcDbPolyline
 62
250
  6
CONTINUOUS
 90
7
 70
0
 10
107.0355717401
 20
92.6138583157
 10
107.0341238364
 20
92.5581664359
 10
107.0299378431
 20
92.5029636308
 10
107.0230137602
 20
92.4482498921
 10
107.0133515878
 20
92.3940252117
 10
107.0009513258
 20
92.3402895817
 10
106.9858129743
 20
92.287042994
  0
LINE
  5
261
100
AcDbEntity
  8
RACCORDO
100
AcDbLine
 62
250
  6
CONTINUOUS
 10
38.7930643706
 20
70.8015009297
 11
38.6824143167
 21
70.6889983313
  0
LINE
  5
262
100
AcDbEntity
  8
RACCORDO
100
AcDbLine
 62
250
  6
CONTINUOUS
 10
39.5852268956
 20
70.0125224525
 11
39.46665014
 21
69.8920138324
  0
LINE
  5
263
100
AcDbEntity
  8
RACCORDO
100
AcDbLine
 62
250
  6
CONTINUOUS
 10
106.4824116131
 20
137.0927018646
 11
106.5362586756
 21
137.1464286303
  0
LINE
  5
264
100
AcDbEntity
  8
RACCORDO
100
AcDbLine
 62
250
  6
CONTINUOUS
 10
105.8816545262
 20
137.6918585526
 11
105.9340917894
 21
137.7441607315
  0
LINE
  5
265
100
AcDbEntity
  8
RACCORDO
100
AcDbLine
 62
250
  6
CONTINUOUS
 10
60.8285645334
 20
92.6373164138
 11
60.8824115777
 21
92.6910152407
  0
LINE
  5
266
100
AcDbEntity
  8
RACCORDO
100
AcDbLine
 62
250
  6
CONTINUOUS
 10
61.430709276
 20
92.0395563738
 11
61.4831686646
 21
92.0918585526
  0
LINE
  5
267
100
AcDbEntity
  8
RACCORDO
100
AcDbLine
 62
7
  6
CONTINUOUS
 10
269.8824115954
 20
69.8918585526
 11
39.4824115954
 21
69.8918585526
  0
LINE
  5
268
100
AcDbEntity
  8
RACCORDO
100
AcDbLine
 62
250
  6
CONTINUOUS
 10
269.7795962952
 20
70.0125224525
 11
39.5852268956
 21
70.0125224525
  0
LINE
  5
269
100
AcDbEntity
  8
RACCORDO
100
AcDbLine
 62
250
  6
CONTINUOUS
 10
269.7795962952
 20
70.4204710602
 11
39.5852268956
 21
70.4204710602
  0
LWPOLYLINE
  5
26A
100
AcDbEntity
  8
RACCORDO
100
AcDbPolyline
 62
250
  6
CONTINUOUS
 90
28
 70
0
 10
39.5852268956
 20
70.4204710602
 10
39.5679771131
 20
70.4209821005
 10
39.5509105364
 20
70.4224783711
 10
39.5340271657
 20
70.4249598768
 10
39.5172744694
 20
70.4284392428
 10
39.5007049791
 20
70.4329038635
 10
39.4844762891
 20
70.4383159024
 10
39.4685870556
 20
70.4446866134
 10
39.4530386225
 20
70.4520047797
 10
39.4379926158
 20
70.4601988608
 10
39.4234575633
 20
70.4692762788
 10
39.4094249373
 20
70.4792296618
 10
39.3960307802
 20
70.4899652772
 10
39.3832796548
 20
70.5014921442
 10
39.3711669984
 20
70.5138013015
 10
39.3598151659
 20
70.52677204
 10
39.3492322853
 20
70.5404105047
 10
39.3394102285
 20
70.5547106089
 10
39.3304469662
 20
70.5695332862
 10
39.32235087
 20
70.584883984
 10
39.3151135683
 20
70.6007573069
 10
39.3088079171
 20
70.6169979111
 10
39.3034428643
 20
70.6336145796
 10
39.2990094622
 20
70.6505985692
 10
39.2955537233
 20
70.6677682285
 10
39.2930909854
 20
70.6850630094
 10
39.2916059107
 20
70.7025434785
 10
39.2910984995
 20
70.7202096461
  0
LWPOLYLINE
  5
26B
100
AcDbEntity
  8
RACCORDO
100
AcDbPolyline
 62
250
  6
CONTINUOUS
 90
28
 70
0
 10
39.5852268956
 20
70.0125224525
 10
39.5395013015
 20
70.0140529811
 10
39.4939764621
 20
70.0182109099
 10
39.4488006913
 20
70.0249776379
 10
39.4041394087
 20
70.0343216382
 10
39.3601182638
 20
70.046210057
 10
39.3168254543
 20
70.0606194194
 10
39.2743779669
 20
70.0775190272
 10
39.2329435977
 20
70.0968500796
 10
39.1926838445
 20
70.1185399114
 10
39.1537413639
 20
70.142511794
 10
39.1162332482
 20
70.1686930547
 10
39.0802752699
 20
70.1970029
 10
39.0459856874
 20
70.2273521144
 10
39.0134800387
 20
70.2596417717
 10
38.9828632699
 20
70.29376796
 10
38.9542385967
 20
70.3296209345
 10
38.9277022476
 20
70.3670851889
 10
38.9033399901
 20
70.4060401821
 10
38.8812344859
 20
70.4463623897
 10
38.8614629537
 20
70.4879194931
 10
38.8440921618
 20
70.5305708721
 10
38.8291835756
 20
70.5741752681
 10
38.8167884033
 20
70.6185933992
 10
38.8069465328
 20
70.6636826873
 10
38.7996935408
 20
70.7092969331
 10
38.7950595116
 20
70.7552865029
 10
38.7930643704
 20
70.8015009295
  0
LINE
  5
26C
100
AcDbEntity
  8
RACCORDO
100
AcDbLine
 62
250
  6
CONTINUOUS
 10
105.9340921006
 20
92.0395563738
 11
105.8816545262
 21
92.0918585526
  0
LINE
  5
26D
100
AcDbEntity
  8
RACCORDO
100
AcDbLine
 62
250
  6
CONTINUOUS
 10
61.4307314437
 20
137.7441607315
 11
61.4831686646
 21
137.6918585526
  0
LINE
  5
26E
100
AcDbEntity
  8
RACCORDO
100
AcDbLine
 62
250
  6
CONTINUOUS
 10
60.8285645152
 20
137.1464285875
 11
60.8824115777
 21
137.0927018646
  0
LINE
  5
26F
100
AcDbEntity
  8
RACCORDO
100
AcDbLine
 62
250
  6
CONTINUOUS
 10
106.5362586754
 20
92.6372888464
 11
106.4824116131
 21
92.6910152407
  0
LINE
  5
270
100
AcDbEntity
  8
RACCORDO
100
AcDbLine
 62
250
  6
CONTINUOUS
 10
39.5852268956
 20
159.7711946528
 11
39.46665014
 21
159.8917032729
  0
LINE
  5
271
100
AcDbEntity
  8
RACCORDO
100
AcDbLine
 62
250
  6
CONTINUOUS
 10
38.7930643706
 20
158.9822161757
 11
38.6824143167
 21
159.0947187739
  0
LWPOLYLINE
  5
272
100
AcDbEntity
  8
RACCORDO
100
AcDbPolyline
 62
250
  6
CONTINUOUS
 90
25
 70
0
 10
106.9858129743
 20
92.287042994
 10
106.9670553189
 20
92.231935054
 10
106.945517763
 20
92.1781165771
 10
106.9212003064
 20
92.1255875059
 10
106.893996911
 20
92.074168287
 10
106.864013615
 20
92.0240383668
 10
106.8315685326
 20
91.9757361646
 10
106.796674958
 20
91.9293371477
 10
106.7593195971
 20
91.8847656929
 10
106.7197806817
 20
91.8423335482
 10
106.6780654654
 20
91.8020569025
 10
106.6341666947
 20
91.7639194042
 10
106.5883408409
 20
91.7281839736
 10
106.540537442
 20
91.6948323705
 10
106.4908069599
 20
91.6638826796
 10
106.4395572518
 20
91.6356522972
 10
106.3866771667
 20
91.6101515992
 10
106.3322778556
 20
91.5873700696
 10
106.2771006291
 20
91.5675937611
 10
106.2212848488
 20
91.5509103038
 10
106.1646911531
 20
91.5372319601
 10
106.107642768
 20
91.5265817377
 10
106.0502474353
 20
91.5189672874
 10
105.9923974131
 20
91.5143809042
 10
105.9340927014
 20
91.5128225744
  0
LWPOLYLINE
  5
273
100
AcDbEntity
  8
RACCORDO
100
AcDbPolyline
 62
250
  6
CONTINUOUS
 90
25
 70
0
 10
106.5090746108
 20
92.4592895855
 10
106.4988391173
 20
92.4293871884
 10
106.4870243563
 20
92.4000514198
 10
106.4736604517
 20
92.3713652093
 10
106.4587730994
 20
92.3433952069
 10
106.4424083821
 20
92.3162366531
 10
106.4246405133
 20
92.2900084784
 10
106.4055415025
 20
92.2648041147
 10
106.3851527997
 20
92.2406660206
 10
106.3635106622
 20
92.2176313883
 10
106.3406819036
 20
92.1957713231
 10
106.316722776
 20
92.1751396603
 10
106.2916475451
 20
92.1557543041
 10
106.2654973063
 20
92.1376637863
 10
106.2383590989
 20
92.1209444032
 10
106.2103158971
 20
92.1056571829
 10
106.1813961073
 20
92.0918328274
 10
106.1517214791
 20
92.0795442091
 10
106.121530706
 20
92.0688840371
 10
106.090998451
 20
92.0598888875
 10
106.0601338487
 20
92.0525368517
 10
106.0289334639
 20
92.0468158406
 10
105.9974527535
 20
92.0427362671
 10
105.9658097504
 20
92.0403147861
 10
105.9340920992
 20
92.0395563752
  0
LWPOLYLINE
  5
274
100
AcDbEntity
  8
RACCORDO
100
AcDbPolyline
 62
250
  6
CONTINUOUS
 90
15
 70
0
 10
106.7541536305
 20
137.4214055248
 10
106.7245744341
 20
137.4112588592
 10
106.6963634732
 20
137.4014280062
 10
106.6696685054
 20
137.3919644558
 10
106.6446293482
 20
137.3829177742
 10
106.6213771466
 20
137.3743353443
 10
106.6000336862
 20
137.3662621174
 10
106.5807107554
 20
137.3587403778
 10
106.5635095601
 20
137.3518095214
 10
106.5485201931
 20
137.345505849
 10
106.5358211626
 20
137.3398623769
 10
106.5254789811
 20
137.3349086633
 10
106.5175478167
 20
137.3306706536
 10
106.5120692097
 20
137.3271705449
 10
106.5090718548
 20
137.3244266693
  0
LINE
  5
275
100
AcDbEntity
  8
RACCORDO
100
AcDbLine
 62
250
  6
CONTINUOUS
 10
106.8167906793
 20
137.4424323413
 11
106.7541536305
 21
137.4214055248
  0
LINE
  5
276
100
AcDbEntity
  8
RACCORDO
100
AcDbLine
 62
250
  6
CONTINUOUS
 10
106.8829640675
 20
137.4640685127
 11
106.8167906793
 21
137.4424323413
  0
LWPOLYLINE
  5
277
100
AcDbEntity
  8
RACCORDO
100
AcDbPolyline
 62
250
  6
CONTINUOUS
 90
3
 70
0
 10
106.9858129742
 20
137.4966738878
 10
106.9512892524
 20
137.4858613465
 10
106.8829640675
 20
137.4640685127
  0
LINE
  5
278
100
AcDbEntity
  8
RACCORDO
100
AcDbLine
 62
250
  6
CONTINUOUS
 10
106.9858129742
 20
92.2870432144
 11
106.9169463287
 21
92.3087432232
  0
LINE
  5
279
100
AcDbEntity
  8
RACCORDO
100
AcDbLine
 62
250
  6
CONTINUOUS
 10
106.9169463287
 20
92.3087432232
 11
106.849520469
 21
92.3305147421
  0
LWPOLYLINE
  5
27A
100
AcDbEntity
  8
RACCORDO
100
AcDbPolyline
 62
250
  6
CONTINUOUS
 90
17
 70
0
 10
106.849520469
 20
92.3305147421
 10
106.7849461435
 20
92.3519022468
 10
106.7541536351
 20
92.3623115814
 10
106.7245744378
 20
92.3724582475
 10
106.6963634757
 20
92.3822891011
 10
106.6696685063
 20
92.3917526521
 10
106.6446293472
 20
92.4007993343
 10
106.6213771434
 20
92.4093817648
 10
106.6000336805
 20
92.4174549924
 10
106.580710747
 20
92.4249767326
 10
106.5635095486
 20
92.4319075898
 10
106.5485201783
 20
92.4382112628
 10
106.5358211443
 20
92.4438547357
 10
106.5254789591
 20
92.4488084501
 10
106.5175477909
 20
92.4530464605
 10
106.5120691799
 20
92.4565465701
 10
106.5090718209
 20
92.4592904466
  0
LWPOLYLINE
  5
27B
100
AcDbEntity
  8
RACCORDO
100
AcDbPolyline
 62
250
  6
CONTINUOUS
 90
7
 70
0
 10
106.5090746108
 20
137.3244275198
 10
106.517329297
 20
137.2955030606
 10
106.5241165609
 20
137.2661828536
 10
106.5294169811
 20
137.2365404133
 10
106.5332148277
 20
137.2066502466
 10
106.5354981167
 20
137.1765876675
 10
106.5362586538
 20
137.146428609
  0
LWPOLYLINE
  5
27C
100
AcDbEntity
  8
RACCORDO
100
AcDbPolyline
 62
250
  6
CONTINUOUS
 90
7
 70
0
 10
106.9858129743
 20
137.4966741112
 10
107.0009532905
 20
137.4434147741
 10
107.0133547313
 20
137.3896714943
 10
107.0230172966
 20
137.335444264
 10
107.0299409866
 20
137.2807330751
 10
107.0341258011
 20
137.2255379196
 10
107.0355717401
 20
137.1698587896
  0
LWPOLYLINE
  5
27D
100
AcDbEntity
  8
RACCORDO
100
AcDbPolyline
 62
250
  6
CONTINUOUS
 90
25
 70
0
 10
131.3790102165
 20
137.4966741112
 10
131.3977606113
 20
137.5517648995
 10
131.4192912852
 20
137.6055695657
 10
131.4436022383
 20
137.6580881668
 10
131.4707993303
 20
137.7095007525
 10
131.5007767014
 20
137.7596273799
 10
131.5332167721
 20
137.8079281415
 10
131.5681059994
 20
137.8543271098
 10
131.6054579263
 20
137.898900368
 10
131.644995603
 20
137.9413360595
 10
131.6867124876
 20
137.9816185883
 10
131.730615122
 20
138.019763713
 10
131.7764461821
 20
138.0555066269
 10
131.8242563343
 20
138.0888652696
 10
131.8739949122
 20
138.1198218573
 10
131.9252525917
 20
138.1480580099
 10
131.9781418094
 20
138.173563219
 10
132.0325501288
 20
138.1963481333
 10
132.0877309166
 20
138.2161261144
 10
132.1435395074
 20
138.2328084364
 10
132.2001205666
 20
138.2464839328
 10
132.2571614581
 20
138.257132298
 10
132.3145579696
 20
138.2647467815
 10
132.3724143134
 20
138.2693341879
 10
132.4307304893
 20
138.2708945309
  0
LWPOLYLINE
  5
27E
100
AcDbEntity
  8
RACCORDO
100
AcDbPolyline
 62
250
  6
CONTINUOUS
 90
25
 70
0
 10
131.85574858
 20
137.3244275198
 10
131.865981225
 20
137.3543222707
 10
131.877792728
 20
137.3836516192
 10
131.8911531331
 20
137.412332633
 10
131.9060368981
 20
137.4402986274
 10
131.9223981112
 20
137.4674543436
 10
131.9401627557
 20
137.4936808434
 10
131.9592589079
 20
137.5188845295
 10
131.9796453265
 20
137.5430229548
 10
132.0012861802
 20
137.5660591165
 10
132.0241151637
 20
137.5879220533
 10
132.048075872
 20
137.6085574095
 10
132.0731533992
 20
137.62794652
 10
132.0993066132
 20
137.646040724
 10
132.1264485505
 20
137.6627636811
 10
132.1544955931
 20
137.6780539356
 10
132.1834198298
 20
137.691881038
 10
132.2130989399
 20
137.7041718262
 10
132.2432917709
 20
137.7148328303
 10
132.2738208629
 20
137.7238271812
 10
132.3046795251
 20
137.7311781827
 10
132.3358767132
 20
137.7368992275
 10
132.3673589502
 20
137.7409796538
 10
132.3990064097
 20
137.7434019656
 10
132.4307314458
 20
137.7441607293
  0
LWPOLYLINE
  5
27F
100
AcDbEntity
  8
RACCORDO
100
AcDbPolyline
 62
250
  6
CONTINUOUS
 90
10
 70
0
 10
131.85574858
 20
92.4592895855
 10
131.8501240581
 20
92.47837824
 10
131.8451259674
 20
92.4977039072
 10
131.8407657869
 20
92.5172466269
 10
131.837050878
 20
92.5370062423
 10
131.8339963613
 20
92.5569415126
 10
131.8316182073
 20
92.5769690986
 10
131.8299204813
 20
92.5970456854
 10
131.8289022236
 20
92.61716904
 10
131.8285645297
 20
92.63731641
  0
LWPOLYLINE
  5
280
100
AcDbEntity
  8
RACCORDO
100
AcDbPolyline
 62
250
  6
CONTINUOUS
 90
10
 70
0
 10
131.3790376627
 20
92.2869364916
 10
131.3687220152
 20
92.3220036801
 10
131.3595873063
 20
92.3574503311
 10
131.3516335358
 20
92.3932764488
 10
131.3448406732
 20
92.4295688464
 10
131.3392287492
 20
92.4662407202
 10
131.3348578557
 20
92.5030316459
 10
131.3317480235
 20
92.5398548151
 10
131.3298792218
 20
92.5767970379
 10
131.3292514507
 20
92.6138583157
  0
LWPOLYLINE
  5
281
100
AcDbEntity
  8
RACCORDO
100
AcDbPolyline
 62
7
  6
CONTINUOUS
 90
25
 70
0
 10
131.8824115777
 20
92.6910152407
 10
131.8837131209
 20
92.6517775654
 10
131.8875253987
 20
92.6129900672
 10
131.893848411
 20
92.5746527405
 10
131.9027335439
 20
92.5365861849
 10
131.9141294115
 20
92.4989697915
 10
131.9278818554
 20
92.4623417353
 10
131.9439904302
 20
92.4267665631
 10
131.9624555814
 20
92.3921797041
 10
131.9831244874
 20
92.3589256466
 10
132.0060644578
 20
92.3269559572
 10
132.0312081829
 20
92.2963190407
 10
132.0582009125
 20
92.2675046341
 10
132.0870949415
 20
92.2405490499
 10
132.1178379749
 20
92.2154159412
 10
132.1499183775
 20
92.1924860497
 10
132.1832829286
 20
92.1718355284
 10
132.2179848489
 20
92.1533881914
 10
132.2536721651
 20
92.1372962693
 10
132.2903985441
 20
92.1235606378
 10
132.328110319
 20
92.1121803973
 10
132.366294516
 20
92.1033051173
 10
132.4047801435
 20
92.0969846495
 10
132.4437381931
 20
92.093169129
 10
132.4831686646
 20
92.0918585526
  0
LINE
  5
282
100
AcDbEntity
  8
RACCORDO
100
AcDbLine
 62
250
  6
CONTINUOUS
 10
131.3292514507
 20
92.6138583157
 11
131.3292514507
 21
137.1698587896
  0
LINE
  5
283
100
AcDbEntity
  8
RACCORDO
100
AcDbLine
 62
250
  6
CONTINUOUS
 10
131.8285645334
 20
92.6373164138
 11
131.8285645152
 21
137.1464285875
  0
LINE
  5
284
100
AcDbEntity
  8
RACCORDO
100
AcDbLine
 62
7
  6
CONTINUOUS
 10
131.8824115777
 20
137.0927018646
 11
131.8824115777
 21
92.6910152407
  0
LINE
  5
285
100
AcDbEntity
  8
RACCORDO
100
AcDbLine
 62
250
  6
CONTINUOUS
 10
132.4307304893
 20
138.2708945309
 11
132.4307304893
 21
137.7441607315
  0
LINE
  5
286
100
AcDbEntity
  8
RACCORDO
100
AcDbLine
 62
250
  6
CONTINUOUS
 10
132.4307304893
 20
91.5128225744
 11
132.4307304893
 21
92.0395563738
  0
LWPOLYLINE
  5
287
100
AcDbEntity
  8
RACCORDO
100
AcDbPolyline
 62
250
  6
CONTINUOUS
 90
7
 70
0
 10
131.828564537
 20
137.1464285662
 10
131.8293250751
 20
137.1765876858
 10
131.8316083689
 20
137.2066503041
 10
131.8354062212
 20
137.2365404882
 10
131.8407066443
 20
137.2661829242
 10
131.8474939054
 20
137.2955031059
 10
131.85574858
 20
137.3244275198
  0
LWPOLYLINE
  5
288
100
AcDbEntity
  8
RACCORDO
100
AcDbPolyline
 62
250
  6
CONTINUOUS
 90
7
 70
0
 10
131.3292514507
 20
137.1698587896
 10
131.330697385
 20
137.2255378982
 10
131.3348821967
 20
137.2807330408
 10
131.3418058857
 20
137.3354442254
 10
131.351468452
 20
137.38967146
 10
131.3638698956
 20
137.4434147527
 10
131.3790102165
 20
137.4966741112
  0
LWPOLYLINE
  5
289
100
AcDbEntity
  8
RACCORDO
100
AcDbPolyline
 62
7
  6
CONTINUOUS
 90
25
 70
0
 10
247.8816545262
 20
92.0918585526
 10
247.9210583059
 20
92.093162326
 10
247.9600046041
 20
92.0969755226
 10
247.9984934206
 20
92.1032981455
 10
248.0367049597
 20
92.1121825605
 10
248.0744590171
 20
92.123576415
 10
248.1112149803
 20
92.1373226377
 10
248.1469079538
 20
92.1534210139
 10
248.181602833
 20
92.1718717821
 10
248.2149536911
 20
92.1925185512
 10
248.2470085575
 20
92.2154287256
 10
248.2777194027
 20
92.2405349336
 10
248.3065962116
 20
92.2674786187
 10
248.333601359
 20
92.2963108393
 10
248.3587724701
 20
92.3269805719
 10
248.3817324052
 20
92.3589761301
 10
248.4024049017
 20
92.39224367
 10
248.4208662223
 20
92.4268370641
 10
248.4369680151
 20
92.462406192
 10
248.4507097319
 20
92.4990045901
 10
248.462091921
 20
92.5365787456
 10
248.4709678744
 20
92.574617955
 10
248.4772886896
 20
92.6129519846
 10
248.4811032691
 20
92.651751078
 10
248.4824116131
 20
92.6910152407
  0
LWPOLYLINE
  5
28A
100
AcDbEntity
  8
RACCORDO
100
AcDbPolyline
 62
7
  6
CONTINUOUS
 90
25
 70
0
 10
176.8816545262
 20
92.0918585526
 10
176.9210583059
 20
92.093162326
 10
176.9600046041
 20
92.0969755226
 10
176.9984934206
 20
92.1032981455
 10
177.0367049597
 20
92.1121825605
 10
177.0744590171
 20
92.123576415
 10
177.1112149803
 20
92.1373226377
 10
177.1469079538
 20
92.1534210139
 10
177.181602833
 20
92.1718717821
 10
177.2149536911
 20
92.1925185512
 10
177.2470085575
 20
92.2154287256
 10
177.2777194027
 20
92.2405349336
 10
177.3065962116
 20
92.2674786187
 10
177.333601359
 20
92.2963108393
 10
177.3587724701
 20
92.3269805719
 10
177.3817324052
 20
92.3589761301
 10
177.4024049017
 20
92.39224367
 10
177.4208662223
 20
92.4268370641
 10
177.4369680151
 20
92.462406192
 10
177.4507097319
 20
92.4990045901
 10
177.462091921
 20
92.5365787456
 10
177.4709678744
 20
92.574617955
 10
177.4772886896
 20
92.6129519846
 10
177.4811032691
 20
92.651751078
 10
177.4824116131
 20
92.6910152407
  0
LWPOLYLINE
  5
28B
100
AcDbEntity
  8
RACCORDO
100
AcDbPolyline
 62
7
  6
CONTINUOUS
 90
25
 70
0
 10
105.8816545262
 20
92.0918585526
 10
105.9210583059
 20
92.093162326
 10
105.9600046041
 20
92.0969755226
 10
105.9984934206
 20
92.1032981455
 10
106.0367049597
 20
92.1121825605
 10
106.0744590171
 20
92.123576415
 10
106.1112149803
 20
92.1373226377
 10
106.1469079538
 20
92.1534210139
 10
106.181602833
 20
92.1718717821
 10
106.2149536911
 20
92.1925185512
 10
106.2470085575
 20
92.2154287256
 10
106.2777194027
 20
92.2405349336
 10
106.3065962116
 20
92.2674786187
 10
106.333601359
 20
92.2963108393
 10
106.3587724701
 20
92.3269805719
 10
106.3817324052
 20
92.3589761301
 10
106.4024049017
 20
92.39224367
 10
106.4208662223
 20
92.4268370641
 10
106.4369680151
 20
92.462406192
 10
106.4507097319
 20
92.4990045901
 10
106.462091921
 20
92.5365787456
 10
106.4709678744
 20
92.574617955
 10
106.4772886896
 20
92.6129519846
 10
106.4811032691
 20
92.651751078
 10
106.4824116131
 20
92.6910152407
  0
LWPOLYLINE
  5
28C
100
AcDbEntity
  8
RACCORDO
100
AcDbPolyline
 62
250
  6
CONTINUOUS
 90
15
 70
0
 10
202.5716468624
 20
92.6169602104
 10
202.6026053779
 20
92.6178834932
 10
202.6321354802
 20
92.6189150912
 10
202.6600828594
 20
92.6200496136
 10
202.6863014763
 20
92.6212811322
 10
202.7106543252
 20
92.6226032115
 10
202.7330141502
 20
92.6240089431
 10
202.7532641097
 20
92.6254909812
 10
202.7712983874
 20
92.6270415815
 10
202.7870227451
 20
92.6286526412
 10
202.800355015
 20
92.6303157419
 10
202.8112255292
 20
92.6320221929
 10
202.8195774838
 20
92.6337630772
 10
202.8253672355
 20
92.6355292977
 10
202.8285645299
 20
92.637311625
  0
LWPOLYLINE
  5
28D
100
AcDbEntity
  8
RACCORDO
100
AcDbPolyline
 62
250
  6
CONTINUOUS
 90
15
 70
0
 10
131.5716468624
 20
92.6169602104
 10
131.6026053779
 20
92.6178834932
 10
131.6321354802
 20
92.6189150912
 10
131.6600828594
 20
92.6200496136
 10
131.6863014763
 20
92.6212811322
 10
131.7106543252
 20
92.6226032115
 10
131.7330141502
 20
92.6240089431
 10
131.7532641097
 20
92.6254909812
 10
131.7712983874
 20
92.6270415815
 10
131.7870227451
 20
92.6286526412
 10
131.800355015
 20
92.6303157419
 10
131.8112255292
 20
92.6320221929
 10
131.8195774838
 20
92.6337630772
 10
131.8253672355
 20
92.6355292977
 10
131.8285645299
 20
92.637311625
  0
LWPOLYLINE
  5
28E
100
AcDbEntity
  8
RACCORDO
100
AcDbPolyline
 62
250
  6
CONTINUOUS
 90
15
 70
0
 10
60.5716468624
 20
92.6169602104
 10
60.6026053779
 20
92.6178834932
 10
60.6321354802
 20
92.6189150912
 10
60.6600828594
 20
92.6200496136
 10
60.6863014763
 20
92.6212811322
 10
60.7106543252
 20
92.6226032115
 10
60.7330141502
 20
92.6240089431
 10
60.7532641097
 20
92.6254909812
 10
60.7712983874
 20
92.6270415815
 10
60.7870227451
 20
92.6286526412
 10
60.800355015
 20
92.6303157419
 10
60.8112255292
 20
92.6320221929
 10
60.8195774838
 20
92.6337630772
 10
60.8253672355
 20
92.6355292977
 10
60.8285645299
 20
92.637311625
  0
LINE
  5
28F
100
AcDbEntity
  8
RACCORDO
100
AcDbLine
 62
250
  6
CONTINUOUS
 10
202.5060983062
 20
92.6154572976
 11
202.5716468624
 21
92.6169602104
  0
LINE
  5
290
100
AcDbEntity
  8
RACCORDO
100
AcDbLine
 62
250
  6
CONTINUOUS
 10
131.5060983062
 20
92.6154572976
 11
131.5716468624
 21
92.6169602104
  0
LINE
  5
291
100
AcDbEntity
  8
RACCORDO
100
AcDbLine
 62
250
  6
CONTINUOUS
 10
60.5060983062
 20
92.6154572976
 11
60.5716468624
 21
92.6169602104
  0
LINE
  5
292
100
AcDbEntity
  8
RACCORDO
100
AcDbLine
 62
250
  6
CONTINUOUS
 10
270.3126605544
 20
92.2900436525
 11
270.2483253274
 21
92.2885876762
  0
LINE
  5
293
100
AcDbEntity
  8
RACCORDO
100
AcDbLine
 62
250
  6
CONTINUOUS
 10
270.3126622139
 20
92.3525810506
 11
270.248326928
 21
92.3511277691
  0
LINE
  5
294
100
AcDbEntity
  8
RACCORDO
100
AcDbLine
 62
250
  6
CONTINUOUS
 10
202.4368581199
 20
92.6144377256
 11
202.5060983062
 21
92.6154572976
  0
LINE
  5
295
100
AcDbEntity
  8
RACCORDO
100
AcDbLine
 62
250
  6
CONTINUOUS
 10
131.4368581199
 20
92.6144377256
 11
131.5060983062
 21
92.6154572976
  0
LINE
  5
296
100
AcDbEntity
  8
RACCORDO
100
AcDbLine
 62
250
  6
CONTINUOUS
 10
60.4368581199
 20
92.6144377256
 11
60.5060983062
 21
92.6154572976
  0
LINE
  5
297
100
AcDbEntity
  8
RACCORDO
100
AcDbLine
 62
250
  6
CONTINUOUS
 10
270.2483253274
 20
92.2885876762
 11
270.1805438776
 21
92.2876013978
  0
LINE
  5
298
100
AcDbEntity
  8
RACCORDO
100
AcDbLine
 62
250
  6
CONTINUOUS
 10
270.248326928
 20
92.3511277691
 11
270.1805454078
 21
92.3501428157
  0
LINE
  5
299
100
AcDbEntity
  8
RACCORDO
100
AcDbLine
 62
250
  6
CONTINUOUS
 10
270.1805438776
 20
92.2876013978
 11
270.1106668373
 21
92.2871044702
  0
LWPOLYLINE
  5
29A
100
AcDbEntity
  8
RACCORDO
100
AcDbPolyline
 62
250
  6
CONTINUOUS
 90
3
 70
0
 10
270.1805454078
 20
92.3501428157
 10
270.1106682901
 20
92.3496458169
 10
270.0753781295
 20
92.3495837819
  0
LWPOLYLINE
  5
29B
100
AcDbEntity
  8
RACCORDO
100
AcDbPolyline
 62
250
  6
CONTINUOUS
 90
3
 70
0
 10
202.3292514507
 20
92.6138583161
 10
202.3653716737
 20
92.6139227777
 10
202.4368581199
 20
92.6144377256
  0
LWPOLYLINE
  5
29C
100
AcDbEntity
  8
RACCORDO
100
AcDbPolyline
 62
250
  6
CONTINUOUS
 90
3
 70
0
 10
131.3292514507
 20
92.6138583161
 10
131.3653716737
 20
92.6139227777
 10
131.4368581199
 20
92.6144377256
  0
LWPOLYLINE
  5
29D
100
AcDbEntity
  8
RACCORDO
100
AcDbPolyline
 62
250
  6
CONTINUOUS
 90
3
 70
0
 10
60.3292514507
 20
92.6138583161
 10
60.3653716737
 20
92.6139227777
 10
60.4368581199
 20
92.6144377256
  0
LINE
  5
29E
100
AcDbEntity
  8
RACCORDO
100
AcDbLine
 62
250
  6
CONTINUOUS
 10
247.9340927014
 20
91.5128225744
 11
203.4307304893
 21
91.5128225744
  0
LINE
  5
29F
100
AcDbEntity
  8
RACCORDO
100
AcDbLine
 62
250
  6
CONTINUOUS
 10
176.9340927014
 20
91.5128225744
 11
132.4307304893
 21
91.5128225744
  0
LINE
  5
2A0
100
AcDbEntity
  8
RACCORDO
100
AcDbLine
 62
250
  6
CONTINUOUS
 10
105.9340927014
 20
91.5128225744
 11
61.4307304893
 21
91.5128225744
  0
LINE
  5
2A1
100
AcDbEntity
  8
RACCORDO
100
AcDbLine
 62
250
  6
CONTINUOUS
 10
247.9340921006
 20
92.0395563738
 11
203.430709276
 21
92.0395563738
  0
LINE
  5
2A2
100
AcDbEntity
  8
RACCORDO
100
AcDbLine
 62
250
  6
CONTINUOUS
 10
176.9340921006
 20
92.0395563738
 11
132.430709276
 21
92.0395563738
  0
LINE
  5
2A3
100
AcDbEntity
  8
RACCORDO
100
AcDbLine
 62
250
  6
CONTINUOUS
 10
105.9340921006
 20
92.0395563738
 11
61.430709276
 21
92.0395563738
  0
LINE
  5
2A4
100
AcDbEntity
  8
RACCORDO
100
AcDbLine
 62
7
  6
CONTINUOUS
 10
61.4831686646
 20
92.0918585526
 11
105.8816545262
 21
92.0918585526
  0
LINE
  5
2A5
100
AcDbEntity
  8
RACCORDO
100
AcDbLine
 62
7
  6
CONTINUOUS
 10
132.4831686646
 20
92.0918585526
 11
176.8816545262
 21
92.0918585526
  0
LINE
  5
2A6
100
AcDbEntity
  8
RACCORDO
100
AcDbLine
 62
7
  6
CONTINUOUS
 10
203.4831686646
 20
92.0918585526
 11
247.8816545262
 21
92.0918585526
  0
LINE
  5
2A7
100
AcDbEntity
  8
RACCORDO
100
AcDbLine
 62
250
  6
CONTINUOUS
 10
106.9858129743
 20
92.287042994
 11
131.3790527101
 21
92.2869364915
  0
LINE
  5
2A8
100
AcDbEntity
  8
RACCORDO
100
AcDbLine
 62
250
  6
CONTINUOUS
 10
248.9858129743
 20
92.2870429941
 11
270.1106668373
 21
92.2871044702
  0
LINE
  5
2A9
100
AcDbEntity
  8
RACCORDO
100
AcDbLine
 62
250
  6
CONTINUOUS
 10
177.9858129743
 20
92.287042994
 11
202.3790527102
 21
92.2869364915
  0
LINE
  5
2AA
100
AcDbEntity
  8
RACCORDO
100
AcDbLine
 62
250
  6
CONTINUOUS
 10
270.6824115954
 20
92.372438964
 11
270.5734706929
 21
92.372438964
  0
LINE
  5
2AB
100
AcDbEntity
  8
RACCORDO
100
AcDbLine
 62
250
  6
CONTINUOUS
 10
38.6824115954
 20
92.372438964
 11
38.7913524979
 21
92.372438964
  0
LINE
  5
2AC
100
AcDbEntity
  8
RACCORDO
100
AcDbLine
 62
250
  6
CONTINUOUS
 10
39.2541563527
 20
92.2871044693
 11
60.3790527102
 21
92.2869364914
  0
LINE
  5
2AD
100
AcDbEntity
  8
RACCORDO
100
AcDbLine
 62
250
  6
CONTINUOUS
 10
39.2190407611
 20
92.3498324721
 11
39.2894450613
 21
92.3495837822
  0
LINE
  5
2AE
100
AcDbEntity
  8
RACCORDO
100
AcDbLine
 62
250
  6
CONTINUOUS
 10
107.0355717401
 20
92.6138584532
 11
106.963519924
 21
92.6141163643
  0
LINE
  5
2AF
100
AcDbEntity
  8
RACCORDO
100
AcDbLine
 62
250
  6
CONTINUOUS
 10
178.0355717401
 20
92.6138584532
 11
177.963519924
 21
92.6141163643
  0
LINE
  5
2B0
100
AcDbEntity
  8
RACCORDO
100
AcDbLine
 62
250
  6
CONTINUOUS
 10
249.0355717401
 20
92.6138584532
 11
248.963519924
 21
92.6141163643
  0
LINE
  5
2B1
100
AcDbEntity
  8
RACCORDO
100
AcDbLine
 62
250
  6
CONTINUOUS
 10
39.1842793109
 20
92.2876013969
 11
39.2541563527
 21
92.2871044693
  0
LINE
  5
2B2
100
AcDbEntity
  8
RACCORDO
100
AcDbLine
 62
250
  6
CONTINUOUS
 10
39.1500393599
 20
92.3505753007
 11
39.2190407611
 21
92.3498324721
  0
LINE
  5
2B3
100
AcDbEntity
  8
RACCORDO
100
AcDbLine
 62
250
  6
CONTINUOUS
 10
106.963519924
 20
92.6141163643
 11
106.8929721147
 21
92.6148856123
  0
LINE
  5
2B4
100
AcDbEntity
  8
RACCORDO
100
AcDbLine
 62
250
  6
CONTINUOUS
 10
177.963519924
 20
92.6141163643
 11
177.8929721147
 21
92.6148856123
  0
LINE
  5
2B5
100
AcDbEntity
  8
RACCORDO
100
AcDbLine
 62
250
  6
CONTINUOUS
 10
248.963519924
 20
92.6141163643
 11
248.8929721147
 21
92.6148856123
  0
LINE
  5
2B6
100
AcDbEntity
  8
RACCORDO
100
AcDbLine
 62
250
  6
CONTINUOUS
 10
39.1164978597
 20
92.2885876754
 11
39.1842793109
 21
92.2876013969
  0
LWPOLYLINE
  5
2B7
100
AcDbEntity
  8
RACCORDO
100
AcDbPolyline
 62
250
  6
CONTINUOUS
 90
17
 70
0
 10
106.8929721147
 20
92.6148856123
 10
106.8254009908
 20
92.6161501391
 10
106.7931757237
 20
92.6169602732
 10
106.7622170925
 20
92.6178835477
 10
106.7326868733
 20
92.618915138
 10
106.7047393776
 20
92.6200496535
 10
106.6785206466
 20
92.6212811656
 10
106.6541676876
 20
92.6226032392
 10
106.6318077582
 20
92.6240089654
 10
106.6115577014
 20
92.6254909988
 10
106.5935233349
 20
92.6270415949
 10
106.5777988982
 20
92.6286526508
 10
106.5644665603
 20
92.630315748
 10
106.5535959898
 20
92.6320221959
 10
106.5452439916
 20
92.6337630774
 10
106.5394542094
 20
92.6355292954
 10
106.536256898
 20
92.6373116203
  0
LWPOLYLINE
  5
2B8
100
AcDbEntity
  8
RACCORDO
100
AcDbPolyline
 62
250
  6
CONTINUOUS
 90
17
 70
0
 10
177.8929721147
 20
92.6148856123
 10
177.8254009908
 20
92.6161501391
 10
177.7931757237
 20
92.6169602732
 10
177.7622170925
 20
92.6178835477
 10
177.7326868733
 20
92.618915138
 10
177.7047393776
 20
92.6200496535
 10
177.6785206466
 20
92.6212811656
 10
177.6541676876
 20
92.6226032392
 10
177.6318077582
 20
92.6240089654
 10
177.6115577014
 20
92.6254909988
 10
177.5935233349
 20
92.6270415949
 10
177.5777988982
 20
92.6286526508
 10
177.5644665603
 20
92.630315748
 10
177.5535959898
 20
92.6320221959
 10
177.5452439916
 20
92.6337630774
 10
177.5394542094
 20
92.6355292954
 10
177.536256898
 20
92.6373116203
  0
LWPOLYLINE
  5
2B9
100
AcDbEntity
  8
RACCORDO
100
AcDbPolyline
 62
250
  6
CONTINUOUS
 90
17
 70
0
 10
248.8929721147
 20
92.6148856123
 10
248.8254009908
 20
92.6161501391
 10
248.7931757237
 20
92.6169602732
 10
248.7622170925
 20
92.6178835477
 10
248.7326868733
 20
92.618915138
 10
248.7047393776
 20
92.6200496535
 10
248.6785206466
 20
92.6212811656
 10
248.6541676876
 20
92.6226032392
 10
248.6318077582
 20
92.6240089654
 10
248.6115577014
 20
92.6254909988
 10
248.5935233349
 20
92.6270415949
 10
248.5777988982
 20
92.6286526508
 10
248.5644665603
 20
92.630315748
 10
248.5535959898
 20
92.6320221959
 10
248.5452439916
 20
92.6337630774
 10
248.5394542094
 20
92.6355292954
 10
248.536256898
 20
92.6373116203
  0
LWPOLYLINE
  5
2BA
100
AcDbEntity
  8
RACCORDO
100
AcDbPolyline
 62
250
  6
CONTINUOUS
 90
25
 70
0
 10
61.4307092274
 20
92.0395563258
 10
61.3995581236
 20
92.0402876781
 10
61.3683370207
 20
92.0426374859
 10
61.3371317896
 20
92.0466229029
 10
61.3060109901
 20
92.0522599721
 10
61.2750841952
 20
92.059555087
 10
61.2444993873
 20
92.0684949659
 10
61.2143452123
 20
92.0790691684
 10
61.184712596
 20
92.0912615922
 10
61.1557472125
 20
92.1050251905
 10
61.1275407321
 20
92.1203213701
 10
61.1001682885
 20
92.1371144193
 10
61.0737414452
 20
92.1553408383
 10
61.0483339895
 20
92.1749492253
 10
61.0240194557
 20
92.1958820924
 10
61.0008972786
 20
92.2180510224
 10
60.9790259
 20
92.2413906496
 10
60.9584649944
 20
92.26582706
 10
60.9392991075
 20
92.291244334
 10
60.9215722092
 20
92.3175582618
 10
60.905318546
 20
92.344689585
 10
60.8905889755
 20
92.3725190546
 10
60.8774106615
 20
92.4009475156
 10
60.8657932981
 20
92.4298998331
 10
60.85574858
 20
92.4592895855
  0
LWPOLYLINE
  5
2BB
100
AcDbEntity
  8
RACCORDO
100
AcDbPolyline
 62
250
  6
CONTINUOUS
 90
25
 70
0
 10
132.4307092274
 20
92.0395563258
 10
132.3995581236
 20
92.0402876781
 10
132.3683370207
 20
92.0426374859
 10
132.3371317896
 20
92.0466229029
 10
132.3060109901
 20
92.0522599721
 10
132.2750841952
 20
92.059555087
 10
132.2444993873
 20
92.0684949659
 10
132.2143452123
 20
92.0790691684
 10
132.184712596
 20
92.0912615922
 10
132.1557472125
 20
92.1050251905
 10
132.1275407321
 20
92.1203213701
 10
132.1001682885
 20
92.1371144193
 10
132.0737414452
 20
92.1553408383
 10
132.0483339895
 20
92.1749492253
 10
132.0240194557
 20
92.1958820924
 10
132.0008972786
 20
92.2180510224
 10
131.9790259
 20
92.2413906496
 10
131.9584649944
 20
92.26582706
 10
131.9392991075
 20
92.291244334
 10
131.9215722092
 20
92.3175582618
 10
131.905318546
 20
92.344689585
 10
131.8905889755
 20
92.3725190546
 10
131.8774106615
 20
92.4009475156
 10
131.8657932981
 20
92.4298998331
 10
131.85574858
 20
92.4592895855
  0
LWPOLYLINE
  5
2BC
100
AcDbEntity
  8
RACCORDO
100
AcDbPolyline
 62
250
  6
CONTINUOUS
 90
25
 70
0
 10
203.4307092274
 20
92.0395563258
 10
203.3995581236
 20
92.0402876781
 10
203.3683370207
 20
92.0426374859
 10
203.3371317896
 20
92.0466229029
 10
203.3060109901
 20
92.0522599721
 10
203.2750841952
 20
92.059555087
 10
203.2444993873
 20
92.0684949659
 10
203.2143452123
 20
92.0790691684
 10
203.184712596
 20
92.0912615922
 10
203.1557472125
 20
92.1050251905
 10
203.1275407321
 20
92.1203213701
 10
203.1001682885
 20
92.1371144193
 10
203.0737414452
 20
92.1553408383
 10
203.0483339895
 20
92.1749492253
 10
203.0240194557
 20
92.1958820924
 10
203.0008972786
 20
92.2180510224
 10
202.9790259
 20
92.2413906496
 10
202.9584649944
 20
92.26582706
 10
202.9392991075
 20
92.291244334
 10
202.9215722092
 20
92.3175582618
 10
202.905318546
 20
92.344689585
 10
202.8905889755
 20
92.3725190546
 10
202.8774106615
 20
92.4009475156
 10
202.8657932981
 20
92.4298998331
 10
202.85574858
 20
92.4592895855
  0
LWPOLYLINE
  5
2BD
100
AcDbEntity
  8
RACCORDO
100
AcDbPolyline
 62
250
  6
CONTINUOUS
 90
25
 70
0
 10
61.4307304893
 20
91.5128225744
 10
61.3734819155
 20
91.5142567961
 10
61.3164209229
 20
91.5187181185
 10
61.2595475115
 20
91.5262065547
 10
61.2026606859
 20
91.5367330338
 10
61.1459614415
 20
91.5502866802
 10
61.0900527646
 20
91.5668348133
 10
61.0349416983
 20
91.5864264924
 10
60.9806211995
 20
91.6090127639
 10
60.9276731252
 20
91.6344139362
 10
60.876127764
 20
91.6626656226
 10
60.8259548273
 20
91.6937323554
 10
60.7776453065
 20
91.7273278196
 10
60.7312215558
 20
91.7634874746
 10
60.6866612209
 20
91.8021760278
 10
60.6443882305
 20
91.8430010219
 10
60.604433122
 20
91.8859955063
 10
60.5667653579
 20
91.9311265966
 10
60.5317172543
 20
91.9779029053
 10
60.499327488
 20
92.026353056
 10
60.4695573823
 20
92.0764485643
 10
60.4426232231
 20
92.1276123357
 10
60.4185971056
 20
92.179652024
 10
60.3974069346
 20
92.2327600605
 10
60.3790527102
 20
92.2869364914
  0
LWPOLYLINE
  5
2BE
100
AcDbEntity
  8
RACCORDO
100
AcDbPolyline
 62
250
  6
CONTINUOUS
 90
25
 70
0
 10
132.4307304893
 20
91.5128225744
 10
132.3734819155
 20
91.5142567961
 10
132.3164209229
 20
91.5187181185
 10
132.2595475115
 20
91.5262065547
 10
132.2026606859
 20
91.5367330338
 10
132.1459614415
 20
91.5502866802
 10
132.0900527646
 20
91.5668348133
 10
132.0349416983
 20
91.5864264924
 10
131.9806211995
 20
91.6090127639
 10
131.9276731252
 20
91.6344139362
 10
131.876127764
 20
91.6626656226
 10
131.8259548273
 20
91.6937323554
 10
131.7776453065
 20
91.7273278196
 10
131.7312215558
 20
91.7634874746
 10
131.6866612209
 20
91.8021760278
 10
131.6443882305
 20
91.8430010219
 10
131.604433122
 20
91.8859955063
 10
131.5667653579
 20
91.9311265966
 10
131.5317172543
 20
91.9779029053
 10
131.499327488
 20
92.026353056
 10
131.4695573823
 20
92.0764485643
 10
131.4426232231
 20
92.1276123357
 10
131.4185971056
 20
92.179652024
 10
131.3974069346
 20
92.2327600606
 10
131.3790527101
 20
92.2869364915
  0
LWPOLYLINE
  5
2BF
100
AcDbEntity
  8
RACCORDO
100
AcDbPolyline
 62
250
  6
CONTINUOUS
 90
25
 70
0
 10
203.4307304893
 20
91.5128225744
 10
203.3734819155
 20
91.5142567961
 10
203.3164209229
 20
91.5187181185
 10
203.2595475115
 20
91.5262065547
 10
203.2026606859
 20
91.5367330338
 10
203.1459614415
 20
91.5502866802
 10
203.0900527646
 20
91.5668348133
 10
203.0349416983
 20
91.5864264924
 10
202.9806211995
 20
91.6090127639
 10
202.9276731252
 20
91.6344139362
 10
202.876127764
 20
91.6626656226
 10
202.8259548273
 20
91.6937323554
 10
202.7776453065
 20
91.7273278196
 10
202.7312215558
 20
91.7634874746
 10
202.6866612209
 20
91.8021760278
 10
202.6443882305
 20
91.8430010219
 10
202.604433122
 20
91.8859955063
 10
202.5667653579
 20
91.9311265966
 10
202.5317172543
 20
91.9779029053
 10
202.499327488
 20
92.026353056
 10
202.4695573823
 20
92.0764485643
 10
202.4426232231
 20
92.1276123357
 10
202.4185971056
 20
92.179652024
 10
202.3974069346
 20
92.2327600606
 10
202.3790527102
 20
92.2869364915
  0
LWPOLYLINE
  5
2C0
100
AcDbEntity
  8
RACCORDO
100
AcDbPolyline
 62
250
  6
CONTINUOUS
 90
15
 70
0
 10
177.7541536305
 20
137.4214055248
 10
177.7245744341
 20
137.4112588592
 10
177.6963634732
 20
137.4014280062
 10
177.6696685054
 20
137.3919644558
 10
177.6446293482
 20
137.3829177742
 10
177.6213771466
 20
137.3743353443
 10
177.6000336862
 20
137.3662621174
 10
177.5807107554
 20
137.3587403778
 10
177.5635095601
 20
137.3518095214
 10
177.5485201931
 20
137.345505849
 10
177.5358211626
 20
137.3398623769
 10
177.5254789811
 20
137.3349086633
 10
177.5175478167
 20
137.3306706536
 10
177.5120692097
 20
137.3271705449
 10
177.5090718548
 20
137.3244266693
  0
LWPOLYLINE
  5
2C1
100
AcDbEntity
  8
RACCORDO
100
AcDbPolyline
 62
250
  6
CONTINUOUS
 90
15
 70
0
 10
60.6106690437
 20
92.3623113561
 10
60.640248141
 20
92.3724579983
 10
60.6684590017
 20
92.3822888271
 10
60.6951538696
 20
92.3917523529
 10
60.7201929289
 20
92.4007990101
 10
60.743445036
 20
92.4093814162
 10
60.7647884068
 20
92.4174546203
 10
60.7841112539
 20
92.4249763387
 10
60.801312373
 20
92.4319071758
 10
60.8163016722
 20
92.4382108311
 10
60.8290006441
 20
92.4438542887
 10
60.8393427771
 20
92.4488079908
 10
60.8472739038
 20
92.453045992
 10
60.8527524844
 20
92.4565460956
 10
60.8557498244
 20
92.4592899695
  0
LINE
  5
2C2
100
AcDbEntity
  8
RACCORDO
100
AcDbLine
 62
250
  6
CONTINUOUS
 10
177.8167906793
 20
137.4424323413
 11
177.7541536305
 21
137.4214055248
  0
LWPOLYLINE
  5
2C3
100
AcDbEntity
  8
RACCORDO
100
AcDbPolyline
 62
250
  6
CONTINUOUS
 90
3
 70
0
 10
60.5153024829
 20
92.3305145786
 10
60.5480321825
 20
92.3412845818
 10
60.6106690437
 20
92.3623113561
  0
LINE
  5
2C4
100
AcDbEntity
  8
RACCORDO
100
AcDbLine
 62
250
  6
CONTINUOUS
 10
177.8829640675
 20
137.4640685127
 11
177.8167906793
 21
137.4424323413
  0
LWPOLYLINE
  5
2C5
100
AcDbEntity
  8
RACCORDO
100
AcDbPolyline
 62
250
  6
CONTINUOUS
 90
3
 70
0
 10
177.9858129742
 20
137.4966738878
 10
177.9512892524
 20
137.4858613465
 10
177.8829640675
 20
137.4640685127
  0
LINE
  5
2C6
100
AcDbEntity
  8
RACCORDO
100
AcDbLine
 62
250
  6
CONTINUOUS
 10
177.9858129742
 20
92.2870432144
 11
177.9169463287
 21
92.3087432232
  0
LINE
  5
2C7
100
AcDbEntity
  8
RACCORDO
100
AcDbLine
 62
250
  6
CONTINUOUS
 10
177.9169463287
 20
92.3087432232
 11
177.849520469
 21
92.3305147421
  0
LWPOLYLINE
  5
2C8
100
AcDbEntity
  8
RACCORDO
100
AcDbPolyline
 62
250
  6
CONTINUOUS
 90
17
 70
0
 10
177.849520469
 20
92.3305147421
 10
177.7849461435
 20
92.3519022468
 10
177.7541536351
 20
92.3623115814
 10
177.7245744378
 20
92.3724582475
 10
177.6963634757
 20
92.3822891011
 10
177.6696685063
 20
92.3917526521
 10
177.6446293472
 20
92.4007993343
 10
177.6213771434
 20
92.4093817648
 10
177.6000336805
 20
92.4174549924
 10
177.580710747
 20
92.4249767326
 10
177.5635095486
 20
92.4319075898
 10
177.5485201783
 20
92.4382112628
 10
177.5358211443
 20
92.4438547357
 10
177.5254789591
 20
92.4488084501
 10
177.5175477909
 20
92.4530464605
 10
177.5120691799
 20
92.4565465701
 10
177.5090718209
 20
92.4592904466
  0
LWPOLYLINE
  5
2C9
100
AcDbEntity
  8
RACCORDO
100
AcDbPolyline
 62
250
  6
CONTINUOUS
 90
17
 70
0
 10
60.5153026985
 20
137.4532023799
 10
60.579877007
 20
137.4318148788
 10
60.6106695063
 20
137.4214055463
 10
60.640248694
 20
137.4112588824
 10
60.6684596464
 20
137.4014280311
 10
60.6951546061
 20
137.3919644824
 10
60.7201937557
 20
137.3829178025
 10
60.7434459504
 20
137.3743353742
 10
60.7647894046
 20
137.3662621489
 10
60.7841123299
 20
137.3587404106
 10
60.8013135209
 20
137.3518095553
 10
60.8163028845
 20
137.3455058839
 10
60.8290019127
 20
137.3398624124
 10
60.8393440931
 20
137.334908699
 10
60.8472752576
 20
137.3306706893
 10
60.8527538659
 20
137.3271705803
 10
60.8557512233
 20
137.3244267039
  0
LINE
  5
2CA
100
AcDbEntity
  8
RACCORDO
100
AcDbLine
 62
250
  6
CONTINUOUS
 10
177.4824116131
 20
137.0927018646
 11
177.5362586756
 21
137.1464286303
  0
LINE
  5
2CB
100
AcDbEntity
  8
RACCORDO
100
AcDbLine
 62
250
  6
CONTINUOUS
 10
176.8816545262
 20
137.6918585526
 11
176.9340917894
 21
137.7441607315
  0
LINE
  5
2CC
100
AcDbEntity
  8
RACCORDO
100
AcDbLine
 62
250
  6
CONTINUOUS
 10
131.8285645334
 20
92.6373164138
 11
131.8824115777
 21
92.6910152407
  0
LINE
  5
2CD
100
AcDbEntity
  8
RACCORDO
100
AcDbLine
 62
250
  6
CONTINUOUS
 10
132.430709276
 20
92.0395563738
 11
132.4831686646
 21
92.0918585526
  0
LINE
  5
2CE
100
AcDbEntity
  8
RACCORDO
100
AcDbLine
 62
250
  6
CONTINUOUS
 10
60.4478767662
 20
92.3087430872
 11
60.5153024829
 21
92.3305145786
  0
LINE
  5
2CF
100
AcDbEntity
  8
RACCORDO
100
AcDbLine
 62
250
  6
CONTINUOUS
 10
60.3790102165
 20
92.2870430906
 11
60.4478767662
 21
92.3087430872
  0
LWPOLYLINE
  5
2D0
100
AcDbEntity
  8
0
100
AcDbPolyline
 62
7
  6
CONTINUOUS
 90
13
 70
0
 43
0.3500000006
 10
288.0752623901
 20
114.8918547363
 10
286.789555481
 20
114.8918547363
 10
286.3609865112
 20
115.1061482849
 10
285.9324175415
 20
115.5347172546
 10
285.9324175415
 20
115.7490017395
 10
286.3609865112
 20
116.1775707092
 10
286.789555481
 20
116.3918551941
 10
288.0752623901
 20
116.3918551941
 10
288.5038313599
 20
116.1775707092
 10
288.932418457
 20
115.7490017395
 10
288.932418457
 20
115.5347172546
 10
288.5038313599
 20
115.1061482849
 10
288.0752623901
 20
114.8918547363
  0
LINE
  5
2D1
100
AcDbEntity
  8
RACCORDO
100
AcDbLine
 62
250
  6
CONTINUOUS
 10
60.3790102165
 20
137.4966739041
 11
60.4478768527
 21
137.4749738964
  0
LINE
  5
2D2
100
AcDbEntity
  8
RACCORDO
100
AcDbLine
 62
250
  6
CONTINUOUS
 10
60.4478768527
 20
137.4749738964
 11
60.5153026985
 21
137.4532023799
  0
LINE
  5
2D3
100
AcDbEntity
  8
RACCORDO
100
AcDbLine
 62
250
  6
CONTINUOUS
 10
176.9340921006
 20
92.0395563738
 11
176.8816545262
 21
92.0918585526
  0
LINE
  5
2D4
100
AcDbEntity
  8
RACCORDO
100
AcDbLine
 62
250
  6
CONTINUOUS
 10
132.4307314437
 20
137.7441607315
 11
132.4831686646
 21
137.6918585526
  0
LINE
  5
2D5
100
AcDbEntity
  8
RACCORDO
100
AcDbLine
 62
250
  6
CONTINUOUS
 10
131.8285645152
 20
137.1464285875
 11
131.8824115777
 21
137.0927018646
  0
LINE
  5
2D6
100
AcDbEntity
  8
RACCORDO
100
AcDbLine
 62
250
  6
CONTINUOUS
 10
177.5362586754
 20
92.6372888464
 11
177.4824116131
 21
92.6910152407
  0
LWPOLYLINE
  5
2D7
100
AcDbEntity
  8
RACCORDO
100
AcDbPolyline
 62
250
  6
CONTINUOUS
 90
15
 70
0
 10
248.7541536305
 20
137.4214055248
 10
248.7245744341
 20
137.4112588592
 10
248.6963634732
 20
137.4014280062
 10
248.6696685054
 20
137.3919644558
 10
248.6446293482
 20
137.3829177742
 10
248.6213771466
 20
137.3743353443
 10
248.6000336862
 20
137.3662621174
 10
248.5807107554
 20
137.3587403778
 10
248.5635095601
 20
137.3518095214
 10
248.5485201931
 20
137.345505849
 10
248.5358211626
 20
137.3398623769
 10
248.5254789811
 20
137.3349086633
 10
248.5175478167
 20
137.3306706536
 10
248.5120692097
 20
137.3271705449
 10
248.5090718548
 20
137.3244266693
  0
LINE
  5
2D8
100
AcDbEntity
  8
RACCORDO
100
AcDbLine
 62
250
  6
CONTINUOUS
 10
248.8167906793
 20
137.4424323413
 11
248.7541536305
 21
137.4214055248
  0
LINE
  5
2D9
100
AcDbEntity
  8
RACCORDO
100
AcDbLine
 62
250
  6
CONTINUOUS
 10
248.8829640675
 20
137.4640685127
 11
248.8167906793
 21
137.4424323413
  0
LWPOLYLINE
  5
2DA
100
AcDbEntity
  8
RACCORDO
100
AcDbPolyline
 62
250
  6
CONTINUOUS
 90
3
 70
0
 10
248.9858129742
 20
137.4966738878
 10
248.9512892524
 20
137.4858613465
 10
248.8829640675
 20
137.4640685127
  0
LINE
  5
2DB
100
AcDbEntity
  8
RACCORDO
100
AcDbLine
 62
250
  6
CONTINUOUS
 10
248.9858129742
 20
92.2870432144
 11
248.9169463287
 21
92.3087432232
  0
LINE
  5
2DC
100
AcDbEntity
  8
RACCORDO
100
AcDbLine
 62
250
  6
CONTINUOUS
 10
248.9169463287
 20
92.3087432232
 11
248.849520469
 21
92.3305147421
  0
LWPOLYLINE
  5
2DD
100
AcDbEntity
  8
RACCORDO
100
AcDbPolyline
 62
250
  6
CONTINUOUS
 90
17
 70
0
 10
248.849520469
 20
92.3305147421
 10
248.7849461435
 20
92.3519022468
 10
248.7541536351
 20
92.3623115814
 10
248.7245744378
 20
92.3724582475
 10
248.6963634757
 20
92.3822891011
 10
248.6696685063
 20
92.3917526521
 10
248.6446293472
 20
92.4007993343
 10
248.6213771434
 20
92.4093817648
 10
248.6000336805
 20
92.4174549924
 10
248.580710747
 20
92.4249767326
 10
248.5635095486
 20
92.4319075898
 10
248.5485201783
 20
92.4382112628
 10
248.5358211443
 20
92.4438547357
 10
248.5254789591
 20
92.4488084501
 10
248.5175477909
 20
92.4530464605
 10
248.5120691799
 20
92.4565465701
 10
248.5090718209
 20
92.4592904466
  0
LWPOLYLINE
  5
2DE
100
AcDbEntity
  8
RACCORDO
100
AcDbPolyline
 62
250
  6
CONTINUOUS
 90
15
 70
0
 10
131.6106690437
 20
92.3623113561
 10
131.640248141
 20
92.3724579983
 10
131.6684590017
 20
92.3822888271
 10
131.6951538696
 20
92.3917523529
 10
131.7201929289
 20
92.4007990101
 10
131.743445036
 20
92.4093814162
 10
131.7647884068
 20
92.4174546203
 10
131.7841112539
 20
92.4249763387
 10
131.801312373
 20
92.4319071758
 10
131.8163016722
 20
92.4382108311
 10
131.8290006441
 20
92.4438542887
 10
131.8393427771
 20
92.4488079908
 10
131.8472739038
 20
92.453045992
 10
131.8527524844
 20
92.4565460956
 10
131.8557498244
 20
92.4592899695
  0
LINE
  5
2DF
100
AcDbEntity
  8
RACCORDO
100
AcDbLine
 62
250
  6
CONTINUOUS
 10
131.5480321825
 20
92.3412845818
 11
131.6106690437
 21
92.3623113561
  0
LINE
  5
2E0
100
AcDbEntity
  8
RACCORDO
100
AcDbLine
 62
250
  6
CONTINUOUS
 10
131.4818589567
 20
92.3196484431
 11
131.5480321825
 21
92.3412845818
  0
LWPOLYLINE
  5
2E1
100
AcDbEntity
  8
RACCORDO
100
AcDbPolyline
 62
250
  6
CONTINUOUS
 90
3
 70
0
 10
131.3790102165
 20
92.2870430906
 10
131.4135338953
 20
92.2978556285
 10
131.4818589567
 20
92.3196484431
  0
LINE
  5
2E2
100
AcDbEntity
  8
RACCORDO
100
AcDbLine
 62
250
  6
CONTINUOUS
 10
131.3790102165
 20
137.4966739041
 11
131.4478768527
 21
137.4749738964
  0
LINE
  5
2E3
100
AcDbEntity
  8
RACCORDO
100
AcDbLine
 62
250
  6
CONTINUOUS
 10
131.4478768527
 20
137.4749738964
 11
131.5153026985
 21
137.4532023799
  0
LWPOLYLINE
  5
2E4
100
AcDbEntity
  8
RACCORDO
100
AcDbPolyline
 62
250
  6
CONTINUOUS
 90
17
 70
0
 10
131.5153026985
 20
137.4532023799
 10
131.579877007
 20
137.4318148788
 10
131.6106695063
 20
137.4214055463
 10
131.640248694
 20
137.4112588824
 10
131.6684596464
 20
137.4014280311
 10
131.6951546061
 20
137.3919644824
 10
131.7201937557
 20
137.3829178025
 10
131.7434459504
 20
137.3743353742
 10
131.7647894046
 20
137.3662621489
 10
131.7841123299
 20
137.3587404106
 10
131.8013135209
 20
137.3518095553
 10
131.8163028845
 20
137.3455058839
 10
131.8290019127
 20
137.3398624124
 10
131.8393440931
 20
137.334908699
 10
131.8472752576
 20
137.3306706893
 10
131.8527538659
 20
137.3271705803
 10
131.8557512233
 20
137.3244267039
  0
LWPOLYLINE
  5
2E5
100
AcDbEntity
  8
RACCORDO
100
AcDbPolyline
 62
7
  6
CONTINUOUS
 90
25
 70
0
 10
177.4824116131
 20
137.0927018646
 10
177.481103264
 20
137.131966047
 10
177.4772886828
 20
137.1707651486
 10
177.4709678694
 20
137.2090991751
 10
177.4620919234
 20
137.2471383629
 10
177.4507097453
 20
137.2847124855
 10
177.4369680369
 20
137.3213108606
 10
177.4208662494
 20
137.3568799842
 10
177.4024049316
 20
137.391473384
 10
177.3817324319
 20
137.4247409351
 10
177.3587724805
 20
137.4567365143
 10
177.3336013473
 20
137.4874062732
 10
177.3065961901
 20
137.516238508
 10
177.2777193959
 20
137.5431821829
 10
177.2470085778
 20
137.5682883684
 10
177.2149537327
 20
137.5911985264
 10
177.1816028858
 20
137.6118452926
 10
177.146908012
 20
137.6302960639
 10
177.1112150331
 20
137.6463944458
 10
177.0744590442
 20
137.6601406775
 10
177.0367049503
 20
137.6715345435
 10
176.9984933878
 20
137.6804189662
 10
176.9600045691
 20
137.6867415909
 10
176.9210582819
 20
137.6905547853
 10
176.8816545262
 20
137.6918585526
  0
LINE
  5
2E6
100
AcDbEntity
  8
RACCORDO
100
AcDbLine
 62
250
  6
CONTINUOUS
 10
176.9340927014
 20
138.2708945309
 11
176.9340927014
 21
137.7441607315
  0
LINE
  5
2E7
100
AcDbEntity
  8
RACCORDO
100
AcDbLine
 62
250
  6
CONTINUOUS
 10
176.9340927014
 20
91.5128225744
 11
176.9340927014
 21
92.0395563738
  0
LINE
  5
2E8
100
AcDbEntity
  8
RACCORDO
100
AcDbLine
 62
7
  6
CONTINUOUS
 10
177.4824116131
 20
92.6910152407
 11
177.4824116131
 21
137.0927018646
  0
LINE
  5
2E9
100
AcDbEntity
  8
RACCORDO
100
AcDbLine
 62
250
  6
CONTINUOUS
 10
177.5362586756
 20
137.1464286303
 11
177.5362586754
 21
92.6372888464
  0
LINE
  5
2EA
100
AcDbEntity
  8
RACCORDO
100
AcDbLine
 62
250
  6
CONTINUOUS
 10
178.0355717401
 20
137.1698587896
 11
178.0355717401
 21
92.6138583157
  0
LWPOLYLINE
  5
2EB
100
AcDbEntity
  8
RACCORDO
100
AcDbPolyline
 62
250
  6
CONTINUOUS
 90
7
 70
0
 10
177.5362586539
 20
92.6372888674
 10
177.5354978656
 20
92.6071245277
 10
177.5332140062
 20
92.5770587852
 10
177.5294155874
 20
92.5471675739
 10
177.5241149082
 20
92.5175261775
 10
177.5173280081
 20
92.4882090408
 10
177.5090746108
 20
92.4592895855
  0
LWPOLYLINE
  5
2EC
100
AcDbEntity
  8
RACCORDO
100
AcDbPolyline
 62
250
  6
CONTINUOUS
 90
7
 70
0
 10
178.0355717401
 20
92.6138583157
 10
178.0341238364
 20
92.5581664359
 10
178.0299378431
 20
92.5029636308
 10
178.0230137602
 20
92.4482498921
 10
178.0133515878
 20
92.3940252117
 10
178.0009513258
 20
92.3402895817
 10
177.9858129743
 20
92.287042994
  0
LWPOLYLINE
  5
2ED
100
AcDbEntity
  8
RACCORDO
100
AcDbPolyline
 62
7
  6
CONTINUOUS
 90
25
 70
0
 10
203.4831686646
 20
137.6918585526
 10
203.4437648849
 20
137.6905547792
 10
203.4048185867
 20
137.6867415827
 10
203.3663297702
 20
137.6804189597
 10
203.3281182311
 20
137.6715345447
 10
203.2903641737
 20
137.6601406902
 10
203.2536082105
 20
137.6463944676
 10
203.217915237
 20
137.6302960914
 10
203.1832203578
 20
137.6118453232
 10
203.1498694997
 20
137.5911985541
 10
203.1178146333
 20
137.5682883797
 10
203.0871037881
 20
137.5431821717
 10
203.0582269792
 20
137.5162384866
 10
203.0312218318
 20
137.4874062659
 10
203.0060507207
 20
137.4567365334
 10
202.9830907856
 20
137.4247409752
 10
202.9624182891
 20
137.3914734352
 10
202.9439569685
 20
137.3568800412
 10
202.9278551757
 20
137.3213109132
 10
202.9141134588
 20
137.2847125152
 10
202.9027312698
 20
137.2471383596
 10
202.8938553164
 20
137.2090991502
 10
202.8875345012
 20
137.1707651206
 10
202.8837199217
 20
137.1319660273
 10
202.8824115777
 20
137.0927018646
  0
LWPOLYLINE
  5
2EE
100
AcDbEntity
  8
RACCORDO
100
AcDbPolyline
 62
7
  6
CONTINUOUS
 90
25
 70
0
 10
132.4831686646
 20
137.6918585526
 10
132.4437648849
 20
137.6905547792
 10
132.4048185867
 20
137.6867415827
 10
132.3663297702
 20
137.6804189597
 10
132.3281182311
 20
137.6715345447
 10
132.2903641737
 20
137.6601406902
 10
132.2536082105
 20
137.6463944676
 10
132.217915237
 20
137.6302960914
 10
132.1832203578
 20
137.6118453232
 10
132.1498694997
 20
137.5911985541
 10
132.1178146333
 20
137.5682883797
 10
132.0871037881
 20
137.5431821717
 10
132.0582269792
 20
137.5162384866
 10
132.0312218318
 20
137.4874062659
 10
132.0060507207
 20
137.4567365334
 10
131.9830907856
 20
137.4247409752
 10
131.9624182891
 20
137.3914734352
 10
131.9439569685
 20
137.3568800412
 10
131.9278551757
 20
137.3213109132
 10
131.9141134588
 20
137.2847125152
 10
131.9027312698
 20
137.2471383596
 10
131.8938553164
 20
137.2090991502
 10
131.8875345012
 20
137.1707651206
 10
131.8837199217
 20
137.1319660273
 10
131.8824115777
 20
137.0927018646
  0
LWPOLYLINE
  5
2EF
100
AcDbEntity
  8
RACCORDO
100
AcDbPolyline
 62
7
  6
CONTINUOUS
 90
25
 70
0
 10
61.4831686646
 20
137.6918585526
 10
61.4437648849
 20
137.6905547792
 10
61.4048185867
 20
137.6867415827
 10
61.3663297702
 20
137.6804189597
 10
61.3281182311
 20
137.6715345447
 10
61.2903641737
 20
137.6601406902
 10
61.2536082105
 20
137.6463944676
 10
61.217915237
 20
137.6302960914
 10
61.1832203578
 20
137.6118453232
 10
61.1498694997
 20
137.5911985541
 10
61.1178146333
 20
137.5682883797
 10
61.0871037881
 20
137.5431821717
 10
61.0582269792
 20
137.5162384866
 10
61.0312218318
 20
137.4874062659
 10
61.0060507207
 20
137.4567365334
 10
60.9830907856
 20
137.4247409752
 10
60.9624182891
 20
137.3914734352
 10
60.9439569685
 20
137.3568800412
 10
60.9278551757
 20
137.3213109132
 10
60.9141134588
 20
137.2847125152
 10
60.9027312698
 20
137.2471383596
 10
60.8938553164
 20
137.2090991502
 10
60.8875345012
 20
137.1707651206
 10
60.8837199217
 20
137.1319660273
 10
60.8824115777
 20
137.0927018646
  0
LWPOLYLINE
  5
2F0
100
AcDbEntity
  8
RACCORDO
100
AcDbPolyline
 62
250
  6
CONTINUOUS
 90
15
 70
0
 10
248.7931763284
 20
137.1667568948
 10
248.7622178129
 20
137.165833612
 10
248.7326877106
 20
137.1648020141
 10
248.7047403313
 20
137.1636674916
 10
248.6785217145
 20
137.1624359731
 10
248.6541688656
 20
137.1611138937
 10
248.6318090406
 20
137.1597081622
 10
248.6115590811
 20
137.1582261241
 10
248.5935248034
 20
137.1566755238
 10
248.5778004457
 20
137.155064464
 10
248.5644681758
 20
137.1534013634
 10
248.5535976616
 20
137.1516949124
 10
248.545245707
 20
137.1499540281
 10
248.5394559553
 20
137.1481878076
 10
248.5362586609
 20
137.1464054802
  0
LWPOLYLINE
  5
2F1
100
AcDbEntity
  8
RACCORDO
100
AcDbPolyline
 62
250
  6
CONTINUOUS
 90
15
 70
0
 10
177.7931763284
 20
137.1667568948
 10
177.7622178129
 20
137.165833612
 10
177.7326877106
 20
137.1648020141
 10
177.7047403313
 20
137.1636674916
 10
177.6785217145
 20
137.1624359731
 10
177.6541688656
 20
137.1611138937
 10
177.6318090406
 20
137.1597081622
 10
177.6115590811
 20
137.1582261241
 10
177.5935248034
 20
137.1566755238
 10
177.5778004457
 20
137.155064464
 10
177.5644681758
 20
137.1534013634
 10
177.5535976616
 20
137.1516949124
 10
177.545245707
 20
137.1499540281
 10
177.5394559553
 20
137.1481878076
 10
177.5362586609
 20
137.1464054802
  0
LWPOLYLINE
  5
2F2
100
AcDbEntity
  8
RACCORDO
100
AcDbPolyline
 62
250
  6
CONTINUOUS
 90
15
 70
0
 10
106.7931763284
 20
137.1667568948
 10
106.7622178129
 20
137.165833612
 10
106.7326877106
 20
137.1648020141
 10
106.7047403313
 20
137.1636674916
 10
106.6785217145
 20
137.1624359731
 10
106.6541688656
 20
137.1611138937
 10
106.6318090406
 20
137.1597081622
 10
106.6115590811
 20
137.1582261241
 10
106.5935248034
 20
137.1566755238
 10
106.5778004457
 20
137.155064464
 10
106.5644681758
 20
137.1534013634
 10
106.5535976616
 20
137.1516949124
 10
106.545245707
 20
137.1499540281
 10
106.5394559553
 20
137.1481878076
 10
106.5362586609
 20
137.1464054802
  0
LINE
  5
2F3
100
AcDbEntity
  8
RACCORDO
100
AcDbLine
 62
250
  6
CONTINUOUS
 10
248.8587248846
 20
137.1682598076
 11
248.7931763284
 21
137.1667568948
  0
LINE
  5
2F4
100
AcDbEntity
  8
RACCORDO
100
AcDbLine
 62
250
  6
CONTINUOUS
 10
177.8587248846
 20
137.1682598076
 11
177.7931763284
 21
137.1667568948
  0
LINE
  5
2F5
100
AcDbEntity
  8
RACCORDO
100
AcDbLine
 62
250
  6
CONTINUOUS
 10
106.8587248846
 20
137.1682598076
 11
106.7931763284
 21
137.1667568948
  0
LINE
  5
2F6
100
AcDbEntity
  8
RACCORDO
100
AcDbLine
 62
250
  6
CONTINUOUS
 10
39.0521609769
 20
137.4311402476
 11
39.1164962628
 21
137.4325935293
  0
LINE
  5
2F7
100
AcDbEntity
  8
RACCORDO
100
AcDbLine
 62
250
  6
CONTINUOUS
 10
39.0521626387
 20
137.4936734524
 11
39.1164978652
 21
137.4951294287
  0
LINE
  5
2F8
100
AcDbEntity
  8
RACCORDO
100
AcDbLine
 62
250
  6
CONTINUOUS
 10
248.9279650709
 20
137.1692793796
 11
248.8587248846
 21
137.1682598076
  0
LINE
  5
2F9
100
AcDbEntity
  8
RACCORDO
100
AcDbLine
 62
250
  6
CONTINUOUS
 10
177.9279650709
 20
137.1692793796
 11
177.8587248846
 21
137.1682598076
  0
LINE
  5
2FA
100
AcDbEntity
  8
RACCORDO
100
AcDbLine
 62
250
  6
CONTINUOUS
 10
106.9279650709
 20
137.1692793796
 11
106.8587248846
 21
137.1682598076
  0
LINE
  5
2FB
100
AcDbEntity
  8
RACCORDO
100
AcDbLine
 62
250
  6
CONTINUOUS
 10
39.1164962628
 20
137.4325935293
 11
39.184277783
 21
137.4335784828
  0
LINE
  5
2FC
100
AcDbEntity
  8
RACCORDO
100
AcDbLine
 62
250
  6
CONTINUOUS
 10
39.1164978652
 20
137.4951294287
 11
39.1842793143
 21
137.4961157071
  0
LWPOLYLINE
  5
2FD
100
AcDbEntity
  8
RACCORDO
100
AcDbPolyline
 62
250
  6
CONTINUOUS
 90
3
 70
0
 10
39.184277783
 20
137.4335784828
 10
39.2541549008
 20
137.4340754816
 10
39.2894450613
 20
137.4341375166
  0
LINE
  5
2FE
100
AcDbEntity
  8
RACCORDO
100
AcDbLine
 62
250
  6
CONTINUOUS
 10
39.1842793143
 20
137.4961157071
 11
39.2541563539
 21
137.4966126347
  0
LWPOLYLINE
  5
2FF
100
AcDbEntity
  8
RACCORDO
100
AcDbPolyline
 62
250
  6
CONTINUOUS
 90
3
 70
0
 10
249.0355717401
 20
137.1698587891
 10
248.9994515171
 20
137.1697943276
 10
248.9279650709
 20
137.1692793796
  0
LWPOLYLINE
  5
300
100
AcDbEntity
  8
RACCORDO
100
AcDbPolyline
 62
250
  6
CONTINUOUS
 90
3
 70
0
 10
178.0355717401
 20
137.1698587891
 10
177.9994515171
 20
137.1697943276
 10
177.9279650709
 20
137.1692793796
  0
LWPOLYLINE
  5
301
100
AcDbEntity
  8
RACCORDO
100
AcDbPolyline
 62
250
  6
CONTINUOUS
 90
3
 70
0
 10
107.0355717401
 20
137.1698587891
 10
106.9994515171
 20
137.1697943276
 10
106.9279650709
 20
137.1692793796
  0
LINE
  5
302
100
AcDbEntity
  8
RACCORDO
100
AcDbLine
 62
250
  6
CONTINUOUS
 10
270.6824115954
 20
137.4112781413
 11
270.5734706929
 21
137.4112781413
  0
LINE
  5
303
100
AcDbEntity
  8
RACCORDO
100
AcDbLine
 62
250
  6
CONTINUOUS
 10
38.6824115954
 20
137.4112781413
 11
38.791352498
 21
137.4112823306
  0
LINE
  5
304
100
AcDbEntity
  8
RACCORDO
100
AcDbLine
 62
250
  6
CONTINUOUS
 10
202.3790102165
 20
137.4966741112
 11
177.9858129743
 21
137.4966741112
  0
LINE
  5
305
100
AcDbEntity
  8
RACCORDO
100
AcDbLine
 62
250
  6
CONTINUOUS
 10
131.3790102165
 20
137.4966741112
 11
106.9858129743
 21
137.4966741112
  0
LINE
  5
306
100
AcDbEntity
  8
RACCORDO
100
AcDbLine
 62
250
  6
CONTINUOUS
 10
60.3790102165
 20
137.4966741112
 11
39.2541563539
 21
137.4966126347
  0
LINE
  5
307
100
AcDbEntity
  8
RACCORDO
100
AcDbLine
 62
7
  6
CONTINUOUS
 10
247.8816545262
 20
137.6918585526
 11
203.4831686646
 21
137.6918585526
  0
LINE
  5
308
100
AcDbEntity
  8
RACCORDO
100
AcDbLine
 62
7
  6
CONTINUOUS
 10
176.8816545262
 20
137.6918585526
 11
132.4831686646
 21
137.6918585526
  0
LINE
  5
309
100
AcDbEntity
  8
RACCORDO
100
AcDbLine
 62
7
  6
CONTINUOUS
 10
105.8816545262
 20
137.6918585526
 11
61.4831686646
 21
137.6918585526
  0
LINE
  5
30A
100
AcDbEntity
  8
RACCORDO
100
AcDbLine
 62
250
  6
CONTINUOUS
 10
61.4307314437
 20
137.7441607315
 11
105.9340917894
 21
137.7441607315
  0
LINE
  5
30B
100
AcDbEntity
  8
RACCORDO
100
AcDbLine
 62
250
  6
CONTINUOUS
 10
132.4307314437
 20
137.7441607315
 11
176.9340917894
 21
137.7441607315
  0
LINE
  5
30C
100
AcDbEntity
  8
RACCORDO
100
AcDbLine
 62
250
  6
CONTINUOUS
 10
203.4307314437
 20
137.7441607315
 11
247.9340917894
 21
137.7441607315
  0
LINE
  5
30D
100
AcDbEntity
  8
RACCORDO
100
AcDbLine
 62
250
  6
CONTINUOUS
 10
61.4307304893
 20
138.2708945309
 11
105.9340927014
 21
138.2708945309
  0
LINE
  5
30E
100
AcDbEntity
  8
RACCORDO
100
AcDbLine
 62
250
  6
CONTINUOUS
 10
132.4307304893
 20
138.2708945309
 11
176.9340927014
 21
138.2708945309
  0
LINE
  5
30F
100
AcDbEntity
  8
RACCORDO
100
AcDbLine
 62
250
  6
CONTINUOUS
 10
203.4307304893
 20
138.2708945309
 11
247.9340927014
 21
138.2708945309
  0
LINE
  5
310
100
AcDbEntity
  8
RACCORDO
100
AcDbLine
 62
250
  6
CONTINUOUS
 10
270.1106668381
 20
137.4966126359
 11
248.9858129743
 21
137.4966741112
  0
LINE
  5
311
100
AcDbEntity
  8
RACCORDO
100
AcDbLine
 62
250
  6
CONTINUOUS
 10
60.3292514507
 20
137.1698586387
 11
60.4013032781
 21
137.1696007299
  0
LINE
  5
312
100
AcDbEntity
  8
RACCORDO
100
AcDbLine
 62
250
  6
CONTINUOUS
 10
131.3292514507
 20
137.1698586387
 11
131.4013032781
 21
137.1696007299
  0
LINE
  5
313
100
AcDbEntity
  8
RACCORDO
100
AcDbLine
 62
250
  6
CONTINUOUS
 10
202.3292514507
 20
137.1698586387
 11
202.4013032781
 21
137.1696007299
  0
LINE
  5
314
100
AcDbEntity
  8
RACCORDO
100
AcDbLine
 62
250
  6
CONTINUOUS
 10
270.1457824297
 20
137.4338846331
 11
270.0753781295
 21
137.4341333231
  0
LINE
  5
315
100
AcDbEntity
  8
RACCORDO
100
AcDbLine
 62
250
  6
CONTINUOUS
 10
270.1805438799
 20
137.4961157083
 11
270.1106668381
 21
137.4966126359
  0
LINE
  5
316
100
AcDbEntity
  8
RACCORDO
100
AcDbLine
 62
250
  6
CONTINUOUS
 10
270.2147838309
 20
137.4331418046
 11
270.1457824297
 21
137.4338846331
  0
LINE
  5
317
100
AcDbEntity
  8
RACCORDO
100
AcDbLine
 62
250
  6
CONTINUOUS
 10
60.4013032781
 20
137.1696007299
 11
60.4718511039
 21
137.168831484
  0
LINE
  5
318
100
AcDbEntity
  8
RACCORDO
100
AcDbLine
 62
250
  6
CONTINUOUS
 10
131.4013032781
 20
137.1696007299
 11
131.4718511039
 21
137.168831484
  0
LINE
  5
319
100
AcDbEntity
  8
RACCORDO
100
AcDbLine
 62
250
  6
CONTINUOUS
 10
202.4013032781
 20
137.1696007299
 11
202.4718511039
 21
137.168831484
  0
LINE
  5
31A
100
AcDbEntity
  8
RACCORDO
100
AcDbLine
 62
250
  6
CONTINUOUS
 10
270.2483253311
 20
137.4951294299
 11
270.1805438799
 21
137.4961157083
  0
LWPOLYLINE
  5
31B
100
AcDbEntity
  8
RACCORDO
100
AcDbPolyline
 62
250
  6
CONTINUOUS
 90
17
 70
0
 10
60.4718511039
 20
137.168831484
 10
60.539422248
 20
137.1675669592
 10
60.5716475261
 20
137.1667568259
 10
60.6026061685
 20
137.1658335522
 10
60.6321363992
 20
137.1648019626
 10
60.6600839063
 20
137.1636674478
 10
60.6863026485
 20
137.1624359363
 10
60.7106556183
 20
137.1611138634
 10
60.7330155579
 20
137.1597081376
 10
60.7532656243
 20
137.1582261047
 10
60.7712999995
 20
137.1566755091
 10
60.7870244439
 20
137.1550644535
 10
60.8003567886
 20
137.1534013566
 10
60.8112273646
 20
137.151694909
 10
60.8195793672
 20
137.1499540278
 10
60.8253691524
 20
137.1481878101
 10
60.8285664655
 20
137.1464054854
  0
LWPOLYLINE
  5
31C
100
AcDbEntity
  8
RACCORDO
100
AcDbPolyline
 62
250
  6
CONTINUOUS
 90
17
 70
0
 10
131.4718511039
 20
137.168831484
 10
131.539422248
 20
137.1675669592
 10
131.5716475261
 20
137.1667568259
 10
131.6026061685
 20
137.1658335522
 10
131.6321363992
 20
137.1648019626
 10
131.6600839063
 20
137.1636674478
 10
131.6863026485
 20
137.1624359363
 10
131.7106556183
 20
137.1611138634
 10
131.7330155579
 20
137.1597081376
 10
131.7532656243
 20
137.1582261047
 10
131.7712999995
 20
137.1566755091
 10
131.7870244439
 20
137.1550644535
 10
131.8003567886
 20
137.1534013566
 10
131.8112273646
 20
137.151694909
 10
131.8195793672
 20
137.1499540278
 10
131.8253691524
 20
137.1481878101
 10
131.8285664655
 20
137.1464054854
  0
LWPOLYLINE
  5
31D
100
AcDbEntity
  8
RACCORDO
100
AcDbPolyline
 62
250
  6
CONTINUOUS
 90
17
 70
0
 10
202.4718511039
 20
137.168831484
 10
202.539422248
 20
137.1675669592
 10
202.5716475261
 20
137.1667568259
 10
202.6026061685
 20
137.1658335522
 10
202.6321363992
 20
137.1648019626
 10
202.6600839063
 20
137.1636674478
 10
202.6863026485
 20
137.1624359363
 10
202.7106556183
 20
137.1611138634
 10
202.7330155579
 20
137.1597081376
 10
202.7532656243
 20
137.1582261047
 10
202.7712999995
 20
137.1566755091
 10
202.7870244439
 20
137.1550644535
 10
202.8003567886
 20
137.1534013566
 10
202.8112273646
 20
137.151694909
 10
202.8195793672
 20
137.1499540278
 10
202.8253691524
 20
137.1481878101
 10
202.8285664655
 20
137.1464054854
  0
LWPOLYLINE
  5
31E
100
AcDbEntity
  8
RACCORDO
100
AcDbPolyline
 62
250
  6
CONTINUOUS
 90
25
 70
0
 10
105.9340917873
 20
137.7441607294
 10
105.9658167819
 20
137.7434019654
 10
105.9974642095
 20
137.7409796568
 10
106.0289464243
 20
137.7368992357
 10
106.0601436022
 20
137.731178196
 10
106.0910022637
 20
137.7238271983
 10
106.1215313577
 20
137.7148328506
 10
106.1517241914
 20
137.7041718491
 10
106.1814033066
 20
137.6918810622
 10
106.2103275504
 20
137.6780539597
 10
106.2383746025
 20
137.662763703
 10
106.2655165508
 20
137.6460407415
 10
106.2916697748
 20
137.6279465323
 10
106.3167473109
 20
137.6085574159
 10
106.3407080271
 20
137.5879220533
 10
106.363537016
 20
137.566059111
 10
106.3851778718
 20
137.5430229463
 10
106.4055642907
 20
137.5188845198
 10
106.4246604433
 20
137.4936808319
 10
106.4424250899
 20
137.4674543274
 10
106.458786305
 20
137.4402986057
 10
106.4736700695
 20
137.4123326095
 10
106.4870304714
 20
137.3836515992
 10
106.4988419703
 20
137.3543222585
 10
106.5090746108
 20
137.3244275198
  0
LWPOLYLINE
  5
31F
100
AcDbEntity
  8
RACCORDO
100
AcDbPolyline
 62
250
  6
CONTINUOUS
 90
25
 70
0
 10
176.9340917873
 20
137.7441607294
 10
176.9658167819
 20
137.7434019654
 10
176.9974642095
 20
137.7409796568
 10
177.0289464243
 20
137.7368992357
 10
177.0601436022
 20
137.731178196
 10
177.0910022637
 20
137.7238271983
 10
177.1215313577
 20
137.7148328506
 10
177.1517241914
 20
137.7041718491
 10
177.1814033066
 20
137.6918810622
 10
177.2103275504
 20
137.6780539597
 10
177.2383746025
 20
137.662763703
 10
177.2655165508
 20
137.6460407415
 10
177.2916697749
 20
137.6279465323
 10
177.3167473109
 20
137.6085574159
 10
177.3407080271
 20
137.5879220533
 10
177.363537016
 20
137.566059111
 10
177.3851778718
 20
137.5430229463
 10
177.4055642907
 20
137.5188845198
 10
177.4246604433
 20
137.4936808319
 10
177.4424250899
 20
137.4674543274
 10
177.458786305
 20
137.4402986057
 10
177.4736700695
 20
137.4123326095
 10
177.4870304714
 20
137.3836515992
 10
177.4988419703
 20
137.3543222585
 10
177.5090746108
 20
137.3244275198
  0
LWPOLYLINE
  5
320
100
AcDbEntity
  8
RACCORDO
100
AcDbPolyline
 62
250
  6
CONTINUOUS
 90
25
 70
0
 10
247.9340917873
 20
137.7441607294
 10
247.9658167819
 20
137.7434019654
 10
247.9974642095
 20
137.7409796568
 10
248.0289464243
 20
137.7368992357
 10
248.0601436022
 20
137.731178196
 10
248.0910022637
 20
137.7238271983
 10
248.1215313578
 20
137.7148328506
 10
248.1517241914
 20
137.7041718491
 10
248.1814033066
 20
137.6918810622
 10
248.2103275504
 20
137.6780539597
 10
248.2383746026
 20
137.662763703
 10
248.2655165508
 20
137.6460407415
 10
248.2916697749
 20
137.6279465323
 10
248.3167473109
 20
137.6085574159
 10
248.3407080271
 20
137.5879220533
 10
248.363537016
 20
137.566059111
 10
248.3851778719
 20
137.5430229463
 10
248.4055642907
 20
137.5188845198
 10
248.4246604433
 20
137.4936808319
 10
248.44242509
 20
137.4674543274
 10
248.458786305
 20
137.4402986057
 10
248.4736700695
 20
137.4123326095
 10
248.4870304714
 20
137.3836515992
 10
248.4988419703
 20
137.3543222585
 10
248.5090746108
 20
137.3244275198
  0
LWPOLYLINE
  5
321
100
AcDbEntity
  8
RACCORDO
100
AcDbPolyline
 62
250
  6
CONTINUOUS
 90
25
 70
0
 10
105.9340927014
 20
138.2708945309
 10
105.9924088609
 20
138.2693341883
 10
106.0502651893
 20
138.2647467839
 10
106.1076616867
 20
138.2571323039
 10
106.1647025639
 20
138.2464839448
 10
106.2212836101
 20
138.2328084561
 10
106.2770921925
 20
138.2161261409
 10
106.3322729783
 20
138.1963481655
 10
106.3866813003
 20
138.1735632562
 10
106.4395705244
 20
138.148058049
 10
106.4908282157
 20
138.1198218936
 10
106.5405668092
 20
138.0888653001
 10
106.5883769756
 20
138.055506651
 10
106.6342080472
 20
138.01976373
 10
106.6781106917
 20
137.9816185977
 10
106.7198275836
 20
137.9413360635
 10
106.7593652635
 20
137.89890037
 10
106.7967171906
 20
137.8543271121
 10
106.8316064172
 20
137.8079281451
 10
106.8640464861
 20
137.7596273864
 10
106.8940238544
 20
137.709500763
 10
106.9212209451
 20
137.658088179
 10
106.9455318991
 20
137.6055695761
 10
106.9670625755
 20
137.5517649059
 10
106.9858129743
 20
137.4966741112
  0
LWPOLYLINE
  5
322
100
AcDbEntity
  8
RACCORDO
100
AcDbPolyline
 62
250
  6
CONTINUOUS
 90
25
 70
0
 10
176.9340927014
 20
138.2708945309
 10
176.9924088609
 20
138.2693341883
 10
177.0502651893
 20
138.2647467839
 10
177.1076616867
 20
138.2571323039
 10
177.1647025639
 20
138.2464839448
 10
177.2212836101
 20
138.2328084561
 10
177.2770921925
 20
138.2161261409
 10
177.3322729783
 20
138.1963481655
 10
177.3866813003
 20
138.1735632562
 10
177.4395705244
 20
138.148058049
 10
177.4908282157
 20
138.1198218936
 10
177.5405668092
 20
138.0888653001
 10
177.5883769756
 20
138.055506651
 10
177.6342080472
 20
138.01976373
 10
177.6781106918
 20
137.9816185977
 10
177.7198275836
 20
137.9413360635
 10
177.7593652635
 20
137.89890037
 10
177.7967171906
 20
137.854327112
 10
177.8316064172
 20
137.807928145
 10
177.8640464861
 20
137.7596273864
 10
177.8940238544
 20
137.709500763
 10
177.9212209451
 20
137.658088179
 10
177.9455318991
 20
137.6055695761
 10
177.9670625755
 20
137.5517649059
 10
177.9858129743
 20
137.4966741112
  0
LWPOLYLINE
  5
323
100
AcDbEntity
  8
RACCORDO
100
AcDbPolyline
 62
250
  6
CONTINUOUS
 90
25
 70
0
 10
247.9340927014
 20
138.2708945309
 10
247.9924088609
 20
138.2693341883
 10
248.0502651894
 20
138.2647467839
 10
248.1076616867
 20
138.2571323039
 10
248.1647025639
 20
138.2464839448
 10
248.2212836101
 20
138.2328084561
 10
248.2770921925
 20
138.2161261409
 10
248.3322729783
 20
138.1963481655
 10
248.3866813003
 20
138.1735632562
 10
248.4395705245
 20
138.148058049
 10
248.4908282158
 20
138.1198218936
 10
248.5405668092
 20
138.0888653001
 10
248.5883769757
 20
138.0555066509
 10
248.6342080472
 20
138.0197637299
 10
248.6781106918
 20
137.9816185976
 10
248.7198275836
 20
137.9413360635
 10
248.7593652635
 20
137.89890037
 10
248.7967171907
 20
137.854327112
 10
248.8316064172
 20
137.807928145
 10
248.8640464861
 20
137.7596273864
 10
248.8940238544
 20
137.709500763
 10
248.9212209451
 20
137.658088179
 10
248.9455318991
 20
137.6055695761
 10
248.9670625755
 20
137.5517649059
 10
248.9858129743
 20
137.4966741112
  0
LWPOLYLINE
  5
324
100
AcDbEntity
  8
RACCORDO
100
AcDbPolyline
 62
250
  6
CONTINUOUS
 90
7
 70
0
 10
177.5090746108
 20
137.3244275198
 10
177.517329297
 20
137.2955030606
 10
177.5241165609
 20
137.2661828536
 10
177.5294169811
 20
137.2365404133
 10
177.5332148277
 20
137.2066502466
 10
177.5354981167
 20
137.1765876675
 10
177.5362586538
 20
137.146428609
  0
LWPOLYLINE
  5
325
100
AcDbEntity
  8
RACCORDO
100
AcDbPolyline
 62
250
  6
CONTINUOUS
 90
25
 70
0
 10
177.9858129743
 20
92.287042994
 10
177.9670553189
 20
92.231935054
 10
177.945517763
 20
92.1781165771
 10
177.9212003064
 20
92.1255875059
 10
177.893996911
 20
92.074168287
 10
177.864013615
 20
92.0240383668
 10
177.8315685326
 20
91.9757361646
 10
177.796674958
 20
91.9293371477
 10
177.7593195971
 20
91.8847656929
 10
177.7197806817
 20
91.8423335482
 10
177.6780654654
 20
91.8020569025
 10
177.6341666947
 20
91.7639194042
 10
177.5883408409
 20
91.7281839736
 10
177.540537442
 20
91.6948323705
 10
177.4908069599
 20
91.6638826796
 10
177.4395572518
 20
91.6356522972
 10
177.3866771667
 20
91.6101515992
 10
177.3322778556
 20
91.5873700696
 10
177.2771006291
 20
91.5675937611
 10
177.2212848488
 20
91.5509103038
 10
177.1646911531
 20
91.5372319601
 10
177.107642768
 20
91.5265817377
 10
177.0502474353
 20
91.5189672874
 10
176.9923974131
 20
91.5143809042
 10
176.9340927014
 20
91.5128225744
  0
LWPOLYLINE
  5
326
100
AcDbEntity
  8
RACCORDO
100
AcDbPolyline
 62
250
  6
CONTINUOUS
 90
25
 70
0
 10
177.5090746108
 20
92.4592895855
 10
177.4988391173
 20
92.4293871884
 10
177.4870243563
 20
92.4000514198
 10
177.4736604517
 20
92.3713652093
 10
177.4587730994
 20
92.3433952069
 10
177.4424083821
 20
92.3162366531
 10
177.4246405133
 20
92.2900084784
 10
177.4055415025
 20
92.2648041147
 10
177.3851527997
 20
92.2406660206
 10
177.3635106622
 20
92.2176313883
 10
177.3406819036
 20
92.1957713231
 10
177.316722776
 20
92.1751396603
 10
177.2916475451
 20
92.1557543041
 10
177.2654973063
 20
92.1376637863
 10
177.2383590989
 20
92.1209444032
 10
177.2103158971
 20
92.1056571829
 10
177.1813961073
 20
92.0918328274
 10
177.1517214791
 20
92.0795442091
 10
177.121530706
 20
92.0688840371
 10
177.090998451
 20
92.0598888875
 10
177.0601338487
 20
92.0525368517
 10
177.0289334639
 20
92.0468158406
 10
176.9974527535
 20
92.0427362671
 10
176.9658097504
 20
92.0403147861
 10
176.9340920992
 20
92.0395563752
  0
LWPOLYLINE
  5
327
100
AcDbEntity
  8
RACCORDO
100
AcDbPolyline
 62
250
  6
CONTINUOUS
 90
15
 70
0
 10
202.6106690437
 20
92.3623113561
 10
202.640248141
 20
92.3724579983
 10
202.6684590017
 20
92.3822888271
 10
202.6951538696
 20
92.3917523529
 10
202.7201929289
 20
92.4007990101
 10
202.743445036
 20
92.4093814162
 10
202.7647884068
 20
92.4174546203
 10
202.7841112539
 20
92.4249763387
 10
202.801312373
 20
92.4319071758
 10
202.8163016722
 20
92.4382108311
 10
202.8290006441
 20
92.4438542887
 10
202.8393427771
 20
92.4488079908
 10
202.8472739038
 20
92.453045992
 10
202.8527524844
 20
92.4565460956
 10
202.8557498244
 20
92.4592899695
  0
LINE
  5
328
100
AcDbEntity
  8
RACCORDO
100
AcDbLine
 62
250
  6
CONTINUOUS
 10
202.5480321825
 20
92.3412845818
 11
202.6106690437
 21
92.3623113561
  0
LINE
  5
329
100
AcDbEntity
  8
RACCORDO
100
AcDbLine
 62
250
  6
CONTINUOUS
 10
202.4818589567
 20
92.3196484431
 11
202.5480321825
 21
92.3412845818
  0
LWPOLYLINE
  5
32A
100
AcDbEntity
  8
RACCORDO
100
AcDbPolyline
 62
250
  6
CONTINUOUS
 90
3
 70
0
 10
202.3790102165
 20
92.2870430906
 10
202.4135338953
 20
92.2978556285
 10
202.4818589567
 20
92.3196484431
  0
LINE
  5
32B
100
AcDbEntity
  8
RACCORDO
100
AcDbLine
 62
250
  6
CONTINUOUS
 10
202.3790102165
 20
137.4966739041
 11
202.4478768527
 21
137.4749738964
  0
LINE
  5
32C
100
AcDbEntity
  8
RACCORDO
100
AcDbLine
 62
250
  6
CONTINUOUS
 10
202.4478768527
 20
137.4749738964
 11
202.5153026985
 21
137.4532023799
  0
LWPOLYLINE
  5
32D
100
AcDbEntity
  8
RACCORDO
100
AcDbPolyline
 62
250
  6
CONTINUOUS
 90
17
 70
0
 10
202.5153026985
 20
137.4532023799
 10
202.579877007
 20
137.4318148788
 10
202.6106695063
 20
137.4214055463
 10
202.640248694
 20
137.4112588824
 10
202.6684596464
 20
137.4014280311
 10
202.6951546061
 20
137.3919644824
 10
202.7201937557
 20
137.3829178025
 10
202.7434459504
 20
137.3743353742
 10
202.7647894046
 20
137.3662621489
 10
202.7841123299
 20
137.3587404106
 10
202.8013135209
 20
137.3518095553
 10
202.8163028845
 20
137.3455058839
 10
202.8290019127
 20
137.3398624124
 10
202.8393440931
 20
137.334908699
 10
202.8472752576
 20
137.3306706893
 10
202.8527538659
 20
137.3271705803
 10
202.8557512233
 20
137.3244267039
  0
LWPOLYLINE
  5
32E
100
AcDbEntity
  8
RACCORDO
100
AcDbPolyline
 62
250
  6
CONTINUOUS
 90
7
 70
0
 10
177.9858129743
 20
137.4966741112
 10
178.0009532905
 20
137.4434147741
 10
178.0133547313
 20
137.3896714943
 10
178.0230172966
 20
137.335444264
 10
178.0299409866
 20
137.2807330751
 10
178.0341258011
 20
137.2255379196
 10
178.0355717401
 20
137.1698587896
  0
LWPOLYLINE
  5
32F
100
AcDbEntity
  8
RACCORDO
100
AcDbPolyline
 62
250
  6
CONTINUOUS
 90
25
 70
0
 10
202.3790102165
 20
137.4966741112
 10
202.3977606113
 20
137.5517648995
 10
202.4192912852
 20
137.6055695657
 10
202.4436022383
 20
137.6580881668
 10
202.4707993303
 20
137.7095007525
 10
202.5007767014
 20
137.7596273799
 10
202.5332167721
 20
137.8079281415
 10
202.5681059994
 20
137.8543271098
 10
202.6054579263
 20
137.898900368
 10
202.644995603
 20
137.9413360596
 10
202.6867124876
 20
137.9816185883
 10
202.730615122
 20
138.019763713
 10
202.7764461821
 20
138.0555066269
 10
202.8242563343
 20
138.0888652696
 10
202.8739949122
 20
138.1198218573
 10
202.9252525917
 20
138.1480580099
 10
202.9781418094
 20
138.173563219
 10
203.0325501288
 20
138.1963481333
 10
203.0877309166
 20
138.2161261144
 10
203.1435395074
 20
138.2328084364
 10
203.2001205666
 20
138.2464839328
 10
203.2571614581
 20
138.257132298
 10
203.3145579696
 20
138.2647467815
 10
203.3724143134
 20
138.2693341879
 10
203.4307304893
 20
138.2708945309
  0
LWPOLYLINE
  5
330
100
AcDbEntity
  8
RACCORDO
100
AcDbPolyline
 62
250
  6
CONTINUOUS
 90
25
 70
0
 10
202.85574858
 20
137.3244275198
 10
202.865981225
 20
137.3543222707
 10
202.877792728
 20
137.3836516192
 10
202.8911531331
 20
137.412332633
 10
202.9060368981
 20
137.4402986274
 10
202.9223981112
 20
137.4674543436
 10
202.9401627557
 20
137.4936808434
 10
202.9592589079
 20
137.5188845295
 10
202.9796453265
 20
137.5430229548
 10
203.0012861802
 20
137.5660591165
 10
203.0241151637
 20
137.5879220533
 10
203.048075872
 20
137.6085574095
 10
203.0731533992
 20
137.62794652
 10
203.0993066132
 20
137.646040724
 10
203.1264485505
 20
137.6627636811
 10
203.1544955931
 20
137.6780539356
 10
203.1834198298
 20
137.691881038
 10
203.2130989399
 20
137.7041718262
 10
203.2432917709
 20
137.7148328303
 10
203.2738208629
 20
137.7238271812
 10
203.3046795251
 20
137.7311781827
 10
203.3358767132
 20
137.7368992275
 10
203.3673589502
 20
137.7409796538
 10
203.3990064097
 20
137.7434019656
 10
203.4307314458
 20
137.7441607293
  0
LINE
  5
331
100
AcDbEntity
  8
RACCORDO
100
AcDbLine
 62
250
  6
CONTINUOUS
 10
39.5852268956
 20
159.3632460451
 11
269.7795962952
 21
159.3632460451
  0
LINE
  5
332
100
AcDbEntity
  8
RACCORDO
100
AcDbLine
 62
250
  6
CONTINUOUS
 10
39.5852268956
 20
159.7711946528
 11
269.7795962952
 21
159.7711946528
  0
LINE
  5
333
100
AcDbEntity
  8
RACCORDO
100
AcDbLine
 62
7
  6
CONTINUOUS
 10
39.4824115954
 20
159.8918585526
 11
269.8824115954
 21
159.8918585526
  0
LWPOLYLINE
  5
334
100
AcDbEntity
  8
RACCORDO
100
AcDbPolyline
 62
250
  6
CONTINUOUS
 90
10
 70
0
 10
202.85574858
 20
92.4592895855
 10
202.8501240581
 20
92.47837824
 10
202.8451259674
 20
92.4977039072
 10
202.8407657869
 20
92.5172466269
 10
202.837050878
 20
92.5370062423
 10
202.8339963613
 20
92.5569415126
 10
202.8316182073
 20
92.5769690986
 10
202.8299204813
 20
92.5970456854
 10
202.8289022236
 20
92.61716904
 10
202.8285645297
 20
92.63731641
  0
LWPOLYLINE
  5
335
100
AcDbEntity
  8
RACCORDO
100
AcDbPolyline
 62
250
  6
CONTINUOUS
 90
10
 70
0
 10
202.3790376627
 20
92.2869364915
 10
202.3687220152
 20
92.3220036801
 10
202.3595873063
 20
92.3574503311
 10
202.3516335358
 20
92.3932764488
 10
202.3448406732
 20
92.4295688464
 10
202.3392287492
 20
92.4662407202
 10
202.3348578557
 20
92.5030316459
 10
202.3317480235
 20
92.5398548151
 10
202.3298792218
 20
92.5767970379
 10
202.3292514507
 20
92.6138583157
  0
LWPOLYLINE
  5
336
100
AcDbEntity
  8
RACCORDO
100
AcDbPolyline
 62
7
  6
CONTINUOUS
 90
25
 70
0
 10
202.8824115777
 20
92.6910152407
 10
202.8837131209
 20
92.6517775654
 10
202.8875253987
 20
92.6129900672
 10
202.893848411
 20
92.5746527405
 10
202.9027335439
 20
92.5365861849
 10
202.9141294115
 20
92.4989697915
 10
202.9278818554
 20
92.4623417353
 10
202.9439904302
 20
92.4267665631
 10
202.9624555814
 20
92.3921797041
 10
202.9831244874
 20
92.3589256466
 10
203.0060644578
 20
92.3269559572
 10
203.0312081829
 20
92.2963190407
 10
203.0582009125
 20
92.2675046341
 10
203.0870949415
 20
92.2405490499
 10
203.1178379749
 20
92.2154159412
 10
203.1499183775
 20
92.1924860497
 10
203.1832829286
 20
92.1718355284
 10
203.2179848489
 20
92.1533881914
 10
203.2536721651
 20
92.1372962693
 10
203.2903985441
 20
92.1235606378
 10
203.328110319
 20
92.1121803973
 10
203.366294516
 20
92.1033051173
 10
203.4047801435
 20
92.0969846495
 10
203.4437381931
 20
92.093169129
 10
203.4831686646
 20
92.0918585526
  0
LINE
  5
337
100
AcDbEntity
  8
RACCORDO
100
AcDbLine
 62
250
  6
CONTINUOUS
 10
202.3292514507
 20
92.6138583157
 11
202.3292514507
 21
137.1698587896
  0
LINE
  5
338
100
AcDbEntity
  8
RACCORDO
100
AcDbLine
 62
250
  6
CONTINUOUS
 10
202.8285645334
 20
92.6373164138
 11
202.8285645152
 21
137.1464285875
  0
LINE
  5
339
100
AcDbEntity
  8
RACCORDO
100
AcDbLine
 62
7
  6
CONTINUOUS
 10
202.8824115777
 20
137.0927018646
 11
202.8824115777
 21
92.6910152407
  0
LINE
  5
33A
100
AcDbEntity
  8
RACCORDO
100
AcDbLine
 62
250
  6
CONTINUOUS
 10
203.4307304893
 20
138.2708945309
 11
203.4307304893
 21
137.7441607315
  0
LINE
  5
33B
100
AcDbEntity
  8
RACCORDO
100
AcDbLine
 62
250
  6
CONTINUOUS
 10
203.4307304893
 20
91.5128225744
 11
203.4307304893
 21
92.0395563738
  0
LWPOLYLINE
  5
33C
100
AcDbEntity
  8
RACCORDO
100
AcDbPolyline
 62
250
  6
CONTINUOUS
 90
7
 70
0
 10
202.828564537
 20
137.1464285662
 10
202.8293250751
 20
137.1765876858
 10
202.8316083689
 20
137.2066503041
 10
202.8354062212
 20
137.2365404882
 10
202.8407066443
 20
137.2661829242
 10
202.8474939054
 20
137.2955031059
 10
202.85574858
 20
137.3244275198
  0
LWPOLYLINE
  5
33D
100
AcDbEntity
  8
RACCORDO
100
AcDbPolyline
 62
250
  6
CONTINUOUS
 90
7
 70
0
 10
202.3292514507
 20
137.1698587896
 10
202.330697385
 20
137.2255378982
 10
202.3348821967
 20
137.2807330408
 10
202.3418058857
 20
137.3354442254
 10
202.351468452
 20
137.38967146
 10
202.3638698956
 20
137.4434147527
 10
202.3790102165
 20
137.4966741112
  0
LINE
  5
33E
100
AcDbEntity
  8
RACCORDO
100
AcDbLine
 62
250
  6
CONTINUOUS
 10
270.5717588202
 20
158.9822161756
 11
270.6824088741
 21
159.0947187739
  0
LINE
  5
33F
100
AcDbEntity
  8
RACCORDO
100
AcDbLine
 62
250
  6
CONTINUOUS
 10
269.7795962952
 20
159.7711946528
 11
269.8981730508
 21
159.8917032729
  0
LINE
  5
340
100
AcDbEntity
  8
RACCORDO
100
AcDbLine
 62
250
  6
CONTINUOUS
 10
248.4824116131
 20
137.0927018646
 11
248.5362586756
 21
137.1464286303
  0
LINE
  5
341
100
AcDbEntity
  8
RACCORDO
100
AcDbLine
 62
250
  6
CONTINUOUS
 10
247.8816545262
 20
137.6918585526
 11
247.9340917894
 21
137.7441607315
  0
LINE
  5
342
100
AcDbEntity
  8
RACCORDO
100
AcDbLine
 62
250
  6
CONTINUOUS
 10
202.8285645334
 20
92.6373164138
 11
202.8824115777
 21
92.6910152407
  0
LINE
  5
343
100
AcDbEntity
  8
RACCORDO
100
AcDbLine
 62
250
  6
CONTINUOUS
 10
203.430709276
 20
92.0395563738
 11
203.4831686646
 21
92.0918585526
  0
LWPOLYLINE
  5
344
100
AcDbEntity
  8
RACCORDO
100
AcDbPolyline
 62
250
  6
CONTINUOUS
 90
28
 70
0
 10
269.7795962952
 20
159.3632460451
 10
269.7968460777
 20
159.3627350048
 10
269.8139126544
 20
159.3612387342
 10
269.8307960251
 20
159.3587572285
 10
269.8475487214
 20
159.3552778625
 10
269.8641182117
 20
159.3508132418
 10
269.8803469017
 20
159.3454012029
 10
269.8962361352
 20
159.3390304919
 10
269.9117845683
 20
159.3317123255
 10
269.926830575
 20
159.3235182445
 10
269.9413656275
 20
159.3144408265
 10
269.9553982535
 20
159.3044874435
 10
269.9687924106
 20
159.2937518281
 10
269.981543536
 20
159.282224961
 10
269.9936561923
 20
159.2699158037
 10
270.0050080249
 20
159.2569450653
 10
270.0155909055
 20
159.2433066005
 10
270.0254129623
 20
159.2290064963
 10
270.0343762246
 20
159.214183819
 10
270.0424723208
 20
159.1988331212
 10
270.0497096225
 20
159.1829597983
 10
270.0560152737
 20
159.1667191942
 10
270.0613803264
 20
159.1501025256
 10
270.0658137286
 20
159.133118536
 10
270.0692694675
 20
159.1159488768
 10
270.0717322054
 20
159.0986540958
 10
270.07321728
 20
159.0811736268
 10
270.0737246913
 20
159.0635074592
  0
LWPOLYLINE
  5
345
100
AcDbEntity
  8
RACCORDO
100
AcDbPolyline
 62
250
  6
CONTINUOUS
 90
28
 70
0
 10
269.7795962952
 20
159.7711946528
 10
269.8253218893
 20
159.7696641242
 10
269.8708467287
 20
159.7655061953
 10
269.9160224995
 20
159.7587394674
 10
269.9606837821
 20
159.749395467
 10
270.004704927
 20
159.7375070482
 10
270.0479977365
 20
159.7230976858
 10
270.0904452239
 20
159.7061980781
 10
270.1318795931
 20
159.6868670257
 10
270.1721393463
 20
159.6651771939
 10
270.2110818269
 20
159.6412053113
 10
270.2485899426
 20
159.6150240505
 10
270.2845479209
 20
159.5867142052
 10
270.3188375034
 20
159.5563649909
 10
270.3513431521
 20
159.5240753336
 10
270.3819599209
 20
159.4899491452
 10
270.4105845941
 20
159.4540961708
 10
270.4371209431
 20
159.4166319163
 10
270.4614832007
 20
159.3776769232
 10
270.4835887049
 20
159.3373547155
 10
270.5033602371
 20
159.2957976121
 10
270.5207310289
 20
159.2531462331
 10
270.5356396152
 20
159.2095418372
 10
270.5480347875
 20
159.1651237061
 10
270.5578766579
 20
159.1200344179
 10
270.56512965
 20
159.0744201721
 10
270.5697636791
 20
159.0284306023
 10
270.5717588204
 20
158.9822161757
  0
LINE
  5
346
100
AcDbEntity
  8
RACCORDO
100
AcDbLine
 62
250
  6
CONTINUOUS
 10
247.9340921006
 20
92.0395563738
 11
247.8816545262
 21
92.0918585526
  0
LINE
  5
347
100
AcDbEntity
  8
RACCORDO
100
AcDbLine
 62
250
  6
CONTINUOUS
 10
203.4307314437
 20
137.7441607315
 11
203.4831686646
 21
137.6918585526
  0
LINE
  5
348
100
AcDbEntity
  8
RACCORDO
100
AcDbLine
 62
250
  6
CONTINUOUS
 10
202.8285645152
 20
137.1464285875
 11
202.8824115777
 21
137.0927018646
  0
LINE
  5
349
100
AcDbEntity
  8
RACCORDO
100
AcDbLine
 62
250
  6
CONTINUOUS
 10
248.5362586754
 20
92.6372888464
 11
248.4824116131
 21
92.6910152407
  0
LINE
  5
34A
100
AcDbEntity
  8
RACCORDO
100
AcDbLine
 62
250
  6
CONTINUOUS
 10
269.7795962952
 20
70.0125224525
 11
269.8981730508
 21
69.8920138324
  0
LINE
  5
34B
100
AcDbEntity
  8
RACCORDO
100
AcDbLine
 62
250
  6
CONTINUOUS
 10
270.5717588202
 20
70.8015009296
 11
270.6824088741
 21
70.6889983313
  0
LWPOLYLINE
  5
34C
100
AcDbEntity
  8
RACCORDO
100
AcDbPolyline
 62
250
  6
CONTINUOUS
 90
15
 70
0
 10
270.5734692067
 20
92.309951216
 10
270.5691473622
 20
92.3081908617
 10
270.5623626935
 20
92.3064503018
 10
270.553149041
 20
92.304738218
 10
270.5415523605
 20
92.3030631498
 10
270.5276304938
 20
92.3014334521
 10
270.5114528803
 20
92.2998572534
 10
270.4931002104
 20
92.2983424155
 10
270.4726640235
 20
92.2968964942
 10
270.450246251
 20
92.2955267012
 10
270.425958708
 20
92.294239869
 10
270.3999225356
 20
92.2930424159
 10
270.3722675969
 20
92.2919403146
 10
270.3431318288
 20
92.2909390621
 10
270.3126605544
 20
92.2900436525
  0
LWPOLYLINE
  5
34D
100
AcDbEntity
  8
RACCORDO
100
AcDbPolyline
 62
250
  6
CONTINUOUS
 90
15
 70
0
 10
270.5734706929
 20
92.372438964
 10
270.5691489011
 20
92.3706833883
 10
270.5623642788
 20
92.3689475012
 10
270.5531506663
 20
92.3672399611
 10
270.5415540194
 20
92.3655692848
 10
270.5276321798
 20
92.3639438054
 10
270.5114545869
 20
92.3623716303
 10
270.4931019313
 20
92.3608606012
 10
270.4726657524
 20
92.359418255
 10
270.4502479818
 20
92.3580517857
 10
270.4259604348
 20
92.3567680089
 10
270.399924253
 20
92.355573328
 10
270.3722692996
 20
92.3544737018
 10
270.3431335121
 20
92.3534746149
 10
270.3126622139
 20
92.3525810506
  0
LWPOLYLINE
  5
34E
100
AcDbEntity
  8
RACCORDO
100
AcDbPolyline
 62
250
  6
CONTINUOUS
 90
17
 70
0
 10
270.5734706924
 20
137.4112781413
 10
270.5691489002
 20
137.413033717
 10
270.5623642776
 20
137.414769604
 10
270.5531506649
 20
137.4164771441
 10
270.5415540178
 20
137.4181478203
 10
270.527632178
 20
137.4197732998
 10
270.511454585
 20
137.4213454749
 10
270.4931019293
 20
137.4228565039
 10
270.4726657503
 20
137.4242988501
 10
270.4502479796
 20
137.4256653194
 10
270.4259604327
 20
137.4269490962
 10
270.399924251
 20
137.4281437771
 10
270.3722692977
 20
137.4292434033
 10
270.3431335103
 20
137.4302424902
 10
270.3126622123
 20
137.4311360544
 10
270.2810073885
 20
137.4319196391
 10
270.2147838309
 20
137.4331418046
  0
LWPOLYLINE
  5
34F
100
AcDbEntity
  8
RACCORDO
100
AcDbPolyline
 62
250
  6
CONTINUOUS
 90
16
 70
0
 10
270.573469208
 20
137.4737658892
 10
270.5691473646
 20
137.4755262437
 10
270.5623626968
 20
137.4772668036
 10
270.5531490451
 20
137.4789788874
 10
270.5415523653
 20
137.4806539557
 10
270.5276304992
 20
137.4822836534
 10
270.5114528861
 20
137.4838598522
 10
270.4931002165
 20
137.4853746901
 10
270.4726640298
 20
137.4868206115
 10
270.4502462573
 20
137.4881904045
 10
270.4259587142
 20
137.4894772368
 10
270.3999225417
 20
137.49067469
 10
270.3722676027
 20
137.4917767913
 10
270.3431318342
 20
137.4927780438
 10
270.3126605594
 20
137.4936734535
 10
270.2483253311
 20
137.4951294299
  0
LWPOLYLINE
  5
350
100
AcDbEntity
  8
0
100
AcDbPolyline
 62
7
  6
CONTINUOUS
 90
7
 70
0
 43
0.3500000006
 10
157.2538320923
 20
180.4475169067
 10
155.7538406982
 20
180.4475169067
 10
157.2538320923
 20
182.5903798828
 10
157.2538320923
 20
183.0189488525
 10
156.8252631226
 20
183.4475178223
 10
156.182409668
 20
183.4475178223
 10
155.7538406982
 20
182.8046643677
  0
LWPOLYLINE
  5
351
100
AcDbEntity
  8
0
100
AcDbPolyline
 62
7
  6
CONTINUOUS
 90
7
 70
0
 43
0.3500000006
 10
152.7538397827
 20
180.4475169067
 10
151.253839325
 20
180.4475169067
 10
152.7538397827
 20
182.5903798828
 10
152.7538397827
 20
183.0189488525
 10
152.325270813
 20
183.4475178223
 10
151.6824082947
 20
183.4475178223
 10
151.253839325
 20
182.8046643677
  0
LWPOLYLINE
  5
352
100
AcDbEntity
  8
0
100
AcDbPolyline
 62
7
  6
CONTINUOUS
 90
6
 70
0
 43
0.3500000006
 10
153.6109777222
 20
180.4475169067
 10
154.6824182739
 20
180.4475169067
 10
154.8967027588
 20
180.6618013916
 10
154.8967027588
 20
181.7332419434
 10
154.4681337891
 20
182.1618109131
 10
154.0395466919
 20
182.1618109131
  0
LWPOLYLINE
  5
353
100
AcDbEntity
  8
RACCORDO
100
AcDbPolyline
 62
7
  6
CONTINUOUS
 90
25
 70
0
 10
248.4824116131
 20
137.0927018646
 10
248.481103264
 20
137.131966047
 10
248.4772886828
 20
137.1707651486
 10
248.4709678694
 20
137.2090991751
 10
248.4620919234
 20
137.2471383629
 10
248.4507097453
 20
137.2847124855
 10
248.4369680369
 20
137.3213108606
 10
248.4208662494
 20
137.3568799842
 10
248.4024049316
 20
137.391473384
 10
248.3817324319
 20
137.4247409351
 10
248.3587724805
 20
137.4567365143
 10
248.3336013473
 20
137.4874062732
 10
248.3065961901
 20
137.516238508
 10
248.2777193959
 20
137.5431821829
 10
248.2470085778
 20
137.5682883684
 10
248.2149537327
 20
137.5911985264
 10
248.1816028858
 20
137.6118452926
 10
248.146908012
 20
137.6302960639
 10
248.1112150331
 20
137.6463944458
 10
248.0744590442
 20
137.6601406775
 10
248.0367049503
 20
137.6715345435
 10
247.9984933878
 20
137.6804189662
 10
247.9600045691
 20
137.6867415909
 10
247.9210582819
 20
137.6905547853
 10
247.8816545262
 20
137.6918585526
  0
LINE
  5
354
100
AcDbEntity
  8
RACCORDO
100
AcDbLine
 62
250
  6
CONTINUOUS
 10
247.9340927014
 20
138.2708945309
 11
247.9340927014
 21
137.7441607315
  0
LINE
  5
355
100
AcDbEntity
  8
RACCORDO
100
AcDbLine
 62
250
  6
CONTINUOUS
 10
247.9340927014
 20
91.5128225744
 11
247.9340927014
 21
92.0395563738
  0
LINE
  5
356
100
AcDbEntity
  8
RACCORDO
100
AcDbLine
 62
7
  6
CONTINUOUS
 10
248.4824116131
 20
92.6910152407
 11
248.4824116131
 21
137.0927018646
  0
LINE
  5
357
100
AcDbEntity
  8
RACCORDO
100
AcDbLine
 62
250
  6
CONTINUOUS
 10
248.5362586756
 20
137.1464286303
 11
248.5362586754
 21
92.6372888464
  0
LINE
  5
358
100
AcDbEntity
  8
RACCORDO
100
AcDbLine
 62
250
  6
CONTINUOUS
 10
249.0355717401
 20
137.1698587896
 11
249.0355717401
 21
92.6138583157
  0
LWPOLYLINE
  5
359
100
AcDbEntity
  8
RACCORDO
100
AcDbPolyline
 62
250
  6
CONTINUOUS
 90
7
 70
0
 10
248.5362586539
 20
92.6372888674
 10
248.5354978656
 20
92.6071245277
 10
248.5332140062
 20
92.5770587852
 10
248.5294155874
 20
92.5471675739
 10
248.5241149082
 20
92.5175261775
 10
248.5173280081
 20
92.4882090408
 10
248.5090746108
 20
92.4592895855
  0
LWPOLYLINE
  5
35A
100
AcDbEntity
  8
RACCORDO
100
AcDbPolyline
 62
250
  6
CONTINUOUS
 90
7
 70
0
 10
249.0355717401
 20
92.6138583157
 10
249.0341238364
 20
92.5581664359
 10
249.0299378431
 20
92.5029636308
 10
249.0230137602
 20
92.4482498921
 10
249.0133515878
 20
92.3940252117
 10
249.0009513258
 20
92.3402895818
 10
248.9858129743
 20
92.2870429941
  0
LWPOLYLINE
  5
35B
100
AcDbEntity
  8
RACCORDO
100
AcDbPolyline
 62
250
  6
CONTINUOUS
 90
25
 70
0
 10
248.9858129743
 20
92.2870429941
 10
248.9670553189
 20
92.231935054
 10
248.945517763
 20
92.1781165771
 10
248.9212003064
 20
92.1255875059
 10
248.893996911
 20
92.074168287
 10
248.864013615
 20
92.0240383668
 10
248.8315685326
 20
91.9757361646
 10
248.796674958
 20
91.9293371477
 10
248.7593195971
 20
91.8847656929
 10
248.7197806817
 20
91.8423335482
 10
248.6780654654
 20
91.8020569025
 10
248.6341666947
 20
91.7639194042
 10
248.5883408409
 20
91.7281839736
 10
248.540537442
 20
91.6948323705
 10
248.4908069599
 20
91.6638826796
 10
248.4395572518
 20
91.6356522972
 10
248.3866771667
 20
91.6101515992
 10
248.3322778556
 20
91.5873700696
 10
248.2771006291
 20
91.5675937611
 10
248.2212848488
 20
91.5509103038
 10
248.1646911531
 20
91.5372319601
 10
248.107642768
 20
91.5265817377
 10
248.0502474353
 20
91.5189672874
 10
247.9923974131
 20
91.5143809042
 10
247.9340927014
 20
91.5128225744
  0
LWPOLYLINE
  5
35C
100
AcDbEntity
  8
RACCORDO
100
AcDbPolyline
 62
250
  6
CONTINUOUS
 90
25
 70
0
 10
248.5090746108
 20
92.4592895855
 10
248.4988391173
 20
92.4293871884
 10
248.4870243563
 20
92.4000514198
 10
248.4736604517
 20
92.3713652093
 10
248.4587730994
 20
92.3433952069
 10
248.4424083821
 20
92.3162366531
 10
248.4246405133
 20
92.2900084784
 10
248.4055415025
 20
92.2648041147
 10
248.3851527997
 20
92.2406660206
 10
248.3635106622
 20
92.2176313883
 10
248.3406819036
 20
92.1957713231
 10
248.316722776
 20
92.1751396603
 10
248.2916475451
 20
92.1557543041
 10
248.2654973063
 20
92.1376637863
 10
248.2383590989
 20
92.1209444032
 10
248.2103158971
 20
92.1056571829
 10
248.1813961073
 20
92.0918328274
 10
248.1517214791
 20
92.0795442091
 10
248.121530706
 20
92.0688840371
 10
248.090998451
 20
92.0598888875
 10
248.0601338487
 20
92.0525368517
 10
248.0289334639
 20
92.0468158406
 10
247.9974527535
 20
92.0427362671
 10
247.9658097504
 20
92.0403147861
 10
247.9340920992
 20
92.0395563752
  0
LWPOLYLINE
  5
35D
100
AcDbEntity
  8
0
100
AcDbPolyline
 62
7
  6
CONTINUOUS
 90
10
 70
0
 43
0.3500000006
 10
288.932418457
 20
112.9632853088
 10
288.0752623901
 20
113.820432312
 10
287.2181244507
 20
114.0347167969
 10
286.3609865112
 20
114.0347167969
 10
285.9324175415
 20
113.6061478271
 10
285.9324175415
 20
112.9632853088
 10
286.3609865112
 20
112.5347163391
 10
287.2181244507
 20
112.5347163391
 10
287.6466934204
 20
112.9632853088
 10
287.6466934204
 20
113.8918544312
  0
LWPOLYLINE
  5
35E
100
AcDbEntity
  8
RACCORDO
100
AcDbPolyline
 62
250
  6
CONTINUOUS
 90
7
 70
0
 10
248.5090746108
 20
137.3244275198
 10
248.517329297
 20
137.2955030606
 10
248.5241165609
 20
137.2661828536
 10
248.5294169811
 20
137.2365404133
 10
248.5332148277
 20
137.2066502466
 10
248.5354981167
 20
137.1765876675
 10
248.5362586538
 20
137.146428609
  0
LWPOLYLINE
  5
35F
100
AcDbEntity
  8
RACCORDO
100
AcDbPolyline
 62
250
  6
CONTINUOUS
 90
7
 70
0
 10
248.9858129743
 20
137.4966741112
 10
249.0009532905
 20
137.4434147741
 10
249.0133547313
 20
137.3896714943
 10
249.0230172966
 20
137.335444264
 10
249.0299409866
 20
137.2807330751
 10
249.0341258011
 20
137.2255379196
 10
249.0355717401
 20
137.1698587896
  0
LINE
  5
360
100
AcDbEntity
  8
RACCORDO
100
AcDbLine
 62
250
  6
CONTINUOUS
 10
269.7795962952
 20
159.7711946528
 11
269.7795962952
 21
159.3632460451
  0
LINE
  5
361
100
AcDbEntity
  8
RACCORDO
100
AcDbLine
 62
250
  6
CONTINUOUS
 10
269.7795962952
 20
70.0125224525
 11
269.7795962952
 21
70.4204710602
  0
LINE
  5
362
100
AcDbEntity
  8
RACCORDO
100
AcDbLine
 62
7
  6
CONTINUOUS
 10
270.6824115954
 20
159.0918585526
 11
270.6824115954
 21
137.4112781413
  0
LINE
  5
363
100
AcDbEntity
  8
DRAFT
100
AcDbLine
 62
7
  6
CONTINUOUS
 10
270.6824115954
 20
137.4112781413
 11
270.6824115954
 21
92.372438964
  0
LINE
  5
364
100
AcDbEntity
  8
RACCORDO
100
AcDbLine
 62
7
  6
CONTINUOUS
 10
270.6824115954
 20
92.372438964
 11
270.6824115954
 21
70.6918585526
  0
LINE
  5
365
100
AcDbEntity
  8
RACCORDO
100
AcDbLine
 62
250
  6
CONTINUOUS
 10
270.0737246913
 20
159.0635074592
 11
270.0737246913
 21
70.7202096461
  0
LINE
  5
366
100
AcDbEntity
  8
RACCORDO
100
AcDbLine
 62
250
  6
CONTINUOUS
 10
270.5717588202
 20
158.9822161756
 11
270.5717588202
 21
70.8015009296
  0
LWPOLYLINE
  5
367
100
AcDbEntity
  8
RACCORDO
100
AcDbPolyline
 62
250
  6
CONTINUOUS
 90
28
 70
0
 10
270.0737246913
 20
70.7202096461
 10
270.0732143977
 20
70.7025348468
 10
270.0717292155
 20
70.6850537994
 10
270.0692691447
 20
70.6677664929
 10
270.06582027
 20
70.6506178822
 10
270.0613965067
 20
70.6336629928
 10
270.0560396003
 20
70.6170669113
 10
270.0497385279
 20
70.6008298481
 10
270.0425043124
 20
70.5849515541
 10
270.0344117675
 20
70.5695964092
 10
270.0254535293
 20
70.5547733283
 10
270.0156369617
 20
70.5404733443
 10
270.0050589708
 20
70.526834
 10
269.9937111796
 20
70.5138607325
 10
269.981601965
 20
70.5015480466
 10
269.9688533639
 20
70.4900170769
 10
269.9554601971
 20
70.4792765756
 10
269.9414276437
 20
70.4693177326
 10
269.9268932778
 20
70.4602353347
 10
269.9118522522
 20
70.4520378201
 10
269.896309414
 20
70.4447167002
 10
269.8804168781
 20
70.4383413692
 10
269.864167051
 20
70.4329207903
 10
269.8475675262
 20
70.4284459632
 10
269.8307931988
 20
70.4249593399
 10
269.8139023669
 20
70.4224750643
 10
269.7968367324
 20
70.4209789727
 10
269.7795962952
 20
70.4204710602
  0
LWPOLYLINE
  5
368
100
AcDbEntity
  8
RACCORDO
100
AcDbPolyline
 62
250
  6
CONTINUOUS
 90
28
 70
0
 10
270.5717588204
 20
70.8015009294
 10
270.5697628982
 20
70.7552759632
 10
270.5651292877
 20
70.7092942448
 10
270.5578810403
 20
70.6637058426
 10
270.548054626
 20
70.6186729933
 10
270.5356867604
 20
70.5743270085
 10
270.5208056628
 20
70.5307702227
 10
270.503449782
 20
70.4881225445
 10
270.4836834346
 20
70.4465476905
 10
270.4615823852
 20
70.4062095059
 10
270.437229075
 20
70.3672476938
 10
270.4107023779
 20
70.3297776921
 10
270.3820870579
 20
70.2939183742
 10
270.3514788553
 20
70.2597847718
 10
270.3189813514
 20
70.2274871952
 10
270.2846995123
 20
70.197129633
 10
270.2487483041
 20
70.168810621
 10
270.2112464747
 20
70.1426198663
 10
270.1723116245
 20
70.118639256
 10
270.1320695547
 20
70.0969454296
 10
270.0906549468
 20
70.0776095466
 10
270.0482043629
 20
70.0606948501
 10
270.0048616997
 20
70.0462573272
 10
269.9607647238
 20
70.0343410768
 10
269.9160444163
 20
70.0249815756
 10
269.8708421508
 20
70.0182103212
 10
269.8253098863
 20
70.0140521844
 10
269.7795962952
 20
70.0125224525
  0
LWPOLYLINE
  5
369
100
AcDbEntity
  8
RACCORDO
100
AcDbPolyline
 62
250
  6
CONTINUOUS
 90
22
 70
0
 10
270.5717545916
 20
70.8015009872
 10
270.5673913012
 20
70.7952517491
 10
270.5605701099
 20
70.7890732879
 10
270.5513249793
 20
70.7829963652
 10
270.5397019396
 20
70.7770512372
 10
270.52575886
 20
70.7712675039
 10
270.509565161
 20
70.7656739617
 10
270.4912014683
 20
70.7602984601
 10
270.4707592121
 20
70.755167763
 10
270.4483401709
 20
70.7503074153
 10
270.4240559658
 20
70.7457416161
 10
270.398027504
 20
70.7414930979
 10
270.3703843771
 20
70.7375830133
 10
270.3412642159
 20
70.7340308303
 10
270.3108120051
 20
70.7308542345
 10
270.2791793615
 20
70.7280690418
 10
270.2465237791
 20
70.7256891192
 10
270.2130078448
 20
70.7237263161
 10
270.1787984294
 20
70.7221904048
 10
270.144065856
 20
70.7210890325
 10
270.1089830527
 20
70.7204276827
 10
270.0737246913
 20
70.7202096481
  0
LWPOLYLINE
  5
36A
100
AcDbEntity
  8
RACCORDO
100
AcDbPolyline
 62
250
  6
CONTINUOUS
 90
22
 70
0
 10
270.5717588172
 20
158.9822161856
 10
270.5673954667
 20
158.9884654126
 10
270.5605741933
 20
158.9946438635
 10
270.5513289591
 20
159.0007207768
 10
270.5397057951
 20
159.0066658963
 10
270.5257625714
 20
159.0124496219
 10
270.5095687096
 20
159.0180431573
 10
270.4912048367
 20
159.023418653
 10
270.4707623842
 20
159.028549345
 10
270.4483431324
 20
159.0334096883
 10
270.4240587038
 20
159.037975484
 10
270.3980300075
 20
159.0422239994
 10
270.3703866369
 20
159.0461340818
 10
270.3412662249
 20
159.0496862634
 10
270.3108137582
 20
159.0528628583
 10
270.2791808556
 20
159.0556480507
 10
270.2465250134
 20
159.0580279735
 10
270.2130088208
 20
159.0599907773
 10
270.1787991505
 20
159.0615266896
 10
270.144066328
 20
159.0626280632
 10
270.1089832837
 20
159.0632894147
 10
270.0737246913
 20
159.0635074512
  0
LINE
  5
36B
100
AcDbEntity
  8
RACCORDO
100
AcDbLine
 62
7
  6
CONTINUOUS
 10
20.2560753343
 20
69.8918585526
 11
21.0702462659
 21
69.8918585526
  0
LINE
  5
36C
100
AcDbEntity
  8
RACCORDO
100
AcDbLine
 62
250
  6
CONTINUOUS
 10
20.1072693403
 20
70.6918585526
 11
20.9206610917
 21
70.6918585526
  0
LINE
  5
36D
100
AcDbEntity
  8
RACCORDO
100
AcDbLine
 62
7
  6
CONTINUOUS
 10
18.876880648
 20
70.0125224525
 11
20.2560753343
 21
69.8918585526
  0
LINE
  5
36E
100
AcDbEntity
  8
RACCORDO
100
AcDbLine
 62
250
  6
CONTINUOUS
 10
18.8223869255
 20
70.8015009296
 11
20.1077309043
 21
70.6889983313
  0
LINE
  5
36F
100
AcDbEntity
  8
0
100
AcDbLine
 62
7
  6
CONTINUOUS
 10
21.3739020131
 20
70.9918585526
 11
20.8573723463
 21
71.0370490429
  0
LWPOLYLINE
  5
370
100
AcDbEntity
  8
0
100
AcDbPolyline
 62
7
  6
CONTINUOUS
 90
10
 70
0
 43
0.3500000006
 10
33.0830020294
 20
183.089809021
 10
32.440144043
 20
182.4469555664
 10
32.0115728073
 20
181.589817627
 10
32.0115728073
 20
180.5183952026
 10
32.440144043
 20
180.0898081055
 10
33.0830020294
 20
180.0898081055
 10
33.5115732651
 20
180.5183952026
 10
33.5115732651
 20
181.3755331421
 10
33.0830020294
 20
181.8041021118
 10
32.1544306412
 20
181.8041021118
  0
LINE
  5
371
100
AcDbEntity
  8
RACCORDO
100
AcDbLine
 62
250
  6
CONTINUOUS
 10
18.822387297
 20
70.8015009872
 11
18.3739906477
 21
70.7202096481
  0
LWPOLYLINE
  5
372
100
AcDbEntity
  8
RACCORDO
100
AcDbPolyline
 62
250
  6
CONTINUOUS
 90
16
 70
0
 10
21.3390894434
 20
71.1826117328
 10
21.4606314277
 20
71.2006410064
 10
21.5819684994
 20
71.2213609471
 10
21.7030308411
 20
71.2447760068
 10
21.823527721
 20
71.2707793538
 10
21.9436027534
 20
71.2994866674
 10
22.0638226465
 20
71.3312370111
 10
22.1840059328
 20
71.3659280485
 10
22.3041359614
 20
71.4036728988
 10
22.4249875502
 20
71.4451362839
 10
22.5462828524
 20
71.4900805929
 10
22.6680049201
 20
71.5387578663
 10
22.7912500309
 20
71.5925724513
 10
22.9162313474
 20
71.6520015899
 10
23.0423138339
 20
71.7165916593
 10
23.1692669557
 20
71.7863545034
  0
LINE
  5
373
100
AcDbEntity
  8
RACCORDO
100
AcDbLine
 62
250
  6
CONTINUOUS
 10
23.1692669557
 20
71.7863545034
 11
21.2325149674
 21
71.7746503777
  0
LINE
  5
374
100
AcDbEntity
  8
0
100
AcDbLine
 62
250
  6
CONTINUOUS
 10
21.19459528
 20
71.9883368361
 11
20.6789182146
 21
72.0334776977
  0
LWPOLYLINE
  5
375
100
AcDbEntity
  8
RACCORDO
100
AcDbPolyline
 62
250
  6
CONTINUOUS
 90
19
 70
0
 10
18.876880648
 20
159.7711946528
 10
18.8744272197
 20
159.7696641242
 10
18.8719382144
 20
159.7655061953
 10
18.8694247728
 20
159.7587394674
 10
18.8668988945
 20
159.749395467
 10
18.8643680047
 20
159.7375070482
 10
18.8618360912
 20
159.7230976858
 10
18.8593081797
 20
159.7061980781
 10
18.8567959305
 20
159.6868670257
 10
18.8543124168
 20
159.6651771939
 10
18.8518603555
 20
159.6412053113
 10
18.84944632
 20
159.6150240505
 10
18.847087289
 20
159.5867142052
 10
18.8447827809
 20
159.5563649909
 10
18.8425369442
 20
159.5240753336
 10
18.840372374
 20
159.4899491452
 10
18.838286295
 20
159.4540961708
 10
18.8362789456
 20
159.4166319163
 10
18.8325712344
 20
159.3373547155
  0
LINE
  5
376
100
AcDbEntity
  8
RACCORDO
100
AcDbLine
 62
250
  6
CONTINUOUS
 10
16.3415474242
 20
92.309951216
 11
15.8857561228
 21
92.2870429949
  0
LINE
  5
377
100
AcDbEntity
  8
RACCORDO
100
AcDbLine
 62
250
  6
CONTINUOUS
 10
16.3384096927
 20
92.372438964
 11
15.8826148902
 21
92.3495837819
  0
LINE
  5
378
100
AcDbEntity
  8
0
100
AcDbLine
 62
250
  6
CONTINUOUS
 10
23.8857561056
 20
92.5184542476
 11
21.4374726769
 21
92.4776072429
  0
LINE
  5
379
100
AcDbEntity
  8
0
100
AcDbLine
 62
250
  6
CONTINUOUS
 10
21.4374726769
 20
92.4776072429
 11
18.881968695
 21
92.4377417645
  0
LINE
  5
37A
100
AcDbEntity
  8
RACCORDO
100
AcDbLine
 62
250
  6
CONTINUOUS
 10
17.5836099062
 20
92.372438964
 11
16.3384096927
 21
92.372438964
  0
LINE
  5
37B
100
AcDbEntity
  8
0
100
AcDbLine
 62
250
  6
CONTINUOUS
 10
18.881968695
 20
92.4377417645
 11
18.3813373695
 21
92.4377417645
  0
LWPOLYLINE
  5
37C
100
AcDbEntity
  8
RACCORDO
100
AcDbPolyline
 62
250
  6
CONTINUOUS
 90
19
 70
0
 10
23.1692668151
 20
71.7863544942
 10
23.1914317969
 20
71.7385641898
 10
23.2112142762
 20
71.6908525887
 10
23.2285199827
 20
71.6434470531
 10
23.2432664488
 20
71.596573487
 10
23.2553834026
 20
71.550455259
 10
23.2648131027
 20
71.505312138
 10
23.2715106132
 20
71.4613592464
 10
23.2754440181
 20
71.4188060353
 10
23.2765945735
 20
71.3778552851
 10
23.2749567963
 20
71.3387021404
 10
23.2705384909
 20
71.3015331797
 10
23.2633607121
 20
71.266525526
 10
23.2534576643
 20
71.233846003
 10
23.2408765387
 20
71.2036503403
 10
23.2256772887
 20
71.1760824307
 10
23.2079323439
 20
71.1512736453
 10
23.1877262648
 20
71.1293422067
 10
23.1651553404
 20
71.1103926262
  0
LWPOLYLINE
  5
37D
100
AcDbEntity
  8
0
100
AcDbPolyline
 62
7
  6
CONTINUOUS
 90
3
 70
0
 43
0.3500000006
 10
31.0115725021
 20
180.3755328369
 10
30.9401435852
 20
180.1612483521
 10
30.7972880173
 20
179.8755236206
  0
LWPOLYLINE
  5
37E
100
AcDbEntity
  8
RACCORDO
100
AcDbPolyline
 62
250
  6
CONTINUOUS
 90
10
 70
0
 10
18.8223869254
 20
158.9822161756
 10
18.4096484905
 20
156.6105154213
 10
18.0311393769
 20
154.2331223552
 10
17.6868600104
 20
151.8505378035
 10
17.3767547085
 20
149.4632726953
 10
17.100880003
 20
147.0718174911
 10
16.859404652
 20
144.6766420109
 10
16.6523852029
 20
142.2782363152
 10
16.4797659818
 20
139.8771108769
 10
16.3415474241
 20
137.4737658892
  0
LWPOLYLINE
  5
37F
100
AcDbEntity
  8
RACCORDO
100
AcDbPolyline
 62
7
  6
CONTINUOUS
 90
10
 70
0
 10
20.1072693403
 20
159.0918585526
 10
19.6867131303
 20
156.7022129341
 10
19.3011163334
 20
154.3070984218
 10
18.9504789496
 20
151.9065150156
 10
18.6346969944
 20
149.4996067772
 10
18.3538744523
 20
147.087229645
 10
18.1083232771
 20
144.6719514338
 10
17.8981474533
 20
142.2546280819
 10
17.7232429963
 20
139.8344036511
 10
17.5836099062
 20
137.4112781413
  0
LWPOLYLINE
  5
380
100
AcDbEntity
  8
RACCORDO
100
AcDbPolyline
 62
7
  6
CONTINUOUS
 90
5
 70
0
 10
20.1072370856
 20
70.6918585526
 10
20.1139455488
 20
70.6400206341
 10
20.1201789216
 20
70.5884436442
 10
20.1259372041
 20
70.537343187
 10
20.131102368
 20
70.4869851286
  0
LWPOLYLINE
  5
381
100
AcDbEntity
  8
RACCORDO
100
AcDbPolyline
 62
7
  6
CONTINUOUS
 90
17
 70
0
 10
20.1492489065
 20
70.2955096952
 10
20.1536967592
 20
70.2511080152
 10
20.1582253746
 20
70.2085757314
 10
20.162818647
 20
70.1680770417
 10
20.1676139218
 20
70.1298108117
 10
20.1726162199
 20
70.0939303181
 10
20.1778205204
 20
70.0605950553
 10
20.1833491067
 20
70.0299833205
 10
20.1891925461
 20
70.0022107699
 10
20.1953602713
 20
69.9773829926
 10
20.2020028645
 20
69.9556205866
 10
20.2090901988
 20
69.9369814007
 10
20.2166524011
 20
69.9215226207
 10
20.224930434
 20
69.9093060724
 10
20.2340046183
 20
69.9003350764
 10
20.2437946332
 20
69.8945811371
 10
20.2543004788
 20
69.8920138324
  0
LINE
  5
382
100
AcDbEntity
  8
RACCORDO
100
AcDbLine
 62
7
  6
CONTINUOUS
 10
20.131102368
 20
70.4869851286
 11
20.1492489065
 21
70.2955096952
  0
LWPOLYLINE
  5
383
100
AcDbEntity
  8
RACCORDO
100
AcDbPolyline
 62
7
  6
CONTINUOUS
 90
10
 70
0
 10
17.5836099062
 20
92.372438964
 10
17.7232429963
 20
89.9493134542
 10
17.8981474533
 20
87.5290890234
 10
18.1083232771
 20
85.1117656715
 10
18.3538744523
 20
82.6964874603
 10
18.6346969944
 20
80.2841103281
 10
18.9504789496
 20
77.8772020897
 10
19.3011163334
 20
75.4766186835
 10
19.6867131303
 20
73.0815041711
 10
20.1072693403
 20
70.6918585526
  0
LWPOLYLINE
  5
384
100
AcDbEntity
  8
RACCORDO
100
AcDbPolyline
 62
250
  6
CONTINUOUS
 90
10
 70
0
 10
16.3415474241
 20
92.309951216
 10
16.4797659505
 20
89.9066066684
 10
16.6523851515
 20
87.5054815009
 10
16.8594045915
 20
85.1070759072
 10
17.100879949
 20
82.711900283
 10
17.3767546721
 20
80.3204447676
 10
17.6868599897
 20
77.9331794142
 10
18.0311393652
 20
75.55059476
 10
18.4096484858
 20
73.1732016566
 10
18.8223869255
 20
70.8015009296
  0
LWPOLYLINE
  5
385
100
AcDbEntity
  8
RACCORDO
100
AcDbPolyline
 62
250
  6
CONTINUOUS
 90
18
 70
0
 10
18.8362700977
 20
70.3672476938
 10
18.8382767156
 20
70.3297776921
 10
18.8403621983
 20
70.2939183742
 10
18.8425264246
 20
70.2597847718
 10
18.8447720712
 20
70.2274871952
 10
18.8470764724
 20
70.197129633
 10
18.8494355129
 20
70.168810621
 10
18.851849657
 20
70.1426198663
 10
18.8543017345
 20
70.118639256
 10
18.856784824
 20
70.0969454296
 10
18.8592963532
 20
70.0776095466
 10
18.8618242772
 20
70.0606948501
 10
18.8643585781
 20
70.0462573272
 10
18.8668937824
 20
70.0343410768
 10
18.869423482
 20
70.0249815756
 10
18.87193885
 20
70.0182103212
 10
18.8744283925
 20
70.0140521844
 10
18.876880648
 20
70.0125224525
  0
LINE
  5
386
100
AcDbEntity
  8
RACCORDO
100
AcDbLine
 62
250
  6
CONTINUOUS
 10
18.8325631763
 20
70.4465476905
 11
18.8362700977
 21
70.3672476938
  0
LINE
  5
387
100
AcDbEntity
  8
RACCORDO
100
AcDbLine
 62
250
  6
CONTINUOUS
 10
18.8292723232
 20
70.5307702227
 11
18.8325631763
 21
70.4465476905
  0
LINE
  5
388
100
AcDbEntity
  8
RACCORDO
100
AcDbLine
 62
250
  6
CONTINUOUS
 10
18.8264562073
 20
70.6186729933
 11
18.8292723232
 21
70.5307702227
  0
LINE
  5
389
100
AcDbEntity
  8
RACCORDO
100
AcDbLine
 62
250
  6
CONTINUOUS
 10
18.8241743888
 20
70.7092942448
 11
18.8264562073
 21
70.6186729933
  0
LINE
  5
38A
100
AcDbEntity
  8
RACCORDO
100
AcDbLine
 62
250
  6
CONTINUOUS
 10
18.8223869269
 20
70.8015009294
 11
18.8241743888
 21
70.7092942448
  0
LINE
  5
38B
100
AcDbEntity
  8
RACCORDO
100
AcDbLine
 62
250
  6
CONTINUOUS
 10
18.8241744666
 20
159.0744201721
 11
18.8223869269
 21
158.9822161757
  0
LINE
  5
38C
100
AcDbEntity
  8
RACCORDO
100
AcDbLine
 62
250
  6
CONTINUOUS
 10
18.8264578661
 20
159.1651237061
 11
18.8241744666
 21
159.0744201721
  0
LINE
  5
38D
100
AcDbEntity
  8
RACCORDO
100
AcDbLine
 62
250
  6
CONTINUOUS
 10
18.829278868
 20
159.2531462331
 11
18.8264578661
 21
159.1651237061
  0
LWPOLYLINE
  5
38E
100
AcDbEntity
  8
RACCORDO
100
AcDbPolyline
 62
250
  6
CONTINUOUS
 90
12
 70
0
 10
16.1659838291
 20
133.6604436434
 10
16.0249054419
 20
129.9082971755
 10
15.9151745299
 20
126.155102085
 10
15.8367878136
 20
122.4011233003
 10
15.7897485707
 20
118.646622582
 10
15.7740666373
 20
114.8918585211
 10
15.7897485718
 20
111.1370944509
 10
15.8367878158
 20
107.3825937173
 10
15.9151745326
 20
103.6286149302
 10
16.0249054443
 20
99.8754198567
 10
16.1659838306
 20
96.1232734188
 10
16.3415474241
 20
92.309951216
  0
LINE
  5
38F
100
AcDbEntity
  8
RACCORDO
100
AcDbLine
 62
250
  6
CONTINUOUS
 10
18.8325712344
 20
159.3373547155
 11
18.829278868
 21
159.2531462331
  0
LWPOLYLINE
  5
390
100
AcDbEntity
  8
DRAFT
100
AcDbPolyline
 62
7
  6
CONTINUOUS
 90
13
 70
0
 10
17.5836099062
 20
137.4112781413
 10
17.4107362894
 20
133.660966132
 10
17.2692890339
 20
129.9094842871
 10
17.1592681396
 20
126.1568326068
 10
17.0806672444
 20
122.4026211457
 10
17.0334927106
 20
118.6472398492
 10
17.0177636245
 20
114.8918585526
 10
17.0334927106
 20
111.1364772561
 10
17.0806672444
 20
107.3810959595
 10
17.1592681396
 20
103.6268844985
 10
17.2692890339
 20
99.8742328181
 10
17.4107362894
 20
96.1227509733
 10
17.5836099062
 20
92.372438964
  0
LINE
  5
391
100
AcDbEntity
  8
RACCORDO
100
AcDbLine
 62
250
  6
CONTINUOUS
 10
16.3415474241
 20
137.4737658892
 11
16.1659838291
 21
133.6604436434
  0
LWPOLYLINE
  5
392
100
AcDbEntity
  8
RACCORDO
100
AcDbPolyline
 62
7
  6
CONTINUOUS
 90
5
 70
0
 10
20.1311027283
 20
159.2967356531
 10
20.1259374618
 20
159.2463763939
 10
20.1201790991
 20
159.1952750962
 10
20.1139456404
 20
159.1436972774
 10
20.1072370856
 20
159.0918585526
  0
LINE
  5
393
100
AcDbEntity
  8
RACCORDO
100
AcDbLine
 62
7
  6
CONTINUOUS
 10
23.8857561056
 20
111.0392045912
 11
22.0510264701
 21
111.3627169283
  0
LINE
  5
394
100
AcDbEntity
  8
0
100
AcDbLine
 62
250
  6
CONTINUOUS
 10
21.8857561056
 20
114.8918585526
 11
18.3176445087
 21
114.8918585526
  0
LINE
  5
395
100
AcDbEntity
  8
RACCORDO
100
AcDbLine
 62
7
  6
CONTINUOUS
 10
21.8857561056
 20
111.5596784789
 11
21.8857561056
 21
118.2240386264
  0
LINE
  5
396
100
AcDbEntity
  8
RACCORDO
100
AcDbLine
 62
7
  6
CONTINUOUS
 10
23.8857561056
 20
71.7918583332
 11
23.8857561056
 21
92.5184542476
  0
LINE
  5
397
100
AcDbEntity
  8
DRAFT
100
AcDbLine
 62
7
  6
CONTINUOUS
 10
23.8857561056
 20
92.5184542476
 11
23.8857561056
 21
111.0392045912
  0
LINE
  5
398
100
AcDbEntity
  8
DRAFT
100
AcDbLine
 62
7
  6
CONTINUOUS
 10
23.8857561056
 20
118.744512514
 11
23.8857561056
 21
137.2652628577
  0
LINE
  5
399
100
AcDbEntity
  8
RACCORDO
100
AcDbLine
 62
7
  6
CONTINUOUS
 10
23.8857561056
 20
137.2652628577
 11
23.8857561056
 21
157.9918593757
  0
LINE
  5
39A
100
AcDbEntity
  8
RACCORDO
100
AcDbLine
 62
7
  6
CONTINUOUS
 10
22.0510264701
 20
118.421000177
 11
23.8857561056
 21
118.744512514
  0
LWPOLYLINE
  5
39B
100
AcDbEntity
  8
0
100
AcDbPolyline
 62
7
  6
CONTINUOUS
 90
4
 70
0
 43
0.3500000006
 10
27.9401449356
 20
180.5183952026
 10
27.9401449356
 20
181.3755331421
 10
28.3687161713
 20
181.8041021118
 10
29.0115741577
 20
181.8041021118
  0
LINE
  5
39C
100
AcDbEntity
  8
0
100
AcDbLine
 62
250
  6
CONTINUOUS
 10
18.881968695
 20
137.3459753408
 11
18.3813373695
 21
137.3459753408
  0
LINE
  5
39D
100
AcDbEntity
  8
RACCORDO
100
AcDbLine
 62
250
  6
CONTINUOUS
 10
17.5836099062
 20
137.4112781413
 11
16.3384096927
 21
137.4112781413
  0
LINE
  5
39E
100
AcDbEntity
  8
0
100
AcDbLine
 62
250
  6
CONTINUOUS
 10
23.8857561056
 20
137.2652628577
 11
18.881968695
 21
137.3459753408
  0
LINE
  5
39F
100
AcDbEntity
  8
RACCORDO
100
AcDbLine
 62
250
  6
CONTINUOUS
 10
16.3384096927
 20
137.4112781413
 11
15.8826148959
 21
137.4341333231
  0
LINE
  5
3A0
100
AcDbEntity
  8
RACCORDO
100
AcDbLine
 62
250
  6
CONTINUOUS
 10
16.3415474241
 20
137.4737658892
 11
15.8857561056
 21
137.4966741112
  0
LWPOLYLINE
  5
3A1
100
AcDbEntity
  8
RACCORDO
100
AcDbPolyline
 62
250
  6
CONTINUOUS
 90
19
 70
0
 10
23.1651560068
 20
158.6733253863
 10
23.1877268911
 20
158.6543757639
 10
23.2079329297
 20
158.6324442819
 10
23.2256778337
 20
158.6076354515
 10
23.2408770427
 20
158.5800674956
 10
23.2534581272
 20
158.5498717851
 10
23.2633611342
 20
158.5171922131
 10
23.2705388724
 20
158.4821845093
 10
23.2749571375
 20
158.4450154976
 10
23.276594875
 20
158.405862301
 10
23.2754442806
 20
158.3649114981
 10
23.2715108372
 20
158.3223582338
 10
23.2648132891
 20
158.2784052886
 10
23.2553835522
 20
158.2332621137
 10
23.2432665626
 20
158.1871438317
 10
23.2285200617
 20
158.1402702119
 10
23.2112143214
 20
158.092864623
 10
23.1914318095
 20
158.045152969
 10
23.1692667963
 20
157.9973626123
  0
LWPOLYLINE
  5
3A2
100
AcDbEntity
  8
RACCORDO
100
AcDbPolyline
 62
250
  6
CONTINUOUS
 90
13
 70
0
 10
23.1692669557
 20
71.7863545034
 10
23.2501071034
 20
71.8347637554
 10
23.3264888021
 20
71.8826515378
 10
23.3985281999
 20
71.9300146321
 10
23.4662178167
 20
71.9769177627
 10
23.5298058025
 20
72.0232900193
 10
23.589772877
 20
72.068924902
 10
23.6460922242
 20
72.1136651013
 10
23.698987416
 20
72.1576622339
 10
23.7492660298
 20
72.2011740631
 10
23.7972297332
 20
72.2442855712
 10
23.842704625
 20
72.2869081929
 10
23.8857561906
 20
72.329040135
  0
LWPOLYLINE
  5
3A3
100
AcDbEntity
  8
RACCORDO
100
AcDbPolyline
 62
250
  6
CONTINUOUS
 90
13
 70
0
 10
23.1692669557
 20
157.9973626019
 10
23.250245618
 20
157.9488624406
 10
23.326708776
 20
157.9009191901
 10
23.3987746206
 20
157.8535361518
 10
23.4664193938
 20
157.8066599407
 10
23.5299118489
 20
157.7603502922
 10
23.5897879773
 20
157.714779939
 10
23.6460249276
 20
157.6701077275
 10
23.6988417329
 20
157.6261804942
 10
23.7490853389
 20
157.5827019569
 10
23.7970691414
 20
157.5395742312
 10
23.842604651
 20
157.4968986603
 10
23.8857561728
 20
157.4546769872
  0
LWPOLYLINE
  5
3A4
100
AcDbEntity
  8
0
100
AcDbPolyline
 62
7
  6
CONTINUOUS
 90
10
 70
0
 43
0.3500000006
 10
30.9401435852
 20
180.5898173218
 10
31.0115725021
 20
180.4469549561
 10
31.0115725021
 20
180.3755328369
 10
30.8687169342
 20
180.2326704712
 10
30.7972880173
 20
180.2326704712
 10
30.7258591003
 20
180.3040925903
 10
30.7258591003
 20
180.3755328369
 10
30.7972880173
 20
180.5183952026
 10
30.8687169342
 20
180.5898173218
 10
30.9401435852
 20
180.5898173218
  0
LWPOLYLINE
  5
3A5
100
AcDbEntity
  8
RACCORDO
100
AcDbPolyline
 62
7
  6
CONTINUOUS
 90
18
 70
0
 10
20.2543004788
 20
159.8917032729
 10
20.2437945795
 20
159.8891359627
 10
20.2340044366
 20
159.8833819083
 10
20.2249300499
 20
159.874410557
 10
20.2166516382
 20
159.8621930641
 10
20.2090889827
 20
159.8467327461
 10
20.202001428
 20
159.8280922735
 10
20.1953590592
 20
159.8063298887
 10
20.1891917912
 20
159.7815032072
 10
20.183348713
 20
159.753731755
 10
20.1778202537
 20
159.7231203819
 10
20.1726159843
 20
159.6897851425
 10
20.1676137062
 20
159.6539046541
 10
20.1628184454
 20
159.6156383572
 10
20.1582251759
 20
159.5751395575
 10
20.1536966215
 20
159.5326077496
 10
20.1492489606
 20
159.4882079393
 10
20.1311027283
 20
159.2967356531
  0
LINE
  5
3A6
100
AcDbEntity
  8
0
100
AcDbLine
 62
250
  6
CONTINUOUS
 10
20.6789182146
 20
157.7502394076
 11
21.19459528
 21
157.7953802692
  0
LINE
  5
3A7
100
AcDbEntity
  8
0
100
AcDbLine
 62
7
  6
CONTINUOUS
 10
21.3739020131
 20
158.7918585526
 11
20.8573723463
 21
158.7466680624
  0
LINE
  5
3A8
100
AcDbEntity
  8
RACCORDO
100
AcDbLine
 62
250
  6
CONTINUOUS
 10
18.8223869254
 20
158.9822161756
 11
20.1077309043
 21
159.0947187739
  0
LINE
  5
3A9
100
AcDbEntity
  8
RACCORDO
100
AcDbLine
 62
250
  6
CONTINUOUS
 10
20.1072693403
 20
159.0918585526
 11
20.9206610917
 21
159.0918585526
  0
LINE
  5
3AA
100
AcDbEntity
  8
RACCORDO
100
AcDbLine
 62
250
  6
CONTINUOUS
 10
23.1692669557
 20
157.9973626019
 11
21.2325149673
 21
158.0090667276
  0
LWPOLYLINE
  5
3AB
100
AcDbEntity
  8
RACCORDO
100
AcDbPolyline
 62
250
  6
CONTINUOUS
 90
19
 70
0
 10
21.3390895122
 20
158.6011053612
 10
21.4404072769
 20
158.5862402261
 10
21.5415626005
 20
158.5695269409
 10
21.6425156349
 20
158.5509629687
 10
21.7431216698
 20
158.5305968052
 10
21.8434421168
 20
158.5083748913
 10
21.9437405631
 20
158.4841412853
 10
22.043930066
 20
158.4579322283
 10
22.143994757
 20
158.4297056671
 10
22.2442910263
 20
158.3991873444
 10
22.3446573695
 20
158.3664625441
 10
22.4451196939
 20
158.3314389346
 10
22.5462883526
 20
158.2935741273
 10
22.6480773793
 20
158.2529787192
 10
22.7503685165
 20
158.2095324023
 10
22.8536923876
 20
158.16234347
 10
22.9581429984
 20
158.1111092558
 10
23.0633801566
 20
158.0561180397
 10
23.1692669557
 20
157.9973626019
  0
LINE
  5
3AC
100
AcDbEntity
  8
RACCORDO
100
AcDbLine
 62
250
  6
CONTINUOUS
 10
18.8223869273
 20
158.9822161856
 11
18.3739906808
 21
159.0635074512
  0
LINE
  5
3AD
100
AcDbEntity
  8
RACCORDO
100
AcDbLine
 62
7
  6
CONTINUOUS
 10
18.876880648
 20
159.7711946528
 11
20.2560753343
 21
159.8918585526
  0
LINE
  5
3AE
100
AcDbEntity
  8
RACCORDO
100
AcDbLine
 62
7
  6
CONTINUOUS
 10
20.2560753343
 20
159.8918585526
 11
21.0702462659
 21
159.8918585526
  0
LWPOLYLINE
  5
3AF
100
AcDbEntity
  8
0
100
AcDbPolyline
 62
7
  6
CONTINUOUS
 90
13
 70
0
 43
0.3500000006
 10
28.3687161713
 20
181.8041021118
 10
28.0830027695
 20
182.0183865967
 10
28.0830027695
 20
182.6612400513
 10
28.3687161713
 20
183.089809021
 10
29.0115741577
 20
183.089809021
 10
29.2972875595
 20
182.6612400513
 10
29.2972875595
 20
182.0183865967
 10
29.0115741577
 20
181.8041021118
 10
29.4401453934
 20
181.3755331421
 10
29.4401453934
 20
180.5183952026
 10
29.0115741577
 20
180.0898081055
 10
28.3687161713
 20
180.0898081055
 10
27.9401449356
 20
180.5183952026
  0
ARC
  5
3B0
100
AcDbEntity
  8
RACCORDO
100
AcDbCircle
 62
7
  6
CONTINUOUS
 10
269.8824115954
 20
70.6918585526
 40
0.8
100
AcDbArc
 50
270.0
 51
360.0
  0
ARC
  5
3B1
100
AcDbEntity
  8
RACCORDO
100
AcDbCircle
 62
7
  6
CONTINUOUS
 10
269.8824115954
 20
159.0918585526
 40
0.8
100
AcDbArc
 50
0.0
 51
90.0
  0
ARC
  5
3B2
100
AcDbEntity
  8
RACCORDO
100
AcDbCircle
 62
7
  6
CONTINUOUS
 10
39.4824115954
 20
70.6918585526
 40
0.8
100
AcDbArc
 50
180.0
 51
270.0
  0
ARC
  5
3B3
100
AcDbEntity
  8
RACCORDO
100
AcDbCircle
 62
7
  6
CONTINUOUS
 10
39.4824115954
 20
159.0918585526
 40
0.8
100
AcDbArc
 50
90.0
 51
180.0
  0
ARC
  5
3B4
100
AcDbEntity
  8
RACCORDO
100
AcDbCircle
 62
7
  6
CONTINUOUS
 10
183.7944175777
 20
100.7322477541
 40
168.1209091124
100
AcDbArc
 50
182.8793463054
 51
190.3870878027
  0
ARC
  5
3B5
100
AcDbEntity
  8
RACCORDO
100
AcDbCircle
 62
7
  6
CONTINUOUS
 10
183.7944175777
 20
100.7322477541
 40
165.6209091124
100
AcDbArc
 50
182.8793463054
 51
190.7317283603
  0
ARC
  5
3B6
100
AcDbEntity
  8
0
100
AcDbCircle
 62
7
  6
CONTINUOUS
 10
183.7944175777
 20
100.7322477541
 40
165.1209091124
100
AcDbArc
 50
182.8793463054
 51
190.1003116182
  0
ARC
  5
3B7
100
AcDbEntity
  8
RACCORDO
100
AcDbCircle
 62
7
  6
CONTINUOUS
 10
183.7944175777
 20
100.7322477541
 40
165.1209091124
100
AcDbArc
 50
190.1003116182
 51
190.5880594174
  0
ARC
  5
3B8
100
AcDbEntity
  8
RACCORDO
100
AcDbCircle
 62
7
  6
CONTINUOUS
 10
20.7876641819
 20
74.3461507757
 40
4.0152935545
100
AcDbArc
 50
279.9999997929
 51
320.4953459004
  0
ARC
  5
3B9
100
AcDbEntity
  8
RACCORDO
100
AcDbCircle
 62
7
  6
CONTINUOUS
 10
18.9204585194
 20
70.5106198015
 40
0.5
100
AcDbArc
 50
190.3870878027
 51
265.0
  0
ARC
  5
3BA
100
AcDbEntity
  8
RACCORDO
100
AcDbCircle
 62
7
  6
CONTINUOUS
 10
22.0857561056
 20
111.5596784789
 40
0.2
100
AcDbArc
 50
180.0
 51
260.0
  0
ARC
  5
3BB
100
AcDbEntity
  8
RACCORDO
100
AcDbCircle
 62
7
  6
CONTINUOUS
 10
183.7944175777
 20
129.0514693511
 40
168.1209091124
100
AcDbArc
 50
169.6129121973
 51
177.1206685792
  0
ARC
  5
3BC
100
AcDbEntity
  8
RACCORDO
100
AcDbCircle
 62
7
  6
CONTINUOUS
 10
183.7944175777
 20
129.0514693511
 40
165.6209091124
100
AcDbArc
 50
169.2682716397
 51
177.1206536946
  0
ARC
  5
3BD
100
AcDbEntity
  8
0
100
AcDbCircle
 62
7
  6
CONTINUOUS
 10
183.7944175777
 20
129.0514693511
 40
165.1209091124
100
AcDbArc
 50
169.8996883818
 51
177.1206536946
  0
ARC
  5
3BE
100
AcDbEntity
  8
RACCORDO
100
AcDbCircle
 62
7
  6
CONTINUOUS
 10
183.7944175777
 20
129.0514693511
 40
165.1209091124
100
AcDbArc
 50
169.4119405825
 51
169.8996883818
  0
ARC
  5
3BF
100
AcDbEntity
  8
RACCORDO
100
AcDbCircle
 62
7
  6
CONTINUOUS
 10
20.7876641819
 20
155.4375663295
 40
4.0152935545
100
AcDbArc
 50
39.504661403
 51
79.9999999795
  0
ARC
  5
3C0
100
AcDbEntity
  8
RACCORDO
100
AcDbCircle
 62
7
  6
CONTINUOUS
 10
18.9204585194
 20
159.2730973037
 40
0.5
100
AcDbArc
 50
95.0
 51
169.6129121973
  0
ARC
  5
3C1
100
AcDbEntity
  8
RACCORDO
100
AcDbCircle
 62
7
  6
CONTINUOUS
 10
22.0857561056
 20
118.2240386264
 40
0.2
100
AcDbArc
 50
100.0
 51
180.0
  0
ARC
  5
3C2
100
AcDbEntity
  8
RACCORDO
100
AcDbCircle
 62
7
  6
CONTINUOUS
 10
465.3176445087
 20
114.8918585526
 40
450.0
100
AcDbArc
 50
177.1206592555
 51
182.8793413938
  0
ARC
  5
3C3
100
AcDbEntity
  8
DRAFT
100
AcDbCircle
 62
7
  6
CONTINUOUS
 10
465.3176445087
 20
114.8918585526
 40
447.5
100
AcDbArc
 50
177.1206536946
 51
182.8793463054
  0
ARC
  5
3C4
100
AcDbEntity
  8
0
100
AcDbCircle
 62
7
  6
CONTINUOUS
 10
465.3176445087
 20
114.8918585526
 40
447.0
100
AcDbArc
 50
177.1206536946
 51
182.8793463054
  0
ENDSEC
  0
SECTION
  2
OBJECTS
  0
DICTIONARY
  5
C
100
AcDbDictionary
280
0
281
1
  3
ACAD_GROUP
350
D
  3
ACAD_MLINESTYLE
350
17
  3
ACAD_LAYOUT
350
1A
  3
ACAD_PLOTSETTINGS
350
19
  3
ACAD_PLOTSTYLENAME
350
E
  0
DICTIONARY
  5
D
102
{ACAD_REACTORS
330
C
102
}
100
AcDbDictionary
280
0
281
1
  0
ACDBDICTIONARYWDFLT
  5
E
102
{ACAD_REACTORS
330
C
102
}
100
AcDbDictionary
281
1
  3
Normal
350
F
100
AcDbDictionaryWithDefault
340
F
  0
DICTIONARY
  5
17
102
{ACAD_REACTORS
330
C
102
}
100
AcDbDictionary
280
0
281
1
  3
Standard
350
18
  0
DICTIONARY
  5
19
102
{ACAD_REACTORS
330
C
102
}
100
AcDbDictionary
281
1
  0
DICTIONARY
  5
1A
102
{ACAD_REACTORS
330
C
102
}
100
AcDbDictionary
281
1
  3
Model
350
3C5
  3
Layout1
350
3C6
  0
ACDBPLACEHOLDER
  5
F
102
{ACAD_REACTORS
330
E
102
}
  0
MLINESTYLE
  5
18
102
{ACAD_REACTORS
330
17
102
}
100
AcDbMlineStyle
  2
STANDARD
 70
0
  3

 62
256
 51
90.0
 52
90.0
 71
2
 49
0.5
 62
256
  6
BYLAYER
 49
-0.5
 62
256
  6
BYLAYER
  0
LAYOUT
  5
3C5
102
{ACAD_REACTORS
330
1A
102
}
100
AcDbPlotSettings
  1

  2
none_device
  4
ISO_A4_(297.00_x_210.00_MM)
  6

 40
0.0
 41
0.0
 42
0.0
 43
0.0
 44
297.0
 45
210.0
 46
0.0
 47
0.0
 48
0.0
 49
0.0
140
0.0
141
0.0
142
1.0
143
1.0
 70
1024
 72
1
 73
0
 74
0
  7

 75
0
147
1.0
148
0.0
149
0.0
100
AcDbLayout
  1
Model
 70
0
 71
0
 10
0.0
 20
0.0
 11
297.0
 21
210.0
 12
0.0
 22
0.0
 32
0.0
 14
0.0
 24
0.0
 34
0.0
 15
0.0
 25
0.0
 35
0.0
146
0.0
 13
0.0
 23
0.0
 33
0.0
 16
1.0
 26
0.0
 36
0.0
 17
0.0
 27
1.0
 37
0.0
 76
0
330
213
345
0
346
0
  0
LAYOUT
  5
3C6
102
{ACAD_REACTORS
330
1A
102
}
100
AcDbPlotSettings
  1

  2
none_device
  4
ISO_A4_(297.00_x_210.00_MM)
  6

 40
0.0
 41
0.0
 42
0.0
 43
0.0
 44
297.0
 45
210.0
 46
0.0
 47
0.0
 48
0.0
 49
0.0
140
0.0
141
0.0
142
1.0
143
1.0
 70
0
 72
1
 73
0
 74
0
  7

 75
0
147
1.0
148
0.0
149
0.0
100
AcDbLayout
  1
Layout1
 70
0
 71
1
 10
0.0
 20
0.0
 11
297.0
 21
210.0
 12
0.0
 22
0.0
 32
0.0
 14
0.0
 24
0.0
 34
0.0
 15
0.0
 25
0.0
 35
0.0
146
0.0
 13
0.0
 23
0.0
 33
0.0
 16
1.0
 26
0.0
 36
0.0
 17
0.0
 27
1.0
 37
0.0
 76
0
330
214
345
0
346
0
  0
ENDSEC
  0
EOF
