  0
SECTION
  2
HEADER
  9
$ACADVER
  1
AC1024
  9
$DWGCODEPAGE
  3
ANSI_1252
  9
$EXTMAX
 10
297.0
 20
210.0
 30
0.0
  9
$EXTMIN
 10
0.0
 20
0.0
 30
0.0
  9
$LIMMIN
 10
0.0
 20
0.0
  9
$LIMMAX
 10
297.0
 20
210.0
  9
$VIEWCTR
 10
148.5
 20
105.0
  9
$VIEWSIZE
 40
210.0
  9
$CLAYER
  8
0
  9
$LTSCALE
 40
16.335
  9
$CELTYPE
  6
BYLAYER
  9
$DIMSCALE
 40
1.0
  9
$DIMASZ
 40
3.0
  9
$DIMEXO
 40
0.5
  9
$DIMDLI
 40
11.286
  9
$DIMEXE
 40
1.5
  9
$DIMCEN
 40
2.673
  9
$DIMLFAC
 40
1.0
  9
$DIMBLK
  1
_FILLED
  9
$DIMALT
 70
0
  9
$DIMALTF
 40
0.0393700787
  9
$DIMTXT
 40
3.0
  9
$DIMTOL
 70
1
  9
$DIMLIM
 70
0
  9
$DIMTFAC
 40
1.0
  9
$DIMTP
 40
0.01
  9
$DIMTM
 40
0.01
  9
$DIMGAP
 40
0.625
  9
$DIMDSEP
 70
44
  9
$AUNITS
 70
0
  9
$PDMODE
 70
3
  9
$PDSIZE
 40
3.0
  9
$HANDSEED
  5
66D
  9
$TILEMODE
 70
1
  9
$MEASUREMENT
 70
1
  9
$INSUNITS
 70
4
  0
ENDSEC
  0
SECTION
  2
CLASSES
  0
CLASS
  1
ACDBDICTIONARYWDFLT
  2
AcDbDictionaryWithDefault
  3
AutoCAD 2000
 90
0
 91
1
280
0
281
0
  0
CLASS
  1
ACDBPLACEHOLDER
  2
AcDbPlaceHolder
  3
AutoCAD 2000
 90
0
 91
1
280
0
281
0
  0
CLASS
  1
LAYOUT
  2
AcDbLayout
  3
AutoCAD 2000
 90
0
 91
0
280
0
281
0
  0
ENDSEC
  0
SECTION
  2
TABLES
  0
TABLE
  2
VPORT
  5
8
100
AcDbSymbolTable
 70
2
  0
VPORT
  5
1F4
100
AcDbSymbolTableRecord
100
AcDbViewportTableRecord
  2
*ACTIVE
 70
0
 10
0.0
 20
0.0
 11
1.0
 21
1.0
 12
148.5
 22
105.0
 13
0.0
 23
0.0
 14
1.0
 24
1.0
 15
0.0
 25
0.0
 16
0.0
 26
0.0
 36
1.0
 17
0.0
 27
0.0
 37
0.0
 40
210.0
 41
1.4142857143
 42
50.0
 43
0.0
 44
0.0
 50
0.0
 51
0.0
 71
0
 72
100
 73
1
 74
1
 75
0
 76
0
 77
0
 78
0
  0
ENDTAB
  0
TABLE
  2
LTYPE
  5
5
100
AcDbSymbolTable
 70
6
  0
LTYPE
  5
14
100
AcDbSymbolTableRecord
100
AcDbLinetypeTableRecord
  2
BYBLOCK
 70
0
  3

 72
65
 73
0
 40
0.0
  0
LTYPE
  5
15
100
AcDbSymbolTableRecord
100
AcDbLinetypeTableRecord
  2
BYLAYER
 70
0
  3

 72
65
 73
0
 40
0.0
  0
LTYPE
  5
16
100
AcDbSymbolTableRecord
100
AcDbLinetypeTableRecord
  2
CONTINUOUS
 70
64
  3
Solid line
 72
65
 73
0
 40
0.0
  0
LTYPE
  5
1F5
100
AcDbSymbolTableRecord
100
AcDbLinetypeTableRecord
  2
CENTER
 70
64
  3
____ _ ____ _ ____ _ ____ _ ____ _ ____ _ ____
 72
65
 73
4
 40
0.6
 49
0.375
 74
0
 49
-0.075
 74
0
 49
0.075
 74
0
 49
-0.075
 74
0
  0
LTYPE
  5
1F6
100
AcDbSymbolTableRecord
100
AcDbLinetypeTableRecord
  2
HIDDEN
 70
64
  3
- - - - - - - - - - - - - - - - - - - -
 72
65
 73
2
 40
0.2
 49
0.1
 74
0
 49
-0.1
 74
0
  0
LTYPE
  5
1F7
100
AcDbSymbolTableRecord
100
AcDbLinetypeTableRecord
  2
PHANTOM
 70
64
  3
_____ _ _ _____ _ _ _____ _ _ _____
 72
65
 73
6
 40
0.8
 49
0.45
 74
0
 49
-0.05
 74
0
 49
0.1
 74
0
 49
-0.05
 74
0
 49
0.1
 74
0
 49
-0.05
 74
0
  0
LTYPE
  5
1F8
100
AcDbSymbolTableRecord
100
AcDbLinetypeTableRecord
  2
DOT
 70
64
  3
. . . . . . . . . . . . . . . . . . . .
 72
65
 73
2
 40
0.2
 49
0.1
 74
0
 49
-0.1
 74
0
  0
LTYPE
  5
1F9
100
AcDbSymbolTableRecord
100
AcDbLinetypeTableRecord
  2
DASHED
 70
64
  3
- - - - - - - - - - - - - - - - - - - -
 72
65
 73
2
 40
0.2
 49
0.1
 74
0
 49
-0.1
 74
0
  0
ENDTAB
  0
TABLE
  2
LAYER
  5
2
100
AcDbSymbolTable
 70
36
  0
LAYER
  5
10
100
AcDbSymbolTableRecord
100
AcDbLayerTableRecord
  2
0
 70
0
 62
7
  6
CONTINUOUS
370
-3
390
F
  0
LAYER
  5
1FA
100
AcDbSymbolTableRecord
100
AcDbLayerTableRecord
  2
DEFAULT_1
 70
0
 62
7
  6
CENTER
370
-3
390
F
  0
LAYER
  5
1FB
100
AcDbSymbolTableRecord
100
AcDbLayerTableRecord
  2
DEFAULT_2
 70
0
 62
7
  6
HIDDEN
370
-3
390
F
  0
LAYER
  5
1FC
100
AcDbSymbolTableRecord
100
AcDbLayerTableRecord
  2
DEFAULT_3
 70
0
 62
7
  6
PHANTOM
370
-3
390
F
  0
LAYER
  5
1FD
100
AcDbSymbolTableRecord
100
AcDbLayerTableRecord
  2
ASSI
 70
0
 62
7
  6
CONTINUOUS
370
-3
390
F
  0
LAYER
  5
1FE
100
AcDbSymbolTableRecord
100
AcDbLayerTableRecord
  2
COORDINATE
 70
0
 62
7
  6
CONTINUOUS
370
-3
390
F
  0
LAYER
  5
1FF
100
AcDbSymbolTableRecord
100
AcDbLayerTableRecord
  2
COPY_PUBLISH
 70
0
 62
7
  6
CONTINUOUS
370
-3
390
F
  0
LAYER
  5
200
100
AcDbSymbolTableRecord
100
AcDbLayerTableRecord
  2
COSMETIC
 70
0
 62
7
  6
CONTINUOUS
370
-3
390
F
  0
LAYER
  5
201
100
AcDbSymbolTableRecord
100
AcDbLayerTableRecord
  2
COSMETICI
 70
0
 62
7
  6
CONTINUOUS
370
-3
390
F
  0
LAYER
  5
202
100
AcDbSymbolTableRecord
100
AcDbLayerTableRecord
  2
CURVE
 70
0
 62
7
  6
CONTINUOUS
370
-3
390
F
  0
LAYER
  5
203
100
AcDbSymbolTableRecord
100
AcDbLayerTableRecord
  2
CURVE_VERN
 70
0
 62
7
  6
CONTINUOUS
370
-3
390
F
  0
LAYER
  5
204
100
AcDbSymbolTableRecord
100
AcDbLayerTableRecord
  2
DRAFT
 70
0
 62
7
  6
CONTINUOUS
370
-3
390
F
  0
LAYER
  5
205
100
AcDbSymbolTableRecord
100
AcDbLayerTableRecord
  2
IMPORT_IGES
 70
0
 62
7
  6
CONTINUOUS
370
-3
390
F
  0
LAYER
  5
206
100
AcDbSymbolTableRecord
100
AcDbLayerTableRecord
  2
INTFCLR_1
 70
0
 62
7
  6
CONTINUOUS
370
-3
390
F
  0
LAYER
  5
207
100
AcDbSymbolTableRecord
100
AcDbLayerTableRecord
  2
INTF_1
 70
0
 62
7
  6
CONTINUOUS
370
-3
390
F
  0
LAYER
  5
208
100
AcDbSymbolTableRecord
100
AcDbLayerTableRecord
  2
NOTE
 70
0
 62
7
  6
CONTINUOUS
370
-3
390
F
  0
LAYER
  5
209
100
AcDbSymbolTableRecord
100
AcDbLayerTableRecord
  2
PIANI
 70
0
 62
7
  6
CONTINUOUS
370
-3
390
F
  0
LAYER
  5
20A
100
AcDbSymbolTableRecord
100
AcDbLayerTableRecord
  2
PUNTI
 70
0
 62
7
  6
CONTINUOUS
370
-3
390
F
  0
LAYER
  5
20B
100
AcDbSymbolTableRecord
100
AcDbLayerTableRecord
  2
RACCORDO
 70
0
 62
7
  6
CONTINUOUS
370
-3
390
F
  0
LAYER
  5
20C
100
AcDbSymbolTableRecord
100
AcDbLayerTableRecord
  2
RGB____0____0____0__
 70
0
 62
7
  6
CONTINUOUS
370
-3
390
F
  0
LAYER
  5
20D
100
AcDbSymbolTableRecord
100
AcDbLayerTableRecord
  2
SIMBOLI
 70
0
 62
7
  6
CONTINUOUS
370
-3
390
F
  0
LAYER
  5
20E
100
AcDbSymbolTableRecord
100
AcDbLayerTableRecord
  2
SMUSSO
 70
0
 62
7
  6
CONTINUOUS
370
-3
390
F
  0
LAYER
  5
20F
100
AcDbSymbolTableRecord
100
AcDbLayerTableRecord
  2
SNAPLINE
 70
0
 62
7
  6
CONTINUOUS
370
-3
390
F
  0
LAYER
  5
210
100
AcDbSymbolTableRecord
100
AcDbLayerTableRecord
  2
SUPERFICI
 70
0
 62
7
  6
CONTINUOUS
370
-3
390
F
  0
LAYER
  5
211
100
AcDbSymbolTableRecord
100
AcDbLayerTableRecord
  2
TRASH
 70
0
 62
7
  6
CONTINUOUS
370
-3
390
F
  0
LAYER
  5
212
100
AcDbSymbolTableRecord
100
AcDbLayerTableRecord
  2
XSEC_DATUMS
 70
0
 62
7
  6
CONTINUOUS
370
-3
390
F
  0
ENDTAB
  0
TABLE
  2
STYLE
  5
3
100
AcDbSymbolTable
 70
1
  0
STYLE
  5
11
100
AcDbSymbolTableRecord
100
AcDbTextStyleTableRecord
  2
STANDARD
 70
0
 40
0.0
 41
0.8
 50
0.0
 71
0
 42
0.2
  3
txt
  4

  0
STYLE
  5
213
100
AcDbSymbolTableRecord
100
AcDbTextStyleTableRecord
  2
TEXTSTYLE_1
 70
0
 40
0.0
 41
0.8
 50
0.0
 71
0
 42
0.2
  3
gdt
  4

  0
ENDTAB
  0
TABLE
  2
VIEW
  5
6
100
AcDbSymbolTable
 70
0
  0
ENDTAB
  0
TABLE
  2
UCS
  5
7
100
AcDbSymbolTable
 70
0
  0
ENDTAB
  0
TABLE
  2
APPID
  5
9
100
AcDbSymbolTable
 70
1
  0
APPID
  5
214
100
AcDbSymbolTableRecord
100
AcDbRegAppTableRecord
  2
ACAD
 70
0
  0
ENDTAB
  0
TABLE
  2
BLOCK_RECORD
  5
1
100
AcDbSymbolTable
 70
0
  0
BLOCK_RECORD
  5
215
100
AcDbSymbolTableRecord
100
AcDbBlockTableRecord
  2
*Model_Space
  0
BLOCK_RECORD
  5
216
100
AcDbSymbolTableRecord
100
AcDbBlockTableRecord
  2
*Paper_Space
  0
BLOCK_RECORD
  5
217
100
AcDbSymbolTableRecord
100
AcDbBlockTableRecord
  2
_FILLED
  0
BLOCK_RECORD
  5
218
100
AcDbSymbolTableRecord
100
AcDbBlockTableRecord
  2
*D0
  0
BLOCK_RECORD
  5
219
100
AcDbSymbolTableRecord
100
AcDbBlockTableRecord
  2
*D1
  0
BLOCK_RECORD
  5
21A
100
AcDbSymbolTableRecord
100
AcDbBlockTableRecord
  2
*D2
  0
ENDTAB
  0
TABLE
  2
DIMSTYLE
  5
A
100
AcDbSymbolTable
 70
1
100
AcDbDimStyleTable
 71
0
  0
DIMSTYLE
105
21B
100
AcDbSymbolTableRecord
100
AcDbDimStyleTableRecord
  2
STANDARD
 70
0
  3

  4

 40
1.0
 41
3.0
 42
0.5
 43
0.38
 44
1.5
 45
0.0
 46
0.0
 47
0.01
 48
0.01
140
3.0
141
0.09
142
0.0
143
25.4
144
1.0
145
0.0
146
1.0
147
0.625
 71
1
 72
0
 73
0
 74
0
 75
0
 76
0
 77
1
 78
8
 79
2
170
0
171
1
172
0
173
0
174
0
175
0
176
0
177
0
178
0
270
2
179
2
271
2
272
2
273
2
274
2
275
0
280
0
281
0
282
0
283
1
284
8
285
0
286
0
287
3
288
0
340
11
278
44
341
217
342
217
343
217
344
217
  0
DIMSTYLE
105
21C
100
AcDbSymbolTableRecord
100
AcDbDimStyleTableRecord
  2
DIMSTYLE_1
 70
0
  3

  4

 40
1.0
 41
3.0
 42
0.5
 43
0.38
 44
1.5
 45
0.0
 46
0.0
 47
0.0
 48
0.0
140
3.0
141
0.09
142
0.0
143
25.4
144
1.0
145
0.0
146
1.0
147
0.75
 71
0
 72
0
 73
0
 74
0
 75
0
 76
0
 77
1
 78
8
 79
2
170
0
171
1
172
0
173
0
174
0
175
0
176
0
177
0
178
0
270
2
179
2
271
1
272
1
273
2
274
2
275
0
280
0
281
0
282
0
283
1
284
8
285
0
286
0
287
3
288
0
340
11
278
44
341
217
342
217
343
217
344
217
  0
DIMSTYLE
105
21D
100
AcDbSymbolTableRecord
100
AcDbDimStyleTableRecord
  2
DIMSTYLE_2
 70
0
  3

  4

 40
1.0
 41
3.0
 42
0.5
 43
0.38
 44
1.5
 45
0.0
 46
0.0
 47
0.0
 48
0.0
140
3.0
141
0.09
142
0.0
143
25.4
144
1.0
145
0.0
146
1.0
147
0.75
 71
0
 72
0
 73
0
 74
0
 75
0
 76
0
 77
1
 78
8
 79
2
170
0
171
1
172
0
173
0
174
0
175
0
176
0
177
0
178
0
270
2
179
2
271
2
272
2
273
2
274
2
275
0
280
0
281
0
282
0
283
1
284
8
285
0
286
0
287
3
288
0
340
11
278
44
341
217
342
217
343
217
344
217
  0
ENDTAB
  0
ENDSEC
  0
SECTION
  2
BLOCKS
  0
BLOCK
  5
20
100
AcDbEntity
  8
0
100
AcDbBlockBegin
  2
*Model_Space
 70
0
 10
0.0
 20
0.0
 30
0.0
  3
*Model_Space
  1

  0
ENDBLK
  5
21
100
AcDbEntity
  8
0
100
AcDbBlockEnd
  0
BLOCK
  5
1C
100
AcDbEntity
  8
0
100
AcDbBlockBegin
  2
*Paper_Space
 70
0
 10
0.0
 20
0.0
 30
0.0
  3
*Paper_Space
  1

  0
ENDBLK
  5
1D
100
AcDbEntity
  8
0
100
AcDbBlockEnd
  0
BLOCK
  5
21E
100
AcDbEntity
  8
0
100
AcDbBlockBegin
  2
_FILLED
 70
64
 10
0.0
 20
0.0
  3
_FILLED
  1

  0
SOLID
  5
21F
100
AcDbEntity
  8
0
  6
BYBLOCK
 62
0
100
AcDbTrace
 10
0.0
 20
0.0
 11
-1.0
 21
0.3166666667
 12
-1.0
 22
-0.3166666667
 13
-1.0
 23
-0.3166666667
  0
ENDBLK
  5
220
100
AcDbEntity
  8
0
  6
BYBLOCK
 62
0
100
AcDbBlockEnd
  0
BLOCK
  5
221
100
AcDbEntity
  8
0
100
AcDbBlockBegin
 62
7
  6
CONTINUOUS
  2
*D0
 70
65
 10
0.0
 20
0.0
  3
*D0
  1

  0
LINE
  5
222
100
AcDbEntity
  8
0
100
AcDbLine
 62
7
  6
CONTINUOUS
 10
24.7599700419
 20
150.5754470867
 11
24.7599700409
 21
168.4783717101
  0
LINE
  5
223
100
AcDbEntity
  8
0
100
AcDbLine
 62
7
  6
CONTINUOUS
 10
16.1886909273
 20
107.4783716867
 11
16.1886909241
 21
168.4783717097
  0
LINE
  5
224
100
AcDbEntity
  8
0
100
AcDbLine
 62
7
  6
CONTINUOUS
 10
24.759970041
 20
166.9783717101
 11
20.4743304826
 21
166.9783717099
  0
LINE
  5
225
100
AcDbEntity
  8
0
100
AcDbLine
 62
7
  6
CONTINUOUS
 10
20.4743304826
 20
166.9783717099
 11
38.5300846686
 21
166.9783717105
  0
LINE
  5
226
100
AcDbEntity
  8
0
100
AcDbLine
 62
7
  6
CONTINUOUS
 10
16.1886909242
 20
166.9783717097
 11
20.4743304826
 21
166.9783717099
  0
INSERT
  5
227
100
AcDbEntity
  8
0
100
AcDbBlockReference
 62
7
  6
CONTINUOUS
  2
_FILLED
 10
24.759970041
 20
166.9783717101
 41
3.0
 42
3.0
 43
3.0
 50
0.000000003
  0
INSERT
  5
228
100
AcDbEntity
  8
0
100
AcDbBlockReference
 62
7
  6
CONTINUOUS
  2
_FILLED
 10
16.1886909242
 20
166.9783717097
 41
3.0
 42
3.0
 43
3.0
 50
180.000000003
  0
ENDBLK
  5
229
100
AcDbEntity
  8
0
  6
BYBLOCK
 62
0
100
AcDbBlockEnd
  0
BLOCK
  5
22A
100
AcDbEntity
  8
0
100
AcDbBlockBegin
 62
7
  6
CONTINUOUS
  2
*D1
 70
65
 10
0.0
 20
0.0
  3
*D1
  1

  0
LINE
  5
22B
100
AcDbEntity
  8
0
100
AcDbLine
 62
7
  6
CONTINUOUS
 10
57.1093001642
 20
151.4797421758
 11
57.1093001642
 21
168.4783717105
  0
LINE
  5
22C
100
AcDbEntity
  8
0
100
AcDbLine
 62
7
  6
CONTINUOUS
 10
289.1093001642
 20
151.4797421758
 11
289.1093001642
 21
168.4783717105
  0
LINE
  5
22D
100
AcDbEntity
  8
0
100
AcDbLine
 62
7
  6
CONTINUOUS
 10
57.1093001642
 20
166.9783717105
 11
173.1093001642
 21
166.9783717105
  0
LINE
  5
22E
100
AcDbEntity
  8
0
100
AcDbLine
 62
7
  6
CONTINUOUS
 10
289.1093001642
 20
166.9783717105
 11
173.1093001642
 21
166.9783717105
  0
INSERT
  5
22F
100
AcDbEntity
  8
0
100
AcDbBlockReference
 62
7
  6
CONTINUOUS
  2
_FILLED
 10
57.1093001642
 20
166.9783717105
 41
3.0
 42
3.0
 43
3.0
 50
180.0
  0
INSERT
  5
230
100
AcDbEntity
  8
0
100
AcDbBlockReference
 62
7
  6
CONTINUOUS
  2
_FILLED
 10
289.1093001642
 20
166.9783717105
 41
3.0
 42
3.0
 43
3.0
 50
0.0
  0
ENDBLK
  5
231
100
AcDbEntity
  8
0
  6
BYBLOCK
 62
0
100
AcDbBlockEnd
  0
BLOCK
  5
232
100
AcDbEntity
  8
0
100
AcDbBlockBegin
 62
7
  6
CONTINUOUS
  2
*D2
 70
65
 10
0.0
 20
0.0
  3
*D2
  1

  0
LINE
  5
233
100
AcDbEntity
  8
0
100
AcDbLine
 62
7
  6
CONTINUOUS
 10
288.6106706294
 20
151.9783717105
 11
304.6093001642
 21
151.9783717105
  0
LINE
  5
234
100
AcDbEntity
  8
0
100
AcDbLine
 62
7
  6
CONTINUOUS
 10
288.6106706294
 20
61.9783717105
 11
304.6093001642
 21
61.9783717105
  0
LINE
  5
235
100
AcDbEntity
  8
0
100
AcDbLine
 62
7
  6
CONTINUOUS
 10
303.1093001642
 20
151.9783717105
 11
303.1093001642
 21
106.9783717105
  0
LINE
  5
236
100
AcDbEntity
  8
0
100
AcDbLine
 62
7
  6
CONTINUOUS
 10
303.1093001642
 20
61.9783717105
 11
303.1093001642
 21
106.9783717105
  0
INSERT
  5
237
100
AcDbEntity
  8
0
100
AcDbBlockReference
 62
7
  6
CONTINUOUS
  2
_FILLED
 10
303.1093001642
 20
151.9783717105
 41
3.0
 42
3.0
 43
3.0
 50
90.0
  0
INSERT
  5
238
100
AcDbEntity
  8
0
100
AcDbBlockReference
 62
7
  6
CONTINUOUS
  2
_FILLED
 10
303.1093001642
 20
61.9783717105
 41
3.0
 42
3.0
 43
3.0
 50
270.0
  0
ENDBLK
  5
239
100
AcDbEntity
  8
0
  6
BYBLOCK
 62
0
100
AcDbBlockEnd
  0
ENDSEC
  0
SECTION
  2
ENTITIES
  0
DIMENSION
  5
23A
100
AcDbEntity
  8
0
100
AcDbDimension
 62
7
  6
CONTINUOUS
  2
*D0
 10
16.1886909242
 20
166.9783717097
 11
32.10151324
 21
166.9783717105
 70
160
 71
1
 72
2
 41
0.9
 42
8.5712791168
  3
DIMSTYLE_1
100
AcDbAlignedDimension
 13
24.7599700419
 23
150.0754470867
 14
16.1886909274
 24
106.9783716867
 50
180.000000003
100
AcDbRotatedDimension
  0
DIMENSION
  5
23B
100
AcDbEntity
  8
0
100
AcDbDimension
 62
7
  6
CONTINUOUS
  2
*D1
 10
289.1093001642
 20
166.9783717105
 11
169.6807287356
 21
166.9783717105
 70
160
 71
2
 72
2
 41
0.9
 42
232.0
  3
DIMSTYLE_2
100
AcDbAlignedDimension
 13
57.1093001642
 23
150.9797421758
 14
289.1093001642
 24
150.9797421758
100
AcDbRotatedDimension
  0
DIMENSION
  5
23C
100
AcDbEntity
  8
0
100
AcDbDimension
 62
7
  6
CONTINUOUS
  2
*D2
 10
303.1093001642
 20
61.9783717105
 11
303.1093001642
 21
104.6212288534
 70
160
 71
2
 72
2
 41
0.9
 42
90.0
  3
DIMSTYLE_2
100
AcDbAlignedDimension
 13
288.1106706294
 23
151.9783717105
 14
288.1106706294
 24
61.9783717105
 50
270.0
100
AcDbRotatedDimension
  0
LWPOLYLINE
  5
23D
100
AcDbEntity
  8
RACCORDO
100
AcDbPolyline
 62
250
  6
CONTINUOUS
 90
28
 70
0
 10
57.2392416056
 20
63.1069426867
 10
57.2406120082
 20
63.0479670515
 10
57.2454093651
 20
62.9892424056
 10
57.2536087052
 20
62.930967696
 10
57.2651708176
 20
62.8733431199
 10
57.2800499993
 20
62.8165590548
 10
57.2981971341
 20
62.76079618
 10
57.3195515216
 20
62.706226717
 10
57.3440301749
 20
62.6530494006
 10
57.3715316694
 20
62.6014761756
 10
57.4019452939
 20
62.5516874826
 10
57.4351637074
 20
62.50383346
 10
57.4710719107
 20
62.4580684225
 10
57.5095393891
 20
62.4145416138
 10
57.5504293641
 20
62.3733910213
 10
57.5936075259
 20
62.334743705
 10
57.6389225731
 20
62.2987239789
 10
57.6862175682
 20
62.2654452686
 10
57.7353425377
 20
62.2350077145
 10
57.7861329469
 20
62.2075071602
 10
57.8384131596
 20
62.183032082
 10
57.892010575
 20
62.1616590898
 10
57.9467396151
 20
62.1434569269
 10
58.0024208242
 20
62.1284795195
 10
58.0588869954
 20
62.1167692104
 10
58.1159564332
 20
62.1083633032
 10
58.1734326155
 20
62.10329031
 10
58.2311242872
 20
62.1015662989
  0
LWPOLYLINE
  5
23E
100
AcDbEntity
  8
ASSI
100
AcDbPolyline
 62
250
  6
CONTINUOUS
 90
28
 70
0
 10
57.2392416056
 20
63.1069426867
 10
57.2406120082
 20
63.0479670515
 10
57.2454093651
 20
62.9892424056
 10
57.2536087052
 20
62.930967696
 10
57.2651708176
 20
62.8733431199
 10
57.2800499993
 20
62.8165590548
 10
57.2981971341
 20
62.76079618
 10
57.3195515216
 20
62.706226717
 10
57.3440301749
 20
62.6530494006
 10
57.3715316694
 20
62.6014761756
 10
57.4019452939
 20
62.5516874826
 10
57.4351637074
 20
62.50383346
 10
57.4710719107
 20
62.4580684225
 10
57.5095393891
 20
62.4145416138
 10
57.5504293641
 20
62.3733910213
 10
57.5936075259
 20
62.334743705
 10
57.6389225731
 20
62.2987239789
 10
57.6862175682
 20
62.2654452686
 10
57.7353425377
 20
62.2350077145
 10
57.7861329469
 20
62.2075071602
 10
57.8384131596
 20
62.183032082
 10
57.892010575
 20
62.1616590898
 10
57.9467396151
 20
62.1434569269
 10
58.0024208242
 20
62.1284795195
 10
58.0588869954
 20
62.1167692104
 10
58.1159564332
 20
62.1083633032
 10
58.1734326155
 20
62.10329031
 10
58.2311242872
 20
62.1015662989
  0
LWPOLYLINE
  5
23F
100
AcDbEntity
  8
RACCORDO
100
AcDbPolyline
 62
250
  6
CONTINUOUS
 90
28
 70
0
 10
57.538830466
 20
63.053743604
 10
57.5396725292
 20
63.0120664523
 10
57.5428705015
 20
62.9708255816
 10
57.5484243831
 20
62.9300209354
 10
57.5563721085
 20
62.889514172
 10
57.5666757431
 20
62.8494435341
 10
57.5792214827
 20
62.8102237884
 10
57.5940367286
 20
62.7718609512
 10
57.6110940794
 20
62.734348792
 10
57.6301975269
 20
62.6980836055
 10
57.6513647603
 20
62.6630884142
 10
57.6745780902
 20
62.6293399023
 10
57.6995884407
 20
62.5971647786
 10
57.726411049
 20
62.5665802363
 10
57.7550306777
 20
62.5375687543
 10
57.7851525384
 20
62.5104049179
 10
57.8167889085
 20
62.4851069837
 10
57.8499275106
 20
62.4616563714
 10
57.8842367245
 20
62.4402723843
 10
57.9197285793
 20
62.4209740989
 10
57.9563910458
 20
62.4037421567
 10
57.9938564175
 20
62.388738203
 10
58.0321373085
 20
62.3759838762
 10
58.0712211047
 20
62.3654573299
 10
58.1107022556
 20
62.3572549939
 10
58.150445578
 20
62.3514089736
 10
58.1905862552
 20
62.3478870534
 10
58.2311242872
 20
62.3466892057
  0
LWPOLYLINE
  5
240
100
AcDbEntity
  8
ASSI
100
AcDbPolyline
 62
250
  6
CONTINUOUS
 90
28
 70
0
 10
57.538830466
 20
63.053743604
 10
57.5396725292
 20
63.0120664523
 10
57.5428705015
 20
62.9708255816
 10
57.5484243831
 20
62.9300209354
 10
57.5563721085
 20
62.889514172
 10
57.5666757431
 20
62.8494435341
 10
57.5792214827
 20
62.8102237884
 10
57.5940367286
 20
62.7718609512
 10
57.6110940794
 20
62.734348792
 10
57.6301975269
 20
62.6980836055
 10
57.6513647603
 20
62.6630884142
 10
57.6745780902
 20
62.6293399023
 10
57.6995884407
 20
62.5971647786
 10
57.726411049
 20
62.5665802363
 10
57.7550306777
 20
62.5375687543
 10
57.7851525384
 20
62.5104049179
 10
57.8167889085
 20
62.4851069837
 10
57.8499275106
 20
62.4616563714
 10
57.8842367245
 20
62.4402723843
 10
57.9197285793
 20
62.4209740989
 10
57.9563910458
 20
62.4037421567
 10
57.9938564175
 20
62.388738203
 10
58.0321373085
 20
62.3759838762
 10
58.0712211047
 20
62.3654573299
 10
58.1107022556
 20
62.3572549939
 10
58.150445578
 20
62.3514089736
 10
58.1905862552
 20
62.3478870534
 10
58.2311242872
 20
62.3466892057
  0
LWPOLYLINE
  5
241
100
AcDbEntity
  8
RACCORDO
100
AcDbPolyline
 62
250
  6
CONTINUOUS
 90
9
 70
0
 10
57.2392416056
 20
150.8498007344
 10
57.2604462289
 20
148.5090069296
 10
57.2798990908
 20
146.1636368802
 10
57.2976001914
 20
143.8136905863
 10
57.3135524461
 20
141.4586845993
 10
57.3277529394
 20
139.0991023676
 10
57.3401929247
 20
136.7363942374
 10
57.3508694864
 20
134.3710436572
 10
57.35978554
 20
132.0025671784
  0
LWPOLYLINE
  5
242
100
AcDbEntity
  8
ASSI
100
AcDbPolyline
 62
250
  6
CONTINUOUS
 90
9
 70
0
 10
57.2392416056
 20
150.8498007344
 10
57.2604462289
 20
148.5090069296
 10
57.2798990908
 20
146.1636368802
 10
57.2976001914
 20
143.8136905863
 10
57.3135524461
 20
141.4586845993
 10
57.3277529394
 20
139.0991023676
 10
57.3401929247
 20
136.7363942374
 10
57.3508694864
 20
134.3710436572
 10
57.35978554
 20
132.0025671784
  0
LWPOLYLINE
  5
243
100
AcDbEntity
  8
RACCORDO
100
AcDbPolyline
 62
250
  6
CONTINUOUS
 90
9
 70
0
 10
57.538830466
 20
150.902999817
 10
57.5600354828
 20
148.5587422126
 10
57.5794885867
 20
146.2089702494
 10
57.5971897776
 20
143.8541583642
 10
57.6131418923
 20
141.4947861753
 10
57.627342094
 20
139.1313258884
 10
57.6397818729
 20
136.7642421323
 10
57.6504583921
 20
134.3940085733
 10
57.6593744884
 20
132.0211078868
  0
LWPOLYLINE
  5
244
100
AcDbEntity
  8
ASSI
100
AcDbPolyline
 62
250
  6
CONTINUOUS
 90
9
 70
0
 10
57.538830466
 20
150.902999817
 10
57.5600354828
 20
148.5587422126
 10
57.5794885867
 20
146.2089702494
 10
57.5971897776
 20
143.8541583642
 10
57.6131418923
 20
141.4947861753
 10
57.627342094
 20
139.1313258884
 10
57.6397818729
 20
136.7642421323
 10
57.6504583921
 20
134.3940085733
 10
57.6593744884
 20
132.0211078868
  0
LINE
  5
245
100
AcDbEntity
  8
RACCORDO
100
AcDbLine
 62
250
  6
CONTINUOUS
 10
57.35978554
 20
132.0025671784
 11
57.3760820423
 21
125.8578761552
  0
LINE
  5
246
100
AcDbEntity
  8
ASSI
100
AcDbLine
 62
250
  6
CONTINUOUS
 10
57.35978554
 20
132.0025671784
 11
57.3760820423
 21
125.8578761552
  0
LINE
  5
247
100
AcDbEntity
  8
RACCORDO
100
AcDbLine
 62
250
  6
CONTINUOUS
 10
57.6593744884
 20
132.0211078868
 11
57.6756709757
 21
125.8708756579
  0
LINE
  5
248
100
AcDbEntity
  8
ASSI
100
AcDbLine
 62
250
  6
CONTINUOUS
 10
57.6593744884
 20
132.0211078868
 11
57.6756709757
 21
125.8708756579
  0
LINE
  5
249
100
AcDbEntity
  8
RACCORDO
100
AcDbLine
 62
250
  6
CONTINUOUS
 10
57.3760820423
 20
125.8578761552
 11
57.3893787097
 21
118.3088867219
  0
LINE
  5
24A
100
AcDbEntity
  8
ASSI
100
AcDbLine
 62
250
  6
CONTINUOUS
 10
57.3760820423
 20
125.8578761552
 11
57.3893787097
 21
118.3088867219
  0
LINE
  5
24B
100
AcDbEntity
  8
RACCORDO
100
AcDbLine
 62
250
  6
CONTINUOUS
 10
57.6756709757
 20
125.8708756579
 11
57.6889675876
 21
118.3164321788
  0
LINE
  5
24C
100
AcDbEntity
  8
ASSI
100
AcDbLine
 62
250
  6
CONTINUOUS
 10
57.6756709757
 20
125.8708756579
 11
57.6889675876
 21
118.3164321788
  0
LINE
  5
24D
100
AcDbEntity
  8
RACCORDO
100
AcDbLine
 62
250
  6
CONTINUOUS
 10
57.3893787097
 20
118.3088867219
 11
57.3960289775
 21
110.7555228206
  0
LINE
  5
24E
100
AcDbEntity
  8
ASSI
100
AcDbLine
 62
250
  6
CONTINUOUS
 10
57.3893787097
 20
118.3088867219
 11
57.3960289775
 21
110.7555228206
  0
LINE
  5
24F
100
AcDbEntity
  8
RACCORDO
100
AcDbLine
 62
250
  6
CONTINUOUS
 10
57.6889675876
 20
118.3164321788
 11
57.6956178384
 21
110.7581276424
  0
LINE
  5
250
100
AcDbEntity
  8
ASSI
100
AcDbLine
 62
250
  6
CONTINUOUS
 10
57.6889675876
 20
118.3164321788
 11
57.6956178384
 21
110.7581276424
  0
LINE
  5
251
100
AcDbEntity
  8
RACCORDO
100
AcDbLine
 62
7
  6
CONTINUOUS
 10
57.1093001642
 20
62.9770012453
 11
57.1093001642
 21
150.9797421758
  0
LINE
  5
252
100
AcDbEntity
  8
ASSI
100
AcDbLine
 62
7
  6
CONTINUOUS
 10
57.1093001642
 20
62.9770012453
 11
57.1093001642
 21
150.9797421758
  0
LINE
  5
253
100
AcDbEntity
  8
RACCORDO
100
AcDbLine
 62
250
  6
CONTINUOUS
 10
58.2311242872
 20
62.3466892057
 11
58.2311242872
 21
62.1015662989
  0
LINE
  5
254
100
AcDbEntity
  8
ASSI
100
AcDbLine
 62
250
  6
CONTINUOUS
 10
58.2311242872
 20
62.3466892057
 11
58.2311242872
 21
62.1015662989
  0
LINE
  5
255
100
AcDbEntity
  8
RACCORDO
100
AcDbLine
 62
250
  6
CONTINUOUS
 10
58.2311242872
 20
151.6100542154
 11
58.231124287
 21
151.8551771222
  0
LINE
  5
256
100
AcDbEntity
  8
ASSI
100
AcDbLine
 62
250
  6
CONTINUOUS
 10
58.2311242872
 20
151.6100542154
 11
58.231124287
 21
151.8551771222
  0
LINE
  5
257
100
AcDbEntity
  8
RACCORDO
100
AcDbLine
 62
250
  6
CONTINUOUS
 10
57.3960289775
 20
110.7555228206
 11
57.3960289782
 21
103.2012217415
  0
LINE
  5
258
100
AcDbEntity
  8
ASSI
100
AcDbLine
 62
250
  6
CONTINUOUS
 10
57.3960289775
 20
110.7555228206
 11
57.3960289782
 21
103.2012217415
  0
LINE
  5
259
100
AcDbEntity
  8
RACCORDO
100
AcDbLine
 62
250
  6
CONTINUOUS
 10
57.6956178384
 20
110.7581276424
 11
57.695617838
 21
103.1986147446
  0
LINE
  5
25A
100
AcDbEntity
  8
ASSI
100
AcDbLine
 62
250
  6
CONTINUOUS
 10
57.6956178384
 20
110.7581276424
 11
57.695617838
 21
103.1986147446
  0
LINE
  5
25B
100
AcDbEntity
  8
RACCORDO
100
AcDbLine
 62
250
  6
CONTINUOUS
 10
57.3960289782
 20
103.2012217415
 11
57.3893787114
 21
95.6478580568
  0
LINE
  5
25C
100
AcDbEntity
  8
ASSI
100
AcDbLine
 62
250
  6
CONTINUOUS
 10
57.3960289782
 20
103.2012217415
 11
57.3893787114
 21
95.6478580568
  0
LINE
  5
25D
100
AcDbEntity
  8
RACCORDO
100
AcDbLine
 62
250
  6
CONTINUOUS
 10
57.695617838
 20
103.1986147446
 11
57.6889675866
 21
95.6403105143
  0
LINE
  5
25E
100
AcDbEntity
  8
ASSI
100
AcDbLine
 62
250
  6
CONTINUOUS
 10
57.695617838
 20
103.1986147446
 11
57.6889675866
 21
95.6403105143
  0
LINE
  5
25F
100
AcDbEntity
  8
RACCORDO
100
AcDbLine
 62
250
  6
CONTINUOUS
 10
57.3893787114
 20
95.6478580568
 11
57.3760820433
 21
88.0988679074
  0
LINE
  5
260
100
AcDbEntity
  8
ASSI
100
AcDbLine
 62
250
  6
CONTINUOUS
 10
57.3893787114
 20
95.6478580568
 11
57.3760820433
 21
88.0988679074
  0
LINE
  5
261
100
AcDbEntity
  8
RACCORDO
100
AcDbLine
 62
250
  6
CONTINUOUS
 10
57.6889675866
 20
95.6403105143
 11
57.6756709752
 21
88.0858674885
  0
LINE
  5
262
100
AcDbEntity
  8
ASSI
100
AcDbLine
 62
250
  6
CONTINUOUS
 10
57.6889675866
 20
95.6403105143
 11
57.6756709752
 21
88.0858674885
  0
LWPOLYLINE
  5
263
100
AcDbEntity
  8
RACCORDO
100
AcDbPolyline
 62
250
  6
CONTINUOUS
 90
10
 70
0
 10
57.6756709752
 20
88.0858674885
 10
57.6593744872
 20
81.9356354151
 10
57.6504583905
 20
79.5627346958
 10
57.6397818718
 20
77.192501206
 10
57.6273420953
 20
74.8254177118
 10
57.6131418969
 20
72.4619577876
 10
57.597189784
 20
70.1025857883
 10
57.5794885924
 20
67.7477738297
 10
57.5600354864
 20
65.3980016222
 10
57.538830466
 20
63.053743604
  0
LWPOLYLINE
  5
264
100
AcDbEntity
  8
ASSI
100
AcDbPolyline
 62
250
  6
CONTINUOUS
 90
10
 70
0
 10
57.6756709752
 20
88.0858674885
 10
57.6593744872
 20
81.9356354151
 10
57.6504583905
 20
79.5627346958
 10
57.6397818718
 20
77.192501206
 10
57.6273420953
 20
74.8254177118
 10
57.6131418969
 20
72.4619577876
 10
57.597189784
 20
70.1025857883
 10
57.5794885924
 20
67.7477738297
 10
57.5600354864
 20
65.3980016222
 10
57.538830466
 20
63.053743604
  0
LWPOLYLINE
  5
265
100
AcDbEntity
  8
RACCORDO
100
AcDbPolyline
 62
250
  6
CONTINUOUS
 90
10
 70
0
 10
57.3760820433
 20
88.0988679074
 10
57.3597855275
 20
81.954172844
 10
57.3508694578
 20
79.5856931307
 10
57.3401928766
 20
77.2203394803
 10
57.3277528596
 20
74.8576275301
 10
57.3135523312
 20
72.4980416428
 10
57.2976000643
 20
70.1430349059
 10
57.2798989832
 20
67.7930916823
 10
57.2604461636
 20
65.4477276092
 10
57.2392416056
 20
63.1069426867
  0
LWPOLYLINE
  5
266
100
AcDbEntity
  8
ASSI
100
AcDbPolyline
 62
250
  6
CONTINUOUS
 90
10
 70
0
 10
57.3760820433
 20
88.0988679074
 10
57.3597855275
 20
81.954172844
 10
57.3508694578
 20
79.5856931307
 10
57.3401928766
 20
77.2203394803
 10
57.3277528596
 20
74.8576275301
 10
57.3135523312
 20
72.4980416428
 10
57.2976000643
 20
70.1430349059
 10
57.2798989832
 20
67.7930916823
 10
57.2604461636
 20
65.4477276092
 10
57.2392416056
 20
63.1069426867
  0
LINE
  5
267
100
AcDbEntity
  8
RACCORDO
100
AcDbLine
 62
250
  6
CONTINUOUS
 10
78.7655226448
 20
84.9082902736
 11
78.7497740776
 21
92.2617033832
  0
LINE
  5
268
100
AcDbEntity
  8
ASSI
100
AcDbLine
 62
250
  6
CONTINUOUS
 10
78.7655226448
 20
84.9082902736
 11
78.7497740776
 21
92.2617033832
  0
LINE
  5
269
100
AcDbEntity
  8
RACCORDO
100
AcDbLine
 62
250
  6
CONTINUOUS
 10
78.7497740776
 20
92.2617033832
 11
78.7403242104
 21
99.6190531736
  0
LINE
  5
26A
100
AcDbEntity
  8
ASSI
100
AcDbLine
 62
250
  6
CONTINUOUS
 10
78.7497740776
 20
92.2617033832
 11
78.7403242104
 21
99.6190531736
  0
LINE
  5
26B
100
AcDbEntity
  8
RACCORDO
100
AcDbLine
 62
250
  6
CONTINUOUS
 10
78.7403242104
 20
99.6190531736
 11
78.7371735172
 21
106.9783716713
  0
LINE
  5
26C
100
AcDbEntity
  8
ASSI
100
AcDbLine
 62
250
  6
CONTINUOUS
 10
78.7403242104
 20
99.6190531736
 11
78.7371735172
 21
106.9783716713
  0
LINE
  5
26D
100
AcDbEntity
  8
0
100
AcDbLine
 62
250
  6
CONTINUOUS
 10
72.8110171642
 20
131.0776417105
 11
72.8110171642
 21
129.3791017134
  0
LINE
  5
26E
100
AcDbEntity
  8
0
100
AcDbLine
 62
250
  6
CONTINUOUS
 10
72.9109311642
 20
130.9777277105
 11
72.9109311642
 21
129.4790157124
  0
LINE
  5
26F
100
AcDbEntity
  8
0
100
AcDbLine
 62
250
  6
CONTINUOUS
 10
73.0108461642
 20
130.8778137105
 11
73.0108461642
 21
129.5789297113
  0
LINE
  5
270
100
AcDbEntity
  8
0
100
AcDbLine
 62
250
  6
CONTINUOUS
 10
73.4105021642
 20
118.7382457105
 11
73.4105021642
 21
117.3394477157
  0
LINE
  5
271
100
AcDbEntity
  8
0
100
AcDbLine
 62
250
  6
CONTINUOUS
 10
73.4105021642
 20
116.1154997105
 11
73.4105021642
 21
115.7658007097
  0
LINE
  5
272
100
AcDbEntity
  8
0
100
AcDbLine
 62
250
  6
CONTINUOUS
 10
73.4105021642
 20
114.1338697105
 11
73.4105021642
 21
113.7841697159
  0
LINE
  5
273
100
AcDbEntity
  8
0
100
AcDbLine
 62
250
  6
CONTINUOUS
 10
73.4105021642
 20
112.3853727105
 11
73.4105021642
 21
111.8608227336
  0
LINE
  5
274
100
AcDbEntity
  8
0
100
AcDbLine
 62
250
  6
CONTINUOUS
 10
73.4105021642
 20
109.6460597105
 11
73.4105021642
 21
109.2963597216
  0
LINE
  5
275
100
AcDbEntity
  8
0
100
AcDbLine
 62
250
  6
CONTINUOUS
 10
73.4105021642
 20
107.8975627105
 11
73.4105021642
 21
105.7993656254
  0
LINE
  5
276
100
AcDbEntity
  8
0
100
AcDbLine
 62
250
  6
CONTINUOUS
 10
73.4105021642
 20
102.6520697105
 11
73.4105021642
 21
102.3023707187
  0
LINE
  5
277
100
AcDbEntity
  8
0
100
AcDbLine
 62
250
  6
CONTINUOUS
 10
73.4105021642
 20
101.8361047105
 11
73.4105021642
 21
101.4864057223
  0
LINE
  5
278
100
AcDbEntity
  8
0
100
AcDbLine
 62
250
  6
CONTINUOUS
 10
73.4105021642
 20
99.8544747105
 11
73.4105021642
 21
99.5047747104
  0
LINE
  5
279
100
AcDbEntity
  8
0
100
AcDbLine
 62
250
  6
CONTINUOUS
 10
73.4105021642
 20
99.0385097105
 11
73.4105021642
 21
96.9403128107
  0
LINE
  5
27A
100
AcDbEntity
  8
0
100
AcDbLine
 62
250
  6
CONTINUOUS
 10
73.4105021642
 20
103.1183357105
 11
73.4105021642
 21
103.5263187018
  0
LINE
  5
27B
100
AcDbEntity
  8
0
100
AcDbLine
 62
250
  6
CONTINUOUS
 10
73.4105021642
 20
104.9834007105
 11
73.4105021642
 21
105.3330997211
  0
LINE
  5
27C
100
AcDbEntity
  8
0
100
AcDbLine
 62
250
  6
CONTINUOUS
 10
73.7676421642
 20
118.3573007105
 11
73.7676421642
 21
117.2499197257
  0
LINE
  5
27D
100
AcDbEntity
  8
0
100
AcDbLine
 62
250
  6
CONTINUOUS
 10
73.7676421642
 20
96.9090667105
 11
73.7676421642
 21
98.6575637193
  0
LINE
  5
27E
100
AcDbEntity
  8
0
100
AcDbLine
 62
250
  6
CONTINUOUS
 10
73.7676421642
 20
105.7681197105
 11
73.7676421642
 21
107.5166167572
  0
LINE
  5
27F
100
AcDbEntity
  8
0
100
AcDbLine
 62
250
  6
CONTINUOUS
 10
73.7676421642
 20
111.8295777105
 11
73.7676421642
 21
112.3541266883
  0
LINE
  5
280
100
AcDbEntity
  8
0
100
AcDbLine
 62
250
  6
CONTINUOUS
 10
73.9600301642
 20
132.2266547105
 11
73.9600301642
 21
131.0776416889
  0
LINE
  5
281
100
AcDbEntity
  8
0
100
AcDbLine
 62
250
  6
CONTINUOUS
 10
73.9600301642
 20
129.3791017105
 11
73.9600301642
 21
128.2300886688
  0
LINE
  5
282
100
AcDbEntity
  8
0
100
AcDbLine
 62
250
  6
CONTINUOUS
 10
74.0599441642
 20
132.1267407105
 11
74.0599441642
 21
130.977727696
  0
LINE
  5
283
100
AcDbEntity
  8
0
100
AcDbLine
 62
250
  6
CONTINUOUS
 10
74.0599441642
 20
129.4790157105
 11
74.0599441642
 21
128.3300027517
  0
LINE
  5
284
100
AcDbEntity
  8
0
100
AcDbLine
 62
250
  6
CONTINUOUS
 10
74.1247821642
 20
115.4701757105
 11
74.1247821642
 21
114.3045107062
  0
LINE
  5
285
100
AcDbEntity
  8
0
100
AcDbLine
 62
250
  6
CONTINUOUS
 10
74.1247821642
 20
101.1907807105
 11
74.1247821642
 21
100.0251166758
  0
LINE
  5
286
100
AcDbEntity
  8
0
100
AcDbLine
 62
250
  6
CONTINUOUS
 10
74.1247821642
 20
110.9823657105
 11
74.1247821642
 21
111.3320657038
  0
LINE
  5
287
100
AcDbEntity
  8
0
100
AcDbLine
 62
250
  6
CONTINUOUS
 10
74.1598581642
 20
132.0268257105
 11
74.1598581642
 21
130.8778137409
  0
LINE
  5
288
100
AcDbEntity
  8
0
100
AcDbLine
 62
250
  6
CONTINUOUS
 10
74.1598581642
 20
129.5789297105
 11
74.1598581642
 21
128.4299177291
  0
LINE
  5
289
100
AcDbEntity
  8
0
100
AcDbLine
 62
250
  6
CONTINUOUS
 10
74.2098151642
 20
125.8987587105
 11
74.2098151642
 21
126.9645097024
  0
LINE
  5
28A
100
AcDbEntity
  8
0
100
AcDbLine
 62
250
  6
CONTINUOUS
 10
74.3628751642
 20
115.3910627105
 11
74.3628751642
 21
114.3419636963
  0
LINE
  5
28B
100
AcDbEntity
  8
0
100
AcDbLine
 62
250
  6
CONTINUOUS
 10
74.3628751642
 20
101.1116667105
 11
74.3628751642
 21
100.0625686751
  0
LINE
  5
28C
100
AcDbEntity
  8
0
100
AcDbLine
 62
250
  6
CONTINUOUS
 10
74.6604921642
 20
103.8832247105
 11
74.6604921642
 21
104.8740407119
  0
LINE
  5
28D
100
AcDbEntity
  8
0
100
AcDbLine
 62
250
  6
CONTINUOUS
 10
74.6604921642
 20
117.1718047105
 11
74.6604921642
 21
118.2791867443
  0
LINE
  5
28E
100
AcDbEntity
  8
0
100
AcDbLine
 62
250
  6
CONTINUOUS
 10
74.7200151642
 20
107.4332957105
 11
74.7200151642
 21
105.9179317617
  0
LINE
  5
28F
100
AcDbEntity
  8
0
100
AcDbLine
 62
250
  6
CONTINUOUS
 10
75.0176321642
 20
103.7354127105
 11
75.0176321642
 21
104.8427947202
  0
LINE
  5
290
100
AcDbEntity
  8
0
100
AcDbLine
 62
250
  6
CONTINUOUS
 10
75.0176321642
 20
117.1405597105
 11
75.0176321642
 21
118.2479407509
  0
LINE
  5
291
100
AcDbEntity
  8
0
100
AcDbLine
 62
250
  6
CONTINUOUS
 10
75.0771551642
 20
105.8866857105
 11
75.0771551642
 21
107.4020496897
  0
LINE
  5
292
100
AcDbEntity
  8
0
100
AcDbLine
 62
250
  6
CONTINUOUS
 10
75.4587421642
 20
128.4299177105
 11
75.4587421642
 21
129.578929692
  0
LINE
  5
293
100
AcDbEntity
  8
0
100
AcDbLine
 62
250
  6
CONTINUOUS
 10
75.4587421642
 20
130.8778137105
 11
75.4587421642
 21
132.0268256802
  0
LINE
  5
294
100
AcDbEntity
  8
0
100
AcDbLine
 62
250
  6
CONTINUOUS
 10
75.4938181642
 20
111.2122907105
 11
75.4938181642
 21
110.8625907033
  0
LINE
  5
295
100
AcDbEntity
  8
0
100
AcDbLine
 62
250
  6
CONTINUOUS
 10
75.5586561642
 20
128.3300027105
 11
75.5586561642
 21
129.4790156693
  0
LINE
  5
296
100
AcDbEntity
  8
0
100
AcDbLine
 62
250
  6
CONTINUOUS
 10
75.5586561642
 20
130.9777277105
 11
75.5586561642
 21
132.1267407251
  0
LINE
  5
297
100
AcDbEntity
  8
0
100
AcDbLine
 62
250
  6
CONTINUOUS
 10
75.6585701642
 20
128.2300887105
 11
75.6585701642
 21
129.3791017522
  0
LINE
  5
298
100
AcDbEntity
  8
0
100
AcDbLine
 62
250
  6
CONTINUOUS
 10
75.6585701642
 20
131.0776417105
 11
75.6585701642
 21
132.2266547322
  0
LINE
  5
299
100
AcDbEntity
  8
0
100
AcDbLine
 62
250
  6
CONTINUOUS
 10
75.8509581642
 20
118.1750347105
 11
75.8509581642
 21
117.0676527617
  0
LINE
  5
29A
100
AcDbEntity
  8
0
100
AcDbLine
 62
250
  6
CONTINUOUS
 10
75.8509581642
 20
112.1718597105
 11
75.8509581642
 21
111.6473107184
  0
LINE
  5
29B
100
AcDbEntity
  8
0
100
AcDbLine
 62
250
  6
CONTINUOUS
 10
75.8509581642
 20
107.3343507105
 11
75.8509581642
 21
105.5858526597
  0
LINE
  5
29C
100
AcDbEntity
  8
0
100
AcDbLine
 62
250
  6
CONTINUOUS
 10
75.9104811642
 20
110.3598717105
 11
75.9104811642
 21
109.4273397589
  0
LINE
  5
29D
100
AcDbEntity
  8
0
100
AcDbLine
 62
250
  6
CONTINUOUS
 10
75.9104811642
 20
109.0776407105
 11
75.9104811642
 21
108.1451087411
  0
LINE
  5
29E
100
AcDbEntity
  8
0
100
AcDbLine
 62
250
  6
CONTINUOUS
 10
75.9104811642
 20
104.7646807105
 11
75.9104811642
 21
103.6572987139
  0
LINE
  5
29F
100
AcDbEntity
  8
0
100
AcDbLine
 62
250
  6
CONTINUOUS
 10
76.2080981642
 20
105.0883417105
 11
76.2080981642
 21
103.6895436639
  0
LINE
  5
2A0
100
AcDbEntity
  8
0
100
AcDbLine
 62
250
  6
CONTINUOUS
 10
76.2080981642
 20
98.4440517105
 11
76.2080981642
 21
98.793751717
  0
LINE
  5
2A1
100
AcDbEntity
  8
0
100
AcDbLine
 62
250
  6
CONTINUOUS
 10
76.2080981642
 20
100.1925497105
 11
76.2080981642
 21
100.6588147017
  0
LINE
  5
2A2
100
AcDbEntity
  8
0
100
AcDbLine
 62
250
  6
CONTINUOUS
 10
76.2080981642
 20
102.0576127105
 11
76.2080981642
 21
102.4073117123
  0
LINE
  5
2A3
100
AcDbEntity
  8
0
100
AcDbLine
 62
250
  6
CONTINUOUS
 10
76.2080981642
 20
105.5546077105
 11
76.2080981642
 21
107.6528047845
  0
LINE
  5
2A4
100
AcDbEntity
  8
0
100
AcDbLine
 62
250
  6
CONTINUOUS
 10
76.2080981642
 20
108.1190707105
 11
76.2080981642
 21
110.3338336503
  0
LINE
  5
2A5
100
AcDbEntity
  8
0
100
AcDbLine
 62
250
  6
CONTINUOUS
 10
76.2080981642
 20
111.6160657105
 11
76.2080981642
 21
112.1406147338
  0
LINE
  5
2A6
100
AcDbEntity
  8
0
100
AcDbLine
 62
250
  6
CONTINUOUS
 10
76.2080981642
 20
114.4719437105
 11
76.2080981642
 21
114.9382097202
  0
LINE
  5
2A7
100
AcDbEntity
  8
0
100
AcDbLine
 62
250
  6
CONTINUOUS
 10
76.2080981642
 20
117.0946897105
 11
76.2080981642
 21
118.4934876699
  0
LINE
  5
2A8
100
AcDbEntity
  8
0
100
AcDbLine
 62
250
  6
CONTINUOUS
 10
76.2080981642
 20
121.0362717105
 11
76.2080981642
 21
122.6348966928
  0
LINE
  5
2A9
100
AcDbEntity
  8
0
100
AcDbLine
 62
250
  6
CONTINUOUS
 10
76.6077541642
 20
129.5789297105
 11
76.6077541642
 21
130.8778136958
  0
LINE
  5
2AA
100
AcDbEntity
  8
0
100
AcDbLine
 62
250
  6
CONTINUOUS
 10
76.7076691642
 20
129.4790157105
 11
76.7076691642
 21
130.9777277825
  0
LINE
  5
2AB
100
AcDbEntity
  8
0
100
AcDbLine
 62
250
  6
CONTINUOUS
 10
76.8075831642
 20
129.3791017105
 11
76.8075831642
 21
131.0776416489
  0
LINE
  5
2AC
100
AcDbEntity
  8
RACCORDO
100
AcDbLine
 62
250
  6
CONTINUOUS
 10
78.7371735172
 20
106.9783716713
 11
78.7403242102
 21
114.3376901764
  0
LINE
  5
2AD
100
AcDbEntity
  8
ASSI
100
AcDbLine
 62
250
  6
CONTINUOUS
 10
78.7371735172
 20
106.9783716713
 11
78.7403242102
 21
114.3376901764
  0
LINE
  5
2AE
100
AcDbEntity
  8
RACCORDO
100
AcDbLine
 62
250
  6
CONTINUOUS
 10
78.7403242102
 20
114.3376901764
 11
78.7497740774
 21
121.6950399928
  0
LINE
  5
2AF
100
AcDbEntity
  8
ASSI
100
AcDbLine
 62
250
  6
CONTINUOUS
 10
78.7403242102
 20
114.3376901764
 11
78.7497740774
 21
121.6950399928
  0
LINE
  5
2B0
100
AcDbEntity
  8
RACCORDO
100
AcDbLine
 62
250
  6
CONTINUOUS
 10
78.7497740774
 20
121.6950399928
 11
78.7655226448
 21
129.0484531474
  0
LINE
  5
2B1
100
AcDbEntity
  8
ASSI
100
AcDbLine
 62
250
  6
CONTINUOUS
 10
78.7497740774
 20
121.6950399928
 11
78.7655226448
 21
129.0484531474
  0
LWPOLYLINE
  5
2B2
100
AcDbEntity
  8
RACCORDO
100
AcDbPolyline
 62
250
  6
CONTINUOUS
 90
10
 70
0
 10
79.2648374483
 20
129.0239434935
 10
79.2660735057
 20
129.0663378496
 10
79.2695694695
 20
129.1086229313
 10
79.2753187962
 20
129.1506792227
 10
79.2833126454
 20
129.192405321
 10
79.2935296066
 20
129.2336644454
 10
79.3059262572
 20
129.2742870864
 10
79.3204556205
 20
129.3141429336
 10
79.3370767862
 20
129.3531388723
 10
79.3557381514
 20
129.3911670707
  0
LWPOLYLINE
  5
2B3
100
AcDbEntity
  8
ASSI
100
AcDbPolyline
 62
250
  6
CONTINUOUS
 90
10
 70
0
 10
79.2648374483
 20
129.0239434935
 10
79.2660735057
 20
129.0663378496
 10
79.2695694695
 20
129.1086229313
 10
79.2753187962
 20
129.1506792227
 10
79.2833126454
 20
129.192405321
 10
79.2935296066
 20
129.2336644454
 10
79.3059262572
 20
129.2742870864
 10
79.3204556205
 20
129.3141429336
 10
79.3370767862
 20
129.3531388723
 10
79.3557381514
 20
129.3911670707
  0
LWPOLYLINE
  5
2B4
100
AcDbEntity
  8
RACCORDO
100
AcDbPolyline
 62
250
  6
CONTINUOUS
 90
10
 70
0
 10
78.7655226448
 20
129.0484531474
 10
78.7675602753
 20
129.1177036
 10
78.7732325344
 20
129.186421183
 10
78.7825394223
 20
129.254605907
 10
78.7955428705
 20
129.3224966129
 10
78.8121809473
 20
129.3898544769
 10
78.8322678581
 20
129.4559630287
 10
78.8557416711
 20
129.5205834692
 10
78.882664318
 20
129.5839546526
 10
78.9130357988
 20
129.6460766042
  0
LWPOLYLINE
  5
2B5
100
AcDbEntity
  8
ASSI
100
AcDbPolyline
 62
250
  6
CONTINUOUS
 90
10
 70
0
 10
78.7655226448
 20
129.0484531474
 10
78.7675602753
 20
129.1177036
 10
78.7732325344
 20
129.186421183
 10
78.7825394223
 20
129.254605907
 10
78.7955428705
 20
129.3224966129
 10
78.8121809473
 20
129.3898544769
 10
78.8322678581
 20
129.4559630287
 10
78.8557416711
 20
129.5205834692
 10
78.882664318
 20
129.5839546526
 10
78.9130357988
 20
129.6460766042
  0
LINE
  5
2B6
100
AcDbEntity
  8
0
100
AcDbLine
 62
250
  6
CONTINUOUS
 10
73.4700251642
 20
112.6715807105
 11
73.4105021642
 21
112.3853727105
  0
LINE
  5
2B7
100
AcDbEntity
  8
0
100
AcDbLine
 62
250
  6
CONTINUOUS
 10
76.1485751642
 20
116.8084817105
 11
76.2080981642
 21
117.0946897105
  0
LINE
  5
2B8
100
AcDbEntity
  8
0
100
AcDbLine
 62
250
  6
CONTINUOUS
 10
76.1485751642
 20
111.3298567105
 11
76.2080981642
 21
111.6160657105
  0
LINE
  5
2B9
100
AcDbEntity
  8
0
100
AcDbLine
 62
250
  6
CONTINUOUS
 10
73.7676421642
 20
112.3541267105
 11
73.8271651642
 21
112.5820517105
  0
LINE
  5
2BA
100
AcDbEntity
  8
0
100
AcDbLine
 62
250
  6
CONTINUOUS
 10
75.8509581642
 20
111.6473107105
 11
75.7914351642
 21
111.4193847105
  0
LINE
  5
2BB
100
AcDbEntity
  8
0
100
AcDbLine
 62
250
  6
CONTINUOUS
 10
74.6009681642
 20
117.0021627105
 11
74.6604921642
 21
117.1718047105
  0
LINE
  5
2BC
100
AcDbEntity
  8
0
100
AcDbLine
 62
250
  6
CONTINUOUS
 10
75.8509581642
 20
117.0676527105
 11
75.7914351642
 21
116.8980107105
  0
LWPOLYLINE
  5
2BD
100
AcDbEntity
  8
RACCORDO
100
AcDbPolyline
 62
250
  6
CONTINUOUS
 90
10
 70
0
 10
78.9130357988
 20
84.3106668168
 10
78.8827222492
 20
84.3726293042
 10
78.8558371547
 20
84.4358876632
 10
78.8323805152
 20
84.5004419198
 10
78.8122825379
 20
84.5665399638
 10
78.7956130156
 20
84.6339339628
 10
78.7825813272
 20
84.7018803442
 10
78.7732572658
 20
84.7701312501
 10
78.7675710383
 20
84.8389345563
 10
78.7655226448
 20
84.9082902736
  0
LWPOLYLINE
  5
2BE
100
AcDbEntity
  8
ASSI
100
AcDbPolyline
 62
250
  6
CONTINUOUS
 90
10
 70
0
 10
78.9130357988
 20
84.3106668168
 10
78.8827222492
 20
84.3726293042
 10
78.8558371547
 20
84.4358876632
 10
78.8323805152
 20
84.5004419198
 10
78.8122825379
 20
84.5665399638
 10
78.7956130156
 20
84.6339339628
 10
78.7825813272
 20
84.7018803442
 10
78.7732572658
 20
84.7701312501
 10
78.7675710383
 20
84.8389345563
 10
78.7655226448
 20
84.9082902736
  0
LINE
  5
2BF
100
AcDbEntity
  8
0
100
AcDbLine
 62
250
  6
CONTINUOUS
 10
73.8271651642
 20
111.5912367105
 11
73.7676421642
 21
111.8295777105
  0
LINE
  5
2C0
100
AcDbEntity
  8
0
100
AcDbLine
 62
250
  6
CONTINUOUS
 10
73.4105021642
 20
111.8608227105
 11
73.4700251642
 21
111.5641987105
  0
LINE
  5
2C1
100
AcDbEntity
  8
0
100
AcDbLine
 62
250
  6
CONTINUOUS
 10
73.4105021642
 20
117.3394477105
 11
73.4700251642
 21
117.0428247105
  0
LINE
  5
2C2
100
AcDbEntity
  8
RACCORDO
100
AcDbLine
 62
250
  6
CONTINUOUS
 10
79.2648374781
 20
84.9327784122
 11
79.2490888744
 21
92.2783632666
  0
LINE
  5
2C3
100
AcDbEntity
  8
ASSI
100
AcDbLine
 62
250
  6
CONTINUOUS
 10
79.2648374781
 20
84.9327784122
 11
79.2490888744
 21
92.2783632666
  0
LINE
  5
2C4
100
AcDbEntity
  8
RACCORDO
100
AcDbLine
 62
250
  6
CONTINUOUS
 10
79.2490888744
 20
92.2783632666
 11
79.2396389847
 21
99.627141612
  0
LINE
  5
2C5
100
AcDbEntity
  8
ASSI
100
AcDbLine
 62
250
  6
CONTINUOUS
 10
79.2490888744
 20
92.2783632666
 11
79.2396389847
 21
99.627141612
  0
LINE
  5
2C6
100
AcDbEntity
  8
RACCORDO
100
AcDbLine
 62
250
  6
CONTINUOUS
 10
79.2396389847
 20
99.627141612
 11
79.2364882846
 21
106.9783764813
  0
LINE
  5
2C7
100
AcDbEntity
  8
ASSI
100
AcDbLine
 62
250
  6
CONTINUOUS
 10
79.2396389847
 20
99.627141612
 11
79.2364882846
 21
106.9783764813
  0
LINE
  5
2C8
100
AcDbEntity
  8
0
100
AcDbLine
 62
7
  6
CONTINUOUS
 10
79.4093001642
 20
85.0772753383
 11
79.4093001642
 21
128.8794680827
  0
LINE
  5
2C9
100
AcDbEntity
  8
ASSI
100
AcDbLine
 62
7
  6
CONTINUOUS
 10
79.4093001642
 20
85.0772753383
 11
79.4093001642
 21
128.8794680827
  0
LINE
  5
2CA
100
AcDbEntity
  8
RACCORDO
100
AcDbLine
 62
250
  6
CONTINUOUS
 10
80.0672192809
 20
130.3459473269
 11
80.0672192809
 21
129.8193562215
  0
LINE
  5
2CB
100
AcDbEntity
  8
ASSI
100
AcDbLine
 62
250
  6
CONTINUOUS
 10
80.0672192809
 20
130.3459473269
 11
80.0672192809
 21
129.8193562215
  0
LINE
  5
2CC
100
AcDbEntity
  8
RACCORDO
100
AcDbLine
 62
250
  6
CONTINUOUS
 10
80.0672192809
 20
83.6107960941
 11
80.0672192809
 21
84.1373871995
  0
LINE
  5
2CD
100
AcDbEntity
  8
ASSI
100
AcDbLine
 62
250
  6
CONTINUOUS
 10
80.0672192809
 20
83.6107960941
 11
80.0672192809
 21
84.1373871995
  0
LINE
  5
2CE
100
AcDbEntity
  8
RACCORDO
100
AcDbLine
 62
250
  6
CONTINUOUS
 10
79.2364882846
 20
106.9783764813
 11
79.2396389976
 21
114.3296135949
  0
LINE
  5
2CF
100
AcDbEntity
  8
ASSI
100
AcDbLine
 62
250
  6
CONTINUOUS
 10
79.2364882846
 20
106.9783764813
 11
79.2396389976
 21
114.3296135949
  0
LINE
  5
2D0
100
AcDbEntity
  8
RACCORDO
100
AcDbLine
 62
250
  6
CONTINUOUS
 10
79.2396389976
 20
114.3296135949
 11
79.2490888758
 21
121.6783827306
  0
LINE
  5
2D1
100
AcDbEntity
  8
ASSI
100
AcDbLine
 62
250
  6
CONTINUOUS
 10
79.2396389976
 20
114.3296135949
 11
79.2490888758
 21
121.6783827306
  0
LINE
  5
2D2
100
AcDbEntity
  8
RACCORDO
100
AcDbLine
 62
250
  6
CONTINUOUS
 10
79.2490888758
 20
121.6783827306
 11
79.2648374366
 21
129.023943505
  0
LINE
  5
2D3
100
AcDbEntity
  8
ASSI
100
AcDbLine
 62
250
  6
CONTINUOUS
 10
79.2490888758
 20
121.6783827306
 11
79.2648374366
 21
129.023943505
  0
LINE
  5
2D4
100
AcDbEntity
  8
0
100
AcDbLine
 62
250
  6
CONTINUOUS
 10
76.2080981642
 20
103.6895437105
 11
76.1485751642
 21
103.4033347105
  0
LINE
  5
2D5
100
AcDbEntity
  8
0
100
AcDbLine
 62
250
  6
CONTINUOUS
 10
75.9104811642
 20
103.6572987105
 11
75.8509581642
 21
103.4876567105
  0
LINE
  5
2D6
100
AcDbEntity
  8
0
100
AcDbLine
 62
250
  6
CONTINUOUS
 10
74.7795381642
 20
116.6951237105
 11
74.8390621642
 21
116.8064827105
  0
LINE
  5
2D7
100
AcDbEntity
  8
0
100
AcDbLine
 62
250
  6
CONTINUOUS
 10
73.5890721642
 20
112.8942987105
 11
73.4700251642
 21
112.6715807105
  0
LINE
  5
2D8
100
AcDbEntity
  8
0
100
AcDbLine
 62
250
  6
CONTINUOUS
 10
76.0295281642
 20
111.1071387105
 11
76.1485751642
 21
111.3298567105
  0
LWPOLYLINE
  5
2D9
100
AcDbEntity
  8
RACCORDO
100
AcDbPolyline
 62
250
  6
CONTINUOUS
 90
22
 70
0
 10
78.9130357988
 20
129.6460766042
 10
78.9455078967
 20
129.7047082386
 10
78.9809149773
 20
129.7614654201
 10
79.0192570405
 20
129.8163482393
 10
79.0606589832
 20
129.8695420344
 10
79.1049959086
 20
129.9208616367
 10
79.1518931264
 20
129.9697514005
 10
79.201377565
 20
130.01617027
 10
79.253422296
 20
130.0601595121
 10
79.3075718439
 20
130.1012870033
 10
79.3638539191
 20
130.1395180053
 10
79.4222408112
 20
130.1748874693
 10
79.4821939146
 20
130.2070678261
 10
79.5437465899
 20
130.2360210793
 10
79.6068654764
 20
130.2617854121
 10
79.6709118862
 20
130.2841475269
 10
79.735901504
 20
130.3030549992
 10
79.801818645
 20
130.3185603903
 10
79.8679775674
 20
130.3306078717
 10
79.9341496905
 20
130.3391788575
 10
80.0005635951
 20
130.3442920035
 10
80.0672192809
 20
130.3459473269
  0
LWPOLYLINE
  5
2DA
100
AcDbEntity
  8
ASSI
100
AcDbPolyline
 62
250
  6
CONTINUOUS
 90
22
 70
0
 10
78.9130357988
 20
129.6460766042
 10
78.9455078967
 20
129.7047082386
 10
78.9809149773
 20
129.7614654201
 10
79.0192570405
 20
129.8163482393
 10
79.0606589832
 20
129.8695420344
 10
79.1049959086
 20
129.9208616367
 10
79.1518931264
 20
129.9697514005
 10
79.201377565
 20
130.01617027
 10
79.253422296
 20
130.0601595121
 10
79.3075718439
 20
130.1012870033
 10
79.3638539191
 20
130.1395180053
 10
79.4222408112
 20
130.1748874693
 10
79.4821939146
 20
130.2070678261
 10
79.5437465899
 20
130.2360210793
 10
79.6068654764
 20
130.2617854121
 10
79.6709118862
 20
130.2841475269
 10
79.735901504
 20
130.3030549992
 10
79.801818645
 20
130.3185603903
 10
79.8679775674
 20
130.3306078717
 10
79.9341496905
 20
130.3391788575
 10
80.0005635951
 20
130.3442920035
 10
80.0672192809
 20
130.3459473269
  0
LWPOLYLINE
  5
2DB
100
AcDbEntity
  8
RACCORDO
100
AcDbPolyline
 62
250
  6
CONTINUOUS
 90
22
 70
0
 10
79.3557381514
 20
129.3911670707
 10
79.3757277245
 20
129.4270189128
 10
79.3976074937
 20
129.4618962954
 10
79.4213351493
 20
129.4956968058
 10
79.446873383
 20
129.5283316844
 10
79.4741590365
 20
129.5596885823
 10
79.5030967672
 20
129.589637388
 10
79.5336155709
 20
129.6180882106
 10
79.565640941
 20
129.6449563552
 10
79.5990545938
 20
129.6701348926
 10
79.6337681474
 20
129.693551601
 10
79.669689073
 20
129.7151388557
 10
79.706678896
 20
129.7348150239
 10
79.7446439163
 20
129.7525324638
 10
79.7834712434
 20
129.7682407225
 10
79.8229820071
 20
129.7818789232
 10
79.8630683708
 20
129.7934245254
 10
79.9036143524
 20
129.8028585356
 10
79.9444209771
 20
129.8101580674
 10
79.98534561
 20
129.8153283367
 10
80.0263056603
 20
129.8183880254
 10
80.0671921372
 20
129.8193562673
  0
LWPOLYLINE
  5
2DC
100
AcDbEntity
  8
ASSI
100
AcDbPolyline
 62
250
  6
CONTINUOUS
 90
22
 70
0
 10
79.3557381514
 20
129.3911670707
 10
79.3757277245
 20
129.4270189128
 10
79.3976074937
 20
129.4618962954
 10
79.4213351493
 20
129.4956968058
 10
79.446873383
 20
129.5283316844
 10
79.4741590365
 20
129.5596885823
 10
79.5030967672
 20
129.589637388
 10
79.5336155709
 20
129.6180882106
 10
79.565640941
 20
129.6449563552
 10
79.5990545938
 20
129.6701348926
 10
79.6337681474
 20
129.693551601
 10
79.669689073
 20
129.7151388557
 10
79.706678896
 20
129.7348150239
 10
79.7446439163
 20
129.7525324638
 10
79.7834712434
 20
129.7682407225
 10
79.8229820071
 20
129.7818789232
 10
79.8630683708
 20
129.7934245254
 10
79.9036143524
 20
129.8028585356
 10
79.9444209771
 20
129.8101580674
 10
79.98534561
 20
129.8153283367
 10
80.0263056603
 20
129.8183880254
 10
80.0671921372
 20
129.8193562673
  0
LWPOLYLINE
  5
2DD
100
AcDbEntity
  8
RACCORDO
100
AcDbPolyline
 62
250
  6
CONTINUOUS
 90
10
 70
0
 10
79.3557381514
 20
84.5655763503
 10
79.3371066445
 20
84.6035392899
 10
79.3204994188
 20
84.6424895784
 10
79.3059714744
 20
84.6823212517
 10
79.2935648287
 20
84.7229515769
 10
79.2833335997
 20
84.7642427057
 10
79.2753295768
 20
84.8059984916
 10
79.269574715
 20
84.8480726383
 10
79.2660753539
 20
84.8903725175
 10
79.26483751
 20
84.9327784434
  0
LWPOLYLINE
  5
2DE
100
AcDbEntity
  8
ASSI
100
AcDbPolyline
 62
250
  6
CONTINUOUS
 90
10
 70
0
 10
79.3557381514
 20
84.5655763503
 10
79.3371066445
 20
84.6035392899
 10
79.3204994188
 20
84.6424895784
 10
79.3059714744
 20
84.6823212517
 10
79.2935648287
 20
84.7229515769
 10
79.2833335997
 20
84.7642427057
 10
79.2753295768
 20
84.8059984916
 10
79.269574715
 20
84.8480726383
 10
79.2660753539
 20
84.8903725175
 10
79.26483751
 20
84.9327784434
  0
LINE
  5
2DF
100
AcDbEntity
  8
0
100
AcDbLine
 62
250
  6
CONTINUOUS
 10
74.8985851642
 20
103.2795627105
 11
74.7795381642
 21
103.5231097105
  0
LINE
  5
2E0
100
AcDbEntity
  8
0
100
AcDbLine
 62
250
  6
CONTINUOUS
 10
73.4700251642
 20
111.5641987105
 11
73.5890721642
 21
111.3206507105
  0
LINE
  5
2E1
100
AcDbEntity
  8
0
100
AcDbLine
 62
250
  6
CONTINUOUS
 10
75.0771551642
 20
103.5553557105
 11
75.0176321642
 21
103.7354127105
  0
LINE
  5
2E2
100
AcDbEntity
  8
0
100
AcDbLine
 62
250
  6
CONTINUOUS
 10
73.7676421642
 20
117.2499197105
 11
73.8271651642
 21
117.0698617105
  0
LINE
  5
2E3
100
AcDbEntity
  8
0
100
AcDbLine
 62
250
  6
CONTINUOUS
 10
75.0771551642
 20
116.9605017105
 11
75.0176321642
 21
117.1405597105
  0
LINE
  5
2E4
100
AcDbEntity
  8
0
100
AcDbLine
 62
250
  6
CONTINUOUS
 10
75.7914351642
 20
112.4102007105
 11
75.8509581642
 21
112.1718597105
  0
LINE
  5
2E5
100
AcDbEntity
  8
0
100
AcDbLine
 62
250
  6
CONTINUOUS
 10
76.2080981642
 20
112.1406147105
 11
76.1485751642
 21
112.4372377105
  0
LINE
  5
2E6
100
AcDbEntity
  8
0
100
AcDbLine
 62
250
  6
CONTINUOUS
 10
73.8271651642
 20
112.5820517105
 11
73.9462121642
 21
112.7464867105
  0
LINE
  5
2E7
100
AcDbEntity
  8
0
100
AcDbLine
 62
250
  6
CONTINUOUS
 10
75.7914351642
 20
111.4193847105
 11
75.6723881642
 21
111.2549507105
  0
LINE
  5
2E8
100
AcDbEntity
  8
0
100
AcDbLine
 62
250
  6
CONTINUOUS
 10
75.9700051642
 20
116.5909717105
 11
76.1485751642
 21
116.8084817105
  0
LINE
  5
2E9
100
AcDbEntity
  8
0
100
AcDbLine
 62
250
  6
CONTINUOUS
 10
73.9462121642
 20
111.4059717105
 11
73.8271651642
 21
111.5912367105
  0
LINE
  5
2EA
100
AcDbEntity
  8
0
100
AcDbLine
 62
250
  6
CONTINUOUS
 10
75.6723881642
 20
112.5954657105
 11
75.7914351642
 21
112.4102007105
  0
LINE
  5
2EB
100
AcDbEntity
  8
0
100
AcDbLine
 62
250
  6
CONTINUOUS
 10
76.1485751642
 20
112.4372377105
 11
76.0295281642
 21
112.6807867105
  0
LINE
  5
2EC
100
AcDbEntity
  8
0
100
AcDbLine
 62
250
  6
CONTINUOUS
 10
74.8390621642
 20
116.8064827105
 11
74.8985851642
 21
116.6847087105
  0
LINE
  5
2ED
100
AcDbEntity
  8
0
100
AcDbLine
 62
250
  6
CONTINUOUS
 10
76.1485751642
 20
103.4033347105
 11
75.9700051642
 21
103.1858257105
  0
LINE
  5
2EE
100
AcDbEntity
  8
0
100
AcDbLine
 62
250
  6
CONTINUOUS
 10
74.4819221642
 20
116.8960117105
 11
74.6009681642
 21
117.0021627105
  0
LINE
  5
2EF
100
AcDbEntity
  8
0
100
AcDbLine
 62
250
  6
CONTINUOUS
 10
75.7914351642
 20
116.8980107105
 11
75.6723881642
 21
116.7918597105
  0
LINE
  5
2F0
100
AcDbEntity
  8
0
100
AcDbLine
 62
250
  6
CONTINUOUS
 10
73.8271651642
 20
113.1066007105
 11
73.5890721642
 21
112.8942987105
  0
LINE
  5
2F1
100
AcDbEntity
  8
0
100
AcDbLine
 62
250
  6
CONTINUOUS
 10
75.1962021642
 20
103.4283737105
 11
75.0771551642
 21
103.5553557105
  0
LINE
  5
2F2
100
AcDbEntity
  8
0
100
AcDbLine
 62
250
  6
CONTINUOUS
 10
73.5890721642
 20
111.3206507105
 11
73.8271651642
 21
111.0666877105
  0
LINE
  5
2F3
100
AcDbEntity
  8
0
100
AcDbLine
 62
250
  6
CONTINUOUS
 10
73.4700251642
 20
117.0428247105
 11
73.6485951642
 21
116.7940687105
  0
LINE
  5
2F4
100
AcDbEntity
  8
0
100
AcDbLine
 62
250
  6
CONTINUOUS
 10
75.7914351642
 20
110.8948357105
 11
76.0295281642
 21
111.1071387105
  0
LINE
  5
2F5
100
AcDbEntity
  8
0
100
AcDbLine
 62
250
  6
CONTINUOUS
 10
75.8509581642
 20
103.4876567105
 11
75.7319111642
 21
103.3815057105
  0
LINE
  5
2F6
100
AcDbEntity
  8
0
100
AcDbLine
 62
250
  6
CONTINUOUS
 10
74.5414451642
 20
116.5411047105
 11
74.7795381642
 21
116.6951237105
  0
LINE
  5
2F7
100
AcDbEntity
  8
0
100
AcDbLine
 62
250
  6
CONTINUOUS
 10
75.7319111642
 20
116.4369517105
 11
75.9700051642
 21
116.5909717105
  0
LINE
  5
2F8
100
AcDbEntity
  8
0
100
AcDbLine
 62
250
  6
CONTINUOUS
 10
75.1366781642
 20
103.0838817105
 11
74.8985851642
 21
103.2795627105
  0
LINE
  5
2F9
100
AcDbEntity
  8
0
100
AcDbLine
 62
250
  6
CONTINUOUS
 10
76.0295281642
 20
112.6807867105
 11
75.7914351642
 21
112.9347497105
  0
LINE
  5
2FA
100
AcDbEntity
  8
0
100
AcDbLine
 62
250
  6
CONTINUOUS
 10
73.8271651642
 20
117.0698617105
 11
73.9462121642
 21
116.9428797105
  0
LINE
  5
2FB
100
AcDbEntity
  8
0
100
AcDbLine
 62
250
  6
CONTINUOUS
 10
75.1962021642
 20
116.8335197105
 11
75.0771551642
 21
116.9605017105
  0
LINE
  5
2FC
100
AcDbEntity
  8
RACCORDO
100
AcDbLine
 62
250
  6
CONTINUOUS
 10
57.2392416056
 20
63.1069426867
 11
57.1093001642
 21
62.9770012453
  0
LINE
  5
2FD
100
AcDbEntity
  8
ASSI
100
AcDbLine
 62
250
  6
CONTINUOUS
 10
57.2392416056
 20
63.1069426867
 11
57.1093001642
 21
62.9770012453
  0
LWPOLYLINE
  5
2FE
100
AcDbEntity
  8
0
100
AcDbPolyline
 62
7
  6
CONTINUOUS
 90
5
 70
0
 43
0.3500000006
 10
172.8950223999
 20
169.4426553955
 10
173.252151123
 20
169.6569398804
 10
173.252151123
 20
170.299793335
 10
172.8950223999
 20
170.7283804321
 10
172.037866333
 20
170.7283804321
  0
LINE
  5
2FF
100
AcDbEntity
  8
0
100
AcDbLine
 62
250
  6
CONTINUOUS
 10
73.9462121642
 20
112.7464867105
 11
74.1247821642
 21
112.8474307105
  0
LINE
  5
300
100
AcDbEntity
  8
0
100
AcDbLine
 62
250
  6
CONTINUOUS
 10
73.4105021642
 20
123.4342107105
 11
76.2080981642
 21
124.8330087105
  0
LINE
  5
301
100
AcDbEntity
  8
0
100
AcDbLine
 62
250
  6
CONTINUOUS
 10
75.4938181642
 20
112.7276547105
 11
75.6723881642
 21
112.5954657105
  0
LINE
  5
302
100
AcDbEntity
  8
0
100
AcDbLine
 62
250
  6
CONTINUOUS
 10
73.6485951642
 20
116.7940687105
 11
73.8866891642
 21
116.5983887105
  0
LINE
  5
303
100
AcDbEntity
  8
0
100
AcDbLine
 62
250
  6
CONTINUOUS
 10
74.8985851642
 20
116.6847087105
 11
75.1366781642
 21
116.4890287105
  0
LINE
  5
304
100
AcDbEntity
  8
RACCORDO
100
AcDbLine
 62
250
  6
CONTINUOUS
 10
57.2392416056
 20
150.8498007344
 11
57.1093001642
 21
150.9797421758
  0
LINE
  5
305
100
AcDbEntity
  8
ASSI
100
AcDbLine
 62
250
  6
CONTINUOUS
 10
57.2392416056
 20
150.8498007344
 11
57.1093001642
 21
150.9797421758
  0
LINE
  5
306
100
AcDbEntity
  8
RACCORDO
100
AcDbLine
 62
250
  6
CONTINUOUS
 10
124.9537628488
 20
129.0239657666
 11
124.9695114536
 21
121.6783803264
  0
LINE
  5
307
100
AcDbEntity
  8
ASSI
100
AcDbLine
 62
250
  6
CONTINUOUS
 10
124.9537628488
 20
129.0239657666
 11
124.9695114536
 21
121.6783803264
  0
LINE
  5
308
100
AcDbEntity
  8
RACCORDO
100
AcDbLine
 62
250
  6
CONTINUOUS
 10
125.4530776835
 20
129.0484531474
 11
125.4688262507
 21
121.6950400415
  0
LINE
  5
309
100
AcDbEntity
  8
ASSI
100
AcDbLine
 62
250
  6
CONTINUOUS
 10
125.4530776835
 20
129.0484531474
 11
125.4688262507
 21
121.6950400415
  0
LINE
  5
30A
100
AcDbEntity
  8
RACCORDO
100
AcDbLine
 62
250
  6
CONTINUOUS
 10
124.9695114536
 20
121.6783803264
 11
124.9789613437
 21
114.3296017583
  0
LINE
  5
30B
100
AcDbEntity
  8
ASSI
100
AcDbLine
 62
250
  6
CONTINUOUS
 10
124.9695114536
 20
121.6783803264
 11
124.9789613437
 21
114.3296017583
  0
LINE
  5
30C
100
AcDbEntity
  8
RACCORDO
100
AcDbLine
 62
250
  6
CONTINUOUS
 10
125.4688262507
 20
121.6950400415
 11
125.4782761179
 21
114.3376902528
  0
LINE
  5
30D
100
AcDbEntity
  8
ASSI
100
AcDbLine
 62
250
  6
CONTINUOUS
 10
125.4688262507
 20
121.6950400415
 11
125.4782761179
 21
114.3376902528
  0
LINE
  5
30E
100
AcDbEntity
  8
RACCORDO
100
AcDbLine
 62
250
  6
CONTINUOUS
 10
124.9789613437
 20
114.3296017583
 11
124.9821120437
 21
106.9783669453
  0
LINE
  5
30F
100
AcDbEntity
  8
ASSI
100
AcDbLine
 62
250
  6
CONTINUOUS
 10
124.9789613437
 20
114.3296017583
 11
124.9821120437
 21
106.9783669453
  0
LINE
  5
310
100
AcDbEntity
  8
RACCORDO
100
AcDbLine
 62
250
  6
CONTINUOUS
 10
125.4782761179
 20
114.3376902528
 11
125.4814268111
 21
106.9783717554
  0
LINE
  5
311
100
AcDbEntity
  8
ASSI
100
AcDbLine
 62
250
  6
CONTINUOUS
 10
125.4782761179
 20
114.3376902528
 11
125.4814268111
 21
106.9783717554
  0
LINE
  5
312
100
AcDbEntity
  8
RACCORDO
100
AcDbLine
 62
250
  6
CONTINUOUS
 10
124.1513810474
 20
130.3459473269
 11
124.1513810474
 21
129.8193562215
  0
LINE
  5
313
100
AcDbEntity
  8
ASSI
100
AcDbLine
 62
250
  6
CONTINUOUS
 10
124.1513810474
 20
130.3459473269
 11
124.1513810474
 21
129.8193562215
  0
LINE
  5
314
100
AcDbEntity
  8
RACCORDO
100
AcDbLine
 62
250
  6
CONTINUOUS
 10
124.1513810474
 20
83.6107960941
 11
124.1513810474
 21
84.1373871995
  0
LINE
  5
315
100
AcDbEntity
  8
ASSI
100
AcDbLine
 62
250
  6
CONTINUOUS
 10
124.1513810474
 20
83.6107960941
 11
124.1513810474
 21
84.1373871995
  0
LINE
  5
316
100
AcDbEntity
  8
0
100
AcDbLine
 62
7
  6
CONTINUOUS
 10
124.8093001642
 20
128.8794680827
 11
124.8093001642
 21
85.0772753383
  0
LINE
  5
317
100
AcDbEntity
  8
ASSI
100
AcDbLine
 62
7
  6
CONTINUOUS
 10
124.8093001642
 20
128.8794680827
 11
124.8093001642
 21
85.0772753383
  0
LINE
  5
318
100
AcDbEntity
  8
RACCORDO
100
AcDbLine
 62
250
  6
CONTINUOUS
 10
124.9821120437
 20
106.9783669453
 11
124.9789613308
 21
99.6271298557
  0
LINE
  5
319
100
AcDbEntity
  8
ASSI
100
AcDbLine
 62
250
  6
CONTINUOUS
 10
124.9821120437
 20
106.9783669453
 11
124.9789613308
 21
99.6271298557
  0
LINE
  5
31A
100
AcDbEntity
  8
RACCORDO
100
AcDbLine
 62
250
  6
CONTINUOUS
 10
125.4814268111
 20
106.9783717554
 11
125.4782761181
 21
99.61905325
  0
LINE
  5
31B
100
AcDbEntity
  8
ASSI
100
AcDbLine
 62
250
  6
CONTINUOUS
 10
125.4814268111
 20
106.9783717554
 11
125.4782761181
 21
99.61905325
  0
LINE
  5
31C
100
AcDbEntity
  8
RACCORDO
100
AcDbLine
 62
250
  6
CONTINUOUS
 10
124.9789613308
 20
99.6271298557
 11
124.9695114524
 21
92.2783606215
  0
LINE
  5
31D
100
AcDbEntity
  8
ASSI
100
AcDbLine
 62
250
  6
CONTINUOUS
 10
124.9789613308
 20
99.6271298557
 11
124.9695114524
 21
92.2783606215
  0
LINE
  5
31E
100
AcDbEntity
  8
RACCORDO
100
AcDbLine
 62
250
  6
CONTINUOUS
 10
125.4782761181
 20
99.61905325
 11
125.4688262509
 21
92.2617034318
  0
LINE
  5
31F
100
AcDbEntity
  8
ASSI
100
AcDbLine
 62
250
  6
CONTINUOUS
 10
125.4782761181
 20
99.61905325
 11
125.4688262509
 21
92.2617034318
  0
LINE
  5
320
100
AcDbEntity
  8
RACCORDO
100
AcDbLine
 62
250
  6
CONTINUOUS
 10
124.9695114524
 20
92.2783606215
 11
124.9537628911
 21
84.9327995896
  0
LINE
  5
321
100
AcDbEntity
  8
ASSI
100
AcDbLine
 62
250
  6
CONTINUOUS
 10
124.9695114524
 20
92.2783606215
 11
124.9537628911
 21
84.9327995896
  0
LINE
  5
322
100
AcDbEntity
  8
RACCORDO
100
AcDbLine
 62
250
  6
CONTINUOUS
 10
125.4688262509
 20
92.2617034318
 11
125.4530776835
 21
84.9082902736
  0
LINE
  5
323
100
AcDbEntity
  8
ASSI
100
AcDbLine
 62
250
  6
CONTINUOUS
 10
125.4688262509
 20
92.2617034318
 11
125.4530776835
 21
84.9082902736
  0
LWPOLYLINE
  5
324
100
AcDbEntity
  8
RACCORDO
100
AcDbPolyline
 62
250
  6
CONTINUOUS
 90
10
 70
0
 10
124.9537628791
 20
84.9327996015
 10
124.95252668
 20
84.8904030392
 10
124.9490304241
 20
84.8481165313
 10
124.9432807774
 20
84.8060595961
 10
124.9352867599
 20
84.7643338908
 10
124.925069873
 20
84.7230759011
 10
124.9126733992
 20
84.6824543267
 10
124.8981442065
 20
84.6425992189
 10
124.8815232679
 20
84.6036039503
 10
124.8628621769
 20
84.5655763503
  0
LWPOLYLINE
  5
325
100
AcDbEntity
  8
ASSI
100
AcDbPolyline
 62
250
  6
CONTINUOUS
 90
10
 70
0
 10
124.9537628791
 20
84.9327996015
 10
124.95252668
 20
84.8904030392
 10
124.9490304241
 20
84.8481165313
 10
124.9432807774
 20
84.8060595961
 10
124.9352867599
 20
84.7643338908
 10
124.925069873
 20
84.7230759011
 10
124.9126733992
 20
84.6824543267
 10
124.8981442065
 20
84.6425992189
 10
124.8815232679
 20
84.6036039503
 10
124.8628621769
 20
84.5655763503
  0
LWPOLYLINE
  5
326
100
AcDbEntity
  8
RACCORDO
100
AcDbPolyline
 62
250
  6
CONTINUOUS
 90
10
 70
0
 10
125.4530776835
 20
84.9082902736
 10
125.4510389134
 20
84.8390316716
 10
125.4453657692
 20
84.7703085667
 10
125.4360582509
 20
84.7021209484
 10
125.4230543863
 20
84.6342307627
 10
125.4064161477
 20
84.5668760462
 10
125.3863294511
 20
84.5007709088
 10
125.3628562685
 20
84.4361533628
 10
125.335934628
 20
84.3727853405
 10
125.3055645295
 20
84.3106668168
  0
LWPOLYLINE
  5
327
100
AcDbEntity
  8
ASSI
100
AcDbPolyline
 62
250
  6
CONTINUOUS
 90
10
 70
0
 10
125.4530776835
 20
84.9082902736
 10
125.4510389134
 20
84.8390316716
 10
125.4453657692
 20
84.7703085667
 10
125.4360582509
 20
84.7021209484
 10
125.4230543863
 20
84.6342307627
 10
125.4064161477
 20
84.5668760462
 10
125.3863294511
 20
84.5007709088
 10
125.3628562685
 20
84.4361533628
 10
125.335934628
 20
84.3727853405
 10
125.3055645295
 20
84.3106668168
  0
LINE
  5
328
100
AcDbEntity
  8
0
100
AcDbLine
 62
250
  6
CONTINUOUS
 10
79.2648374781
 20
84.9327784122
 11
79.4093001642
 21
85.0772753383
  0
LINE
  5
329
100
AcDbEntity
  8
ASSI
100
AcDbLine
 62
250
  6
CONTINUOUS
 10
79.2648374781
 20
84.9327784122
 11
79.4093001642
 21
85.0772753383
  0
LINE
  5
32A
100
AcDbEntity
  8
0
100
AcDbLine
 62
250
  6
CONTINUOUS
 10
124.1513939478
 20
129.8193562215
 11
124.0103965364
 21
129.6783717105
  0
LINE
  5
32B
100
AcDbEntity
  8
ASSI
100
AcDbLine
 62
250
  6
CONTINUOUS
 10
124.1513939478
 20
129.8193562215
 11
124.0103965364
 21
129.6783717105
  0
LINE
  5
32C
100
AcDbEntity
  8
0
100
AcDbLine
 62
250
  6
CONTINUOUS
 10
124.9537628488
 20
129.0239657666
 11
124.8093001642
 21
128.8794680827
  0
LINE
  5
32D
100
AcDbEntity
  8
ASSI
100
AcDbLine
 62
250
  6
CONTINUOUS
 10
124.9537628488
 20
129.0239657666
 11
124.8093001642
 21
128.8794680827
  0
LINE
  5
32E
100
AcDbEntity
  8
0
100
AcDbLine
 62
250
  6
CONTINUOUS
 10
80.0672063806
 20
84.1373871995
 11
80.208203792
 21
84.2783717105
  0
LINE
  5
32F
100
AcDbEntity
  8
ASSI
100
AcDbLine
 62
250
  6
CONTINUOUS
 10
80.0672063806
 20
84.1373871995
 11
80.208203792
 21
84.2783717105
  0
LINE
  5
330
100
AcDbEntity
  8
RACCORDO
100
AcDbLine
 62
250
  6
CONTINUOUS
 10
58.2311242872
 20
62.1015662989
 11
58.1079296989
 21
61.9783717105
  0
LINE
  5
331
100
AcDbEntity
  8
ASSI
100
AcDbLine
 62
250
  6
CONTINUOUS
 10
58.2311242872
 20
62.1015662989
 11
58.1079296989
 21
61.9783717105
  0
LINE
  5
332
100
AcDbEntity
  8
0
100
AcDbLine
 62
250
  6
CONTINUOUS
 10
75.9700051642
 20
103.1858257105
 11
75.7319111642
 21
103.0318057105
  0
LWPOLYLINE
  5
333
100
AcDbEntity
  8
RACCORDO
100
AcDbPolyline
 62
250
  6
CONTINUOUS
 90
14
 70
0
 10
125.0625347216
 20
129.5151880511
 10
125.0363090338
 20
129.5004522656
 10
125.0114999094
 20
129.4863501067
 10
124.9882378726
 20
129.4729557682
 10
124.9666453087
 20
129.4603397196
 10
124.9468358193
 20
129.4485683357
 10
124.9289136251
 20
129.4377035476
 10
124.9129730174
 20
129.4278025165
 10
124.8990978622
 20
129.4189173333
 10
124.8873611587
 20
129.4110947441
 10
124.8778246554
 20
129.4043759048
 10
124.8705385254
 20
129.3987961642
 10
124.865541102
 20
129.3943848781
 10
124.8628586775
 20
129.391165255
  0
LWPOLYLINE
  5
334
100
AcDbEntity
  8
ASSI
100
AcDbPolyline
 62
250
  6
CONTINUOUS
 90
14
 70
0
 10
125.0625347216
 20
129.5151880511
 10
125.0363090338
 20
129.5004522656
 10
125.0114999094
 20
129.4863501067
 10
124.9882378726
 20
129.4729557682
 10
124.9666453087
 20
129.4603397196
 10
124.9468358193
 20
129.4485683357
 10
124.9289136251
 20
129.4377035476
 10
124.9129730174
 20
129.4278025165
 10
124.8990978622
 20
129.4189173333
 10
124.8873611587
 20
129.4110947441
 10
124.8778246554
 20
129.4043759048
 10
124.8705385254
 20
129.3987961642
 10
124.865541102
 20
129.3943848781
 10
124.8628586775
 20
129.391165255
  0
LINE
  5
335
100
AcDbEntity
  8
RACCORDO
100
AcDbLine
 62
250
  6
CONTINUOUS
 10
125.1186771509
 20
129.546247468
 11
125.0625347216
 21
129.5151880511
  0
LINE
  5
336
100
AcDbEntity
  8
ASSI
100
AcDbLine
 62
250
  6
CONTINUOUS
 10
125.1186771509
 20
129.546247468
 11
125.0625347216
 21
129.5151880511
  0
LINE
  5
337
100
AcDbEntity
  8
RACCORDO
100
AcDbLine
 62
250
  6
CONTINUOUS
 10
125.1787472566
 20
129.5788755843
 11
125.1186771509
 21
129.546247468
  0
LINE
  5
338
100
AcDbEntity
  8
ASSI
100
AcDbLine
 62
250
  6
CONTINUOUS
 10
125.1787472566
 20
129.5788755843
 11
125.1186771509
 21
129.546247468
  0
LINE
  5
339
100
AcDbEntity
  8
RACCORDO
100
AcDbLine
 62
250
  6
CONTINUOUS
 10
125.2414825502
 20
129.6123866578
 11
125.1787472566
 21
129.5788755843
  0
LINE
  5
33A
100
AcDbEntity
  8
ASSI
100
AcDbLine
 62
250
  6
CONTINUOUS
 10
125.2414825502
 20
129.6123866578
 11
125.1787472566
 21
129.5788755843
  0
LINE
  5
33B
100
AcDbEntity
  8
RACCORDO
100
AcDbLine
 62
250
  6
CONTINUOUS
 10
125.3055645294
 20
129.646076389
 11
125.2414825502
 21
129.6123866578
  0
LINE
  5
33C
100
AcDbEntity
  8
ASSI
100
AcDbLine
 62
250
  6
CONTINUOUS
 10
125.3055645294
 20
129.646076389
 11
125.2414825502
 21
129.6123866578
  0
LINE
  5
33D
100
AcDbEntity
  8
0
100
AcDbLine
 62
250
  6
CONTINUOUS
 10
74.0652591642
 20
113.2023367105
 11
73.8271651642
 21
113.1066007105
  0
LINE
  5
33E
100
AcDbEntity
  8
0
100
AcDbLine
 62
250
  6
CONTINUOUS
 10
73.4105021642
 20
125.6323217105
 11
76.2080981642
 21
126.4316347105
  0
LWPOLYLINE
  5
33F
100
AcDbEntity
  8
RACCORDO
100
AcDbPolyline
 62
250
  6
CONTINUOUS
 90
28
 70
0
 10
287.9874760411
 20
62.1015662989
 10
288.0450869541
 20
62.1032855349
 10
288.1024866552
 20
62.108344801
 10
288.1594846048
 20
62.1167287077
 10
288.2158778705
 20
62.1284077676
 10
288.2714925831
 20
62.1433463428
 10
288.3261825251
 20
62.1615104319
 10
288.379782699
 20
62.1828571172
 10
288.4320899383
 20
62.207316993
 10
288.4829049365
 20
62.2348032331
 10
288.5320430947
 20
62.2652209473
 10
288.5793497979
 20
62.2984787264
 10
288.6246784411
 20
62.3344786282
 10
288.6678730815
 20
62.37310846
 10
288.7087810408
 20
62.4142431558
 10
288.7472674734
 20
62.4577553579
 10
288.7831957905
 20
62.5035075387
 10
288.8164350399
 20
62.5513501568
 10
288.8468690985
 20
62.6011271765
 10
288.8743868277
 20
62.6526802552
 10
288.898882672
 20
62.7058364817
 10
288.9202638881
 20
62.7604074765
 10
288.9384479908
 20
62.8162107801
 10
288.9533641624
 20
62.8730607582
 10
288.9649554859
 20
62.9307559617
 10
288.9731749398
 20
62.9890982385
 10
288.9779844771
 20
63.0478936952
 10
288.9793587228
 20
63.1069426867
  0
LWPOLYLINE
  5
340
100
AcDbEntity
  8
ASSI
100
AcDbPolyline
 62
250
  6
CONTINUOUS
 90
28
 70
0
 10
287.9874760411
 20
62.1015662989
 10
288.0450869541
 20
62.1032855349
 10
288.1024866552
 20
62.108344801
 10
288.1594846048
 20
62.1167287077
 10
288.2158778705
 20
62.1284077676
 10
288.2714925831
 20
62.1433463428
 10
288.3261825251
 20
62.1615104319
 10
288.379782699
 20
62.1828571172
 10
288.4320899383
 20
62.207316993
 10
288.4829049365
 20
62.2348032331
 10
288.5320430947
 20
62.2652209473
 10
288.5793497979
 20
62.2984787264
 10
288.6246784411
 20
62.3344786282
 10
288.6678730815
 20
62.37310846
 10
288.7087810408
 20
62.4142431558
 10
288.7472674734
 20
62.4577553579
 10
288.7831957905
 20
62.5035075387
 10
288.8164350399
 20
62.5513501568
 10
288.8468690985
 20
62.6011271765
 10
288.8743868277
 20
62.6526802552
 10
288.898882672
 20
62.7058364817
 10
288.9202638881
 20
62.7604074765
 10
288.9384479908
 20
62.8162107801
 10
288.9533641624
 20
62.8730607582
 10
288.9649554859
 20
62.9307559617
 10
288.9731749398
 20
62.9890982385
 10
288.9779844771
 20
63.0478936952
 10
288.9793587228
 20
63.1069426867
  0
LWPOLYLINE
  5
341
100
AcDbEntity
  8
RACCORDO
100
AcDbPolyline
 62
250
  6
CONTINUOUS
 90
28
 70
0
 10
287.9874760411
 20
62.3466892057
 10
288.0279971079
 20
62.3478882319
 10
288.0681143752
 20
62.3514060024
 10
288.1078278431
 20
62.3572425448
 10
288.147264662
 20
62.3654269839
 10
288.1862976813
 20
62.3759303045
 10
288.2245454493
 20
62.3886653481
 10
288.2620097437
 20
62.4036585384
 10
288.2986887867
 20
62.42088366
 10
288.3341957931
 20
62.4401746086
 10
288.3685115913
 20
62.4615488194
 10
288.4016553529
 20
62.4849891389
 10
288.4332978069
 20
62.5102775737
 10
288.4634276258
 20
62.5374331714
 10
288.492056137
 20
62.5664372083
 10
288.5188880523
 20
62.5970150068
 10
288.5439081875
 20
62.6291844627
 10
288.5671317267
 20
62.6629280082
 10
288.5883089336
 20
62.6979177196
 10
288.6074207668
 20
62.7341708319
 10
288.6244862677
 20
62.7716704027
 10
288.6393128249
 20
62.8100371653
 10
288.6518769483
 20
62.8492910977
 10
288.662202128
 20
62.8894124416
 10
288.6701662233
 20
62.9299622239
 10
288.6757285207
 20
62.9707941308
 10
288.6789297337
 20
63.0120545724
 10
288.6797698623
 20
63.053743604
  0
LWPOLYLINE
  5
342
100
AcDbEntity
  8
ASSI
100
AcDbPolyline
 62
250
  6
CONTINUOUS
 90
28
 70
0
 10
287.9874760411
 20
62.3466892057
 10
288.0279971079
 20
62.3478882319
 10
288.0681143752
 20
62.3514060024
 10
288.1078278431
 20
62.3572425448
 10
288.147264662
 20
62.3654269839
 10
288.1862976813
 20
62.3759303045
 10
288.2245454493
 20
62.3886653481
 10
288.2620097437
 20
62.4036585384
 10
288.2986887867
 20
62.42088366
 10
288.3341957931
 20
62.4401746086
 10
288.3685115913
 20
62.4615488194
 10
288.4016553529
 20
62.4849891389
 10
288.4332978069
 20
62.5102775737
 10
288.4634276258
 20
62.5374331714
 10
288.492056137
 20
62.5664372083
 10
288.5188880523
 20
62.5970150068
 10
288.5439081875
 20
62.6291844627
 10
288.5671317267
 20
62.6629280082
 10
288.5883089336
 20
62.6979177196
 10
288.6074207668
 20
62.7341708319
 10
288.6244862677
 20
62.7716704027
 10
288.6393128249
 20
62.8100371653
 10
288.6518769483
 20
62.8492910977
 10
288.662202128
 20
62.8894124416
 10
288.6701662233
 20
62.9299622239
 10
288.6757285207
 20
62.9707941308
 10
288.6789297337
 20
63.0120545724
 10
288.6797698623
 20
63.053743604
  0
LWPOLYLINE
  5
343
100
AcDbEntity
  8
RACCORDO
100
AcDbPolyline
 62
250
  6
CONTINUOUS
 90
19
 70
0
 10
288.6797698623
 20
63.0537436163
 10
288.7050598298
 20
63.0541643055
 10
288.7301697388
 20
63.0549607642
 10
288.7549208129
 20
63.0561273217
 10
288.7791368304
 20
63.0576556724
 10
288.8026453792
 20
63.0595349348
 10
288.8252790841
 20
63.061751729
 10
288.8468767984
 20
63.064290272
 10
288.8672847519
 20
63.06713249
 10
288.8863576446
 20
63.070258147
 10
288.9039596824
 20
63.0736449892
 10
288.9199655428
 20
63.077268903
 10
288.9342612681
 20
63.081104087
 10
288.9467450762
 20
63.0851232358
 10
288.9573280853
 20
63.0892977338
 10
288.965934947
 20
63.0935978597
 10
288.9725043825
 20
63.0979929976
 10
288.976989619
 20
63.1024518553
 10
288.9793587228
 20
63.1069426867
  0
LWPOLYLINE
  5
344
100
AcDbEntity
  8
ASSI
100
AcDbPolyline
 62
250
  6
CONTINUOUS
 90
19
 70
0
 10
288.6797698623
 20
63.0537436163
 10
288.7050598298
 20
63.0541643055
 10
288.7301697388
 20
63.0549607642
 10
288.7549208129
 20
63.0561273217
 10
288.7791368304
 20
63.0576556724
 10
288.8026453792
 20
63.0595349348
 10
288.8252790841
 20
63.061751729
 10
288.8468767984
 20
63.064290272
 10
288.8672847519
 20
63.06713249
 10
288.8863576446
 20
63.070258147
 10
288.9039596824
 20
63.0736449892
 10
288.9199655428
 20
63.077268903
 10
288.9342612681
 20
63.081104087
 10
288.9467450762
 20
63.0851232358
 10
288.9573280853
 20
63.0892977338
 10
288.965934947
 20
63.0935978597
 10
288.9725043825
 20
63.0979929976
 10
288.976989619
 20
63.1024518553
 10
288.9793587228
 20
63.1069426867
  0
LINE
  5
345
100
AcDbEntity
  8
RACCORDO
100
AcDbLine
 62
7
  6
CONTINUOUS
 10
58.1079296989
 20
61.9783717105
 11
288.1106706294
 21
61.9783717105
  0
LINE
  5
346
100
AcDbEntity
  8
ASSI
100
AcDbLine
 62
7
  6
CONTINUOUS
 10
58.1079296989
 20
61.9783717105
 11
288.1106706294
 21
61.9783717105
  0
LINE
  5
347
100
AcDbEntity
  8
RACCORDO
100
AcDbLine
 62
250
  6
CONTINUOUS
 10
58.2311242872
 20
62.1015662989
 11
287.9874760411
 21
62.1015662989
  0
LINE
  5
348
100
AcDbEntity
  8
ASSI
100
AcDbLine
 62
250
  6
CONTINUOUS
 10
58.2311242872
 20
62.1015662989
 11
287.9874760411
 21
62.1015662989
  0
LINE
  5
349
100
AcDbEntity
  8
RACCORDO
100
AcDbLine
 62
250
  6
CONTINUOUS
 10
58.2311242872
 20
62.3466892057
 11
287.9874760411
 21
62.3466892057
  0
LINE
  5
34A
100
AcDbEntity
  8
ASSI
100
AcDbLine
 62
250
  6
CONTINUOUS
 10
58.2311242872
 20
62.3466892057
 11
287.9874760411
 21
62.3466892057
  0
LWPOLYLINE
  5
34B
100
AcDbEntity
  8
RACCORDO
100
AcDbPolyline
 62
250
  6
CONTINUOUS
 90
19
 70
0
 10
57.538830466
 20
63.0537436107
 10
57.5135407626
 20
63.0541643459
 10
57.4884311386
 20
63.0549608447
 10
57.4636803658
 20
63.0561274361
 10
57.4394646611
 20
63.0576558147
 10
57.4159564321
 20
63.0595350987
 10
57.3933230491
 20
63.0617519084
 10
57.3717256542
 20
63.0642904609
 10
57.3513180131
 20
63.0671326826
 10
57.3322454215
 20
63.0702583377
 10
57.3146436693
 20
63.0736451728
 10
57.2986380752
 20
63.0772690748
 10
57.2843425934
 20
63.0811042427
 10
57.2718590028
 20
63.0851233715
 10
57.2612761822
 20
63.0892978463
 10
57.2526694777
 20
63.0935979464
 10
57.246100166
 20
63.0979930565
 10
57.2416150184
 20
63.102451885
 10
57.2392459675
 20
63.1069426865
  0
LWPOLYLINE
  5
34C
100
AcDbEntity
  8
ASSI
100
AcDbPolyline
 62
250
  6
CONTINUOUS
 90
19
 70
0
 10
57.538830466
 20
63.0537436107
 10
57.5135407626
 20
63.0541643459
 10
57.4884311386
 20
63.0549608447
 10
57.4636803658
 20
63.0561274361
 10
57.4394646611
 20
63.0576558147
 10
57.4159564321
 20
63.0595350987
 10
57.3933230491
 20
63.0617519084
 10
57.3717256542
 20
63.0642904609
 10
57.3513180131
 20
63.0671326826
 10
57.3322454215
 20
63.0702583377
 10
57.3146436693
 20
63.0736451728
 10
57.2986380752
 20
63.0772690748
 10
57.2843425934
 20
63.0811042427
 10
57.2718590028
 20
63.0851233715
 10
57.2612761822
 20
63.0892978463
 10
57.2526694777
 20
63.0935979464
 10
57.246100166
 20
63.0979930565
 10
57.2416150184
 20
63.102451885
 10
57.2392459675
 20
63.1069426865
  0
LINE
  5
34D
100
AcDbEntity
  8
0
100
AcDbLine
 62
250
  6
CONTINUOUS
 10
73.4105021642
 20
101.4864057105
 11
74.1247821642
 21
101.1907807105
  0
LINE
  5
34E
100
AcDbEntity
  8
0
100
AcDbLine
 62
250
  6
CONTINUOUS
 10
75.9700051642
 20
100.4465117105
 11
74.3628751642
 21
101.1116667105
  0
LINE
  5
34F
100
AcDbEntity
  8
0
100
AcDbLine
 62
250
  6
CONTINUOUS
 10
76.2080981642
 20
100.6588147105
 11
73.4105021642
 21
101.8361047105
  0
LINE
  5
350
100
AcDbEntity
  8
RACCORDO
100
AcDbLine
 62
250
  6
CONTINUOUS
 10
125.3055645295
 20
84.3106669772
 11
125.2414826254
 21
84.3443566848
  0
LINE
  5
351
100
AcDbEntity
  8
ASSI
100
AcDbLine
 62
250
  6
CONTINUOUS
 10
125.3055645295
 20
84.3106669772
 11
125.2414826254
 21
84.3443566848
  0
LINE
  5
352
100
AcDbEntity
  8
RACCORDO
100
AcDbLine
 62
250
  6
CONTINUOUS
 10
125.2414826254
 20
84.3443566848
 11
125.1787474316
 21
84.3778677196
  0
LINE
  5
353
100
AcDbEntity
  8
ASSI
100
AcDbLine
 62
250
  6
CONTINUOUS
 10
125.2414826254
 20
84.3443566848
 11
125.1787474316
 21
84.3778677196
  0
LINE
  5
354
100
AcDbEntity
  8
RACCORDO
100
AcDbLine
 62
250
  6
CONTINUOUS
 10
125.1787474316
 20
84.3778677196
 11
125.1186774425
 21
84.4104957862
  0
LINE
  5
355
100
AcDbEntity
  8
ASSI
100
AcDbLine
 62
250
  6
CONTINUOUS
 10
125.1787474316
 20
84.3778677196
 11
125.1186774425
 21
84.4104957862
  0
LWPOLYLINE
  5
356
100
AcDbEntity
  8
RACCORDO
100
AcDbPolyline
 62
250
  6
CONTINUOUS
 90
15
 70
0
 10
125.1186774425
 20
84.4104957862
 10
125.0625351383
 20
84.4415551464
 10
125.0363095138
 20
84.4562909023
 10
125.0115004519
 20
84.4703930314
 10
124.9882384759
 20
84.4837873405
 10
124.9666459702
 20
84.4964033606
 10
124.9468365356
 20
84.5081747171
 10
124.928914392
 20
84.5190394796
 10
124.9129738301
 20
84.5289404872
 10
124.8990987152
 20
84.5378256495
 10
124.887362046
 20
84.5456482204
 10
124.8778255706
 20
84.5523670446
 10
124.8705394616
 20
84.5579467734
 10
124.8655420521
 20
84.5623580513
 10
124.8628596342
 20
84.5655776699
  0
LWPOLYLINE
  5
357
100
AcDbEntity
  8
ASSI
100
AcDbPolyline
 62
250
  6
CONTINUOUS
 90
15
 70
0
 10
125.1186774425
 20
84.4104957862
 10
125.0625351383
 20
84.4415551464
 10
125.0363095138
 20
84.4562909023
 10
125.0115004519
 20
84.4703930314
 10
124.9882384759
 20
84.4837873405
 10
124.9666459702
 20
84.4964033606
 10
124.9468365356
 20
84.5081747171
 10
124.928914392
 20
84.5190394796
 10
124.9129738301
 20
84.5289404872
 10
124.8990987152
 20
84.5378256495
 10
124.887362046
 20
84.5456482204
 10
124.8778255706
 20
84.5523670446
 10
124.8705394616
 20
84.5579467734
 10
124.8655420521
 20
84.5623580513
 10
124.8628596342
 20
84.5655776699
  0
LINE
  5
358
100
AcDbEntity
  8
0
100
AcDbLine
 62
250
  6
CONTINUOUS
 10
75.7914351642
 20
112.9347497105
 11
75.5533421642
 21
113.0721467105
  0
LINE
  5
359
100
AcDbEntity
  8
0
100
AcDbLine
 62
250
  6
CONTINUOUS
 10
79.2648374366
 20
129.023943505
 11
79.4093001642
 21
128.8794680827
  0
LINE
  5
35A
100
AcDbEntity
  8
ASSI
100
AcDbLine
 62
250
  6
CONTINUOUS
 10
79.2648374366
 20
129.023943505
 11
79.4093001642
 21
128.8794680827
  0
LINE
  5
35B
100
AcDbEntity
  8
0
100
AcDbLine
 62
250
  6
CONTINUOUS
 10
124.1514081449
 20
84.1373871995
 11
124.0103965364
 21
84.2783717105
  0
LINE
  5
35C
100
AcDbEntity
  8
ASSI
100
AcDbLine
 62
250
  6
CONTINUOUS
 10
124.1514081449
 20
84.1373871995
 11
124.0103965364
 21
84.2783717105
  0
LINE
  5
35D
100
AcDbEntity
  8
0
100
AcDbLine
 62
250
  6
CONTINUOUS
 10
124.9537628911
 20
84.9327995896
 11
124.8093001642
 21
85.0772753383
  0
LINE
  5
35E
100
AcDbEntity
  8
ASSI
100
AcDbLine
 62
250
  6
CONTINUOUS
 10
124.9537628911
 20
84.9327995896
 11
124.8093001642
 21
85.0772753383
  0
LINE
  5
35F
100
AcDbEntity
  8
0
100
AcDbLine
 62
250
  6
CONTINUOUS
 10
80.0671921834
 20
129.8193562215
 11
80.208203792
 21
129.6783717105
  0
LINE
  5
360
100
AcDbEntity
  8
ASSI
100
AcDbLine
 62
250
  6
CONTINUOUS
 10
80.0671921834
 20
129.8193562215
 11
80.208203792
 21
129.6783717105
  0
LINE
  5
361
100
AcDbEntity
  8
RACCORDO
100
AcDbLine
 62
250
  6
CONTINUOUS
 10
58.2311242872
 20
151.8551771222
 11
58.1079296989
 21
151.9783717105
  0
LINE
  5
362
100
AcDbEntity
  8
ASSI
100
AcDbLine
 62
250
  6
CONTINUOUS
 10
58.2311242872
 20
151.8551771222
 11
58.1079296989
 21
151.9783717105
  0
LINE
  5
363
100
AcDbEntity
  8
0
100
AcDbLine
 62
250
  6
CONTINUOUS
 10
75.3152481642
 20
103.0099757105
 11
75.1366781642
 21
103.0838817105
  0
LINE
  5
364
100
AcDbEntity
  8
0
100
AcDbLine
 62
250
  6
CONTINUOUS
 10
75.3747711642
 20
103.3544677105
 11
75.1962021642
 21
103.4283737105
  0
LINE
  5
365
100
AcDbEntity
  8
0
100
AcDbLine
 62
250
  6
CONTINUOUS
 10
74.1247821642
 20
111.3320657105
 11
73.9462121642
 21
111.4059717105
  0
LWPOLYLINE
  5
366
100
AcDbEntity
  8
RACCORDO
100
AcDbPolyline
 62
250
  6
CONTINUOUS
 90
22
 70
0
 10
149.9130357989
 20
129.6460766042
 10
149.9455078967
 20
129.7047082386
 10
149.9809149773
 20
129.7614654201
 10
150.0192570405
 20
129.8163482393
 10
150.0606589832
 20
129.8695420344
 10
150.1049959086
 20
129.9208616367
 10
150.1518931264
 20
129.9697514005
 10
150.201377565
 20
130.01617027
 10
150.253422296
 20
130.0601595121
 10
150.3075718439
 20
130.1012870033
 10
150.3638539191
 20
130.1395180053
 10
150.4222408112
 20
130.1748874693
 10
150.4821939146
 20
130.2070678261
 10
150.5437465899
 20
130.2360210793
 10
150.6068654764
 20
130.2617854121
 10
150.6709118862
 20
130.2841475269
 10
150.735901504
 20
130.3030549992
 10
150.801818645
 20
130.3185603903
 10
150.8679775674
 20
130.3306078717
 10
150.9341496905
 20
130.3391788575
 10
151.0005635951
 20
130.3442920035
 10
151.0672192809
 20
130.3459473269
  0
LWPOLYLINE
  5
367
100
AcDbEntity
  8
ASSI
100
AcDbPolyline
 62
250
  6
CONTINUOUS
 90
22
 70
0
 10
149.9130357989
 20
129.6460766042
 10
149.9455078967
 20
129.7047082386
 10
149.9809149773
 20
129.7614654201
 10
150.0192570405
 20
129.8163482393
 10
150.0606589832
 20
129.8695420344
 10
150.1049959086
 20
129.9208616367
 10
150.1518931264
 20
129.9697514005
 10
150.201377565
 20
130.01617027
 10
150.253422296
 20
130.0601595121
 10
150.3075718439
 20
130.1012870033
 10
150.3638539191
 20
130.1395180053
 10
150.4222408112
 20
130.1748874693
 10
150.4821939146
 20
130.2070678261
 10
150.5437465899
 20
130.2360210793
 10
150.6068654764
 20
130.2617854121
 10
150.6709118862
 20
130.2841475269
 10
150.735901504
 20
130.3030549992
 10
150.801818645
 20
130.3185603903
 10
150.8679775674
 20
130.3306078717
 10
150.9341496905
 20
130.3391788575
 10
151.0005635951
 20
130.3442920035
 10
151.0672192809
 20
130.3459473269
  0
LWPOLYLINE
  5
368
100
AcDbEntity
  8
RACCORDO
100
AcDbPolyline
 62
250
  6
CONTINUOUS
 90
22
 70
0
 10
125.3055645295
 20
84.3106668168
 10
125.2730924316
 20
84.2520351825
 10
125.2376853511
 20
84.195278001
 10
125.1993432879
 20
84.1403951818
 10
125.1579413452
 20
84.0872013868
 10
125.1136044199
 20
84.0358817846
 10
125.0667072022
 20
83.9869920208
 10
125.0172227638
 20
83.9405731514
 10
124.9651780329
 20
83.8965839094
 10
124.911028485
 20
83.8554564182
 10
124.85474641
 20
83.8172254163
 10
124.7963595179
 20
83.7818559522
 10
124.7364064146
 20
83.7496755954
 10
124.6748537393
 20
83.7207223421
 10
124.6117348527
 20
83.6949580093
 10
124.5476884429
 20
83.6725958944
 10
124.482698825
 20
83.653688422
 10
124.4167816839
 20
83.6381830309
 10
124.3506227613
 20
83.6261355494
 10
124.2844506381
 20
83.6175645636
 10
124.2180367334
 20
83.6124514176
 10
124.1513810474
 20
83.6107960941
  0
LWPOLYLINE
  5
369
100
AcDbEntity
  8
ASSI
100
AcDbPolyline
 62
250
  6
CONTINUOUS
 90
22
 70
0
 10
125.3055645295
 20
84.3106668168
 10
125.2730924316
 20
84.2520351825
 10
125.2376853511
 20
84.195278001
 10
125.1993432879
 20
84.1403951818
 10
125.1579413452
 20
84.0872013868
 10
125.1136044199
 20
84.0358817846
 10
125.0667072022
 20
83.9869920208
 10
125.0172227638
 20
83.9405731514
 10
124.9651780329
 20
83.8965839094
 10
124.911028485
 20
83.8554564182
 10
124.85474641
 20
83.8172254163
 10
124.7963595179
 20
83.7818559522
 10
124.7364064146
 20
83.7496755954
 10
124.6748537393
 20
83.7207223421
 10
124.6117348527
 20
83.6949580093
 10
124.5476884429
 20
83.6725958944
 10
124.482698825
 20
83.653688422
 10
124.4167816839
 20
83.6381830309
 10
124.3506227613
 20
83.6261355494
 10
124.2844506381
 20
83.6175645636
 10
124.2180367334
 20
83.6124514176
 10
124.1513810474
 20
83.6107960941
  0
LWPOLYLINE
  5
36A
100
AcDbEntity
  8
RACCORDO
100
AcDbPolyline
 62
250
  6
CONTINUOUS
 90
22
 70
0
 10
124.8628621769
 20
84.5655763503
 10
124.8428726038
 20
84.5297245083
 10
124.8209928346
 20
84.4948471256
 10
124.7972651791
 20
84.4610466152
 10
124.7717269454
 20
84.4284117367
 10
124.7444412919
 20
84.3970548389
 10
124.7155035612
 20
84.3671060332
 10
124.6849847576
 20
84.3386552106
 10
124.6529593876
 20
84.3117870661
 10
124.619545735
 20
84.2866085287
 10
124.5848321814
 20
84.2631918203
 10
124.5489112558
 20
84.2416045656
 10
124.5119214328
 20
84.2219283974
 10
124.4739564126
 20
84.2042109574
 10
124.4351290854
 20
84.1885026987
 10
124.3956183217
 20
84.174864498
 10
124.355531958
 20
84.1633188958
 10
124.3149859763
 20
84.1538848855
 10
124.2741793515
 20
84.1465853537
 10
124.2332547185
 20
84.1414150844
 10
124.1922946681
 20
84.1383553957
 10
124.1514081911
 20
84.1373871538
  0
LWPOLYLINE
  5
36B
100
AcDbEntity
  8
ASSI
100
AcDbPolyline
 62
250
  6
CONTINUOUS
 90
22
 70
0
 10
124.8628621769
 20
84.5655763503
 10
124.8428726038
 20
84.5297245083
 10
124.8209928346
 20
84.4948471256
 10
124.7972651791
 20
84.4610466152
 10
124.7717269454
 20
84.4284117367
 10
124.7444412919
 20
84.3970548389
 10
124.7155035612
 20
84.3671060332
 10
124.6849847576
 20
84.3386552106
 10
124.6529593876
 20
84.3117870661
 10
124.619545735
 20
84.2866085287
 10
124.5848321814
 20
84.2631918203
 10
124.5489112558
 20
84.2416045656
 10
124.5119214328
 20
84.2219283974
 10
124.4739564126
 20
84.2042109574
 10
124.4351290854
 20
84.1885026987
 10
124.3956183217
 20
84.174864498
 10
124.355531958
 20
84.1633188958
 10
124.3149859763
 20
84.1538848855
 10
124.2741793515
 20
84.1465853537
 10
124.2332547185
 20
84.1414150844
 10
124.1922946681
 20
84.1383553957
 10
124.1514081911
 20
84.1373871538
  0
LWPOLYLINE
  5
36C
100
AcDbEntity
  8
RACCORDO
100
AcDbPolyline
 62
250
  6
CONTINUOUS
 90
22
 70
0
 10
150.3557381514
 20
129.3911670707
 10
150.3757277245
 20
129.4270189128
 10
150.3976074937
 20
129.4618962954
 10
150.4213351493
 20
129.4956968058
 10
150.446873383
 20
129.5283316844
 10
150.4741590365
 20
129.5596885823
 10
150.5030967672
 20
129.589637388
 10
150.5336155709
 20
129.6180882106
 10
150.565640941
 20
129.6449563552
 10
150.5990545938
 20
129.6701348926
 10
150.6337681474
 20
129.693551601
 10
150.669689073
 20
129.7151388557
 10
150.706678896
 20
129.7348150239
 10
150.7446439163
 20
129.7525324638
 10
150.7834712434
 20
129.7682407225
 10
150.8229820071
 20
129.7818789232
 10
150.8630683708
 20
129.7934245254
 10
150.9036143524
 20
129.8028585356
 10
150.9444209771
 20
129.8101580674
 10
150.98534561
 20
129.8153283367
 10
151.0263056603
 20
129.8183880254
 10
151.0671921372
 20
129.8193562673
  0
LWPOLYLINE
  5
36D
100
AcDbEntity
  8
ASSI
100
AcDbPolyline
 62
250
  6
CONTINUOUS
 90
22
 70
0
 10
150.3557381514
 20
129.3911670707
 10
150.3757277245
 20
129.4270189128
 10
150.3976074937
 20
129.4618962954
 10
150.4213351493
 20
129.4956968058
 10
150.446873383
 20
129.5283316844
 10
150.4741590365
 20
129.5596885823
 10
150.5030967672
 20
129.589637388
 10
150.5336155709
 20
129.6180882106
 10
150.565640941
 20
129.6449563552
 10
150.5990545938
 20
129.6701348926
 10
150.6337681474
 20
129.693551601
 10
150.669689073
 20
129.7151388557
 10
150.706678896
 20
129.7348150239
 10
150.7446439163
 20
129.7525324638
 10
150.7834712434
 20
129.7682407225
 10
150.8229820071
 20
129.7818789232
 10
150.8630683708
 20
129.7934245254
 10
150.9036143524
 20
129.8028585356
 10
150.9444209771
 20
129.8101580674
 10
150.98534561
 20
129.8153283367
 10
151.0263056603
 20
129.8183880254
 10
151.0671921372
 20
129.8193562673
  0
LWPOLYLINE
  5
36E
100
AcDbEntity
  8
RACCORDO
100
AcDbPolyline
 62
250
  6
CONTINUOUS
 90
14
 70
0
 10
79.1560654978
 20
84.4415553064
 10
79.1822911686
 20
84.4562910841
 10
79.2071002764
 20
84.4703932351
 10
79.2303622967
 20
84.4837875659
 10
79.2519548449
 20
84.4964036071
 10
79.2717643195
 20
84.5081749839
 10
79.2896864998
 20
84.5190397654
 10
79.3056270949
 20
84.5289407905
 10
79.319502239
 20
84.5378259683
 10
79.3312389329
 20
84.5456485529
 10
79.3407754282
 20
84.5523673884
 10
79.348061552
 20
84.5579471261
 10
79.3530589711
 20
84.5623584102
 10
79.3557413932
 20
84.5655780323
  0
LWPOLYLINE
  5
36F
100
AcDbEntity
  8
ASSI
100
AcDbPolyline
 62
250
  6
CONTINUOUS
 90
14
 70
0
 10
79.1560654978
 20
84.4415553064
 10
79.1822911686
 20
84.4562910841
 10
79.2071002764
 20
84.4703932351
 10
79.2303622967
 20
84.4837875659
 10
79.2519548449
 20
84.4964036071
 10
79.2717643195
 20
84.5081749839
 10
79.2896864998
 20
84.5190397654
 10
79.3056270949
 20
84.5289407905
 10
79.319502239
 20
84.5378259683
 10
79.3312389329
 20
84.5456485529
 10
79.3407754282
 20
84.5523673884
 10
79.348061552
 20
84.5579471261
 10
79.3530589711
 20
84.5623584102
 10
79.3557413932
 20
84.5655780323
  0
LINE
  5
370
100
AcDbEntity
  8
RACCORDO
100
AcDbLine
 62
250
  6
CONTINUOUS
 10
79.0999231017
 20
84.4104959046
 11
79.1560654978
 21
84.4415553064
  0
LINE
  5
371
100
AcDbEntity
  8
ASSI
100
AcDbLine
 62
250
  6
CONTINUOUS
 10
79.0999231017
 20
84.4104959046
 11
79.1560654978
 21
84.4415553064
  0
LINE
  5
372
100
AcDbEntity
  8
RACCORDO
100
AcDbLine
 62
250
  6
CONTINUOUS
 10
79.0398530266
 20
84.3778678017
 11
79.0999231017
 21
84.4104959046
  0
LINE
  5
373
100
AcDbEntity
  8
ASSI
100
AcDbLine
 62
250
  6
CONTINUOUS
 10
79.0398530266
 20
84.3778678017
 11
79.0999231017
 21
84.4104959046
  0
LWPOLYLINE
  5
374
100
AcDbEntity
  8
RACCORDO
100
AcDbPolyline
 62
250
  6
CONTINUOUS
 90
22
 70
0
 10
80.0672063586
 20
84.1373871776
 10
80.0264510427
 20
84.1383482783
 10
79.9856218237
 20
84.1413874148
 10
79.9448266443
 20
84.1465236295
 10
79.9041623467
 20
84.153772429
 10
79.8637547891
 20
84.1631406675
 10
79.8237570098
 20
84.1746197987
 10
79.7842595857
 20
84.1882079255
 10
79.7454000038
 20
84.2038823468
 10
79.7073943119
 20
84.2215719663
 10
79.6703659226
 20
84.2412219707
 10
79.6343990337
 20
84.2627902728
 10
79.5996368204
 20
84.286193627
 10
79.5661756007
 20
84.3113621993
 10
79.5341008601
 20
84.3382263019
 10
79.5035260162
 20
84.3666847196
 10
79.4745273182
 20
84.396653519
 10
79.4471771109
 20
84.4280439519
 10
79.4215672341
 20
84.4607337622
 10
79.3977621183
 20
84.4946143938
 10
79.3758039464
 20
84.5295958223
 10
79.3557381514
 20
84.5655763503
  0
LWPOLYLINE
  5
375
100
AcDbEntity
  8
ASSI
100
AcDbPolyline
 62
250
  6
CONTINUOUS
 90
22
 70
0
 10
80.0672063586
 20
84.1373871776
 10
80.0264510427
 20
84.1383482783
 10
79.9856218237
 20
84.1413874148
 10
79.9448266443
 20
84.1465236295
 10
79.9041623467
 20
84.153772429
 10
79.8637547891
 20
84.1631406675
 10
79.8237570098
 20
84.1746197987
 10
79.7842595857
 20
84.1882079255
 10
79.7454000038
 20
84.2038823468
 10
79.7073943119
 20
84.2215719663
 10
79.6703659226
 20
84.2412219707
 10
79.6343990337
 20
84.2627902728
 10
79.5996368204
 20
84.286193627
 10
79.5661756007
 20
84.3113621993
 10
79.5341008601
 20
84.3382263019
 10
79.5035260162
 20
84.3666847196
 10
79.4745273182
 20
84.396653519
 10
79.4471771109
 20
84.4280439519
 10
79.4215672341
 20
84.4607337622
 10
79.3977621183
 20
84.4946143938
 10
79.3758039464
 20
84.5295958223
 10
79.3557381514
 20
84.5655763503
  0
LWPOLYLINE
  5
376
100
AcDbEntity
  8
RACCORDO
100
AcDbPolyline
 62
250
  6
CONTINUOUS
 90
22
 70
0
 10
80.0672192809
 20
83.6107960941
 10
80.0008599488
 20
83.6124312171
 10
79.9347171239
 20
83.6175025653
 10
79.8687908062
 20
83.6260101558
 10
79.8028700002
 20
83.6379609572
 10
79.7371657014
 20
83.6533480696
 10
79.6723108964
 20
83.6721507243
 10
79.6082823502
 20
83.6944340869
 10
79.5451032979
 20
83.7201331285
 10
79.4834764307
 20
83.7490317994
 10
79.4234530455
 20
83.7811674262
 10
79.3649818456
 20
83.8165028694
 10
79.3086116322
 20
83.8547103773
 10
79.2543748286
 20
83.8958210315
 10
79.2022390115
 20
83.9398039639
 10
79.152655713
 20
83.98623848
 10
79.1056504832
 20
84.035163152
 10
79.0611977718
 20
84.0865396206
 10
79.0196724597
 20
84.139831758
 10
78.9811995069
 20
84.1948609036
 10
78.9456539533
 20
84.2518058922
 10
78.9130357988
 20
84.3106668168
  0
LWPOLYLINE
  5
377
100
AcDbEntity
  8
ASSI
100
AcDbPolyline
 62
250
  6
CONTINUOUS
 90
22
 70
0
 10
80.0672192809
 20
83.6107960941
 10
80.0008599488
 20
83.6124312171
 10
79.9347171239
 20
83.6175025653
 10
79.8687908062
 20
83.6260101558
 10
79.8028700002
 20
83.6379609572
 10
79.7371657014
 20
83.6533480696
 10
79.6723108964
 20
83.6721507243
 10
79.6082823502
 20
83.6944340869
 10
79.5451032979
 20
83.7201331285
 10
79.4834764307
 20
83.7490317994
 10
79.4234530455
 20
83.7811674262
 10
79.3649818456
 20
83.8165028694
 10
79.3086116322
 20
83.8547103773
 10
79.2543748286
 20
83.8958210315
 10
79.2022390115
 20
83.9398039639
 10
79.152655713
 20
83.98623848
 10
79.1056504832
 20
84.035163152
 10
79.0611977718
 20
84.0865396206
 10
79.0196724597
 20
84.139831758
 10
78.9811995069
 20
84.1948609036
 10
78.9456539533
 20
84.2518058922
 10
78.9130357988
 20
84.3106668168
  0
LINE
  5
378
100
AcDbEntity
  8
0
100
AcDbLine
 62
250
  6
CONTINUOUS
 10
75.2557251642
 20
112.8067687105
 11
75.4938181642
 21
112.7276547105
  0
LINE
  5
379
100
AcDbEntity
  8
0
100
AcDbLine
 62
250
  6
CONTINUOUS
 10
73.4105021642
 20
115.7658007105
 11
74.1247821642
 21
115.4701757105
  0
LINE
  5
37A
100
AcDbEntity
  8
0
100
AcDbLine
 62
250
  6
CONTINUOUS
 10
75.9700051642
 20
114.7259077105
 11
74.3628751642
 21
115.3910627105
  0
LINE
  5
37B
100
AcDbEntity
  8
0
100
AcDbLine
 62
250
  6
CONTINUOUS
 10
73.8866891642
 20
116.5983887105
 11
74.0652591642
 21
116.5244817105
  0
LINE
  5
37C
100
AcDbEntity
  8
0
100
AcDbLine
 62
250
  6
CONTINUOUS
 10
73.9462121642
 20
116.9428797105
 11
74.1247821642
 21
116.8689737105
  0
LINE
  5
37D
100
AcDbEntity
  8
0
100
AcDbLine
 62
250
  6
CONTINUOUS
 10
75.1366781642
 20
116.4890287105
 11
75.3152481642
 21
116.4151227105
  0
LINE
  5
37E
100
AcDbEntity
  8
0
100
AcDbLine
 62
250
  6
CONTINUOUS
 10
75.3747711642
 20
116.7596137105
 11
75.1962021642
 21
116.8335197105
  0
LINE
  5
37F
100
AcDbEntity
  8
0
100
AcDbLine
 62
250
  6
CONTINUOUS
 10
76.2080981642
 20
114.9382097105
 11
73.4105021642
 21
116.1154997105
  0
LINE
  5
380
100
AcDbEntity
  8
RACCORDO
100
AcDbLine
 62
250
  6
CONTINUOUS
 10
79.0398528967
 20
129.5788757015
 11
79.0999228858
 21
129.5462476349
  0
LINE
  5
381
100
AcDbEntity
  8
ASSI
100
AcDbLine
 62
250
  6
CONTINUOUS
 10
79.0398528967
 20
129.5788757015
 11
79.0999228858
 21
129.5462476349
  0
LWPOLYLINE
  5
382
100
AcDbEntity
  8
RACCORDO
100
AcDbPolyline
 62
250
  6
CONTINUOUS
 90
15
 70
0
 10
79.0999228858
 20
129.5462476349
 10
79.15606519
 20
129.5151882746
 10
79.1822908145
 20
129.5004525187
 10
79.2070998764
 20
129.4863503897
 10
79.2303618524
 20
129.4729560805
 10
79.2519543581
 20
129.4603400605
 10
79.2717637927
 20
129.4485687039
 10
79.2896859363
 20
129.4377039414
 10
79.3056264982
 20
129.4278029338
 10
79.3195016131
 20
129.4189177716
 10
79.3312382824
 20
129.4110952006
 10
79.3407747578
 20
129.4043763765
 10
79.3480608668
 20
129.3987966477
 10
79.3530582762
 20
129.3943853698
 10
79.3557406941
 20
129.3911657512
  0
LWPOLYLINE
  5
383
100
AcDbEntity
  8
ASSI
100
AcDbPolyline
 62
250
  6
CONTINUOUS
 90
15
 70
0
 10
79.0999228858
 20
129.5462476349
 10
79.15606519
 20
129.5151882746
 10
79.1822908145
 20
129.5004525187
 10
79.2070998764
 20
129.4863503897
 10
79.2303618524
 20
129.4729560805
 10
79.2519543581
 20
129.4603400605
 10
79.2717637927
 20
129.4485687039
 10
79.2896859363
 20
129.4377039414
 10
79.3056264982
 20
129.4278029338
 10
79.3195016131
 20
129.4189177716
 10
79.3312382824
 20
129.4110952006
 10
79.3407747578
 20
129.4043763765
 10
79.3480608668
 20
129.3987966477
 10
79.3530582762
 20
129.3943853698
 10
79.3557406941
 20
129.3911657512
  0
LWPOLYLINE
  5
384
100
AcDbEntity
  8
RACCORDO
100
AcDbPolyline
 62
250
  6
CONTINUOUS
 90
10
 70
0
 10
124.8628621769
 20
129.3911670707
 10
124.8814941976
 20
129.3532030087
 10
124.8981017894
 20
129.3142516149
 10
124.9126299589
 20
129.274418867
 10
124.9250367872
 20
129.233787181
 10
124.9352680397
 20
129.192494738
 10
124.9432717718
 20
129.1507387097
 10
124.9490261644
 20
129.1086657661
 10
124.9525251259
 20
129.0663682145
 10
124.9537628161
 20
129.0239657347
  0
LWPOLYLINE
  5
385
100
AcDbEntity
  8
ASSI
100
AcDbPolyline
 62
250
  6
CONTINUOUS
 90
10
 70
0
 10
124.8628621769
 20
129.3911670707
 10
124.8814941976
 20
129.3532030087
 10
124.8981017894
 20
129.3142516149
 10
124.9126299589
 20
129.274418867
 10
124.9250367872
 20
129.233787181
 10
124.9352680397
 20
129.192494738
 10
124.9432717718
 20
129.1507387097
 10
124.9490261644
 20
129.1086657661
 10
124.9525251259
 20
129.0663682145
 10
124.9537628161
 20
129.0239657347
  0
LWPOLYLINE
  5
386
100
AcDbEntity
  8
RACCORDO
100
AcDbPolyline
 62
250
  6
CONTINUOUS
 90
10
 70
0
 10
150.3557381514
 20
84.5655763503
 10
150.3371066445
 20
84.6035392899
 10
150.3204994188
 20
84.6424895784
 10
150.3059714744
 20
84.6823212517
 10
150.2935648287
 20
84.7229515769
 10
150.2833335997
 20
84.7642427057
 10
150.2753295768
 20
84.8059984916
 10
150.269574715
 20
84.8480726383
 10
150.2660753539
 20
84.8903725175
 10
150.26483751
 20
84.9327784434
  0
LWPOLYLINE
  5
387
100
AcDbEntity
  8
ASSI
100
AcDbPolyline
 62
250
  6
CONTINUOUS
 90
10
 70
0
 10
150.3557381514
 20
84.5655763503
 10
150.3371066445
 20
84.6035392899
 10
150.3204994188
 20
84.6424895784
 10
150.3059714744
 20
84.6823212517
 10
150.2935648287
 20
84.7229515769
 10
150.2833335997
 20
84.7642427057
 10
150.2753295768
 20
84.8059984916
 10
150.269574715
 20
84.8480726383
 10
150.2660753539
 20
84.8903725175
 10
150.26483751
 20
84.9327784434
  0
LWPOLYLINE
  5
388
100
AcDbEntity
  8
RACCORDO
100
AcDbPolyline
 62
250
  6
CONTINUOUS
 90
10
 70
0
 10
125.3055645295
 20
129.6460766042
 10
125.3358790141
 20
129.5841118045
 10
125.3627648142
 20
129.5208511288
 10
125.3862219298
 20
129.4562945507
 10
125.4063201595
 20
129.3901934038
 10
125.4229897047
 20
129.3227962972
 10
125.4360211694
 20
129.2548491344
 10
125.4453447547
 20
129.1866005499
 10
125.4510302594
 20
129.1178018912
 10
125.4530776835
 20
129.0484531474
  0
LWPOLYLINE
  5
389
100
AcDbEntity
  8
ASSI
100
AcDbPolyline
 62
250
  6
CONTINUOUS
 90
10
 70
0
 10
125.3055645295
 20
129.6460766042
 10
125.3358790141
 20
129.5841118045
 10
125.3627648142
 20
129.5208511288
 10
125.3862219298
 20
129.4562945507
 10
125.4063201595
 20
129.3901934038
 10
125.4229897047
 20
129.3227962972
 10
125.4360211694
 20
129.2548491344
 10
125.4453447547
 20
129.1866005499
 10
125.4510302594
 20
129.1178018912
 10
125.4530776835
 20
129.0484531474
  0
LWPOLYLINE
  5
38A
100
AcDbEntity
  8
RACCORDO
100
AcDbPolyline
 62
250
  6
CONTINUOUS
 90
10
 70
0
 10
149.9130357989
 20
84.3106668168
 10
149.8827222492
 20
84.3726293042
 10
149.8558371547
 20
84.4358876632
 10
149.8323805152
 20
84.5004419198
 10
149.8122825379
 20
84.5665399638
 10
149.7956130156
 20
84.6339339629
 10
149.7825813272
 20
84.7018803442
 10
149.7732572658
 20
84.7701312501
 10
149.7675710383
 20
84.8389345563
 10
149.7655226448
 20
84.9082902736
  0
LWPOLYLINE
  5
38B
100
AcDbEntity
  8
ASSI
100
AcDbPolyline
 62
250
  6
CONTINUOUS
 90
10
 70
0
 10
149.9130357989
 20
84.3106668168
 10
149.8827222492
 20
84.3726293042
 10
149.8558371547
 20
84.4358876632
 10
149.8323805152
 20
84.5004419198
 10
149.8122825379
 20
84.5665399638
 10
149.7956130156
 20
84.6339339629
 10
149.7825813272
 20
84.7018803442
 10
149.7732572658
 20
84.7701312501
 10
149.7675710383
 20
84.8389345563
 10
149.7655226448
 20
84.9082902736
  0
LINE
  5
38C
100
AcDbEntity
  8
RACCORDO
100
AcDbLine
 62
250
  6
CONTINUOUS
 10
149.7655226448
 20
84.9082902736
 11
149.7497740776
 21
92.2617033832
  0
LINE
  5
38D
100
AcDbEntity
  8
ASSI
100
AcDbLine
 62
250
  6
CONTINUOUS
 10
149.7655226448
 20
84.9082902736
 11
149.7497740776
 21
92.2617033832
  0
LINE
  5
38E
100
AcDbEntity
  8
RACCORDO
100
AcDbLine
 62
250
  6
CONTINUOUS
 10
150.2648374781
 20
84.9327784122
 11
150.2490888744
 21
92.2783632666
  0
LINE
  5
38F
100
AcDbEntity
  8
ASSI
100
AcDbLine
 62
250
  6
CONTINUOUS
 10
150.2648374781
 20
84.9327784122
 11
150.2490888744
 21
92.2783632666
  0
LINE
  5
390
100
AcDbEntity
  8
RACCORDO
100
AcDbLine
 62
250
  6
CONTINUOUS
 10
149.7497740776
 20
92.2617033832
 11
149.7403242104
 21
99.6190531736
  0
LINE
  5
391
100
AcDbEntity
  8
ASSI
100
AcDbLine
 62
250
  6
CONTINUOUS
 10
149.7497740776
 20
92.2617033832
 11
149.7403242104
 21
99.6190531736
  0
LINE
  5
392
100
AcDbEntity
  8
RACCORDO
100
AcDbLine
 62
250
  6
CONTINUOUS
 10
150.2490888744
 20
92.2783632666
 11
150.2396389847
 21
99.627141612
  0
LINE
  5
393
100
AcDbEntity
  8
ASSI
100
AcDbLine
 62
250
  6
CONTINUOUS
 10
150.2490888744
 20
92.2783632666
 11
150.2396389847
 21
99.627141612
  0
LINE
  5
394
100
AcDbEntity
  8
RACCORDO
100
AcDbLine
 62
250
  6
CONTINUOUS
 10
149.7403242104
 20
99.6190531736
 11
149.7371735172
 21
106.9783716713
  0
LINE
  5
395
100
AcDbEntity
  8
ASSI
100
AcDbLine
 62
250
  6
CONTINUOUS
 10
149.7403242104
 20
99.6190531736
 11
149.7371735172
 21
106.9783716713
  0
LINE
  5
396
100
AcDbEntity
  8
RACCORDO
100
AcDbLine
 62
250
  6
CONTINUOUS
 10
150.2396389847
 20
99.627141612
 11
150.2364882846
 21
106.9783764813
  0
LINE
  5
397
100
AcDbEntity
  8
ASSI
100
AcDbLine
 62
250
  6
CONTINUOUS
 10
150.2396389847
 20
99.627141612
 11
150.2364882846
 21
106.9783764813
  0
LINE
  5
398
100
AcDbEntity
  8
0
100
AcDbLine
 62
7
  6
CONTINUOUS
 10
150.4093001642
 20
85.0772753383
 11
150.4093001642
 21
128.8794680827
  0
LINE
  5
399
100
AcDbEntity
  8
ASSI
100
AcDbLine
 62
7
  6
CONTINUOUS
 10
150.4093001642
 20
85.0772753383
 11
150.4093001642
 21
128.8794680827
  0
LINE
  5
39A
100
AcDbEntity
  8
RACCORDO
100
AcDbLine
 62
250
  6
CONTINUOUS
 10
151.0672192809
 20
130.3459473269
 11
151.0672192809
 21
129.8193562215
  0
LINE
  5
39B
100
AcDbEntity
  8
ASSI
100
AcDbLine
 62
250
  6
CONTINUOUS
 10
151.0672192809
 20
130.3459473269
 11
151.0672192809
 21
129.8193562215
  0
LINE
  5
39C
100
AcDbEntity
  8
RACCORDO
100
AcDbLine
 62
250
  6
CONTINUOUS
 10
151.0672192809
 20
83.6107960941
 11
151.0672192809
 21
84.1373871995
  0
LINE
  5
39D
100
AcDbEntity
  8
ASSI
100
AcDbLine
 62
250
  6
CONTINUOUS
 10
151.0672192809
 20
83.6107960941
 11
151.0672192809
 21
84.1373871995
  0
LINE
  5
39E
100
AcDbEntity
  8
RACCORDO
100
AcDbLine
 62
250
  6
CONTINUOUS
 10
149.7371735172
 20
106.9783716713
 11
149.7403242102
 21
114.3376901764
  0
LINE
  5
39F
100
AcDbEntity
  8
ASSI
100
AcDbLine
 62
250
  6
CONTINUOUS
 10
149.7371735172
 20
106.9783716713
 11
149.7403242102
 21
114.3376901764
  0
LINE
  5
3A0
100
AcDbEntity
  8
RACCORDO
100
AcDbLine
 62
250
  6
CONTINUOUS
 10
150.2364882846
 20
106.9783764813
 11
150.2396389976
 21
114.3296135949
  0
LINE
  5
3A1
100
AcDbEntity
  8
ASSI
100
AcDbLine
 62
250
  6
CONTINUOUS
 10
150.2364882846
 20
106.9783764813
 11
150.2396389976
 21
114.3296135949
  0
LINE
  5
3A2
100
AcDbEntity
  8
RACCORDO
100
AcDbLine
 62
250
  6
CONTINUOUS
 10
149.7403242102
 20
114.3376901764
 11
149.7497740774
 21
121.6950399928
  0
LINE
  5
3A3
100
AcDbEntity
  8
ASSI
100
AcDbLine
 62
250
  6
CONTINUOUS
 10
149.7403242102
 20
114.3376901764
 11
149.7497740774
 21
121.6950399928
  0
LINE
  5
3A4
100
AcDbEntity
  8
RACCORDO
100
AcDbLine
 62
250
  6
CONTINUOUS
 10
150.2396389976
 20
114.3296135949
 11
150.2490888758
 21
121.6783827306
  0
LINE
  5
3A5
100
AcDbEntity
  8
ASSI
100
AcDbLine
 62
250
  6
CONTINUOUS
 10
150.2396389976
 20
114.3296135949
 11
150.2490888758
 21
121.6783827306
  0
LINE
  5
3A6
100
AcDbEntity
  8
RACCORDO
100
AcDbLine
 62
250
  6
CONTINUOUS
 10
149.7497740774
 20
121.6950399928
 11
149.7655226448
 21
129.0484531474
  0
LINE
  5
3A7
100
AcDbEntity
  8
ASSI
100
AcDbLine
 62
250
  6
CONTINUOUS
 10
149.7497740774
 20
121.6950399928
 11
149.7655226448
 21
129.0484531474
  0
LINE
  5
3A8
100
AcDbEntity
  8
RACCORDO
100
AcDbLine
 62
250
  6
CONTINUOUS
 10
150.2490888758
 20
121.6783827306
 11
150.2648374366
 21
129.023943505
  0
LINE
  5
3A9
100
AcDbEntity
  8
ASSI
100
AcDbLine
 62
250
  6
CONTINUOUS
 10
150.2490888758
 20
121.6783827306
 11
150.2648374366
 21
129.023943505
  0
LWPOLYLINE
  5
3AA
100
AcDbEntity
  8
RACCORDO
100
AcDbPolyline
 62
250
  6
CONTINUOUS
 90
10
 70
0
 10
150.2648374483
 20
129.0239434935
 10
150.2660735057
 20
129.0663378496
 10
150.2695694695
 20
129.1086229313
 10
150.2753187962
 20
129.1506792227
 10
150.2833126454
 20
129.192405321
 10
150.2935296066
 20
129.2336644454
 10
150.3059262572
 20
129.2742870864
 10
150.3204556205
 20
129.3141429336
 10
150.3370767862
 20
129.3531388723
 10
150.3557381514
 20
129.3911670707
  0
LWPOLYLINE
  5
3AB
100
AcDbEntity
  8
ASSI
100
AcDbPolyline
 62
250
  6
CONTINUOUS
 90
10
 70
0
 10
150.2648374483
 20
129.0239434935
 10
150.2660735057
 20
129.0663378496
 10
150.2695694695
 20
129.1086229313
 10
150.2753187962
 20
129.1506792227
 10
150.2833126454
 20
129.192405321
 10
150.2935296066
 20
129.2336644454
 10
150.3059262572
 20
129.2742870864
 10
150.3204556205
 20
129.3141429336
 10
150.3370767862
 20
129.3531388723
 10
150.3557381514
 20
129.3911670707
  0
LWPOLYLINE
  5
3AC
100
AcDbEntity
  8
RACCORDO
100
AcDbPolyline
 62
250
  6
CONTINUOUS
 90
10
 70
0
 10
149.7655226448
 20
129.0484531474
 10
149.7675602753
 20
129.1177036
 10
149.7732325344
 20
129.186421183
 10
149.7825394223
 20
129.254605907
 10
149.7955428705
 20
129.3224966129
 10
149.8121809473
 20
129.3898544769
 10
149.8322678581
 20
129.4559630287
 10
149.8557416711
 20
129.5205834692
 10
149.882664318
 20
129.5839546526
 10
149.9130357989
 20
129.6460766042
  0
LWPOLYLINE
  5
3AD
100
AcDbEntity
  8
ASSI
100
AcDbPolyline
 62
250
  6
CONTINUOUS
 90
10
 70
0
 10
149.7655226448
 20
129.0484531474
 10
149.7675602753
 20
129.1177036
 10
149.7732325344
 20
129.186421183
 10
149.7825394223
 20
129.254605907
 10
149.7955428705
 20
129.3224966129
 10
149.8121809473
 20
129.3898544769
 10
149.8322678581
 20
129.4559630287
 10
149.8557416711
 20
129.5205834692
 10
149.882664318
 20
129.5839546526
 10
149.9130357989
 20
129.6460766042
  0
LINE
  5
3AE
100
AcDbEntity
  8
RACCORDO
100
AcDbLine
 62
250
  6
CONTINUOUS
 10
78.977117759
 20
84.3443567389
 11
79.0398530266
 21
84.3778678017
  0
LINE
  5
3AF
100
AcDbEntity
  8
ASSI
100
AcDbLine
 62
250
  6
CONTINUOUS
 10
78.977117759
 20
84.3443567389
 11
79.0398530266
 21
84.3778678017
  0
LINE
  5
3B0
100
AcDbEntity
  8
RACCORDO
100
AcDbLine
 62
250
  6
CONTINUOUS
 10
78.913035799
 20
84.3106670145
 11
78.977117759
 21
84.3443567389
  0
LINE
  5
3B1
100
AcDbEntity
  8
ASSI
100
AcDbLine
 62
250
  6
CONTINUOUS
 10
78.913035799
 20
84.3106670145
 11
78.977117759
 21
84.3443567389
  0
LINE
  5
3B2
100
AcDbEntity
  8
0
100
AcDbLine
 62
250
  6
CONTINUOUS
 10
74.7795381642
 20
103.5231097105
 11
73.4105021642
 21
103.1183357105
  0
LINE
  5
3B3
100
AcDbEntity
  8
0
100
AcDbLine
 62
250
  6
CONTINUOUS
 10
73.4105021642
 20
103.5263187105
 11
74.6604921642
 21
103.8832247105
  0
LWPOLYLINE
  5
3B4
100
AcDbEntity
  8
RACCORDO
100
AcDbPolyline
 62
250
  6
CONTINUOUS
 90
15
 70
0
 10
221.0079358437
 20
84.9119874685
 10
221.0388960063
 20
84.9129819428
 10
221.0684274142
 20
84.9140800596
 10
221.0963757248
 20
84.9152760799
 10
221.1225948696
 20
84.9165637527
 10
221.1469478172
 20
84.9179363482
 10
221.1693072897
 20
84.9193866926
 10
221.1895564278
 20
84.920907206
 10
221.2075894017
 20
84.9224899414
 10
221.2233119641
 20
84.924126627
 10
221.236641943
 20
84.9258087088
 10
221.2475096706
 20
84.9275273956
 10
221.255858348
 20
84.9292737048
 10
221.2616443418
 20
84.9310385096
 10
221.2648374122
 20
84.9328125863
  0
LWPOLYLINE
  5
3B5
100
AcDbEntity
  8
ASSI
100
AcDbPolyline
 62
250
  6
CONTINUOUS
 90
15
 70
0
 10
221.0079358437
 20
84.9119874685
 10
221.0388960063
 20
84.9129819428
 10
221.0684274142
 20
84.9140800596
 10
221.0963757248
 20
84.9152760799
 10
221.1225948696
 20
84.9165637527
 10
221.1469478172
 20
84.9179363482
 10
221.1693072897
 20
84.9193866926
 10
221.1895564278
 20
84.920907206
 10
221.2075894017
 20
84.9224899414
 10
221.2233119641
 20
84.924126627
 10
221.236641943
 20
84.9258087088
 10
221.2475096706
 20
84.9275273956
 10
221.255858348
 20
84.9292737048
 10
221.2616443418
 20
84.9310385096
 10
221.2648374122
 20
84.9328125863
  0
LWPOLYLINE
  5
3B6
100
AcDbEntity
  8
RACCORDO
100
AcDbPolyline
 62
250
  6
CONTINUOUS
 90
15
 70
0
 10
150.0079358437
 20
84.9119874685
 10
150.0388960063
 20
84.9129819428
 10
150.0684274142
 20
84.9140800596
 10
150.0963757248
 20
84.9152760799
 10
150.1225948696
 20
84.9165637527
 10
150.1469478172
 20
84.9179363482
 10
150.1693072897
 20
84.9193866926
 10
150.1895564278
 20
84.920907206
 10
150.2075894017
 20
84.9224899414
 10
150.2233119641
 20
84.924126627
 10
150.236641943
 20
84.9258087088
 10
150.2475096706
 20
84.9275273956
 10
150.255858348
 20
84.9292737048
 10
150.2616443418
 20
84.9310385096
 10
150.2648374122
 20
84.9328125863
  0
LWPOLYLINE
  5
3B7
100
AcDbEntity
  8
ASSI
100
AcDbPolyline
 62
250
  6
CONTINUOUS
 90
15
 70
0
 10
150.0079358437
 20
84.9119874685
 10
150.0388960063
 20
84.9129819428
 10
150.0684274142
 20
84.9140800596
 10
150.0963757248
 20
84.9152760799
 10
150.1225948696
 20
84.9165637527
 10
150.1469478172
 20
84.9179363482
 10
150.1693072897
 20
84.9193866926
 10
150.1895564278
 20
84.920907206
 10
150.2075894017
 20
84.9224899414
 10
150.2233119641
 20
84.924126627
 10
150.236641943
 20
84.9258087088
 10
150.2475096706
 20
84.9275273956
 10
150.255858348
 20
84.9292737048
 10
150.2616443418
 20
84.9310385096
 10
150.2648374122
 20
84.9328125863
  0
LWPOLYLINE
  5
3B8
100
AcDbEntity
  8
RACCORDO
100
AcDbPolyline
 62
250
  6
CONTINUOUS
 90
15
 70
0
 10
79.0079358437
 20
84.9119874685
 10
79.0388960063
 20
84.9129819428
 10
79.0684274142
 20
84.9140800596
 10
79.0963757248
 20
84.9152760799
 10
79.1225948696
 20
84.9165637527
 10
79.1469478172
 20
84.9179363482
 10
79.1693072897
 20
84.9193866926
 10
79.1895564278
 20
84.920907206
 10
79.2075894017
 20
84.9224899414
 10
79.2233119641
 20
84.924126627
 10
79.236641943
 20
84.9258087088
 10
79.2475096706
 20
84.9275273956
 10
79.255858348
 20
84.9292737048
 10
79.2616443418
 20
84.9310385096
 10
79.2648374122
 20
84.9328125863
  0
LWPOLYLINE
  5
3B9
100
AcDbEntity
  8
ASSI
100
AcDbPolyline
 62
250
  6
CONTINUOUS
 90
15
 70
0
 10
79.0079358437
 20
84.9119874685
 10
79.0388960063
 20
84.9129819428
 10
79.0684274142
 20
84.9140800596
 10
79.0963757248
 20
84.9152760799
 10
79.1225948696
 20
84.9165637527
 10
79.1469478172
 20
84.9179363482
 10
79.1693072897
 20
84.9193866926
 10
79.1895564278
 20
84.920907206
 10
79.2075894017
 20
84.9224899414
 10
79.2233119641
 20
84.924126627
 10
79.236641943
 20
84.9258087088
 10
79.2475096706
 20
84.9275273956
 10
79.255858348
 20
84.9292737048
 10
79.2616443418
 20
84.9310385096
 10
79.2648374122
 20
84.9328125863
  0
LINE
  5
3BA
100
AcDbEntity
  8
RACCORDO
100
AcDbLine
 62
250
  6
CONTINUOUS
 10
220.9423831152
 20
84.910329669
 11
221.0079358437
 21
84.9119874685
  0
LINE
  5
3BB
100
AcDbEntity
  8
ASSI
100
AcDbLine
 62
250
  6
CONTINUOUS
 10
220.9423831152
 20
84.910329669
 11
221.0079358437
 21
84.9119874685
  0
LINE
  5
3BC
100
AcDbEntity
  8
RACCORDO
100
AcDbLine
 62
250
  6
CONTINUOUS
 10
149.9423831152
 20
84.910329669
 11
150.0079358437
 21
84.9119874685
  0
LINE
  5
3BD
100
AcDbEntity
  8
ASSI
100
AcDbLine
 62
250
  6
CONTINUOUS
 10
149.9423831152
 20
84.910329669
 11
150.0079358437
 21
84.9119874685
  0
LINE
  5
3BE
100
AcDbEntity
  8
RACCORDO
100
AcDbLine
 62
250
  6
CONTINUOUS
 10
78.9423831152
 20
84.910329669
 11
79.0079358437
 21
84.9119874685
  0
LINE
  5
3BF
100
AcDbEntity
  8
ASSI
100
AcDbLine
 62
250
  6
CONTINUOUS
 10
78.9423831152
 20
84.910329669
 11
79.0079358437
 21
84.9119874685
  0
LINE
  5
3C0
100
AcDbEntity
  8
RACCORDO
100
AcDbLine
 62
250
  6
CONTINUOUS
 10
220.8731378534
 20
84.909141273
 11
220.9423831152
 21
84.910329669
  0
LINE
  5
3C1
100
AcDbEntity
  8
ASSI
100
AcDbLine
 62
250
  6
CONTINUOUS
 10
220.8731378534
 20
84.909141273
 11
220.9423831152
 21
84.910329669
  0
LINE
  5
3C2
100
AcDbEntity
  8
RACCORDO
100
AcDbLine
 62
250
  6
CONTINUOUS
 10
149.8731378534
 20
84.909141273
 11
149.9423831152
 21
84.910329669
  0
LINE
  5
3C3
100
AcDbEntity
  8
ASSI
100
AcDbLine
 62
250
  6
CONTINUOUS
 10
149.8731378534
 20
84.909141273
 11
149.9423831152
 21
84.910329669
  0
LINE
  5
3C4
100
AcDbEntity
  8
RACCORDO
100
AcDbLine
 62
250
  6
CONTINUOUS
 10
78.8731378534
 20
84.909141273
 11
78.9423831152
 21
84.910329669
  0
LINE
  5
3C5
100
AcDbEntity
  8
ASSI
100
AcDbLine
 62
250
  6
CONTINUOUS
 10
78.8731378534
 20
84.909141273
 11
78.9423831152
 21
84.910329669
  0
LWPOLYLINE
  5
3C6
100
AcDbEntity
  8
RACCORDO
100
AcDbPolyline
 62
250
  6
CONTINUOUS
 90
17
 70
0
 10
288.6024471594
 20
84.3110142255
 10
288.6271873407
 20
84.3113462569
 10
288.6513932447
 20
84.31178094
 10
288.6748927045
 20
84.3123151831
 10
288.6975185775
 20
84.3129451862
 10
288.7191099351
 20
84.3136664686
 10
288.7395132063
 20
84.3144738998
 10
288.7585832707
 20
84.3153617371
 10
288.7761844906
 20
84.3163236656
 10
288.7921916754
 20
84.3173528434
 10
288.8064909722
 20
84.3184419505
 10
288.818980676
 20
84.3195832403
 10
288.8295719522
 20
84.3207685955
 10
288.8381894695
 20
84.321989585
 10
288.8447719347
 20
84.3232375245
 10
288.8492725294
 20
84.3245035377
 10
288.8516592427
 20
84.3257786201
  0
LWPOLYLINE
  5
3C7
100
AcDbEntity
  8
ASSI
100
AcDbPolyline
 62
250
  6
CONTINUOUS
 90
17
 70
0
 10
288.6024471594
 20
84.3110142255
 10
288.6271873407
 20
84.3113462569
 10
288.6513932447
 20
84.31178094
 10
288.6748927045
 20
84.3123151831
 10
288.6975185775
 20
84.3129451862
 10
288.7191099351
 20
84.3136664686
 10
288.7395132063
 20
84.3144738998
 10
288.7585832707
 20
84.3153617371
 10
288.7761844906
 20
84.3163236656
 10
288.7921916754
 20
84.3173528434
 10
288.8064909722
 20
84.3184419505
 10
288.818980676
 20
84.3195832403
 10
288.8295719522
 20
84.3207685955
 10
288.8381894695
 20
84.321989585
 10
288.8447719347
 20
84.3232375245
 10
288.8492725294
 20
84.3245035377
 10
288.8516592427
 20
84.3257786201
  0
LINE
  5
3C8
100
AcDbEntity
  8
RACCORDO
100
AcDbLine
 62
250
  6
CONTINUOUS
 10
288.5520703822
 20
84.3106668174
 11
288.6024471594
 21
84.3110142255
  0
LINE
  5
3C9
100
AcDbEntity
  8
ASSI
100
AcDbLine
 62
250
  6
CONTINUOUS
 10
288.5520703822
 20
84.3106668174
 11
288.6024471594
 21
84.3110142255
  0
LWPOLYLINE
  5
3CA
100
AcDbEntity
  8
RACCORDO
100
AcDbPolyline
 62
250
  6
CONTINUOUS
 90
3
 70
0
 10
220.7655226448
 20
84.9082902743
 10
220.8016457766
 20
84.9084470921
 10
220.8731378534
 20
84.909141273
  0
LWPOLYLINE
  5
3CB
100
AcDbEntity
  8
ASSI
100
AcDbPolyline
 62
250
  6
CONTINUOUS
 90
3
 70
0
 10
220.7655226448
 20
84.9082902743
 10
220.8016457766
 20
84.9084470921
 10
220.8731378534
 20
84.909141273
  0
LWPOLYLINE
  5
3CC
100
AcDbEntity
  8
RACCORDO
100
AcDbPolyline
 62
250
  6
CONTINUOUS
 90
3
 70
0
 10
149.7655226448
 20
84.9082902743
 10
149.8016457766
 20
84.9084470921
 10
149.8731378534
 20
84.909141273
  0
LWPOLYLINE
  5
3CD
100
AcDbEntity
  8
ASSI
100
AcDbPolyline
 62
250
  6
CONTINUOUS
 90
3
 70
0
 10
149.7655226448
 20
84.9082902743
 10
149.8016457766
 20
84.9084470921
 10
149.8731378534
 20
84.909141273
  0
LWPOLYLINE
  5
3CE
100
AcDbEntity
  8
RACCORDO
100
AcDbPolyline
 62
250
  6
CONTINUOUS
 90
3
 70
0
 10
78.7655226448
 20
84.9082902743
 10
78.8016457766
 20
84.9084470921
 10
78.8731378534
 20
84.909141273
  0
LWPOLYLINE
  5
3CF
100
AcDbEntity
  8
ASSI
100
AcDbPolyline
 62
250
  6
CONTINUOUS
 90
3
 70
0
 10
78.7655226448
 20
84.9082902743
 10
78.8016457766
 20
84.9084470921
 10
78.8731378534
 20
84.909141273
  0
LINE
  5
3D0
100
AcDbEntity
  8
RACCORDO
100
AcDbLine
 62
250
  6
CONTINUOUS
 10
266.1513810474
 20
83.6107960941
 11
222.0672192809
 21
83.6107960941
  0
LINE
  5
3D1
100
AcDbEntity
  8
ASSI
100
AcDbLine
 62
250
  6
CONTINUOUS
 10
266.1513810474
 20
83.6107960941
 11
222.0672192809
 21
83.6107960941
  0
LINE
  5
3D2
100
AcDbEntity
  8
RACCORDO
100
AcDbLine
 62
250
  6
CONTINUOUS
 10
195.1513810474
 20
83.6107960941
 11
151.0672192809
 21
83.6107960941
  0
LINE
  5
3D3
100
AcDbEntity
  8
ASSI
100
AcDbLine
 62
250
  6
CONTINUOUS
 10
195.1513810474
 20
83.6107960941
 11
151.0672192809
 21
83.6107960941
  0
LINE
  5
3D4
100
AcDbEntity
  8
RACCORDO
100
AcDbLine
 62
250
  6
CONTINUOUS
 10
124.1513810474
 20
83.6107960941
 11
80.0672192809
 21
83.6107960941
  0
LINE
  5
3D5
100
AcDbEntity
  8
ASSI
100
AcDbLine
 62
250
  6
CONTINUOUS
 10
124.1513810474
 20
83.6107960941
 11
80.0672192809
 21
83.6107960941
  0
LINE
  5
3D6
100
AcDbEntity
  8
RACCORDO
100
AcDbLine
 62
250
  6
CONTINUOUS
 10
266.1514081449
 20
84.1373871995
 11
222.0672063806
 21
84.1373871995
  0
LINE
  5
3D7
100
AcDbEntity
  8
ASSI
100
AcDbLine
 62
250
  6
CONTINUOUS
 10
266.1514081449
 20
84.1373871995
 11
222.0672063806
 21
84.1373871995
  0
LINE
  5
3D8
100
AcDbEntity
  8
RACCORDO
100
AcDbLine
 62
250
  6
CONTINUOUS
 10
195.1514081449
 20
84.1373871995
 11
151.0672063806
 21
84.1373871995
  0
LINE
  5
3D9
100
AcDbEntity
  8
ASSI
100
AcDbLine
 62
250
  6
CONTINUOUS
 10
195.1514081449
 20
84.1373871995
 11
151.0672063806
 21
84.1373871995
  0
LINE
  5
3DA
100
AcDbEntity
  8
RACCORDO
100
AcDbLine
 62
250
  6
CONTINUOUS
 10
124.1514081449
 20
84.1373871995
 11
80.0672063806
 21
84.1373871995
  0
LINE
  5
3DB
100
AcDbEntity
  8
ASSI
100
AcDbLine
 62
250
  6
CONTINUOUS
 10
124.1514081449
 20
84.1373871995
 11
80.0672063806
 21
84.1373871995
  0
LINE
  5
3DC
100
AcDbEntity
  8
0
100
AcDbLine
 62
7
  6
CONTINUOUS
 10
266.0103965364
 20
84.2783717105
 11
222.208203792
 21
84.2783717105
  0
LINE
  5
3DD
100
AcDbEntity
  8
ASSI
100
AcDbLine
 62
7
  6
CONTINUOUS
 10
266.0103965364
 20
84.2783717105
 11
222.208203792
 21
84.2783717105
  0
LINE
  5
3DE
100
AcDbEntity
  8
0
100
AcDbLine
 62
7
  6
CONTINUOUS
 10
195.0103965364
 20
84.2783717105
 11
151.208203792
 21
84.2783717105
  0
LINE
  5
3DF
100
AcDbEntity
  8
ASSI
100
AcDbLine
 62
7
  6
CONTINUOUS
 10
195.0103965364
 20
84.2783717105
 11
151.208203792
 21
84.2783717105
  0
LINE
  5
3E0
100
AcDbEntity
  8
0
100
AcDbLine
 62
7
  6
CONTINUOUS
 10
124.0103965364
 20
84.2783717105
 11
80.208203792
 21
84.2783717105
  0
LINE
  5
3E1
100
AcDbEntity
  8
ASSI
100
AcDbLine
 62
7
  6
CONTINUOUS
 10
124.0103965364
 20
84.2783717105
 11
80.208203792
 21
84.2783717105
  0
LINE
  5
3E2
100
AcDbEntity
  8
RACCORDO
100
AcDbLine
 62
250
  6
CONTINUOUS
 10
57.6665301619
 20
84.3107243216
 11
78.9130357988
 21
84.3106668168
  0
LINE
  5
3E3
100
AcDbEntity
  8
ASSI
100
AcDbLine
 62
250
  6
CONTINUOUS
 10
57.6665301619
 20
84.3107243216
 11
78.9130357988
 21
84.3106668168
  0
LINE
  5
3E4
100
AcDbEntity
  8
RACCORDO
100
AcDbLine
 62
250
  6
CONTINUOUS
 10
267.3055645295
 20
84.3106668168
 11
288.552070167
 21
84.3107241738
  0
LINE
  5
3E5
100
AcDbEntity
  8
ASSI
100
AcDbLine
 62
250
  6
CONTINUOUS
 10
267.3055645295
 20
84.3106668168
 11
288.552070167
 21
84.3107241738
  0
LINE
  5
3E6
100
AcDbEntity
  8
RACCORDO
100
AcDbLine
 62
250
  6
CONTINUOUS
 10
125.3055645295
 20
84.3106668168
 11
149.9130357989
 21
84.3106668168
  0
LINE
  5
3E7
100
AcDbEntity
  8
ASSI
100
AcDbLine
 62
250
  6
CONTINUOUS
 10
125.3055645295
 20
84.3106668168
 11
149.9130357989
 21
84.3106668168
  0
LINE
  5
3E8
100
AcDbEntity
  8
RACCORDO
100
AcDbLine
 62
250
  6
CONTINUOUS
 10
196.3055645295
 20
84.3106668168
 11
220.9130357989
 21
84.3106668168
  0
LINE
  5
3E9
100
AcDbEntity
  8
ASSI
100
AcDbLine
 62
250
  6
CONTINUOUS
 10
196.3055645295
 20
84.3106668168
 11
220.9130357989
 21
84.3106668168
  0
LINE
  5
3EA
100
AcDbEntity
  8
RACCORDO
100
AcDbLine
 62
250
  6
CONTINUOUS
 10
125.4530776835
 20
84.9082904377
 11
125.3810199932
 21
84.9087313833
  0
LINE
  5
3EB
100
AcDbEntity
  8
ASSI
100
AcDbLine
 62
250
  6
CONTINUOUS
 10
125.4530776835
 20
84.9082904377
 11
125.3810199932
 21
84.9087313833
  0
LINE
  5
3EC
100
AcDbEntity
  8
RACCORDO
100
AcDbLine
 62
250
  6
CONTINUOUS
 10
196.4530776835
 20
84.9082904377
 11
196.3810199932
 21
84.9087313833
  0
LINE
  5
3ED
100
AcDbEntity
  8
ASSI
100
AcDbLine
 62
250
  6
CONTINUOUS
 10
196.4530776835
 20
84.9082904377
 11
196.3810199932
 21
84.9087313833
  0
LINE
  5
3EE
100
AcDbEntity
  8
RACCORDO
100
AcDbLine
 62
250
  6
CONTINUOUS
 10
267.4530776835
 20
84.9082904377
 11
267.3810199932
 21
84.9087313833
  0
LINE
  5
3EF
100
AcDbEntity
  8
ASSI
100
AcDbLine
 62
250
  6
CONTINUOUS
 10
267.4530776835
 20
84.9082904377
 11
267.3810199932
 21
84.9087313833
  0
LWPOLYLINE
  5
3F0
100
AcDbEntity
  8
RACCORDO
100
AcDbPolyline
 62
250
  6
CONTINUOUS
 90
18
 70
0
 10
57.6665299461
 20
84.3106668176
 10
57.6161531694
 20
84.3110142258
 10
57.5914129884
 20
84.3113462572
 10
57.5672070847
 20
84.3117809402
 10
57.5437076251
 20
84.3123151833
 10
57.5210817522
 20
84.3129451865
 10
57.4994903948
 20
84.3136664688
 10
57.4790871238
 20
84.3144739
 10
57.4600170594
 20
84.3153617373
 10
57.4424158395
 20
84.3163236657
 10
57.4264086547
 20
84.3173528435
 10
57.4121093578
 20
84.3184419506
 10
57.3996196539
 20
84.3195832404
 10
57.3890283774
 20
84.3207685956
 10
57.3804108599
 20
84.3219895851
 10
57.3738283944
 20
84.3232375245
 10
57.3693277993
 20
84.3245035377
 10
57.3669410857
 20
84.3257786201
  0
LWPOLYLINE
  5
3F1
100
AcDbEntity
  8
ASSI
100
AcDbPolyline
 62
250
  6
CONTINUOUS
 90
18
 70
0
 10
57.6665299461
 20
84.3106668176
 10
57.6161531694
 20
84.3110142258
 10
57.5914129884
 20
84.3113462572
 10
57.5672070847
 20
84.3117809402
 10
57.5437076251
 20
84.3123151833
 10
57.5210817522
 20
84.3129451865
 10
57.4994903948
 20
84.3136664688
 10
57.4790871238
 20
84.3144739
 10
57.4600170594
 20
84.3153617373
 10
57.4424158395
 20
84.3163236657
 10
57.4264086547
 20
84.3173528435
 10
57.4121093578
 20
84.3184419506
 10
57.3996196539
 20
84.3195832404
 10
57.3890283774
 20
84.3207685956
 10
57.3804108599
 20
84.3219895851
 10
57.3738283944
 20
84.3232375245
 10
57.3693277993
 20
84.3245035377
 10
57.3669410857
 20
84.3257786201
  0
LINE
  5
3F2
100
AcDbEntity
  8
RACCORDO
100
AcDbLine
 62
250
  6
CONTINUOUS
 10
125.3810199932
 20
84.9087313833
 11
125.310466657
 21
84.9096751082
  0
LINE
  5
3F3
100
AcDbEntity
  8
ASSI
100
AcDbLine
 62
250
  6
CONTINUOUS
 10
125.3810199932
 20
84.9087313833
 11
125.310466657
 21
84.9096751082
  0
LINE
  5
3F4
100
AcDbEntity
  8
RACCORDO
100
AcDbLine
 62
250
  6
CONTINUOUS
 10
196.3810199932
 20
84.9087313833
 11
196.310466657
 21
84.9096751082
  0
LINE
  5
3F5
100
AcDbEntity
  8
ASSI
100
AcDbLine
 62
250
  6
CONTINUOUS
 10
196.3810199932
 20
84.9087313833
 11
196.310466657
 21
84.9096751082
  0
LINE
  5
3F6
100
AcDbEntity
  8
RACCORDO
100
AcDbLine
 62
250
  6
CONTINUOUS
 10
267.3810199932
 20
84.9087313833
 11
267.310466657
 21
84.9096751082
  0
LINE
  5
3F7
100
AcDbEntity
  8
ASSI
100
AcDbLine
 62
250
  6
CONTINUOUS
 10
267.3810199932
 20
84.9087313833
 11
267.310466657
 21
84.9096751082
  0
LWPOLYLINE
  5
3F8
100
AcDbEntity
  8
RACCORDO
100
AcDbPolyline
 62
250
  6
CONTINUOUS
 90
17
 70
0
 10
125.310466657
 20
84.9096751082
 10
125.2428907217
 20
84.9111019089
 10
125.2106634257
 20
84.9119875319
 10
125.1797030703
 20
84.912981996
 10
125.1501714683
 20
84.9140801038
 10
125.1222229652
 20
84.915276116
 10
125.0960036323
 20
84.9165637818
 10
125.0716505037
 20
84.9179363713
 10
125.0492908598
 20
84.9193867106
 10
125.0290415622
 20
84.9209072197
 10
125.0110084428
 20
84.9224899516
 10
124.9952857508
 20
84.9241266343
 10
124.9819556601
 20
84.9258087138
 10
124.9710878397
 20
84.9275273988
 10
124.9627390897
 20
84.9292737066
 10
124.9569530445
 20
84.9310385103
 10
124.9537599444
 20
84.9328125862
  0
LWPOLYLINE
  5
3F9
100
AcDbEntity
  8
ASSI
100
AcDbPolyline
 62
250
  6
CONTINUOUS
 90
17
 70
0
 10
125.310466657
 20
84.9096751082
 10
125.2428907217
 20
84.9111019089
 10
125.2106634257
 20
84.9119875319
 10
125.1797030703
 20
84.912981996
 10
125.1501714683
 20
84.9140801038
 10
125.1222229652
 20
84.915276116
 10
125.0960036323
 20
84.9165637818
 10
125.0716505037
 20
84.9179363713
 10
125.0492908598
 20
84.9193867106
 10
125.0290415622
 20
84.9209072197
 10
125.0110084428
 20
84.9224899516
 10
124.9952857508
 20
84.9241266343
 10
124.9819556601
 20
84.9258087138
 10
124.9710878397
 20
84.9275273988
 10
124.9627390897
 20
84.9292737066
 10
124.9569530445
 20
84.9310385103
 10
124.9537599444
 20
84.9328125862
  0
LWPOLYLINE
  5
3FA
100
AcDbEntity
  8
RACCORDO
100
AcDbPolyline
 62
250
  6
CONTINUOUS
 90
17
 70
0
 10
196.310466657
 20
84.9096751082
 10
196.2428907217
 20
84.9111019089
 10
196.2106634257
 20
84.9119875319
 10
196.1797030703
 20
84.912981996
 10
196.1501714683
 20
84.9140801038
 10
196.1222229652
 20
84.915276116
 10
196.0960036323
 20
84.9165637818
 10
196.0716505037
 20
84.9179363713
 10
196.0492908598
 20
84.9193867106
 10
196.0290415622
 20
84.9209072197
 10
196.0110084428
 20
84.9224899516
 10
195.9952857508
 20
84.9241266343
 10
195.9819556601
 20
84.9258087138
 10
195.9710878397
 20
84.9275273988
 10
195.9627390897
 20
84.9292737066
 10
195.9569530445
 20
84.9310385103
 10
195.9537599444
 20
84.9328125862
  0
LWPOLYLINE
  5
3FB
100
AcDbEntity
  8
ASSI
100
AcDbPolyline
 62
250
  6
CONTINUOUS
 90
17
 70
0
 10
196.310466657
 20
84.9096751082
 10
196.2428907217
 20
84.9111019089
 10
196.2106634257
 20
84.9119875319
 10
196.1797030703
 20
84.912981996
 10
196.1501714683
 20
84.9140801038
 10
196.1222229652
 20
84.915276116
 10
196.0960036323
 20
84.9165637818
 10
196.0716505037
 20
84.9179363713
 10
196.0492908598
 20
84.9193867106
 10
196.0290415622
 20
84.9209072197
 10
196.0110084428
 20
84.9224899516
 10
195.9952857508
 20
84.9241266343
 10
195.9819556601
 20
84.9258087138
 10
195.9710878397
 20
84.9275273988
 10
195.9627390897
 20
84.9292737066
 10
195.9569530445
 20
84.9310385103
 10
195.9537599444
 20
84.9328125862
  0
LWPOLYLINE
  5
3FC
100
AcDbEntity
  8
RACCORDO
100
AcDbPolyline
 62
250
  6
CONTINUOUS
 90
17
 70
0
 10
267.310466657
 20
84.9096751082
 10
267.2428907217
 20
84.9111019089
 10
267.2106634257
 20
84.9119875319
 10
267.1797030703
 20
84.912981996
 10
267.1501714683
 20
84.9140801038
 10
267.1222229652
 20
84.915276116
 10
267.0960036323
 20
84.9165637818
 10
267.0716505037
 20
84.9179363713
 10
267.0492908598
 20
84.9193867106
 10
267.0290415622
 20
84.9209072197
 10
267.0110084428
 20
84.9224899516
 10
266.9952857508
 20
84.9241266343
 10
266.9819556601
 20
84.9258087138
 10
266.9710878397
 20
84.9275273988
 10
266.9627390897
 20
84.9292737066
 10
266.9569530445
 20
84.9310385103
 10
266.9537599444
 20
84.9328125862
  0
LWPOLYLINE
  5
3FD
100
AcDbEntity
  8
ASSI
100
AcDbPolyline
 62
250
  6
CONTINUOUS
 90
17
 70
0
 10
267.310466657
 20
84.9096751082
 10
267.2428907217
 20
84.9111019089
 10
267.2106634257
 20
84.9119875319
 10
267.1797030703
 20
84.912981996
 10
267.1501714683
 20
84.9140801038
 10
267.1222229652
 20
84.915276116
 10
267.0960036323
 20
84.9165637818
 10
267.0716505037
 20
84.9179363713
 10
267.0492908598
 20
84.9193867106
 10
267.0290415622
 20
84.9209072197
 10
267.0110084428
 20
84.9224899516
 10
266.9952857508
 20
84.9241266343
 10
266.9819556601
 20
84.9258087138
 10
266.9710878397
 20
84.9275273988
 10
266.9627390897
 20
84.9292737066
 10
266.9569530445
 20
84.9310385103
 10
266.9537599444
 20
84.9328125862
  0
LWPOLYLINE
  5
3FE
100
AcDbEntity
  8
RACCORDO
100
AcDbPolyline
 62
250
  6
CONTINUOUS
 90
22
 70
0
 10
151.0672063586
 20
84.1373871776
 10
151.0264510427
 20
84.1383482783
 10
150.9856218237
 20
84.1413874148
 10
150.9448266443
 20
84.1465236295
 10
150.9041623467
 20
84.153772429
 10
150.8637547891
 20
84.1631406675
 10
150.8237570098
 20
84.1746197987
 10
150.7842595857
 20
84.1882079255
 10
150.7454000038
 20
84.2038823468
 10
150.7073943119
 20
84.2215719663
 10
150.6703659226
 20
84.2412219707
 10
150.6343990337
 20
84.2627902728
 10
150.5996368204
 20
84.286193627
 10
150.5661756007
 20
84.3113621993
 10
150.5341008601
 20
84.3382263019
 10
150.5035260162
 20
84.3666847196
 10
150.4745273182
 20
84.396653519
 10
150.4471771109
 20
84.4280439519
 10
150.4215672341
 20
84.4607337622
 10
150.3977621183
 20
84.4946143938
 10
150.3758039464
 20
84.5295958223
 10
150.3557381514
 20
84.5655763503
  0
LWPOLYLINE
  5
3FF
100
AcDbEntity
  8
ASSI
100
AcDbPolyline
 62
250
  6
CONTINUOUS
 90
22
 70
0
 10
151.0672063586
 20
84.1373871776
 10
151.0264510427
 20
84.1383482783
 10
150.9856218237
 20
84.1413874148
 10
150.9448266443
 20
84.1465236295
 10
150.9041623467
 20
84.153772429
 10
150.8637547891
 20
84.1631406675
 10
150.8237570098
 20
84.1746197987
 10
150.7842595857
 20
84.1882079255
 10
150.7454000038
 20
84.2038823468
 10
150.7073943119
 20
84.2215719663
 10
150.6703659226
 20
84.2412219707
 10
150.6343990337
 20
84.2627902728
 10
150.5996368204
 20
84.286193627
 10
150.5661756007
 20
84.3113621993
 10
150.5341008601
 20
84.3382263019
 10
150.5035260162
 20
84.3666847196
 10
150.4745273182
 20
84.396653519
 10
150.4471771109
 20
84.4280439519
 10
150.4215672341
 20
84.4607337622
 10
150.3977621183
 20
84.4946143938
 10
150.3758039464
 20
84.5295958223
 10
150.3557381514
 20
84.5655763503
  0
LWPOLYLINE
  5
400
100
AcDbEntity
  8
RACCORDO
100
AcDbPolyline
 62
250
  6
CONTINUOUS
 90
22
 70
0
 10
222.0672063586
 20
84.1373871776
 10
222.0264510427
 20
84.1383482783
 10
221.9856218237
 20
84.1413874148
 10
221.9448266443
 20
84.1465236295
 10
221.9041623467
 20
84.153772429
 10
221.8637547891
 20
84.1631406675
 10
221.8237570098
 20
84.1746197987
 10
221.7842595857
 20
84.1882079255
 10
221.7454000038
 20
84.2038823468
 10
221.7073943119
 20
84.2215719663
 10
221.6703659226
 20
84.2412219707
 10
221.6343990337
 20
84.2627902728
 10
221.5996368204
 20
84.286193627
 10
221.5661756007
 20
84.3113621993
 10
221.5341008601
 20
84.3382263019
 10
221.5035260162
 20
84.3666847196
 10
221.4745273182
 20
84.396653519
 10
221.4471771109
 20
84.4280439519
 10
221.4215672341
 20
84.4607337622
 10
221.3977621183
 20
84.4946143938
 10
221.3758039464
 20
84.5295958223
 10
221.3557381514
 20
84.5655763503
  0
LWPOLYLINE
  5
401
100
AcDbEntity
  8
ASSI
100
AcDbPolyline
 62
250
  6
CONTINUOUS
 90
22
 70
0
 10
222.0672063586
 20
84.1373871776
 10
222.0264510427
 20
84.1383482783
 10
221.9856218237
 20
84.1413874148
 10
221.9448266443
 20
84.1465236295
 10
221.9041623467
 20
84.153772429
 10
221.8637547891
 20
84.1631406675
 10
221.8237570098
 20
84.1746197987
 10
221.7842595857
 20
84.1882079255
 10
221.7454000038
 20
84.2038823468
 10
221.7073943119
 20
84.2215719663
 10
221.6703659226
 20
84.2412219707
 10
221.6343990337
 20
84.2627902728
 10
221.5996368204
 20
84.286193627
 10
221.5661756007
 20
84.3113621993
 10
221.5341008601
 20
84.3382263019
 10
221.5035260162
 20
84.3666847196
 10
221.4745273182
 20
84.396653519
 10
221.4471771109
 20
84.4280439519
 10
221.4215672341
 20
84.4607337622
 10
221.3977621183
 20
84.4946143938
 10
221.3758039464
 20
84.5295958223
 10
221.3557381514
 20
84.5655763503
  0
LWPOLYLINE
  5
402
100
AcDbEntity
  8
RACCORDO
100
AcDbPolyline
 62
250
  6
CONTINUOUS
 90
22
 70
0
 10
151.0672192809
 20
83.6107960941
 10
151.0008599488
 20
83.6124312171
 10
150.9347171239
 20
83.6175025653
 10
150.8687908062
 20
83.6260101558
 10
150.8028700002
 20
83.6379609572
 10
150.7371657014
 20
83.6533480696
 10
150.6723108964
 20
83.6721507243
 10
150.6082823502
 20
83.6944340869
 10
150.5451032979
 20
83.7201331285
 10
150.4834764307
 20
83.7490317994
 10
150.4234530455
 20
83.7811674262
 10
150.3649818456
 20
83.8165028694
 10
150.3086116322
 20
83.8547103773
 10
150.2543748286
 20
83.8958210315
 10
150.2022390115
 20
83.9398039639
 10
150.152655713
 20
83.98623848
 10
150.1056504832
 20
84.035163152
 10
150.0611977718
 20
84.0865396206
 10
150.0196724597
 20
84.139831758
 10
149.9811995069
 20
84.1948609036
 10
149.9456539533
 20
84.2518058922
 10
149.9130357989
 20
84.3106668168
  0
LWPOLYLINE
  5
403
100
AcDbEntity
  8
ASSI
100
AcDbPolyline
 62
250
  6
CONTINUOUS
 90
22
 70
0
 10
151.0672192809
 20
83.6107960941
 10
151.0008599488
 20
83.6124312171
 10
150.9347171239
 20
83.6175025653
 10
150.8687908062
 20
83.6260101558
 10
150.8028700002
 20
83.6379609572
 10
150.7371657014
 20
83.6533480696
 10
150.6723108964
 20
83.6721507243
 10
150.6082823502
 20
83.6944340869
 10
150.5451032979
 20
83.7201331285
 10
150.4834764307
 20
83.7490317994
 10
150.4234530455
 20
83.7811674262
 10
150.3649818456
 20
83.8165028694
 10
150.3086116322
 20
83.8547103773
 10
150.2543748286
 20
83.8958210315
 10
150.2022390115
 20
83.9398039639
 10
150.152655713
 20
83.98623848
 10
150.1056504832
 20
84.035163152
 10
150.0611977718
 20
84.0865396206
 10
150.0196724597
 20
84.139831758
 10
149.9811995069
 20
84.1948609036
 10
149.9456539533
 20
84.2518058922
 10
149.9130357989
 20
84.3106668168
  0
LWPOLYLINE
  5
404
100
AcDbEntity
  8
RACCORDO
100
AcDbPolyline
 62
250
  6
CONTINUOUS
 90
22
 70
0
 10
222.0672192809
 20
83.6107960941
 10
222.0008599488
 20
83.6124312171
 10
221.9347171239
 20
83.6175025653
 10
221.8687908062
 20
83.6260101558
 10
221.8028700002
 20
83.6379609572
 10
221.7371657014
 20
83.6533480696
 10
221.6723108964
 20
83.6721507243
 10
221.6082823502
 20
83.6944340869
 10
221.5451032979
 20
83.7201331285
 10
221.4834764307
 20
83.7490317994
 10
221.4234530455
 20
83.7811674262
 10
221.3649818456
 20
83.8165028694
 10
221.3086116322
 20
83.8547103773
 10
221.2543748286
 20
83.8958210315
 10
221.2022390115
 20
83.9398039639
 10
221.152655713
 20
83.98623848
 10
221.1056504832
 20
84.035163152
 10
221.0611977718
 20
84.0865396206
 10
221.0196724597
 20
84.139831758
 10
220.9811995069
 20
84.1948609036
 10
220.9456539533
 20
84.2518058922
 10
220.9130357989
 20
84.3106668168
  0
LWPOLYLINE
  5
405
100
AcDbEntity
  8
ASSI
100
AcDbPolyline
 62
250
  6
CONTINUOUS
 90
22
 70
0
 10
222.0672192809
 20
83.6107960941
 10
222.0008599488
 20
83.6124312171
 10
221.9347171239
 20
83.6175025653
 10
221.8687908062
 20
83.6260101558
 10
221.8028700002
 20
83.6379609572
 10
221.7371657014
 20
83.6533480696
 10
221.6723108964
 20
83.6721507243
 10
221.6082823502
 20
83.6944340869
 10
221.5451032979
 20
83.7201331285
 10
221.4834764307
 20
83.7490317994
 10
221.4234530455
 20
83.7811674262
 10
221.3649818456
 20
83.8165028694
 10
221.3086116322
 20
83.8547103773
 10
221.2543748286
 20
83.8958210315
 10
221.2022390115
 20
83.9398039639
 10
221.152655713
 20
83.98623848
 10
221.1056504832
 20
84.035163152
 10
221.0611977718
 20
84.0865396206
 10
221.0196724597
 20
84.139831758
 10
220.9811995069
 20
84.1948609036
 10
220.9456539533
 20
84.2518058922
 10
220.9130357989
 20
84.3106668168
  0
LINE
  5
406
100
AcDbEntity
  8
0
100
AcDbLine
 62
250
  6
CONTINUOUS
 10
73.4105021642
 20
96.9403127105
 11
73.7676421642
 21
96.9090667105
  0
LINE
  5
407
100
AcDbEntity
  8
0
100
AcDbLine
 62
250
  6
CONTINUOUS
 10
73.7676421642
 20
98.6575637105
 11
76.2080981642
 21
98.4440517105
  0
LINE
  5
408
100
AcDbEntity
  8
0
100
AcDbLine
 62
250
  6
CONTINUOUS
 10
76.2080981642
 20
98.7937517105
 11
73.4105021642
 21
99.0385097105
  0
LINE
  5
409
100
AcDbEntity
  8
0
100
AcDbLine
 62
250
  6
CONTINUOUS
 10
73.8271651642
 20
111.0666877105
 11
74.1247821642
 21
110.9823657105
  0
LINE
  5
40A
100
AcDbEntity
  8
0
100
AcDbLine
 62
250
  6
CONTINUOUS
 10
75.5533421642
 20
113.0721467105
 11
75.2557251642
 21
113.1564677105
  0
LINE
  5
40B
100
AcDbEntity
  8
RACCORDO
100
AcDbLine
 62
250
  6
CONTINUOUS
 10
78.9130357988
 20
129.6460764439
 11
78.9771177029
 21
129.6123867363
  0
LINE
  5
40C
100
AcDbEntity
  8
ASSI
100
AcDbLine
 62
250
  6
CONTINUOUS
 10
78.9130357988
 20
129.6460764439
 11
78.9771177029
 21
129.6123867363
  0
LINE
  5
40D
100
AcDbEntity
  8
RACCORDO
100
AcDbLine
 62
250
  6
CONTINUOUS
 10
78.9771177029
 20
129.6123867363
 11
79.0398528967
 21
129.5788757015
  0
LINE
  5
40E
100
AcDbEntity
  8
ASSI
100
AcDbLine
 62
250
  6
CONTINUOUS
 10
78.9771177029
 20
129.6123867363
 11
79.0398528967
 21
129.5788757015
  0
LWPOLYLINE
  5
40F
100
AcDbEntity
  8
RACCORDO
100
AcDbPolyline
 62
250
  6
CONTINUOUS
 90
14
 70
0
 10
196.0625347216
 20
129.5151880511
 10
196.0363090338
 20
129.5004522656
 10
196.0114999094
 20
129.4863501067
 10
195.9882378726
 20
129.4729557682
 10
195.9666453087
 20
129.4603397196
 10
195.9468358193
 20
129.4485683357
 10
195.9289136251
 20
129.4377035476
 10
195.9129730174
 20
129.4278025165
 10
195.8990978622
 20
129.4189173333
 10
195.8873611587
 20
129.4110947441
 10
195.8778246554
 20
129.4043759048
 10
195.8705385254
 20
129.3987961642
 10
195.865541102
 20
129.3943848781
 10
195.8628586775
 20
129.391165255
  0
LWPOLYLINE
  5
410
100
AcDbEntity
  8
ASSI
100
AcDbPolyline
 62
250
  6
CONTINUOUS
 90
14
 70
0
 10
196.0625347216
 20
129.5151880511
 10
196.0363090338
 20
129.5004522656
 10
196.0114999094
 20
129.4863501067
 10
195.9882378726
 20
129.4729557682
 10
195.9666453087
 20
129.4603397196
 10
195.9468358193
 20
129.4485683357
 10
195.9289136251
 20
129.4377035476
 10
195.9129730174
 20
129.4278025165
 10
195.8990978622
 20
129.4189173333
 10
195.8873611587
 20
129.4110947441
 10
195.8778246554
 20
129.4043759048
 10
195.8705385254
 20
129.3987961642
 10
195.865541102
 20
129.3943848781
 10
195.8628586775
 20
129.391165255
  0
LINE
  5
411
100
AcDbEntity
  8
RACCORDO
100
AcDbLine
 62
250
  6
CONTINUOUS
 10
196.1186771509
 20
129.546247468
 11
196.0625347216
 21
129.5151880511
  0
LINE
  5
412
100
AcDbEntity
  8
ASSI
100
AcDbLine
 62
250
  6
CONTINUOUS
 10
196.1186771509
 20
129.546247468
 11
196.0625347216
 21
129.5151880511
  0
LINE
  5
413
100
AcDbEntity
  8
RACCORDO
100
AcDbLine
 62
250
  6
CONTINUOUS
 10
196.1787472566
 20
129.5788755843
 11
196.1186771509
 21
129.546247468
  0
LINE
  5
414
100
AcDbEntity
  8
ASSI
100
AcDbLine
 62
250
  6
CONTINUOUS
 10
196.1787472566
 20
129.5788755843
 11
196.1186771509
 21
129.546247468
  0
LINE
  5
415
100
AcDbEntity
  8
RACCORDO
100
AcDbLine
 62
250
  6
CONTINUOUS
 10
196.2414825502
 20
129.6123866578
 11
196.1787472566
 21
129.5788755843
  0
LINE
  5
416
100
AcDbEntity
  8
ASSI
100
AcDbLine
 62
250
  6
CONTINUOUS
 10
196.2414825502
 20
129.6123866578
 11
196.1787472566
 21
129.5788755843
  0
LINE
  5
417
100
AcDbEntity
  8
RACCORDO
100
AcDbLine
 62
250
  6
CONTINUOUS
 10
196.3055645294
 20
129.646076389
 11
196.2414825502
 21
129.6123866578
  0
LINE
  5
418
100
AcDbEntity
  8
ASSI
100
AcDbLine
 62
250
  6
CONTINUOUS
 10
196.3055645294
 20
129.646076389
 11
196.2414825502
 21
129.6123866578
  0
LINE
  5
419
100
AcDbEntity
  8
0
100
AcDbLine
 62
250
  6
CONTINUOUS
 10
73.4105021642
 20
102.3023707105
 11
76.2080981642
 21
102.0576127105
  0
LINE
  5
41A
100
AcDbEntity
  8
0
100
AcDbLine
 62
250
  6
CONTINUOUS
 10
76.2080981642
 20
102.4073117105
 11
73.4105021642
 21
102.6520697105
  0
LINE
  5
41B
100
AcDbEntity
  8
0
100
AcDbLine
 62
250
  6
CONTINUOUS
 10
75.5533421642
 20
102.9891447105
 11
75.3152481642
 21
103.0099757105
  0
LINE
  5
41C
100
AcDbEntity
  8
0
100
AcDbLine
 62
250
  6
CONTINUOUS
 10
75.5533421642
 20
103.3388447105
 11
75.3747711642
 21
103.3544677105
  0
LINE
  5
41D
100
AcDbEntity
  8
0
100
AcDbLine
 62
250
  6
CONTINUOUS
 10
74.6604921642
 20
104.8740407105
 11
73.4105021642
 21
104.9834007105
  0
LINE
  5
41E
100
AcDbEntity
  8
0
100
AcDbLine
 62
250
  6
CONTINUOUS
 10
75.0176321642
 20
104.8427947105
 11
75.9104811642
 21
104.7646807105
  0
LINE
  5
41F
100
AcDbEntity
  8
0
100
AcDbLine
 62
250
  6
CONTINUOUS
 10
73.4105021642
 20
105.3330997105
 11
76.2080981642
 21
105.0883417105
  0
LINE
  5
420
100
AcDbEntity
  8
0
100
AcDbLine
 62
250
  6
CONTINUOUS
 10
73.4105021642
 20
105.7993657105
 11
73.7676421642
 21
105.7681197105
  0
LINE
  5
421
100
AcDbEntity
  8
0
100
AcDbLine
 62
250
  6
CONTINUOUS
 10
75.8509581642
 20
105.5858527105
 11
76.2080981642
 21
105.5546077105
  0
LINE
  5
422
100
AcDbEntity
  8
0
100
AcDbLine
 62
250
  6
CONTINUOUS
 10
74.7200151642
 20
105.9179317105
 11
75.0771551642
 21
105.8866857105
  0
LINE
  5
423
100
AcDbEntity
  8
0
100
AcDbLine
 62
250
  6
CONTINUOUS
 10
75.0771551642
 20
107.4020497105
 11
75.8509581642
 21
107.3343507105
  0
LINE
  5
424
100
AcDbEntity
  8
0
100
AcDbLine
 62
250
  6
CONTINUOUS
 10
73.7676421642
 20
107.5166167105
 11
74.7200151642
 21
107.4332957105
  0
LINE
  5
425
100
AcDbEntity
  8
0
100
AcDbLine
 62
250
  6
CONTINUOUS
 10
76.2080981642
 20
107.6528047105
 11
73.4105021642
 21
107.8975627105
  0
LINE
  5
426
100
AcDbEntity
  8
0
100
AcDbLine
 62
250
  6
CONTINUOUS
 10
76.2080981642
 20
126.4316347105
 11
73.4105021642
 21
127.2309477105
  0
LINE
  5
427
100
AcDbEntity
  8
RACCORDO
100
AcDbLine
 62
250
  6
CONTINUOUS
 10
196.3055645295
 20
84.3106669772
 11
196.2414826254
 21
84.3443566848
  0
LINE
  5
428
100
AcDbEntity
  8
ASSI
100
AcDbLine
 62
250
  6
CONTINUOUS
 10
196.3055645295
 20
84.3106669772
 11
196.2414826254
 21
84.3443566848
  0
LINE
  5
429
100
AcDbEntity
  8
RACCORDO
100
AcDbLine
 62
250
  6
CONTINUOUS
 10
196.2414826254
 20
84.3443566848
 11
196.1787474316
 21
84.3778677196
  0
LINE
  5
42A
100
AcDbEntity
  8
ASSI
100
AcDbLine
 62
250
  6
CONTINUOUS
 10
196.2414826254
 20
84.3443566848
 11
196.1787474316
 21
84.3778677196
  0
LINE
  5
42B
100
AcDbEntity
  8
RACCORDO
100
AcDbLine
 62
250
  6
CONTINUOUS
 10
196.1787474316
 20
84.3778677196
 11
196.1186774425
 21
84.4104957862
  0
LINE
  5
42C
100
AcDbEntity
  8
ASSI
100
AcDbLine
 62
250
  6
CONTINUOUS
 10
196.1787474316
 20
84.3778677196
 11
196.1186774425
 21
84.4104957862
  0
LWPOLYLINE
  5
42D
100
AcDbEntity
  8
RACCORDO
100
AcDbPolyline
 62
250
  6
CONTINUOUS
 90
15
 70
0
 10
196.1186774425
 20
84.4104957862
 10
196.0625351383
 20
84.4415551464
 10
196.0363095138
 20
84.4562909023
 10
196.0115004519
 20
84.4703930314
 10
195.9882384759
 20
84.4837873405
 10
195.9666459702
 20
84.4964033606
 10
195.9468365356
 20
84.5081747171
 10
195.928914392
 20
84.5190394796
 10
195.9129738301
 20
84.5289404872
 10
195.8990987152
 20
84.5378256495
 10
195.887362046
 20
84.5456482204
 10
195.8778255706
 20
84.5523670446
 10
195.8705394616
 20
84.5579467734
 10
195.8655420521
 20
84.5623580513
 10
195.8628596342
 20
84.5655776699
  0
LWPOLYLINE
  5
42E
100
AcDbEntity
  8
ASSI
100
AcDbPolyline
 62
250
  6
CONTINUOUS
 90
15
 70
0
 10
196.1186774425
 20
84.4104957862
 10
196.0625351383
 20
84.4415551464
 10
196.0363095138
 20
84.4562909023
 10
196.0115004519
 20
84.4703930314
 10
195.9882384759
 20
84.4837873405
 10
195.9666459702
 20
84.4964033606
 10
195.9468365356
 20
84.5081747171
 10
195.928914392
 20
84.5190394796
 10
195.9129738301
 20
84.5289404872
 10
195.8990987152
 20
84.5378256495
 10
195.887362046
 20
84.5456482204
 10
195.8778255706
 20
84.5523670446
 10
195.8705394616
 20
84.5579467734
 10
195.8655420521
 20
84.5623580513
 10
195.8628596342
 20
84.5655776699
  0
LINE
  5
42F
100
AcDbEntity
  8
0
100
AcDbLine
 62
250
  6
CONTINUOUS
 10
150.2648374781
 20
84.9327784122
 11
150.4093001642
 21
85.0772753383
  0
LINE
  5
430
100
AcDbEntity
  8
ASSI
100
AcDbLine
 62
250
  6
CONTINUOUS
 10
150.2648374781
 20
84.9327784122
 11
150.4093001642
 21
85.0772753383
  0
LINE
  5
431
100
AcDbEntity
  8
0
100
AcDbLine
 62
250
  6
CONTINUOUS
 10
195.1513939478
 20
129.8193562215
 11
195.0103965364
 21
129.6783717105
  0
LINE
  5
432
100
AcDbEntity
  8
ASSI
100
AcDbLine
 62
250
  6
CONTINUOUS
 10
195.1513939478
 20
129.8193562215
 11
195.0103965364
 21
129.6783717105
  0
LINE
  5
433
100
AcDbEntity
  8
0
100
AcDbLine
 62
250
  6
CONTINUOUS
 10
151.0672063806
 20
84.1373871995
 11
151.208203792
 21
84.2783717105
  0
LINE
  5
434
100
AcDbEntity
  8
ASSI
100
AcDbLine
 62
250
  6
CONTINUOUS
 10
151.0672063806
 20
84.1373871995
 11
151.208203792
 21
84.2783717105
  0
LINE
  5
435
100
AcDbEntity
  8
0
100
AcDbLine
 62
250
  6
CONTINUOUS
 10
195.9537628488
 20
129.0239657666
 11
195.8093001642
 21
128.8794680827
  0
LINE
  5
436
100
AcDbEntity
  8
ASSI
100
AcDbLine
 62
250
  6
CONTINUOUS
 10
195.9537628488
 20
129.0239657666
 11
195.8093001642
 21
128.8794680827
  0
LWPOLYLINE
  5
437
100
AcDbEntity
  8
0
100
AcDbPolyline
 62
7
  6
CONTINUOUS
 90
13
 70
0
 43
0.3500000006
 10
301.5021494751
 20
106.9783745728
 10
300.2164425659
 20
106.9783745728
 10
299.7878735962
 20
107.1926590576
 10
299.3593046265
 20
107.6212280273
 10
299.3593046265
 20
107.8355125122
 10
299.7878735962
 20
108.2640814819
 10
300.2164425659
 20
108.4783750305
 10
301.5021494751
 20
108.4783750305
 10
301.9307365723
 20
108.2640814819
 10
302.359305542
 20
107.8355125122
 10
302.359305542
 20
107.6212280273
 10
301.9307365723
 20
107.1926590576
 10
301.5021494751
 20
106.9783745728
  0
LINE
  5
438
100
AcDbEntity
  8
0
100
AcDbLine
 62
250
  6
CONTINUOUS
 10
75.9104811642
 20
108.1451087105
 11
76.2080981642
 21
108.1190707105
  0
LINE
  5
439
100
AcDbEntity
  8
0
100
AcDbLine
 62
250
  6
CONTINUOUS
 10
73.4105021642
 20
109.2963597105
 11
75.9104811642
 21
109.0776407105
  0
LINE
  5
43A
100
AcDbEntity
  8
0
100
AcDbLine
 62
250
  6
CONTINUOUS
 10
75.9104811642
 20
109.4273397105
 11
73.4105021642
 21
109.6460597105
  0
LINE
  5
43B
100
AcDbEntity
  8
0
100
AcDbLine
 62
250
  6
CONTINUOUS
 10
76.2080981642
 20
110.3338337105
 11
75.9104811642
 21
110.3598717105
  0
LINE
  5
43C
100
AcDbEntity
  8
0
100
AcDbLine
 62
250
  6
CONTINUOUS
 10
74.3628751642
 20
112.8848827105
 11
75.2557251642
 21
112.8067687105
  0
LINE
  5
43D
100
AcDbEntity
  8
0
100
AcDbLine
 62
250
  6
CONTINUOUS
 10
75.2557251642
 20
113.1564677105
 11
74.3628751642
 21
113.2345827105
  0
LINE
  5
43E
100
AcDbEntity
  8
0
100
AcDbLine
 62
250
  6
CONTINUOUS
 10
75.3152481642
 20
116.4151227105
 11
75.5533421642
 21
116.3942917105
  0
LINE
  5
43F
100
AcDbEntity
  8
0
100
AcDbLine
 62
250
  6
CONTINUOUS
 10
74.0652591642
 20
116.5244817105
 11
74.3628751642
 21
116.4984437105
  0
LINE
  5
440
100
AcDbEntity
  8
0
100
AcDbLine
 62
250
  6
CONTINUOUS
 10
195.1514081449
 20
84.1373871995
 11
195.0103965364
 21
84.2783717105
  0
LINE
  5
441
100
AcDbEntity
  8
ASSI
100
AcDbLine
 62
250
  6
CONTINUOUS
 10
195.1514081449
 20
84.1373871995
 11
195.0103965364
 21
84.2783717105
  0
LINE
  5
442
100
AcDbEntity
  8
0
100
AcDbLine
 62
250
  6
CONTINUOUS
 10
150.2648374366
 20
129.023943505
 11
150.4093001642
 21
128.8794680827
  0
LINE
  5
443
100
AcDbEntity
  8
ASSI
100
AcDbLine
 62
250
  6
CONTINUOUS
 10
150.2648374366
 20
129.023943505
 11
150.4093001642
 21
128.8794680827
  0
LINE
  5
444
100
AcDbEntity
  8
0
100
AcDbLine
 62
250
  6
CONTINUOUS
 10
195.9537628911
 20
84.9327995896
 11
195.8093001642
 21
85.0772753383
  0
LINE
  5
445
100
AcDbEntity
  8
ASSI
100
AcDbLine
 62
250
  6
CONTINUOUS
 10
195.9537628911
 20
84.9327995896
 11
195.8093001642
 21
85.0772753383
  0
LINE
  5
446
100
AcDbEntity
  8
0
100
AcDbLine
 62
250
  6
CONTINUOUS
 10
151.0671921834
 20
129.8193562215
 11
151.208203792
 21
129.6783717105
  0
LINE
  5
447
100
AcDbEntity
  8
ASSI
100
AcDbLine
 62
250
  6
CONTINUOUS
 10
151.0671921834
 20
129.8193562215
 11
151.208203792
 21
129.6783717105
  0
LWPOLYLINE
  5
448
100
AcDbEntity
  8
RACCORDO
100
AcDbPolyline
 62
250
  6
CONTINUOUS
 90
14
 70
0
 10
150.1560654978
 20
84.4415553064
 10
150.1822911686
 20
84.4562910841
 10
150.2071002764
 20
84.4703932351
 10
150.2303622967
 20
84.4837875659
 10
150.2519548449
 20
84.4964036071
 10
150.2717643195
 20
84.5081749839
 10
150.2896864998
 20
84.5190397654
 10
150.3056270949
 20
84.5289407905
 10
150.319502239
 20
84.5378259683
 10
150.3312389329
 20
84.5456485529
 10
150.3407754282
 20
84.5523673884
 10
150.348061552
 20
84.5579471261
 10
150.3530589711
 20
84.5623584102
 10
150.3557413932
 20
84.5655780323
  0
LWPOLYLINE
  5
449
100
AcDbEntity
  8
ASSI
100
AcDbPolyline
 62
250
  6
CONTINUOUS
 90
14
 70
0
 10
150.1560654978
 20
84.4415553064
 10
150.1822911686
 20
84.4562910841
 10
150.2071002764
 20
84.4703932351
 10
150.2303622967
 20
84.4837875659
 10
150.2519548449
 20
84.4964036071
 10
150.2717643195
 20
84.5081749839
 10
150.2896864998
 20
84.5190397654
 10
150.3056270949
 20
84.5289407905
 10
150.319502239
 20
84.5378259683
 10
150.3312389329
 20
84.5456485529
 10
150.3407754282
 20
84.5523673884
 10
150.348061552
 20
84.5579471261
 10
150.3530589711
 20
84.5623584102
 10
150.3557413932
 20
84.5655780323
  0
LINE
  5
44A
100
AcDbEntity
  8
RACCORDO
100
AcDbLine
 62
250
  6
CONTINUOUS
 10
150.0999231017
 20
84.4104959046
 11
150.1560654978
 21
84.4415553064
  0
LINE
  5
44B
100
AcDbEntity
  8
ASSI
100
AcDbLine
 62
250
  6
CONTINUOUS
 10
150.0999231017
 20
84.4104959046
 11
150.1560654978
 21
84.4415553064
  0
LINE
  5
44C
100
AcDbEntity
  8
RACCORDO
100
AcDbLine
 62
250
  6
CONTINUOUS
 10
150.0398530266
 20
84.3778678017
 11
150.0999231017
 21
84.4104959046
  0
LINE
  5
44D
100
AcDbEntity
  8
ASSI
100
AcDbLine
 62
250
  6
CONTINUOUS
 10
150.0398530266
 20
84.3778678017
 11
150.0999231017
 21
84.4104959046
  0
LINE
  5
44E
100
AcDbEntity
  8
RACCORDO
100
AcDbLine
 62
250
  6
CONTINUOUS
 10
149.977117759
 20
84.3443567389
 11
150.0398530266
 21
84.3778678017
  0
LINE
  5
44F
100
AcDbEntity
  8
ASSI
100
AcDbLine
 62
250
  6
CONTINUOUS
 10
149.977117759
 20
84.3443567389
 11
150.0398530266
 21
84.3778678017
  0
LINE
  5
450
100
AcDbEntity
  8
RACCORDO
100
AcDbLine
 62
250
  6
CONTINUOUS
 10
149.913035799
 20
84.3106670145
 11
149.977117759
 21
84.3443567389
  0
LINE
  5
451
100
AcDbEntity
  8
ASSI
100
AcDbLine
 62
250
  6
CONTINUOUS
 10
149.913035799
 20
84.3106670145
 11
149.977117759
 21
84.3443567389
  0
LINE
  5
452
100
AcDbEntity
  8
0
100
AcDbLine
 62
250
  6
CONTINUOUS
 10
75.4938181642
 20
116.7491987105
 11
75.3747711642
 21
116.7596137105
  0
LINE
  5
453
100
AcDbEntity
  8
0
100
AcDbLine
 62
250
  6
CONTINUOUS
 10
74.1247821642
 20
116.8689737105
 11
74.3033521642
 21
116.8533517105
  0
LINE
  5
454
100
AcDbEntity
  8
0
100
AcDbLine
 62
250
  6
CONTINUOUS
 10
74.6604921642
 20
118.2791867105
 11
73.7676421642
 21
118.3573007105
  0
LINE
  5
455
100
AcDbEntity
  8
0
100
AcDbLine
 62
250
  6
CONTINUOUS
 10
75.0176321642
 20
118.2479407105
 11
75.8509581642
 21
118.1750347105
  0
LINE
  5
456
100
AcDbEntity
  8
0
100
AcDbLine
 62
250
  6
CONTINUOUS
 10
76.2080981642
 20
118.4934877105
 11
73.4105021642
 21
118.7382457105
  0
LINE
  5
457
100
AcDbEntity
  8
RACCORDO
100
AcDbLine
 62
250
  6
CONTINUOUS
 10
149.9130357988
 20
129.6460764439
 11
149.9771177029
 21
129.6123867363
  0
LINE
  5
458
100
AcDbEntity
  8
ASSI
100
AcDbLine
 62
250
  6
CONTINUOUS
 10
149.9130357988
 20
129.6460764439
 11
149.9771177029
 21
129.6123867363
  0
LINE
  5
459
100
AcDbEntity
  8
RACCORDO
100
AcDbLine
 62
250
  6
CONTINUOUS
 10
149.9771177029
 20
129.6123867363
 11
150.0398528967
 21
129.5788757015
  0
LINE
  5
45A
100
AcDbEntity
  8
ASSI
100
AcDbLine
 62
250
  6
CONTINUOUS
 10
149.9771177029
 20
129.6123867363
 11
150.0398528967
 21
129.5788757015
  0
LINE
  5
45B
100
AcDbEntity
  8
RACCORDO
100
AcDbLine
 62
250
  6
CONTINUOUS
 10
150.0398528967
 20
129.5788757015
 11
150.0999228858
 21
129.5462476349
  0
LINE
  5
45C
100
AcDbEntity
  8
ASSI
100
AcDbLine
 62
250
  6
CONTINUOUS
 10
150.0398528967
 20
129.5788757015
 11
150.0999228858
 21
129.5462476349
  0
LWPOLYLINE
  5
45D
100
AcDbEntity
  8
RACCORDO
100
AcDbPolyline
 62
250
  6
CONTINUOUS
 90
15
 70
0
 10
150.0999228858
 20
129.5462476349
 10
150.15606519
 20
129.5151882746
 10
150.1822908145
 20
129.5004525187
 10
150.2070998764
 20
129.4863503897
 10
150.2303618524
 20
129.4729560805
 10
150.2519543581
 20
129.4603400605
 10
150.2717637927
 20
129.4485687039
 10
150.2896859363
 20
129.4377039414
 10
150.3056264982
 20
129.4278029338
 10
150.3195016131
 20
129.4189177716
 10
150.3312382824
 20
129.4110952006
 10
150.3407747578
 20
129.4043763765
 10
150.3480608668
 20
129.3987966477
 10
150.3530582762
 20
129.3943853698
 10
150.3557406941
 20
129.3911657512
  0
LWPOLYLINE
  5
45E
100
AcDbEntity
  8
ASSI
100
AcDbPolyline
 62
250
  6
CONTINUOUS
 90
15
 70
0
 10
150.0999228858
 20
129.5462476349
 10
150.15606519
 20
129.5151882746
 10
150.1822908145
 20
129.5004525187
 10
150.2070998764
 20
129.4863503897
 10
150.2303618524
 20
129.4729560805
 10
150.2519543581
 20
129.4603400605
 10
150.2717637927
 20
129.4485687039
 10
150.2896859363
 20
129.4377039414
 10
150.3056264982
 20
129.4278029338
 10
150.3195016131
 20
129.4189177716
 10
150.3312382824
 20
129.4110952006
 10
150.3407747578
 20
129.4043763765
 10
150.3480608668
 20
129.3987966477
 10
150.3530582762
 20
129.3943853698
 10
150.3557406941
 20
129.3911657512
  0
LINE
  5
45F
100
AcDbEntity
  8
0
100
AcDbLine
 62
250
  6
CONTINUOUS
 10
73.4105021642
 20
99.5047747105
 11
76.2080981642
 21
100.1925497105
  0
LINE
  5
460
100
AcDbEntity
  8
0
100
AcDbLine
 62
250
  6
CONTINUOUS
 10
74.3628751642
 20
100.0625687105
 11
75.9700051642
 21
100.4465117105
  0
LINE
  5
461
100
AcDbEntity
  8
0
100
AcDbLine
 62
250
  6
CONTINUOUS
 10
74.1247821642
 20
100.0251167105
 11
73.4105021642
 21
99.8544747105
  0
LINE
  5
462
100
AcDbEntity
  8
0
100
AcDbLine
 62
250
  6
CONTINUOUS
 10
75.4938181642
 20
110.8625907105
 11
75.7914351642
 21
110.8948357105
  0
LINE
  5
463
100
AcDbEntity
  8
0
100
AcDbLine
 62
250
  6
CONTINUOUS
 10
74.3628751642
 20
113.2345827105
 11
74.0652591642
 21
113.2023367105
  0
LINE
  5
464
100
AcDbEntity
  8
0
100
AcDbLine
 62
250
  6
CONTINUOUS
 10
76.2080981642
 20
119.7040827105
 11
73.4105021642
 21
119.7040827105
  0
LINE
  5
465
100
AcDbEntity
  8
0
100
AcDbLine
 62
250
  6
CONTINUOUS
 10
76.2080981642
 20
121.8355837105
 11
73.4105021642
 21
121.8355837105
  0
LINE
  5
466
100
AcDbEntity
  8
0
100
AcDbLine
 62
250
  6
CONTINUOUS
 10
76.2080981642
 20
123.4342107105
 11
73.4105021642
 21
123.4342107105
  0
LINE
  5
467
100
AcDbEntity
  8
0
100
AcDbLine
 62
250
  6
CONTINUOUS
 10
76.2080981642
 20
124.8330087105
 11
73.4105021642
 21
124.8330087105
  0
LINE
  5
468
100
AcDbEntity
  8
RACCORDO
100
AcDbLine
 62
250
  6
CONTINUOUS
 10
195.9537628488
 20
129.0239657666
 11
195.9695114536
 21
121.6783803264
  0
LINE
  5
469
100
AcDbEntity
  8
ASSI
100
AcDbLine
 62
250
  6
CONTINUOUS
 10
195.9537628488
 20
129.0239657666
 11
195.9695114536
 21
121.6783803264
  0
LINE
  5
46A
100
AcDbEntity
  8
RACCORDO
100
AcDbLine
 62
250
  6
CONTINUOUS
 10
196.4530776835
 20
129.0484531474
 11
196.4688262507
 21
121.6950400415
  0
LINE
  5
46B
100
AcDbEntity
  8
ASSI
100
AcDbLine
 62
250
  6
CONTINUOUS
 10
196.4530776835
 20
129.0484531474
 11
196.4688262507
 21
121.6950400415
  0
LINE
  5
46C
100
AcDbEntity
  8
RACCORDO
100
AcDbLine
 62
250
  6
CONTINUOUS
 10
195.9695114536
 20
121.6783803264
 11
195.9789613437
 21
114.3296017583
  0
LINE
  5
46D
100
AcDbEntity
  8
ASSI
100
AcDbLine
 62
250
  6
CONTINUOUS
 10
195.9695114536
 20
121.6783803264
 11
195.9789613437
 21
114.3296017583
  0
LINE
  5
46E
100
AcDbEntity
  8
RACCORDO
100
AcDbLine
 62
250
  6
CONTINUOUS
 10
196.4688262507
 20
121.6950400415
 11
196.4782761179
 21
114.3376902528
  0
LINE
  5
46F
100
AcDbEntity
  8
ASSI
100
AcDbLine
 62
250
  6
CONTINUOUS
 10
196.4688262507
 20
121.6950400415
 11
196.4782761179
 21
114.3376902528
  0
LINE
  5
470
100
AcDbEntity
  8
RACCORDO
100
AcDbLine
 62
250
  6
CONTINUOUS
 10
195.9789613437
 20
114.3296017583
 11
195.9821120437
 21
106.9783669453
  0
LINE
  5
471
100
AcDbEntity
  8
ASSI
100
AcDbLine
 62
250
  6
CONTINUOUS
 10
195.9789613437
 20
114.3296017583
 11
195.9821120437
 21
106.9783669453
  0
LINE
  5
472
100
AcDbEntity
  8
RACCORDO
100
AcDbLine
 62
250
  6
CONTINUOUS
 10
196.4782761179
 20
114.3376902528
 11
196.4814268111
 21
106.9783717554
  0
LINE
  5
473
100
AcDbEntity
  8
ASSI
100
AcDbLine
 62
250
  6
CONTINUOUS
 10
196.4782761179
 20
114.3376902528
 11
196.4814268111
 21
106.9783717554
  0
LINE
  5
474
100
AcDbEntity
  8
RACCORDO
100
AcDbLine
 62
250
  6
CONTINUOUS
 10
195.1513810474
 20
130.3459473269
 11
195.1513810474
 21
129.8193562215
  0
LINE
  5
475
100
AcDbEntity
  8
ASSI
100
AcDbLine
 62
250
  6
CONTINUOUS
 10
195.1513810474
 20
130.3459473269
 11
195.1513810474
 21
129.8193562215
  0
LINE
  5
476
100
AcDbEntity
  8
RACCORDO
100
AcDbLine
 62
250
  6
CONTINUOUS
 10
195.1513810474
 20
83.6107960941
 11
195.1513810474
 21
84.1373871995
  0
LINE
  5
477
100
AcDbEntity
  8
ASSI
100
AcDbLine
 62
250
  6
CONTINUOUS
 10
195.1513810474
 20
83.6107960941
 11
195.1513810474
 21
84.1373871995
  0
LINE
  5
478
100
AcDbEntity
  8
0
100
AcDbLine
 62
7
  6
CONTINUOUS
 10
195.8093001642
 20
128.8794680827
 11
195.8093001642
 21
85.0772753383
  0
LINE
  5
479
100
AcDbEntity
  8
ASSI
100
AcDbLine
 62
7
  6
CONTINUOUS
 10
195.8093001642
 20
128.8794680827
 11
195.8093001642
 21
85.0772753383
  0
LINE
  5
47A
100
AcDbEntity
  8
RACCORDO
100
AcDbLine
 62
250
  6
CONTINUOUS
 10
195.9821120437
 20
106.9783669453
 11
195.9789613308
 21
99.6271298557
  0
LINE
  5
47B
100
AcDbEntity
  8
ASSI
100
AcDbLine
 62
250
  6
CONTINUOUS
 10
195.9821120437
 20
106.9783669453
 11
195.9789613308
 21
99.6271298557
  0
LINE
  5
47C
100
AcDbEntity
  8
RACCORDO
100
AcDbLine
 62
250
  6
CONTINUOUS
 10
196.4814268111
 20
106.9783717554
 11
196.4782761181
 21
99.61905325
  0
LINE
  5
47D
100
AcDbEntity
  8
ASSI
100
AcDbLine
 62
250
  6
CONTINUOUS
 10
196.4814268111
 20
106.9783717554
 11
196.4782761181
 21
99.61905325
  0
LINE
  5
47E
100
AcDbEntity
  8
RACCORDO
100
AcDbLine
 62
250
  6
CONTINUOUS
 10
195.9789613308
 20
99.6271298557
 11
195.9695114524
 21
92.2783606215
  0
LINE
  5
47F
100
AcDbEntity
  8
ASSI
100
AcDbLine
 62
250
  6
CONTINUOUS
 10
195.9789613308
 20
99.6271298557
 11
195.9695114524
 21
92.2783606215
  0
LINE
  5
480
100
AcDbEntity
  8
RACCORDO
100
AcDbLine
 62
250
  6
CONTINUOUS
 10
196.4782761181
 20
99.61905325
 11
196.4688262509
 21
92.2617034318
  0
LINE
  5
481
100
AcDbEntity
  8
ASSI
100
AcDbLine
 62
250
  6
CONTINUOUS
 10
196.4782761181
 20
99.61905325
 11
196.4688262509
 21
92.2617034318
  0
LINE
  5
482
100
AcDbEntity
  8
RACCORDO
100
AcDbLine
 62
250
  6
CONTINUOUS
 10
195.9695114524
 20
92.2783606215
 11
195.9537628911
 21
84.9327995896
  0
LINE
  5
483
100
AcDbEntity
  8
ASSI
100
AcDbLine
 62
250
  6
CONTINUOUS
 10
195.9695114524
 20
92.2783606215
 11
195.9537628911
 21
84.9327995896
  0
LINE
  5
484
100
AcDbEntity
  8
RACCORDO
100
AcDbLine
 62
250
  6
CONTINUOUS
 10
196.4688262509
 20
92.2617034318
 11
196.4530776835
 21
84.9082902736
  0
LINE
  5
485
100
AcDbEntity
  8
ASSI
100
AcDbLine
 62
250
  6
CONTINUOUS
 10
196.4688262509
 20
92.2617034318
 11
196.4530776835
 21
84.9082902736
  0
LWPOLYLINE
  5
486
100
AcDbEntity
  8
RACCORDO
100
AcDbPolyline
 62
250
  6
CONTINUOUS
 90
10
 70
0
 10
195.9537628791
 20
84.9327996015
 10
195.95252668
 20
84.8904030392
 10
195.9490304241
 20
84.8481165313
 10
195.9432807774
 20
84.8060595961
 10
195.9352867599
 20
84.7643338908
 10
195.925069873
 20
84.7230759011
 10
195.9126733992
 20
84.6824543267
 10
195.8981442065
 20
84.6425992189
 10
195.8815232679
 20
84.6036039503
 10
195.8628621769
 20
84.5655763503
  0
LWPOLYLINE
  5
487
100
AcDbEntity
  8
ASSI
100
AcDbPolyline
 62
250
  6
CONTINUOUS
 90
10
 70
0
 10
195.9537628791
 20
84.9327996015
 10
195.95252668
 20
84.8904030392
 10
195.9490304241
 20
84.8481165313
 10
195.9432807774
 20
84.8060595961
 10
195.9352867599
 20
84.7643338908
 10
195.925069873
 20
84.7230759011
 10
195.9126733992
 20
84.6824543267
 10
195.8981442065
 20
84.6425992189
 10
195.8815232679
 20
84.6036039503
 10
195.8628621769
 20
84.5655763503
  0
LWPOLYLINE
  5
488
100
AcDbEntity
  8
RACCORDO
100
AcDbPolyline
 62
250
  6
CONTINUOUS
 90
10
 70
0
 10
196.4530776835
 20
84.9082902736
 10
196.4510389134
 20
84.8390316716
 10
196.4453657692
 20
84.7703085667
 10
196.4360582509
 20
84.7021209484
 10
196.4230543863
 20
84.6342307627
 10
196.4064161477
 20
84.5668760462
 10
196.3863294511
 20
84.5007709088
 10
196.3628562685
 20
84.4361533628
 10
196.335934628
 20
84.3727853405
 10
196.3055645295
 20
84.3106668168
  0
LWPOLYLINE
  5
489
100
AcDbEntity
  8
ASSI
100
AcDbPolyline
 62
250
  6
CONTINUOUS
 90
10
 70
0
 10
196.4530776835
 20
84.9082902736
 10
196.4510389134
 20
84.8390316716
 10
196.4453657692
 20
84.7703085667
 10
196.4360582509
 20
84.7021209484
 10
196.4230543863
 20
84.6342307627
 10
196.4064161477
 20
84.5668760462
 10
196.3863294511
 20
84.5007709088
 10
196.3628562685
 20
84.4361533628
 10
196.335934628
 20
84.3727853405
 10
196.3055645295
 20
84.3106668168
  0
LWPOLYLINE
  5
48A
100
AcDbEntity
  8
RACCORDO
100
AcDbPolyline
 62
250
  6
CONTINUOUS
 90
14
 70
0
 10
267.0625347216
 20
129.5151880511
 10
267.0363090338
 20
129.5004522656
 10
267.0114999094
 20
129.4863501067
 10
266.9882378726
 20
129.4729557682
 10
266.9666453087
 20
129.4603397196
 10
266.9468358193
 20
129.4485683357
 10
266.9289136251
 20
129.4377035476
 10
266.9129730174
 20
129.4278025165
 10
266.8990978622
 20
129.4189173333
 10
266.8873611587
 20
129.4110947441
 10
266.8778246554
 20
129.4043759048
 10
266.8705385254
 20
129.3987961642
 10
266.865541102
 20
129.3943848781
 10
266.8628586775
 20
129.391165255
  0
LWPOLYLINE
  5
48B
100
AcDbEntity
  8
ASSI
100
AcDbPolyline
 62
250
  6
CONTINUOUS
 90
14
 70
0
 10
267.0625347216
 20
129.5151880511
 10
267.0363090338
 20
129.5004522656
 10
267.0114999094
 20
129.4863501067
 10
266.9882378726
 20
129.4729557682
 10
266.9666453087
 20
129.4603397196
 10
266.9468358193
 20
129.4485683357
 10
266.9289136251
 20
129.4377035476
 10
266.9129730174
 20
129.4278025165
 10
266.8990978622
 20
129.4189173333
 10
266.8873611587
 20
129.4110947441
 10
266.8778246554
 20
129.4043759048
 10
266.8705385254
 20
129.3987961642
 10
266.865541102
 20
129.3943848781
 10
266.8628586775
 20
129.391165255
  0
LINE
  5
48C
100
AcDbEntity
  8
RACCORDO
100
AcDbLine
 62
250
  6
CONTINUOUS
 10
267.1186771509
 20
129.546247468
 11
267.0625347216
 21
129.5151880511
  0
LINE
  5
48D
100
AcDbEntity
  8
ASSI
100
AcDbLine
 62
250
  6
CONTINUOUS
 10
267.1186771509
 20
129.546247468
 11
267.0625347216
 21
129.5151880511
  0
LINE
  5
48E
100
AcDbEntity
  8
RACCORDO
100
AcDbLine
 62
250
  6
CONTINUOUS
 10
267.1787472566
 20
129.5788755843
 11
267.1186771509
 21
129.546247468
  0
LINE
  5
48F
100
AcDbEntity
  8
ASSI
100
AcDbLine
 62
250
  6
CONTINUOUS
 10
267.1787472566
 20
129.5788755843
 11
267.1186771509
 21
129.546247468
  0
LINE
  5
490
100
AcDbEntity
  8
RACCORDO
100
AcDbLine
 62
250
  6
CONTINUOUS
 10
267.2414825502
 20
129.6123866578
 11
267.1787472566
 21
129.5788755843
  0
LINE
  5
491
100
AcDbEntity
  8
ASSI
100
AcDbLine
 62
250
  6
CONTINUOUS
 10
267.2414825502
 20
129.6123866578
 11
267.1787472566
 21
129.5788755843
  0
LINE
  5
492
100
AcDbEntity
  8
RACCORDO
100
AcDbLine
 62
250
  6
CONTINUOUS
 10
267.3055645294
 20
129.646076389
 11
267.2414825502
 21
129.6123866578
  0
LINE
  5
493
100
AcDbEntity
  8
ASSI
100
AcDbLine
 62
250
  6
CONTINUOUS
 10
267.3055645294
 20
129.646076389
 11
267.2414825502
 21
129.6123866578
  0
LINE
  5
494
100
AcDbEntity
  8
0
100
AcDbLine
 62
250
  6
CONTINUOUS
 10
75.7319111642
 20
103.0318057105
 11
75.5533421642
 21
102.9891447105
  0
LINE
  5
495
100
AcDbEntity
  8
0
100
AcDbLine
 62
250
  6
CONTINUOUS
 10
75.7319111642
 20
103.3815057105
 11
75.5533421642
 21
103.3388447105
  0
LINE
  5
496
100
AcDbEntity
  8
0
100
AcDbLine
 62
250
  6
CONTINUOUS
 10
75.6723881642
 20
111.2549507105
 11
75.4938181642
 21
111.2122907105
  0
LINE
  5
497
100
AcDbEntity
  8
0
100
AcDbLine
 62
250
  6
CONTINUOUS
 10
74.1247821642
 20
112.8474307105
 11
74.3628751642
 21
112.8848827105
  0
LWPOLYLINE
  5
498
100
AcDbEntity
  8
RACCORDO
100
AcDbPolyline
 62
250
  6
CONTINUOUS
 90
15
 70
0
 10
267.2106644846
 20
129.0447559525
 10
267.179704322
 20
129.0437614783
 10
267.1501729142
 20
129.0426633615
 10
267.1222246035
 20
129.0414673412
 10
267.0960054587
 20
129.0401796684
 10
267.0716525111
 20
129.0388070729
 10
267.0492930386
 20
129.0373567284
 10
267.0290439006
 20
129.0358362151
 10
267.0110109266
 20
129.0342534796
 10
266.9952883642
 20
129.032616794
 10
266.9819583854
 20
129.0309347122
 10
266.9710906578
 20
129.0292160255
 10
266.9627419804
 20
129.0274697163
 10
266.9569559865
 20
129.0257049115
 10
266.9537629162
 20
129.0239308347
  0
LWPOLYLINE
  5
499
100
AcDbEntity
  8
ASSI
100
AcDbPolyline
 62
250
  6
CONTINUOUS
 90
15
 70
0
 10
267.2106644846
 20
129.0447559525
 10
267.179704322
 20
129.0437614783
 10
267.1501729142
 20
129.0426633615
 10
267.1222246035
 20
129.0414673412
 10
267.0960054587
 20
129.0401796684
 10
267.0716525111
 20
129.0388070729
 10
267.0492930386
 20
129.0373567284
 10
267.0290439006
 20
129.0358362151
 10
267.0110109266
 20
129.0342534796
 10
266.9952883642
 20
129.032616794
 10
266.9819583854
 20
129.0309347122
 10
266.9710906578
 20
129.0292160255
 10
266.9627419804
 20
129.0274697163
 10
266.9569559865
 20
129.0257049115
 10
266.9537629162
 20
129.0239308347
  0
LWPOLYLINE
  5
49A
100
AcDbEntity
  8
RACCORDO
100
AcDbPolyline
 62
250
  6
CONTINUOUS
 90
15
 70
0
 10
196.2106644846
 20
129.0447559525
 10
196.179704322
 20
129.0437614783
 10
196.1501729142
 20
129.0426633615
 10
196.1222246035
 20
129.0414673412
 10
196.0960054587
 20
129.0401796684
 10
196.0716525111
 20
129.0388070729
 10
196.0492930386
 20
129.0373567284
 10
196.0290439006
 20
129.0358362151
 10
196.0110109266
 20
129.0342534796
 10
195.9952883642
 20
129.032616794
 10
195.9819583854
 20
129.0309347122
 10
195.9710906578
 20
129.0292160255
 10
195.9627419804
 20
129.0274697163
 10
195.9569559865
 20
129.0257049115
 10
195.9537629162
 20
129.0239308347
  0
LWPOLYLINE
  5
49B
100
AcDbEntity
  8
ASSI
100
AcDbPolyline
 62
250
  6
CONTINUOUS
 90
15
 70
0
 10
196.2106644846
 20
129.0447559525
 10
196.179704322
 20
129.0437614783
 10
196.1501729142
 20
129.0426633615
 10
196.1222246035
 20
129.0414673412
 10
196.0960054587
 20
129.0401796684
 10
196.0716525111
 20
129.0388070729
 10
196.0492930386
 20
129.0373567284
 10
196.0290439006
 20
129.0358362151
 10
196.0110109266
 20
129.0342534796
 10
195.9952883642
 20
129.032616794
 10
195.9819583854
 20
129.0309347122
 10
195.9710906578
 20
129.0292160255
 10
195.9627419804
 20
129.0274697163
 10
195.9569559865
 20
129.0257049115
 10
195.9537629162
 20
129.0239308347
  0
LWPOLYLINE
  5
49C
100
AcDbEntity
  8
RACCORDO
100
AcDbPolyline
 62
250
  6
CONTINUOUS
 90
15
 70
0
 10
125.2106644846
 20
129.0447559525
 10
125.179704322
 20
129.0437614783
 10
125.1501729142
 20
129.0426633615
 10
125.1222246035
 20
129.0414673412
 10
125.0960054587
 20
129.0401796684
 10
125.0716525111
 20
129.0388070729
 10
125.0492930386
 20
129.0373567284
 10
125.0290439006
 20
129.0358362151
 10
125.0110109266
 20
129.0342534796
 10
124.9952883642
 20
129.032616794
 10
124.9819583854
 20
129.0309347122
 10
124.9710906578
 20
129.0292160255
 10
124.9627419804
 20
129.0274697163
 10
124.9569559865
 20
129.0257049115
 10
124.9537629162
 20
129.0239308347
  0
LWPOLYLINE
  5
49D
100
AcDbEntity
  8
ASSI
100
AcDbPolyline
 62
250
  6
CONTINUOUS
 90
15
 70
0
 10
125.2106644846
 20
129.0447559525
 10
125.179704322
 20
129.0437614783
 10
125.1501729142
 20
129.0426633615
 10
125.1222246035
 20
129.0414673412
 10
125.0960054587
 20
129.0401796684
 10
125.0716525111
 20
129.0388070729
 10
125.0492930386
 20
129.0373567284
 10
125.0290439006
 20
129.0358362151
 10
125.0110109266
 20
129.0342534796
 10
124.9952883642
 20
129.032616794
 10
124.9819583854
 20
129.0309347122
 10
124.9710906578
 20
129.0292160255
 10
124.9627419804
 20
129.0274697163
 10
124.9569559865
 20
129.0257049115
 10
124.9537629162
 20
129.0239308347
  0
LINE
  5
49E
100
AcDbEntity
  8
RACCORDO
100
AcDbLine
 62
250
  6
CONTINUOUS
 10
267.2762172131
 20
129.046413752
 11
267.2106644846
 21
129.0447559525
  0
LINE
  5
49F
100
AcDbEntity
  8
ASSI
100
AcDbLine
 62
250
  6
CONTINUOUS
 10
267.2762172131
 20
129.046413752
 11
267.2106644846
 21
129.0447559525
  0
LINE
  5
4A0
100
AcDbEntity
  8
RACCORDO
100
AcDbLine
 62
250
  6
CONTINUOUS
 10
196.2762172131
 20
129.046413752
 11
196.2106644846
 21
129.0447559525
  0
LINE
  5
4A1
100
AcDbEntity
  8
ASSI
100
AcDbLine
 62
250
  6
CONTINUOUS
 10
196.2762172131
 20
129.046413752
 11
196.2106644846
 21
129.0447559525
  0
LINE
  5
4A2
100
AcDbEntity
  8
RACCORDO
100
AcDbLine
 62
250
  6
CONTINUOUS
 10
125.2762172131
 20
129.046413752
 11
125.2106644846
 21
129.0447559525
  0
LINE
  5
4A3
100
AcDbEntity
  8
ASSI
100
AcDbLine
 62
250
  6
CONTINUOUS
 10
125.2762172131
 20
129.046413752
 11
125.2106644846
 21
129.0447559525
  0
LINE
  5
4A4
100
AcDbEntity
  8
RACCORDO
100
AcDbLine
 62
250
  6
CONTINUOUS
 10
267.345462475
 20
129.047602148
 11
267.2762172131
 21
129.046413752
  0
LINE
  5
4A5
100
AcDbEntity
  8
ASSI
100
AcDbLine
 62
250
  6
CONTINUOUS
 10
267.345462475
 20
129.047602148
 11
267.2762172131
 21
129.046413752
  0
LINE
  5
4A6
100
AcDbEntity
  8
RACCORDO
100
AcDbLine
 62
250
  6
CONTINUOUS
 10
196.345462475
 20
129.047602148
 11
196.2762172131
 21
129.046413752
  0
LINE
  5
4A7
100
AcDbEntity
  8
ASSI
100
AcDbLine
 62
250
  6
CONTINUOUS
 10
196.345462475
 20
129.047602148
 11
196.2762172131
 21
129.046413752
  0
LINE
  5
4A8
100
AcDbEntity
  8
RACCORDO
100
AcDbLine
 62
250
  6
CONTINUOUS
 10
125.345462475
 20
129.047602148
 11
125.2762172131
 21
129.046413752
  0
LINE
  5
4A9
100
AcDbEntity
  8
ASSI
100
AcDbLine
 62
250
  6
CONTINUOUS
 10
125.345462475
 20
129.047602148
 11
125.2762172131
 21
129.046413752
  0
LWPOLYLINE
  5
4AA
100
AcDbEntity
  8
RACCORDO
100
AcDbPolyline
 62
250
  6
CONTINUOUS
 90
17
 70
0
 10
57.616153169
 20
129.6457291955
 10
57.5914129878
 20
129.6453971641
 10
57.5672070838
 20
129.644962481
 10
57.5437076241
 20
129.6444282379
 10
57.521081751
 20
129.6437982348
 10
57.4994903935
 20
129.6430769525
 10
57.4790871223
 20
129.6422695212
 10
57.4600170579
 20
129.6413816839
 10
57.442415838
 20
129.6404197554
 10
57.4264086533
 20
129.6393905776
 10
57.4121093564
 20
129.6383014706
 10
57.3996196526
 20
129.6371601807
 10
57.3890283763
 20
129.6359748255
 10
57.380410859
 20
129.634753836
 10
57.3738283938
 20
129.6335058966
 10
57.369327799
 20
129.6322398834
 10
57.3669410857
 20
129.630964801
  0
LWPOLYLINE
  5
4AB
100
AcDbEntity
  8
ASSI
100
AcDbPolyline
 62
250
  6
CONTINUOUS
 90
17
 70
0
 10
57.616153169
 20
129.6457291955
 10
57.5914129878
 20
129.6453971641
 10
57.5672070838
 20
129.644962481
 10
57.5437076241
 20
129.6444282379
 10
57.521081751
 20
129.6437982348
 10
57.4994903935
 20
129.6430769525
 10
57.4790871223
 20
129.6422695212
 10
57.4600170579
 20
129.6413816839
 10
57.442415838
 20
129.6404197554
 10
57.4264086533
 20
129.6393905776
 10
57.4121093564
 20
129.6383014706
 10
57.3996196526
 20
129.6371601807
 10
57.3890283763
 20
129.6359748255
 10
57.380410859
 20
129.634753836
 10
57.3738283938
 20
129.6335058966
 10
57.369327799
 20
129.6322398834
 10
57.3669410857
 20
129.630964801
  0
LINE
  5
4AC
100
AcDbEntity
  8
RACCORDO
100
AcDbLine
 62
250
  6
CONTINUOUS
 10
57.6665299461
 20
129.6460766036
 11
57.616153169
 21
129.6457291955
  0
LINE
  5
4AD
100
AcDbEntity
  8
ASSI
100
AcDbLine
 62
250
  6
CONTINUOUS
 10
57.6665299461
 20
129.6460766036
 11
57.616153169
 21
129.6457291955
  0
LWPOLYLINE
  5
4AE
100
AcDbEntity
  8
RACCORDO
100
AcDbPolyline
 62
250
  6
CONTINUOUS
 90
3
 70
0
 10
267.4530776835
 20
129.0484531467
 10
267.4169545517
 20
129.0482963289
 10
267.345462475
 20
129.047602148
  0
LWPOLYLINE
  5
4AF
100
AcDbEntity
  8
ASSI
100
AcDbPolyline
 62
250
  6
CONTINUOUS
 90
3
 70
0
 10
267.4530776835
 20
129.0484531467
 10
267.4169545517
 20
129.0482963289
 10
267.345462475
 20
129.047602148
  0
LWPOLYLINE
  5
4B0
100
AcDbEntity
  8
RACCORDO
100
AcDbPolyline
 62
250
  6
CONTINUOUS
 90
3
 70
0
 10
196.4530776835
 20
129.0484531467
 10
196.4169545517
 20
129.0482963289
 10
196.345462475
 20
129.047602148
  0
LWPOLYLINE
  5
4B1
100
AcDbEntity
  8
ASSI
100
AcDbPolyline
 62
250
  6
CONTINUOUS
 90
3
 70
0
 10
196.4530776835
 20
129.0484531467
 10
196.4169545517
 20
129.0482963289
 10
196.345462475
 20
129.047602148
  0
LWPOLYLINE
  5
4B2
100
AcDbEntity
  8
RACCORDO
100
AcDbPolyline
 62
250
  6
CONTINUOUS
 90
3
 70
0
 10
125.4530776835
 20
129.0484531467
 10
125.4169545517
 20
129.0482963289
 10
125.345462475
 20
129.047602148
  0
LWPOLYLINE
  5
4B3
100
AcDbEntity
  8
ASSI
100
AcDbPolyline
 62
250
  6
CONTINUOUS
 90
3
 70
0
 10
125.4530776835
 20
129.0484531467
 10
125.4169545517
 20
129.0482963289
 10
125.345462475
 20
129.047602148
  0
LINE
  5
4B4
100
AcDbEntity
  8
0
100
AcDbLine
 62
250
  6
CONTINUOUS
 10
73.9600301642
 20
128.2300887105
 11
75.6585701642
 21
128.2300887105
  0
LINE
  5
4B5
100
AcDbEntity
  8
0
100
AcDbLine
 62
250
  6
CONTINUOUS
 10
74.0599441642
 20
128.3300027105
 11
75.5586561642
 21
128.3300027105
  0
LINE
  5
4B6
100
AcDbEntity
  8
0
100
AcDbLine
 62
250
  6
CONTINUOUS
 10
74.1598581642
 20
128.4299177105
 11
75.4587421642
 21
128.4299177105
  0
LINE
  5
4B7
100
AcDbEntity
  8
0
100
AcDbLine
 62
250
  6
CONTINUOUS
 10
72.8110171642
 20
129.3791017105
 11
73.9600301642
 21
129.3791017105
  0
LINE
  5
4B8
100
AcDbEntity
  8
0
100
AcDbLine
 62
250
  6
CONTINUOUS
 10
75.6585701642
 20
129.3791017105
 11
76.8075831642
 21
129.3791017105
  0
LINE
  5
4B9
100
AcDbEntity
  8
0
100
AcDbLine
 62
250
  6
CONTINUOUS
 10
72.9109311642
 20
129.4790157105
 11
74.0599441642
 21
129.4790157105
  0
LINE
  5
4BA
100
AcDbEntity
  8
0
100
AcDbLine
 62
250
  6
CONTINUOUS
 10
75.5586561642
 20
129.4790157105
 11
76.7076691642
 21
129.4790157105
  0
LINE
  5
4BB
100
AcDbEntity
  8
0
100
AcDbLine
 62
250
  6
CONTINUOUS
 10
73.0108461642
 20
129.5789297105
 11
74.1598581642
 21
129.5789297105
  0
LINE
  5
4BC
100
AcDbEntity
  8
0
100
AcDbLine
 62
250
  6
CONTINUOUS
 10
75.4587421642
 20
129.5789297105
 11
76.6077541642
 21
129.5789297105
  0
LINE
  5
4BD
100
AcDbEntity
  8
RACCORDO
100
AcDbLine
 62
250
  6
CONTINUOUS
 10
220.9130357989
 20
129.6460766042
 11
196.3055645295
 21
129.6460766042
  0
LINE
  5
4BE
100
AcDbEntity
  8
ASSI
100
AcDbLine
 62
250
  6
CONTINUOUS
 10
220.9130357989
 20
129.6460766042
 11
196.3055645295
 21
129.6460766042
  0
LINE
  5
4BF
100
AcDbEntity
  8
RACCORDO
100
AcDbLine
 62
250
  6
CONTINUOUS
 10
149.9130357989
 20
129.6460766042
 11
125.3055645295
 21
129.6460766042
  0
LINE
  5
4C0
100
AcDbEntity
  8
ASSI
100
AcDbLine
 62
250
  6
CONTINUOUS
 10
149.9130357989
 20
129.6460766042
 11
125.3055645295
 21
129.6460766042
  0
LINE
  5
4C1
100
AcDbEntity
  8
RACCORDO
100
AcDbLine
 62
250
  6
CONTINUOUS
 10
288.5520701659
 20
129.6460189676
 11
267.3055645295
 21
129.6460766042
  0
LINE
  5
4C2
100
AcDbEntity
  8
ASSI
100
AcDbLine
 62
250
  6
CONTINUOUS
 10
288.5520701659
 20
129.6460189676
 11
267.3055645295
 21
129.6460766042
  0
LINE
  5
4C3
100
AcDbEntity
  8
RACCORDO
100
AcDbLine
 62
250
  6
CONTINUOUS
 10
78.9130357988
 20
129.6460766042
 11
57.6665301618
 21
129.6460191154
  0
LINE
  5
4C4
100
AcDbEntity
  8
ASSI
100
AcDbLine
 62
250
  6
CONTINUOUS
 10
78.9130357988
 20
129.6460766042
 11
57.6665301618
 21
129.6460191154
  0
LINE
  5
4C5
100
AcDbEntity
  8
0
100
AcDbLine
 62
7
  6
CONTINUOUS
 10
80.208203792
 20
129.6783717105
 11
124.0103965364
 21
129.6783717105
  0
LINE
  5
4C6
100
AcDbEntity
  8
ASSI
100
AcDbLine
 62
7
  6
CONTINUOUS
 10
80.208203792
 20
129.6783717105
 11
124.0103965364
 21
129.6783717105
  0
LINE
  5
4C7
100
AcDbEntity
  8
0
100
AcDbLine
 62
7
  6
CONTINUOUS
 10
151.208203792
 20
129.6783717105
 11
195.0103965364
 21
129.6783717105
  0
LINE
  5
4C8
100
AcDbEntity
  8
ASSI
100
AcDbLine
 62
7
  6
CONTINUOUS
 10
151.208203792
 20
129.6783717105
 11
195.0103965364
 21
129.6783717105
  0
LINE
  5
4C9
100
AcDbEntity
  8
0
100
AcDbLine
 62
7
  6
CONTINUOUS
 10
222.208203792
 20
129.6783717105
 11
266.0103965364
 21
129.6783717105
  0
LINE
  5
4CA
100
AcDbEntity
  8
ASSI
100
AcDbLine
 62
7
  6
CONTINUOUS
 10
222.208203792
 20
129.6783717105
 11
266.0103965364
 21
129.6783717105
  0
LINE
  5
4CB
100
AcDbEntity
  8
RACCORDO
100
AcDbLine
 62
250
  6
CONTINUOUS
 10
80.0671921834
 20
129.8193562215
 11
124.1513939478
 21
129.8193562215
  0
LINE
  5
4CC
100
AcDbEntity
  8
ASSI
100
AcDbLine
 62
250
  6
CONTINUOUS
 10
80.0671921834
 20
129.8193562215
 11
124.1513939478
 21
129.8193562215
  0
LINE
  5
4CD
100
AcDbEntity
  8
RACCORDO
100
AcDbLine
 62
250
  6
CONTINUOUS
 10
151.0671921834
 20
129.8193562215
 11
195.1513939478
 21
129.8193562215
  0
LINE
  5
4CE
100
AcDbEntity
  8
ASSI
100
AcDbLine
 62
250
  6
CONTINUOUS
 10
151.0671921834
 20
129.8193562215
 11
195.1513939478
 21
129.8193562215
  0
LINE
  5
4CF
100
AcDbEntity
  8
RACCORDO
100
AcDbLine
 62
250
  6
CONTINUOUS
 10
222.0671921834
 20
129.8193562215
 11
266.1513939478
 21
129.8193562215
  0
LINE
  5
4D0
100
AcDbEntity
  8
ASSI
100
AcDbLine
 62
250
  6
CONTINUOUS
 10
222.0671921834
 20
129.8193562215
 11
266.1513939478
 21
129.8193562215
  0
LINE
  5
4D1
100
AcDbEntity
  8
RACCORDO
100
AcDbLine
 62
250
  6
CONTINUOUS
 10
80.0672192809
 20
130.3459473269
 11
124.1513810474
 21
130.3459473269
  0
LINE
  5
4D2
100
AcDbEntity
  8
ASSI
100
AcDbLine
 62
250
  6
CONTINUOUS
 10
80.0672192809
 20
130.3459473269
 11
124.1513810474
 21
130.3459473269
  0
LINE
  5
4D3
100
AcDbEntity
  8
RACCORDO
100
AcDbLine
 62
250
  6
CONTINUOUS
 10
151.0672192809
 20
130.3459473269
 11
195.1513810474
 21
130.3459473269
  0
LINE
  5
4D4
100
AcDbEntity
  8
ASSI
100
AcDbLine
 62
250
  6
CONTINUOUS
 10
151.0672192809
 20
130.3459473269
 11
195.1513810474
 21
130.3459473269
  0
LINE
  5
4D5
100
AcDbEntity
  8
RACCORDO
100
AcDbLine
 62
250
  6
CONTINUOUS
 10
222.0672192809
 20
130.3459473269
 11
266.1513810474
 21
130.3459473269
  0
LINE
  5
4D6
100
AcDbEntity
  8
ASSI
100
AcDbLine
 62
250
  6
CONTINUOUS
 10
222.0672192809
 20
130.3459473269
 11
266.1513810474
 21
130.3459473269
  0
LINE
  5
4D7
100
AcDbEntity
  8
0
100
AcDbLine
 62
250
  6
CONTINUOUS
 10
76.6077541642
 20
130.8778137105
 11
75.4587421642
 21
130.8778137105
  0
LINE
  5
4D8
100
AcDbEntity
  8
0
100
AcDbLine
 62
250
  6
CONTINUOUS
 10
74.1598581642
 20
130.8778137105
 11
73.0108461642
 21
130.8778137105
  0
LINE
  5
4D9
100
AcDbEntity
  8
0
100
AcDbLine
 62
250
  6
CONTINUOUS
 10
76.7076691642
 20
130.9777277105
 11
75.5586561642
 21
130.9777277105
  0
LINE
  5
4DA
100
AcDbEntity
  8
0
100
AcDbLine
 62
250
  6
CONTINUOUS
 10
74.0599441642
 20
130.9777277105
 11
72.9109311642
 21
130.9777277105
  0
LINE
  5
4DB
100
AcDbEntity
  8
0
100
AcDbLine
 62
250
  6
CONTINUOUS
 10
76.8075831642
 20
131.0776417105
 11
75.6585701642
 21
131.0776417105
  0
LINE
  5
4DC
100
AcDbEntity
  8
0
100
AcDbLine
 62
250
  6
CONTINUOUS
 10
73.9600301642
 20
131.0776417105
 11
72.8110171642
 21
131.0776417105
  0
LINE
  5
4DD
100
AcDbEntity
  8
0
100
AcDbLine
 62
250
  6
CONTINUOUS
 10
75.4587421642
 20
132.0268257105
 11
74.1598581642
 21
132.0268257105
  0
LINE
  5
4DE
100
AcDbEntity
  8
0
100
AcDbLine
 62
250
  6
CONTINUOUS
 10
75.5586561642
 20
132.1267407105
 11
74.0599441642
 21
132.1267407105
  0
LINE
  5
4DF
100
AcDbEntity
  8
0
100
AcDbLine
 62
250
  6
CONTINUOUS
 10
75.6585701642
 20
132.2266547105
 11
73.9600301642
 21
132.2266547105
  0
LINE
  5
4E0
100
AcDbEntity
  8
RACCORDO
100
AcDbLine
 62
250
  6
CONTINUOUS
 10
78.7655226448
 20
129.0484529758
 11
78.8375803453
 21
129.0480120318
  0
LINE
  5
4E1
100
AcDbEntity
  8
ASSI
100
AcDbLine
 62
250
  6
CONTINUOUS
 10
78.7655226448
 20
129.0484529758
 11
78.8375803453
 21
129.0480120318
  0
LINE
  5
4E2
100
AcDbEntity
  8
RACCORDO
100
AcDbLine
 62
250
  6
CONTINUOUS
 10
149.7655226448
 20
129.0484529758
 11
149.8375803453
 21
129.0480120318
  0
LINE
  5
4E3
100
AcDbEntity
  8
ASSI
100
AcDbLine
 62
250
  6
CONTINUOUS
 10
149.7655226448
 20
129.0484529758
 11
149.8375803453
 21
129.0480120318
  0
LINE
  5
4E4
100
AcDbEntity
  8
RACCORDO
100
AcDbLine
 62
250
  6
CONTINUOUS
 10
220.7655226448
 20
129.0484529758
 11
220.8375803453
 21
129.0480120318
  0
LINE
  5
4E5
100
AcDbEntity
  8
ASSI
100
AcDbLine
 62
250
  6
CONTINUOUS
 10
220.7655226448
 20
129.0484529758
 11
220.8375803453
 21
129.0480120318
  0
LWPOLYLINE
  5
4E6
100
AcDbEntity
  8
RACCORDO
100
AcDbPolyline
 62
250
  6
CONTINUOUS
 90
18
 70
0
 10
288.5520703822
 20
129.6460766034
 10
288.6024471589
 20
129.6457291953
 10
288.6271873399
 20
129.6453971639
 10
288.6513932436
 20
129.6449624808
 10
288.6748927032
 20
129.6444282378
 10
288.6975185761
 20
129.6437982346
 10
288.7191099335
 20
129.6430769523
 10
288.7395132046
 20
129.642269521
 10
288.758583269
 20
129.6413816838
 10
288.7761844888
 20
129.6404197553
 10
288.7921916736
 20
129.6393905775
 10
288.8064909706
 20
129.6383014705
 10
288.8189806744
 20
129.6371601806
 10
288.8295719509
 20
129.6359748255
 10
288.8381894684
 20
129.634753836
 10
288.8447719339
 20
129.6335058966
 10
288.849272529
 20
129.6322398833
 10
288.8516592427
 20
129.630964801
  0
LWPOLYLINE
  5
4E7
100
AcDbEntity
  8
ASSI
100
AcDbPolyline
 62
250
  6
CONTINUOUS
 90
18
 70
0
 10
288.5520703822
 20
129.6460766034
 10
288.6024471589
 20
129.6457291953
 10
288.6271873399
 20
129.6453971639
 10
288.6513932436
 20
129.6449624808
 10
288.6748927032
 20
129.6444282378
 10
288.6975185761
 20
129.6437982346
 10
288.7191099335
 20
129.6430769523
 10
288.7395132046
 20
129.642269521
 10
288.758583269
 20
129.6413816838
 10
288.7761844888
 20
129.6404197553
 10
288.7921916736
 20
129.6393905775
 10
288.8064909706
 20
129.6383014705
 10
288.8189806744
 20
129.6371601806
 10
288.8295719509
 20
129.6359748255
 10
288.8381894684
 20
129.634753836
 10
288.8447719339
 20
129.6335058966
 10
288.849272529
 20
129.6322398833
 10
288.8516592427
 20
129.630964801
  0
LINE
  5
4E8
100
AcDbEntity
  8
RACCORDO
100
AcDbLine
 62
250
  6
CONTINUOUS
 10
78.8375803453
 20
129.0480120318
 11
78.9081336953
 21
129.0470683082
  0
LINE
  5
4E9
100
AcDbEntity
  8
ASSI
100
AcDbLine
 62
250
  6
CONTINUOUS
 10
78.8375803453
 20
129.0480120318
 11
78.9081336953
 21
129.0470683082
  0
LINE
  5
4EA
100
AcDbEntity
  8
RACCORDO
100
AcDbLine
 62
250
  6
CONTINUOUS
 10
149.8375803453
 20
129.0480120318
 11
149.9081336953
 21
129.0470683082
  0
LINE
  5
4EB
100
AcDbEntity
  8
ASSI
100
AcDbLine
 62
250
  6
CONTINUOUS
 10
149.8375803453
 20
129.0480120318
 11
149.9081336953
 21
129.0470683082
  0
LINE
  5
4EC
100
AcDbEntity
  8
RACCORDO
100
AcDbLine
 62
250
  6
CONTINUOUS
 10
220.8375803453
 20
129.0480120318
 11
220.9081336953
 21
129.0470683082
  0
LINE
  5
4ED
100
AcDbEntity
  8
ASSI
100
AcDbLine
 62
250
  6
CONTINUOUS
 10
220.8375803453
 20
129.0480120318
 11
220.9081336953
 21
129.0470683082
  0
LWPOLYLINE
  5
4EE
100
AcDbEntity
  8
RACCORDO
100
AcDbPolyline
 62
250
  6
CONTINUOUS
 90
17
 70
0
 10
78.9081336953
 20
129.0470683082
 10
78.9757096469
 20
129.0456415087
 10
79.0079369517
 20
129.0447558863
 10
79.038897316
 20
129.0437614226
 10
79.068428927
 20
129.0426633152
 10
79.0963774391
 20
129.0414673034
 10
79.1225967807
 20
129.0401796379
 10
79.1469499177
 20
129.0388070487
 10
79.1693095696
 20
129.0373567096
 10
79.1895588746
 20
129.0358362008
 10
79.2075920008
 20
129.034253469
 10
79.2233146988
 20
129.0326167864
 10
79.2366447948
 20
129.030934707
 10
79.2475126196
 20
129.0292160221
 10
79.255861373
 20
129.0274697143
 10
79.2616474207
 20
129.0257049107
 10
79.2648405221
 20
129.0239308348
  0
LWPOLYLINE
  5
4EF
100
AcDbEntity
  8
ASSI
100
AcDbPolyline
 62
250
  6
CONTINUOUS
 90
17
 70
0
 10
78.9081336953
 20
129.0470683082
 10
78.9757096469
 20
129.0456415087
 10
79.0079369517
 20
129.0447558863
 10
79.038897316
 20
129.0437614226
 10
79.068428927
 20
129.0426633152
 10
79.0963774391
 20
129.0414673034
 10
79.1225967807
 20
129.0401796379
 10
79.1469499177
 20
129.0388070487
 10
79.1693095696
 20
129.0373567096
 10
79.1895588746
 20
129.0358362008
 10
79.2075920008
 20
129.034253469
 10
79.2233146988
 20
129.0326167864
 10
79.2366447948
 20
129.030934707
 10
79.2475126196
 20
129.0292160221
 10
79.255861373
 20
129.0274697143
 10
79.2616474207
 20
129.0257049107
 10
79.2648405221
 20
129.0239308348
  0
LWPOLYLINE
  5
4F0
100
AcDbEntity
  8
RACCORDO
100
AcDbPolyline
 62
250
  6
CONTINUOUS
 90
17
 70
0
 10
149.9081336953
 20
129.0470683082
 10
149.9757096469
 20
129.0456415087
 10
150.0079369517
 20
129.0447558863
 10
150.038897316
 20
129.0437614226
 10
150.068428927
 20
129.0426633152
 10
150.0963774391
 20
129.0414673034
 10
150.1225967807
 20
129.0401796379
 10
150.1469499177
 20
129.0388070487
 10
150.1693095696
 20
129.0373567096
 10
150.1895588746
 20
129.0358362008
 10
150.2075920008
 20
129.034253469
 10
150.2233146988
 20
129.0326167864
 10
150.2366447948
 20
129.030934707
 10
150.2475126196
 20
129.0292160221
 10
150.255861373
 20
129.0274697143
 10
150.2616474207
 20
129.0257049107
 10
150.2648405221
 20
129.0239308348
  0
LWPOLYLINE
  5
4F1
100
AcDbEntity
  8
ASSI
100
AcDbPolyline
 62
250
  6
CONTINUOUS
 90
17
 70
0
 10
149.9081336953
 20
129.0470683082
 10
149.9757096469
 20
129.0456415087
 10
150.0079369517
 20
129.0447558863
 10
150.038897316
 20
129.0437614226
 10
150.068428927
 20
129.0426633152
 10
150.0963774391
 20
129.0414673034
 10
150.1225967807
 20
129.0401796379
 10
150.1469499177
 20
129.0388070487
 10
150.1693095696
 20
129.0373567096
 10
150.1895588746
 20
129.0358362008
 10
150.2075920008
 20
129.034253469
 10
150.2233146988
 20
129.0326167864
 10
150.2366447948
 20
129.030934707
 10
150.2475126196
 20
129.0292160221
 10
150.255861373
 20
129.0274697143
 10
150.2616474207
 20
129.0257049107
 10
150.2648405221
 20
129.0239308348
  0
LWPOLYLINE
  5
4F2
100
AcDbEntity
  8
RACCORDO
100
AcDbPolyline
 62
250
  6
CONTINUOUS
 90
17
 70
0
 10
220.9081336953
 20
129.0470683082
 10
220.9757096469
 20
129.0456415087
 10
221.0079369517
 20
129.0447558863
 10
221.038897316
 20
129.0437614226
 10
221.068428927
 20
129.0426633152
 10
221.0963774391
 20
129.0414673034
 10
221.1225967807
 20
129.0401796379
 10
221.1469499177
 20
129.0388070487
 10
221.1693095696
 20
129.0373567096
 10
221.1895588746
 20
129.0358362008
 10
221.2075920008
 20
129.034253469
 10
221.2233146988
 20
129.0326167864
 10
221.2366447948
 20
129.030934707
 10
221.2475126196
 20
129.0292160221
 10
221.255861373
 20
129.0274697143
 10
221.2616474207
 20
129.0257049107
 10
221.2648405221
 20
129.0239308348
  0
LWPOLYLINE
  5
4F3
100
AcDbEntity
  8
ASSI
100
AcDbPolyline
 62
250
  6
CONTINUOUS
 90
17
 70
0
 10
220.9081336953
 20
129.0470683082
 10
220.9757096469
 20
129.0456415087
 10
221.0079369517
 20
129.0447558863
 10
221.038897316
 20
129.0437614226
 10
221.068428927
 20
129.0426633152
 10
221.0963774391
 20
129.0414673034
 10
221.1225967807
 20
129.0401796379
 10
221.1469499177
 20
129.0388070487
 10
221.1693095696
 20
129.0373567096
 10
221.1895588746
 20
129.0358362008
 10
221.2075920008
 20
129.034253469
 10
221.2233146988
 20
129.0326167864
 10
221.2366447948
 20
129.030934707
 10
221.2475126196
 20
129.0292160221
 10
221.255861373
 20
129.0274697143
 10
221.2616474207
 20
129.0257049107
 10
221.2648405221
 20
129.0239308348
  0
LWPOLYLINE
  5
4F4
100
AcDbEntity
  8
RACCORDO
100
AcDbPolyline
 62
250
  6
CONTINUOUS
 90
22
 70
0
 10
124.1513939697
 20
129.8193562434
 10
124.1921492856
 20
129.8183951427
 10
124.2329785046
 20
129.8153560062
 10
124.2737736839
 20
129.8102197916
 10
124.3144379814
 20
129.8029709922
 10
124.3548455388
 20
129.7936027537
 10
124.394843318
 20
129.7821236226
 10
124.4343407421
 20
129.7685354957
 10
124.473200324
 20
129.7528610745
 10
124.5112060158
 20
129.735171455
 10
124.5482344051
 20
129.7155214507
 10
124.5842012941
 20
129.6939531485
 10
124.6189635075
 20
129.6705497944
 10
124.6524247272
 20
129.645381222
 10
124.6844994679
 20
129.6185171194
 10
124.7150743119
 20
129.5900587017
 10
124.74407301
 20
129.5600899022
 10
124.7714232173
 20
129.5286994693
 10
124.7970330942
 20
129.4960096589
 10
124.82083821
 20
129.4621290273
 10
124.8427963819
 20
129.4271475987
 10
124.8628621769
 20
129.3911670707
  0
LWPOLYLINE
  5
4F5
100
AcDbEntity
  8
ASSI
100
AcDbPolyline
 62
250
  6
CONTINUOUS
 90
22
 70
0
 10
124.1513939697
 20
129.8193562434
 10
124.1921492856
 20
129.8183951427
 10
124.2329785046
 20
129.8153560062
 10
124.2737736839
 20
129.8102197916
 10
124.3144379814
 20
129.8029709922
 10
124.3548455388
 20
129.7936027537
 10
124.394843318
 20
129.7821236226
 10
124.4343407421
 20
129.7685354957
 10
124.473200324
 20
129.7528610745
 10
124.5112060158
 20
129.735171455
 10
124.5482344051
 20
129.7155214507
 10
124.5842012941
 20
129.6939531485
 10
124.6189635075
 20
129.6705497944
 10
124.6524247272
 20
129.645381222
 10
124.6844994679
 20
129.6185171194
 10
124.7150743119
 20
129.5900587017
 10
124.74407301
 20
129.5600899022
 10
124.7714232173
 20
129.5286994693
 10
124.7970330942
 20
129.4960096589
 10
124.82083821
 20
129.4621290273
 10
124.8427963819
 20
129.4271475987
 10
124.8628621769
 20
129.3911670707
  0
LWPOLYLINE
  5
4F6
100
AcDbEntity
  8
RACCORDO
100
AcDbPolyline
 62
250
  6
CONTINUOUS
 90
22
 70
0
 10
195.1513939697
 20
129.8193562434
 10
195.1921492856
 20
129.8183951427
 10
195.2329785046
 20
129.8153560062
 10
195.2737736839
 20
129.8102197916
 10
195.3144379814
 20
129.8029709922
 10
195.3548455388
 20
129.7936027537
 10
195.394843318
 20
129.7821236226
 10
195.4343407421
 20
129.7685354957
 10
195.473200324
 20
129.7528610745
 10
195.5112060158
 20
129.735171455
 10
195.5482344051
 20
129.7155214507
 10
195.5842012941
 20
129.6939531485
 10
195.6189635075
 20
129.6705497944
 10
195.6524247272
 20
129.645381222
 10
195.6844994679
 20
129.6185171194
 10
195.7150743119
 20
129.5900587017
 10
195.74407301
 20
129.5600899022
 10
195.7714232173
 20
129.5286994693
 10
195.7970330942
 20
129.4960096589
 10
195.82083821
 20
129.4621290273
 10
195.8427963819
 20
129.4271475987
 10
195.8628621769
 20
129.3911670707
  0
LWPOLYLINE
  5
4F7
100
AcDbEntity
  8
ASSI
100
AcDbPolyline
 62
250
  6
CONTINUOUS
 90
22
 70
0
 10
195.1513939697
 20
129.8193562434
 10
195.1921492856
 20
129.8183951427
 10
195.2329785046
 20
129.8153560062
 10
195.2737736839
 20
129.8102197916
 10
195.3144379814
 20
129.8029709922
 10
195.3548455388
 20
129.7936027537
 10
195.394843318
 20
129.7821236226
 10
195.4343407421
 20
129.7685354957
 10
195.473200324
 20
129.7528610745
 10
195.5112060158
 20
129.735171455
 10
195.5482344051
 20
129.7155214507
 10
195.5842012941
 20
129.6939531485
 10
195.6189635075
 20
129.6705497944
 10
195.6524247272
 20
129.645381222
 10
195.6844994679
 20
129.6185171194
 10
195.7150743119
 20
129.5900587017
 10
195.74407301
 20
129.5600899022
 10
195.7714232173
 20
129.5286994693
 10
195.7970330942
 20
129.4960096589
 10
195.82083821
 20
129.4621290273
 10
195.8427963819
 20
129.4271475987
 10
195.8628621769
 20
129.3911670707
  0
LWPOLYLINE
  5
4F8
100
AcDbEntity
  8
RACCORDO
100
AcDbPolyline
 62
250
  6
CONTINUOUS
 90
22
 70
0
 10
266.1513939697
 20
129.8193562434
 10
266.1921492856
 20
129.8183951427
 10
266.2329785046
 20
129.8153560062
 10
266.2737736839
 20
129.8102197916
 10
266.3144379814
 20
129.8029709922
 10
266.3548455388
 20
129.7936027537
 10
266.394843318
 20
129.7821236226
 10
266.4343407421
 20
129.7685354957
 10
266.473200324
 20
129.7528610745
 10
266.5112060158
 20
129.735171455
 10
266.5482344051
 20
129.7155214507
 10
266.5842012941
 20
129.6939531485
 10
266.6189635075
 20
129.6705497944
 10
266.6524247272
 20
129.645381222
 10
266.6844994679
 20
129.6185171194
 10
266.7150743119
 20
129.5900587017
 10
266.74407301
 20
129.5600899022
 10
266.7714232173
 20
129.5286994693
 10
266.7970330942
 20
129.4960096589
 10
266.82083821
 20
129.4621290273
 10
266.8427963819
 20
129.4271475987
 10
266.8628621769
 20
129.3911670707
  0
LWPOLYLINE
  5
4F9
100
AcDbEntity
  8
ASSI
100
AcDbPolyline
 62
250
  6
CONTINUOUS
 90
22
 70
0
 10
266.1513939697
 20
129.8193562434
 10
266.1921492856
 20
129.8183951427
 10
266.2329785046
 20
129.8153560062
 10
266.2737736839
 20
129.8102197916
 10
266.3144379814
 20
129.8029709922
 10
266.3548455388
 20
129.7936027537
 10
266.394843318
 20
129.7821236226
 10
266.4343407421
 20
129.7685354957
 10
266.473200324
 20
129.7528610745
 10
266.5112060158
 20
129.735171455
 10
266.5482344051
 20
129.7155214507
 10
266.5842012941
 20
129.6939531485
 10
266.6189635075
 20
129.6705497944
 10
266.6524247272
 20
129.645381222
 10
266.6844994679
 20
129.6185171194
 10
266.7150743119
 20
129.5900587017
 10
266.74407301
 20
129.5600899022
 10
266.7714232173
 20
129.5286994693
 10
266.7970330942
 20
129.4960096589
 10
266.82083821
 20
129.4621290273
 10
266.8427963819
 20
129.4271475987
 10
266.8628621769
 20
129.3911670707
  0
LWPOLYLINE
  5
4FA
100
AcDbEntity
  8
RACCORDO
100
AcDbPolyline
 62
250
  6
CONTINUOUS
 90
22
 70
0
 10
124.1513810474
 20
130.3459473269
 10
124.2177403794
 20
130.3443122039
 10
124.2838832043
 20
130.3392408557
 10
124.3498095218
 20
130.3307332653
 10
124.4157303276
 20
130.318782464
 10
124.4814346262
 20
130.3033953516
 10
124.546289431
 20
130.284592697
 10
124.610317977
 20
130.2623093345
 10
124.6734970294
 20
130.236610293
 10
124.7351238965
 20
130.2077116221
 10
124.7951472818
 20
130.1755759954
 10
124.8536184818
 20
130.1402405522
 10
124.9099886953
 20
130.1020330444
 10
124.964225499
 20
130.0609223901
 10
125.0163613162
 20
130.0169394577
 10
125.0659446149
 20
129.9705049415
 10
125.1129498448
 20
129.9215802695
 10
125.1574025563
 20
129.8702038007
 10
125.1989278685
 20
129.8169116632
 10
125.2374008214
 20
129.7618825175
 10
125.272946375
 20
129.7049375289
 10
125.3055645295
 20
129.6460766042
  0
LWPOLYLINE
  5
4FB
100
AcDbEntity
  8
ASSI
100
AcDbPolyline
 62
250
  6
CONTINUOUS
 90
22
 70
0
 10
124.1513810474
 20
130.3459473269
 10
124.2177403794
 20
130.3443122039
 10
124.2838832043
 20
130.3392408557
 10
124.3498095218
 20
130.3307332653
 10
124.4157303276
 20
130.318782464
 10
124.4814346262
 20
130.3033953516
 10
124.546289431
 20
130.284592697
 10
124.610317977
 20
130.2623093345
 10
124.6734970294
 20
130.236610293
 10
124.7351238965
 20
130.2077116221
 10
124.7951472818
 20
130.1755759954
 10
124.8536184818
 20
130.1402405522
 10
124.9099886953
 20
130.1020330444
 10
124.964225499
 20
130.0609223901
 10
125.0163613162
 20
130.0169394577
 10
125.0659446149
 20
129.9705049415
 10
125.1129498448
 20
129.9215802695
 10
125.1574025563
 20
129.8702038007
 10
125.1989278685
 20
129.8169116632
 10
125.2374008214
 20
129.7618825175
 10
125.272946375
 20
129.7049375289
 10
125.3055645295
 20
129.6460766042
  0
LWPOLYLINE
  5
4FC
100
AcDbEntity
  8
RACCORDO
100
AcDbPolyline
 62
250
  6
CONTINUOUS
 90
22
 70
0
 10
195.1513810474
 20
130.3459473269
 10
195.2177403794
 20
130.3443122039
 10
195.2838832043
 20
130.3392408557
 10
195.3498095218
 20
130.3307332653
 10
195.4157303276
 20
130.318782464
 10
195.4814346262
 20
130.3033953516
 10
195.546289431
 20
130.284592697
 10
195.610317977
 20
130.2623093345
 10
195.6734970294
 20
130.236610293
 10
195.7351238965
 20
130.2077116221
 10
195.7951472818
 20
130.1755759954
 10
195.8536184818
 20
130.1402405522
 10
195.9099886953
 20
130.1020330444
 10
195.964225499
 20
130.0609223901
 10
196.0163613162
 20
130.0169394577
 10
196.0659446149
 20
129.9705049415
 10
196.1129498448
 20
129.9215802695
 10
196.1574025563
 20
129.8702038007
 10
196.1989278685
 20
129.8169116632
 10
196.2374008214
 20
129.7618825175
 10
196.272946375
 20
129.7049375289
 10
196.3055645295
 20
129.6460766042
  0
LWPOLYLINE
  5
4FD
100
AcDbEntity
  8
ASSI
100
AcDbPolyline
 62
250
  6
CONTINUOUS
 90
22
 70
0
 10
195.1513810474
 20
130.3459473269
 10
195.2177403794
 20
130.3443122039
 10
195.2838832043
 20
130.3392408557
 10
195.3498095218
 20
130.3307332653
 10
195.4157303276
 20
130.318782464
 10
195.4814346262
 20
130.3033953516
 10
195.546289431
 20
130.284592697
 10
195.610317977
 20
130.2623093345
 10
195.6734970294
 20
130.236610293
 10
195.7351238965
 20
130.2077116221
 10
195.7951472818
 20
130.1755759954
 10
195.8536184818
 20
130.1402405522
 10
195.9099886953
 20
130.1020330444
 10
195.964225499
 20
130.0609223901
 10
196.0163613162
 20
130.0169394577
 10
196.0659446149
 20
129.9705049415
 10
196.1129498448
 20
129.9215802695
 10
196.1574025563
 20
129.8702038007
 10
196.1989278685
 20
129.8169116632
 10
196.2374008214
 20
129.7618825175
 10
196.272946375
 20
129.7049375289
 10
196.3055645295
 20
129.6460766042
  0
LWPOLYLINE
  5
4FE
100
AcDbEntity
  8
RACCORDO
100
AcDbPolyline
 62
250
  6
CONTINUOUS
 90
22
 70
0
 10
266.1513810474
 20
130.3459473269
 10
266.2177403794
 20
130.3443122039
 10
266.2838832043
 20
130.3392408557
 10
266.3498095218
 20
130.3307332653
 10
266.4157303276
 20
130.318782464
 10
266.4814346262
 20
130.3033953516
 10
266.546289431
 20
130.284592697
 10
266.610317977
 20
130.2623093345
 10
266.6734970294
 20
130.236610293
 10
266.7351238965
 20
130.2077116221
 10
266.7951472818
 20
130.1755759954
 10
266.8536184818
 20
130.1402405522
 10
266.9099886953
 20
130.1020330444
 10
266.964225499
 20
130.0609223901
 10
267.0163613162
 20
130.0169394577
 10
267.0659446149
 20
129.9705049415
 10
267.1129498448
 20
129.9215802695
 10
267.1574025563
 20
129.8702038007
 10
267.1989278685
 20
129.8169116632
 10
267.2374008214
 20
129.7618825175
 10
267.272946375
 20
129.7049375289
 10
267.3055645295
 20
129.6460766042
  0
LWPOLYLINE
  5
4FF
100
AcDbEntity
  8
ASSI
100
AcDbPolyline
 62
250
  6
CONTINUOUS
 90
22
 70
0
 10
266.1513810474
 20
130.3459473269
 10
266.2177403794
 20
130.3443122039
 10
266.2838832043
 20
130.3392408557
 10
266.3498095218
 20
130.3307332653
 10
266.4157303276
 20
130.318782464
 10
266.4814346262
 20
130.3033953516
 10
266.546289431
 20
130.284592697
 10
266.610317977
 20
130.2623093345
 10
266.6734970294
 20
130.236610293
 10
266.7351238965
 20
130.2077116221
 10
266.7951472818
 20
130.1755759954
 10
266.8536184818
 20
130.1402405522
 10
266.9099886953
 20
130.1020330444
 10
266.964225499
 20
130.0609223901
 10
267.0163613162
 20
130.0169394577
 10
267.0659446149
 20
129.9705049415
 10
267.1129498448
 20
129.9215802695
 10
267.1574025563
 20
129.8702038007
 10
267.1989278685
 20
129.8169116632
 10
267.2374008214
 20
129.7618825175
 10
267.272946375
 20
129.7049375289
 10
267.3055645295
 20
129.6460766042
  0
LINE
  5
500
100
AcDbEntity
  8
RACCORDO
100
AcDbLine
 62
250
  6
CONTINUOUS
 10
267.3055645295
 20
84.3106669772
 11
267.2414826254
 21
84.3443566848
  0
LINE
  5
501
100
AcDbEntity
  8
ASSI
100
AcDbLine
 62
250
  6
CONTINUOUS
 10
267.3055645295
 20
84.3106669772
 11
267.2414826254
 21
84.3443566848
  0
LINE
  5
502
100
AcDbEntity
  8
RACCORDO
100
AcDbLine
 62
250
  6
CONTINUOUS
 10
267.2414826254
 20
84.3443566848
 11
267.1787474316
 21
84.3778677196
  0
LINE
  5
503
100
AcDbEntity
  8
ASSI
100
AcDbLine
 62
250
  6
CONTINUOUS
 10
267.2414826254
 20
84.3443566848
 11
267.1787474316
 21
84.3778677196
  0
LINE
  5
504
100
AcDbEntity
  8
RACCORDO
100
AcDbLine
 62
250
  6
CONTINUOUS
 10
267.1787474316
 20
84.3778677196
 11
267.1186774425
 21
84.4104957862
  0
LINE
  5
505
100
AcDbEntity
  8
ASSI
100
AcDbLine
 62
250
  6
CONTINUOUS
 10
267.1787474316
 20
84.3778677196
 11
267.1186774425
 21
84.4104957862
  0
LWPOLYLINE
  5
506
100
AcDbEntity
  8
RACCORDO
100
AcDbPolyline
 62
250
  6
CONTINUOUS
 90
15
 70
0
 10
267.1186774425
 20
84.4104957862
 10
267.0625351383
 20
84.4415551464
 10
267.0363095138
 20
84.4562909023
 10
267.0115004519
 20
84.4703930314
 10
266.9882384759
 20
84.4837873405
 10
266.9666459702
 20
84.4964033606
 10
266.9468365356
 20
84.5081747171
 10
266.928914392
 20
84.5190394796
 10
266.9129738301
 20
84.5289404872
 10
266.8990987152
 20
84.5378256495
 10
266.887362046
 20
84.5456482204
 10
266.8778255706
 20
84.5523670446
 10
266.8705394616
 20
84.5579467734
 10
266.8655420521
 20
84.5623580513
 10
266.8628596342
 20
84.5655776699
  0
LWPOLYLINE
  5
507
100
AcDbEntity
  8
ASSI
100
AcDbPolyline
 62
250
  6
CONTINUOUS
 90
15
 70
0
 10
267.1186774425
 20
84.4104957862
 10
267.0625351383
 20
84.4415551464
 10
267.0363095138
 20
84.4562909023
 10
267.0115004519
 20
84.4703930314
 10
266.9882384759
 20
84.4837873405
 10
266.9666459702
 20
84.4964033606
 10
266.9468365356
 20
84.5081747171
 10
266.928914392
 20
84.5190394796
 10
266.9129738301
 20
84.5289404872
 10
266.8990987152
 20
84.5378256495
 10
266.887362046
 20
84.5456482204
 10
266.8778255706
 20
84.5523670446
 10
266.8705394616
 20
84.5579467734
 10
266.8655420521
 20
84.5623580513
 10
266.8628596342
 20
84.5655776699
  0
LWPOLYLINE
  5
508
100
AcDbEntity
  8
RACCORDO
100
AcDbPolyline
 62
250
  6
CONTINUOUS
 90
22
 70
0
 10
220.9130357989
 20
129.6460766042
 10
220.9455078967
 20
129.7047082386
 10
220.9809149773
 20
129.7614654201
 10
221.0192570405
 20
129.8163482393
 10
221.0606589832
 20
129.8695420344
 10
221.1049959086
 20
129.9208616367
 10
221.1518931264
 20
129.9697514005
 10
221.201377565
 20
130.01617027
 10
221.253422296
 20
130.0601595121
 10
221.3075718439
 20
130.1012870033
 10
221.3638539191
 20
130.1395180053
 10
221.4222408112
 20
130.1748874693
 10
221.4821939146
 20
130.2070678261
 10
221.5437465899
 20
130.2360210793
 10
221.6068654764
 20
130.2617854121
 10
221.6709118862
 20
130.2841475269
 10
221.735901504
 20
130.3030549992
 10
221.801818645
 20
130.3185603903
 10
221.8679775674
 20
130.3306078717
 10
221.9341496905
 20
130.3391788575
 10
222.0005635951
 20
130.3442920035
 10
222.0672192809
 20
130.3459473269
  0
LWPOLYLINE
  5
509
100
AcDbEntity
  8
ASSI
100
AcDbPolyline
 62
250
  6
CONTINUOUS
 90
22
 70
0
 10
220.9130357989
 20
129.6460766042
 10
220.9455078967
 20
129.7047082386
 10
220.9809149773
 20
129.7614654201
 10
221.0192570405
 20
129.8163482393
 10
221.0606589832
 20
129.8695420344
 10
221.1049959086
 20
129.9208616367
 10
221.1518931264
 20
129.9697514005
 10
221.201377565
 20
130.01617027
 10
221.253422296
 20
130.0601595121
 10
221.3075718439
 20
130.1012870033
 10
221.3638539191
 20
130.1395180053
 10
221.4222408112
 20
130.1748874693
 10
221.4821939146
 20
130.2070678261
 10
221.5437465899
 20
130.2360210793
 10
221.6068654764
 20
130.2617854121
 10
221.6709118862
 20
130.2841475269
 10
221.735901504
 20
130.3030549992
 10
221.801818645
 20
130.3185603903
 10
221.8679775674
 20
130.3306078717
 10
221.9341496905
 20
130.3391788575
 10
222.0005635951
 20
130.3442920035
 10
222.0672192809
 20
130.3459473269
  0
LWPOLYLINE
  5
50A
100
AcDbEntity
  8
RACCORDO
100
AcDbPolyline
 62
250
  6
CONTINUOUS
 90
22
 70
0
 10
196.3055645295
 20
84.3106668168
 10
196.2730924316
 20
84.2520351825
 10
196.2376853511
 20
84.195278001
 10
196.1993432879
 20
84.1403951818
 10
196.1579413452
 20
84.0872013868
 10
196.1136044199
 20
84.0358817846
 10
196.0667072022
 20
83.9869920208
 10
196.0172227638
 20
83.9405731514
 10
195.9651780329
 20
83.8965839094
 10
195.911028485
 20
83.8554564182
 10
195.85474641
 20
83.8172254163
 10
195.7963595179
 20
83.7818559522
 10
195.7364064146
 20
83.7496755954
 10
195.6748537393
 20
83.7207223421
 10
195.6117348527
 20
83.6949580093
 10
195.5476884429
 20
83.6725958944
 10
195.482698825
 20
83.653688422
 10
195.4167816839
 20
83.6381830309
 10
195.3506227613
 20
83.6261355494
 10
195.2844506381
 20
83.6175645636
 10
195.2180367334
 20
83.6124514176
 10
195.1513810474
 20
83.6107960941
  0
LWPOLYLINE
  5
50B
100
AcDbEntity
  8
ASSI
100
AcDbPolyline
 62
250
  6
CONTINUOUS
 90
22
 70
0
 10
196.3055645295
 20
84.3106668168
 10
196.2730924316
 20
84.2520351825
 10
196.2376853511
 20
84.195278001
 10
196.1993432879
 20
84.1403951818
 10
196.1579413452
 20
84.0872013868
 10
196.1136044199
 20
84.0358817846
 10
196.0667072022
 20
83.9869920208
 10
196.0172227638
 20
83.9405731514
 10
195.9651780329
 20
83.8965839094
 10
195.911028485
 20
83.8554564182
 10
195.85474641
 20
83.8172254163
 10
195.7963595179
 20
83.7818559522
 10
195.7364064146
 20
83.7496755954
 10
195.6748537393
 20
83.7207223421
 10
195.6117348527
 20
83.6949580093
 10
195.5476884429
 20
83.6725958944
 10
195.482698825
 20
83.653688422
 10
195.4167816839
 20
83.6381830309
 10
195.3506227613
 20
83.6261355494
 10
195.2844506381
 20
83.6175645636
 10
195.2180367334
 20
83.6124514176
 10
195.1513810474
 20
83.6107960941
  0
LWPOLYLINE
  5
50C
100
AcDbEntity
  8
RACCORDO
100
AcDbPolyline
 62
250
  6
CONTINUOUS
 90
22
 70
0
 10
195.8628621769
 20
84.5655763503
 10
195.8428726038
 20
84.5297245083
 10
195.8209928346
 20
84.4948471256
 10
195.7972651791
 20
84.4610466152
 10
195.7717269454
 20
84.4284117367
 10
195.7444412919
 20
84.3970548389
 10
195.7155035612
 20
84.3671060332
 10
195.6849847576
 20
84.3386552106
 10
195.6529593876
 20
84.3117870661
 10
195.619545735
 20
84.2866085287
 10
195.5848321814
 20
84.2631918203
 10
195.5489112558
 20
84.2416045656
 10
195.5119214328
 20
84.2219283974
 10
195.4739564126
 20
84.2042109574
 10
195.4351290854
 20
84.1885026987
 10
195.3956183217
 20
84.174864498
 10
195.355531958
 20
84.1633188958
 10
195.3149859763
 20
84.1538848855
 10
195.2741793515
 20
84.1465853537
 10
195.2332547185
 20
84.1414150844
 10
195.1922946681
 20
84.1383553957
 10
195.1514081911
 20
84.1373871538
  0
LWPOLYLINE
  5
50D
100
AcDbEntity
  8
ASSI
100
AcDbPolyline
 62
250
  6
CONTINUOUS
 90
22
 70
0
 10
195.8628621769
 20
84.5655763503
 10
195.8428726038
 20
84.5297245083
 10
195.8209928346
 20
84.4948471256
 10
195.7972651791
 20
84.4610466152
 10
195.7717269454
 20
84.4284117367
 10
195.7444412919
 20
84.3970548389
 10
195.7155035612
 20
84.3671060332
 10
195.6849847576
 20
84.3386552106
 10
195.6529593876
 20
84.3117870661
 10
195.619545735
 20
84.2866085287
 10
195.5848321814
 20
84.2631918203
 10
195.5489112558
 20
84.2416045656
 10
195.5119214328
 20
84.2219283974
 10
195.4739564126
 20
84.2042109574
 10
195.4351290854
 20
84.1885026987
 10
195.3956183217
 20
84.174864498
 10
195.355531958
 20
84.1633188958
 10
195.3149859763
 20
84.1538848855
 10
195.2741793515
 20
84.1465853537
 10
195.2332547185
 20
84.1414150844
 10
195.1922946681
 20
84.1383553957
 10
195.1514081911
 20
84.1373871538
  0
LWPOLYLINE
  5
50E
100
AcDbEntity
  8
RACCORDO
100
AcDbPolyline
 62
250
  6
CONTINUOUS
 90
22
 70
0
 10
221.3557381514
 20
129.3911670707
 10
221.3757277245
 20
129.4270189128
 10
221.3976074937
 20
129.4618962954
 10
221.4213351493
 20
129.4956968058
 10
221.446873383
 20
129.5283316844
 10
221.4741590365
 20
129.5596885823
 10
221.5030967672
 20
129.589637388
 10
221.5336155709
 20
129.6180882106
 10
221.565640941
 20
129.6449563552
 10
221.5990545938
 20
129.6701348926
 10
221.6337681474
 20
129.693551601
 10
221.669689073
 20
129.7151388557
 10
221.706678896
 20
129.7348150239
 10
221.7446439163
 20
129.7525324638
 10
221.7834712434
 20
129.7682407225
 10
221.8229820071
 20
129.7818789232
 10
221.8630683708
 20
129.7934245254
 10
221.9036143524
 20
129.8028585356
 10
221.9444209771
 20
129.8101580674
 10
221.98534561
 20
129.8153283367
 10
222.0263056603
 20
129.8183880254
 10
222.0671921372
 20
129.8193562673
  0
LWPOLYLINE
  5
50F
100
AcDbEntity
  8
ASSI
100
AcDbPolyline
 62
250
  6
CONTINUOUS
 90
22
 70
0
 10
221.3557381514
 20
129.3911670707
 10
221.3757277245
 20
129.4270189128
 10
221.3976074937
 20
129.4618962954
 10
221.4213351493
 20
129.4956968058
 10
221.446873383
 20
129.5283316844
 10
221.4741590365
 20
129.5596885823
 10
221.5030967672
 20
129.589637388
 10
221.5336155709
 20
129.6180882106
 10
221.565640941
 20
129.6449563552
 10
221.5990545938
 20
129.6701348926
 10
221.6337681474
 20
129.693551601
 10
221.669689073
 20
129.7151388557
 10
221.706678896
 20
129.7348150239
 10
221.7446439163
 20
129.7525324638
 10
221.7834712434
 20
129.7682407225
 10
221.8229820071
 20
129.7818789232
 10
221.8630683708
 20
129.7934245254
 10
221.9036143524
 20
129.8028585356
 10
221.9444209771
 20
129.8101580674
 10
221.98534561
 20
129.8153283367
 10
222.0263056603
 20
129.8183880254
 10
222.0671921372
 20
129.8193562673
  0
LINE
  5
510
100
AcDbEntity
  8
0
100
AcDbLine
 62
250
  6
CONTINUOUS
 10
73.4105021642
 20
113.7841697105
 11
76.2080981642
 21
114.4719437105
  0
LINE
  5
511
100
AcDbEntity
  8
0
100
AcDbLine
 62
250
  6
CONTINUOUS
 10
74.3628751642
 20
114.3419637105
 11
75.9700051642
 21
114.7259077105
  0
LINE
  5
512
100
AcDbEntity
  8
0
100
AcDbLine
 62
250
  6
CONTINUOUS
 10
74.1247821642
 20
114.3045107105
 11
73.4105021642
 21
114.1338697105
  0
LINE
  5
513
100
AcDbEntity
  8
0
100
AcDbLine
 62
250
  6
CONTINUOUS
 10
75.5533421642
 20
116.3942917105
 11
75.7319111642
 21
116.4369517105
  0
LINE
  5
514
100
AcDbEntity
  8
0
100
AcDbLine
 62
250
  6
CONTINUOUS
 10
75.6723881642
 20
116.7918597105
 11
75.4938181642
 21
116.7491987105
  0
LINE
  5
515
100
AcDbEntity
  8
0
100
AcDbLine
 62
250
  6
CONTINUOUS
 10
74.3628751642
 20
116.4984437105
 11
74.5414451642
 21
116.5411047105
  0
LINE
  5
516
100
AcDbEntity
  8
0
100
AcDbLine
 62
250
  6
CONTINUOUS
 10
74.3033521642
 20
116.8533517105
 11
74.4819221642
 21
116.8960117105
  0
LWPOLYLINE
  5
517
100
AcDbEntity
  8
RACCORDO
100
AcDbPolyline
 62
250
  6
CONTINUOUS
 90
10
 70
0
 10
195.8628621769
 20
129.3911670707
 10
195.8814941976
 20
129.3532030087
 10
195.8981017894
 20
129.3142516149
 10
195.9126299589
 20
129.274418867
 10
195.9250367872
 20
129.233787181
 10
195.9352680397
 20
129.192494738
 10
195.9432717718
 20
129.1507387097
 10
195.9490261644
 20
129.1086657661
 10
195.9525251259
 20
129.0663682145
 10
195.9537628161
 20
129.0239657347
  0
LWPOLYLINE
  5
518
100
AcDbEntity
  8
ASSI
100
AcDbPolyline
 62
250
  6
CONTINUOUS
 90
10
 70
0
 10
195.8628621769
 20
129.3911670707
 10
195.8814941976
 20
129.3532030087
 10
195.8981017894
 20
129.3142516149
 10
195.9126299589
 20
129.274418867
 10
195.9250367872
 20
129.233787181
 10
195.9352680397
 20
129.192494738
 10
195.9432717718
 20
129.1507387097
 10
195.9490261644
 20
129.1086657661
 10
195.9525251259
 20
129.0663682145
 10
195.9537628161
 20
129.0239657347
  0
LWPOLYLINE
  5
519
100
AcDbEntity
  8
RACCORDO
100
AcDbPolyline
 62
250
  6
CONTINUOUS
 90
10
 70
0
 10
221.3557381514
 20
84.5655763503
 10
221.3371066445
 20
84.6035392899
 10
221.3204994188
 20
84.6424895784
 10
221.3059714744
 20
84.6823212517
 10
221.2935648287
 20
84.7229515769
 10
221.2833335997
 20
84.7642427057
 10
221.2753295768
 20
84.8059984916
 10
221.269574715
 20
84.8480726383
 10
221.2660753539
 20
84.8903725175
 10
221.26483751
 20
84.9327784434
  0
LWPOLYLINE
  5
51A
100
AcDbEntity
  8
ASSI
100
AcDbPolyline
 62
250
  6
CONTINUOUS
 90
10
 70
0
 10
221.3557381514
 20
84.5655763503
 10
221.3371066445
 20
84.6035392899
 10
221.3204994188
 20
84.6424895784
 10
221.3059714744
 20
84.6823212517
 10
221.2935648287
 20
84.7229515769
 10
221.2833335997
 20
84.7642427057
 10
221.2753295768
 20
84.8059984916
 10
221.269574715
 20
84.8480726383
 10
221.2660753539
 20
84.8903725175
 10
221.26483751
 20
84.9327784434
  0
LWPOLYLINE
  5
51B
100
AcDbEntity
  8
RACCORDO
100
AcDbPolyline
 62
250
  6
CONTINUOUS
 90
10
 70
0
 10
196.3055645295
 20
129.6460766042
 10
196.3358790141
 20
129.5841118045
 10
196.3627648142
 20
129.5208511288
 10
196.3862219298
 20
129.4562945507
 10
196.4063201595
 20
129.3901934038
 10
196.4229897047
 20
129.3227962972
 10
196.4360211694
 20
129.2548491344
 10
196.4453447547
 20
129.1866005499
 10
196.4510302594
 20
129.1178018912
 10
196.4530776835
 20
129.0484531474
  0
LWPOLYLINE
  5
51C
100
AcDbEntity
  8
ASSI
100
AcDbPolyline
 62
250
  6
CONTINUOUS
 90
10
 70
0
 10
196.3055645295
 20
129.6460766042
 10
196.3358790141
 20
129.5841118045
 10
196.3627648142
 20
129.5208511288
 10
196.3862219298
 20
129.4562945507
 10
196.4063201595
 20
129.3901934038
 10
196.4229897047
 20
129.3227962972
 10
196.4360211694
 20
129.2548491344
 10
196.4453447547
 20
129.1866005499
 10
196.4510302594
 20
129.1178018912
 10
196.4530776835
 20
129.0484531474
  0
LWPOLYLINE
  5
51D
100
AcDbEntity
  8
RACCORDO
100
AcDbPolyline
 62
250
  6
CONTINUOUS
 90
10
 70
0
 10
220.9130357989
 20
84.3106668168
 10
220.8827222492
 20
84.3726293042
 10
220.8558371547
 20
84.4358876632
 10
220.8323805152
 20
84.5004419198
 10
220.8122825379
 20
84.5665399638
 10
220.7956130156
 20
84.6339339629
 10
220.7825813272
 20
84.7018803442
 10
220.7732572658
 20
84.7701312501
 10
220.7675710383
 20
84.8389345563
 10
220.7655226448
 20
84.9082902736
  0
LWPOLYLINE
  5
51E
100
AcDbEntity
  8
ASSI
100
AcDbPolyline
 62
250
  6
CONTINUOUS
 90
10
 70
0
 10
220.9130357989
 20
84.3106668168
 10
220.8827222492
 20
84.3726293042
 10
220.8558371547
 20
84.4358876632
 10
220.8323805152
 20
84.5004419198
 10
220.8122825379
 20
84.5665399638
 10
220.7956130156
 20
84.6339339629
 10
220.7825813272
 20
84.7018803442
 10
220.7732572658
 20
84.7701312501
 10
220.7675710383
 20
84.8389345563
 10
220.7655226448
 20
84.9082902736
  0
LWPOLYLINE
  5
51F
100
AcDbEntity
  8
RACCORDO
100
AcDbPolyline
 62
250
  6
CONTINUOUS
 90
14
 70
0
 10
221.1560654978
 20
84.4415553064
 10
221.1822911686
 20
84.4562910841
 10
221.2071002764
 20
84.4703932351
 10
221.2303622967
 20
84.4837875659
 10
221.2519548449
 20
84.4964036071
 10
221.2717643195
 20
84.5081749839
 10
221.2896864998
 20
84.5190397654
 10
221.3056270949
 20
84.5289407905
 10
221.319502239
 20
84.5378259683
 10
221.3312389329
 20
84.5456485529
 10
221.3407754282
 20
84.5523673884
 10
221.348061552
 20
84.5579471261
 10
221.3530589711
 20
84.5623584102
 10
221.3557413932
 20
84.5655780323
  0
LWPOLYLINE
  5
520
100
AcDbEntity
  8
ASSI
100
AcDbPolyline
 62
250
  6
CONTINUOUS
 90
14
 70
0
 10
221.1560654978
 20
84.4415553064
 10
221.1822911686
 20
84.4562910841
 10
221.2071002764
 20
84.4703932351
 10
221.2303622967
 20
84.4837875659
 10
221.2519548449
 20
84.4964036071
 10
221.2717643195
 20
84.5081749839
 10
221.2896864998
 20
84.5190397654
 10
221.3056270949
 20
84.5289407905
 10
221.319502239
 20
84.5378259683
 10
221.3312389329
 20
84.5456485529
 10
221.3407754282
 20
84.5523673884
 10
221.348061552
 20
84.5579471261
 10
221.3530589711
 20
84.5623584102
 10
221.3557413932
 20
84.5655780323
  0
LINE
  5
521
100
AcDbEntity
  8
RACCORDO
100
AcDbLine
 62
250
  6
CONTINUOUS
 10
221.0999231017
 20
84.4104959046
 11
221.1560654978
 21
84.4415553064
  0
LINE
  5
522
100
AcDbEntity
  8
ASSI
100
AcDbLine
 62
250
  6
CONTINUOUS
 10
221.0999231017
 20
84.4104959046
 11
221.1560654978
 21
84.4415553064
  0
LINE
  5
523
100
AcDbEntity
  8
RACCORDO
100
AcDbLine
 62
250
  6
CONTINUOUS
 10
221.0398530266
 20
84.3778678017
 11
221.0999231017
 21
84.4104959046
  0
LINE
  5
524
100
AcDbEntity
  8
ASSI
100
AcDbLine
 62
250
  6
CONTINUOUS
 10
221.0398530266
 20
84.3778678017
 11
221.0999231017
 21
84.4104959046
  0
LINE
  5
525
100
AcDbEntity
  8
RACCORDO
100
AcDbLine
 62
250
  6
CONTINUOUS
 10
220.977117759
 20
84.3443567389
 11
221.0398530266
 21
84.3778678017
  0
LINE
  5
526
100
AcDbEntity
  8
ASSI
100
AcDbLine
 62
250
  6
CONTINUOUS
 10
220.977117759
 20
84.3443567389
 11
221.0398530266
 21
84.3778678017
  0
LINE
  5
527
100
AcDbEntity
  8
RACCORDO
100
AcDbLine
 62
250
  6
CONTINUOUS
 10
220.913035799
 20
84.3106670145
 11
220.977117759
 21
84.3443567389
  0
LINE
  5
528
100
AcDbEntity
  8
ASSI
100
AcDbLine
 62
250
  6
CONTINUOUS
 10
220.913035799
 20
84.3106670145
 11
220.977117759
 21
84.3443567389
  0
LINE
  5
529
100
AcDbEntity
  8
RACCORDO
100
AcDbLine
 62
250
  6
CONTINUOUS
 10
220.9130357988
 20
129.6460764439
 11
220.9771177029
 21
129.6123867363
  0
LINE
  5
52A
100
AcDbEntity
  8
ASSI
100
AcDbLine
 62
250
  6
CONTINUOUS
 10
220.9130357988
 20
129.6460764439
 11
220.9771177029
 21
129.6123867363
  0
LINE
  5
52B
100
AcDbEntity
  8
RACCORDO
100
AcDbLine
 62
250
  6
CONTINUOUS
 10
220.9771177029
 20
129.6123867363
 11
221.0398528967
 21
129.5788757015
  0
LINE
  5
52C
100
AcDbEntity
  8
ASSI
100
AcDbLine
 62
250
  6
CONTINUOUS
 10
220.9771177029
 20
129.6123867363
 11
221.0398528967
 21
129.5788757015
  0
LINE
  5
52D
100
AcDbEntity
  8
RACCORDO
100
AcDbLine
 62
250
  6
CONTINUOUS
 10
221.0398528967
 20
129.5788757015
 11
221.0999228858
 21
129.5462476349
  0
LINE
  5
52E
100
AcDbEntity
  8
ASSI
100
AcDbLine
 62
250
  6
CONTINUOUS
 10
221.0398528967
 20
129.5788757015
 11
221.0999228858
 21
129.5462476349
  0
LWPOLYLINE
  5
52F
100
AcDbEntity
  8
RACCORDO
100
AcDbPolyline
 62
250
  6
CONTINUOUS
 90
15
 70
0
 10
221.0999228858
 20
129.5462476349
 10
221.15606519
 20
129.5151882746
 10
221.1822908145
 20
129.5004525187
 10
221.2070998764
 20
129.4863503897
 10
221.2303618524
 20
129.4729560805
 10
221.2519543581
 20
129.4603400605
 10
221.2717637927
 20
129.4485687039
 10
221.2896859363
 20
129.4377039414
 10
221.3056264982
 20
129.4278029338
 10
221.3195016131
 20
129.4189177716
 10
221.3312382824
 20
129.4110952006
 10
221.3407747578
 20
129.4043763765
 10
221.3480608668
 20
129.3987966477
 10
221.3530582762
 20
129.3943853698
 10
221.3557406941
 20
129.3911657512
  0
LWPOLYLINE
  5
530
100
AcDbEntity
  8
ASSI
100
AcDbPolyline
 62
250
  6
CONTINUOUS
 90
15
 70
0
 10
221.0999228858
 20
129.5462476349
 10
221.15606519
 20
129.5151882746
 10
221.1822908145
 20
129.5004525187
 10
221.2070998764
 20
129.4863503897
 10
221.2303618524
 20
129.4729560805
 10
221.2519543581
 20
129.4603400605
 10
221.2717637927
 20
129.4485687039
 10
221.2896859363
 20
129.4377039414
 10
221.3056264982
 20
129.4278029338
 10
221.3195016131
 20
129.4189177716
 10
221.3312382824
 20
129.4110952006
 10
221.3407747578
 20
129.4043763765
 10
221.3480608668
 20
129.3987966477
 10
221.3530582762
 20
129.3943853698
 10
221.3557406941
 20
129.3911657512
  0
LINE
  5
531
100
AcDbEntity
  8
RACCORDO
100
AcDbLine
 62
250
  6
CONTINUOUS
 10
220.7655226448
 20
84.9082902736
 11
220.7497740776
 21
92.2617033832
  0
LINE
  5
532
100
AcDbEntity
  8
ASSI
100
AcDbLine
 62
250
  6
CONTINUOUS
 10
220.7655226448
 20
84.9082902736
 11
220.7497740776
 21
92.2617033832
  0
LINE
  5
533
100
AcDbEntity
  8
RACCORDO
100
AcDbLine
 62
250
  6
CONTINUOUS
 10
221.2648374781
 20
84.9327784122
 11
221.2490888744
 21
92.2783632666
  0
LINE
  5
534
100
AcDbEntity
  8
ASSI
100
AcDbLine
 62
250
  6
CONTINUOUS
 10
221.2648374781
 20
84.9327784122
 11
221.2490888744
 21
92.2783632666
  0
LINE
  5
535
100
AcDbEntity
  8
RACCORDO
100
AcDbLine
 62
250
  6
CONTINUOUS
 10
220.7497740776
 20
92.2617033832
 11
220.7403242104
 21
99.6190531736
  0
LINE
  5
536
100
AcDbEntity
  8
ASSI
100
AcDbLine
 62
250
  6
CONTINUOUS
 10
220.7497740776
 20
92.2617033832
 11
220.7403242104
 21
99.6190531736
  0
LINE
  5
537
100
AcDbEntity
  8
RACCORDO
100
AcDbLine
 62
250
  6
CONTINUOUS
 10
221.2490888744
 20
92.2783632666
 11
221.2396389847
 21
99.627141612
  0
LINE
  5
538
100
AcDbEntity
  8
ASSI
100
AcDbLine
 62
250
  6
CONTINUOUS
 10
221.2490888744
 20
92.2783632666
 11
221.2396389847
 21
99.627141612
  0
LINE
  5
539
100
AcDbEntity
  8
RACCORDO
100
AcDbLine
 62
250
  6
CONTINUOUS
 10
220.7403242104
 20
99.6190531736
 11
220.7371735172
 21
106.9783716713
  0
LINE
  5
53A
100
AcDbEntity
  8
ASSI
100
AcDbLine
 62
250
  6
CONTINUOUS
 10
220.7403242104
 20
99.6190531736
 11
220.7371735172
 21
106.9783716713
  0
LINE
  5
53B
100
AcDbEntity
  8
RACCORDO
100
AcDbLine
 62
250
  6
CONTINUOUS
 10
221.2396389847
 20
99.627141612
 11
221.2364882846
 21
106.9783764813
  0
LINE
  5
53C
100
AcDbEntity
  8
ASSI
100
AcDbLine
 62
250
  6
CONTINUOUS
 10
221.2396389847
 20
99.627141612
 11
221.2364882846
 21
106.9783764813
  0
LINE
  5
53D
100
AcDbEntity
  8
0
100
AcDbLine
 62
7
  6
CONTINUOUS
 10
221.4093001642
 20
85.0772753383
 11
221.4093001642
 21
128.8794680827
  0
LINE
  5
53E
100
AcDbEntity
  8
ASSI
100
AcDbLine
 62
7
  6
CONTINUOUS
 10
221.4093001642
 20
85.0772753383
 11
221.4093001642
 21
128.8794680827
  0
LINE
  5
53F
100
AcDbEntity
  8
RACCORDO
100
AcDbLine
 62
250
  6
CONTINUOUS
 10
222.0672192809
 20
130.3459473269
 11
222.0672192809
 21
129.8193562215
  0
LINE
  5
540
100
AcDbEntity
  8
ASSI
100
AcDbLine
 62
250
  6
CONTINUOUS
 10
222.0672192809
 20
130.3459473269
 11
222.0672192809
 21
129.8193562215
  0
LINE
  5
541
100
AcDbEntity
  8
RACCORDO
100
AcDbLine
 62
250
  6
CONTINUOUS
 10
222.0672192809
 20
83.6107960941
 11
222.0672192809
 21
84.1373871995
  0
LINE
  5
542
100
AcDbEntity
  8
ASSI
100
AcDbLine
 62
250
  6
CONTINUOUS
 10
222.0672192809
 20
83.6107960941
 11
222.0672192809
 21
84.1373871995
  0
LINE
  5
543
100
AcDbEntity
  8
RACCORDO
100
AcDbLine
 62
250
  6
CONTINUOUS
 10
220.7371735172
 20
106.9783716713
 11
220.7403242102
 21
114.3376901764
  0
LINE
  5
544
100
AcDbEntity
  8
ASSI
100
AcDbLine
 62
250
  6
CONTINUOUS
 10
220.7371735172
 20
106.9783716713
 11
220.7403242102
 21
114.3376901764
  0
LINE
  5
545
100
AcDbEntity
  8
RACCORDO
100
AcDbLine
 62
250
  6
CONTINUOUS
 10
221.2364882846
 20
106.9783764813
 11
221.2396389976
 21
114.3296135949
  0
LINE
  5
546
100
AcDbEntity
  8
ASSI
100
AcDbLine
 62
250
  6
CONTINUOUS
 10
221.2364882846
 20
106.9783764813
 11
221.2396389976
 21
114.3296135949
  0
LINE
  5
547
100
AcDbEntity
  8
RACCORDO
100
AcDbLine
 62
250
  6
CONTINUOUS
 10
220.7403242102
 20
114.3376901764
 11
220.7497740774
 21
121.6950399928
  0
LINE
  5
548
100
AcDbEntity
  8
ASSI
100
AcDbLine
 62
250
  6
CONTINUOUS
 10
220.7403242102
 20
114.3376901764
 11
220.7497740774
 21
121.6950399928
  0
LINE
  5
549
100
AcDbEntity
  8
RACCORDO
100
AcDbLine
 62
250
  6
CONTINUOUS
 10
221.2396389976
 20
114.3296135949
 11
221.2490888758
 21
121.6783827306
  0
LINE
  5
54A
100
AcDbEntity
  8
ASSI
100
AcDbLine
 62
250
  6
CONTINUOUS
 10
221.2396389976
 20
114.3296135949
 11
221.2490888758
 21
121.6783827306
  0
LINE
  5
54B
100
AcDbEntity
  8
RACCORDO
100
AcDbLine
 62
250
  6
CONTINUOUS
 10
220.7497740774
 20
121.6950399928
 11
220.7655226448
 21
129.0484531474
  0
LINE
  5
54C
100
AcDbEntity
  8
ASSI
100
AcDbLine
 62
250
  6
CONTINUOUS
 10
220.7497740774
 20
121.6950399928
 11
220.7655226448
 21
129.0484531474
  0
LINE
  5
54D
100
AcDbEntity
  8
RACCORDO
100
AcDbLine
 62
250
  6
CONTINUOUS
 10
221.2490888758
 20
121.6783827306
 11
221.2648374366
 21
129.023943505
  0
LINE
  5
54E
100
AcDbEntity
  8
ASSI
100
AcDbLine
 62
250
  6
CONTINUOUS
 10
221.2490888758
 20
121.6783827306
 11
221.2648374366
 21
129.023943505
  0
LWPOLYLINE
  5
54F
100
AcDbEntity
  8
RACCORDO
100
AcDbPolyline
 62
250
  6
CONTINUOUS
 90
10
 70
0
 10
221.2648374483
 20
129.0239434935
 10
221.2660735057
 20
129.0663378496
 10
221.2695694695
 20
129.1086229313
 10
221.2753187962
 20
129.1506792227
 10
221.2833126454
 20
129.192405321
 10
221.2935296066
 20
129.2336644454
 10
221.3059262572
 20
129.2742870864
 10
221.3204556205
 20
129.3141429336
 10
221.3370767862
 20
129.3531388723
 10
221.3557381514
 20
129.3911670707
  0
LWPOLYLINE
  5
550
100
AcDbEntity
  8
ASSI
100
AcDbPolyline
 62
250
  6
CONTINUOUS
 90
10
 70
0
 10
221.2648374483
 20
129.0239434935
 10
221.2660735057
 20
129.0663378496
 10
221.2695694695
 20
129.1086229313
 10
221.2753187962
 20
129.1506792227
 10
221.2833126454
 20
129.192405321
 10
221.2935296066
 20
129.2336644454
 10
221.3059262572
 20
129.2742870864
 10
221.3204556205
 20
129.3141429336
 10
221.3370767862
 20
129.3531388723
 10
221.3557381514
 20
129.3911670707
  0
LWPOLYLINE
  5
551
100
AcDbEntity
  8
RACCORDO
100
AcDbPolyline
 62
250
  6
CONTINUOUS
 90
10
 70
0
 10
220.7655226448
 20
129.0484531474
 10
220.7675602753
 20
129.1177036
 10
220.7732325344
 20
129.186421183
 10
220.7825394223
 20
129.254605907
 10
220.7955428705
 20
129.3224966129
 10
220.8121809473
 20
129.3898544769
 10
220.8322678581
 20
129.4559630287
 10
220.8557416711
 20
129.5205834692
 10
220.882664318
 20
129.5839546526
 10
220.9130357989
 20
129.6460766042
  0
LWPOLYLINE
  5
552
100
AcDbEntity
  8
ASSI
100
AcDbPolyline
 62
250
  6
CONTINUOUS
 90
10
 70
0
 10
220.7655226448
 20
129.0484531474
 10
220.7675602753
 20
129.1177036
 10
220.7732325344
 20
129.186421183
 10
220.7825394223
 20
129.254605907
 10
220.7955428705
 20
129.3224966129
 10
220.8121809473
 20
129.3898544769
 10
220.8322678581
 20
129.4559630287
 10
220.8557416711
 20
129.5205834692
 10
220.882664318
 20
129.5839546526
 10
220.9130357989
 20
129.6460766042
  0
LINE
  5
553
100
AcDbEntity
  8
RACCORDO
100
AcDbLine
 62
250
  6
CONTINUOUS
 10
287.9874760411
 20
151.8551771222
 11
288.1106706294
 21
151.9783717105
  0
LINE
  5
554
100
AcDbEntity
  8
ASSI
100
AcDbLine
 62
250
  6
CONTINUOUS
 10
287.9874760411
 20
151.8551771222
 11
288.1106706294
 21
151.9783717105
  0
LINE
  5
555
100
AcDbEntity
  8
0
100
AcDbLine
 62
250
  6
CONTINUOUS
 10
266.1513939478
 20
129.8193562215
 11
266.0103965364
 21
129.6783717105
  0
LINE
  5
556
100
AcDbEntity
  8
ASSI
100
AcDbLine
 62
250
  6
CONTINUOUS
 10
266.1513939478
 20
129.8193562215
 11
266.0103965364
 21
129.6783717105
  0
LINE
  5
557
100
AcDbEntity
  8
0
100
AcDbLine
 62
250
  6
CONTINUOUS
 10
221.2648374781
 20
84.9327784122
 11
221.4093001642
 21
85.0772753383
  0
LINE
  5
558
100
AcDbEntity
  8
ASSI
100
AcDbLine
 62
250
  6
CONTINUOUS
 10
221.2648374781
 20
84.9327784122
 11
221.4093001642
 21
85.0772753383
  0
LINE
  5
559
100
AcDbEntity
  8
0
100
AcDbLine
 62
250
  6
CONTINUOUS
 10
222.0672063806
 20
84.1373871995
 11
222.208203792
 21
84.2783717105
  0
LINE
  5
55A
100
AcDbEntity
  8
ASSI
100
AcDbLine
 62
250
  6
CONTINUOUS
 10
222.0672063806
 20
84.1373871995
 11
222.208203792
 21
84.2783717105
  0
LINE
  5
55B
100
AcDbEntity
  8
0
100
AcDbLine
 62
250
  6
CONTINUOUS
 10
266.9537628488
 20
129.0239657666
 11
266.8093001642
 21
128.8794680827
  0
LINE
  5
55C
100
AcDbEntity
  8
ASSI
100
AcDbLine
 62
250
  6
CONTINUOUS
 10
266.9537628488
 20
129.0239657666
 11
266.8093001642
 21
128.8794680827
  0
LINE
  5
55D
100
AcDbEntity
  8
RACCORDO
100
AcDbLine
 62
250
  6
CONTINUOUS
 10
288.9793587228
 20
150.8498007344
 11
289.1093001642
 21
150.9797421758
  0
LINE
  5
55E
100
AcDbEntity
  8
ASSI
100
AcDbLine
 62
250
  6
CONTINUOUS
 10
288.9793587228
 20
150.8498007344
 11
289.1093001642
 21
150.9797421758
  0
LWPOLYLINE
  5
55F
100
AcDbEntity
  8
RACCORDO
100
AcDbPolyline
 62
250
  6
CONTINUOUS
 90
28
 70
0
 10
58.2311242872
 20
151.8551771222
 10
58.1735133742
 20
151.8534578862
 10
58.1161136732
 20
151.8483986201
 10
58.0591157235
 20
151.8400147134
 10
58.0027224578
 20
151.8283356534
 10
57.9471077452
 20
151.8133970783
 10
57.8924178032
 20
151.7952329891
 10
57.8388176293
 20
151.7738863038
 10
57.78651039
 20
151.749426428
 10
57.7356953918
 20
151.721940188
 10
57.6865572336
 20
151.6915224738
 10
57.6392505304
 20
151.6582646946
 10
57.5939218872
 20
151.6222647928
 10
57.5507272468
 20
151.5836349611
 10
57.5098192875
 20
151.5425002652
 10
57.4713328549
 20
151.4989880631
 10
57.4354045378
 20
151.4532358824
 10
57.4021652884
 20
151.4053932643
 10
57.3717312298
 20
151.3556162446
 10
57.3442135006
 20
151.3040631659
 10
57.3197176563
 20
151.2509069393
 10
57.2983364402
 20
151.1963359446
 10
57.2801523375
 20
151.140532641
 10
57.265236166
 20
151.0836826628
 10
57.2536448424
 20
151.0259874593
 10
57.2454253885
 20
150.9676451826
 10
57.2406158512
 20
150.9088497259
 10
57.2392416056
 20
150.8498007344
  0
LWPOLYLINE
  5
560
100
AcDbEntity
  8
ASSI
100
AcDbPolyline
 62
250
  6
CONTINUOUS
 90
28
 70
0
 10
58.2311242872
 20
151.8551771222
 10
58.1735133742
 20
151.8534578862
 10
58.1161136732
 20
151.8483986201
 10
58.0591157235
 20
151.8400147134
 10
58.0027224578
 20
151.8283356534
 10
57.9471077452
 20
151.8133970783
 10
57.8924178032
 20
151.7952329891
 10
57.8388176293
 20
151.7738863038
 10
57.78651039
 20
151.749426428
 10
57.7356953918
 20
151.721940188
 10
57.6865572336
 20
151.6915224738
 10
57.6392505304
 20
151.6582646946
 10
57.5939218872
 20
151.6222647928
 10
57.5507272468
 20
151.5836349611
 10
57.5098192875
 20
151.5425002652
 10
57.4713328549
 20
151.4989880631
 10
57.4354045378
 20
151.4532358824
 10
57.4021652884
 20
151.4053932643
 10
57.3717312298
 20
151.3556162446
 10
57.3442135006
 20
151.3040631659
 10
57.3197176563
 20
151.2509069393
 10
57.2983364402
 20
151.1963359446
 10
57.2801523375
 20
151.140532641
 10
57.265236166
 20
151.0836826628
 10
57.2536448424
 20
151.0259874593
 10
57.2454253885
 20
150.9676451826
 10
57.2406158512
 20
150.9088497259
 10
57.2392416056
 20
150.8498007344
  0
LWPOLYLINE
  5
561
100
AcDbEntity
  8
RACCORDO
100
AcDbPolyline
 62
250
  6
CONTINUOUS
 90
28
 70
0
 10
58.2311242872
 20
151.6100542154
 10
58.1906032204
 20
151.6088551892
 10
58.1504859531
 20
151.6053374186
 10
58.1107724853
 20
151.5995008763
 10
58.0713356664
 20
151.5913164372
 10
58.032302647
 20
151.5808131165
 10
57.994054879
 20
151.5680780729
 10
57.9565905846
 20
151.5530848827
 10
57.9199115416
 20
151.535859761
 10
57.8844045353
 20
151.5165688125
 10
57.850088737
 20
151.4951946016
 10
57.8169449754
 20
151.4717542821
 10
57.7853025214
 20
151.4464658473
 10
57.7551727025
 20
151.4193102496
 10
57.7265441913
 20
151.3903062128
 10
57.6997122761
 20
151.3597284142
 10
57.6746921409
 20
151.3275589584
 10
57.6514686016
 20
151.2938154128
 10
57.6302913947
 20
151.2588257014
 10
57.6111795615
 20
151.2225725891
 10
57.5941140606
 20
151.1850730183
 10
57.5792875034
 20
151.1467062557
 10
57.56672338
 20
151.1074523233
 10
57.5563982003
 20
151.0673309794
 10
57.548434105
 20
151.0267811971
 10
57.5428718076
 20
150.9859492903
 10
57.5396705946
 20
150.9446888487
 10
57.538830466
 20
150.902999817
  0
LWPOLYLINE
  5
562
100
AcDbEntity
  8
ASSI
100
AcDbPolyline
 62
250
  6
CONTINUOUS
 90
28
 70
0
 10
58.2311242872
 20
151.6100542154
 10
58.1906032204
 20
151.6088551892
 10
58.1504859531
 20
151.6053374186
 10
58.1107724853
 20
151.5995008763
 10
58.0713356664
 20
151.5913164372
 10
58.032302647
 20
151.5808131165
 10
57.994054879
 20
151.5680780729
 10
57.9565905846
 20
151.5530848827
 10
57.9199115416
 20
151.535859761
 10
57.8844045353
 20
151.5165688125
 10
57.850088737
 20
151.4951946016
 10
57.8169449754
 20
151.4717542821
 10
57.7853025214
 20
151.4464658473
 10
57.7551727025
 20
151.4193102496
 10
57.7265441913
 20
151.3903062128
 10
57.6997122761
 20
151.3597284142
 10
57.6746921409
 20
151.3275589584
 10
57.6514686016
 20
151.2938154128
 10
57.6302913947
 20
151.2588257014
 10
57.6111795615
 20
151.2225725891
 10
57.5941140606
 20
151.1850730183
 10
57.5792875034
 20
151.1467062557
 10
57.56672338
 20
151.1074523233
 10
57.5563982003
 20
151.0673309794
 10
57.548434105
 20
151.0267811971
 10
57.5428718076
 20
150.9859492903
 10
57.5396705946
 20
150.9446888487
 10
57.538830466
 20
150.902999817
  0
LWPOLYLINE
  5
563
100
AcDbEntity
  8
RACCORDO
100
AcDbPolyline
 62
250
  6
CONTINUOUS
 90
19
 70
0
 10
57.538830466
 20
150.9029998048
 10
57.5135404985
 20
150.9025791155
 10
57.4884305895
 20
150.9017826568
 10
57.4636795154
 20
150.9006160994
 10
57.4394634979
 20
150.8990877487
 10
57.4159549491
 20
150.8972084863
 10
57.3933212443
 20
150.8949916921
 10
57.3717235299
 20
150.8924531491
 10
57.3513155765
 20
150.8896109311
 10
57.3322426837
 20
150.8864852741
 10
57.314640646
 20
150.8830984319
 10
57.2986347855
 20
150.8794745181
 10
57.2843390602
 20
150.875639334
 10
57.2718552521
 20
150.8716201853
 10
57.261272243
 20
150.8674456873
 10
57.2526653813
 20
150.8631455614
 10
57.2460959458
 20
150.8587504234
 10
57.2416107093
 20
150.8542915657
 10
57.2392416056
 20
150.8498007344
  0
LWPOLYLINE
  5
564
100
AcDbEntity
  8
ASSI
100
AcDbPolyline
 62
250
  6
CONTINUOUS
 90
19
 70
0
 10
57.538830466
 20
150.9029998048
 10
57.5135404985
 20
150.9025791155
 10
57.4884305895
 20
150.9017826568
 10
57.4636795154
 20
150.9006160994
 10
57.4394634979
 20
150.8990877487
 10
57.4159549491
 20
150.8972084863
 10
57.3933212443
 20
150.8949916921
 10
57.3717235299
 20
150.8924531491
 10
57.3513155765
 20
150.8896109311
 10
57.3322426837
 20
150.8864852741
 10
57.314640646
 20
150.8830984319
 10
57.2986347855
 20
150.8794745181
 10
57.2843390602
 20
150.875639334
 10
57.2718552521
 20
150.8716201853
 10
57.261272243
 20
150.8674456873
 10
57.2526653813
 20
150.8631455614
 10
57.2460959458
 20
150.8587504234
 10
57.2416107093
 20
150.8542915657
 10
57.2392416056
 20
150.8498007344
  0
LINE
  5
565
100
AcDbEntity
  8
RACCORDO
100
AcDbLine
 62
250
  6
CONTINUOUS
 10
287.9874760411
 20
151.6100542154
 11
58.2311242872
 21
151.6100542154
  0
LINE
  5
566
100
AcDbEntity
  8
ASSI
100
AcDbLine
 62
250
  6
CONTINUOUS
 10
287.9874760411
 20
151.6100542154
 11
58.2311242872
 21
151.6100542154
  0
LINE
  5
567
100
AcDbEntity
  8
RACCORDO
100
AcDbLine
 62
250
  6
CONTINUOUS
 10
287.9874760411
 20
151.8551771222
 11
58.2311242872
 21
151.8551771222
  0
LINE
  5
568
100
AcDbEntity
  8
ASSI
100
AcDbLine
 62
250
  6
CONTINUOUS
 10
287.9874760411
 20
151.8551771222
 11
58.2311242872
 21
151.8551771222
  0
LINE
  5
569
100
AcDbEntity
  8
RACCORDO
100
AcDbLine
 62
7
  6
CONTINUOUS
 10
58.1079296989
 20
151.9783717105
 11
288.1106706294
 21
151.9783717105
  0
LINE
  5
56A
100
AcDbEntity
  8
ASSI
100
AcDbLine
 62
7
  6
CONTINUOUS
 10
58.1079296989
 20
151.9783717105
 11
288.1106706294
 21
151.9783717105
  0
LWPOLYLINE
  5
56B
100
AcDbEntity
  8
RACCORDO
100
AcDbPolyline
 62
250
  6
CONTINUOUS
 90
19
 70
0
 10
288.6797698623
 20
150.9029998104
 10
288.7050595657
 20
150.9025790751
 10
288.7301691897
 20
150.9017825764
 10
288.7549199625
 20
150.9006159849
 10
288.7791356672
 20
150.8990876064
 10
288.8026438962
 20
150.8972083223
 10
288.8252772792
 20
150.8949915126
 10
288.8468746742
 20
150.8924529601
 10
288.8672823152
 20
150.8896107385
 10
288.8863549069
 20
150.8864850833
 10
288.903956659
 20
150.8830982482
 10
288.9199622531
 20
150.8794743463
 10
288.9342577349
 20
150.8756391784
 10
288.9467413255
 20
150.8716200496
 10
288.9573241461
 20
150.8674455748
 10
288.9659308507
 20
150.8631454747
 10
288.9725001623
 20
150.8587503646
 10
288.97698531
 20
150.8542915361
 10
288.9793543608
 20
150.8498007345
  0
LWPOLYLINE
  5
56C
100
AcDbEntity
  8
ASSI
100
AcDbPolyline
 62
250
  6
CONTINUOUS
 90
19
 70
0
 10
288.6797698623
 20
150.9029998104
 10
288.7050595657
 20
150.9025790751
 10
288.7301691897
 20
150.9017825764
 10
288.7549199625
 20
150.9006159849
 10
288.7791356672
 20
150.8990876064
 10
288.8026438962
 20
150.8972083223
 10
288.8252772792
 20
150.8949915126
 10
288.8468746742
 20
150.8924529601
 10
288.8672823152
 20
150.8896107385
 10
288.8863549069
 20
150.8864850833
 10
288.903956659
 20
150.8830982482
 10
288.9199622531
 20
150.8794743463
 10
288.9342577349
 20
150.8756391784
 10
288.9467413255
 20
150.8716200496
 10
288.9573241461
 20
150.8674455748
 10
288.9659308507
 20
150.8631454747
 10
288.9725001623
 20
150.8587503646
 10
288.97698531
 20
150.8542915361
 10
288.9793543608
 20
150.8498007345
  0
LINE
  5
56D
100
AcDbEntity
  8
RACCORDO
100
AcDbLine
 62
250
  6
CONTINUOUS
 10
287.9874760411
 20
62.1015662989
 11
288.1106706294
 21
61.9783717105
  0
LINE
  5
56E
100
AcDbEntity
  8
ASSI
100
AcDbLine
 62
250
  6
CONTINUOUS
 10
287.9874760411
 20
62.1015662989
 11
288.1106706294
 21
61.9783717105
  0
LINE
  5
56F
100
AcDbEntity
  8
0
100
AcDbLine
 62
250
  6
CONTINUOUS
 10
266.1514081449
 20
84.1373871995
 11
266.0103965364
 21
84.2783717105
  0
LINE
  5
570
100
AcDbEntity
  8
ASSI
100
AcDbLine
 62
250
  6
CONTINUOUS
 10
266.1514081449
 20
84.1373871995
 11
266.0103965364
 21
84.2783717105
  0
LINE
  5
571
100
AcDbEntity
  8
0
100
AcDbLine
 62
250
  6
CONTINUOUS
 10
221.2648374366
 20
129.023943505
 11
221.4093001642
 21
128.8794680827
  0
LINE
  5
572
100
AcDbEntity
  8
ASSI
100
AcDbLine
 62
250
  6
CONTINUOUS
 10
221.2648374366
 20
129.023943505
 11
221.4093001642
 21
128.8794680827
  0
LINE
  5
573
100
AcDbEntity
  8
0
100
AcDbLine
 62
250
  6
CONTINUOUS
 10
222.0671921834
 20
129.8193562215
 11
222.208203792
 21
129.6783717105
  0
LINE
  5
574
100
AcDbEntity
  8
ASSI
100
AcDbLine
 62
250
  6
CONTINUOUS
 10
222.0671921834
 20
129.8193562215
 11
222.208203792
 21
129.6783717105
  0
LINE
  5
575
100
AcDbEntity
  8
0
100
AcDbLine
 62
250
  6
CONTINUOUS
 10
266.9537628911
 20
84.9327995896
 11
266.8093001642
 21
85.0772753383
  0
LINE
  5
576
100
AcDbEntity
  8
ASSI
100
AcDbLine
 62
250
  6
CONTINUOUS
 10
266.9537628911
 20
84.9327995896
 11
266.8093001642
 21
85.0772753383
  0
LINE
  5
577
100
AcDbEntity
  8
RACCORDO
100
AcDbLine
 62
250
  6
CONTINUOUS
 10
288.9793587228
 20
63.1069426867
 11
289.1093001642
 21
62.9770012453
  0
LINE
  5
578
100
AcDbEntity
  8
ASSI
100
AcDbLine
 62
250
  6
CONTINUOUS
 10
288.9793587228
 20
63.1069426867
 11
289.1093001642
 21
62.9770012453
  0
LWPOLYLINE
  5
579
100
AcDbEntity
  8
0
100
AcDbPolyline
 62
7
  6
CONTINUOUS
 90
7
 70
0
 43
0.3500000006
 10
175.6807207031
 20
167.7283795166
 10
174.1807293091
 20
167.7283795166
 10
175.6807207031
 20
169.8712243652
 10
175.6807207031
 20
170.299793335
 10
175.2521517334
 20
170.7283804321
 10
174.6092982788
 20
170.7283804321
 10
174.1807293091
 20
170.0855088501
  0
LWPOLYLINE
  5
57A
100
AcDbEntity
  8
0
100
AcDbPolyline
 62
7
  6
CONTINUOUS
 90
7
 70
0
 43
0.3500000006
 10
171.1807283936
 20
167.7283795166
 10
169.6807369995
 20
167.7283795166
 10
171.1807283936
 20
169.8712243652
 10
171.1807283936
 20
170.299793335
 10
170.7521594238
 20
170.7283804321
 10
170.1093059692
 20
170.7283804321
 10
169.6807369995
 20
170.0855088501
  0
LWPOLYLINE
  5
57B
100
AcDbEntity
  8
0
100
AcDbPolyline
 62
7
  6
CONTINUOUS
 90
6
 70
0
 43
0.3500000006
 10
172.037866333
 20
167.7283795166
 10
173.1093068848
 20
167.7283795166
 10
173.3235913696
 20
167.9426640015
 10
173.3235913696
 20
169.0140864258
 10
172.8950223999
 20
169.4426553955
 10
172.4664353027
 20
169.4426553955
  0
LINE
  5
57C
100
AcDbEntity
  8
RACCORDO
100
AcDbLine
 62
250
  6
CONTINUOUS
 10
266.9537628488
 20
129.0239657666
 11
266.9695114536
 21
121.6783803264
  0
LINE
  5
57D
100
AcDbEntity
  8
ASSI
100
AcDbLine
 62
250
  6
CONTINUOUS
 10
266.9537628488
 20
129.0239657666
 11
266.9695114536
 21
121.6783803264
  0
LINE
  5
57E
100
AcDbEntity
  8
RACCORDO
100
AcDbLine
 62
250
  6
CONTINUOUS
 10
267.4530776835
 20
129.0484531474
 11
267.4688262507
 21
121.6950400415
  0
LINE
  5
57F
100
AcDbEntity
  8
ASSI
100
AcDbLine
 62
250
  6
CONTINUOUS
 10
267.4530776835
 20
129.0484531474
 11
267.4688262507
 21
121.6950400415
  0
LINE
  5
580
100
AcDbEntity
  8
RACCORDO
100
AcDbLine
 62
250
  6
CONTINUOUS
 10
266.9695114536
 20
121.6783803264
 11
266.9789613437
 21
114.3296017583
  0
LINE
  5
581
100
AcDbEntity
  8
ASSI
100
AcDbLine
 62
250
  6
CONTINUOUS
 10
266.9695114536
 20
121.6783803264
 11
266.9789613437
 21
114.3296017583
  0
LINE
  5
582
100
AcDbEntity
  8
RACCORDO
100
AcDbLine
 62
250
  6
CONTINUOUS
 10
267.4688262507
 20
121.6950400415
 11
267.4782761179
 21
114.3376902528
  0
LINE
  5
583
100
AcDbEntity
  8
ASSI
100
AcDbLine
 62
250
  6
CONTINUOUS
 10
267.4688262507
 20
121.6950400415
 11
267.4782761179
 21
114.3376902528
  0
LINE
  5
584
100
AcDbEntity
  8
RACCORDO
100
AcDbLine
 62
250
  6
CONTINUOUS
 10
266.9789613437
 20
114.3296017583
 11
266.9821120437
 21
106.9783669453
  0
LINE
  5
585
100
AcDbEntity
  8
ASSI
100
AcDbLine
 62
250
  6
CONTINUOUS
 10
266.9789613437
 20
114.3296017583
 11
266.9821120437
 21
106.9783669453
  0
LINE
  5
586
100
AcDbEntity
  8
RACCORDO
100
AcDbLine
 62
250
  6
CONTINUOUS
 10
267.4782761179
 20
114.3376902528
 11
267.4814268111
 21
106.9783717554
  0
LINE
  5
587
100
AcDbEntity
  8
ASSI
100
AcDbLine
 62
250
  6
CONTINUOUS
 10
267.4782761179
 20
114.3376902528
 11
267.4814268111
 21
106.9783717554
  0
LINE
  5
588
100
AcDbEntity
  8
RACCORDO
100
AcDbLine
 62
250
  6
CONTINUOUS
 10
266.1513810474
 20
130.3459473269
 11
266.1513810474
 21
129.8193562215
  0
LINE
  5
589
100
AcDbEntity
  8
ASSI
100
AcDbLine
 62
250
  6
CONTINUOUS
 10
266.1513810474
 20
130.3459473269
 11
266.1513810474
 21
129.8193562215
  0
LINE
  5
58A
100
AcDbEntity
  8
RACCORDO
100
AcDbLine
 62
250
  6
CONTINUOUS
 10
266.1513810474
 20
83.6107960941
 11
266.1513810474
 21
84.1373871995
  0
LINE
  5
58B
100
AcDbEntity
  8
ASSI
100
AcDbLine
 62
250
  6
CONTINUOUS
 10
266.1513810474
 20
83.6107960941
 11
266.1513810474
 21
84.1373871995
  0
LINE
  5
58C
100
AcDbEntity
  8
0
100
AcDbLine
 62
7
  6
CONTINUOUS
 10
266.8093001642
 20
128.8794680827
 11
266.8093001642
 21
85.0772753383
  0
LINE
  5
58D
100
AcDbEntity
  8
ASSI
100
AcDbLine
 62
7
  6
CONTINUOUS
 10
266.8093001642
 20
128.8794680827
 11
266.8093001642
 21
85.0772753383
  0
LINE
  5
58E
100
AcDbEntity
  8
RACCORDO
100
AcDbLine
 62
250
  6
CONTINUOUS
 10
266.9821120437
 20
106.9783669453
 11
266.9789613308
 21
99.6271298557
  0
LINE
  5
58F
100
AcDbEntity
  8
ASSI
100
AcDbLine
 62
250
  6
CONTINUOUS
 10
266.9821120437
 20
106.9783669453
 11
266.9789613308
 21
99.6271298557
  0
LINE
  5
590
100
AcDbEntity
  8
RACCORDO
100
AcDbLine
 62
250
  6
CONTINUOUS
 10
267.4814268111
 20
106.9783717554
 11
267.4782761181
 21
99.61905325
  0
LINE
  5
591
100
AcDbEntity
  8
ASSI
100
AcDbLine
 62
250
  6
CONTINUOUS
 10
267.4814268111
 20
106.9783717554
 11
267.4782761181
 21
99.61905325
  0
LINE
  5
592
100
AcDbEntity
  8
RACCORDO
100
AcDbLine
 62
250
  6
CONTINUOUS
 10
266.9789613308
 20
99.6271298557
 11
266.9695114524
 21
92.2783606215
  0
LINE
  5
593
100
AcDbEntity
  8
ASSI
100
AcDbLine
 62
250
  6
CONTINUOUS
 10
266.9789613308
 20
99.6271298557
 11
266.9695114524
 21
92.2783606215
  0
LINE
  5
594
100
AcDbEntity
  8
RACCORDO
100
AcDbLine
 62
250
  6
CONTINUOUS
 10
267.4782761181
 20
99.61905325
 11
267.4688262509
 21
92.2617034318
  0
LINE
  5
595
100
AcDbEntity
  8
ASSI
100
AcDbLine
 62
250
  6
CONTINUOUS
 10
267.4782761181
 20
99.61905325
 11
267.4688262509
 21
92.2617034318
  0
LINE
  5
596
100
AcDbEntity
  8
RACCORDO
100
AcDbLine
 62
250
  6
CONTINUOUS
 10
266.9695114524
 20
92.2783606215
 11
266.9537628911
 21
84.9327995896
  0
LINE
  5
597
100
AcDbEntity
  8
ASSI
100
AcDbLine
 62
250
  6
CONTINUOUS
 10
266.9695114524
 20
92.2783606215
 11
266.9537628911
 21
84.9327995896
  0
LINE
  5
598
100
AcDbEntity
  8
RACCORDO
100
AcDbLine
 62
250
  6
CONTINUOUS
 10
267.4688262509
 20
92.2617034318
 11
267.4530776835
 21
84.9082902736
  0
LINE
  5
599
100
AcDbEntity
  8
ASSI
100
AcDbLine
 62
250
  6
CONTINUOUS
 10
267.4688262509
 20
92.2617034318
 11
267.4530776835
 21
84.9082902736
  0
LWPOLYLINE
  5
59A
100
AcDbEntity
  8
RACCORDO
100
AcDbPolyline
 62
250
  6
CONTINUOUS
 90
10
 70
0
 10
266.9537628791
 20
84.9327996015
 10
266.95252668
 20
84.8904030392
 10
266.9490304241
 20
84.8481165313
 10
266.9432807774
 20
84.8060595961
 10
266.9352867599
 20
84.7643338908
 10
266.925069873
 20
84.7230759011
 10
266.9126733992
 20
84.6824543267
 10
266.8981442065
 20
84.6425992189
 10
266.8815232679
 20
84.6036039503
 10
266.8628621769
 20
84.5655763503
  0
LWPOLYLINE
  5
59B
100
AcDbEntity
  8
ASSI
100
AcDbPolyline
 62
250
  6
CONTINUOUS
 90
10
 70
0
 10
266.9537628791
 20
84.9327996015
 10
266.95252668
 20
84.8904030392
 10
266.9490304241
 20
84.8481165313
 10
266.9432807774
 20
84.8060595961
 10
266.9352867599
 20
84.7643338908
 10
266.925069873
 20
84.7230759011
 10
266.9126733992
 20
84.6824543267
 10
266.8981442065
 20
84.6425992189
 10
266.8815232679
 20
84.6036039503
 10
266.8628621769
 20
84.5655763503
  0
LWPOLYLINE
  5
59C
100
AcDbEntity
  8
RACCORDO
100
AcDbPolyline
 62
250
  6
CONTINUOUS
 90
10
 70
0
 10
267.4530776835
 20
84.9082902736
 10
267.4510389134
 20
84.8390316716
 10
267.4453657692
 20
84.7703085667
 10
267.4360582509
 20
84.7021209484
 10
267.4230543863
 20
84.6342307627
 10
267.4064161477
 20
84.5668760462
 10
267.3863294511
 20
84.5007709088
 10
267.3628562685
 20
84.4361533628
 10
267.335934628
 20
84.3727853405
 10
267.3055645295
 20
84.3106668168
  0
LWPOLYLINE
  5
59D
100
AcDbEntity
  8
ASSI
100
AcDbPolyline
 62
250
  6
CONTINUOUS
 90
10
 70
0
 10
267.4530776835
 20
84.9082902736
 10
267.4510389134
 20
84.8390316716
 10
267.4453657692
 20
84.7703085667
 10
267.4360582509
 20
84.7021209484
 10
267.4230543863
 20
84.6342307627
 10
267.4064161477
 20
84.5668760462
 10
267.3863294511
 20
84.5007709088
 10
267.3628562685
 20
84.4361533628
 10
267.335934628
 20
84.3727853405
 10
267.3055645295
 20
84.3106668168
  0
LWPOLYLINE
  5
59E
100
AcDbEntity
  8
RACCORDO
100
AcDbPolyline
 62
250
  6
CONTINUOUS
 90
22
 70
0
 10
267.3055645295
 20
84.3106668168
 10
267.2730924316
 20
84.2520351825
 10
267.2376853511
 20
84.1952780011
 10
267.1993432879
 20
84.1403951818
 10
267.1579413452
 20
84.0872013868
 10
267.1136044199
 20
84.0358817846
 10
267.0667072022
 20
83.9869920208
 10
267.0172227638
 20
83.9405731514
 10
266.9651780329
 20
83.8965839094
 10
266.911028485
 20
83.8554564182
 10
266.85474641
 20
83.8172254163
 10
266.7963595179
 20
83.7818559522
 10
266.7364064146
 20
83.7496755954
 10
266.6748537393
 20
83.7207223421
 10
266.6117348527
 20
83.6949580093
 10
266.5476884429
 20
83.6725958944
 10
266.482698825
 20
83.653688422
 10
266.4167816839
 20
83.6381830309
 10
266.3506227613
 20
83.6261355494
 10
266.2844506381
 20
83.6175645636
 10
266.2180367334
 20
83.6124514176
 10
266.1513810474
 20
83.6107960941
  0
LWPOLYLINE
  5
59F
100
AcDbEntity
  8
ASSI
100
AcDbPolyline
 62
250
  6
CONTINUOUS
 90
22
 70
0
 10
267.3055645295
 20
84.3106668168
 10
267.2730924316
 20
84.2520351825
 10
267.2376853511
 20
84.1952780011
 10
267.1993432879
 20
84.1403951818
 10
267.1579413452
 20
84.0872013868
 10
267.1136044199
 20
84.0358817846
 10
267.0667072022
 20
83.9869920208
 10
267.0172227638
 20
83.9405731514
 10
266.9651780329
 20
83.8965839094
 10
266.911028485
 20
83.8554564182
 10
266.85474641
 20
83.8172254163
 10
266.7963595179
 20
83.7818559522
 10
266.7364064146
 20
83.7496755954
 10
266.6748537393
 20
83.7207223421
 10
266.6117348527
 20
83.6949580093
 10
266.5476884429
 20
83.6725958944
 10
266.482698825
 20
83.653688422
 10
266.4167816839
 20
83.6381830309
 10
266.3506227613
 20
83.6261355494
 10
266.2844506381
 20
83.6175645636
 10
266.2180367334
 20
83.6124514176
 10
266.1513810474
 20
83.6107960941
  0
LWPOLYLINE
  5
5A0
100
AcDbEntity
  8
RACCORDO
100
AcDbPolyline
 62
250
  6
CONTINUOUS
 90
22
 70
0
 10
266.8628621769
 20
84.5655763503
 10
266.8428726038
 20
84.5297245083
 10
266.8209928346
 20
84.4948471256
 10
266.7972651791
 20
84.4610466152
 10
266.7717269454
 20
84.4284117367
 10
266.7444412919
 20
84.3970548389
 10
266.7155035612
 20
84.3671060332
 10
266.6849847576
 20
84.3386552106
 10
266.6529593876
 20
84.3117870661
 10
266.619545735
 20
84.2866085287
 10
266.5848321814
 20
84.2631918203
 10
266.5489112558
 20
84.2416045656
 10
266.5119214328
 20
84.2219283974
 10
266.4739564126
 20
84.2042109574
 10
266.4351290854
 20
84.1885026987
 10
266.3956183217
 20
84.174864498
 10
266.355531958
 20
84.1633188958
 10
266.3149859763
 20
84.1538848855
 10
266.2741793515
 20
84.1465853537
 10
266.2332547185
 20
84.1414150844
 10
266.1922946681
 20
84.1383553957
 10
266.1514081911
 20
84.1373871538
  0
LWPOLYLINE
  5
5A1
100
AcDbEntity
  8
ASSI
100
AcDbPolyline
 62
250
  6
CONTINUOUS
 90
22
 70
0
 10
266.8628621769
 20
84.5655763503
 10
266.8428726038
 20
84.5297245083
 10
266.8209928346
 20
84.4948471256
 10
266.7972651791
 20
84.4610466152
 10
266.7717269454
 20
84.4284117367
 10
266.7444412919
 20
84.3970548389
 10
266.7155035612
 20
84.3671060332
 10
266.6849847576
 20
84.3386552106
 10
266.6529593876
 20
84.3117870661
 10
266.619545735
 20
84.2866085287
 10
266.5848321814
 20
84.2631918203
 10
266.5489112558
 20
84.2416045656
 10
266.5119214328
 20
84.2219283974
 10
266.4739564126
 20
84.2042109574
 10
266.4351290854
 20
84.1885026987
 10
266.3956183217
 20
84.174864498
 10
266.355531958
 20
84.1633188958
 10
266.3149859763
 20
84.1538848855
 10
266.2741793515
 20
84.1465853537
 10
266.2332547185
 20
84.1414150844
 10
266.1922946681
 20
84.1383553957
 10
266.1514081911
 20
84.1373871538
  0
LWPOLYLINE
  5
5A2
100
AcDbEntity
  8
0
100
AcDbPolyline
 62
7
  6
CONTINUOUS
 90
10
 70
0
 43
0.3500000006
 10
302.359305542
 20
105.0497960815
 10
301.5021494751
 20
105.9069430847
 10
300.6450115356
 20
106.1212275696
 10
299.7878735962
 20
106.1212275696
 10
299.3593046265
 20
105.6926585999
 10
299.3593046265
 20
105.0497960815
 10
299.7878735962
 20
104.6212271118
 10
300.6450115356
 20
104.6212271118
 10
301.0735805054
 20
105.0497960815
 10
301.0735805054
 20
105.9783742676
  0
LWPOLYLINE
  5
5A3
100
AcDbEntity
  8
RACCORDO
100
AcDbPolyline
 62
250
  6
CONTINUOUS
 90
10
 70
0
 10
266.8628621769
 20
129.3911670707
 10
266.8814941976
 20
129.3532030087
 10
266.8981017894
 20
129.3142516149
 10
266.9126299589
 20
129.274418867
 10
266.9250367872
 20
129.233787181
 10
266.9352680397
 20
129.192494738
 10
266.9432717718
 20
129.1507387097
 10
266.9490261644
 20
129.1086657661
 10
266.9525251259
 20
129.0663682145
 10
266.9537628161
 20
129.0239657347
  0
LWPOLYLINE
  5
5A4
100
AcDbEntity
  8
ASSI
100
AcDbPolyline
 62
250
  6
CONTINUOUS
 90
10
 70
0
 10
266.8628621769
 20
129.3911670707
 10
266.8814941976
 20
129.3532030087
 10
266.8981017894
 20
129.3142516149
 10
266.9126299589
 20
129.274418867
 10
266.9250367872
 20
129.233787181
 10
266.9352680397
 20
129.192494738
 10
266.9432717718
 20
129.1507387097
 10
266.9490261644
 20
129.1086657661
 10
266.9525251259
 20
129.0663682145
 10
266.9537628161
 20
129.0239657347
  0
LWPOLYLINE
  5
5A5
100
AcDbEntity
  8
RACCORDO
100
AcDbPolyline
 62
250
  6
CONTINUOUS
 90
10
 70
0
 10
267.3055645295
 20
129.6460766042
 10
267.3358790141
 20
129.5841118045
 10
267.3627648142
 20
129.5208511287
 10
267.3862219298
 20
129.4562945507
 10
267.4063201595
 20
129.3901934038
 10
267.4229897047
 20
129.3227962972
 10
267.4360211694
 20
129.2548491344
 10
267.4453447547
 20
129.1866005499
 10
267.4510302594
 20
129.1178018912
 10
267.4530776835
 20
129.0484531474
  0
LWPOLYLINE
  5
5A6
100
AcDbEntity
  8
ASSI
100
AcDbPolyline
 62
250
  6
CONTINUOUS
 90
10
 70
0
 10
267.3055645295
 20
129.6460766042
 10
267.3358790141
 20
129.5841118045
 10
267.3627648142
 20
129.5208511287
 10
267.3862219298
 20
129.4562945507
 10
267.4063201595
 20
129.3901934038
 10
267.4229897047
 20
129.3227962972
 10
267.4360211694
 20
129.2548491344
 10
267.4453447547
 20
129.1866005499
 10
267.4510302594
 20
129.1178018912
 10
267.4530776835
 20
129.0484531474
  0
LWPOLYLINE
  5
5A7
100
AcDbEntity
  8
RACCORDO
100
AcDbPolyline
 62
250
  6
CONTINUOUS
 90
28
 70
0
 10
288.9793587228
 20
150.8498007344
 10
288.9779883201
 20
150.9087763696
 10
288.9731909632
 20
150.9675010155
 10
288.9649916231
 20
151.0257757251
 10
288.9534295107
 20
151.0834003012
 10
288.938550329
 20
151.1401843662
 10
288.9204031942
 20
151.1959472411
 10
288.8990488067
 20
151.250516704
 10
288.8745701534
 20
151.3036940204
 10
288.8470686589
 20
151.3552672454
 10
288.8166550344
 20
151.4050559385
 10
288.7834366209
 20
151.452909961
 10
288.7475284177
 20
151.4986749985
 10
288.7090609392
 20
151.5422018073
 10
288.6681709642
 20
151.5833523998
 10
288.6249928024
 20
151.6219997161
 10
288.5796777552
 20
151.6580194422
 10
288.5323827601
 20
151.6912981524
 10
288.4832577906
 20
151.7217357066
 10
288.4324673814
 20
151.7492362608
 10
288.3801871687
 20
151.7737113391
 10
288.3265897533
 20
151.7950843312
 10
288.2718607132
 20
151.8132864941
 10
288.2161795041
 20
151.8282639015
 10
288.1597133329
 20
151.8399742106
 10
288.1026438951
 20
151.8483801179
 10
288.0451677128
 20
151.853453111
 10
287.9874760411
 20
151.8551771222
  0
LWPOLYLINE
  5
5A8
100
AcDbEntity
  8
ASSI
100
AcDbPolyline
 62
250
  6
CONTINUOUS
 90
28
 70
0
 10
288.9793587228
 20
150.8498007344
 10
288.9779883201
 20
150.9087763696
 10
288.9731909632
 20
150.9675010155
 10
288.9649916231
 20
151.0257757251
 10
288.9534295107
 20
151.0834003012
 10
288.938550329
 20
151.1401843662
 10
288.9204031942
 20
151.1959472411
 10
288.8990488067
 20
151.250516704
 10
288.8745701534
 20
151.3036940204
 10
288.8470686589
 20
151.3552672454
 10
288.8166550344
 20
151.4050559385
 10
288.7834366209
 20
151.452909961
 10
288.7475284177
 20
151.4986749985
 10
288.7090609392
 20
151.5422018073
 10
288.6681709642
 20
151.5833523998
 10
288.6249928024
 20
151.6219997161
 10
288.5796777552
 20
151.6580194422
 10
288.5323827601
 20
151.6912981524
 10
288.4832577906
 20
151.7217357066
 10
288.4324673814
 20
151.7492362608
 10
288.3801871687
 20
151.7737113391
 10
288.3265897533
 20
151.7950843312
 10
288.2718607132
 20
151.8132864941
 10
288.2161795041
 20
151.8282639015
 10
288.1597133329
 20
151.8399742106
 10
288.1026438951
 20
151.8483801179
 10
288.0451677128
 20
151.853453111
 10
287.9874760411
 20
151.8551771222
  0
LWPOLYLINE
  5
5A9
100
AcDbEntity
  8
RACCORDO
100
AcDbPolyline
 62
250
  6
CONTINUOUS
 90
28
 70
0
 10
288.6797698623
 20
150.902999817
 10
288.6789277991
 20
150.9446769687
 10
288.6757298268
 20
150.9859178395
 10
288.6701759453
 20
151.0267224857
 10
288.6622282198
 20
151.0672292491
 10
288.6519245852
 20
151.1072998869
 10
288.6393788456
 20
151.1465196327
 10
288.6245635998
 20
151.1848824698
 10
288.6075062489
 20
151.222394629
 10
288.5884028014
 20
151.2586598155
 10
288.5672355681
 20
151.2936550068
 10
288.5440222381
 20
151.3274035187
 10
288.5190118876
 20
151.3595786425
 10
288.4921892794
 20
151.3901631848
 10
288.4635696506
 20
151.4191746668
 10
288.4334477899
 20
151.4463385031
 10
288.4018114198
 20
151.4716364373
 10
288.3686728177
 20
151.4950870496
 10
288.3343636038
 20
151.5164710367
 10
288.2988717491
 20
151.5357693221
 10
288.2622092825
 20
151.5530012644
 10
288.2247439109
 20
151.5680052181
 10
288.1864630198
 20
151.5807595448
 10
288.1473792237
 20
151.5912860911
 10
288.1078980727
 20
151.5994884271
 10
288.0681547503
 20
151.6053344474
 10
288.0280140731
 20
151.6088563677
 10
287.9874760411
 20
151.6100542154
  0
LWPOLYLINE
  5
5AA
100
AcDbEntity
  8
ASSI
100
AcDbPolyline
 62
250
  6
CONTINUOUS
 90
28
 70
0
 10
288.6797698623
 20
150.902999817
 10
288.6789277991
 20
150.9446769687
 10
288.6757298268
 20
150.9859178395
 10
288.6701759453
 20
151.0267224857
 10
288.6622282198
 20
151.0672292491
 10
288.6519245852
 20
151.1072998869
 10
288.6393788456
 20
151.1465196327
 10
288.6245635998
 20
151.1848824698
 10
288.6075062489
 20
151.222394629
 10
288.5884028014
 20
151.2586598155
 10
288.5672355681
 20
151.2936550068
 10
288.5440222381
 20
151.3274035187
 10
288.5190118876
 20
151.3595786425
 10
288.4921892794
 20
151.3901631848
 10
288.4635696506
 20
151.4191746668
 10
288.4334477899
 20
151.4463385031
 10
288.4018114198
 20
151.4716364373
 10
288.3686728177
 20
151.4950870496
 10
288.3343636038
 20
151.5164710367
 10
288.2988717491
 20
151.5357693221
 10
288.2622092825
 20
151.5530012644
 10
288.2247439109
 20
151.5680052181
 10
288.1864630198
 20
151.5807595448
 10
288.1473792237
 20
151.5912860911
 10
288.1078980727
 20
151.5994884271
 10
288.0681547503
 20
151.6053344474
 10
288.0280140731
 20
151.6088563677
 10
287.9874760411
 20
151.6100542154
  0
LWPOLYLINE
  5
5AB
100
AcDbEntity
  8
RACCORDO
100
AcDbPolyline
 62
250
  6
CONTINUOUS
 90
9
 70
0
 10
288.6797698623
 20
63.053743604
 10
288.6585648455
 20
65.3980012084
 10
288.6391117417
 20
67.7477731717
 10
288.6214105507
 20
70.1025850568
 10
288.605458436
 20
72.4619572506
 10
288.5912582343
 20
74.8254175424
 10
288.5788184555
 20
77.1925012888
 10
288.5681419363
 20
79.5627348185
 10
288.5592258402
 20
81.935635461
  0
LWPOLYLINE
  5
5AC
100
AcDbEntity
  8
ASSI
100
AcDbPolyline
 62
250
  6
CONTINUOUS
 90
9
 70
0
 10
288.6797698623
 20
63.053743604
 10
288.6585648455
 20
65.3980012084
 10
288.6391117417
 20
67.7477731717
 10
288.6214105507
 20
70.1025850568
 10
288.605458436
 20
72.4619572506
 10
288.5912582343
 20
74.8254175424
 10
288.5788184555
 20
77.1925012888
 10
288.5681419363
 20
79.5627348185
 10
288.5592258402
 20
81.935635461
  0
LWPOLYLINE
  5
5AD
100
AcDbEntity
  8
RACCORDO
100
AcDbPolyline
 62
250
  6
CONTINUOUS
 90
9
 70
0
 10
288.9793587228
 20
63.1069426867
 10
288.9581540994
 20
65.4477364915
 10
288.9387012375
 20
67.7931065408
 10
288.9210001369
 20
70.1430528347
 10
288.9050478822
 20
72.4980588218
 10
288.8908473889
 20
74.8576410534
 10
288.8784074036
 20
77.2203491837
 10
288.8677308419
 20
79.5856997639
 10
288.8588147883
 20
81.9541762427
  0
LWPOLYLINE
  5
5AE
100
AcDbEntity
  8
ASSI
100
AcDbPolyline
 62
250
  6
CONTINUOUS
 90
9
 70
0
 10
288.9793587228
 20
63.1069426867
 10
288.9581540994
 20
65.4477364915
 10
288.9387012375
 20
67.7931065408
 10
288.9210001369
 20
70.1430528347
 10
288.9050478822
 20
72.4980588218
 10
288.8908473889
 20
74.8576410534
 10
288.8784074036
 20
77.2203491837
 10
288.8677308419
 20
79.5856997639
 10
288.8588147883
 20
81.9541762427
  0
LINE
  5
5AF
100
AcDbEntity
  8
RACCORDO
100
AcDbLine
 62
250
  6
CONTINUOUS
 10
288.5592258402
 20
81.935635461
 11
288.5429293533
 21
88.0858674063
  0
LINE
  5
5B0
100
AcDbEntity
  8
ASSI
100
AcDbLine
 62
250
  6
CONTINUOUS
 10
288.5592258402
 20
81.935635461
 11
288.5429293533
 21
88.0858674063
  0
LINE
  5
5B1
100
AcDbEntity
  8
RACCORDO
100
AcDbLine
 62
250
  6
CONTINUOUS
 10
288.8588147883
 20
81.9541762427
 11
288.842518285
 21
88.0988679074
  0
LINE
  5
5B2
100
AcDbEntity
  8
ASSI
100
AcDbLine
 62
250
  6
CONTINUOUS
 10
288.8588147883
 20
81.9541762427
 11
288.842518285
 21
88.0988679074
  0
LINE
  5
5B3
100
AcDbEntity
  8
RACCORDO
100
AcDbLine
 62
250
  6
CONTINUOUS
 10
288.5429293533
 20
88.0858674063
 11
288.5296327417
 21
95.6403105143
  0
LINE
  5
5B4
100
AcDbEntity
  8
ASSI
100
AcDbLine
 62
250
  6
CONTINUOUS
 10
288.5429293533
 20
88.0858674063
 11
288.5296327417
 21
95.6403105143
  0
LINE
  5
5B5
100
AcDbEntity
  8
RACCORDO
100
AcDbLine
 62
250
  6
CONTINUOUS
 10
288.842518285
 20
88.0988679074
 11
288.8292216169
 21
95.6478580568
  0
LINE
  5
5B6
100
AcDbEntity
  8
ASSI
100
AcDbLine
 62
250
  6
CONTINUOUS
 10
288.842518285
 20
88.0988679074
 11
288.8292216169
 21
95.6478580568
  0
LINE
  5
5B7
100
AcDbEntity
  8
RACCORDO
100
AcDbLine
 62
250
  6
CONTINUOUS
 10
288.5296327417
 20
95.6403105143
 11
288.5229824903
 21
103.1986147501
  0
LINE
  5
5B8
100
AcDbEntity
  8
ASSI
100
AcDbLine
 62
250
  6
CONTINUOUS
 10
288.5296327417
 20
95.6403105143
 11
288.5229824903
 21
103.1986147501
  0
LINE
  5
5B9
100
AcDbEntity
  8
RACCORDO
100
AcDbLine
 62
250
  6
CONTINUOUS
 10
288.8292216169
 20
95.6478580568
 11
288.8225713501
 21
103.2012217415
  0
LINE
  5
5BA
100
AcDbEntity
  8
ASSI
100
AcDbLine
 62
250
  6
CONTINUOUS
 10
288.8292216169
 20
95.6478580568
 11
288.8225713501
 21
103.2012217415
  0
LINE
  5
5BB
100
AcDbEntity
  8
RACCORDO
100
AcDbLine
 62
250
  6
CONTINUOUS
 10
287.9874760411
 20
62.3466892057
 11
287.9874760414
 21
62.1015662989
  0
LINE
  5
5BC
100
AcDbEntity
  8
ASSI
100
AcDbLine
 62
250
  6
CONTINUOUS
 10
287.9874760411
 20
62.3466892057
 11
287.9874760414
 21
62.1015662989
  0
LINE
  5
5BD
100
AcDbEntity
  8
RACCORDO
100
AcDbLine
 62
250
  6
CONTINUOUS
 10
287.9874760411
 20
151.6100542154
 11
287.9874760411
 21
151.8551771222
  0
LINE
  5
5BE
100
AcDbEntity
  8
ASSI
100
AcDbLine
 62
250
  6
CONTINUOUS
 10
287.9874760411
 20
151.6100542154
 11
287.9874760411
 21
151.8551771222
  0
LINE
  5
5BF
100
AcDbEntity
  8
RACCORDO
100
AcDbLine
 62
7
  6
CONTINUOUS
 10
289.1093001642
 20
62.9770012453
 11
289.1093001642
 21
150.9797421758
  0
LINE
  5
5C0
100
AcDbEntity
  8
ASSI
100
AcDbLine
 62
7
  6
CONTINUOUS
 10
289.1093001642
 20
62.9770012453
 11
289.1093001642
 21
150.9797421758
  0
LINE
  5
5C1
100
AcDbEntity
  8
RACCORDO
100
AcDbLine
 62
250
  6
CONTINUOUS
 10
288.5229824903
 20
103.1986147501
 11
288.5229824899
 21
110.7581276479
  0
LINE
  5
5C2
100
AcDbEntity
  8
ASSI
100
AcDbLine
 62
250
  6
CONTINUOUS
 10
288.5229824903
 20
103.1986147501
 11
288.5229824899
 21
110.7581276479
  0
LINE
  5
5C3
100
AcDbEntity
  8
RACCORDO
100
AcDbLine
 62
250
  6
CONTINUOUS
 10
288.8225713501
 20
103.2012217415
 11
288.8225713508
 21
110.7555228206
  0
LINE
  5
5C4
100
AcDbEntity
  8
ASSI
100
AcDbLine
 62
250
  6
CONTINUOUS
 10
288.8225713501
 20
103.2012217415
 11
288.8225713508
 21
110.7555228206
  0
LINE
  5
5C5
100
AcDbEntity
  8
RACCORDO
100
AcDbLine
 62
250
  6
CONTINUOUS
 10
288.5229824899
 20
110.7581276479
 11
288.5296327407
 21
118.3164321788
  0
LINE
  5
5C6
100
AcDbEntity
  8
ASSI
100
AcDbLine
 62
250
  6
CONTINUOUS
 10
288.5229824899
 20
110.7581276479
 11
288.5296327407
 21
118.3164321788
  0
LINE
  5
5C7
100
AcDbEntity
  8
RACCORDO
100
AcDbLine
 62
250
  6
CONTINUOUS
 10
288.8225713508
 20
110.7555228206
 11
288.8292216187
 21
118.3088867219
  0
LINE
  5
5C8
100
AcDbEntity
  8
ASSI
100
AcDbLine
 62
250
  6
CONTINUOUS
 10
288.8225713508
 20
110.7555228206
 11
288.8292216187
 21
118.3088867219
  0
LINE
  5
5C9
100
AcDbEntity
  8
RACCORDO
100
AcDbLine
 62
250
  6
CONTINUOUS
 10
288.5296327407
 20
118.3164321788
 11
288.5429293524
 21
125.8708755757
  0
LINE
  5
5CA
100
AcDbEntity
  8
ASSI
100
AcDbLine
 62
250
  6
CONTINUOUS
 10
288.5296327407
 20
118.3164321788
 11
288.5429293524
 21
125.8708755757
  0
LINE
  5
5CB
100
AcDbEntity
  8
RACCORDO
100
AcDbLine
 62
250
  6
CONTINUOUS
 10
288.8292216187
 20
118.3088867219
 11
288.842518286
 21
125.8578761552
  0
LINE
  5
5CC
100
AcDbEntity
  8
ASSI
100
AcDbLine
 62
250
  6
CONTINUOUS
 10
288.8292216187
 20
118.3088867219
 11
288.842518286
 21
125.8578761552
  0
LWPOLYLINE
  5
5CD
100
AcDbEntity
  8
RACCORDO
100
AcDbPolyline
 62
250
  6
CONTINUOUS
 90
10
 70
0
 10
288.5429293524
 20
125.8708755757
 10
288.5592258409
 20
132.0211079327
 10
288.5681419377
 20
134.394008696
 10
288.5788184565
 20
136.7642422151
 10
288.591258233
 20
139.131325719
 10
288.6054584315
 20
141.4947856384
 10
288.6214105444
 20
143.8541576328
 10
288.6391117359
 20
146.2089695914
 10
288.6585648419
 20
148.5587417989
 10
288.6797698623
 20
150.902999817
  0
LWPOLYLINE
  5
5CE
100
AcDbEntity
  8
ASSI
100
AcDbPolyline
 62
250
  6
CONTINUOUS
 90
10
 70
0
 10
288.5429293524
 20
125.8708755757
 10
288.5592258409
 20
132.0211079327
 10
288.5681419377
 20
134.394008696
 10
288.5788184565
 20
136.7642422151
 10
288.591258233
 20
139.131325719
 10
288.6054584315
 20
141.4947856384
 10
288.6214105444
 20
143.8541576328
 10
288.6391117359
 20
146.2089695914
 10
288.6585648419
 20
148.5587417989
 10
288.6797698623
 20
150.902999817
  0
LWPOLYLINE
  5
5CF
100
AcDbEntity
  8
RACCORDO
100
AcDbPolyline
 62
250
  6
CONTINUOUS
 90
10
 70
0
 10
288.842518286
 20
125.8578761552
 10
288.8588148009
 20
132.002570577
 10
288.8677308705
 20
134.3710502903
 10
288.8784074517
 20
136.7364039407
 10
288.8908474687
 20
139.0991158909
 10
288.9050479971
 20
141.4587017783
 10
288.921000264
 20
143.8137085151
 10
288.9387013451
 20
146.1636517388
 10
288.9581541647
 20
148.5090158118
 10
288.9793587228
 20
150.8498007344
  0
LWPOLYLINE
  5
5D0
100
AcDbEntity
  8
ASSI
100
AcDbPolyline
 62
250
  6
CONTINUOUS
 90
10
 70
0
 10
288.842518286
 20
125.8578761552
 10
288.8588148009
 20
132.002570577
 10
288.8677308705
 20
134.3710502903
 10
288.8784074517
 20
136.7364039407
 10
288.8908474687
 20
139.0991158909
 10
288.9050479971
 20
141.4587017783
 10
288.921000264
 20
143.8137085151
 10
288.9387013451
 20
146.1636517388
 10
288.9581541647
 20
148.5090158118
 10
288.9793587228
 20
150.8498007344
  0
LINE
  5
5D1
100
AcDbEntity
  8
RACCORDO
100
AcDbLine
 62
7
  6
CONTINUOUS
 10
19.6092772648
 20
62.1015662989
 11
21.959970044
 21
61.9783717105
  0
LINE
  5
5D2
100
AcDbEntity
  8
ASSI
100
AcDbLine
 62
7
  6
CONTINUOUS
 10
19.6092772648
 20
62.1015662989
 11
21.959970044
 21
61.9783717105
  0
LINE
  5
5D3
100
AcDbEntity
  8
RACCORDO
100
AcDbLine
 62
250
  6
CONTINUOUS
 10
19.4805396392
 20
63.1069426867
 11
21.959970044
 21
62.9770012453
  0
LINE
  5
5D4
100
AcDbEntity
  8
ASSI
100
AcDbLine
 62
250
  6
CONTINUOUS
 10
19.4805396392
 20
63.1069426867
 11
21.959970044
 21
62.9770012453
  0
LINE
  5
5D5
100
AcDbEntity
  8
RACCORDO
100
AcDbLine
 62
250
  6
CONTINUOUS
 10
19.2266962264
 20
63.0595349348
 11
19.2507694292
 21
63.064290272
  0
LINE
  5
5D6
100
AcDbEntity
  8
ASSI
100
AcDbLine
 62
250
  6
CONTINUOUS
 10
19.2266962264
 20
63.0595349348
 11
19.2507694292
 21
63.064290272
  0
LINE
  5
5D7
100
AcDbEntity
  8
RACCORDO
100
AcDbLine
 62
250
  6
CONTINUOUS
 10
19.2507694292
 20
63.064290272
 11
19.2996948536
 21
63.0736449892
  0
LINE
  5
5D8
100
AcDbEntity
  8
ASSI
100
AcDbLine
 62
250
  6
CONTINUOUS
 10
19.2507694292
 20
63.064290272
 11
19.2996948536
 21
63.0736449892
  0
LINE
  5
5D9
100
AcDbEntity
  8
RACCORDO
100
AcDbLine
 62
250
  6
CONTINUOUS
 10
19.2996948536
 20
63.0736449892
 11
19.4071817401
 21
63.0935978597
  0
LINE
  5
5DA
100
AcDbEntity
  8
ASSI
100
AcDbLine
 62
250
  6
CONTINUOUS
 10
19.2996948536
 20
63.0736449892
 11
19.4071817401
 21
63.0935978597
  0
LINE
  5
5DB
100
AcDbEntity
  8
RACCORDO
100
AcDbLine
 62
250
  6
CONTINUOUS
 10
19.4071817401
 20
63.0935978597
 11
19.4805396392
 21
63.1069426867
  0
LINE
  5
5DC
100
AcDbEntity
  8
ASSI
100
AcDbLine
 62
250
  6
CONTINUOUS
 10
19.4071817401
 20
63.0935978597
 11
19.4805396392
 21
63.1069426867
  0
LWPOLYLINE
  5
5DD
100
AcDbEntity
  8
0
100
AcDbPolyline
 62
7
  6
CONTINUOUS
 90
10
 70
0
 43
0.3500000006
 10
37.2443714676
 20
170.7283804321
 10
36.6015134811
 20
170.0855088501
 10
36.1729422455
 20
169.2283709106
 10
36.1729422455
 20
168.1569484863
 10
36.6015134811
 20
167.7283795166
 10
37.2443714676
 20
167.7283795166
 10
37.6729427032
 20
168.1569484863
 10
37.6729427032
 20
169.0140864258
 10
37.2443714676
 20
169.4426553955
 10
36.3158000793
 20
169.4426553955
  0
LWPOLYLINE
  5
5DE
100
AcDbEntity
  8
RACCORDO
100
AcDbPolyline
 62
250
  6
CONTINUOUS
 90
9
 70
0
 10
19.6092772648
 20
62.1015662989
 10
19.6081884391
 20
62.1032855349
 10
19.6067159323
 20
62.108344801
 10
19.6048689236
 20
62.1167287077
 10
19.6026555211
 20
62.1284077676
 10
19.6000839511
 20
62.1433463428
 10
19.5971630402
 20
62.1615104319
 10
19.5938932142
 20
62.1828571172
 10
19.5902874553
 20
62.207316993
  0
LWPOLYLINE
  5
5DF
100
AcDbEntity
  8
ASSI
100
AcDbPolyline
 62
250
  6
CONTINUOUS
 90
9
 70
0
 10
19.6092772648
 20
62.1015662989
 10
19.6081884391
 20
62.1032855349
 10
19.6067159323
 20
62.108344801
 10
19.6048689236
 20
62.1167287077
 10
19.6026555211
 20
62.1284077676
 10
19.6000839511
 20
62.1433463428
 10
19.5971630402
 20
62.1615104319
 10
19.5938932142
 20
62.1828571172
 10
19.5902874553
 20
62.207316993
  0
LWPOLYLINE
  5
5E0
100
AcDbEntity
  8
RACCORDO
100
AcDbPolyline
 62
250
  6
CONTINUOUS
 90
3
 70
0
 10
16.7599700548
 20
84.3106668174
 10
16.7610322295
 20
84.3107872074
 10
16.7642179221
 20
84.3110142255
  0
LWPOLYLINE
  5
5E1
100
AcDbEntity
  8
ASSI
100
AcDbPolyline
 62
250
  6
CONTINUOUS
 90
3
 70
0
 10
16.7599700548
 20
84.3106668174
 10
16.7610322295
 20
84.3107872074
 10
16.7642179221
 20
84.3110142255
  0
LINE
  5
5E2
100
AcDbEntity
  8
RACCORDO
100
AcDbLine
 62
250
  6
CONTINUOUS
 10
16.7642179221
 20
84.3110142255
 11
16.7768542837
 21
84.31178094
  0
LINE
  5
5E3
100
AcDbEntity
  8
ASSI
100
AcDbLine
 62
250
  6
CONTINUOUS
 10
16.7642179221
 20
84.3110142255
 11
16.7768542837
 21
84.31178094
  0
LINE
  5
5E4
100
AcDbEntity
  8
RACCORDO
100
AcDbLine
 62
250
  6
CONTINUOUS
 10
16.7768542837
 20
84.31178094
 11
16.8603820975
 21
84.3163236656
  0
LINE
  5
5E5
100
AcDbEntity
  8
ASSI
100
AcDbLine
 62
250
  6
CONTINUOUS
 10
16.7768542837
 20
84.31178094
 11
16.8603820975
 21
84.3163236656
  0
LINE
  5
5E6
100
AcDbEntity
  8
RACCORDO
100
AcDbLine
 62
250
  6
CONTINUOUS
 10
16.8603820975
 20
84.3163236656
 11
17.0438884044
 21
84.3257786201
  0
LINE
  5
5E7
100
AcDbEntity
  8
ASSI
100
AcDbLine
 62
250
  6
CONTINUOUS
 10
16.8603820975
 20
84.3163236656
 11
17.0438884044
 21
84.3257786201
  0
LINE
  5
5E8
100
AcDbEntity
  8
RACCORDO
100
AcDbLine
 62
250
  6
CONTINUOUS
 10
19.4805396392
 20
150.8498007344
 11
19.5135867036
 21
151.1401843662
  0
LINE
  5
5E9
100
AcDbEntity
  8
ASSI
100
AcDbLine
 62
250
  6
CONTINUOUS
 10
19.4805396392
 20
150.8498007344
 11
19.5135867036
 21
151.1401843662
  0
LINE
  5
5EA
100
AcDbEntity
  8
RACCORDO
100
AcDbLine
 62
250
  6
CONTINUOUS
 10
19.5135867036
 20
151.1401843662
 11
19.5391712043
 21
151.3552672454
  0
LINE
  5
5EB
100
AcDbEntity
  8
ASSI
100
AcDbLine
 62
250
  6
CONTINUOUS
 10
19.5135867036
 20
151.1401843662
 11
19.5391712043
 21
151.3552672454
  0
LINE
  5
5EC
100
AcDbEntity
  8
RACCORDO
100
AcDbLine
 62
250
  6
CONTINUOUS
 10
19.5391712043
 20
151.3552672454
 11
19.5569150687
 21
151.4986749985
  0
LINE
  5
5ED
100
AcDbEntity
  8
ASSI
100
AcDbLine
 62
250
  6
CONTINUOUS
 10
19.5391712043
 20
151.3552672454
 11
19.5569150687
 21
151.4986749985
  0
LINE
  5
5EE
100
AcDbEntity
  8
RACCORDO
100
AcDbLine
 62
250
  6
CONTINUOUS
 10
19.5569150687
 20
151.4986749985
 11
19.572799747
 21
151.6219997161
  0
LINE
  5
5EF
100
AcDbEntity
  8
ASSI
100
AcDbLine
 62
250
  6
CONTINUOUS
 10
19.5569150687
 20
151.4986749985
 11
19.572799747
 21
151.6219997161
  0
LINE
  5
5F0
100
AcDbEntity
  8
RACCORDO
100
AcDbLine
 62
250
  6
CONTINUOUS
 10
19.572799747
 20
151.6219997161
 11
19.5821173664
 21
151.6912981524
  0
LINE
  5
5F1
100
AcDbEntity
  8
ASSI
100
AcDbLine
 62
250
  6
CONTINUOUS
 10
19.572799747
 20
151.6219997161
 11
19.5821173664
 21
151.6912981524
  0
LWPOLYLINE
  5
5F2
100
AcDbEntity
  8
RACCORDO
100
AcDbPolyline
 62
250
  6
CONTINUOUS
 90
10
 70
0
 10
19.5821173664
 20
151.6912981524
 10
19.5902606617
 20
151.7492362608
 10
19.5938678703
 20
151.7737113391
 10
19.5971398581
 20
151.7950843312
 10
19.6000650268
 20
151.8132864941
 10
19.6026422729
 20
151.8282639015
 10
19.604860659
 20
151.8399742106
 10
19.6067111535
 20
151.8483801179
 10
19.6081864158
 20
151.853453111
 10
19.6092772648
 20
151.8551771222
  0
LWPOLYLINE
  5
5F3
100
AcDbEntity
  8
ASSI
100
AcDbPolyline
 62
250
  6
CONTINUOUS
 90
10
 70
0
 10
19.5821173664
 20
151.6912981524
 10
19.5902606617
 20
151.7492362608
 10
19.5938678703
 20
151.7737113391
 10
19.5971398581
 20
151.7950843312
 10
19.6000650268
 20
151.8132864941
 10
19.6026422729
 20
151.8282639015
 10
19.604860659
 20
151.8399742106
 10
19.6067111535
 20
151.8483801179
 10
19.6081864158
 20
151.853453111
 10
19.6092772648
 20
151.8551771222
  0
LWPOLYLINE
  5
5F4
100
AcDbEntity
  8
0
100
AcDbPolyline
 62
7
  6
CONTINUOUS
 90
3
 70
0
 43
0.3500000006
 10
35.1729419403
 20
168.0140861206
 10
35.1015130234
 20
167.7998016357
 10
34.9586551895
 20
167.5140950317
  0
LWPOLYLINE
  5
5F5
100
AcDbEntity
  8
RACCORDO
100
AcDbPolyline
 62
250
  6
CONTINUOUS
 90
10
 70
0
 10
19.4805396392
 20
63.1069426867
 10
19.0759313231
 20
65.4477364915
 10
18.7047486055
 20
67.7931065408
 10
18.3669914863
 20
70.1430528347
 10
18.0626043337
 20
72.4980588218
 10
17.7916427795
 20
74.8576410534
 10
17.5542737199
 20
77.2203491837
 10
17.3505527869
 20
79.5856997639
 10
17.1804243483
 20
81.9541762427
 10
17.0438884044
 20
84.3257786201
  0
LWPOLYLINE
  5
5F6
100
AcDbEntity
  8
ASSI
100
AcDbPolyline
 62
250
  6
CONTINUOUS
 90
10
 70
0
 10
19.4805396392
 20
63.1069426867
 10
19.0759313231
 20
65.4477364915
 10
18.7047486055
 20
67.7931065408
 10
18.3669914863
 20
70.1430528347
 10
18.0626043337
 20
72.4980588218
 10
17.7916427795
 20
74.8576410534
 10
17.5542737199
 20
77.2203491837
 10
17.3505527869
 20
79.5856997639
 10
17.1804243483
 20
81.9541762427
 10
17.0438884044
 20
84.3257786201
  0
LINE
  5
5F7
100
AcDbEntity
  8
RACCORDO
100
AcDbLine
 62
250
  6
CONTINUOUS
 10
19.5902874553
 20
62.207316993
 11
19.5821478627
 21
62.2652209473
  0
LINE
  5
5F8
100
AcDbEntity
  8
ASSI
100
AcDbLine
 62
250
  6
CONTINUOUS
 10
19.5902874553
 20
62.207316993
 11
19.5821478627
 21
62.2652209473
  0
LINE
  5
5F9
100
AcDbEntity
  8
RACCORDO
100
AcDbLine
 62
250
  6
CONTINUOUS
 10
19.5821478627
 20
62.2652209473
 11
19.5728342307
 21
62.3344786282
  0
LINE
  5
5FA
100
AcDbEntity
  8
ASSI
100
AcDbLine
 62
250
  6
CONTINUOUS
 10
19.5821478627
 20
62.2652209473
 11
19.5728342307
 21
62.3344786282
  0
LINE
  5
5FB
100
AcDbEntity
  8
RACCORDO
100
AcDbLine
 62
250
  6
CONTINUOUS
 10
19.5728342307
 20
62.3344786282
 11
19.55695395
 21
62.4577553579
  0
LINE
  5
5FC
100
AcDbEntity
  8
ASSI
100
AcDbLine
 62
250
  6
CONTINUOUS
 10
19.5728342307
 20
62.3344786282
 11
19.55695395
 21
62.4577553579
  0
LINE
  5
5FD
100
AcDbEntity
  8
RACCORDO
100
AcDbLine
 62
250
  6
CONTINUOUS
 10
19.55695395
 20
62.4577553579
 11
19.5329850162
 21
62.6526802552
  0
LINE
  5
5FE
100
AcDbEntity
  8
ASSI
100
AcDbLine
 62
250
  6
CONTINUOUS
 10
19.55695395
 20
62.4577553579
 11
19.5329850162
 21
62.6526802552
  0
LINE
  5
5FF
100
AcDbEntity
  8
RACCORDO
100
AcDbLine
 62
250
  6
CONTINUOUS
 10
19.5329850162
 20
62.6526802552
 11
19.5070103364
 21
62.8730607582
  0
LINE
  5
600
100
AcDbEntity
  8
ASSI
100
AcDbLine
 62
250
  6
CONTINUOUS
 10
19.5329850162
 20
62.6526802552
 11
19.5070103364
 21
62.8730607582
  0
LINE
  5
601
100
AcDbEntity
  8
RACCORDO
100
AcDbLine
 62
250
  6
CONTINUOUS
 10
19.5070103364
 20
62.8730607582
 11
19.4805396392
 21
63.1069426867
  0
LINE
  5
602
100
AcDbEntity
  8
ASSI
100
AcDbLine
 62
250
  6
CONTINUOUS
 10
19.5070103364
 20
62.8730607582
 11
19.4805396392
 21
63.1069426867
  0
LWPOLYLINE
  5
603
100
AcDbEntity
  8
RACCORDO
100
AcDbPolyline
 62
250
  6
CONTINUOUS
 90
13
 70
0
 10
17.0438884044
 20
84.3257786201
 10
16.8694685428
 20
88.0988679074
 10
16.7267567416
 20
91.8728943863
 10
16.6157530008
 20
95.6478580568
 10
16.5364516459
 20
99.4240713034
 10
16.4888583513
 20
103.2012217415
 10
16.4729901405
 20
106.9783722177
 10
16.4888583649
 20
110.7555228206
 10
16.536451673
 20
114.5326734615
 10
16.6157530341
 20
118.3088867219
 10
16.7267567713
 20
122.0838501288
 10
16.8694685613
 20
125.8578761552
 10
17.0438884044
 20
129.630964801
  0
LWPOLYLINE
  5
604
100
AcDbEntity
  8
ASSI
100
AcDbPolyline
 62
250
  6
CONTINUOUS
 90
13
 70
0
 10
17.0438884044
 20
84.3257786201
 10
16.8694685428
 20
88.0988679074
 10
16.7267567416
 20
91.8728943863
 10
16.6157530008
 20
95.6478580568
 10
16.5364516459
 20
99.4240713034
 10
16.4888583513
 20
103.2012217415
 10
16.4729901405
 20
106.9783722177
 10
16.4888583649
 20
110.7555228206
 10
16.536451673
 20
114.5326734615
 10
16.6157530341
 20
118.3088867219
 10
16.7267567713
 20
122.0838501288
 10
16.8694685613
 20
125.8578761552
 10
17.0438884044
 20
129.630964801
  0
LINE
  5
605
100
AcDbEntity
  8
0
100
AcDbLine
 62
250
  6
CONTINUOUS
 10
16.4289768761
 20
121.6820996924
 11
16.4298938818
 21
121.7101224599
  0
LINE
  5
606
100
AcDbEntity
  8
0
100
AcDbLine
 62
250
  6
CONTINUOUS
 10
16.5853800285
 20
125.8691850539
 11
16.5855221978
 21
125.8725683943
  0
LINE
  5
607
100
AcDbEntity
  8
0
100
AcDbLine
 62
250
  6
CONTINUOUS
 10
16.7976125263
 20
130.3619430198
 11
16.7967378499
 21
130.345947332
  0
LWPOLYLINE
  5
608
100
AcDbEntity
  8
RACCORDO
100
AcDbPolyline
 62
250
  6
CONTINUOUS
 90
10
 70
0
 10
17.0438884044
 20
129.630964801
 10
17.1804245887
 20
132.002570577
 10
17.3505533331
 20
134.3710502903
 10
17.5542746375
 20
136.7364039407
 10
17.7916443015
 20
139.0991158909
 10
18.0626065256
 20
141.4587017783
 10
18.3669939113
 20
143.8137085151
 10
18.704750659
 20
146.1636517388
 10
19.0759325683
 20
148.5090158118
 10
19.4805396392
 20
150.8498007344
  0
LWPOLYLINE
  5
609
100
AcDbEntity
  8
ASSI
100
AcDbPolyline
 62
250
  6
CONTINUOUS
 90
10
 70
0
 10
17.0438884044
 20
129.630964801
 10
17.1804245887
 20
132.002570577
 10
17.3505533331
 20
134.3710502903
 10
17.5542746375
 20
136.7364039407
 10
17.7916443015
 20
139.0991158909
 10
18.0626065256
 20
141.4587017783
 10
18.3669939113
 20
143.8137085151
 10
18.704750659
 20
146.1636517388
 10
19.0759325683
 20
148.5090158118
 10
19.4805396392
 20
150.8498007344
  0
LINE
  5
60A
100
AcDbEntity
  8
0
100
AcDbLine
 62
250
  6
CONTINUOUS
 10
16.8970509395
 20
132.0268257105
 11
16.8966112745
 21
132.0200309548
  0
LINE
  5
60B
100
AcDbEntity
  8
DRAFT
100
AcDbLine
 62
7
  6
CONTINUOUS
 10
24.759970044
 20
103.1257177491
 11
22.759970044
 21
103.4783717105
  0
LINE
  5
60C
100
AcDbEntity
  8
ASSI
100
AcDbLine
 62
7
  6
CONTINUOUS
 10
24.759970044
 20
103.1257177491
 11
22.759970044
 21
103.4783717105
  0
LINE
  5
60D
100
AcDbEntity
  8
RACCORDO
100
AcDbLine
 62
7
  6
CONTINUOUS
 10
21.959970044
 20
61.9783717105
 11
21.959970044
 21
151.9783717105
  0
LINE
  5
60E
100
AcDbEntity
  8
ASSI
100
AcDbLine
 62
7
  6
CONTINUOUS
 10
21.959970044
 20
61.9783717105
 11
21.959970044
 21
151.9783717105
  0
LINE
  5
60F
100
AcDbEntity
  8
DRAFT
100
AcDbLine
 62
7
  6
CONTINUOUS
 10
22.759970044
 20
110.4783717105
 11
22.759970044
 21
103.4783717105
  0
LINE
  5
610
100
AcDbEntity
  8
ASSI
100
AcDbLine
 62
7
  6
CONTINUOUS
 10
22.759970044
 20
110.4783717105
 11
22.759970044
 21
103.4783717105
  0
LINE
  5
611
100
AcDbEntity
  8
DRAFT
100
AcDbLine
 62
7
  6
CONTINUOUS
 10
24.759970044
 20
150.07544707
 11
24.759970044
 21
110.8310256719
  0
LINE
  5
612
100
AcDbEntity
  8
RACCORDO
100
AcDbLine
 62
7
  6
CONTINUOUS
 10
24.759970044
 20
150.4783717078
 11
24.759970044
 21
150.07544707
  0
LINE
  5
613
100
AcDbEntity
  8
ASSI
100
AcDbLine
 62
7
  6
CONTINUOUS
 10
24.759970044
 20
150.4783717078
 11
24.759970044
 21
110.8310256719
  0
LINE
  5
614
100
AcDbEntity
  8
DRAFT
100
AcDbLine
 62
7
  6
CONTINUOUS
 10
24.759970044
 20
103.1257177491
 11
24.759970044
 21
63.8812972626
  0
LINE
  5
615
100
AcDbEntity
  8
RACCORDO
100
AcDbLine
 62
7
  6
CONTINUOUS
 10
24.759970044
 20
63.8812972626
 11
24.759970044
 21
63.4797216084
  0
LINE
  5
616
100
AcDbEntity
  8
ASSI
100
AcDbLine
 62
7
  6
CONTINUOUS
 10
24.759970044
 20
103.1257177491
 11
24.759970044
 21
63.4797216084
  0
LINE
  5
617
100
AcDbEntity
  8
DRAFT
100
AcDbLine
 62
7
  6
CONTINUOUS
 10
24.759970044
 20
110.8310256719
 11
22.759970044
 21
110.4783717105
  0
LINE
  5
618
100
AcDbEntity
  8
ASSI
100
AcDbLine
 62
7
  6
CONTINUOUS
 10
24.759970044
 20
110.8310256719
 11
22.759970044
 21
110.4783717105
  0
LWPOLYLINE
  5
619
100
AcDbEntity
  8
0
100
AcDbPolyline
 62
7
  6
CONTINUOUS
 90
4
 70
0
 43
0.3500000006
 10
32.1015121078
 20
168.1569484863
 10
32.1015121078
 20
169.0140864258
 10
32.5300856094
 20
169.4426553955
 10
33.17294133
 20
169.4426553955
  0
LINE
  5
61A
100
AcDbEntity
  8
RACCORDO
100
AcDbLine
 62
250
  6
CONTINUOUS
 10
16.7975202735
 20
129.6437982346
 11
17.0438884044
 21
129.630964801
  0
LINE
  5
61B
100
AcDbEntity
  8
ASSI
100
AcDbLine
 62
250
  6
CONTINUOUS
 10
16.7975202735
 20
129.6437982346
 11
17.0438884044
 21
129.630964801
  0
LWPOLYLINE
  5
61C
100
AcDbEntity
  8
RACCORDO
100
AcDbPolyline
 62
250
  6
CONTINUOUS
 90
5
 70
0
 10
16.7599700602
 20
129.6460766034
 10
16.7610322349
 20
129.6459562133
 10
16.7642179273
 20
129.6457291953
 10
16.769504479
 20
129.6453971639
 10
16.7975202735
 20
129.6437982346
  0
LWPOLYLINE
  5
61D
100
AcDbEntity
  8
ASSI
100
AcDbPolyline
 62
250
  6
CONTINUOUS
 90
5
 70
0
 10
16.7599700602
 20
129.6460766034
 10
16.7610322349
 20
129.6459562133
 10
16.7642179273
 20
129.6457291953
 10
16.769504479
 20
129.6453971639
 10
16.7975202735
 20
129.6437982346
  0
LWPOLYLINE
  5
61E
100
AcDbEntity
  8
RACCORDO
100
AcDbPolyline
 62
250
  6
CONTINUOUS
 90
13
 70
0
 10
24.7599699186
 20
63.8812962568
 10
24.655131417
 20
63.8133276259
 10
24.5476760638
 20
63.7474552432
 10
24.4376315837
 20
63.6836791088
 10
24.3246414719
 20
63.6217435403
 10
24.2091177797
 20
63.5619042201
 10
24.0922986031
 20
63.5049281952
 10
23.9744993138
 20
63.451004761
 10
23.8555925097
 20
63.399944622
 10
23.7362228082
 20
63.3519469393
 10
23.6166838685
 20
63.3070780998
 10
23.4968964457
 20
63.2652717166
 10
23.3769611078
 20
63.2265277895
  0
LWPOLYLINE
  5
61F
100
AcDbEntity
  8
ASSI
100
AcDbPolyline
 62
250
  6
CONTINUOUS
 90
13
 70
0
 10
24.7599699186
 20
63.8812962568
 10
24.655131417
 20
63.8133276259
 10
24.5476760638
 20
63.7474552432
 10
24.4376315837
 20
63.6836791088
 10
24.3246414719
 20
63.6217435403
 10
24.2091177797
 20
63.5619042201
 10
24.0922986031
 20
63.5049281952
 10
23.9744993138
 20
63.451004761
 10
23.8555925097
 20
63.399944622
 10
23.7362228082
 20
63.3519469393
 10
23.6166838685
 20
63.3070780998
 10
23.4968964457
 20
63.2652717166
 10
23.3769611078
 20
63.2265277895
  0
LWPOLYLINE
  5
620
100
AcDbEntity
  8
RACCORDO
100
AcDbPolyline
 62
250
  6
CONTINUOUS
 90
6
 70
0
 10
19.2009950746
 20
63.0537436163
 10
19.202004434
 20
63.0541643055
 10
19.205108683
 20
63.0549607642
 10
19.2102857202
 20
63.0561273217
 10
19.2174986862
 20
63.0576556724
 10
19.2266962264
 20
63.0595349348
  0
LWPOLYLINE
  5
621
100
AcDbEntity
  8
ASSI
100
AcDbPolyline
 62
250
  6
CONTINUOUS
 90
6
 70
0
 10
19.2009950746
 20
63.0537436163
 10
19.202004434
 20
63.0541643055
 10
19.205108683
 20
63.0549607642
 10
19.2102857202
 20
63.0561273217
 10
19.2174986862
 20
63.0576556724
 10
19.2266962264
 20
63.0595349348
  0
LWPOLYLINE
  5
622
100
AcDbEntity
  8
RACCORDO
100
AcDbPolyline
 62
250
  6
CONTINUOUS
 90
7
 70
0
 10
19.2009950437
 20
150.9029998104
 10
19.2020046849
 20
150.9025790751
 10
19.2051091833
 20
150.9017825764
 10
19.2102864359
 20
150.9006159849
 10
19.2174995824
 20
150.8990876064
 10
19.2266972678
 20
150.8972083223
 10
19.2507706548
 20
150.8924529601
  0
LWPOLYLINE
  5
623
100
AcDbEntity
  8
ASSI
100
AcDbPolyline
 62
250
  6
CONTINUOUS
 90
7
 70
0
 10
19.2009950437
 20
150.9029998104
 10
19.2020046849
 20
150.9025790751
 10
19.2051091833
 20
150.9017825764
 10
19.2102864359
 20
150.9006159849
 10
19.2174995824
 20
150.8990876064
 10
19.2266972678
 20
150.8972083223
 10
19.2507706548
 20
150.8924529601
  0
LWPOLYLINE
  5
624
100
AcDbEntity
  8
0
100
AcDbPolyline
 62
7
  6
CONTINUOUS
 90
10
 70
0
 43
0.3500000006
 10
35.1015130234
 20
168.2283706055
 10
35.1729419403
 20
168.0855082397
 10
35.1729419403
 20
168.0140861206
 10
35.0300841064
 20
167.8712237549
 10
34.9586551895
 20
167.8712237549
 10
34.8872285385
 20
167.9426640015
 10
34.8872285385
 20
168.0140861206
 10
34.9586551895
 20
168.1569484863
 10
35.0300841064
 20
168.2283706055
 10
35.1015130234
 20
168.2283706055
  0
LWPOLYLINE
  5
625
100
AcDbEntity
  8
RACCORDO
100
AcDbPolyline
 62
250
  6
CONTINUOUS
 90
10
 70
0
 10
23.3769611078
 20
63.2265277895
 10
23.2231987683
 20
63.1810873176
 10
23.0682158854
 20
63.140095343
 10
22.9121700689
 20
63.1035518657
 10
22.755304723
 20
63.0714577364
 10
22.5976916423
 20
63.0438121045
 10
22.4392256666
 20
63.0206124179
 10
22.2799714419
 20
63.001857826
 10
22.1201684624
 20
62.9875491795
 10
21.9599700487
 20
62.9776864783
  0
LWPOLYLINE
  5
626
100
AcDbEntity
  8
ASSI
100
AcDbPolyline
 62
250
  6
CONTINUOUS
 90
10
 70
0
 10
23.3769611078
 20
63.2265277895
 10
23.2231987683
 20
63.1810873176
 10
23.0682158854
 20
63.140095343
 10
22.9121700689
 20
63.1035518657
 10
22.755304723
 20
63.0714577364
 10
22.5976916423
 20
63.0438121045
 10
22.4392256666
 20
63.0206124179
 10
22.2799714419
 20
63.001857826
 10
22.1201684624
 20
62.9875491795
 10
21.9599700487
 20
62.9776864783
  0
LINE
  5
627
100
AcDbEntity
  8
RACCORDO
100
AcDbLine
 62
250
  6
CONTINUOUS
 10
19.4805396392
 20
150.8498007344
 11
21.959970044
 21
150.9797421758
  0
LINE
  5
628
100
AcDbEntity
  8
ASSI
100
AcDbLine
 62
250
  6
CONTINUOUS
 10
19.4805396392
 20
150.8498007344
 11
21.959970044
 21
150.9797421758
  0
LWPOLYLINE
  5
629
100
AcDbEntity
  8
RACCORDO
100
AcDbPolyline
 62
250
  6
CONTINUOUS
 90
10
 70
0
 10
21.9599700514
 20
150.9790569425
 10
22.1169710149
 20
150.9695203655
 10
22.2742072682
 20
150.9555492811
 10
22.4315272825
 20
150.9371436892
 10
22.5884437988
 20
150.9144286256
 10
22.7451359628
 20
150.8872790545
 10
22.9024298337
 20
150.8553198692
 10
23.0604656692
 20
150.8184260339
 10
23.2187175601
 20
150.7767225844
 10
23.3769817684
 20
150.7302095206
  0
LWPOLYLINE
  5
62A
100
AcDbEntity
  8
ASSI
100
AcDbPolyline
 62
250
  6
CONTINUOUS
 90
10
 70
0
 10
21.9599700514
 20
150.9790569425
 10
22.1169710149
 20
150.9695203655
 10
22.2742072682
 20
150.9555492811
 10
22.4315272825
 20
150.9371436892
 10
22.5884437988
 20
150.9144286256
 10
22.7451359628
 20
150.8872790545
 10
22.9024298337
 20
150.8553198692
 10
23.0604656692
 20
150.8184260339
 10
23.2187175601
 20
150.7767225844
 10
23.3769817684
 20
150.7302095206
  0
LINE
  5
62B
100
AcDbEntity
  8
RACCORDO
100
AcDbLine
 62
250
  6
CONTINUOUS
 10
19.3611557954
 20
150.8716200496
 11
19.4805398678
 21
150.8498007345
  0
LINE
  5
62C
100
AcDbEntity
  8
ASSI
100
AcDbLine
 62
250
  6
CONTINUOUS
 10
19.3611557954
 20
150.8716200496
 11
19.4805398678
 21
150.8498007345
  0
LINE
  5
62D
100
AcDbEntity
  8
RACCORDO
100
AcDbLine
 62
250
  6
CONTINUOUS
 10
19.2818222401
 20
150.8864850833
 11
19.3611557954
 21
150.8716200496
  0
LINE
  5
62E
100
AcDbEntity
  8
ASSI
100
AcDbLine
 62
250
  6
CONTINUOUS
 10
19.2818222401
 20
150.8864850833
 11
19.3611557954
 21
150.8716200496
  0
LINE
  5
62F
100
AcDbEntity
  8
RACCORDO
100
AcDbLine
 62
250
  6
CONTINUOUS
 10
19.2507706548
 20
150.8924529601
 11
19.2818222401
 21
150.8864850833
  0
LINE
  5
630
100
AcDbEntity
  8
ASSI
100
AcDbLine
 62
250
  6
CONTINUOUS
 10
19.2507706548
 20
150.8924529601
 11
19.2818222401
 21
150.8864850833
  0
LWPOLYLINE
  5
631
100
AcDbEntity
  8
RACCORDO
100
AcDbPolyline
 62
250
  6
CONTINUOUS
 90
13
 70
0
 10
23.3769817684
 20
150.7302095206
 10
23.5035162077
 20
150.6891875626
 10
23.6293339469
 20
150.6450265462
 10
23.7543344904
 20
150.5977264713
 10
23.8791703025
 20
150.5468815843
 10
24.0029652748
 20
150.4928976388
 10
24.1234102205
 20
150.4369918958
 10
24.2402309597
 20
150.3791325953
 10
24.3536921773
 20
150.3193514972
 10
24.4624499546
 20
150.2589611432
 10
24.5661338879
 20
150.198399047
 10
24.6652786503
 20
150.1372276948
 10
24.7599700419
 20
150.0754470867
  0
LWPOLYLINE
  5
632
100
AcDbEntity
  8
ASSI
100
AcDbPolyline
 62
250
  6
CONTINUOUS
 90
13
 70
0
 10
23.3769817684
 20
150.7302095206
 10
23.5035162077
 20
150.6891875626
 10
23.6293339469
 20
150.6450265462
 10
23.7543344904
 20
150.5977264713
 10
23.8791703025
 20
150.5468815843
 10
24.0029652748
 20
150.4928976388
 10
24.1234102205
 20
150.4369918958
 10
24.2402309597
 20
150.3791325953
 10
24.3536921773
 20
150.3193514972
 10
24.4624499546
 20
150.2589611432
 10
24.5661338879
 20
150.198399047
 10
24.6652786503
 20
150.1372276948
 10
24.7599700419
 20
150.0754470867
  0
LINE
  5
633
100
AcDbEntity
  8
RACCORDO
100
AcDbLine
 62
7
  6
CONTINUOUS
 10
19.6092772648
 20
151.8551771222
 11
21.959970044
 21
151.9783717105
  0
LINE
  5
634
100
AcDbEntity
  8
ASSI
100
AcDbLine
 62
7
  6
CONTINUOUS
 10
19.6092772648
 20
151.8551771222
 11
21.959970044
 21
151.9783717105
  0
LWPOLYLINE
  5
635
100
AcDbEntity
  8
0
100
AcDbPolyline
 62
7
  6
CONTINUOUS
 90
13
 70
0
 43
0.3500000006
 10
32.5300856094
 20
169.4426553955
 10
32.2443699417
 20
169.6569398804
 10
32.2443699417
 20
170.299793335
 10
32.5300856094
 20
170.7283804321
 10
33.17294133
 20
170.7283804321
 10
33.4586569977
 20
170.299793335
 10
33.4586569977
 20
169.6569398804
 10
33.17294133
 20
169.4426553955
 10
33.6015125656
 20
169.0140864258
 10
33.6015125656
 20
168.1569484863
 10
33.17294133
 20
167.7283795166
 10
32.5300856094
 20
167.7283795166
 10
32.1015121078
 20
168.1569484863
  0
ARC
  5
636
100
AcDbEntity
  8
RACCORDO
100
AcDbCircle
 62
7
  6
CONTINUOUS
 10
183.9806618116
 20
92.7447279192
 40
167.4332498099
100
AcDbArc
 50
182.8873441217
 51
190.4598239091
  0
ARC
  5
637
100
AcDbEntity
  8
ASSI
100
AcDbCircle
 62
7
  6
CONTINUOUS
 10
183.9806618116
 20
92.7447279192
 40
167.4332498099
100
AcDbArc
 50
182.8873441217
 51
190.4598239091
  0
ARC
  5
638
100
AcDbEntity
  8
RACCORDO
100
AcDbCircle
 62
7
  6
CONTINUOUS
 10
21.6884902275
 20
67.6585151967
 40
5.1872524353
100
AcDbArc
 50
273.0000000295
 51
306.3076472037
  0
ARC
  5
639
100
AcDbEntity
  8
ASSI
100
AcDbCircle
 62
7
  6
CONTINUOUS
 10
21.6884902275
 20
67.6585151967
 40
5.1872524353
100
AcDbArc
 50
273.0000000295
 51
306.3076472037
  0
ARC
  5
63A
100
AcDbEntity
  8
RACCORDO
100
AcDbCircle
 62
7
  6
CONTINUOUS
 10
19.6249772923
 20
62.4011591618
 40
0.3
100
AcDbArc
 50
190.4610191988
 51
267.0001848343
  0
ARC
  5
63B
100
AcDbEntity
  8
ASSI
100
AcDbCircle
 62
7
  6
CONTINUOUS
 10
19.6249772923
 20
62.4011591618
 40
0.3
100
AcDbArc
 50
190.4610191988
 51
267.0001848343
  0
ARC
  5
63C
100
AcDbEntity
  8
RACCORDO
100
AcDbCircle
 62
7
  6
CONTINUOUS
 10
21.6884902275
 20
146.2982282244
 40
5.1872524353
100
AcDbArc
 50
53.6923518331
 51
86.9999999176
  0
ARC
  5
63D
100
AcDbEntity
  8
ASSI
100
AcDbCircle
 62
7
  6
CONTINUOUS
 10
21.6884902275
 20
146.2982282244
 40
5.1872524353
100
AcDbArc
 50
53.6923518331
 51
86.9999999176
  0
ARC
  5
63E
100
AcDbEntity
  8
RACCORDO
100
AcDbCircle
 62
7
  6
CONTINUOUS
 10
19.6249780517
 20
151.5555882618
 40
0.3
100
AcDbArc
 50
93.0
 51
169.5397588495
  0
ARC
  5
63F
100
AcDbEntity
  8
ASSI
100
AcDbCircle
 62
7
  6
CONTINUOUS
 10
19.6249780517
 20
151.5555882618
 40
0.3
100
AcDbArc
 50
93.0
 51
169.5397588495
  0
ARC
  5
640
100
AcDbEntity
  8
RACCORDO
100
AcDbCircle
 62
7
  6
CONTINUOUS
 10
183.9806618116
 20
121.2120155018
 40
167.4332498099
100
AcDbArc
 50
169.5397588495
 51
177.1126559741
  0
ARC
  5
641
100
AcDbEntity
  8
ASSI
100
AcDbCircle
 62
7
  6
CONTINUOUS
 10
183.9806618116
 20
121.2120155018
 40
167.4332498099
100
AcDbArc
 50
169.5397588495
 51
177.1126559741
  0
ARC
  5
642
100
AcDbEntity
  8
0
100
AcDbCircle
 62
250
  6
CONTINUOUS
 10
183.9806618116
 20
121.2120155018
 40
167.4332498099
100
AcDbArc
 50
176.2280584927
 51
177.0077210096
  0
ARC
  5
643
100
AcDbEntity
  8
RACCORDO
100
AcDbCircle
 62
7
  6
CONTINUOUS
 10
466.1886909274
 20
106.9783717105
 40
450.0
100
AcDbArc
 50
177.1126435736
 51
182.8873564621
  0
ARC
  5
644
100
AcDbEntity
  8
ASSI
100
AcDbCircle
 62
7
  6
CONTINUOUS
 10
466.1886909274
 20
106.9783717105
 40
450.0
100
AcDbArc
 50
177.1126435736
 51
182.8873564621
  0
ARC
  5
645
100
AcDbEntity
  8
0
100
AcDbCircle
 62
250
  6
CONTINUOUS
 10
466.1886909274
 20
106.9783717105
 40
450.0
100
AcDbArc
 50
178.1275299158
 51
178.209801317
  0
ARC
  5
646
100
AcDbEntity
  8
0
100
AcDbCircle
 62
250
  6
CONTINUOUS
 10
466.1886909274
 20
106.9783717105
 40
450.0
100
AcDbArc
 50
178.0061469249
 51
178.1239600363
  0
ARC
  5
647
100
AcDbEntity
  8
0
100
AcDbCircle
 62
250
  6
CONTINUOUS
 10
466.1886909274
 20
106.9783717105
 40
450.0
100
AcDbArc
 50
177.4544485266
 51
177.5902711615
  0
ELLIPSE
  5
648
100
AcDbEntity
  8
RACCORDO
100
AcDbEllipse
 62
7
  6
CONTINUOUS
 10
58.1106725102
 20
62.9797440565
 30
0.0
 11
0.7090462434
 21
0.7090462434
 31
0.0
 40
0.9972646886
 41
-3.9256212891
 42
-2.3575640181
  0
ELLIPSE
  5
649
100
AcDbEntity
  8
RACCORDO
100
AcDbEllipse
 62
7
  6
CONTINUOUS
 10
288.1079278182
 20
62.9797440565
 30
0.0
 11
-0.7090462434
 21
0.7090462434
 31
0.0
 40
0.9972646886
 41
-3.9256212891
 42
-2.3575640181
  0
ELLIPSE
  5
64A
100
AcDbEntity
  8
RACCORDO
100
AcDbEllipse
 62
7
  6
CONTINUOUS
 10
288.1079278182
 20
150.9769993645
 30
0.0
 11
0.7090462434
 21
0.7090462434
 31
0.0
 40
0.9972646886
 41
-0.7840286355
 42
0.7840286355
  0
ELLIPSE
  5
64B
100
AcDbEntity
  8
RACCORDO
100
AcDbEllipse
 62
7
  6
CONTINUOUS
 10
58.1106725102
 20
150.9769993645
 30
0.0
 11
0.7090462434
 21
-0.7090462434
 31
0.0
 40
0.9972646886
 41
2.3575640181
 42
3.9256212891
  0
ELLIPSE
  5
64C
100
AcDbEntity
  8
0
100
AcDbEllipse
 62
7
  6
CONTINUOUS
 10
266.0082022874
 20
128.8772738337
 30
0.0
 11
0.5672369947
 21
0.5672369947
 31
0.0
 40
0.9972646886
 41
-0.7840286355
 42
0.7840286355
  0
ELLIPSE
  5
64D
100
AcDbEntity
  8
0
100
AcDbEllipse
 62
7
  6
CONTINUOUS
 10
266.0082022874
 20
85.0794695873
 30
0.0
 11
0.5672369947
 21
-0.5672369947
 31
0.0
 40
0.9972646886
 41
-0.7840286355
 42
0.7840286355
  0
ELLIPSE
  5
64E
100
AcDbEntity
  8
0
100
AcDbEllipse
 62
7
  6
CONTINUOUS
 10
222.210398041
 20
85.0794695873
 30
0.0
 11
0.5672369947
 21
0.5672369947
 31
0.0
 40
0.9972646886
 41
2.3575640181
 42
3.9256212891
  0
ELLIPSE
  5
64F
100
AcDbEntity
  8
0
100
AcDbEllipse
 62
7
  6
CONTINUOUS
 10
222.210398041
 20
128.8772738337
 30
0.0
 11
0.5672369947
 21
-0.5672369947
 31
0.0
 40
0.9972646886
 41
2.3575640181
 42
3.9256212891
  0
ELLIPSE
  5
650
100
AcDbEntity
  8
0
100
AcDbEllipse
 62
7
  6
CONTINUOUS
 10
195.0082022874
 20
128.8772738337
 30
0.0
 11
0.5672369947
 21
0.5672369947
 31
0.0
 40
0.9972646886
 41
-0.7840286355
 42
0.7840286355
  0
ELLIPSE
  5
651
100
AcDbEntity
  8
0
100
AcDbEllipse
 62
7
  6
CONTINUOUS
 10
151.210398041
 20
128.8772738337
 30
0.0
 11
0.5672369947
 21
-0.5672369947
 31
0.0
 40
0.9972646886
 41
2.3575640181
 42
3.9256212891
  0
ELLIPSE
  5
652
100
AcDbEntity
  8
0
100
AcDbEllipse
 62
7
  6
CONTINUOUS
 10
151.210398041
 20
85.0794695873
 30
0.0
 11
0.5672369947
 21
0.5672369947
 31
0.0
 40
0.9972646886
 41
-3.9256212891
 42
-2.3575640181
  0
ELLIPSE
  5
653
100
AcDbEntity
  8
0
100
AcDbEllipse
 62
7
  6
CONTINUOUS
 10
195.0082022874
 20
85.0794695873
 30
0.0
 11
0.5672369947
 21
-0.5672369947
 31
0.0
 40
0.9972646886
 41
-0.7840286355
 42
0.7840286355
  0
ELLIPSE
  5
654
100
AcDbEntity
  8
0
100
AcDbEllipse
 62
7
  6
CONTINUOUS
 10
80.210398041
 20
85.0794695873
 30
0.0
 11
0.5672369947
 21
0.5672369947
 31
0.0
 40
0.9972646886
 41
2.3575640181
 42
3.9256212891
  0
ELLIPSE
  5
655
100
AcDbEntity
  8
0
100
AcDbEllipse
 62
7
  6
CONTINUOUS
 10
80.210398041
 20
128.8772738337
 30
0.0
 11
0.5672369947
 21
-0.5672369947
 31
0.0
 40
0.9972646886
 41
2.3575640181
 42
3.9256212891
  0
ELLIPSE
  5
656
100
AcDbEntity
  8
0
100
AcDbEllipse
 62
7
  6
CONTINUOUS
 10
124.0082022874
 20
128.8772738337
 30
0.0
 11
0.5672369947
 21
0.5672369947
 31
0.0
 40
0.9972646886
 41
-0.7840286355
 42
0.7840286355
  0
ELLIPSE
  5
657
100
AcDbEntity
  8
0
100
AcDbEllipse
 62
7
  6
CONTINUOUS
 10
124.0082022874
 20
85.0794695873
 30
0.0
 11
0.5672369947
 21
-0.5672369947
 31
0.0
 40
0.9972646886
 41
-0.7840286355
 42
0.7840286355
  0
ELLIPSE
  5
658
100
AcDbEntity
  8
ASSI
100
AcDbEllipse
 62
7
  6
CONTINUOUS
 10
58.1106725102
 20
62.9797440565
 30
0.0
 11
0.7090462434
 21
0.7090462434
 31
0.0
 40
0.9972646886
 41
-3.9256212891
 42
-2.3575640181
  0
ELLIPSE
  5
659
100
AcDbEntity
  8
ASSI
100
AcDbEllipse
 62
7
  6
CONTINUOUS
 10
288.1079278182
 20
62.9797440565
 30
0.0
 11
-0.7090462434
 21
0.7090462434
 31
0.0
 40
0.9972646886
 41
-3.9256212891
 42
-2.3575640181
  0
ELLIPSE
  5
65A
100
AcDbEntity
  8
ASSI
100
AcDbEllipse
 62
7
  6
CONTINUOUS
 10
288.1079278182
 20
150.9769993645
 30
0.0
 11
0.7090462434
 21
0.7090462434
 31
0.0
 40
0.9972646886
 41
-0.7840286355
 42
0.7840286355
  0
ELLIPSE
  5
65B
100
AcDbEntity
  8
ASSI
100
AcDbEllipse
 62
7
  6
CONTINUOUS
 10
58.1106725102
 20
150.9769993645
 30
0.0
 11
0.7090462434
 21
-0.7090462434
 31
0.0
 40
0.9972646886
 41
2.3575640181
 42
3.9256212891
  0
ELLIPSE
  5
65C
100
AcDbEntity
  8
ASSI
100
AcDbEllipse
 62
7
  6
CONTINUOUS
 10
266.0082022874
 20
128.8772738337
 30
0.0
 11
0.5672369947
 21
0.5672369947
 31
0.0
 40
0.9972646886
 41
-0.7840286355
 42
0.7840286355
  0
ELLIPSE
  5
65D
100
AcDbEntity
  8
ASSI
100
AcDbEllipse
 62
7
  6
CONTINUOUS
 10
266.0082022874
 20
85.0794695873
 30
0.0
 11
0.5672369947
 21
-0.5672369947
 31
0.0
 40
0.9972646886
 41
-0.7840286355
 42
0.7840286355
  0
ELLIPSE
  5
65E
100
AcDbEntity
  8
ASSI
100
AcDbEllipse
 62
7
  6
CONTINUOUS
 10
222.210398041
 20
85.0794695873
 30
0.0
 11
0.5672369947
 21
0.5672369947
 31
0.0
 40
0.9972646886
 41
2.3575640181
 42
3.9256212891
  0
ELLIPSE
  5
65F
100
AcDbEntity
  8
ASSI
100
AcDbEllipse
 62
7
  6
CONTINUOUS
 10
222.210398041
 20
128.8772738337
 30
0.0
 11
0.5672369947
 21
-0.5672369947
 31
0.0
 40
0.9972646886
 41
2.3575640181
 42
3.9256212891
  0
ELLIPSE
  5
660
100
AcDbEntity
  8
ASSI
100
AcDbEllipse
 62
7
  6
CONTINUOUS
 10
195.0082022874
 20
128.8772738337
 30
0.0
 11
0.5672369947
 21
0.5672369947
 31
0.0
 40
0.9972646886
 41
-0.7840286355
 42
0.7840286355
  0
ELLIPSE
  5
661
100
AcDbEntity
  8
ASSI
100
AcDbEllipse
 62
7
  6
CONTINUOUS
 10
151.210398041
 20
128.8772738337
 30
0.0
 11
0.5672369947
 21
-0.5672369947
 31
0.0
 40
0.9972646886
 41
2.3575640181
 42
3.9256212891
  0
ELLIPSE
  5
662
100
AcDbEntity
  8
ASSI
100
AcDbEllipse
 62
7
  6
CONTINUOUS
 10
151.210398041
 20
85.0794695873
 30
0.0
 11
0.5672369947
 21
0.5672369947
 31
0.0
 40
0.9972646886
 41
-3.9256212891
 42
-2.3575640181
  0
ELLIPSE
  5
663
100
AcDbEntity
  8
ASSI
100
AcDbEllipse
 62
7
  6
CONTINUOUS
 10
195.0082022874
 20
85.0794695873
 30
0.0
 11
0.5672369947
 21
-0.5672369947
 31
0.0
 40
0.9972646886
 41
-0.7840286355
 42
0.7840286355
  0
ELLIPSE
  5
664
100
AcDbEntity
  8
ASSI
100
AcDbEllipse
 62
7
  6
CONTINUOUS
 10
80.210398041
 20
85.0794695873
 30
0.0
 11
0.5672369947
 21
0.5672369947
 31
0.0
 40
0.9972646886
 41
2.3575640181
 42
3.9256212891
  0
ELLIPSE
  5
665
100
AcDbEntity
  8
ASSI
100
AcDbEllipse
 62
7
  6
CONTINUOUS
 10
80.210398041
 20
128.8772738337
 30
0.0
 11
0.5672369947
 21
-0.5672369947
 31
0.0
 40
0.9972646886
 41
2.3575640181
 42
3.9256212891
  0
ELLIPSE
  5
666
100
AcDbEntity
  8
ASSI
100
AcDbEllipse
 62
7
  6
CONTINUOUS
 10
124.0082022874
 20
128.8772738337
 30
0.0
 11
0.5672369947
 21
0.5672369947
 31
0.0
 40
0.9972646886
 41
-0.7840286355
 42
0.7840286355
  0
ELLIPSE
  5
667
100
AcDbEntity
  8
ASSI
100
AcDbEllipse
 62
7
  6
CONTINUOUS
 10
124.0082022874
 20
85.0794695873
 30
0.0
 11
0.5672369947
 21
-0.5672369947
 31
0.0
 40
0.9972646886
 41
-0.7840286355
 42
0.7840286355
  0
ELLIPSE
  5
668
100
AcDbEntity
  8
0
100
AcDbEllipse
 62
250
  6
CONTINUOUS
 10
466.1886909274
 20
106.9783717105
 30
0.0
 11
0.0
 21
450.0
 31
0.0
 40
1.0
 41
1.531108938
 42
1.5342196405
  0
ELLIPSE
  5
669
100
AcDbEntity
  8
0
100
AcDbEllipse
 62
250
  6
CONTINUOUS
 10
466.1886909274
 20
106.9783717105
 30
0.0
 11
450.0
 21
-0.0
 31
0.0
 40
1.0
 41
3.0996007286
 42
3.1001275502
  0
ELLIPSE
  5
66A
100
AcDbEntity
  8
0
100
AcDbEllipse
 62
250
  6
CONTINUOUS
 10
466.1886909274
 20
106.9783717105
 30
0.0
 11
450.0
 21
-0.0
 31
0.0
 40
1.0
 41
9.3797570292
 42
9.3827785106
  0
ENDSEC
  0
SECTION
  2
OBJECTS
  0
DICTIONARY
  5
C
100
AcDbDictionary
280
0
281
1
  3
ACAD_GROUP
350
D
  3
ACAD_MLINESTYLE
350
17
  3
ACAD_LAYOUT
350
1A
  3
ACAD_PLOTSETTINGS
350
19
  3
ACAD_PLOTSTYLENAME
350
E
  0
DICTIONARY
  5
D
102
{ACAD_REACTORS
330
C
102
}
100
AcDbDictionary
280
0
281
1
  0
ACDBDICTIONARYWDFLT
  5
E
102
{ACAD_REACTORS
330
C
102
}
100
AcDbDictionary
281
1
  3
Normal
350
F
100
AcDbDictionaryWithDefault
340
F
  0
DICTIONARY
  5
17
102
{ACAD_REACTORS
330
C
102
}
100
AcDbDictionary
280
0
281
1
  3
Standard
350
18
  0
DICTIONARY
  5
19
102
{ACAD_REACTORS
330
C
102
}
100
AcDbDictionary
281
1
  0
DICTIONARY
  5
1A
102
{ACAD_REACTORS
330
C
102
}
100
AcDbDictionary
281
1
  3
Model
350
66B
  3
Layout1
350
66C
  0
ACDBPLACEHOLDER
  5
F
102
{ACAD_REACTORS
330
E
102
}
  0
MLINESTYLE
  5
18
102
{ACAD_REACTORS
330
17
102
}
100
AcDbMlineStyle
  2
STANDARD
 70
0
  3

 62
256
 51
90.0
 52
90.0
 71
2
 49
0.5
 62
256
  6
BYLAYER
 49
-0.5
 62
256
  6
BYLAYER
  0
LAYOUT
  5
66B
102
{ACAD_REACTORS
330
1A
102
}
100
AcDbPlotSettings
  1

  2
none_device
  4
ISO_A4_(297.00_x_210.00_MM)
  6

 40
0.0
 41
0.0
 42
0.0
 43
0.0
 44
297.0
 45
210.0
 46
0.0
 47
0.0
 48
0.0
 49
0.0
140
0.0
141
0.0
142
1.0
143
1.0
 70
1024
 72
1
 73
0
 74
0
  7

 75
0
147
1.0
148
0.0
149
0.0
100
AcDbLayout
  1
Model
 70
0
 71
0
 10
0.0
 20
0.0
 11
297.0
 21
210.0
 12
0.0
 22
0.0
 32
0.0
 14
0.0
 24
0.0
 34
0.0
 15
0.0
 25
0.0
 35
0.0
146
0.0
 13
0.0
 23
0.0
 33
0.0
 16
1.0
 26
0.0
 36
0.0
 17
0.0
 27
1.0
 37
0.0
 76
0
330
215
345
0
346
0
  0
LAYOUT
  5
66C
102
{ACAD_REACTORS
330
1A
102
}
100
AcDbPlotSettings
  1

  2
none_device
  4
ISO_A4_(297.00_x_210.00_MM)
  6

 40
0.0
 41
0.0
 42
0.0
 43
0.0
 44
297.0
 45
210.0
 46
0.0
 47
0.0
 48
0.0
 49
0.0
140
0.0
141
0.0
142
1.0
143
1.0
 70
0
 72
1
 73
0
 74
0
  7

 75
0
147
1.0
148
0.0
149
0.0
100
AcDbLayout
  1
Layout1
 70
0
 71
1
 10
0.0
 20
0.0
 11
297.0
 21
210.0
 12
0.0
 22
0.0
 32
0.0
 14
0.0
 24
0.0
 34
0.0
 15
0.0
 25
0.0
 35
0.0
146
0.0
 13
0.0
 23
0.0
 33
0.0
 16
1.0
 26
0.0
 36
0.0
 17
0.0
 27
1.0
 37
0.0
 76
0
330
216
345
0
346
0
  0
ENDSEC
  0
EOF
