  0
SECTION
  2
HEADER
  9
$ACADVER
  1
AC1021
  9
$DWGCODEPAGE
  3
ANSI_1252
  9
$EXTMAX
 10
297.0
 20
210.0
 30
0.0
  9
$EXTMIN
 10
0.0
 20
0.0
 30
0.0
  9
$LIMMIN
 10
0.0
 20
0.0
  9
$LIMMAX
 10
297.0
 20
210.0
  9
$VIEWCTR
 10
148.5
 20
105.0
  9
$VIEWSIZE
 40
210.0
  9
$CLAYER
  8
0
  9
$LTSCALE
 40
16.335
  9
$CELTYPE
  6
BYLAYER
  9
$DIMSCALE
 40
1.0
  9
$DIMASZ
 40
3.0
  9
$DIMEXO
 40
0.5
  9
$DIMDLI
 40
11.286
  9
$DIMEXE
 40
1.5
  9
$DIMCEN
 40
2.673
  9
$DIMLFAC
 40
1.0
  9
$DIMBLK
  1
_FILLED
  9
$DIMALT
 70
0
  9
$DIMALTF
 40
25.4
  9
$DIMTXT
 40
3.0
  9
$DIMTOL
 70
1
  9
$DIMLIM
 70
0
  9
$DIMTFAC
 40
1.0
  9
$DIMTP
 40
0.01
  9
$DIMTM
 40
0.01
  9
$DIMGAP
 40
0.625
  9
$DIMDSEP
 70
44
  9
$AUNITS
 70
0
  9
$PDMODE
 70
3
  9
$PDSIZE
 40
3.0
  9
$HANDSEED
  5
373
  9
$TILEMODE
 70
1
  9
$MEASUREMENT
 70
1
  9
$INSUNITS
 70
4
  0
ENDSEC
  0
SECTION
  2
CLASSES
  0
CLASS
  1
ACDBDICTIONARYWDFLT
  2
AcDbDictionaryWithDefault
  3
AutoCAD 2000
 90
0
 91
1
280
0
281
0
  0
CLASS
  1
ACDBPLACEHOLDER
  2
AcDbPlaceHolder
  3
AutoCAD 2000
 90
0
 91
1
280
0
281
0
  0
CLASS
  1
LAYOUT
  2
AcDbLayout
  3
AutoCAD 2000
 90
0
 91
0
280
0
281
0
  0
ENDSEC
  0
SECTION
  2
TABLES
  0
TABLE
  2
VPORT
  5
8
100
AcDbSymbolTable
 70
2
  0
VPORT
  5
1F4
100
AcDbSymbolTableRecord
100
AcDbViewportTableRecord
  2
*ACTIVE
 70
0
 10
0.0
 20
0.0
 11
1.0
 21
1.0
 12
148.5
 22
105.0
 13
0.0
 23
0.0
 14
1.0
 24
1.0
 15
0.0
 25
0.0
 16
0.0
 26
0.0
 36
1.0
 17
0.0
 27
0.0
 37
0.0
 40
210.0
 41
1.4142857143
 42
50.0
 43
0.0
 44
0.0
 50
0.0
 51
0.0
 71
0
 72
100
 73
1
 74
1
 75
0
 76
0
 77
0
 78
0
  0
ENDTAB
  0
TABLE
  2
LTYPE
  5
5
100
AcDbSymbolTable
 70
6
  0
LTYPE
  5
14
100
AcDbSymbolTableRecord
100
AcDbLinetypeTableRecord
  2
BYBLOCK
 70
0
  3

 72
65
 73
0
 40
0.0
  0
LTYPE
  5
15
100
AcDbSymbolTableRecord
100
AcDbLinetypeTableRecord
  2
BYLAYER
 70
0
  3

 72
65
 73
0
 40
0.0
  0
LTYPE
  5
16
100
AcDbSymbolTableRecord
100
AcDbLinetypeTableRecord
  2
CONTINUOUS
 70
64
  3
Solid line
 72
65
 73
0
 40
0.0
  0
LTYPE
  5
1F5
100
AcDbSymbolTableRecord
100
AcDbLinetypeTableRecord
  2
CENTER
 70
64
  3
____ _ ____ _ ____ _ ____ _ ____ _ ____ _ ____
 72
65
 73
4
 40
0.6
 49
0.375
 74
0
 49
-0.075
 74
0
 49
0.075
 74
0
 49
-0.075
 74
0
  0
LTYPE
  5
1F6
100
AcDbSymbolTableRecord
100
AcDbLinetypeTableRecord
  2
HIDDEN
 70
64
  3
- - - - - - - - - - - - - - - - - - - -
 72
65
 73
2
 40
0.2
 49
0.1
 74
0
 49
-0.1
 74
0
  0
LTYPE
  5
1F7
100
AcDbSymbolTableRecord
100
AcDbLinetypeTableRecord
  2
PHANTOM
 70
64
  3
_____ _ _ _____ _ _ _____ _ _ _____
 72
65
 73
6
 40
0.8
 49
0.45
 74
0
 49
-0.05
 74
0
 49
0.1
 74
0
 49
-0.05
 74
0
 49
0.1
 74
0
 49
-0.05
 74
0
  0
LTYPE
  5
1F8
100
AcDbSymbolTableRecord
100
AcDbLinetypeTableRecord
  2
DOT
 70
64
  3
. . . . . . . . . . . . . . . . . . . .
 72
65
 73
2
 40
0.2
 49
0.1
 74
0
 49
-0.1
 74
0
  0
LTYPE
  5
1F9
100
AcDbSymbolTableRecord
100
AcDbLinetypeTableRecord
  2
DASHED
 70
64
  3
- - - - - - - - - - - - - - - - - - - -
 72
65
 73
2
 40
0.2
 49
0.1
 74
0
 49
-0.1
 74
0
  0
ENDTAB
  0
TABLE
  2
LAYER
  5
2
100
AcDbSymbolTable
 70
36
  0
LAYER
  5
10
100
AcDbSymbolTableRecord
100
AcDbLayerTableRecord
  2
0
 70
0
 62
7
  6
CONTINUOUS
370
-3
390
F
  0
LAYER
  5
1FA
100
AcDbSymbolTableRecord
100
AcDbLayerTableRecord
  2
DEFAULT_1
 70
0
 62
7
  6
CENTER
370
-3
390
F
  0
LAYER
  5
1FB
100
AcDbSymbolTableRecord
100
AcDbLayerTableRecord
  2
DEFAULT_2
 70
0
 62
7
  6
HIDDEN
370
-3
390
F
  0
LAYER
  5
1FC
100
AcDbSymbolTableRecord
100
AcDbLayerTableRecord
  2
DEFAULT_3
 70
0
 62
7
  6
PHANTOM
370
-3
390
F
  0
LAYER
  5
1FD
100
AcDbSymbolTableRecord
100
AcDbLayerTableRecord
  2
ASSI
 70
0
 62
7
  6
CONTINUOUS
370
-3
390
F
  0
LAYER
  5
1FE
100
AcDbSymbolTableRecord
100
AcDbLayerTableRecord
  2
COORDINATE
 70
0
 62
7
  6
CONTINUOUS
370
-3
390
F
  0
LAYER
  5
1FF
100
AcDbSymbolTableRecord
100
AcDbLayerTableRecord
  2
COPY_PUBLISH
 70
0
 62
7
  6
CONTINUOUS
370
-3
390
F
  0
LAYER
  5
200
100
AcDbSymbolTableRecord
100
AcDbLayerTableRecord
  2
COSMETIC
 70
0
 62
7
  6
CONTINUOUS
370
-3
390
F
  0
LAYER
  5
201
100
AcDbSymbolTableRecord
100
AcDbLayerTableRecord
  2
COSMETICI
 70
0
 62
7
  6
CONTINUOUS
370
-3
390
F
  0
LAYER
  5
202
100
AcDbSymbolTableRecord
100
AcDbLayerTableRecord
  2
CURVE
 70
0
 62
7
  6
CONTINUOUS
370
-3
390
F
  0
LAYER
  5
203
100
AcDbSymbolTableRecord
100
AcDbLayerTableRecord
  2
CURVE_VERN
 70
0
 62
7
  6
CONTINUOUS
370
-3
390
F
  0
LAYER
  5
204
100
AcDbSymbolTableRecord
100
AcDbLayerTableRecord
  2
DRAFT
 70
0
 62
7
  6
CONTINUOUS
370
-3
390
F
  0
LAYER
  5
205
100
AcDbSymbolTableRecord
100
AcDbLayerTableRecord
  2
IMPORT_IGES
 70
0
 62
7
  6
CONTINUOUS
370
-3
390
F
  0
LAYER
  5
206
100
AcDbSymbolTableRecord
100
AcDbLayerTableRecord
  2
INTFCLR_1
 70
0
 62
7
  6
CONTINUOUS
370
-3
390
F
  0
LAYER
  5
207
100
AcDbSymbolTableRecord
100
AcDbLayerTableRecord
  2
INTF_1
 70
0
 62
7
  6
CONTINUOUS
370
-3
390
F
  0
LAYER
  5
208
100
AcDbSymbolTableRecord
100
AcDbLayerTableRecord
  2
INTF_7
 70
0
 62
7
  6
CONTINUOUS
370
-3
390
F
  0
LAYER
  5
209
100
AcDbSymbolTableRecord
100
AcDbLayerTableRecord
  2
INTF_CYAN
 70
0
 62
7
  6
CONTINUOUS
370
-3
390
F
  0
LAYER
  5
20A
100
AcDbSymbolTableRecord
100
AcDbLayerTableRecord
  2
NOTE
 70
0
 62
7
  6
CONTINUOUS
370
-3
390
F
  0
LAYER
  5
20B
100
AcDbSymbolTableRecord
100
AcDbLayerTableRecord
  2
PIANI
 70
0
 62
7
  6
CONTINUOUS
370
-3
390
F
  0
LAYER
  5
20C
100
AcDbSymbolTableRecord
100
AcDbLayerTableRecord
  2
PUNTI
 70
0
 62
7
  6
CONTINUOUS
370
-3
390
F
  0
LAYER
  5
20D
100
AcDbSymbolTableRecord
100
AcDbLayerTableRecord
  2
RACCORDO
 70
0
 62
7
  6
CONTINUOUS
370
-3
390
F
  0
LAYER
  5
20E
100
AcDbSymbolTableRecord
100
AcDbLayerTableRecord
  2
RGB__255__255__255__
 70
0
 62
7
  6
CONTINUOUS
370
-3
390
F
  0
LAYER
  5
20F
100
AcDbSymbolTableRecord
100
AcDbLayerTableRecord
  2
RGB____0____0____0__
 70
0
 62
7
  6
CONTINUOUS
370
-3
390
F
  0
LAYER
  5
210
100
AcDbSymbolTableRecord
100
AcDbLayerTableRecord
  2
SIMBOLI
 70
0
 62
7
  6
CONTINUOUS
370
-3
390
F
  0
LAYER
  5
211
100
AcDbSymbolTableRecord
100
AcDbLayerTableRecord
  2
SMUSSO
 70
0
 62
7
  6
CONTINUOUS
370
-3
390
F
  0
LAYER
  5
212
100
AcDbSymbolTableRecord
100
AcDbLayerTableRecord
  2
SNAPLINE
 70
0
 62
7
  6
CONTINUOUS
370
-3
390
F
  0
LAYER
  5
213
100
AcDbSymbolTableRecord
100
AcDbLayerTableRecord
  2
SUPERFICI
 70
0
 62
7
  6
CONTINUOUS
370
-3
390
F
  0
LAYER
  5
214
100
AcDbSymbolTableRecord
100
AcDbLayerTableRecord
  2
TRASH
 70
0
 62
7
  6
CONTINUOUS
370
-3
390
F
  0
LAYER
  5
215
100
AcDbSymbolTableRecord
100
AcDbLayerTableRecord
  2
XSEC_DATUMS
 70
0
 62
7
  6
CONTINUOUS
370
-3
390
F
  0
ENDTAB
  0
TABLE
  2
STYLE
  5
3
100
AcDbSymbolTable
 70
1
  0
STYLE
  5
11
100
AcDbSymbolTableRecord
100
AcDbTextStyleTableRecord
  2
STANDARD
 70
0
 40
0.0
 41
0.8
 50
0.0
 71
0
 42
0.2
  3
txt
  4

  0
STYLE
  5
216
100
AcDbSymbolTableRecord
100
AcDbTextStyleTableRecord
  2
TEXTSTYLE_1
 70
0
 40
0.0
 41
0.8
 50
0.0
 71
0
 42
0.2
  3
gdt
  4

  0
ENDTAB
  0
TABLE
  2
VIEW
  5
6
100
AcDbSymbolTable
 70
0
  0
ENDTAB
  0
TABLE
  2
UCS
  5
7
100
AcDbSymbolTable
 70
0
  0
ENDTAB
  0
TABLE
  2
APPID
  5
9
100
AcDbSymbolTable
 70
1
  0
APPID
  5
217
100
AcDbSymbolTableRecord
100
AcDbRegAppTableRecord
  2
ACAD
 70
0
  0
ENDTAB
  0
TABLE
  2
BLOCK_RECORD
  5
1
100
AcDbSymbolTable
 70
0
  0
BLOCK_RECORD
  5
218
100
AcDbSymbolTableRecord
100
AcDbBlockTableRecord
  2
*Model_Space
  0
BLOCK_RECORD
  5
219
100
AcDbSymbolTableRecord
100
AcDbBlockTableRecord
  2
*Paper_Space
  0
BLOCK_RECORD
  5
21A
100
AcDbSymbolTableRecord
100
AcDbBlockTableRecord
  2
_FILLED
  0
BLOCK_RECORD
  5
21B
100
AcDbSymbolTableRecord
100
AcDbBlockTableRecord
  2
*D0
  0
BLOCK_RECORD
  5
21C
100
AcDbSymbolTableRecord
100
AcDbBlockTableRecord
  2
*D1
  0
BLOCK_RECORD
  5
21D
100
AcDbSymbolTableRecord
100
AcDbBlockTableRecord
  2
*D2
  0
BLOCK_RECORD
  5
21E
100
AcDbSymbolTableRecord
100
AcDbBlockTableRecord
  2
*D3
  0
BLOCK_RECORD
  5
21F
100
AcDbSymbolTableRecord
100
AcDbBlockTableRecord
  2
*D4
  0
ENDTAB
  0
TABLE
  2
DIMSTYLE
  5
A
100
AcDbSymbolTable
 70
1
100
AcDbDimStyleTable
 71
0
  0
DIMSTYLE
105
220
100
AcDbSymbolTableRecord
100
AcDbDimStyleTableRecord
  2
STANDARD
 70
0
  3

  4

 40
1.0
 41
3.0
 42
0.5
 43
0.38
 44
1.5
 45
0.0
 46
0.0
 47
0.01
 48
0.01
140
3.0
141
0.09
142
0.0
143
25.4
144
1.0
145
0.0
146
1.0
147
0.625
 71
1.0
 72
0.0
 73
0
 74
0
 75
0
 76
0
 77
1
 78
8
170
0
171
1
172
0
173
0
174
0
175
0
176
0
177
0
178
0
270
2
271
2
272
2
273
2
274
2
275
0
280
0
281
0
282
0
283
1
284
8
285
0
286
0
287
3
288
0
340
11
278
44
341
21A
342
21A
343
21A
344
21A
  0
DIMSTYLE
105
221
100
AcDbSymbolTableRecord
100
AcDbDimStyleTableRecord
  2
DIMSTYLE_1
 70
0
  3

  4

 40
1.0
 41
3.0
 42
0.5
 43
0.38
 44
1.5
 45
0.0
 46
0.0
 47
0.0
 48
0.0
140
3.0
141
0.09
142
0.0
143
25.4
144
1.0
145
0.0
146
1.0
147
0.75
 71
0.0
 72
0.0
 73
0
 74
0
 75
0
 76
0
 77
1
 78
8
170
0
171
1
172
0
173
0
174
0
175
0
176
0
177
0
178
0
270
2
271
2
272
2
273
2
274
2
275
0
280
0
281
0
282
0
283
1
284
8
285
0
286
0
287
3
288
0
340
11
278
44
341
21A
342
21A
343
21A
344
21A
  0
DIMSTYLE
105
222
100
AcDbSymbolTableRecord
100
AcDbDimStyleTableRecord
  2
DIMSTYLE_2
 70
0
  3

  4

 40
1.0
 41
3.0
 42
0.5
 43
0.38
 44
1.5
 45
0.0
 46
0.0
 47
0.0
 48
0.0
140
3.0
141
0.09
142
0.0
143
25.4
144
1.0
145
0.0
146
1.0
147
0.75
 71
0.0
 72
0.0
 73
0
 74
0
 75
0
 76
0
 77
1
 78
8
170
0
171
1
172
0
173
0
174
0
175
0
176
0
177
0
178
0
270
2
271
1
272
1
273
2
274
2
275
0
280
0
281
0
282
0
283
1
284
8
285
0
286
0
287
3
288
0
340
11
278
44
341
21A
342
21A
343
21A
344
21A
  0
ENDTAB
  0
ENDSEC
  0
SECTION
  2
BLOCKS
  0
BLOCK
  5
20
100
AcDbEntity
  8
0
100
AcDbBlockBegin
  2
*Model_Space
 70
0
 10
0.0
 20
0.0
 30
0.0
  3
*Model_Space
  1

  0
ENDBLK
  5
21
100
AcDbEntity
  8
0
100
AcDbBlockEnd
  0
BLOCK
  5
1C
100
AcDbEntity
  8
0
100
AcDbBlockBegin
  2
*Paper_Space
 70
0
 10
0.0
 20
0.0
 30
0.0
  3
*Paper_Space
  1

  0
ENDBLK
  5
1D
100
AcDbEntity
  8
0
100
AcDbBlockEnd
  0
BLOCK
  5
223
100
AcDbEntity
  8
0
100
AcDbBlockBegin
  2
_FILLED
 70
64
 10
0.0
 20
0.0
  3
_FILLED
  1

  0
SOLID
  5
224
100
AcDbEntity
  8
0
  6
BYBLOCK
 62
0
100
AcDbTrace
 10
0.0
 20
0.0
 11
-1.0
 21
0.3166666667
 12
-1.0
 22
-0.3166666667
 13
-1.0
 23
-0.3166666667
  0
ENDBLK
  5
225
100
AcDbEntity
  8
0
  6
BYBLOCK
 62
0
100
AcDbBlockEnd
  0
BLOCK
  5
226
100
AcDbEntity
  8
0
100
AcDbBlockBegin
 62
7
  6
CONTINUOUS
  2
*D0
 70
65
 10
0.0
 20
0.0
  3
*D0
  1

  0
MTEXT
  5
227
100
AcDbEntity
  8
0
100
AcDbMText
 62
7
  6
CONTINUOUS
  7
STANDARD
 71
2
 72
1
 10
0.0
 20
71.75
 30
0.0
 11
1.0
 21
0.0
 31
0.0
 44
0.9
  1
90
 40
3.0
 41
7.0714285714
  0
LINE
  5
228
100
AcDbEntity
  8
0
100
AcDbLine
 62
7
  6
CONTINUOUS
 10
-45.0
 20
44.5013704652
 11
-45.0
 21
69.5
  0
LINE
  5
229
100
AcDbEntity
  8
0
100
AcDbLine
 62
7
  6
CONTINUOUS
 10
45.0
 20
44.5013704652
 11
45.0
 21
69.5
  0
LINE
  5
22A
100
AcDbEntity
  8
0
100
AcDbLine
 62
7
  6
CONTINUOUS
 10
-45.0
 20
68.0
 11
0.0
 21
68.0
  0
LINE
  5
22B
100
AcDbEntity
  8
0
100
AcDbLine
 62
7
  6
CONTINUOUS
 10
45.0
 20
68.0
 11
0.0
 21
68.0
  0
INSERT
  5
22C
100
AcDbEntity
  8
0
100
AcDbBlockReference
 62
7
  6
CONTINUOUS
  2
_FILLED
 10
-45.0
 20
68.0
 41
3.0
 42
3.0
 43
3.0
 50
180.0
  0
INSERT
  5
22D
100
AcDbEntity
  8
0
100
AcDbBlockReference
 62
7
  6
CONTINUOUS
  2
_FILLED
 10
45.0
 20
68.0
 41
3.0
 42
3.0
 43
3.0
 50
0.0
  0
ENDBLK
  5
22E
100
AcDbEntity
  8
0
  6
BYBLOCK
 62
0
100
AcDbBlockEnd
  0
BLOCK
  5
22F
100
AcDbEntity
  8
0
100
AcDbBlockBegin
 62
7
  6
CONTINUOUS
  2
*D1
 70
65
 10
0.0
 20
0.0
  3
*D1
  1

  0
MTEXT
  5
230
100
AcDbEntity
  8
0
100
AcDbMText
 62
7
  6
CONTINUOUS
  7
STANDARD
 71
2
 72
1
 10
70.9688920415
 20
0.0
 30
0.0
 11
0.0
 21
1.0
 31
0.0
 44
0.9
  1
90
 40
3.0
 41
7.0714285714
  0
LINE
  5
231
100
AcDbEntity
  8
0
100
AcDbLine
 62
7
  6
CONTINUOUS
 10
44.5013704652
 20
-45.0
 11
76.2188920415
 21
-45.0
  0
LINE
  5
232
100
AcDbEntity
  8
0
100
AcDbLine
 62
7
  6
CONTINUOUS
 10
44.5013704652
 20
45.0
 11
76.2188920415
 21
45.0
  0
LINE
  5
233
100
AcDbEntity
  8
0
100
AcDbLine
 62
7
  6
CONTINUOUS
 10
74.7188920415
 20
-45.0
 11
74.7188920415
 21
0.0
  0
LINE
  5
234
100
AcDbEntity
  8
0
100
AcDbLine
 62
7
  6
CONTINUOUS
 10
74.7188920415
 20
45.0
 11
74.7188920415
 21
0.0
  0
INSERT
  5
235
100
AcDbEntity
  8
0
100
AcDbBlockReference
 62
7
  6
CONTINUOUS
  2
_FILLED
 10
74.7188920415
 20
-45.0
 41
3.0
 42
3.0
 43
3.0
 50
270.0
  0
INSERT
  5
236
100
AcDbEntity
  8
0
100
AcDbBlockReference
 62
7
  6
CONTINUOUS
  2
_FILLED
 10
74.7188920415
 20
45.0
 41
3.0
 42
3.0
 43
3.0
 50
90.0
  0
ENDBLK
  5
237
100
AcDbEntity
  8
0
  6
BYBLOCK
 62
0
100
AcDbBlockEnd
  0
BLOCK
  5
238
100
AcDbEntity
  8
0
100
AcDbBlockBegin
 62
7
  6
CONTINUOUS
  2
*D2
 70
65
 10
0.0
 20
0.0
  3
*D2
  1

  0
MTEXT
  5
239
100
AcDbEntity
  8
0
100
AcDbMText
 62
7
  6
CONTINUOUS
  7
STANDARD
 71
2
 72
1
 10
60.9688920415
 20
0.0
 30
0.0
 11
0.0
 21
1.0
 31
0.0
 44
0.9
  1
45
 40
3.0
 41
6.75
  0
LINE
  5
23A
100
AcDbEntity
  8
0
100
AcDbLine
 62
7
  6
CONTINUOUS
 10
33.5510963722
 20
22.5
 11
66.2188920415
 21
22.5
  0
LINE
  5
23B
100
AcDbEntity
  8
0
100
AcDbLine
 62
7
  6
CONTINUOUS
 10
33.5510963722
 20
-22.5
 11
66.2188920415
 21
-22.5
  0
LINE
  5
23C
100
AcDbEntity
  8
0
100
AcDbLine
 62
7
  6
CONTINUOUS
 10
64.7188920415
 20
22.5
 11
64.7188920415
 21
0.0
  0
LINE
  5
23D
100
AcDbEntity
  8
0
100
AcDbLine
 62
7
  6
CONTINUOUS
 10
64.7188920415
 20
-22.5
 11
64.7188920415
 21
0.0
  0
INSERT
  5
23E
100
AcDbEntity
  8
0
100
AcDbBlockReference
 62
7
  6
CONTINUOUS
  2
_FILLED
 10
64.7188920415
 20
22.5
 41
3.0
 42
3.0
 43
3.0
 50
90.0
  0
INSERT
  5
23F
100
AcDbEntity
  8
0
100
AcDbBlockReference
 62
7
  6
CONTINUOUS
  2
_FILLED
 10
64.7188920415
 20
-22.5
 41
3.0
 42
3.0
 43
3.0
 50
270.0
  0
ENDBLK
  5
240
100
AcDbEntity
  8
0
  6
BYBLOCK
 62
0
100
AcDbBlockEnd
  0
BLOCK
  5
241
100
AcDbEntity
  8
0
100
AcDbBlockBegin
 62
7
  6
CONTINUOUS
  2
*D3
 70
65
 10
0.0
 20
0.0
  3
*D3
  1

  0
MTEXT
  5
242
100
AcDbEntity
  8
0
100
AcDbMText
 62
7
  6
CONTINUOUS
  7
STANDARD
 71
2
 72
1
 10
0.0
 20
61.75
 30
0.0
 11
1.0
 21
0.0
 31
0.0
 44
0.9
  1
67,7
 40
3.0
 41
13.1785714286
  0
LINE
  5
243
100
AcDbEntity
  8
0
100
AcDbLine
 62
7
  6
CONTINUOUS
 10
-33.85
 20
22.2010963722
 11
-33.85
 21
59.5
  0
LINE
  5
244
100
AcDbEntity
  8
0
100
AcDbLine
 62
7
  6
CONTINUOUS
 10
33.85
 20
22.2010963722
 11
33.85
 21
59.5
  0
LINE
  5
245
100
AcDbEntity
  8
0
100
AcDbLine
 62
7
  6
CONTINUOUS
 10
-33.85
 20
58.0
 11
0.0
 21
58.0
  0
LINE
  5
246
100
AcDbEntity
  8
0
100
AcDbLine
 62
7
  6
CONTINUOUS
 10
33.85
 20
58.0
 11
0.0
 21
58.0
  0
INSERT
  5
247
100
AcDbEntity
  8
0
100
AcDbBlockReference
 62
7
  6
CONTINUOUS
  2
_FILLED
 10
-33.85
 20
58.0
 41
3.0
 42
3.0
 43
3.0
 50
180.0
  0
INSERT
  5
248
100
AcDbEntity
  8
0
100
AcDbBlockReference
 62
7
  6
CONTINUOUS
  2
_FILLED
 10
33.85
 20
58.0
 41
3.0
 42
3.0
 43
3.0
  0
ENDBLK
  5
249
100
AcDbEntity
  8
0
  6
BYBLOCK
 62
0
100
AcDbBlockEnd
  0
BLOCK
  5
24A
100
AcDbEntity
  8
0
100
AcDbBlockBegin
 62
7
  6
CONTINUOUS
  2
*D4
 70
65
 10
0.0
 20
0.0
  3
*D4
  1

  0
MTEXT
  5
24B
100
AcDbEntity
  8
0
100
AcDbMText
 62
7
  6
CONTINUOUS
  7
STANDARD
 71
2
 72
1
 10
-70.6905373821
 20
61.75
 30
0.0
 11
1.0
 21
0.0
 31
0.0
 44
0.9
  1
8,6
 40
3.0
 41
9.6428571429
  0
LINE
  5
24C
100
AcDbEntity
  8
0
100
AcDbLine
 62
7
  6
CONTINUOUS
 10
-66.4048978148
 20
43.597075387
 11
-66.4048978225
 21
59.5000000021
  0
LINE
  5
24D
100
AcDbEntity
  8
0
100
AcDbLine
 62
7
  6
CONTINUOUS
 10
-74.9761769122
 20
0.4999997802
 11
-74.976176941
 21
59.4999999979
  0
LINE
  5
24E
100
AcDbEntity
  8
0
100
AcDbLine
 62
7
  6
CONTINUOUS
 10
-66.4048978218
 20
58.0000000021
 11
-62.4048978218
 21
58.000000004
  0
LINE
  5
24F
100
AcDbEntity
  8
0
100
AcDbLine
 62
7
  6
CONTINUOUS
 10
-62.4048978218
 20
58.000000004
 11
-70.6905373811
 21
58.0
  0
LINE
  5
250
100
AcDbEntity
  8
0
100
AcDbLine
 62
7
  6
CONTINUOUS
 10
-74.9761769403
 20
57.9999999979
 11
-78.9761769403
 21
57.999999996
  0
LINE
  5
251
100
AcDbEntity
  8
0
100
AcDbLine
 62
7
  6
CONTINUOUS
 10
-78.9761769403
 20
57.999999996
 11
-70.6905373811
 21
58.0
  0
INSERT
  5
252
100
AcDbEntity
  8
0
100
AcDbBlockReference
 62
7
  6
CONTINUOUS
  2
_FILLED
 10
-66.4048978218
 20
58.0000000021
 41
3.0
 42
3.0
 43
3.0
 50
180.000000028
  0
INSERT
  5
253
100
AcDbEntity
  8
0
100
AcDbBlockReference
 62
7
  6
CONTINUOUS
  2
_FILLED
 10
-74.9761769403
 20
57.9999999979
 41
3.0
 42
3.0
 43
3.0
 50
0.000000028
  0
ENDBLK
  5
254
100
AcDbEntity
  8
0
  6
BYBLOCK
 62
0
100
AcDbBlockEnd
  0
ENDSEC
  0
SECTION
  2
ENTITIES
  0
DIMENSION
  5
255
100
AcDbEntity
  8
0
100
AcDbDimension
 62
7
  6
CONTINUOUS
  2
*D0
 10
45.0
 20
68.0
 11
-0.4285713773
 21
68.0
 70
160
 71
2
 42
90.0
  3
DIMSTYLE_1
100
AcDbAlignedDimension
 13
-45.0
 23
44.0013704652
 14
45.0
 24
44.0013704652
100
AcDbRotatedDimension
  0
DIMENSION
  5
256
100
AcDbEntity
  8
0
100
AcDbDimension
 62
7
  6
CONTINUOUS
  2
*D1
 10
74.7188920415
 20
45.0
 11
74.7188920415
 21
-0.428569971
 70
160
 71
2
 42
90.0
  3
DIMSTYLE_1
100
AcDbAlignedDimension
 13
44.0013704652
 23
-45.0
 14
44.0013704652
 24
45.0
 50
90.0
100
AcDbRotatedDimension
  0
DIMENSION
  5
257
100
AcDbEntity
  8
0
100
AcDbDimension
 62
7
  6
CONTINUOUS
  2
*D2
 10
64.7188920415
 20
-22.5
 11
64.7188920415
 21
-0.428572408
 70
160
 71
2
 42
45.0
  3
DIMSTYLE_1
100
AcDbAlignedDimension
 13
33.0510963722
 23
22.5
 14
33.0510963722
 24
-22.5
 50
270.0
100
AcDbRotatedDimension
  0
DIMENSION
  5
258
100
AcDbEntity
  8
0
100
AcDbDimension
 62
7
  6
CONTINUOUS
  2
*D3
 10
33.85
 20
58.0
 11
-0.4285713773
 21
58.0
 70
160
 71
2
 42
67.7
  3
DIMSTYLE_1
100
AcDbAlignedDimension
 13
-33.85
 23
21.7010963722
 14
33.85
 24
21.7010963722
100
AcDbRotatedDimension
  0
DIMENSION
  5
259
100
AcDbEntity
  8
0
100
AcDbDimension
 62
7
  6
CONTINUOUS
  2
*D4
 10
-74.9761769403
 20
57.9999999979
 11
-71.1191076268
 21
57.9999999998
 70
160
 71
2
 42
8.5712791185
  3
DIMSTYLE_2
100
AcDbAlignedDimension
 13
-66.4048978145
 23
43.097075387
 14
-74.976176912
 24
-0.0000002198
 50
180.000000028
100
AcDbRotatedDimension
  0
LWPOLYLINE
  5
25A
100
AcDbEntity
  8
RACCORDO
100
AcDbPolyline
 62
253
  6
CONTINUOUS
 90
28
 70
0
 10
-44.8700585586
 20
-43.8714290238
 10
-44.8686844686
 20
-43.9304743766
 10
-44.8638791753
 20
-43.9892336337
 10
-44.855673708
 20
-44.0475080222
 10
-44.8441178827
 20
-44.1050781734
 10
-44.8292609004
 20
-44.1617759443
 10
-44.8111367022
 20
-44.2174811733
 10
-44.7897893175
 20
-44.2720490404
 10
-44.7653059647
 20
-44.3252495663
 10
-44.7377989693
 20
-44.3768420397
 10
-44.7073859689
 20
-44.4266363763
 10
-44.6741696803
 20
-44.474493136
 10
-44.6382628328
 20
-44.5202616709
 10
-44.5997942217
 20
-44.5637943459
 10
-44.5589019354
 20
-44.6049511246
 10
-44.5157222969
 20
-44.6436030133
 10
-44.4704085578
 20
-44.6796246207
 10
-44.4231162995
 20
-44.7129042432
 10
-44.3739924813
 20
-44.7433438558
 10
-44.3231994415
 20
-44.7708483634
 10
-44.2709145997
 20
-44.7953277337
 10
-44.2173134256
 20
-44.8167039603
 10
-44.1625837313
 20
-44.8349078545
 10
-44.1069030317
 20
-44.849886574
 10
-44.0504351778
 20
-44.8615986049
 10
-43.9933606624
 20
-44.8700064094
 10
-43.9358771298
 20
-44.8750808273
 10
-43.8781758769
 20
-44.8768054117
  0
LWPOLYLINE
  5
25B
100
AcDbEntity
  8
RACCORDO
100
AcDbPolyline
 62
253
  6
CONTINUOUS
 90
28
 70
0
 10
-44.5704696982
 20
-43.9246281065
 10
-44.5696252612
 20
-43.96629429
 10
-44.5664307296
 20
-44.0075145745
 10
-44.5608861034
 20
-44.0482890176
 10
-44.5529569095
 20
-44.0887456584
 10
-44.5426776209
 20
-44.1287565602
 10
-44.5301516566
 20
-44.1679378676
 10
-44.5153473063
 20
-44.2063007183
 10
-44.4982962802
 20
-44.2438341817
 10
-44.4791971275
 20
-44.2801213992
 10
-44.4580341378
 20
-44.3151318114
 10
-44.4348230214
 20
-44.3488962717
 10
-44.4098094588
 20
-44.3810901221
 10
-44.3829763229
 20
-44.4116984623
 10
-44.3543407408
 20
-44.4407365201
 10
-44.324199774
 20
-44.4679248808
 10
-44.2925403022
 20
-44.4932444941
 10
-44.2593754457
 20
-44.5167147349
 10
-44.2250416268
 20
-44.5381138549
 10
-44.1895275462
 20
-44.5574215069
 10
-44.1528445032
 20
-44.5746583208
 10
-44.1153628175
 20
-44.5896640194
 10
-44.0770676316
 20
-44.6024166075
 10
-44.0379738031
 20
-44.6129382887
 10
-43.9984962242
 20
-44.621135071
 10
-43.9587731922
 20
-44.6269756618
 10
-43.9186664098
 20
-44.6304914639
 10
-43.8781758769
 20
-44.6316825048
  0
LWPOLYLINE
  5
25C
100
AcDbEntity
  8
RACCORDO
100
AcDbPolyline
 62
253
  6
CONTINUOUS
 90
9
 70
0
 10
-44.8700585586
 20
43.8714290238
 10
-44.8488539353
 20
41.530635219
 10
-44.8294010733
 20
39.1852651697
 10
-44.8116999728
 20
36.8353188758
 10
-44.7957477181
 20
34.4803128887
 10
-44.7815472247
 20
32.1207306571
 10
-44.7691072395
 20
29.7580225269
 10
-44.7584306778
 20
27.3926719467
 10
-44.7495146241
 20
25.0241954679
  0
LWPOLYLINE
  5
25D
100
AcDbEntity
  8
RACCORDO
100
AcDbPolyline
 62
253
  6
CONTINUOUS
 90
9
 70
0
 10
-44.5704696982
 20
43.9246281065
 10
-44.5492646814
 20
41.5803705021
 10
-44.5298115775
 20
39.2305985388
 10
-44.5121103866
 20
36.8757866537
 10
-44.4961582719
 20
34.5164144648
 10
-44.4819580701
 20
32.1529541779
 10
-44.4695182913
 20
29.7858704217
 10
-44.4588417721
 20
27.4156368628
 10
-44.4499256757
 20
25.0427361763
  0
LINE
  5
25E
100
AcDbEntity
  8
RACCORDO
100
AcDbLine
 62
253
  6
CONTINUOUS
 10
-44.7495146241
 20
25.0241954679
 11
-44.7332181219
 21
18.8795044447
  0
LINE
  5
25F
100
AcDbEntity
  8
RACCORDO
100
AcDbLine
 62
253
  6
CONTINUOUS
 10
-44.4499256757
 20
25.0427361763
 11
-44.4336291884
 21
18.8925039473
  0
LINE
  5
260
100
AcDbEntity
  8
RACCORDO
100
AcDbLine
 62
253
  6
CONTINUOUS
 10
-44.7332181219
 20
18.8795044447
 11
-44.7199214545
 21
11.3305150114
  0
LINE
  5
261
100
AcDbEntity
  8
RACCORDO
100
AcDbLine
 62
253
  6
CONTINUOUS
 10
-44.4336291884
 20
18.8925039473
 11
-44.4203325766
 21
11.3380604683
  0
LINE
  5
262
100
AcDbEntity
  8
RACCORDO
100
AcDbLine
 62
253
  6
CONTINUOUS
 10
-44.7199214545
 20
11.3305150114
 11
-44.7132711867
 21
3.77715111
  0
LINE
  5
263
100
AcDbEntity
  8
RACCORDO
100
AcDbLine
 62
253
  6
CONTINUOUS
 10
-44.4203325766
 20
11.3380604683
 11
-44.4136823257
 21
3.7797559319
  0
LINE
  5
264
100
AcDbEntity
  8
RACCORDO
100
AcDbLine
 62
7
  6
CONTINUOUS
 10
-45.0
 20
-44.0013704652
 11
-45.0
 21
44.0013704652
  0
LINE
  5
265
100
AcDbEntity
  8
RACCORDO
100
AcDbLine
 62
253
  6
CONTINUOUS
 10
-43.8781758769
 20
-44.6316825048
 11
-43.8781758769
 21
-44.8768054117
  0
LINE
  5
266
100
AcDbEntity
  8
RACCORDO
100
AcDbLine
 62
253
  6
CONTINUOUS
 10
-43.8781758769
 20
44.6316825048
 11
-43.8781758772
 21
44.8768054117
  0
LINE
  5
267
100
AcDbEntity
  8
RACCORDO
100
AcDbLine
 62
253
  6
CONTINUOUS
 10
-44.7132711867
 20
3.77715111
 11
-44.713271186
 21
-3.7771499691
  0
LINE
  5
268
100
AcDbEntity
  8
RACCORDO
100
AcDbLine
 62
253
  6
CONTINUOUS
 10
-44.4136823257
 20
3.7797559319
 11
-44.4136823261
 21
-3.7797569659
  0
LINE
  5
269
100
AcDbEntity
  8
RACCORDO
100
AcDbLine
 62
253
  6
CONTINUOUS
 10
-44.713271186
 20
-3.7771499691
 11
-44.7199214528
 21
-11.3305136537
  0
LINE
  5
26A
100
AcDbEntity
  8
RACCORDO
100
AcDbLine
 62
253
  6
CONTINUOUS
 10
-44.4136823261
 20
-3.7797569659
 11
-44.4203325776
 21
-11.3380611962
  0
LINE
  5
26B
100
AcDbEntity
  8
RACCORDO
100
AcDbLine
 62
253
  6
CONTINUOUS
 10
-44.7199214528
 20
-11.3305136537
 11
-44.7332181209
 21
-18.8795038031
  0
LINE
  5
26C
100
AcDbEntity
  8
RACCORDO
100
AcDbLine
 62
253
  6
CONTINUOUS
 10
-44.4203325776
 20
-11.3380611962
 11
-44.433629189
 21
-18.892504222
  0
LWPOLYLINE
  5
26D
100
AcDbEntity
  8
RACCORDO
100
AcDbPolyline
 62
253
  6
CONTINUOUS
 90
10
 70
0
 10
-44.433629189
 20
-18.892504222
 10
-44.449925677
 20
-25.0427362954
 10
-44.4588417737
 20
-27.4156370147
 10
-44.4695182923
 20
-29.7858705046
 10
-44.4819580688
 20
-32.1529539987
 10
-44.4961582673
 20
-34.516413923
 10
-44.5121103802
 20
-36.8757859222
 10
-44.5298115717
 20
-39.2305978808
 10
-44.5492646777
 20
-41.5803700883
 10
-44.5704696982
 20
-43.9246281065
  0
LWPOLYLINE
  5
26E
100
AcDbEntity
  8
RACCORDO
100
AcDbPolyline
 62
253
  6
CONTINUOUS
 90
10
 70
0
 10
-44.7332181209
 20
-18.8795038031
 10
-44.7495146367
 20
-25.0241988665
 10
-44.7584307064
 20
-27.3926785798
 10
-44.7691072875
 20
-29.7580322302
 10
-44.7815473045
 20
-32.1207441804
 10
-44.7957478329
 20
-34.4803300678
 10
-44.8117000999
 20
-36.8353368046
 10
-44.829401181
 20
-39.1852800282
 10
-44.8488540005
 20
-41.5306441013
 10
-44.8700585586
 20
-43.8714290238
  0
LWPOLYLINE
  5
26F
100
AcDbEntity
  8
RACCORDO
100
AcDbPolyline
 62
253
  6
CONTINUOUS
 90
28
 70
0
 10
43.8781758769
 20
-44.8768054117
 10
43.9358790912
 20
-44.8750806058
 10
43.9933273885
 20
-44.8700102287
 10
44.0503303845
 20
-44.8616171492
 10
44.1066620052
 20
-44.8499439897
 10
44.1621751202
 20
-44.8350306373
 10
44.2167964506
 20
-44.8168925971
 10
44.270393801
 20
-44.7955529004
 10
44.3227268303
 20
-44.771086409
 10
44.3735626186
 20
-44.743592966
 10
44.4227052357
 20
-44.713175756
 10
44.4700127188
 20
-44.6799207097
 10
44.5153430184
 20
-44.6439229412
 10
44.558541784
 20
-44.6052929096
 10
44.5994543358
 20
-44.5641569719
 10
44.6379446408
 20
-44.5206436514
 10
44.6738754279
 20
-44.4748915901
 10
44.7071166854
 20
-44.4270494968
 10
44.7375534477
 20
-44.3772716237
 10
44.7650750393
 20
-44.3257147992
 10
44.789574811
 20
-44.2725531665
 10
44.8109589176
 20
-44.2179774542
 10
44.8291446967
 20
-44.1621714079
 10
44.8440619639
 20
-44.105319636
 10
44.8556541505
 20
-44.047622577
 10
44.8638742693
 20
-43.9892780405
 10
44.8686841964
 20
-43.9304802998
 10
44.8700585586
 20
-43.8714290238
  0
LWPOLYLINE
  5
270
100
AcDbEntity
  8
RACCORDO
100
AcDbPolyline
 62
253
  6
CONTINUOUS
 90
28
 70
0
 10
43.8781758769
 20
-44.6316825048
 10
43.9187038743
 20
-44.6304780836
 10
43.9588119933
 20
-44.626961863
 10
43.9985002339
 20
-44.6211338159
 10
44.037882471
 20
-44.6129688545
 10
44.0768448297
 20
-44.6024919575
 10
44.1150456852
 20
-44.5897781721
 10
44.1525079896
 20
-44.5747958048
 10
44.1892087907
 20
-44.5575763404
 10
44.2247376072
 20
-44.538289581
 10
44.2590663946
 20
-44.5169205958
 10
44.2922231974
 20
-44.4934840338
 10
44.3238816675
 20
-44.4681940731
 10
44.3540327652
 20
-44.4410301138
 10
44.3826855302
 20
-44.4120124308
 10
44.4095407336
 20
-44.3814165412
 10
44.4345831099
 20
-44.3492228294
 10
44.4578279245
 20
-44.3154505818
 10
44.479021745
 20
-44.2804337214
 10
44.4981438556
 20
-44.2441561065
 10
44.5152149721
 20
-44.2066335864
 10
44.5300438091
 20
-44.1682481484
 10
44.5426064825
 20
-44.1289768997
 10
44.5529268766
 20
-44.0888425141
 10
44.5608853584
 20
-44.0482954332
 10
44.5664420505
 20
-44.0074857957
 10
44.5696368304
 20
-43.9662633712
 10
44.5704696982
 20
-43.9246281065
  0
LWPOLYLINE
  5
271
100
AcDbEntity
  8
RACCORDO
100
AcDbPolyline
 62
253
  6
CONTINUOUS
 90
19
 70
0
 10
44.5704696982
 20
-43.9246280943
 10
44.5957596656
 20
-43.924207405
 10
44.6208695746
 20
-43.9234109463
 10
44.6456206487
 20
-43.9222443888
 10
44.6698366663
 20
-43.9207160381
 10
44.6933452151
 20
-43.9188367757
 10
44.7159789199
 20
-43.9166199815
 10
44.7375766343
 20
-43.9140814385
 10
44.7579845877
 20
-43.9112392206
 10
44.7770574805
 20
-43.9081135635
 10
44.7946595182
 20
-43.9047267214
 10
44.8106653787
 20
-43.9011028076
 10
44.824961104
 20
-43.8972676235
 10
44.837444912
 20
-43.8932484748
 10
44.8480279211
 20
-43.8890739767
 10
44.8566347828
 20
-43.8847738508
 10
44.8632042183
 20
-43.8803787129
 10
44.8676894548
 20
-43.8759198552
 10
44.8700585586
 20
-43.8714290238
  0
LINE
  5
272
100
AcDbEntity
  8
RACCORDO
100
AcDbLine
 62
7
  6
CONTINUOUS
 10
-44.0013704652
 20
-45.0
 11
44.0013704652
 21
-45.0
  0
LINE
  5
273
100
AcDbEntity
  8
RACCORDO
100
AcDbLine
 62
253
  6
CONTINUOUS
 10
-43.8781758769
 20
-44.8768054117
 11
43.8781758769
 21
-44.8768054117
  0
LINE
  5
274
100
AcDbEntity
  8
RACCORDO
100
AcDbLine
 62
253
  6
CONTINUOUS
 10
-43.8781758769
 20
-44.6316825048
 11
43.8781758769
 21
-44.6316825048
  0
LWPOLYLINE
  5
275
100
AcDbEntity
  8
RACCORDO
100
AcDbPolyline
 62
253
  6
CONTINUOUS
 90
19
 70
0
 10
-44.5704696982
 20
-43.9246280955
 10
-44.595759238
 20
-43.9242073328
 10
-44.6208686854
 20
-43.9234108103
 10
-44.6456192716
 20
-43.9222441987
 10
-44.6698347824
 20
-43.9207158039
 10
-44.6933428136
 20
-43.9188365074
 10
-44.7159759974
 20
-43.9166196889
 10
-44.7375731949
 20
-43.9140811314
 10
-44.7579806431
 20
-43.9112389082
 10
-44.7770530492
 20
-43.9081132548
 10
-44.7946546255
 20
-43.9047264246
 10
-44.8106600561
 20
-43.9011025304
 10
-44.8249553888
 20
-43.8972673728
 10
-44.8374388469
 20
-43.8932482565
 10
-44.8480215531
 20
-43.889073796
 10
-44.856628163
 20
-43.8847737118
 10
-44.863197401
 20
-43.8803786186
 10
-44.8676824969
 20
-43.8759198077
 10
-44.8700515186
 20
-43.871429024
  0
LWPOLYLINE
  5
276
100
AcDbEntity
  8
RACCORDO
100
AcDbPolyline
 62
253
  6
CONTINUOUS
 90
16
 70
0
 10
-34.2179615937
 20
22.6677048937
 10
-34.1676363365
 20
22.7282260377
 10
-34.1140214126
 20
22.7853193983
 10
-34.0571168218
 20
22.8389851477
 10
-33.9966845071
 20
22.8894314127
 10
-33.9329625256
 20
22.936450379
 10
-33.8666650489
 20
22.9794183208
 10
-33.7977053311
 20
23.0182859396
 10
-33.7261701182
 20
23.0531028413
 10
-33.6530338202
 20
23.0833936784
 10
-33.5782470336
 20
23.1090594703
 10
-33.5018591619
 20
23.1301994383
 10
-33.4249928251
 20
23.1466355292
 10
-33.34802223
 20
23.1583084353
 10
-33.2705731699
 20
23.1652775911
 10
-33.1926456448
 20
23.1675430277
  0
LWPOLYLINE
  5
277
100
AcDbEntity
  8
RACCORDO
100
AcDbPolyline
 62
253
  6
CONTINUOUS
 90
16
 70
0
 10
-33.8246817863
 20
22.3359476087
 10
-33.7937618923
 20
22.3729022731
 10
-33.7606074445
 20
22.4079839709
 10
-33.7253289471
 20
22.4410553377
 10
-33.6880428765
 20
22.4719860679
 10
-33.6488791706
 20
22.5006510469
 10
-33.6079817087
 20
22.5269320676
 10
-33.5654571622
 20
22.5507405148
 10
-33.5214905275
 20
22.5719537109
 10
-33.4763647211
 20
22.5904376773
 10
-33.4302422154
 20
22.6061366446
 10
-33.3833044135
 20
22.6189995156
 10
-33.3358844933
 20
22.6289643234
 10
-33.2882162373
 20
22.6360279061
 10
-33.2404248799
 20
22.6402149606
 10
-33.1926840957
 20
22.6415493366
  0
LWPOLYLINE
  5
278
100
AcDbEntity
  8
RACCORDO
100
AcDbPolyline
 62
253
  6
CONTINUOUS
 90
13
 70
0
 10
-33.8246817863
 20
-22.3359476087
 10
-33.8506557687
 20
-22.3010009824
 10
-33.8748203413
 20
-22.264462247
 10
-33.8970659179
 20
-22.2264169859
 10
-33.9173353876
 20
-22.1868568238
 10
-33.9354657963
 20
-22.1459797892
 10
-33.9512467764
 20
-22.1042156145
 10
-33.9646370571
 20
-22.0617066033
 10
-33.9756095632
 20
-22.0185810825
 10
-33.9840895554
 20
-21.9752853469
 10
-33.9901016143
 20
-21.9320674269
 10
-33.9937126284
 20
-21.8889625714
 10
-33.9949737014
 20
-21.8461021237
  0
LWPOLYLINE
  5
279
100
AcDbEntity
  8
RACCORDO
100
AcDbPolyline
 62
253
  6
CONTINUOUS
 90
13
 70
0
 10
-34.2179615936
 20
-22.6677048937
 10
-34.2603004274
 20
-22.6106822652
 10
-34.2993880176
 20
-22.5513301182
 10
-34.3352243643
 20
-22.4896484074
 10
-34.3680084775
 20
-22.4252653073
 10
-34.3975413472
 20
-22.3585525425
 10
-34.4232259432
 20
-22.2906254159
 10
-34.4449016682
 20
-22.2214638456
 10
-34.4627291194
 20
-22.1510878612
 10
-34.476593058
 20
-22.0806729838
 10
-34.486455071
 20
-22.0106110663
 10
-34.4923535715
 20
-21.9405102634
 10
-34.4942885593
 20
-21.8703705759
  0
LINE
  5
27A
100
AcDbEntity
  8
RACCORDO
100
AcDbLine
 62
253
  6
CONTINUOUS
 10
-34.4942885593
 20
-21.8703705759
 11
-34.5097532489
 21
-14.5834397175
  0
LINE
  5
27B
100
AcDbEntity
  8
RACCORDO
100
AcDbLine
 62
253
  6
CONTINUOUS
 10
-33.9949737308
 20
-21.8461021525
 11
-34.0104384536
 21
-14.5669359818
  0
LINE
  5
27C
100
AcDbEntity
  8
RACCORDO
100
AcDbLine
 62
253
  6
CONTINUOUS
 10
-34.5097532489
 20
-14.5834397175
 11
-34.5190327639
 21
-7.2926778504
  0
LINE
  5
27D
100
AcDbEntity
  8
RACCORDO
100
AcDbLine
 62
253
  6
CONTINUOUS
 10
-34.0104384536
 20
-14.5669359818
 11
-34.0197179895
 21
-7.2846612491
  0
LINE
  5
27E
100
AcDbEntity
  8
RACCORDO
100
AcDbLine
 62
253
  6
CONTINUOUS
 10
-34.5190327639
 20
-7.2926778504
 11
-34.5221266469
 21
-0.0000000449
  0
LINE
  5
27F
100
AcDbEntity
  8
RACCORDO
100
AcDbLine
 62
253
  6
CONTINUOUS
 10
-34.0197179895
 20
-7.2846612491
 11
-34.0228118795
 21
0.0000046778
  0
LINE
  5
280
100
AcDbEntity
  8
0
100
AcDbLine
 62
7
  6
CONTINUOUS
 10
-33.85
 20
-21.7010963722
 11
-33.85
 21
21.7010963722
  0
LINE
  5
281
100
AcDbEntity
  8
RACCORDO
100
AcDbLine
 62
253
  6
CONTINUOUS
 10
-33.1926456448
 20
23.1675430277
 11
-33.1926456448
 21
22.6415492726
  0
LINE
  5
282
100
AcDbEntity
  8
RACCORDO
100
AcDbLine
 62
253
  6
CONTINUOUS
 10
-33.1926456448
 20
-23.1675430277
 11
-33.1926456448
 21
-22.6415492726
  0
LINE
  5
283
100
AcDbEntity
  8
RACCORDO
100
AcDbLine
 62
253
  6
CONTINUOUS
 10
-34.5221266469
 20
-0.0000000449
 11
-34.5190327641
 21
7.2926777695
  0
LINE
  5
284
100
AcDbEntity
  8
RACCORDO
100
AcDbLine
 62
253
  6
CONTINUOUS
 10
-34.0228118795
 20
0.0000046778
 11
-34.019717977
 21
7.2846728244
  0
LINE
  5
285
100
AcDbEntity
  8
RACCORDO
100
AcDbLine
 62
253
  6
CONTINUOUS
 10
-34.5190327641
 20
7.2926777695
 11
-34.5097532492
 21
14.5834396663
  0
LINE
  5
286
100
AcDbEntity
  8
RACCORDO
100
AcDbLine
 62
253
  6
CONTINUOUS
 10
-34.019717977
 20
7.2846728244
 11
-34.0104384523
 21
14.5669384586
  0
LINE
  5
287
100
AcDbEntity
  8
RACCORDO
100
AcDbLine
 62
253
  6
CONTINUOUS
 10
-34.5097532492
 20
14.5834396663
 11
-34.4942885593
 21
21.8703705759
  0
LINE
  5
288
100
AcDbEntity
  8
RACCORDO
100
AcDbLine
 62
253
  6
CONTINUOUS
 10
-34.0104384523
 20
14.5669384586
 11
-33.9949737716
 21
21.8460808361
  0
LWPOLYLINE
  5
289
100
AcDbEntity
  8
RACCORDO
100
AcDbPolyline
 62
253
  6
CONTINUOUS
 90
13
 70
0
 10
-34.4942885593
 20
21.8703705759
 10
-34.4924155439
 20
21.9398583102
 10
-34.4866078772
 20
22.0094119758
 10
-34.4768655593
 20
22.0790315696
 10
-34.46317883
 20
22.1490872379
 10
-34.4455574495
 20
22.2192088224
 10
-34.4240306982
 20
22.2882858881
 10
-34.3984214608
 20
22.3563516252
 10
-34.3689068525
 20
22.4233728872
 10
-34.3360474991
 20
22.4881397869
 10
-34.3000302758
 20
22.5502490714
 10
-34.2606683073
 20
22.6101040923
 10
-34.2179615936
 20
22.6677048937
  0
LWPOLYLINE
  5
28A
100
AcDbEntity
  8
RACCORDO
100
AcDbPolyline
 62
253
  6
CONTINUOUS
 90
13
 70
0
 10
-33.9949737619
 20
21.8460808265
 10
-33.9937328644
 20
21.8886036479
 10
-33.9901738482
 20
21.9314160131
 10
-33.9842389437
 20
21.9743886709
 10
-33.9758591596
 20
22.0174673069
 10
-33.9650003536
 20
22.0604256281
 10
-33.9517087855
 20
22.1028768866
 10
-33.9359804906
 20
22.144722119
 10
-33.9178500493
 20
22.1857771256
 10
-33.8975336802
 20
22.2255624421
 10
-33.8751945359
 20
22.2638604283
 10
-33.8508761538
 20
22.3006865786
 10
-33.8246817863
 20
22.3359476087
  0
LWPOLYLINE
  5
28B
100
AcDbEntity
  8
0
100
AcDbPolyline
 62
7
  6
CONTINUOUS
 90
25
 70
0
 10
3.6000188023
 20
-26.110807341
 10
3.6597713825
 20
-26.1021026134
 10
3.7194847782
 20
-26.0939040435
 10
3.7791589895
 20
-26.0862116365
 10
3.8387557483
 20
-26.0789737614
 10
3.8983133228
 20
-26.0722420586
 10
3.957946517
 20
-26.0661714415
 10
4.0176674999
 20
-26.0607553124
 10
4.0774641027
 20
-26.0560002788
 10
4.1374146232
 20
-26.0520810636
 10
4.197530678
 20
-26.0489903816
 10
4.2578006506
 20
-26.0467355255
 10
4.3182679888
 20
-26.0455130863
 10
4.3789947372
 20
-26.0453205393
 10
4.4399188514
 20
-26.046160411
 10
4.500897646
 20
-26.048236868
 10
4.5619379448
 20
-26.0514818316
 10
4.6230329241
 20
-26.0559633722
 10
4.6840194274
 20
-26.0620898743
 10
4.7450314288
 20
-26.0697724486
 10
4.8059349542
 20
-26.0790999559
 10
4.8661649249
 20
-26.0907473901
 10
4.9255329812
 20
-26.1049397198
 10
4.9842274829
 20
-26.1214518973
 10
5.0422484297
 20
-26.1402838735
  0
LWPOLYLINE
  5
28C
100
AcDbEntity
  8
0
100
AcDbPolyline
 62
7
  6
CONTINUOUS
 90
31
 70
0
 10
4.4966806432
 20
-27.3236280866
 10
4.5211187037
 20
-27.3228429765
 10
4.5454142613
 20
-27.3212873302
 10
4.569567316
 20
-27.3189611459
 10
4.5936530758
 20
-27.3159156693
 10
4.6175963326
 20
-27.312099649
 10
4.6411714625
 20
-27.3073593354
 10
4.6643748218
 20
-27.30170576
 10
4.6872100543
 20
-27.2951278777
 10
4.7094624666
 20
-27.28743882
 10
4.7311706962
 20
-27.2786283132
 10
4.7522961056
 20
-27.2687066051
 10
4.7725080896
 20
-27.2575176028
 10
4.7917687512
 20
-27.2450071106
 10
4.8101159874
 20
-27.2312292816
 10
4.8273328839
 20
-27.2161905405
 10
4.8433439993
 20
-27.1997957799
 10
4.8582247751
 20
-27.1821400507
 10
4.8719846206
 20
-27.1635150192
 10
4.8846166356
 20
-27.1439261718
 10
4.8961277204
 20
-27.1233679711
 10
4.906547985
 20
-27.1021155608
 10
4.9158883098
 20
-27.0801872355
 10
4.9241378146
 20
-27.0575646602
 10
4.9312939688
 20
-27.0344680481
 10
4.9373786451
 20
-27.010881451
 10
4.942369971
 20
-26.9868207871
 10
4.9461997986
 20
-26.9625540845
 10
4.9488454121
 20
-26.9381706857
 10
4.9503295272
 20
-26.9135812375
 10
4.9506521441
 20
-26.8887857336
  0
LINE
  5
28D
100
AcDbEntity
  8
0
100
AcDbLine
 62
7
  6
CONTINUOUS
 10
5.6391482119
 20
-28.8778013544
 11
5.0770156219
 21
-28.8778013544
  0
LINE
  5
28E
100
AcDbEntity
  8
0
100
AcDbLine
 62
7
  6
CONTINUOUS
 10
4.1820753449
 20
-28.8778013544
 11
3.6000188023
 21
-28.8778013544
  0
LINE
  5
28F
100
AcDbEntity
  8
0
100
AcDbLine
 62
7
  6
CONTINUOUS
 10
3.298408
 20
-28.877801
 11
2.682466
 21
-28.877801
  0
LINE
  5
290
100
AcDbEntity
  8
0
100
AcDbLine
 62
7
  6
CONTINUOUS
 10
1.573947
 20
-28.877801
 11
0.99588
 21
-28.877801
  0
LINE
  5
291
100
AcDbEntity
  8
0
100
AcDbLine
 62
7
  6
CONTINUOUS
 10
0.694112
 20
-28.877801
 11
0.122406
 21
-28.877801
  0
LINE
  5
292
100
AcDbEntity
  8
0
100
AcDbLine
 62
7
  6
CONTINUOUS
 10
-0.692524
 20
-28.877801
 11
-0.774487
 21
-28.877801
  0
LINE
  5
293
100
AcDbEntity
  8
0
100
AcDbLine
 62
7
  6
CONTINUOUS
 10
-1.586183
 20
-28.877801
 11
-2.145272
 21
-28.877801
  0
LINE
  5
294
100
AcDbEntity
  8
0
100
AcDbLine
 62
7
  6
CONTINUOUS
 10
-2.449877
 20
-28.877801
 11
-3.034285
 21
-28.877801
  0
LINE
  5
295
100
AcDbEntity
  8
0
100
AcDbLine
 62
7
  6
CONTINUOUS
 10
-4.231097
 20
-28.877801
 11
-4.746107
 21
-28.877801
  0
LINE
  5
296
100
AcDbEntity
  8
0
100
AcDbLine
 62
7
  6
CONTINUOUS
 10
2.531074
 20
-28.318881
 11
1.735207
 21
-28.318881
  0
LINE
  5
297
100
AcDbEntity
  8
0
100
AcDbLine
 62
7
  6
CONTINUOUS
 10
2.41428
 20
-27.886391
 11
1.854751
 21
-27.886391
  0
LINE
  5
298
100
AcDbEntity
  8
0
100
AcDbLine
 62
7
  6
CONTINUOUS
 10
4.4954209623
 20
-27.7821519248
 11
4.1820753449
 21
-27.7821519248
  0
LINE
  5
299
100
AcDbEntity
  8
0
100
AcDbLine
 62
7
  6
CONTINUOUS
 10
4.4966806432
 20
-27.3236280866
 11
4.1626972541
 21
-27.3236280866
  0
LINE
  5
29A
100
AcDbEntity
  8
0
100
AcDbLine
 62
7
  6
CONTINUOUS
 10
2.43939
 20
-26.078098
 11
1.874045
 21
-26.078098
  0
LINE
  5
29B
100
AcDbEntity
  8
0
100
AcDbLine
 62
7
  6
CONTINUOUS
 10
0.432308
 20
-26.078098
 11
-0.145906
 21
-26.078098
  0
LINE
  5
29C
100
AcDbEntity
  8
0
100
AcDbLine
 62
7
  6
CONTINUOUS
 10
-1.30855
 20
-26.078098
 11
-1.892475
 21
-26.078098
  0
LINE
  5
29D
100
AcDbEntity
  8
0
100
AcDbLine
 62
7
  6
CONTINUOUS
 10
-3.33116
 20
-26.078098
 11
-3.915169
 21
-26.078098
  0
LINE
  5
29E
100
AcDbEntity
  8
0
100
AcDbLine
 62
7
  6
CONTINUOUS
 10
-4.99882
 20
-26.078098
 11
-5.633668
 21
-26.078098
  0
LINE
  5
29F
100
AcDbEntity
  8
0
100
AcDbLine
 62
7
  6
CONTINUOUS
 10
-2.449877
 20
-26.07793
 11
-3.034285
 21
-26.07793
  0
LWPOLYLINE
  5
2A0
100
AcDbEntity
  8
0
100
AcDbPolyline
 62
7
  6
CONTINUOUS
 90
10
 70
0
 10
4.62051343
 20
-26.5385722489
 10
4.571845688
 20
-26.5336539545
 10
4.5225682274
 20
-26.5304073509
 10
4.4726810481
 20
-26.5288324454
 10
4.422104766
 20
-26.5289082713
 10
4.3709187652
 20
-26.5306557985
 10
4.3193611984
 20
-26.5341379336
 10
4.2675114497
 20
-26.5393756387
 10
4.2152901349
 20
-26.5463479315
 10
4.1626972541
 20
-26.5550547959
  0
LWPOLYLINE
  5
2A1
100
AcDbEntity
  8
RACCORDO
100
AcDbPolyline
 62
253
  6
CONTINUOUS
 90
16
 70
0
 10
-34.369093969
 20
-21.8692779856
 10
-34.3287508969
 20
-21.8685789918
 10
-34.2895852216
 20
-21.8677199025
 10
-34.2518755116
 20
-21.8667068282
 10
-34.2158899793
 20
-21.8655469743
 10
-34.1818845742
 20
-21.8642485904
 10
-34.1501011618
 20
-21.8628209112
 10
-34.1207658036
 20
-21.8612740914
 10
-34.094087149
 20
-21.8596191327
 10
-34.0702549518
 20
-21.8578678061
 10
-34.0494387199
 20
-21.856032568
 10
-34.03178651
 20
-21.8541264717
 10
-34.0174238746
 20
-21.8521630745
 10
-34.0064529687
 20
-21.850156341
 10
-33.9989518238
 20
-21.8481205443
 10
-33.994973792
 20
-21.8460701642
  0
LWPOLYLINE
  5
2A2
100
AcDbEntity
  8
RACCORDO
100
AcDbPolyline
 62
253
  6
CONTINUOUS
 90
17
 70
0
 10
44.4931469953
 20
-22.667357485
 10
44.5178871765
 20
-22.6670254536
 10
44.5420930806
 20
-22.6665907705
 10
44.5655925403
 20
-22.6660565275
 10
44.5882184134
 20
-22.6654265243
 10
44.6098097709
 20
-22.664705242
 10
44.6302130421
 20
-22.6638978107
 10
44.6492831066
 20
-22.6630099734
 10
44.6668843265
 20
-22.6620480449
 10
44.6828915112
 20
-22.6610188671
 10
44.6971908081
 20
-22.6599297601
 10
44.7096805118
 20
-22.6587884702
 10
44.7202717881
 20
-22.657603115
 10
44.7288893053
 20
-22.6563821255
 10
44.7354717705
 20
-22.6551341861
 10
44.7399723652
 20
-22.6538681728
 10
44.7423590785
 20
-22.6525930904
  0
LINE
  5
2A3
100
AcDbEntity
  8
RACCORDO
100
AcDbLine
 62
253
  6
CONTINUOUS
 10
44.4427702181
 20
-22.6677048932
 11
44.4931469953
 21
-22.667357485
  0
LWPOLYLINE
  5
2A4
100
AcDbEntity
  8
RACCORDO
100
AcDbPolyline
 62
253
  6
CONTINUOUS
 90
3
 70
0
 10
-34.4942885593
 20
-21.8703705753
 10
-34.4521581999
 20
-21.8701769744
 10
-34.369093969
 20
-21.8692779856
  0
LINE
  5
2A5
100
AcDbEntity
  8
RACCORDO
100
AcDbLine
 62
253
  6
CONTINUOUS
 10
33.1926456448
 20
-23.1675430277
 11
-33.1926456448
 21
-23.1675430277
  0
LINE
  5
2A6
100
AcDbEntity
  8
RACCORDO
100
AcDbLine
 62
253
  6
CONTINUOUS
 10
44.4427701044
 20
-22.6676475367
 11
34.2179615936
 21
-22.6677048937
  0
LINE
  5
2A7
100
AcDbEntity
  8
RACCORDO
100
AcDbLine
 62
253
  6
CONTINUOUS
 10
-34.2179615936
 20
-22.6677048937
 11
-44.4427701041
 21
-22.6676473889
  0
LINE
  5
2A8
100
AcDbEntity
  8
RACCORDO
100
AcDbLine
 62
253
  6
CONTINUOUS
 10
33.1926840308
 20
-22.6415492726
 11
-33.1926540141
 21
-22.6415492726
  0
LINE
  5
2A9
100
AcDbEntity
  8
0
100
AcDbLine
 62
7
  6
CONTINUOUS
 10
33.0510963722
 20
-22.5
 11
-33.0510963722
 21
-22.5
  0
LWPOLYLINE
  5
2AA
100
AcDbEntity
  8
RACCORDO
100
AcDbPolyline
 62
253
  6
CONTINUOUS
 90
18
 70
0
 10
34.4942885593
 20
-21.8703704105
 10
34.4103272302
 20
-21.8698117862
 10
34.3690935311
 20
-21.8692778769
 10
34.3287502659
 20
-21.8685788992
 10
34.2895843821
 20
-21.8677198246
 10
34.2518744527
 20
-21.8667067634
 10
34.2158886954
 20
-21.8655469213
 10
34.1818830641
 20
-21.8642485476
 10
34.1500994291
 20
-21.8628208775
 10
34.120763856
 20
-21.8612740652
 10
34.0940849987
 20
-21.8596191129
 10
34.0702526143
 20
-21.8578677915
 10
34.0494362143
 20
-21.8560325576
 10
34.0317838585
 20
-21.8541264646
 10
34.0174211019
 20
-21.8521630699
 10
34.0064501016
 20
-21.8501563383
 10
33.9989488906
 20
-21.8481205432
 10
33.9949708223
 20
-21.8460701642
  0
LWPOLYLINE
  5
2AB
100
AcDbEntity
  8
RACCORDO
100
AcDbPolyline
 62
253
  6
CONTINUOUS
 90
18
 70
0
 10
-44.4427702181
 20
-22.6677048929
 10
-44.4931469947
 20
-22.6673574847
 10
-44.5178871757
 20
-22.6670254534
 10
-44.5420930795
 20
-22.6665907703
 10
-44.565592539
 20
-22.6660565272
 10
-44.5882184119
 20
-22.6654265241
 10
-44.6098097693
 20
-22.6647052418
 10
-44.6302130404
 20
-22.6638978105
 10
-44.6492831048
 20
-22.6630099732
 10
-44.6668843246
 20
-22.6620480448
 10
-44.6828915094
 20
-22.661018867
 10
-44.6971908064
 20
-22.65992976
 10
-44.7096805103
 20
-22.6587884701
 10
-44.7202717867
 20
-22.6576031149
 10
-44.7288893042
 20
-22.6563821254
 10
-44.7354717697
 20
-22.655134186
 10
-44.7399723648
 20
-22.6538681728
 10
-44.7423590785
 20
-22.6525930904
  0
LWPOLYLINE
  5
2AC
100
AcDbEntity
  8
RACCORDO
100
AcDbPolyline
 62
253
  6
CONTINUOUS
 90
31
 70
0
 10
-33.1926540284
 20
-22.6415492868
 10
-33.2185715428
 20
-22.6411766217
 10
-33.2441483086
 20
-22.6399902412
 10
-33.2693598364
 20
-22.6380213654
 10
-33.2941575594
 20
-22.6353048929
 10
-33.3185469879
 20
-22.6318708052
 10
-33.3425865257
 20
-22.6277361186
 10
-33.3662571518
 20
-22.622925904
 10
-33.3895423219
 20
-22.6174652554
 10
-33.4125035
 20
-22.6113574038
 10
-33.4351237762
 20
-22.6046211375
 10
-33.4573879565
 20
-22.5972752906
 10
-33.479357538
 20
-22.5893098196
 10
-33.501016237
 20
-22.5807374936
 10
-33.5223480612
 20
-22.5715715339
 10
-33.5434106964
 20
-22.5617899132
 10
-33.5641866017
 20
-22.5514000849
 10
-33.5846576616
 20
-22.5404103505
 10
-33.6048749003
 20
-22.5287881763
 10
-33.6248176077
 20
-22.5165367289
 10
-33.6444645253
 20
-22.5036600554
 10
-33.6638585502
 20
-22.490116087
 10
-33.6829740103
 20
-22.4759048756
 10
-33.7017853866
 20
-22.4610268761
 10
-33.7203268441
 20
-22.4454305803
 10
-33.7385650162
 20
-22.4291150656
 10
-33.7564697137
 20
-22.4120770846
 10
-33.7740685995
 20
-22.3942519821
 10
-33.7913414542
 20
-22.3756131463
 10
-33.8082265124
 20
-22.3561786662
 10
-33.8246817863
 20
-22.3359476087
  0
LWPOLYLINE
  5
2AD
100
AcDbEntity
  8
RACCORDO
100
AcDbPolyline
 62
253
  6
CONTINUOUS
 90
31
 70
0
 10
-33.1926456448
 20
-23.1675430277
 10
-33.234757785
 20
-23.1667780232
 10
-33.2762417124
 20
-23.1647901401
 10
-33.3170974269
 20
-23.1615793761
 10
-33.3573144577
 20
-23.1571056169
 10
-33.3969032756
 20
-23.1514089677
 10
-33.4358952933
 20
-23.1446097537
 10
-33.4742861162
 20
-23.1367224701
 10
-33.5120801389
 20
-23.1277326063
 10
-33.5493219574
 20
-23.1177169786
 10
-33.5860106709
 20
-23.1066893212
 10
-33.6221471802
 20
-23.0946358794
 10
-33.6577787838
 20
-23.0815922361
 10
-33.6929085046
 20
-23.067570822
 10
-33.7275333197
 20
-23.0525591811
 10
-33.7616914586
 20
-23.0365555655
 10
-33.7953891411
 20
-23.0195707419
 10
-33.8286201473
 20
-23.0015939131
 10
-33.8614040483
 20
-22.9825909838
 10
-33.893749458
 20
-22.9625712578
 10
-33.9256477623
 20
-22.9415253944
 10
-33.9570926897
 20
-22.9193913273
 10
-33.9880948056
 20
-22.8961772198
 10
-34.0186435446
 20
-22.8718748636
 10
-34.0487009393
 20
-22.8463976308
 10
-34.0782798725
 20
-22.8197529995
 10
-34.1073674613
 20
-22.7919334365
 10
-34.1358870895
 20
-22.7628297909
 10
-34.1638132182
 20
-22.7324056551
 10
-34.1911713863
 20
-22.700697368
 10
-34.2179615936
 20
-22.6677048937
  0
LWPOLYLINE
  5
2AE
100
AcDbEntity
  8
0
100
AcDbPolyline
 62
7
  6
CONTINUOUS
 90
48
 70
0
 10
5.0422484297
 20
-26.1402838735
 10
5.0734674353
 20
-26.1529134268
 10
5.1048913535
 20
-26.1681949348
 10
5.1365201843
 20
-26.1861283453
 10
5.1684940489
 20
-26.2066075147
 10
5.2006728261
 20
-26.2297384568
 10
5.2326361527
 20
-26.2558393324
 10
5.2646269551
 20
-26.2849691219
 10
5.2964023068
 20
-26.3170686297
 10
5.3268130656
 20
-26.3522787191
 10
5.3559612366
 20
-26.3910689938
 10
5.3837448146
 20
-26.4329695312
 10
5.4087086416
 20
-26.4767119484
 10
5.4305039488
 20
-26.5225560728
 10
5.4494795049
 20
-26.5702418428
 10
5.4652264582
 20
-26.6177212322
 10
5.4773320603
 20
-26.6647107303
 10
5.4862090597
 20
-26.7114938779
 10
5.4926868503
 20
-26.7568734289
 10
5.4968026964
 20
-26.8005141537
 10
5.4985193338
 20
-26.8427514572
 10
5.4985543635
 20
-26.8833941279
 10
5.4970087079
 20
-26.9223447036
 10
5.4937814446
 20
-26.9597008182
 10
5.4892874071
 20
-26.9955639059
 10
5.4835452819
 20
-27.0299449896
 10
5.4765363825
 20
-27.062833187
 10
5.468619483
 20
-27.0942970624
 10
5.4598090135
 20
-27.1243248413
 10
5.4500905437
 20
-27.1529284177
 10
5.4397795572
 20
-27.1802118478
 10
5.4289085283
 20
-27.2061636086
 10
5.4174449826
 20
-27.2307953199
 10
5.4056069795
 20
-27.2542457398
 10
5.3934153465
 20
-27.2765256651
 10
5.3808492562
 20
-27.2976243736
 10
5.3680642854
 20
-27.3176483344
 10
5.3550657933
 20
-27.336593836
 10
5.3418484208
 20
-27.3544646485
 10
5.3285516669
 20
-27.3713784548
 10
5.3151669183
 20
-27.3873077665
 10
5.3017027883
 20
-27.4022801167
 10
5.2883246167
 20
-27.416495711
 10
5.275044764
 20
-27.4299632241
 10
5.2618508696
 20
-27.4426740107
 10
5.2488711921
 20
-27.4548022878
 10
5.236134079
 20
-27.4663573558
 10
5.2236111827
 20
-27.4773299337
  0
LWPOLYLINE
  5
2AF
100
AcDbEntity
  8
0
100
AcDbPolyline
 62
7
  6
CONTINUOUS
 90
3
 70
0
 10
5.1025031649
 20
-27.5709244369
 10
5.1300959379
 20
-27.5841411309
 10
5.1558694321
 20
-27.598786821
  0
LWPOLYLINE
  5
2B0
100
AcDbEntity
  8
0
100
AcDbPolyline
 62
7
  6
CONTINUOUS
 90
22
 70
0
 10
5.1558694321
 20
-27.598786821
 10
5.1798236475
 20
-27.614861477
 10
5.2018425342
 20
-27.6326308404
 10
5.2220421421
 20
-27.6518290954
 10
5.240770621
 20
-27.6716588926
 10
5.258003429
 20
-27.6919659424
 10
5.273765108
 20
-27.7129045002
 10
5.288477434
 20
-27.7341400649
 10
5.302198402
 20
-27.7556374043
 10
5.314870017
 20
-27.7774317321
 10
5.3267400692
 20
-27.799294234
 10
5.3378358807
 20
-27.8212049095
 10
5.3481301295
 20
-27.8431837544
 10
5.3577886395
 20
-27.8650619612
 10
5.3668169097
 20
-27.8867956259
 10
5.3752094412
 20
-27.9084286592
 10
5.383115561
 20
-27.9299239821
 10
5.390527759
 20
-27.9512420991
 10
5.3974535454
 20
-27.9724225144
 10
5.4040647777
 20
-27.9935466475
 10
5.4103480407
 20
-28.014610973
 10
5.4163167497
 20
-28.0356190192
  0
LINE
  5
2B1
100
AcDbEntity
  8
0
100
AcDbLine
 62
7
  6
CONTINUOUS
 10
-4.746107
 20
-28.877801
 11
-5.633668
 21
-26.078098
  0
LINE
  5
2B2
100
AcDbEntity
  8
0
100
AcDbLine
 62
7
  6
CONTINUOUS
 10
-4.465146
 20
-28.00522
 11
-4.99882
 21
-26.078098
  0
LINE
  5
2B3
100
AcDbEntity
  8
0
100
AcDbLine
 62
253
  6
CONTINUOUS
 10
-33.9949737308
 20
-21.8461021525
 11
-33.85
 21
-21.7010963722
  0
LINE
  5
2B4
100
AcDbEntity
  8
0
100
AcDbLine
 62
253
  6
CONTINUOUS
 10
-33.1926540141
 20
-22.6415492726
 11
-33.0510963722
 21
-22.5
  0
LINE
  5
2B5
100
AcDbEntity
  8
0
100
AcDbLine
 62
253
  6
CONTINUOUS
 10
-33.1926840308
 20
22.6415492726
 11
-33.0510963722
 21
22.5
  0
LINE
  5
2B6
100
AcDbEntity
  8
0
100
AcDbLine
 62
253
  6
CONTINUOUS
 10
-33.9949737716
 20
21.8460808361
 11
-33.85
 21
21.7010963722
  0
LWPOLYLINE
  5
2B7
100
AcDbEntity
  8
0
100
AcDbPolyline
 62
7
  6
CONTINUOUS
 90
19
 70
0
 10
4.8214020604
 20
-28.0286629486
 10
4.81197891
 20
-28.0055544133
 10
4.8013912472
 20
-27.9831762163
 10
4.789639072
 20
-27.961528382
 10
4.7766924609
 20
-27.9405018206
 10
4.7625813374
 20
-27.9202056665
 10
4.7473954724
 20
-27.9009672899
 10
4.7311481248
 20
-27.8827717023
 10
4.7138260356
 20
-27.8656339508
 10
4.695479199
 20
-27.8499264755
 10
4.6760319259
 20
-27.835663905
 10
4.6555599054
 20
-27.8228316741
 10
4.6343401986
 20
-27.8117584438
 10
4.612333815
 20
-27.8025821101
 10
4.5895797451
 20
-27.7951648306
 10
4.5664720216
 20
-27.7894216571
 10
4.5431419888
 20
-27.7853242811
 10
4.5194583023
 20
-27.782901035
 10
4.4954209623
 20
-27.7821519248
  0
LINE
  5
2B8
100
AcDbEntity
  8
0
100
AcDbLine
 62
7
  6
CONTINUOUS
 10
-0.774487
 20
-28.877801
 11
-1.460068
 21
-27.049647
  0
LINE
  5
2B9
100
AcDbEntity
  8
0
100
AcDbLine
 62
7
  6
CONTINUOUS
 10
-0.730314
 20
-27.632502
 11
-1.30855
 21
-26.078098
  0
LINE
  5
2BA
100
AcDbEntity
  8
0
100
AcDbLine
 62
7
  6
CONTINUOUS
 10
0.694112
 20
-28.877801
 11
0.432308
 21
-26.078098
  0
LINE
  5
2BB
100
AcDbEntity
  8
0
100
AcDbLine
 62
7
  6
CONTINUOUS
 10
0.122406
 20
-28.877801
 11
0.002337
 21
-27.057269
  0
LINE
  5
2BC
100
AcDbEntity
  8
0
100
AcDbLine
 62
7
  6
CONTINUOUS
 10
-3.034285
 20
-28.877801
 11
-3.034285
 21
-26.07793
  0
LINE
  5
2BD
100
AcDbEntity
  8
0
100
AcDbLine
 62
7
  6
CONTINUOUS
 10
-2.449877
 20
-28.877801
 11
-2.449877
 21
-26.07793
  0
LINE
  5
2BE
100
AcDbEntity
  8
0
100
AcDbLine
 62
7
  6
CONTINUOUS
 10
-1.586183
 20
-28.877801
 11
-1.460068
 21
-27.049647
  0
LINE
  5
2BF
100
AcDbEntity
  8
0
100
AcDbLine
 62
7
  6
CONTINUOUS
 10
-2.145272
 20
-28.877801
 11
-1.892475
 21
-26.078098
  0
LINE
  5
2C0
100
AcDbEntity
  8
RACCORDO
100
AcDbLine
 62
253
  6
CONTINUOUS
 10
-44.8700585586
 20
-43.8714290238
 11
-45.0
 21
-44.0013704652
  0
LINE
  5
2C1
100
AcDbEntity
  8
RACCORDO
100
AcDbLine
 62
253
  6
CONTINUOUS
 10
43.8781758769
 20
44.8768054117
 11
44.0013704652
 21
45.0
  0
LINE
  5
2C2
100
AcDbEntity
  8
RACCORDO
100
AcDbLine
 62
253
  6
CONTINUOUS
 10
-43.8781758769
 20
-44.8768054117
 11
-44.0013704652
 21
-45.0
  0
LINE
  5
2C3
100
AcDbEntity
  8
RACCORDO
100
AcDbLine
 62
253
  6
CONTINUOUS
 10
44.8700585586
 20
43.8714290238
 11
45.0
 21
44.0013704652
  0
LWPOLYLINE
  5
2C4
100
AcDbEntity
  8
RACCORDO
100
AcDbPolyline
 62
253
  6
CONTINUOUS
 90
12
 70
0
 10
-33.9975272282
 20
-22.4909531968
 10
-33.9706627899
 20
-22.4686674846
 10
-33.9455802882
 20
-22.4476344712
 10
-33.9224604615
 20
-22.4280057154
 10
-33.9014699056
 20
-22.409922657
 10
-33.8827598731
 20
-22.3935155981
 10
-33.866465184
 20
-22.3789027639
 10
-33.8527032538
 20
-22.3661894508
 10
-33.8415732475
 20
-22.3554672678
 10
-33.8331553653
 20
-22.3468134762
 10
-33.8275102643
 20
-22.3402904331
 10
-33.8246786217
 20
-22.335945142
  0
LINE
  5
2C5
100
AcDbEntity
  8
RACCORDO
100
AcDbLine
 62
253
  6
CONTINUOUS
 10
-34.0558161556
 20
-22.5386325071
 11
-33.9975272282
 21
-22.4909531968
  0
LINE
  5
2C6
100
AcDbEntity
  8
RACCORDO
100
AcDbLine
 62
253
  6
CONTINUOUS
 10
-34.1187700344
 20
-22.5893006167
 11
-34.0558161556
 21
-22.5386325071
  0
LWPOLYLINE
  5
2C7
100
AcDbEntity
  8
RACCORDO
100
AcDbPolyline
 62
253
  6
CONTINUOUS
 90
3
 70
0
 10
-34.2179615935
 20
-22.6677046708
 10
-34.1845776132
 20
-22.6414997491
 10
-34.1187700344
 20
-22.5893006167
  0
LINE
  5
2C8
100
AcDbEntity
  8
RACCORDO
100
AcDbLine
 62
253
  6
CONTINUOUS
 10
-34.2179615937
 20
22.6677046126
 11
-34.1514340853
 21
22.6153020317
  0
LINE
  5
2C9
100
AcDbEntity
  8
RACCORDO
100
AcDbLine
 62
253
  6
CONTINUOUS
 10
-34.1514340853
 20
22.6153020317
 11
-34.0868204632
 21
22.5636823587
  0
LWPOLYLINE
  5
2CA
100
AcDbEntity
  8
RACCORDO
100
AcDbPolyline
 62
253
  6
CONTINUOUS
 90
14
 70
0
 10
-34.0868204632
 20
22.5636823587
 10
-34.0259797398
 20
22.5143307538
 10
-33.9975268796
 20
22.4909528815
 10
-33.9706623767
 20
22.4686671222
 10
-33.9455798109
 20
22.4476340624
 10
-33.9224599217
 20
22.4280052615
 10
-33.9014693062
 20
22.4099221605
 10
-33.8827592182
 20
22.3935150623
 10
-33.8664644786
 20
22.3789021927
 10
-33.8527025038
 20
22.3661888489
 10
-33.8415724596
 20
22.3554666405
 10
-33.8331545469
 20
22.3468128293
 10
-33.8275094232
 20
22.3402897727
 10
-33.8246777662
 20
22.3359444745
  0
LINE
  5
2CB
100
AcDbEntity
  8
RACCORDO
100
AcDbLine
 62
253
  6
CONTINUOUS
 10
43.8781758769
 20
-44.8768054117
 11
44.0013704652
 21
-45.0
  0
LINE
  5
2CC
100
AcDbEntity
  8
RACCORDO
100
AcDbLine
 62
253
  6
CONTINUOUS
 10
-44.8700585586
 20
43.8714290238
 11
-45.0
 21
44.0013704652
  0
LINE
  5
2CD
100
AcDbEntity
  8
RACCORDO
100
AcDbLine
 62
253
  6
CONTINUOUS
 10
44.8700585586
 20
-43.8714290238
 11
45.0
 21
-44.0013704652
  0
LINE
  5
2CE
100
AcDbEntity
  8
RACCORDO
100
AcDbLine
 62
253
  6
CONTINUOUS
 10
-43.8781758769
 20
44.8768054117
 11
-44.0013704652
 21
45.0
  0
LINE
  5
2CF
100
AcDbEntity
  8
0
100
AcDbLine
 62
7
  6
CONTINUOUS
 10
3.298408
 20
-28.877801
 11
2.43939
 21
-26.078098
  0
LWPOLYLINE
  5
2D0
100
AcDbEntity
  8
0
100
AcDbPolyline
 62
7
  6
CONTINUOUS
 90
8
 70
0
 10
4.9109609426
 20
-28.3034369112
 10
4.8992767178
 20
-28.2638731517
 10
4.8873360729
 20
-28.2244173686
 10
4.8751387813
 20
-28.1850746098
 10
4.8624683805
 20
-28.1458293354
 10
4.8492527164
 20
-28.1066763704
 10
4.835563943
 20
-28.0676209055
 10
4.8214020604
 20
-28.0286629486
  0
LINE
  5
2D1
100
AcDbEntity
  8
0
100
AcDbLine
 62
7
  6
CONTINUOUS
 10
5.0770156219
 20
-28.8778013544
 11
4.9795527731
 21
-28.5437436658
  0
LWPOLYLINE
  5
2D2
100
AcDbEntity
  8
0
100
AcDbPolyline
 62
7
  6
CONTINUOUS
 90
4
 70
0
 10
4.9795527731
 20
-28.5437436658
 10
4.9564529743
 20
-28.4629991361
 10
4.9451345366
 20
-28.4228948006
 10
4.9109609426
 20
-28.3034369112
  0
LWPOLYLINE
  5
2D3
100
AcDbEntity
  8
0
100
AcDbPolyline
 62
7
  6
CONTINUOUS
 90
3
 70
0
 10
5.4163167497
 20
-28.0356190192
 10
5.4280175137
 20
-28.0777729187
 10
5.4337495687
 20
-28.0989187684
  0
LINE
  5
2D4
100
AcDbEntity
  8
0
100
AcDbLine
 62
7
  6
CONTINUOUS
 10
2.682466
 20
-28.877801
 11
2.531074
 21
-28.318881
  0
LINE
  5
2D5
100
AcDbEntity
  8
0
100
AcDbLine
 62
7
  6
CONTINUOUS
 10
5.4337495687
 20
-28.0989187684
 11
5.5089491669
 21
-28.3809289519
  0
LINE
  5
2D6
100
AcDbEntity
  8
0
100
AcDbLine
 62
7
  6
CONTINUOUS
 10
5.5089491669
 20
-28.3809289519
 11
5.6391482119
 21
-28.8778013544
  0
LINE
  5
2D7
100
AcDbEntity
  8
0
100
AcDbLine
 62
7
  6
CONTINUOUS
 10
2.41428
 20
-27.886391
 11
2.145737
 21
-26.847385
  0
LWPOLYLINE
  5
2D8
100
AcDbEntity
  8
0
100
AcDbPolyline
 62
7
  6
CONTINUOUS
 90
19
 70
0
 10
4.9506521441
 20
-26.8887857336
 10
4.9491853585
 20
-26.8617065256
 10
4.9455687136
 20
-26.8347794202
 10
4.9398022094
 20
-26.8080044237
 10
4.9319440224
 20
-26.7812150231
 10
4.921935976
 20
-26.7545777399
 10
4.9096035409
 20
-26.7285921502
 10
4.894818864
 20
-26.7030715526
 10
4.8777097982
 20
-26.6782026907
 10
4.8584853734
 20
-26.6550453595
 10
4.8369200757
 20
-26.6338011652
 10
4.8132394188
 20
-26.614268608
 10
4.7883289744
 20
-26.596902865
 10
4.7622727654
 20
-26.5818761394
 10
4.7349867688
 20
-26.5690163241
 10
4.7071044868
 20
-26.5582621328
 10
4.6788370867
 20
-26.549593154
 10
4.6499734011
 20
-26.5430298533
 10
4.62051343
 20
-26.5385722489
  0
LINE
  5
2D9
100
AcDbEntity
  8
0
100
AcDbLine
 62
7
  6
CONTINUOUS
 10
3.6000188023
 20
-28.8778013544
 11
3.6000188023
 21
-26.110807341
  0
LINE
  5
2DA
100
AcDbEntity
  8
0
100
AcDbLine
 62
7
  6
CONTINUOUS
 10
4.1626972541
 20
-27.3236280866
 11
4.1626972541
 21
-26.5550547959
  0
LINE
  5
2DB
100
AcDbEntity
  8
0
100
AcDbLine
 62
7
  6
CONTINUOUS
 10
4.1820753449
 20
-28.8778013544
 11
4.1820753449
 21
-27.7821519248
  0
LINE
  5
2DC
100
AcDbEntity
  8
0
100
AcDbLine
 62
7
  6
CONTINUOUS
 10
5.1025031649
 20
-27.5709244369
 11
5.1025031649
 21
-27.554380628
  0
LINE
  5
2DD
100
AcDbEntity
  8
0
100
AcDbLine
 62
7
  6
CONTINUOUS
 10
-4.465146
 20
-28.00522
 11
-3.915169
 21
-26.078098
  0
LINE
  5
2DE
100
AcDbEntity
  8
0
100
AcDbLine
 62
7
  6
CONTINUOUS
 10
-4.231097
 20
-28.877801
 11
-3.33116
 21
-26.078098
  0
LWPOLYLINE
  5
2DF
100
AcDbEntity
  8
RACCORDO
100
AcDbPolyline
 62
253
  6
CONTINUOUS
 90
12
 70
0
 10
33.9975271439
 20
22.4909531247
 10
33.9706626907
 20
22.4686674018
 10
33.9455801744
 20
22.4476343779
 10
33.9224603337
 20
22.4280056119
 10
33.9014697646
 20
22.4099225439
 10
33.8827597199
 20
22.3935154762
 10
33.86646502
 20
22.378902634
 10
33.8527030804
 20
22.366189314
 10
33.8415730664
 20
22.3554671254
 10
33.8331551782
 20
22.3468133296
 10
33.8275100732
 20
22.3402902837
 10
33.8246784285
 20
22.3359449913
  0
LINE
  5
2E0
100
AcDbEntity
  8
RACCORDO
100
AcDbLine
 62
253
  6
CONTINUOUS
 10
34.0558161004
 20
22.5386324556
 11
33.9975271439
 21
22.4909531247
  0
LINE
  5
2E1
100
AcDbEntity
  8
RACCORDO
100
AcDbLine
 62
253
  6
CONTINUOUS
 10
34.1187700057
 20
22.5893005832
 11
34.0558161004
 21
22.5386324556
  0
LWPOLYLINE
  5
2E2
100
AcDbEntity
  8
RACCORDO
100
AcDbPolyline
 62
253
  6
CONTINUOUS
 90
3
 70
0
 10
34.2179615935
 20
22.6677046554
 10
34.1845776055
 20
22.6414997293
 10
34.1187700057
 20
22.5893005832
  0
LINE
  5
2E3
100
AcDbEntity
  8
RACCORDO
100
AcDbLine
 62
253
  6
CONTINUOUS
 10
34.2179615937
 20
-22.6677046126
 11
34.1514340853
 21
-22.6153020317
  0
LINE
  5
2E4
100
AcDbEntity
  8
RACCORDO
100
AcDbLine
 62
253
  6
CONTINUOUS
 10
34.1514340853
 20
-22.6153020317
 11
34.0868204632
 21
-22.5636823587
  0
LWPOLYLINE
  5
2E5
100
AcDbEntity
  8
RACCORDO
100
AcDbPolyline
 62
253
  6
CONTINUOUS
 90
14
 70
0
 10
34.0868204632
 20
-22.5636823587
 10
34.0259797398
 20
-22.5143307538
 10
33.9975268797
 20
-22.4909528815
 10
33.9706623767
 20
-22.4686671222
 10
33.9455798109
 20
-22.4476340624
 10
33.9224599217
 20
-22.4280052615
 10
33.9014693062
 20
-22.4099221605
 10
33.8827592182
 20
-22.3935150623
 10
33.8664644786
 20
-22.3789021927
 10
33.8527025038
 20
-22.3661888489
 10
33.8415724596
 20
-22.3554666405
 10
33.8331545469
 20
-22.3468128293
 10
33.8275094232
 20
-22.3402897727
 10
33.8246777662
 20
-22.3359444745
  0
LINE
  5
2E6
100
AcDbEntity
  8
0
100
AcDbLine
 62
7
  6
CONTINUOUS
 10
1.854751
 20
-27.886391
 11
2.145737
 21
-26.847385
  0
LINE
  5
2E7
100
AcDbEntity
  8
0
100
AcDbLine
 62
7
  6
CONTINUOUS
 10
1.573947
 20
-28.877801
 11
1.735207
 21
-28.318881
  0
LINE
  5
2E8
100
AcDbEntity
  8
0
100
AcDbLine
 62
7
  6
CONTINUOUS
 10
0.99588
 20
-28.877801
 11
1.874045
 21
-26.078098
  0
LINE
  5
2E9
100
AcDbEntity
  8
0
100
AcDbLine
 62
7
  6
CONTINUOUS
 10
-0.730314
 20
-27.632502
 11
-0.145906
 21
-26.078098
  0
LINE
  5
2EA
100
AcDbEntity
  8
0
100
AcDbLine
 62
7
  6
CONTINUOUS
 10
-0.692524
 20
-28.877801
 11
0.002337
 21
-27.057269
  0
LINE
  5
2EB
100
AcDbEntity
  8
0
100
AcDbLine
 62
253
  6
CONTINUOUS
 10
33.1926540141
 20
22.6415492726
 11
33.0510963722
 21
22.5
  0
LINE
  5
2EC
100
AcDbEntity
  8
0
100
AcDbLine
 62
253
  6
CONTINUOUS
 10
33.9949737296
 20
21.8461028089
 11
33.85
 21
21.7010963722
  0
LINE
  5
2ED
100
AcDbEntity
  8
0
100
AcDbLine
 62
253
  6
CONTINUOUS
 10
33.1926840308
 20
-22.6415492726
 11
33.0510963722
 21
-22.5
  0
LINE
  5
2EE
100
AcDbEntity
  8
0
100
AcDbLine
 62
253
  6
CONTINUOUS
 10
33.9949737709
 20
-21.8460811902
 11
33.85
 21
-21.7010963722
  0
LWPOLYLINE
  5
2EF
100
AcDbEntity
  8
0
100
AcDbPolyline
 62
7
  6
CONTINUOUS
 90
10
 70
0
 10
5.2236111827
 20
-27.4773299337
 10
5.1994228738
 20
-27.4980616241
 10
5.1877574612
 20
-27.5078207485
 10
5.1761371315
 20
-27.5170051269
 10
5.1646553252
 20
-27.525767983
 10
5.1532186018
 20
-27.5339561065
 10
5.1413342912
 20
-27.5409712472
 10
5.1288381698
 20
-27.5466139986
 10
5.115894461
 20
-27.5510837897
 10
5.1025031649
 20
-27.554380628
  0
LWPOLYLINE
  5
2F0
100
AcDbEntity
  8
RACCORDO
100
AcDbPolyline
 62
253
  6
CONTINUOUS
 90
16
 70
0
 10
34.369093969
 20
21.8692779856
 10
34.3287508969
 20
21.8685789918
 10
34.2895852216
 20
21.8677199025
 10
34.2518755116
 20
21.8667068282
 10
34.2158899793
 20
21.8655469743
 10
34.1818845742
 20
21.8642485904
 10
34.1501011618
 20
21.8628209112
 10
34.1207658036
 20
21.8612740914
 10
34.094087149
 20
21.8596191327
 10
34.0702549518
 20
21.8578678061
 10
34.0494387199
 20
21.856032568
 10
34.03178651
 20
21.8541264717
 10
34.0174238746
 20
21.8521630745
 10
34.0064529687
 20
21.850156341
 10
33.9989518238
 20
21.8481205443
 10
33.994973792
 20
21.8460701642
  0
LWPOLYLINE
  5
2F1
100
AcDbEntity
  8
RACCORDO
100
AcDbPolyline
 62
253
  6
CONTINUOUS
 90
17
 70
0
 10
-44.4931469952
 20
22.667357485
 10
-44.5178871764
 20
22.6670254536
 10
-44.5420930804
 20
22.6665907705
 10
-44.5655925401
 20
22.6660565274
 10
-44.5882184131
 20
22.6654265242
 10
-44.6098097706
 20
22.6647052419
 10
-44.6302130418
 20
22.6638978107
 10
-44.6492831063
 20
22.6630099734
 10
-44.6668843261
 20
22.6620480449
 10
-44.6828915109
 20
22.6610188671
 10
-44.6971908078
 20
22.65992976
 10
-44.7096805115
 20
22.6587884702
 10
-44.7202717878
 20
22.657603115
 10
-44.7288893051
 20
22.6563821255
 10
-44.7354717704
 20
22.6551341861
 10
-44.7399723652
 20
22.6538681728
 10
-44.7423590785
 20
22.6525930904
  0
LINE
  5
2F2
100
AcDbEntity
  8
RACCORDO
100
AcDbLine
 62
253
  6
CONTINUOUS
 10
-44.4427702181
 20
22.6677048931
 11
-44.4931469952
 21
22.667357485
  0
LWPOLYLINE
  5
2F3
100
AcDbEntity
  8
RACCORDO
100
AcDbPolyline
 62
253
  6
CONTINUOUS
 90
3
 70
0
 10
34.4942885593
 20
21.8703705753
 10
34.4521581999
 20
21.8701769744
 10
34.369093969
 20
21.8692779856
  0
LINE
  5
2F4
100
AcDbEntity
  8
0
100
AcDbLine
 62
7
  6
CONTINUOUS
 10
-33.0510963722
 20
22.5
 11
33.0510963722
 21
22.5
  0
LINE
  5
2F5
100
AcDbEntity
  8
RACCORDO
100
AcDbLine
 62
253
  6
CONTINUOUS
 10
-33.1926840308
 20
22.6415492726
 11
33.1926540141
 21
22.6415492726
  0
LINE
  5
2F6
100
AcDbEntity
  8
RACCORDO
100
AcDbLine
 62
253
  6
CONTINUOUS
 10
-44.4427701042
 20
22.6676474049
 11
-34.2179615936
 21
22.6677048937
  0
LINE
  5
2F7
100
AcDbEntity
  8
RACCORDO
100
AcDbLine
 62
253
  6
CONTINUOUS
 10
34.2179615936
 20
22.6677048937
 11
44.4427701039
 21
22.667647257
  0
LINE
  5
2F8
100
AcDbEntity
  8
RACCORDO
100
AcDbLine
 62
253
  6
CONTINUOUS
 10
-33.1926456448
 20
23.1675430277
 11
33.1926456448
 21
23.1675430277
  0
LWPOLYLINE
  5
2F9
100
AcDbEntity
  8
RACCORDO
100
AcDbPolyline
 62
253
  6
CONTINUOUS
 90
18
 70
0
 10
-34.4942885593
 20
21.8703704037
 10
-34.4103272194
 20
21.869811781
 10
-34.3690935132
 20
21.8692778725
 10
-34.3287502401
 20
21.8685788954
 10
-34.2895843477
 20
21.8677198214
 10
-34.2518744094
 20
21.8667067608
 10
-34.2158886428
 20
21.8655469191
 10
-34.1818830023
 20
21.8642485459
 10
-34.1500993581
 20
21.8628208761
 10
-34.1207637762
 20
21.8612740642
 10
-34.0940849105
 20
21.8596191121
 10
-34.0702525184
 20
21.8578677909
 10
-34.0494361115
 20
21.8560325572
 10
-34.0317837497
 20
21.8541264643
 10
-34.017420988
 20
21.8521630697
 10
-34.0064499838
 20
21.8501563382
 10
-33.99894877
 20
21.8481205431
 10
-33.9949707002
 20
21.8460701642
  0
LWPOLYLINE
  5
2FA
100
AcDbEntity
  8
RACCORDO
100
AcDbPolyline
 62
253
  6
CONTINUOUS
 90
18
 70
0
 10
44.4427702181
 20
22.6677048929
 10
44.4931469947
 20
22.6673574847
 10
44.5178871757
 20
22.6670254534
 10
44.5420930795
 20
22.6665907703
 10
44.565592539
 20
22.6660565272
 10
44.5882184119
 20
22.6654265241
 10
44.6098097693
 20
22.6647052418
 10
44.6302130404
 20
22.6638978105
 10
44.6492831048
 20
22.6630099732
 10
44.6668843246
 20
22.6620480448
 10
44.6828915094
 20
22.661018867
 10
44.6971908064
 20
22.65992976
 10
44.7096805103
 20
22.6587884701
 10
44.7202717867
 20
22.6576031149
 10
44.7288893042
 20
22.6563821254
 10
44.7354717697
 20
22.655134186
 10
44.7399723648
 20
22.6538681728
 10
44.7423590785
 20
22.6525930904
  0
LWPOLYLINE
  5
2FB
100
AcDbEntity
  8
RACCORDO
100
AcDbPolyline
 62
253
  6
CONTINUOUS
 90
31
 70
0
 10
33.1926540284
 20
22.6415492868
 10
33.2185715426
 20
22.6411766217
 10
33.2441483083
 20
22.6399902412
 10
33.2693598359
 20
22.6380213654
 10
33.2941575588
 20
22.635304893
 10
33.3185469873
 20
22.6318708053
 10
33.3425865249
 20
22.6277361188
 10
33.3662571509
 20
22.6229259042
 10
33.389542321
 20
22.6174652557
 10
33.412503499
 20
22.6113574041
 10
33.4351237751
 20
22.6046211378
 10
33.4573879553
 20
22.597275291
 10
33.4793575368
 20
22.5893098201
 10
33.5010162357
 20
22.5807374941
 10
33.5223480598
 20
22.5715715346
 10
33.5434106948
 20
22.561789914
 10
33.5641866
 20
22.5514000857
 10
33.5846576598
 20
22.5404103515
 10
33.6048748984
 20
22.5287881774
 10
33.6248176058
 20
22.5165367301
 10
33.6444645233
 20
22.5036600567
 10
33.6638585482
 20
22.4901160884
 10
33.6829740083
 20
22.4759048771
 10
33.7017853847
 20
22.4610268776
 10
33.7203268424
 20
22.4454305818
 10
33.7385650147
 20
22.429115067
 10
33.7564697124
 20
22.4120770859
 10
33.7740685984
 20
22.3942519832
 10
33.7913414535
 20
22.3756131471
 10
33.808226512
 20
22.3561786666
 10
33.8246817863
 20
22.3359476087
  0
LWPOLYLINE
  5
2FC
100
AcDbEntity
  8
RACCORDO
100
AcDbPolyline
 62
253
  6
CONTINUOUS
 90
31
 70
0
 10
33.1926456448
 20
23.1675430277
 10
33.2347577847
 20
23.1667780232
 10
33.2762417119
 20
23.1647901402
 10
33.3170974262
 20
23.1615793762
 10
33.3573144567
 20
23.1571056171
 10
33.3969032745
 20
23.1514089679
 10
33.435895292
 20
23.144609754
 10
33.4742861148
 20
23.1367224704
 10
33.5120801373
 20
23.1277326067
 10
33.5493219557
 20
23.1177169791
 10
33.586010669
 20
23.1066893218
 10
33.6221471782
 20
23.0946358801
 10
33.6577787816
 20
23.0815922369
 10
33.6929085023
 20
23.0675708229
 10
33.7275333172
 20
23.0525591822
 10
33.761691456
 20
23.0365555668
 10
33.7953891382
 20
23.0195707434
 10
33.8286201443
 20
23.0015939148
 10
33.8614040451
 20
22.9825909856
 10
33.8937494547
 20
22.9625712599
 10
33.925647759
 20
22.9415253967
 10
33.9570926864
 20
22.9193913297
 10
33.9880948023
 20
22.8961772223
 10
34.0186435414
 20
22.8718748662
 10
34.0487009363
 20
22.8463976334
 10
34.0782798698
 20
22.819753002
 10
34.107367459
 20
22.7919334388
 10
34.1358870876
 20
22.7628297929
 10
34.1638132169
 20
22.7324056566
 10
34.1911713855
 20
22.7006973688
 10
34.2179615936
 20
22.6677048937
  0
LINE
  5
2FD
100
AcDbEntity
  8
RACCORDO
100
AcDbLine
 62
253
  6
CONTINUOUS
 10
33.9949737296
 20
21.8461028089
 11
34.0104384533
 21
14.5669361326
  0
LINE
  5
2FE
100
AcDbEntity
  8
RACCORDO
100
AcDbLine
 62
253
  6
CONTINUOUS
 10
34.4942885593
 20
21.8703705759
 11
34.5097532489
 21
14.5834397224
  0
LINE
  5
2FF
100
AcDbEntity
  8
RACCORDO
100
AcDbLine
 62
253
  6
CONTINUOUS
 10
34.0104384533
 20
14.5669361326
 11
34.0197179896
 21
7.284661208
  0
LINE
  5
300
100
AcDbEntity
  8
RACCORDO
100
AcDbLine
 62
253
  6
CONTINUOUS
 10
34.5097532489
 20
14.5834397224
 11
34.5190327639
 21
7.2926778579
  0
LINE
  5
301
100
AcDbEntity
  8
RACCORDO
100
AcDbLine
 62
253
  6
CONTINUOUS
 10
34.0197179896
 20
7.284661208
 11
34.0228118795
 21
-0.0000046698
  0
LINE
  5
302
100
AcDbEntity
  8
RACCORDO
100
AcDbLine
 62
253
  6
CONTINUOUS
 10
34.5190327639
 20
7.2926778579
 11
34.5221266469
 21
0.0000000529
  0
LINE
  5
303
100
AcDbEntity
  8
RACCORDO
100
AcDbLine
 62
253
  6
CONTINUOUS
 10
33.1926456448
 20
23.1675430277
 11
33.1926456448
 21
22.6415492726
  0
LINE
  5
304
100
AcDbEntity
  8
RACCORDO
100
AcDbLine
 62
253
  6
CONTINUOUS
 10
33.1926456448
 20
-23.1675430277
 11
33.1926456448
 21
-22.6415492726
  0
LINE
  5
305
100
AcDbEntity
  8
0
100
AcDbLine
 62
7
  6
CONTINUOUS
 10
33.85
 20
21.7010963722
 11
33.85
 21
-21.7010963722
  0
LINE
  5
306
100
AcDbEntity
  8
RACCORDO
100
AcDbLine
 62
253
  6
CONTINUOUS
 10
34.0228118795
 20
-0.0000046698
 11
34.0197179771
 21
-7.2846727906
  0
LINE
  5
307
100
AcDbEntity
  8
RACCORDO
100
AcDbLine
 62
253
  6
CONTINUOUS
 10
34.5221266469
 20
0.0000000529
 11
34.5190327641
 21
-7.292677762
  0
LINE
  5
308
100
AcDbEntity
  8
RACCORDO
100
AcDbLine
 62
253
  6
CONTINUOUS
 10
34.0197179771
 20
-7.2846727906
 11
34.0104384522
 21
-14.5669385324
  0
LINE
  5
309
100
AcDbEntity
  8
RACCORDO
100
AcDbLine
 62
253
  6
CONTINUOUS
 10
34.5190327641
 20
-7.292677762
 11
34.5097532492
 21
-14.5834396614
  0
LINE
  5
30A
100
AcDbEntity
  8
RACCORDO
100
AcDbLine
 62
253
  6
CONTINUOUS
 10
34.0104384522
 20
-14.5669385324
 11
33.9949737709
 21
-21.8460811902
  0
LINE
  5
30B
100
AcDbEntity
  8
RACCORDO
100
AcDbLine
 62
253
  6
CONTINUOUS
 10
34.5097532492
 20
-14.5834396614
 11
34.4942885593
 21
-21.8703705759
  0
LWPOLYLINE
  5
30C
100
AcDbEntity
  8
RACCORDO
100
AcDbPolyline
 62
253
  6
CONTINUOUS
 90
13
 70
0
 10
34.4942885593
 20
-21.8703705759
 10
34.492416098
 20
-21.9398660133
 10
34.4866066457
 20
-22.0094305253
 10
34.4768602025
 20
-22.0790641089
 10
34.4631656193
 20
-22.1491408256
 10
34.4455340452
 20
-22.2192866015
 10
34.4239989273
 20
-22.2883792558
 10
34.3983832336
 20
-22.3564474246
 10
34.3688639962
 20
-22.423462516
 10
34.3360057591
 20
-22.4882165587
 10
34.2999967036
 20
-22.5503069386
 10
34.2606486485
 20
-22.6101363688
 10
34.2179615936
 20
-22.6677048937
  0
LWPOLYLINE
  5
30D
100
AcDbEntity
  8
RACCORDO
100
AcDbPolyline
 62
253
  6
CONTINUOUS
 90
13
 70
0
 10
33.9949737609
 20
-21.8460811803
 10
33.9937327786
 20
-21.8886052515
 10
33.9901732154
 20
-21.9314217759
 10
33.9842368259
 20
-21.9744014273
 10
33.9758535437
 20
-22.0174924277
 10
33.9649890592
 20
-22.0604655599
 10
33.9516918617
 20
-22.1029260611
 10
33.9359600455
 20
-22.1447721932
 10
33.917828174
 20
-22.1858230986
 10
33.8975126767
 20
-22.2256008643
 10
33.875177045
 20
-22.2638885872
 10
33.8508655087
 20
-22.3007017748
 10
33.8246817863
 20
-22.3359476087
  0
LWPOLYLINE
  5
30E
100
AcDbEntity
  8
RACCORDO
100
AcDbPolyline
 62
253
  6
CONTINUOUS
 90
9
 70
0
 10
44.5704696982
 20
-43.9246281065
 10
44.5492646814
 20
-41.5803705021
 10
44.5298115775
 20
-39.2305985388
 10
44.5121103866
 20
-36.8757866537
 10
44.4961582719
 20
-34.51641446
 10
44.4819580701
 20
-32.1529541681
 10
44.4695182913
 20
-29.7858704217
 10
44.4588417722
 20
-27.415636892
 10
44.449925676
 20
-25.0427362495
  0
LWPOLYLINE
  5
30F
100
AcDbEntity
  8
RACCORDO
100
AcDbPolyline
 62
253
  6
CONTINUOUS
 90
9
 70
0
 10
44.8700585586
 20
-43.8714290238
 10
44.8488539353
 20
-41.530635219
 10
44.8294010733
 20
-39.1852651697
 10
44.8116999728
 20
-36.8353188758
 10
44.7957477181
 20
-34.4803128887
 10
44.7815472247
 20
-32.1207306571
 10
44.7691072395
 20
-29.7580225269
 10
44.7584306778
 20
-27.3926719467
 10
44.7495146241
 20
-25.0241954679
  0
LINE
  5
310
100
AcDbEntity
  8
RACCORDO
100
AcDbLine
 62
253
  6
CONTINUOUS
 10
44.449925676
 20
-25.0427362495
 11
44.4336291891
 21
-18.8925043042
  0
LINE
  5
311
100
AcDbEntity
  8
RACCORDO
100
AcDbLine
 62
253
  6
CONTINUOUS
 10
44.7495146241
 20
-25.0241954679
 11
44.7332181209
 21
-18.8795038031
  0
LINE
  5
312
100
AcDbEntity
  8
RACCORDO
100
AcDbLine
 62
253
  6
CONTINUOUS
 10
44.4336291891
 20
-18.8925043042
 11
44.4203325776
 21
-11.3380611962
  0
LINE
  5
313
100
AcDbEntity
  8
RACCORDO
100
AcDbLine
 62
253
  6
CONTINUOUS
 10
44.7332181209
 20
-18.8795038031
 11
44.7199214528
 21
-11.3305136537
  0
LINE
  5
314
100
AcDbEntity
  8
RACCORDO
100
AcDbLine
 62
253
  6
CONTINUOUS
 10
44.4203325776
 20
-11.3380611962
 11
44.4136823261
 21
-3.7797569604
  0
LINE
  5
315
100
AcDbEntity
  8
RACCORDO
100
AcDbLine
 62
253
  6
CONTINUOUS
 10
44.7199214528
 20
-11.3305136537
 11
44.713271186
 21
-3.7771499691
  0
LINE
  5
316
100
AcDbEntity
  8
RACCORDO
100
AcDbLine
 62
253
  6
CONTINUOUS
 10
43.8781758769
 20
-44.6316825048
 11
43.8781758772
 21
-44.8768054117
  0
LINE
  5
317
100
AcDbEntity
  8
RACCORDO
100
AcDbLine
 62
253
  6
CONTINUOUS
 10
43.8781758769
 20
44.6316825048
 11
43.8781758769
 21
44.8768054117
  0
LINE
  5
318
100
AcDbEntity
  8
RACCORDO
100
AcDbLine
 62
253
  6
CONTINUOUS
 10
44.4136823261
 20
-3.7797569604
 11
44.4136823257
 21
3.7797559374
  0
LINE
  5
319
100
AcDbEntity
  8
RACCORDO
100
AcDbLine
 62
253
  6
CONTINUOUS
 10
44.713271186
 20
-3.7771499691
 11
44.7132711867
 21
3.77715111
  0
LINE
  5
31A
100
AcDbEntity
  8
RACCORDO
100
AcDbLine
 62
253
  6
CONTINUOUS
 10
44.4136823257
 20
3.7797559374
 11
44.4203325766
 21
11.3380604683
  0
LINE
  5
31B
100
AcDbEntity
  8
RACCORDO
100
AcDbLine
 62
253
  6
CONTINUOUS
 10
44.7132711867
 20
3.77715111
 11
44.7199214545
 21
11.3305150114
  0
LINE
  5
31C
100
AcDbEntity
  8
RACCORDO
100
AcDbLine
 62
253
  6
CONTINUOUS
 10
44.4203325766
 20
11.3380604683
 11
44.4336291883
 21
18.8925038652
  0
LINE
  5
31D
100
AcDbEntity
  8
RACCORDO
100
AcDbLine
 62
253
  6
CONTINUOUS
 10
44.7199214545
 20
11.3305150114
 11
44.7332181219
 21
18.8795044447
  0
LWPOLYLINE
  5
31E
100
AcDbEntity
  8
RACCORDO
100
AcDbPolyline
 62
253
  6
CONTINUOUS
 90
10
 70
0
 10
44.4336291883
 20
18.8925038652
 10
44.4499256767
 20
25.0427362222
 10
44.4588417736
 20
27.4156369854
 10
44.4695182923
 20
29.7858705046
 10
44.4819580689
 20
32.1529540084
 10
44.4961582673
 20
34.5164139278
 10
44.5121103802
 20
36.8757859222
 10
44.5298115717
 20
39.2305978808
 10
44.5492646777
 20
41.5803700883
 10
44.5704696982
 20
43.9246281065
  0
LWPOLYLINE
  5
31F
100
AcDbEntity
  8
RACCORDO
100
AcDbPolyline
 62
253
  6
CONTINUOUS
 90
10
 70
0
 10
44.7332181219
 20
18.8795044447
 10
44.7495146367
 20
25.0241988665
 10
44.7584307064
 20
27.3926785798
 10
44.7691072875
 20
29.7580322302
 10
44.7815473045
 20
32.1207441804
 10
44.7957478329
 20
34.4803300678
 10
44.8117000999
 20
36.8353368046
 10
44.829401181
 20
39.1852800282
 10
44.8488540005
 20
41.5306441013
 10
44.8700585586
 20
43.8714290238
  0
LWPOLYLINE
  5
320
100
AcDbEntity
  8
RACCORDO
100
AcDbPolyline
 62
253
  6
CONTINUOUS
 90
16
 70
0
 10
34.2179615937
 20
-22.6677048937
 10
34.1676363366
 20
-22.7282260376
 10
34.1140214129
 20
-22.785319398
 10
34.0571168224
 20
-22.8389851472
 10
33.996684508
 20
-22.889431412
 10
33.9329625268
 20
-22.9364503781
 10
33.8666650505
 20
-22.9794183199
 10
33.7977053328
 20
-23.0182859387
 10
33.72617012
 20
-23.0531028405
 10
33.6530338219
 20
-23.0833936777
 10
33.5782470351
 20
-23.1090594699
 10
33.5018591631
 20
-23.130199438
 10
33.424992826
 20
-23.146635529
 10
33.3480222306
 20
-23.1583084353
 10
33.2705731702
 20
-23.165277591
 10
33.1926456448
 20
-23.1675430277
  0
LWPOLYLINE
  5
321
100
AcDbEntity
  8
RACCORDO
100
AcDbPolyline
 62
253
  6
CONTINUOUS
 90
16
 70
0
 10
33.8246817863
 20
-22.3359476087
 10
33.7937618924
 20
-22.372902273
 10
33.7606074447
 20
-22.4079839707
 10
33.7253289474
 20
-22.4410553374
 10
33.6880428771
 20
-22.4719860675
 10
33.6488791713
 20
-22.5006510464
 10
33.6079817096
 20
-22.526932067
 10
33.5654571632
 20
-22.5507405142
 10
33.5214905285
 20
-22.5719537104
 10
33.4763647221
 20
-22.5904376769
 10
33.4302422163
 20
-22.6061366443
 10
33.3833044142
 20
-22.6189995155
 10
33.3358844938
 20
-22.6289643233
 10
33.2882162375
 20
-22.636027906
 10
33.24042488
 20
-22.6402149606
 10
33.1926840957
 20
-22.6415493366
  0
LWPOLYLINE
  5
322
100
AcDbEntity
  8
RACCORDO
100
AcDbPolyline
 62
253
  6
CONTINUOUS
 90
19
 70
0
 10
-44.5704696982
 20
43.9246280943
 10
-44.5957596656
 20
43.924207405
 10
-44.6208695746
 20
43.9234109463
 10
-44.6456206487
 20
43.9222443888
 10
-44.6698366663
 20
43.9207160381
 10
-44.6933452151
 20
43.9188367757
 10
-44.7159789199
 20
43.9166199815
 10
-44.7375766343
 20
43.9140814385
 10
-44.7579845877
 20
43.9112392206
 10
-44.7770574805
 20
43.9081135635
 10
-44.7946595182
 20
43.9047267214
 10
-44.8106653787
 20
43.9011028076
 10
-44.824961104
 20
43.8972676235
 10
-44.837444912
 20
43.8932484748
 10
-44.8480279211
 20
43.8890739767
 10
-44.8566347828
 20
43.8847738508
 10
-44.8632042183
 20
43.8803787129
 10
-44.8676894548
 20
43.8759198552
 10
-44.8700585586
 20
43.8714290238
  0
LINE
  5
323
100
AcDbEntity
  8
RACCORDO
100
AcDbLine
 62
253
  6
CONTINUOUS
 10
43.8781758769
 20
44.6316825048
 11
-43.8781758769
 21
44.6316825048
  0
LWPOLYLINE
  5
324
100
AcDbEntity
  8
RACCORDO
100
AcDbPolyline
 62
253
  6
CONTINUOUS
 90
19
 70
0
 10
44.5704696982
 20
43.9246280955
 10
44.595759238
 20
43.9242073328
 10
44.6208686854
 20
43.9234108103
 10
44.6456192716
 20
43.9222441987
 10
44.6698347824
 20
43.9207158039
 10
44.6933428136
 20
43.9188365074
 10
44.7159759974
 20
43.9166196889
 10
44.7375731949
 20
43.9140811314
 10
44.7579806431
 20
43.9112389082
 10
44.7770530492
 20
43.9081132548
 10
44.7946546255
 20
43.9047264246
 10
44.8106600561
 20
43.9011025304
 10
44.8249553888
 20
43.8972673728
 10
44.8374388469
 20
43.8932482565
 10
44.8480215531
 20
43.889073796
 10
44.856628163
 20
43.8847737118
 10
44.863197401
 20
43.8803786186
 10
44.8676824969
 20
43.8759198077
 10
44.8700515186
 20
43.871429024
  0
LWPOLYLINE
  5
325
100
AcDbEntity
  8
RACCORDO
100
AcDbPolyline
 62
253
  6
CONTINUOUS
 90
13
 70
0
 10
33.8246817863
 20
22.3359476087
 10
33.8506671573
 20
22.3009847399
 10
33.8748390157
 20
22.2644322383
 10
33.8970882814
 20
22.2263761875
 10
33.9173583313
 20
22.1868087836
 10
33.9354869097
 20
22.1459283201
 10
33.9512644829
 20
22.1041644472
 10
33.9646500926
 20
22.0616607816
 10
33.975617737
 20
22.0185447306
 10
33.9840939832
 20
21.9752588584
 10
33.9901035717
 20
21.9320498242
 10
33.9937131093
 20
21.888954044
 10
33.9949736995
 20
21.8461027795
  0
LWPOLYLINE
  5
326
100
AcDbEntity
  8
RACCORDO
100
AcDbPolyline
 62
253
  6
CONTINUOUS
 90
13
 70
0
 10
34.2179615936
 20
22.6677048937
 10
34.2603205645
 20
22.6106490843
 10
34.2994223064
 20
22.5512709454
 10
34.3352668194
 20
22.4895704319
 10
34.3680515472
 20
22.4251760457
 10
34.397579046
 20
22.3584591843
 10
34.4232569848
 20
22.2905341686
 10
34.4449253505
 20
22.2213824348
 10
34.4627441561
 20
22.1510224948
 10
34.476601109
 20
22.0806243342
 10
34.4864587784
 20
22.0105779607
 10
34.4923545952
 20
21.9404933744
 10
34.4942885593
 20
21.8703705759
  0
LWPOLYLINE
  5
327
100
AcDbEntity
  8
RACCORDO
100
AcDbPolyline
 62
253
  6
CONTINUOUS
 90
28
 70
0
 10
44.8700585586
 20
43.8714290238
 10
44.8686844686
 20
43.9304743766
 10
44.8638791753
 20
43.9892336337
 10
44.855673708
 20
44.0475080222
 10
44.8441178827
 20
44.1050781734
 10
44.8292609004
 20
44.1617759443
 10
44.8111367022
 20
44.2174811733
 10
44.7897893175
 20
44.2720490404
 10
44.7653059647
 20
44.3252495663
 10
44.7377989693
 20
44.3768420397
 10
44.7073859689
 20
44.4266363763
 10
44.6741696803
 20
44.474493136
 10
44.6382628328
 20
44.5202616709
 10
44.5997942217
 20
44.5637943459
 10
44.5589019354
 20
44.6049511246
 10
44.5157222969
 20
44.6436030133
 10
44.4704085578
 20
44.6796246207
 10
44.4231162995
 20
44.7129042432
 10
44.3739924813
 20
44.7433438558
 10
44.3231994415
 20
44.7708483634
 10
44.2709145997
 20
44.7953277337
 10
44.2173134256
 20
44.8167039603
 10
44.1625837314
 20
44.8349078545
 10
44.1069030317
 20
44.849886574
 10
44.0504351778
 20
44.8615986049
 10
43.9933606624
 20
44.8700064094
 10
43.9358771298
 20
44.8750808273
 10
43.8781758769
 20
44.8768054117
  0
LWPOLYLINE
  5
328
100
AcDbEntity
  8
RACCORDO
100
AcDbPolyline
 62
253
  6
CONTINUOUS
 90
28
 70
0
 10
44.5704696982
 20
43.9246281065
 10
44.5696252612
 20
43.96629429
 10
44.5664307296
 20
44.0075145745
 10
44.5608861034
 20
44.0482890176
 10
44.5529569095
 20
44.0887456584
 10
44.5426776209
 20
44.1287565602
 10
44.5301516566
 20
44.1679378676
 10
44.5153473063
 20
44.2063007183
 10
44.4982962802
 20
44.2438341817
 10
44.4791971275
 20
44.2801213992
 10
44.4580341378
 20
44.3151318114
 10
44.4348230214
 20
44.3488962717
 10
44.4098094588
 20
44.3810901221
 10
44.3829763229
 20
44.4116984623
 10
44.3543407408
 20
44.4407365201
 10
44.324199774
 20
44.4679248808
 10
44.2925403022
 20
44.4932444941
 10
44.2593754457
 20
44.5167147349
 10
44.2250416268
 20
44.5381138549
 10
44.1895275462
 20
44.5574215069
 10
44.1528445032
 20
44.5746583208
 10
44.1153628175
 20
44.5896640194
 10
44.0770676316
 20
44.6024166075
 10
44.0379738031
 20
44.6129382887
 10
43.9984962242
 20
44.621135071
 10
43.9587731922
 20
44.6269756618
 10
43.9186664098
 20
44.6304914639
 10
43.8781758769
 20
44.6316825048
  0
LINE
  5
329
100
AcDbEntity
  8
RACCORDO
100
AcDbLine
 62
7
  6
CONTINUOUS
 10
45.0
 20
-44.0013704652
 11
45.0
 21
44.0013704652
  0
LWPOLYLINE
  5
32A
100
AcDbEntity
  8
RACCORDO
100
AcDbPolyline
 62
253
  6
CONTINUOUS
 90
28
 70
0
 10
-43.8781758769
 20
44.8768054117
 10
-43.9358790912
 20
44.8750806058
 10
-43.9933273885
 20
44.8700102287
 10
-44.0503303845
 20
44.8616171492
 10
-44.1066620052
 20
44.8499439897
 10
-44.1621751202
 20
44.8350306373
 10
-44.2167964506
 20
44.8168925971
 10
-44.270393801
 20
44.7955529004
 10
-44.3227268303
 20
44.771086409
 10
-44.3735626186
 20
44.743592966
 10
-44.4227052357
 20
44.713175756
 10
-44.4700127188
 20
44.6799207097
 10
-44.5153430184
 20
44.6439229412
 10
-44.558541784
 20
44.6052929096
 10
-44.5994543358
 20
44.5641569719
 10
-44.6379446408
 20
44.5206436514
 10
-44.6738754279
 20
44.4748915901
 10
-44.7071166854
 20
44.4270494968
 10
-44.7375534477
 20
44.3772716237
 10
-44.7650750393
 20
44.3257147992
 10
-44.789574811
 20
44.2725531665
 10
-44.8109589176
 20
44.2179774542
 10
-44.8291446967
 20
44.1621714079
 10
-44.8440619639
 20
44.105319636
 10
-44.8556541505
 20
44.047622577
 10
-44.8638742693
 20
43.9892780405
 10
-44.8686841964
 20
43.9304802998
 10
-44.8700585586
 20
43.8714290238
  0
LWPOLYLINE
  5
32B
100
AcDbEntity
  8
RACCORDO
100
AcDbPolyline
 62
253
  6
CONTINUOUS
 90
28
 70
0
 10
-43.8781758769
 20
44.6316825048
 10
-43.9187038743
 20
44.6304780836
 10
-43.9588119933
 20
44.626961863
 10
-43.9985002339
 20
44.6211338159
 10
-44.037882471
 20
44.6129688545
 10
-44.0768448297
 20
44.6024919575
 10
-44.1150456852
 20
44.5897781721
 10
-44.1525079896
 20
44.5747958048
 10
-44.1892087907
 20
44.5575763404
 10
-44.2247376072
 20
44.538289581
 10
-44.2590663946
 20
44.5169205958
 10
-44.2922231974
 20
44.4934840338
 10
-44.3238816675
 20
44.4681940731
 10
-44.3540327652
 20
44.4410301138
 10
-44.3826855302
 20
44.4120124308
 10
-44.4095407336
 20
44.3814165412
 10
-44.4345831099
 20
44.3492228294
 10
-44.4578279245
 20
44.3154505818
 10
-44.479021745
 20
44.2804337214
 10
-44.4981438556
 20
44.2441561065
 10
-44.5152149721
 20
44.2066335864
 10
-44.5300438091
 20
44.1682481484
 10
-44.5426064825
 20
44.1289768997
 10
-44.5529268766
 20
44.0888425141
 10
-44.5608853584
 20
44.0482954332
 10
-44.5664420505
 20
44.0074857957
 10
-44.5696368304
 20
43.9662633712
 10
-44.5704696982
 20
43.9246281065
  0
LINE
  5
32C
100
AcDbEntity
  8
RACCORDO
100
AcDbLine
 62
253
  6
CONTINUOUS
 10
43.8781758769
 20
44.8768054117
 11
-43.8781758769
 21
44.8768054117
  0
LINE
  5
32D
100
AcDbEntity
  8
RACCORDO
100
AcDbLine
 62
7
  6
CONTINUOUS
 10
-44.0013704652
 20
45.0
 11
44.0013704652
 21
45.0
  0
LINE
  5
32E
100
AcDbEntity
  8
RACCORDO
100
AcDbLine
 62
7
  6
CONTINUOUS
 10
-71.5555905745
 20
-44.8768054117
 11
-69.2048977953
 21
-45.0
  0
LINE
  5
32F
100
AcDbEntity
  8
RACCORDO
100
AcDbLine
 62
253
  6
CONTINUOUS
 10
-71.6843282002
 20
-43.8714290238
 11
-69.2048977953
 21
-44.0013704652
  0
LINE
  5
330
100
AcDbEntity
  8
RACCORDO
100
AcDbLine
 62
253
  6
CONTINUOUS
 10
-71.9381716129
 20
-43.9188367757
 11
-71.9140984101
 21
-43.9140814385
  0
LINE
  5
331
100
AcDbEntity
  8
RACCORDO
100
AcDbLine
 62
253
  6
CONTINUOUS
 10
-71.9140984101
 20
-43.9140814385
 11
-71.8651729857
 21
-43.9047267214
  0
LINE
  5
332
100
AcDbEntity
  8
RACCORDO
100
AcDbLine
 62
253
  6
CONTINUOUS
 10
-71.8651729857
 20
-43.9047267214
 11
-71.7576860992
 21
-43.8847738508
  0
LINE
  5
333
100
AcDbEntity
  8
RACCORDO
100
AcDbLine
 62
253
  6
CONTINUOUS
 10
-71.7576860992
 20
-43.8847738508
 11
-71.6843282002
 21
-43.8714290238
  0
LWPOLYLINE
  5
334
100
AcDbEntity
  8
RACCORDO
100
AcDbPolyline
 62
253
  6
CONTINUOUS
 90
9
 70
0
 10
-71.5555905745
 20
-44.8768054117
 10
-71.5566837269
 20
-44.8750806058
 10
-71.5581579478
 20
-44.8700102287
 10
-71.5600044582
 20
-44.8616171492
 10
-71.5622146351
 20
-44.8499439897
 10
-71.5647818667
 20
-44.8350306373
 10
-71.5677001516
 20
-44.8168925971
 10
-71.5709697167
 20
-44.7955529004
 10
-71.5745759416
 20
-44.771086409
  0
LWPOLYLINE
  5
335
100
AcDbEntity
  8
RACCORDO
100
AcDbPolyline
 62
253
  6
CONTINUOUS
 90
3
 70
0
 10
-74.4048977846
 20
-22.6677048932
 10
-74.4038356098
 20
-22.6675845031
 10
-74.4006499173
 20
-22.667357485
  0
LINE
  5
336
100
AcDbEntity
  8
RACCORDO
100
AcDbLine
 62
253
  6
CONTINUOUS
 10
-74.4006499173
 20
-22.667357485
 11
-74.3880135556
 21
-22.6665907705
  0
LINE
  5
337
100
AcDbEntity
  8
RACCORDO
100
AcDbLine
 62
253
  6
CONTINUOUS
 10
-74.3880135556
 20
-22.6665907705
 11
-74.3044857419
 21
-22.6620480449
  0
LINE
  5
338
100
AcDbEntity
  8
RACCORDO
100
AcDbLine
 62
253
  6
CONTINUOUS
 10
-74.3044857419
 20
-22.6620480449
 11
-74.120979435
 21
-22.6525930904
  0
LINE
  5
339
100
AcDbEntity
  8
RACCORDO
100
AcDbLine
 62
253
  6
CONTINUOUS
 10
-71.6319370776
 20
44.3252495663
 11
-71.6079588995
 21
44.5202616709
  0
LINE
  5
33A
100
AcDbEntity
  8
RACCORDO
100
AcDbLine
 62
253
  6
CONTINUOUS
 10
-71.6079588995
 20
44.5202616709
 11
-71.5920710543
 21
44.6436030133
  0
LINE
  5
33B
100
AcDbEntity
  8
RACCORDO
100
AcDbLine
 62
253
  6
CONTINUOUS
 10
-71.5920710543
 20
44.6436030133
 11
-71.5827526839
 21
44.7129042432
  0
LWPOLYLINE
  5
33C
100
AcDbEntity
  8
RACCORDO
100
AcDbPolyline
 62
253
  6
CONTINUOUS
 90
10
 70
0
 10
-71.5827526839
 20
44.7129042432
 10
-71.5746087272
 20
44.7708483634
 10
-71.5710010307
 20
44.7953277337
 10
-71.5677286753
 20
44.8167039603
 10
-71.564803418
 20
44.8349078545
 10
-71.5622262525
 20
44.849886574
 10
-71.5600078944
 20
44.8615986049
 10
-71.5581572706
 20
44.8700064094
 10
-71.5566817762
 20
44.8750808273
 10
-71.5555905745
 20
44.8768054117
  0
LWPOLYLINE
  5
33D
100
AcDbEntity
  8
RACCORDO
100
AcDbPolyline
 62
253
  6
CONTINUOUS
 90
10
 70
0
 10
-71.6843282002
 20
-43.8714290238
 10
-72.0889365163
 20
-41.530635219
 10
-72.4601192339
 20
-39.1852651697
 10
-72.797876353
 20
-36.8353188758
 10
-73.1022635057
 20
-34.4803128887
 10
-73.3732250598
 20
-32.1207306571
 10
-73.6105941194
 20
-29.7580225269
 10
-73.8143150525
 20
-27.3926719467
 10
-73.984443491
 20
-25.0241954679
 10
-74.120979435
 20
-22.6525930904
  0
LINE
  5
33E
100
AcDbEntity
  8
RACCORDO
100
AcDbLine
 62
253
  6
CONTINUOUS
 10
-71.5745759416
 20
-44.771086409
 11
-71.5827153156
 21
-44.713175756
  0
LINE
  5
33F
100
AcDbEntity
  8
RACCORDO
100
AcDbLine
 62
253
  6
CONTINUOUS
 10
-71.5827153156
 20
-44.713175756
 11
-71.5920282642
 21
-44.6439229412
  0
LINE
  5
340
100
AcDbEntity
  8
RACCORDO
100
AcDbLine
 62
253
  6
CONTINUOUS
 10
-71.5920282642
 20
-44.6439229412
 11
-71.6079095084
 21
-44.5206436514
  0
LINE
  5
341
100
AcDbEntity
  8
RACCORDO
100
AcDbLine
 62
253
  6
CONTINUOUS
 10
-71.6079095084
 20
-44.5206436514
 11
-71.6318803572
 21
-44.3257147992
  0
LINE
  5
342
100
AcDbEntity
  8
0
100
AcDbLine
 62
7
  6
CONTINUOUS
 10
-74.0971209651
 20
-27.423487196
 11
-74.0982834067
 21
-27.4087686351
  0
LWPOLYLINE
  5
343
100
AcDbEntity
  8
RACCORDO
100
AcDbPolyline
 62
253
  6
CONTINUOUS
 90
13
 70
0
 10
-74.120979435
 20
-22.6525930904
 10
-74.2953992965
 20
-18.8795038031
 10
-74.4381110977
 20
-15.1054773242
 10
-74.5491148385
 20
-11.3305136537
 10
-74.6284161935
 20
-7.5543004072
 10
-74.6760094881
 20
-3.7771499691
 10
-74.6918776989
 20
0.0000005072
 10
-74.6760094745
 20
3.77715111
 10
-74.6284161663
 20
7.554301751
 10
-74.5491148052
 20
11.3305150114
 10
-74.4381110681
 20
15.1054784183
 10
-74.295399278
 20
18.8795044447
 10
-74.120979435
 20
22.6525930904
  0
LWPOLYLINE
  5
344
100
AcDbEntity
  8
RACCORDO
100
AcDbPolyline
 62
253
  6
CONTINUOUS
 90
10
 70
0
 10
-74.120979435
 20
22.6525930904
 10
-73.9844432507
 20
25.0241988665
 10
-73.8143145063
 20
27.3926785798
 10
-73.6105932018
 20
29.7580322302
 10
-73.3732235378
 20
32.1207441804
 10
-73.1022613137
 20
34.4803300678
 10
-72.7978739281
 20
36.8353368046
 10
-72.4601171803
 20
39.1852800282
 10
-72.088935271
 20
41.5306441013
 10
-71.6843282002
 20
43.8714290238
  0
LINE
  5
345
100
AcDbEntity
  8
RACCORDO
100
AcDbLine
 62
253
  6
CONTINUOUS
 10
-71.6843282002
 20
43.8714290238
 11
-71.6512859619
 21
44.1617759443
  0
LINE
  5
346
100
AcDbEntity
  8
RACCORDO
100
AcDbLine
 62
253
  6
CONTINUOUS
 10
-71.6512859619
 20
44.1617759443
 11
-71.6319370776
 21
44.3252495663
  0
LINE
  5
347
100
AcDbEntity
  8
0
100
AcDbLine
 62
7
  6
CONTINUOUS
 10
-66.4048977953
 20
-3.8526539614
 11
-68.1983098398
 21
-3.5364270305
  0
LINE
  5
348
100
AcDbEntity
  8
RACCORDO
100
AcDbLine
 62
253
  6
CONTINUOUS
 10
-71.6318803572
 20
-44.3257147992
 11
-71.6578568775
 21
-44.105319636
  0
LINE
  5
349
100
AcDbEntity
  8
RACCORDO
100
AcDbLine
 62
253
  6
CONTINUOUS
 10
-71.6578568775
 20
-44.105319636
 11
-71.6843282002
 21
-43.8714290238
  0
LINE
  5
34A
100
AcDbEntity
  8
RACCORDO
100
AcDbLine
 62
7
  6
CONTINUOUS
 10
-69.2048977953
 20
-45.0
 11
-69.2048977953
 21
45.0
  0
LINE
  5
34B
100
AcDbEntity
  8
0
100
AcDbLine
 62
7
  6
CONTINUOUS
 10
-68.4048977953
 20
3.2902250922
 11
-68.4048977953
 21
-3.2902250922
  0
LINE
  5
34C
100
AcDbEntity
  8
0
100
AcDbLine
 62
7
  6
CONTINUOUS
 10
-66.4048977953
 20
3.8526539614
 11
-68.1983098398
 21
3.5364270305
  0
LINE
  5
34D
100
AcDbEntity
  8
RACCORDO
100
AcDbLine
 62
7
  6
CONTINUOUS
 10
-66.4048977953
 20
43.5000000005
 11
-66.4048977953
 21
43.0970752324
  0
LINE
  5
34E
100
AcDbEntity
  8
DRAFT
100
AcDbLine
 62
7
  6
CONTINUOUS
 10
-66.4048977953
 20
43.0970752324
 11
-66.4048977953
 21
3.8526539614
  0
LINE
  5
34F
100
AcDbEntity
  8
DRAFT
100
AcDbLine
 62
7
  6
CONTINUOUS
 10
-66.4048977953
 20
-3.8526539614
 11
-66.4048977953
 21
-43.0970750476
  0
LINE
  5
350
100
AcDbEntity
  8
RACCORDO
100
AcDbLine
 62
7
  6
CONTINUOUS
 10
-66.4048977953
 20
-43.0970750476
 11
-66.4048977953
 21
-43.5000000137
  0
LINE
  5
351
100
AcDbEntity
  8
RACCORDO
100
AcDbLine
 62
253
  6
CONTINUOUS
 10
-74.3673475658
 20
22.6654265241
 11
-74.120979435
 21
22.6525930904
  0
LWPOLYLINE
  5
352
100
AcDbEntity
  8
RACCORDO
100
AcDbPolyline
 62
253
  6
CONTINUOUS
 90
5
 70
0
 10
-74.4048977792
 20
22.6677048929
 10
-74.4038356045
 20
22.6675845028
 10
-74.400649912
 20
22.6673574847
 10
-74.3953633604
 20
22.6670254534
 10
-74.3673475658
 20
22.6654265241
  0
LWPOLYLINE
  5
353
100
AcDbEntity
  8
RACCORDO
100
AcDbPolyline
 62
253
  6
CONTINUOUS
 90
13
 70
0
 10
-66.4048978394
 20
-43.0970754028
 10
-66.4911528182
 20
-43.1536176709
 10
-66.582993808
 20
-43.2106011034
 10
-66.6805690402
 20
-43.2680257005
 10
-66.784314078
 20
-43.3263497252
 10
-66.89408313
 20
-43.3851149145
 10
-67.0091045487
 20
-43.4429464781
 10
-67.1299716975
 20
-43.499968976
 10
-67.2562566863
 20
-43.5560578482
 10
-67.3855031898
 20
-43.6094646258
 10
-67.5168161494
 20
-43.6596064857
 10
-67.6509704531
 20
-43.7070662509
 10
-67.787906733
 20
-43.7518439214
  0
LWPOLYLINE
  5
354
100
AcDbEntity
  8
RACCORDO
100
AcDbPolyline
 62
253
  6
CONTINUOUS
 90
6
 70
0
 10
-71.9638727647
 20
-43.9246280943
 10
-71.9628634053
 20
-43.924207405
 10
-71.9597591563
 20
-43.9234109463
 10
-71.9545821192
 20
-43.9222443888
 10
-71.9473691532
 20
-43.9207160381
 10
-71.9381716129
 20
-43.9188367757
  0
LWPOLYLINE
  5
355
100
AcDbEntity
  8
RACCORDO
100
AcDbPolyline
 62
253
  6
CONTINUOUS
 90
7
 70
0
 10
-71.9638727715
 20
43.9246280955
 10
-71.962862955
 20
43.9242073328
 10
-71.9597583018
 20
43.9234108103
 10
-71.954580916
 20
43.9222441987
 10
-71.9473676584
 20
43.9207158039
 10
-71.9381698844
 20
43.9188365074
 10
-71.9140963874
 20
43.9140811314
  0
LWPOLYLINE
  5
356
100
AcDbEntity
  8
RACCORDO
100
AcDbPolyline
 62
253
  6
CONTINUOUS
 90
10
 70
0
 10
-67.787906733
 20
-43.7518439214
 10
-67.9402914517
 20
-43.796886223
 10
-68.0937908489
 20
-43.8375523284
 10
-68.2482494298
 20
-43.8738422377
 10
-68.4028468008
 20
-43.9057187784
 10
-68.5580868886
 20
-43.933219123
 10
-68.7158379967
 20
-43.9564547889
 10
-68.8766511739
 20
-43.9754629486
 10
-69.0397200863
 20
-43.9902064297
 10
-69.2048977892
 20
-44.0006852321
  0
LINE
  5
357
100
AcDbEntity
  8
RACCORDO
100
AcDbLine
 62
253
  6
CONTINUOUS
 10
-71.6843282002
 20
43.8714290238
 11
-69.2048977953
 21
44.0013704652
  0
LINE
  5
358
100
AcDbEntity
  8
RACCORDO
100
AcDbLine
 62
253
  6
CONTINUOUS
 10
-71.8037114015
 20
43.8932482565
 11
-71.6843278312
 21
43.871429024
  0
LINE
  5
359
100
AcDbEntity
  8
RACCORDO
100
AcDbLine
 62
253
  6
CONTINUOUS
 10
-71.8830447784
 20
43.9081132548
 11
-71.8037114015
 21
43.8932482565
  0
LINE
  5
35A
100
AcDbEntity
  8
RACCORDO
100
AcDbLine
 62
253
  6
CONTINUOUS
 10
-71.9140963874
 20
43.9140811314
 11
-71.8830447784
 21
43.9081132548
  0
LWPOLYLINE
  5
35B
100
AcDbEntity
  8
RACCORDO
100
AcDbPolyline
 62
253
  6
CONTINUOUS
 90
13
 70
0
 10
-67.7878860702
 20
43.7518378099
 10
-67.63801661
 20
43.7022200254
 10
-67.494390216
 20
43.6509469089
 10
-67.3569739745
 20
43.5980184605
 10
-67.2253054387
 20
43.5428516548
 10
-67.0997360026
 20
43.486029517
 10
-66.9813781846
 20
43.4293011232
 10
-66.8709169689
 20
43.3731503189
 10
-66.7673371879
 20
43.3170932585
 10
-66.6691897404
 20
43.2614274812
 10
-66.5759341928
 20
43.2062521667
 10
-66.4878796061
 20
43.1514681353
 10
-66.4048978145
 20
43.097075387
  0
LINE
  5
35C
100
AcDbEntity
  8
RACCORDO
100
AcDbLine
 62
7
  6
CONTINUOUS
 10
-71.5555905745
 20
44.8768054117
 11
-69.2048977953
 21
45.0
  0
LWPOLYLINE
  5
35D
100
AcDbEntity
  8
RACCORDO
100
AcDbPolyline
 62
253
  6
CONTINUOUS
 90
13
 70
0
 10
-69.2048977715
 20
44.0006852308
 10
-69.0869045755
 20
43.993887186
 10
-68.9689253111
 20
43.9846325241
 10
-68.851022589
 20
43.9729212452
 10
-68.7334372009
 20
43.9587976303
 10
-68.6160536325
 20
43.9422173982
 10
-68.4984063938
 20
43.9230477058
 10
-68.380476463
 20
43.9013015824
 10
-68.2624286918
 20
43.8769659985
 10
-68.1440863101
 20
43.8498690225
 10
-68.0254484131
 20
43.8199533438
 10
-67.9066854315
 20
43.7872762729
 10
-67.7878860702
 20
43.7518378099
  0
ARC
  5
35E
100
AcDbEntity
  8
RACCORDO
100
AcDbCircle
 62
7
  6
CONTINUOUS
 10
92.8157939722
 20
-14.2336437913
 40
167.4332498099
100
AcDbArc
 50
182.8873441217
 51
190.4602411505
  0
ARC
  5
35F
100
AcDbEntity
  8
0
100
AcDbCircle
 62
7
  6
CONTINUOUS
 10
92.8157939722
 20
-14.2336437913
 40
167.4332498099
100
AcDbArc
 50
184.5182554331
 51
185.0176525292
  0
ARC
  5
360
100
AcDbEntity
  8
0
100
AcDbCircle
 62
7
  6
CONTINUOUS
 10
92.8157939722
 20
-14.2336437913
 40
167.4332498099
100
AcDbArc
 50
184.0677903884
 51
184.5132030469
  0
ARC
  5
361
100
AcDbEntity
  8
RACCORDO
100
AcDbCircle
 62
7
  6
CONTINUOUS
 10
-69.4763776118
 20
-39.3198565139
 40
5.1872524353
100
AcDbArc
 50
273.0000000399
 51
306.3076478614
  0
ARC
  5
362
100
AcDbEntity
  8
RACCORDO
100
AcDbCircle
 62
7
  6
CONTINUOUS
 10
-71.5398910377
 20
-44.577209968
 40
0.3000000001
100
AcDbArc
 50
190.4615209044
 51
267.0003041861
  0
ARC
  5
363
100
AcDbEntity
  8
0
100
AcDbCircle
 62
7
  6
CONTINUOUS
 10
-68.1548977953
 20
-3.2902250922
 40
0.25
100
AcDbArc
 50
180.0
 51
260.0
  0
ARC
  5
364
100
AcDbEntity
  8
RACCORDO
100
AcDbCircle
 62
7
  6
CONTINUOUS
 10
92.8157939722
 20
14.2336437913
 40
167.4332498099
100
AcDbArc
 50
169.5397588495
 51
177.1126559741
  0
ARC
  5
365
100
AcDbEntity
  8
RACCORDO
100
AcDbCircle
 62
7
  6
CONTINUOUS
 10
-69.4763776118
 20
39.3198565139
 40
5.1872524353
100
AcDbArc
 50
53.692351894
 51
86.9999997364
  0
ARC
  5
366
100
AcDbEntity
  8
RACCORDO
100
AcDbCircle
 62
7
  6
CONTINUOUS
 10
-71.5398897877
 20
44.5772165512
 40
0.3
100
AcDbArc
 50
93.0
 51
169.5397588495
  0
ARC
  5
367
100
AcDbEntity
  8
0
100
AcDbCircle
 62
7
  6
CONTINUOUS
 10
-68.1548977953
 20
3.2902250922
 40
0.25
100
AcDbArc
 50
100.0
 51
180.0
  0
ARC
  5
368
100
AcDbEntity
  8
RACCORDO
100
AcDbCircle
 62
7
  6
CONTINUOUS
 10
375.023823088
 20
0.0
 40
450.0
100
AcDbArc
 50
177.1126435736
 51
182.8873564621
  0
ELLIPSE
  5
369
100
AcDbEntity
  8
RACCORDO
100
AcDbEllipse
 62
7
  6
CONTINUOUS
 10
-43.998627654
 20
-43.998627654
 30
0.0
 11
0.7090462434
 21
0.7090462434
 31
0.0
 40
0.9972646886
 41
-3.9256212891
 42
-2.3575640181
  0
ELLIPSE
  5
36A
100
AcDbEntity
  8
RACCORDO
100
AcDbEllipse
 62
7
  6
CONTINUOUS
 10
43.998627654
 20
-43.998627654
 30
0.0
 11
0.7090462434
 21
-0.7090462434
 31
0.0
 40
0.9972646886
 41
-0.7840286355
 42
0.7840286355
  0
ELLIPSE
  5
36B
100
AcDbEntity
  8
RACCORDO
100
AcDbEllipse
 62
7
  6
CONTINUOUS
 10
43.998627654
 20
43.998627654
 30
0.0
 11
0.7090462434
 21
0.7090462434
 31
0.0
 40
0.9972646886
 41
-0.7840286355
 42
0.7840286355
  0
ELLIPSE
  5
36C
100
AcDbEntity
  8
RACCORDO
100
AcDbEllipse
 62
7
  6
CONTINUOUS
 10
-43.998627654
 20
43.998627654
 30
0.0
 11
0.7090462434
 21
-0.7090462434
 31
0.0
 40
0.9972646886
 41
2.3575640181
 42
3.9256212891
  0
ELLIPSE
  5
36D
100
AcDbEntity
  8
0
100
AcDbEllipse
 62
7
  6
CONTINUOUS
 10
33.0489021232
 20
-21.6989021232
 30
0.0
 11
0.5672369947
 21
-0.5672369947
 31
0.0
 40
0.9972646886
 41
-0.7840286355
 42
0.7840286355
  0
ELLIPSE
  5
36E
100
AcDbEntity
  8
0
100
AcDbEllipse
 62
7
  6
CONTINUOUS
 10
33.0489021232
 20
21.6989021232
 30
0.0
 11
0.5672369947
 21
0.5672369947
 31
0.0
 40
0.9972646886
 41
-0.7840286355
 42
0.7840286355
  0
ELLIPSE
  5
36F
100
AcDbEntity
  8
0
100
AcDbEllipse
 62
7
  6
CONTINUOUS
 10
-33.0489021232
 20
21.6989021232
 30
0.0
 11
0.5672369947
 21
-0.5672369947
 31
0.0
 40
0.9972646886
 41
2.3575640181
 42
3.9256212891
  0
ELLIPSE
  5
370
100
AcDbEntity
  8
0
100
AcDbEllipse
 62
7
  6
CONTINUOUS
 10
-33.0489021232
 20
-21.6989021232
 30
0.0
 11
0.5672369947
 21
0.5672369947
 31
0.0
 40
0.9972646886
 41
-3.9256212891
 42
-2.3575640181
  0
ENDSEC
  0
SECTION
  2
OBJECTS
  0
DICTIONARY
  5
C
100
AcDbDictionary
280
0
281
1
  3
ACAD_GROUP
350
D
  3
ACAD_MLINESTYLE
350
17
  3
ACAD_LAYOUT
350
1A
  3
ACAD_PLOTSETTINGS
350
19
  3
ACAD_PLOTSTYLENAME
350
E
  0
DICTIONARY
  5
D
102
{ACAD_REACTORS
330
C
102
}
100
AcDbDictionary
280
0
281
1
  0
ACDBDICTIONARYWDFLT
  5
E
102
{ACAD_REACTORS
330
C
102
}
100
AcDbDictionary
281
1
  3
Normal
350
F
100
AcDbDictionaryWithDefault
340
F
  0
DICTIONARY
  5
17
102
{ACAD_REACTORS
330
C
102
}
100
AcDbDictionary
280
0
281
1
  3
Standard
350
18
  0
DICTIONARY
  5
19
102
{ACAD_REACTORS
330
C
102
}
100
AcDbDictionary
281
1
  0
DICTIONARY
  5
1A
102
{ACAD_REACTORS
330
C
102
}
100
AcDbDictionary
281
1
  3
Model
350
371
  3
Layout1
350
372
  0
ACDBPLACEHOLDER
  5
F
102
{ACAD_REACTORS
330
E
102
}
  0
MLINESTYLE
  5
18
102
{ACAD_REACTORS
330
17
102
}
100
AcDbMlineStyle
  2
STANDARD
 70
0
  3

 62
256
 51
90.0
 52
90.0
 71
2
 49
0.5
 62
256
  6
BYLAYER
 49
-0.5
 62
256
  6
BYLAYER
  0
LAYOUT
  5
371
102
{ACAD_REACTORS
330
1A
102
}
100
AcDbPlotSettings
  1

  2
none_device
  4
ISO_A4_(297.00_x_210.00_MM)
  6

 40
0.0
 41
0.0
 42
0.0
 43
0.0
 44
297.0
 45
210.0
 46
0.0
 47
0.0
 48
0.0
 49
0.0
140
0.0
141
0.0
142
1.0
143
1.0
 70
1024
 72
1
 73
0
 74
0
  7

 75
0
147
1.0
148
0.0
149
0.0
100
AcDbLayout
  1
Model
 70
0
 71
0
 10
0.0
 20
0.0
 11
297.0
 21
210.0
 12
0.0
 22
0.0
 32
0.0
 14
0.0
 24
0.0
 34
0.0
 15
0.0
 25
0.0
 35
0.0
146
0.0
 13
0.0
 23
0.0
 33
0.0
 16
1.0
 26
0.0
 36
0.0
 17
0.0
 27
1.0
 37
0.0
 76
0
330
218
345
0
346
0
  0
LAYOUT
  5
372
102
{ACAD_REACTORS
330
1A
102
}
100
AcDbPlotSettings
  1

  2
none_device
  4
ISO_A4_(297.00_x_210.00_MM)
  6

 40
0.0
 41
0.0
 42
0.0
 43
0.0
 44
297.0
 45
210.0
 46
0.0
 47
0.0
 48
0.0
 49
0.0
140
0.0
141
0.0
142
1.0
143
1.0
 70
0
 72
1
 73
0
 74
0
  7

 75
0
147
1.0
148
0.0
149
0.0
100
AcDbLayout
  1
Layout1
 70
0
 71
1
 10
0.0
 20
0.0
 11
297.0
 21
210.0
 12
0.0
 22
0.0
 32
0.0
 14
0.0
 24
0.0
 34
0.0
 15
0.0
 25
0.0
 35
0.0
146
0.0
 13
0.0
 23
0.0
 33
0.0
 16
1.0
 26
0.0
 36
0.0
 17
0.0
 27
1.0
 37
0.0
 76
0
330
219
345
0
346
0
  0
ENDSEC
  0
EOF
