  0
SECTION
  2
HEADER
  9
$ACADVER
  1
AC1021
  9
$DWGCODEPAGE
  3
ANSI_1252
  9
$EXTMAX
 10
297.0
 20
210.0
 30
0.0
  9
$EXTMIN
 10
0.0
 20
0.0
 30
0.0
  9
$LIMMIN
 10
0.0
 20
0.0
  9
$LIMMAX
 10
297.0
 20
210.0
  9
$VIEWCTR
 10
148.5
 20
105.0
  9
$VIEWSIZE
 40
210.0
  9
$CLAYER
  8
0
  9
$LTSCALE
 40
16.335
  9
$CELTYPE
  6
BYLAYER
  9
$DIMSCALE
 40
1.0
  9
$DIMASZ
 40
3.0
  9
$DIMEXO
 40
0.5
  9
$DIMDLI
 40
11.286
  9
$DIMEXE
 40
1.5
  9
$DIMCEN
 40
2.673
  9
$DIMLFAC
 40
1.0
  9
$DIMBLK
  1
_FILLED
  9
$DIMALT
 70
0
  9
$DIMALTF
 40
25.4
  9
$DIMTXT
 40
3.0
  9
$DIMTOL
 70
1
  9
$DIMLIM
 70
0
  9
$DIMTFAC
 40
1.0
  9
$DIMTP
 40
0.01
  9
$DIMTM
 40
0.01
  9
$DIMGAP
 40
0.625
  9
$DIMDSEP
 70
44
  9
$AUNITS
 70
0
  9
$PDMODE
 70
3
  9
$PDSIZE
 40
3.0
  9
$HANDSEED
  5
426
  9
$TILEMODE
 70
1
  9
$MEASUREMENT
 70
1
  9
$INSUNITS
 70
4
  0
ENDSEC
  0
SECTION
  2
CLASSES
  0
CLASS
  1
ACDBDICTIONARYWDFLT
  2
AcDbDictionaryWithDefault
  3
AutoCAD 2000
 90
0
 91
1
280
0
281
0
  0
CLASS
  1
ACDBPLACEHOLDER
  2
AcDbPlaceHolder
  3
AutoCAD 2000
 90
0
 91
1
280
0
281
0
  0
CLASS
  1
LAYOUT
  2
AcDbLayout
  3
AutoCAD 2000
 90
0
 91
0
280
0
281
0
  0
ENDSEC
  0
SECTION
  2
TABLES
  0
TABLE
  2
VPORT
  5
8
100
AcDbSymbolTable
 70
2
  0
VPORT
  5
1F4
100
AcDbSymbolTableRecord
100
AcDbViewportTableRecord
  2
*ACTIVE
 70
0
 10
0.0
 20
0.0
 11
1.0
 21
1.0
 12
148.5
 22
105.0
 13
0.0
 23
0.0
 14
1.0
 24
1.0
 15
0.0
 25
0.0
 16
0.0
 26
0.0
 36
1.0
 17
0.0
 27
0.0
 37
0.0
 40
210.0
 41
1.4142857143
 42
50.0
 43
0.0
 44
0.0
 50
0.0
 51
0.0
 71
0
 72
100
 73
1
 74
1
 75
0
 76
0
 77
0
 78
0
  0
ENDTAB
  0
TABLE
  2
LTYPE
  5
5
100
AcDbSymbolTable
 70
6
  0
LTYPE
  5
14
100
AcDbSymbolTableRecord
100
AcDbLinetypeTableRecord
  2
BYBLOCK
 70
0
  3

 72
65
 73
0
 40
0.0
  0
LTYPE
  5
15
100
AcDbSymbolTableRecord
100
AcDbLinetypeTableRecord
  2
BYLAYER
 70
0
  3

 72
65
 73
0
 40
0.0
  0
LTYPE
  5
16
100
AcDbSymbolTableRecord
100
AcDbLinetypeTableRecord
  2
CONTINUOUS
 70
64
  3
Solid line
 72
65
 73
0
 40
0.0
  0
LTYPE
  5
1F5
100
AcDbSymbolTableRecord
100
AcDbLinetypeTableRecord
  2
CENTER
 70
64
  3
____ _ ____ _ ____ _ ____ _ ____ _ ____ _ ____
 72
65
 73
4
 40
0.6
 49
0.375
 74
0
 49
-0.075
 74
0
 49
0.075
 74
0
 49
-0.075
 74
0
  0
LTYPE
  5
1F6
100
AcDbSymbolTableRecord
100
AcDbLinetypeTableRecord
  2
HIDDEN
 70
64
  3
- - - - - - - - - - - - - - - - - - - -
 72
65
 73
2
 40
0.2
 49
0.1
 74
0
 49
-0.1
 74
0
  0
LTYPE
  5
1F7
100
AcDbSymbolTableRecord
100
AcDbLinetypeTableRecord
  2
PHANTOM
 70
64
  3
_____ _ _ _____ _ _ _____ _ _ _____
 72
65
 73
6
 40
0.8
 49
0.45
 74
0
 49
-0.05
 74
0
 49
0.1
 74
0
 49
-0.05
 74
0
 49
0.1
 74
0
 49
-0.05
 74
0
  0
LTYPE
  5
1F8
100
AcDbSymbolTableRecord
100
AcDbLinetypeTableRecord
  2
DOT
 70
64
  3
. . . . . . . . . . . . . . . . . . . .
 72
65
 73
2
 40
0.2
 49
0.1
 74
0
 49
-0.1
 74
0
  0
LTYPE
  5
1F9
100
AcDbSymbolTableRecord
100
AcDbLinetypeTableRecord
  2
DASHED
 70
64
  3
- - - - - - - - - - - - - - - - - - - -
 72
65
 73
2
 40
0.2
 49
0.1
 74
0
 49
-0.1
 74
0
  0
ENDTAB
  0
TABLE
  2
LAYER
  5
2
100
AcDbSymbolTable
 70
36
  0
LAYER
  5
10
100
AcDbSymbolTableRecord
100
AcDbLayerTableRecord
  2
0
 70
0
 62
7
  6
CONTINUOUS
370
-3
390
F
  0
LAYER
  5
1FA
100
AcDbSymbolTableRecord
100
AcDbLayerTableRecord
  2
DEFAULT_1
 70
0
 62
7
  6
CENTER
370
-3
390
F
  0
LAYER
  5
1FB
100
AcDbSymbolTableRecord
100
AcDbLayerTableRecord
  2
DEFAULT_2
 70
0
 62
7
  6
HIDDEN
370
-3
390
F
  0
LAYER
  5
1FC
100
AcDbSymbolTableRecord
100
AcDbLayerTableRecord
  2
DEFAULT_3
 70
0
 62
7
  6
PHANTOM
370
-3
390
F
  0
LAYER
  5
1FD
100
AcDbSymbolTableRecord
100
AcDbLayerTableRecord
  2
ASSI
 70
0
 62
7
  6
CONTINUOUS
370
-3
390
F
  0
LAYER
  5
1FE
100
AcDbSymbolTableRecord
100
AcDbLayerTableRecord
  2
COORDINATE
 70
0
 62
7
  6
CONTINUOUS
370
-3
390
F
  0
LAYER
  5
1FF
100
AcDbSymbolTableRecord
100
AcDbLayerTableRecord
  2
COPY_PUBLISH
 70
0
 62
7
  6
CONTINUOUS
370
-3
390
F
  0
LAYER
  5
200
100
AcDbSymbolTableRecord
100
AcDbLayerTableRecord
  2
COSMETICI
 70
0
 62
7
  6
CONTINUOUS
370
-3
390
F
  0
LAYER
  5
201
100
AcDbSymbolTableRecord
100
AcDbLayerTableRecord
  2
COSTOLE_APPOGGIO
 70
0
 62
7
  6
CONTINUOUS
370
-3
390
F
  0
LAYER
  5
202
100
AcDbSymbolTableRecord
100
AcDbLayerTableRecord
  2
CURVA_VERNICIATA
 70
0
 62
7
  6
CONTINUOUS
370
-3
390
F
  0
LAYER
  5
203
100
AcDbSymbolTableRecord
100
AcDbLayerTableRecord
  2
CURVE
 70
0
 62
7
  6
CONTINUOUS
370
-3
390
F
  0
LAYER
  5
204
100
AcDbSymbolTableRecord
100
AcDbLayerTableRecord
  2
DRAFT
 70
0
 62
7
  6
CONTINUOUS
370
-3
390
F
  0
LAYER
  5
205
100
AcDbSymbolTableRecord
100
AcDbLayerTableRecord
  2
IMPORT_IGES
 70
0
 62
7
  6
CONTINUOUS
370
-3
390
F
  0
LAYER
  5
206
100
AcDbSymbolTableRecord
100
AcDbLayerTableRecord
  2
INTF_1
 70
0
 62
7
  6
CONTINUOUS
370
-3
390
F
  0
LAYER
  5
207
100
AcDbSymbolTableRecord
100
AcDbLayerTableRecord
  2
INTF_7
 70
0
 62
7
  6
CONTINUOUS
370
-3
390
F
  0
LAYER
  5
208
100
AcDbSymbolTableRecord
100
AcDbLayerTableRecord
  2
INTF_CYAN
 70
0
 62
7
  6
CONTINUOUS
370
-3
390
F
  0
LAYER
  5
209
100
AcDbSymbolTableRecord
100
AcDbLayerTableRecord
  2
NOTE
 70
0
 62
7
  6
CONTINUOUS
370
-3
390
F
  0
LAYER
  5
20A
100
AcDbSymbolTableRecord
100
AcDbLayerTableRecord
  2
PIANI
 70
0
 62
7
  6
CONTINUOUS
370
-3
390
F
  0
LAYER
  5
20B
100
AcDbSymbolTableRecord
100
AcDbLayerTableRecord
  2
PUNTI
 70
0
 62
7
  6
CONTINUOUS
370
-3
390
F
  0
LAYER
  5
20C
100
AcDbSymbolTableRecord
100
AcDbLayerTableRecord
  2
RACCORDO
 70
0
 62
7
  6
CONTINUOUS
370
-3
390
F
  0
LAYER
  5
20D
100
AcDbSymbolTableRecord
100
AcDbLayerTableRecord
  2
RGB____0____0____0__
 70
0
 62
7
  6
CONTINUOUS
370
-3
390
F
  0
LAYER
  5
20E
100
AcDbSymbolTableRecord
100
AcDbLayerTableRecord
  2
SCRITTA
 70
0
 62
7
  6
CONTINUOUS
370
-3
390
F
  0
LAYER
  5
20F
100
AcDbSymbolTableRecord
100
AcDbLayerTableRecord
  2
SCRITTE_SUPERF
 70
0
 62
7
  6
CONTINUOUS
370
-3
390
F
  0
LAYER
  5
210
100
AcDbSymbolTableRecord
100
AcDbLayerTableRecord
  2
SIMBOLI
 70
0
 62
7
  6
CONTINUOUS
370
-3
390
F
  0
LAYER
  5
211
100
AcDbSymbolTableRecord
100
AcDbLayerTableRecord
  2
SMUSSO
 70
0
 62
7
  6
CONTINUOUS
370
-3
390
F
  0
LAYER
  5
212
100
AcDbSymbolTableRecord
100
AcDbLayerTableRecord
  2
SNAPLINE
 70
0
 62
7
  6
CONTINUOUS
370
-3
390
F
  0
LAYER
  5
213
100
AcDbSymbolTableRecord
100
AcDbLayerTableRecord
  2
SUPERFICI
 70
0
 62
7
  6
CONTINUOUS
370
-3
390
F
  0
LAYER
  5
214
100
AcDbSymbolTableRecord
100
AcDbLayerTableRecord
  2
TRASH
 70
0
 62
7
  6
CONTINUOUS
370
-3
390
F
  0
ENDTAB
  0
TABLE
  2
STYLE
  5
3
100
AcDbSymbolTable
 70
1
  0
STYLE
  5
11
100
AcDbSymbolTableRecord
100
AcDbTextStyleTableRecord
  2
STANDARD
 70
0
 40
0.0
 41
0.8
 50
0.0
 71
0
 42
0.2
  3
txt
  4

  0
STYLE
  5
215
100
AcDbSymbolTableRecord
100
AcDbTextStyleTableRecord
  2
TEXTSTYLE_1
 70
0
 40
0.0
 41
0.8
 50
0.0
 71
0
 42
0.2
  3
gdt
  4

  0
ENDTAB
  0
TABLE
  2
VIEW
  5
6
100
AcDbSymbolTable
 70
0
  0
ENDTAB
  0
TABLE
  2
UCS
  5
7
100
AcDbSymbolTable
 70
0
  0
ENDTAB
  0
TABLE
  2
APPID
  5
9
100
AcDbSymbolTable
 70
1
  0
APPID
  5
216
100
AcDbSymbolTableRecord
100
AcDbRegAppTableRecord
  2
ACAD
 70
0
  0
ENDTAB
  0
TABLE
  2
BLOCK_RECORD
  5
1
100
AcDbSymbolTable
 70
0
  0
BLOCK_RECORD
  5
217
100
AcDbSymbolTableRecord
100
AcDbBlockTableRecord
  2
*Model_Space
  0
BLOCK_RECORD
  5
218
100
AcDbSymbolTableRecord
100
AcDbBlockTableRecord
  2
*Paper_Space
  0
BLOCK_RECORD
  5
219
100
AcDbSymbolTableRecord
100
AcDbBlockTableRecord
  2
_FILLED
  0
BLOCK_RECORD
  5
21A
100
AcDbSymbolTableRecord
100
AcDbBlockTableRecord
  2
*D0
  0
BLOCK_RECORD
  5
21B
100
AcDbSymbolTableRecord
100
AcDbBlockTableRecord
  2
*D1
  0
BLOCK_RECORD
  5
21C
100
AcDbSymbolTableRecord
100
AcDbBlockTableRecord
  2
*D2
  0
BLOCK_RECORD
  5
21D
100
AcDbSymbolTableRecord
100
AcDbBlockTableRecord
  2
*D3
  0
BLOCK_RECORD
  5
21E
100
AcDbSymbolTableRecord
100
AcDbBlockTableRecord
  2
*D4
  0
ENDTAB
  0
TABLE
  2
DIMSTYLE
  5
A
100
AcDbSymbolTable
 70
1
100
AcDbDimStyleTable
 71
0
  0
DIMSTYLE
105
21F
100
AcDbSymbolTableRecord
100
AcDbDimStyleTableRecord
  2
STANDARD
 70
0
  3

  4

 40
1.0
 41
3.0
 42
0.5
 43
0.38
 44
1.5
 45
0.0
 46
0.0
 47
0.01
 48
0.01
140
3.0
141
0.09
142
0.0
143
25.4
144
1.0
145
0.0
146
1.0
147
0.625
 71
1.0
 72
0.0
 73
0
 74
0
 75
0
 76
0
 77
1
 78
8
170
0
171
1
172
0
173
0
174
0
175
0
176
0
177
0
178
0
270
2
271
2
272
2
273
2
274
2
275
0
280
0
281
0
282
0
283
1
284
8
285
0
286
0
287
3
288
0
340
11
278
44
341
219
342
219
343
219
344
219
  0
DIMSTYLE
105
220
100
AcDbSymbolTableRecord
100
AcDbDimStyleTableRecord
  2
DIMSTYLE_1
 70
0
  3

  4

 40
1.0
 41
3.0
 42
0.5
 43
0.38
 44
1.5
 45
0.0
 46
0.0
 47
0.0
 48
0.0
140
3.0
141
0.09
142
0.0
143
25.4
144
1.0
145
0.0
146
1.0
147
0.75
 71
0.0
 72
0.0
 73
0
 74
0
 75
0
 76
0
 77
1
 78
8
170
0
171
1
172
0
173
0
174
0
175
0
176
0
177
0
178
0
270
2
271
1
272
1
273
2
274
2
275
0
280
0
281
0
282
0
283
1
284
8
285
0
286
0
287
3
288
0
340
11
278
44
341
219
342
219
343
219
344
219
  0
DIMSTYLE
105
221
100
AcDbSymbolTableRecord
100
AcDbDimStyleTableRecord
  2
DIMSTYLE_2
 70
0
  3

  4

 40
1.0
 41
3.0
 42
0.5
 43
0.38
 44
1.5
 45
0.0
 46
0.0
 47
0.0
 48
0.0
140
3.0
141
0.09
142
0.0
143
25.4
144
1.0
145
0.0
146
1.0
147
0.75
 71
0.0
 72
0.0
 73
0
 74
0
 75
0
 76
0
 77
1
 78
8
170
0
171
1
172
0
173
0
174
0
175
0
176
0
177
0
178
0
270
2
271
2
272
2
273
2
274
2
275
0
280
0
281
0
282
0
283
1
284
8
285
0
286
0
287
3
288
0
340
11
278
44
341
219
342
219
343
219
344
219
  0
ENDTAB
  0
ENDSEC
  0
SECTION
  2
BLOCKS
  0
BLOCK
  5
20
100
AcDbEntity
  8
0
100
AcDbBlockBegin
  2
*Model_Space
 70
0
 10
0.0
 20
0.0
 30
0.0
  3
*Model_Space
  1

  0
ENDBLK
  5
21
100
AcDbEntity
  8
0
100
AcDbBlockEnd
  0
BLOCK
  5
1C
100
AcDbEntity
  8
0
100
AcDbBlockBegin
  2
*Paper_Space
 70
0
 10
0.0
 20
0.0
 30
0.0
  3
*Paper_Space
  1

  0
ENDBLK
  5
1D
100
AcDbEntity
  8
0
100
AcDbBlockEnd
  0
BLOCK
  5
222
100
AcDbEntity
  8
0
100
AcDbBlockBegin
  2
_FILLED
 70
64
 10
0.0
 20
0.0
  3
_FILLED
  1

  0
SOLID
  5
223
100
AcDbEntity
  8
0
  6
BYBLOCK
 62
0
100
AcDbTrace
 10
0.0
 20
0.0
 11
-1.0
 21
0.3166666667
 12
-1.0
 22
-0.3166666667
 13
-1.0
 23
-0.3166666667
  0
ENDBLK
  5
224
100
AcDbEntity
  8
0
  6
BYBLOCK
 62
0
100
AcDbBlockEnd
  0
BLOCK
  5
225
100
AcDbEntity
  8
0
100
AcDbBlockBegin
 62
7
  6
CONTINUOUS
  2
*D0
 70
65
 10
0.0
 20
0.0
  3
*D0
  1

  0
MTEXT
  5
226
100
AcDbEntity
  8
0
100
AcDbMText
 62
7
  6
CONTINUOUS
  7
STANDARD
 71
2
 72
1
 10
-77.7042911914
 20
68.75
 30
0.0
 11
1.0
 21
0.0
 31
0.0
 44
0.9
  1
8,6
 40
3.0
 41
9.6428571429
  0
LINE
  5
227
100
AcDbEntity
  8
0
100
AcDbLine
 62
7
  6
CONTINUOUS
 10
-81.9892911914
 20
0.5
 11
-81.9892911914
 21
66.5
  0
LINE
  5
228
100
AcDbEntity
  8
0
100
AcDbLine
 62
7
  6
CONTINUOUS
 10
-73.4192911914
 20
-3.3526539614
 11
-73.4192911914
 21
66.5
  0
LINE
  5
229
100
AcDbEntity
  8
0
100
AcDbLine
 62
7
  6
CONTINUOUS
 10
-81.9892911914
 20
65.0
 11
-85.9892911914
 21
65.0
  0
LINE
  5
22A
100
AcDbEntity
  8
0
100
AcDbLine
 62
7
  6
CONTINUOUS
 10
-85.9892911914
 20
65.0
 11
-77.7042911914
 21
65.0
  0
LINE
  5
22B
100
AcDbEntity
  8
0
100
AcDbLine
 62
7
  6
CONTINUOUS
 10
-73.4192911914
 20
65.0
 11
-69.4192911914
 21
65.0
  0
LINE
  5
22C
100
AcDbEntity
  8
0
100
AcDbLine
 62
7
  6
CONTINUOUS
 10
-69.4192911914
 20
65.0
 11
-77.7042911914
 21
65.0
  0
INSERT
  5
22D
100
AcDbEntity
  8
0
100
AcDbBlockReference
 62
7
  6
CONTINUOUS
  2
_FILLED
 10
-81.9892911914
 20
65.0
 41
3.0
 42
3.0
 43
3.0
  0
INSERT
  5
22E
100
AcDbEntity
  8
0
100
AcDbBlockReference
 62
7
  6
CONTINUOUS
  2
_FILLED
 10
-73.4192911914
 20
65.0
 41
3.0
 42
3.0
 43
3.0
 50
180.0
  0
ENDBLK
  5
22F
100
AcDbEntity
  8
0
  6
BYBLOCK
 62
0
100
AcDbBlockEnd
  0
BLOCK
  5
230
100
AcDbEntity
  8
0
100
AcDbBlockBegin
 62
7
  6
CONTINUOUS
  2
*D1
 70
65
 10
0.0
 20
0.0
  3
*D1
  1

  0
MTEXT
  5
231
100
AcDbEntity
  8
0
100
AcDbMText
 62
7
  6
CONTINUOUS
  7
STANDARD
 71
2
 72
1
 10
0.0
 20
76.75
 30
0.0
 11
1.0
 21
0.0
 31
0.0
 44
0.9
  1
90
 40
3.0
 41
7.0714285714
  0
LINE
  5
232
100
AcDbEntity
  8
0
100
AcDbLine
 62
7
  6
CONTINUOUS
 10
-45.0
 20
44.7
 11
-45.0
 21
74.5
  0
LINE
  5
233
100
AcDbEntity
  8
0
100
AcDbLine
 62
7
  6
CONTINUOUS
 10
45.0
 20
44.7
 11
45.0
 21
74.5
  0
LINE
  5
234
100
AcDbEntity
  8
0
100
AcDbLine
 62
7
  6
CONTINUOUS
 10
-45.0
 20
73.0
 11
0.0
 21
73.0
  0
LINE
  5
235
100
AcDbEntity
  8
0
100
AcDbLine
 62
7
  6
CONTINUOUS
 10
45.0
 20
73.0
 11
0.0
 21
73.0
  0
INSERT
  5
236
100
AcDbEntity
  8
0
100
AcDbBlockReference
 62
7
  6
CONTINUOUS
  2
_FILLED
 10
-45.0
 20
73.0
 41
3.0
 42
3.0
 43
3.0
 50
180.0
  0
INSERT
  5
237
100
AcDbEntity
  8
0
100
AcDbBlockReference
 62
7
  6
CONTINUOUS
  2
_FILLED
 10
45.0
 20
73.0
 41
3.0
 42
3.0
 43
3.0
 50
0.0
  0
ENDBLK
  5
238
100
AcDbEntity
  8
0
  6
BYBLOCK
 62
0
100
AcDbBlockEnd
  0
BLOCK
  5
239
100
AcDbEntity
  8
0
100
AcDbBlockBegin
 62
7
  6
CONTINUOUS
  2
*D2
 70
65
 10
0.0
 20
0.0
  3
*D2
  1

  0
MTEXT
  5
23A
100
AcDbEntity
  8
0
100
AcDbMText
 62
7
  6
CONTINUOUS
  7
STANDARD
 71
2
 72
1
 10
82.25
 20
-0.0
 30
0.0
 11
0.0
 21
1.0
 31
0.0
 44
0.9
  1
90
 40
3.0
 41
7.0714285714
  0
LINE
  5
23B
100
AcDbEntity
  8
0
100
AcDbLine
 62
7
  6
CONTINUOUS
 10
44.7
 20
45.0
 11
87.5
 21
45.0
  0
LINE
  5
23C
100
AcDbEntity
  8
0
100
AcDbLine
 62
7
  6
CONTINUOUS
 10
44.7
 20
-45.0
 11
87.5
 21
-45.0
  0
LINE
  5
23D
100
AcDbEntity
  8
0
100
AcDbLine
 62
7
  6
CONTINUOUS
 10
86.0
 20
45.0
 11
86.0
 21
-0.0
  0
LINE
  5
23E
100
AcDbEntity
  8
0
100
AcDbLine
 62
7
  6
CONTINUOUS
 10
86.0
 20
-45.0
 11
86.0
 21
-0.0
  0
INSERT
  5
23F
100
AcDbEntity
  8
0
100
AcDbBlockReference
 62
7
  6
CONTINUOUS
  2
_FILLED
 10
86.0
 20
45.0
 41
3.0
 42
3.0
 43
3.0
 50
90.0
  0
INSERT
  5
240
100
AcDbEntity
  8
0
100
AcDbBlockReference
 62
7
  6
CONTINUOUS
  2
_FILLED
 10
86.0
 20
-45.0
 41
3.0
 42
3.0
 43
3.0
 50
270.0
  0
ENDBLK
  5
241
100
AcDbEntity
  8
0
  6
BYBLOCK
 62
0
100
AcDbBlockEnd
  0
BLOCK
  5
242
100
AcDbEntity
  8
0
100
AcDbBlockBegin
 62
7
  6
CONTINUOUS
  2
*D3
 70
65
 10
0.0
 20
0.0
  3
*D3
  1

  0
MTEXT
  5
243
100
AcDbEntity
  8
0
100
AcDbMText
 62
7
  6
CONTINUOUS
  7
STANDARD
 71
2
 72
1
 10
74.25
 20
-0.0
 30
0.0
 11
0.0
 21
1.0
 31
0.0
 44
0.9
  1
45,4
 40
3.0
 41
12.8571428571
  0
LINE
  5
244
100
AcDbEntity
  8
0
100
AcDbLine
 62
7
  6
CONTINUOUS
 10
34.1494952776
 20
-22.7
 11
79.5
 21
-22.7
  0
LINE
  5
245
100
AcDbEntity
  8
0
100
AcDbLine
 62
7
  6
CONTINUOUS
 10
34.1494952776
 20
22.7
 11
79.5
 21
22.7
  0
LINE
  5
246
100
AcDbEntity
  8
0
100
AcDbLine
 62
7
  6
CONTINUOUS
 10
78.0
 20
-22.7
 11
78.0
 21
-0.0
  0
LINE
  5
247
100
AcDbEntity
  8
0
100
AcDbLine
 62
7
  6
CONTINUOUS
 10
78.0
 20
22.7
 11
78.0
 21
-0.0
  0
INSERT
  5
248
100
AcDbEntity
  8
0
100
AcDbBlockReference
 62
7
  6
CONTINUOUS
  2
_FILLED
 10
78.0
 20
-22.7
 41
3.0
 42
3.0
 43
3.0
 50
270.0
  0
INSERT
  5
249
100
AcDbEntity
  8
0
100
AcDbBlockReference
 62
7
  6
CONTINUOUS
  2
_FILLED
 10
78.0
 20
22.7
 41
3.0
 42
3.0
 43
3.0
 50
90.0
  0
ENDBLK
  5
24A
100
AcDbEntity
  8
0
  6
BYBLOCK
 62
0
100
AcDbBlockEnd
  0
BLOCK
  5
24B
100
AcDbEntity
  8
0
100
AcDbBlockBegin
 62
7
  6
CONTINUOUS
  2
*D4
 70
65
 10
0.0
 20
0.0
  3
*D4
  1

  0
MTEXT
  5
24C
100
AcDbEntity
  8
0
100
AcDbMText
 62
7
  6
CONTINUOUS
  7
STANDARD
 71
2
 72
1
 10
-0.0
 20
68.75
 30
0.0
 11
1.0
 21
0.0
 31
0.0
 44
0.9
  1
68,1
 40
3.0
 41
12.2142857143
  0
LINE
  5
24D
100
AcDbEntity
  8
0
100
AcDbLine
 62
7
  6
CONTINUOUS
 10
34.0500046161
 20
22.8005575342
 11
34.0500046161
 21
66.5
  0
LINE
  5
24E
100
AcDbEntity
  8
0
100
AcDbLine
 62
7
  6
CONTINUOUS
 10
-34.0500046161
 20
22.8005575342
 11
-34.0500046161
 21
66.5
  0
LINE
  5
24F
100
AcDbEntity
  8
0
100
AcDbLine
 62
7
  6
CONTINUOUS
 10
34.0500046161
 20
65.0
 11
-0.0
 21
65.0
  0
LINE
  5
250
100
AcDbEntity
  8
0
100
AcDbLine
 62
7
  6
CONTINUOUS
 10
-34.0500046161
 20
65.0
 11
-0.0
 21
65.0
  0
INSERT
  5
251
100
AcDbEntity
  8
0
100
AcDbBlockReference
 62
7
  6
CONTINUOUS
  2
_FILLED
 10
34.0500046161
 20
65.0
 41
3.0
 42
3.0
 43
3.0
  0
INSERT
  5
252
100
AcDbEntity
  8
0
100
AcDbBlockReference
 62
7
  6
CONTINUOUS
  2
_FILLED
 10
-34.0500046161
 20
65.0
 41
3.0
 42
3.0
 43
3.0
 50
180.0
  0
ENDBLK
  5
253
100
AcDbEntity
  8
0
  6
BYBLOCK
 62
0
100
AcDbBlockEnd
  0
ENDSEC
  0
SECTION
  2
ENTITIES
  0
DIMENSION
  5
254
100
AcDbEntity
  8
0
100
AcDbDimension
 62
7
  6
CONTINUOUS
  2
*D0
 10
-73.4192911914
 20
65.0
 11
-78.1328639603
 21
65.0
 70
160
 71
2
 42
8.57
  3
DIMSTYLE_1
100
AcDbAlignedDimension
 13
-81.9892911914
 23
-0.0
 14
-73.4192911914
 24
-3.8526539614
100
AcDbRotatedDimension
  0
DIMENSION
  5
255
100
AcDbEntity
  8
0
100
AcDbDimension
 62
7
  6
CONTINUOUS
  2
*D1
 10
45.0
 20
73.0
 11
-0.4285713773
 21
73.0
 70
160
 71
2
 42
90.0
  3
DIMSTYLE_2
100
AcDbAlignedDimension
 13
-45.0
 23
44.2
 14
45.0
 24
44.2
100
AcDbRotatedDimension
  0
DIMENSION
  5
256
100
AcDbEntity
  8
0
100
AcDbDimension
 62
7
  6
CONTINUOUS
  2
*D2
 10
86.0
 20
-45.0
 11
86.0
 21
-0.4285700727
 70
160
 71
2
 42
90.0
  3
DIMSTYLE_2
100
AcDbAlignedDimension
 13
44.2
 23
45.0
 14
44.2
 24
-45.0
 50
270.0
100
AcDbRotatedDimension
  0
DIMENSION
  5
257
100
AcDbEntity
  8
0
100
AcDbDimension
 62
7
  6
CONTINUOUS
  2
*D3
 10
78.0
 20
22.7
 11
78.0
 21
-0.4285699833
 70
160
 71
2
 42
45.4
  3
DIMSTYLE_2
100
AcDbAlignedDimension
 13
33.6494952776
 23
-22.7
 14
33.6494952776
 24
22.7
 50
90.0
100
AcDbRotatedDimension
  0
DIMENSION
  5
258
100
AcDbEntity
  8
0
100
AcDbDimension
 62
7
  6
CONTINUOUS
  2
*D4
 10
-34.0500046161
 20
65.0
 11
-0.4285713773
 21
65.0
 70
160
 71
2
 42
68.1000092323
  3
DIMSTYLE_2
100
AcDbAlignedDimension
 13
34.0500046161
 23
22.3005575342
 14
-34.0500046161
 24
22.3005575342
 50
180.0
100
AcDbRotatedDimension
  0
LWPOLYLINE
  5
259
100
AcDbEntity
  8
RACCORDO
100
AcDbPolyline
 62
253
  6
CONTINUOUS
 90
19
 70
0
 10
-44.8893403208
 20
44.0903569212
 10
-44.8840101121
 20
44.0976424249
 10
-44.8753414985
 20
44.1048245797
 10
-44.8633932162
 20
44.1118547211
 10
-44.8482462232
 20
44.1186852144
 10
-44.8300031513
 20
44.1252697779
 10
-44.8087876105
 20
44.1315637961
 10
-44.7847433513
 20
44.1375246222
 10
-44.7580332908
 20
44.1431118672
 10
-44.7288384088
 20
44.1482876733
 10
-44.6973565217
 20
44.1530169703
 10
-44.6638009419
 20
44.1572677139
 10
-44.6283990325
 20
44.161011102
 10
-44.5913906669
 20
44.1642217704
 10
-44.5530266034
 20
44.1668779645
 10
-44.5135667859
 20
44.1689616866
 10
-44.4732785833
 20
44.1704588179
 10
-44.4324349769
 20
44.1713592145
 10
-44.3913127116
 20
44.1716567756
  0
LWPOLYLINE
  5
25A
100
AcDbEntity
  8
ASSI
100
AcDbPolyline
 62
253
  6
CONTINUOUS
 90
19
 70
0
 10
-44.8893403208
 20
44.0903569212
 10
-44.8840101121
 20
44.0976424249
 10
-44.8753414985
 20
44.1048245797
 10
-44.8633932162
 20
44.1118547211
 10
-44.8482462232
 20
44.1186852144
 10
-44.8300031513
 20
44.1252697779
 10
-44.8087876105
 20
44.1315637961
 10
-44.7847433513
 20
44.1375246222
 10
-44.7580332908
 20
44.1431118672
 10
-44.7288384088
 20
44.1482876733
 10
-44.6973565217
 20
44.1530169703
 10
-44.6638009419
 20
44.1572677139
 10
-44.6283990325
 20
44.161011102
 10
-44.5913906669
 20
44.1642217704
 10
-44.5530266034
 20
44.1668779645
 10
-44.5135667859
 20
44.1689616866
 10
-44.4732785833
 20
44.1704588179
 10
-44.4324349769
 20
44.1713592145
 10
-44.3913127116
 20
44.1716567756
  0
LWPOLYLINE
  5
25B
100
AcDbEntity
  8
RACCORDO
100
AcDbPolyline
 62
253
  6
CONTINUOUS
 90
19
 70
0
 10
-44.8893468237
 20
-44.0903570254
 10
-44.8840165058
 20
-44.0976425057
 10
-44.8753477366
 20
-44.1048246393
 10
-44.8633992537
 20
-44.1118547616
 10
-44.8482520174
 20
-44.118685238
 10
-44.830008662
 20
-44.1252697869
 10
-44.8087928003
 20
-44.1315637927
 10
-44.7847481865
 20
-44.1375246087
 10
-44.7580377414
 20
-44.1431118457
 10
-44.728842449
 20
-44.1482876458
 10
-44.6973601302
 20
-44.1530169389
 10
-44.6638041022
 20
-44.1572676805
 10
-44.6284017331
 20
-44.1610110685
 10
-44.5913929015
 20
-44.1642217384
 10
-44.5530283711
 20
-44.1668779355
 10
-44.5135680913
 20
-44.1689616619
 10
-44.4732794363
 20
-44.1704587989
 10
-44.432435393
 20
-44.1713592022
 10
-44.3913127116
 20
-44.1716567708
  0
LWPOLYLINE
  5
25C
100
AcDbEntity
  8
ASSI
100
AcDbPolyline
 62
253
  6
CONTINUOUS
 90
19
 70
0
 10
-44.8893468237
 20
-44.0903570254
 10
-44.8840165058
 20
-44.0976425057
 10
-44.8753477366
 20
-44.1048246393
 10
-44.8633992537
 20
-44.1118547616
 10
-44.8482520174
 20
-44.118685238
 10
-44.830008662
 20
-44.1252697869
 10
-44.8087928003
 20
-44.1315637927
 10
-44.7847481865
 20
-44.1375246087
 10
-44.7580377414
 20
-44.1431118457
 10
-44.728842449
 20
-44.1482876458
 10
-44.6973601302
 20
-44.1530169389
 10
-44.6638041022
 20
-44.1572676805
 10
-44.6284017331
 20
-44.1610110685
 10
-44.5913929015
 20
-44.1642217384
 10
-44.5530283711
 20
-44.1668779355
 10
-44.5135680913
 20
-44.1689616619
 10
-44.4732794363
 20
-44.1704587989
 10
-44.432435393
 20
-44.1713592022
 10
-44.3913127116
 20
-44.1716567708
  0
LWPOLYLINE
  5
25D
100
AcDbEntity
  8
RACCORDO
100
AcDbPolyline
 62
253
  6
CONTINUOUS
 90
25
 70
0
 10
-44.8893468269
 20
44.0903570156
 10
-44.8869177887
 20
44.1423284223
 10
-44.8811521386
 20
44.1939910241
 10
-44.8720805067
 20
44.2451310513
 10
-44.8597493644
 20
44.2955368233
 10
-44.8442145837
 20
44.3450013124
 10
-44.8255398056
 20
44.393322571
 10
-44.8038060956
 20
44.4403044488
 10
-44.7791097476
 20
44.4857515167
 10
-44.7515551409
 20
44.5294714855
 10
-44.7212624568
 20
44.5712838139
 10
-44.6883611219
 20
44.6110203695
 10
-44.6529856944
 20
44.6485193913
 10
-44.6152867228
 20
44.6836272453
 10
-44.5754230647
 20
44.7162025958
 10
-44.5335541201
 20
44.7461154949
 10
-44.489852618
 20
44.7732446239
 10
-44.4445030981
 20
44.7974785099
 10
-44.397692627
 20
44.8187179049
 10
-44.349620898
 20
44.8368742121
 10
-44.3004826721
 20
44.8518766351
 10
-44.2504639803
 20
44.8636681166
 10
-44.1997652938
 20
44.8721985613
 10
-44.1486017789
 20
44.8774287644
 10
-44.0971848203
 20
44.8793346272
  0
LWPOLYLINE
  5
25E
100
AcDbEntity
  8
ASSI
100
AcDbPolyline
 62
253
  6
CONTINUOUS
 90
25
 70
0
 10
-44.8893468269
 20
44.0903570156
 10
-44.8869177887
 20
44.1423284223
 10
-44.8811521386
 20
44.1939910241
 10
-44.8720805067
 20
44.2451310513
 10
-44.8597493644
 20
44.2955368233
 10
-44.8442145837
 20
44.3450013124
 10
-44.8255398056
 20
44.393322571
 10
-44.8038060956
 20
44.4403044488
 10
-44.7791097476
 20
44.4857515167
 10
-44.7515551409
 20
44.5294714855
 10
-44.7212624568
 20
44.5712838139
 10
-44.6883611219
 20
44.6110203695
 10
-44.6529856944
 20
44.6485193913
 10
-44.6152867228
 20
44.6836272453
 10
-44.5754230647
 20
44.7162025958
 10
-44.5335541201
 20
44.7461154949
 10
-44.489852618
 20
44.7732446239
 10
-44.4445030981
 20
44.7974785099
 10
-44.397692627
 20
44.8187179049
 10
-44.349620898
 20
44.8368742121
 10
-44.3004826721
 20
44.8518766351
 10
-44.2504639803
 20
44.8636681166
 10
-44.1997652938
 20
44.8721985613
 10
-44.1486017789
 20
44.8774287644
 10
-44.0971848203
 20
44.8793346272
  0
LWPOLYLINE
  5
25F
100
AcDbEntity
  8
RACCORDO
100
AcDbPolyline
 62
253
  6
CONTINUOUS
 90
25
 70
0
 10
-44.0971848203
 20
-44.4713953657
 10
-44.1165830015
 20
-44.4707512584
 10
-44.1357376768
 20
-44.4688618444
 10
-44.1546488462
 20
-44.4657271159
 10
-44.1733991716
 20
-44.4613244512
 10
-44.1919059911
 20
-44.4556764406
 10
-44.2099213189
 20
-44.4488508884
 10
-44.2274325809
 20
-44.4408337893
 10
-44.2444523511
 20
-44.4316390902
 10
-44.2607703666
 20
-44.421376521
 10
-44.2763787018
 20
-44.410032491
 10
-44.2912852822
 20
-44.397620514
 10
-44.3053036219
 20
-44.3842909812
 10
-44.3184236261
 20
-44.3700311053
 10
-44.3306553896
 20
-44.3548535894
 10
-44.34184271
 20
-44.3389470711
 10
-44.351971709
 20
-44.3223029393
 10
-44.3610562649
 20
-44.3049297266
 10
-44.3689818099
 20
-44.2870418046
 10
-44.3757343769
 20
-44.2686245406
 10
-44.3813279329
 20
-44.2496925055
 10
-44.385689811
 20
-44.2305039026
 10
-44.3887957891
 20
-44.2111447962
 10
-44.3906700892
 20
-44.1915290937
 10
-44.3913127116
 20
-44.1716567788
  0
LWPOLYLINE
  5
260
100
AcDbEntity
  8
ASSI
100
AcDbPolyline
 62
253
  6
CONTINUOUS
 90
25
 70
0
 10
-44.0971848203
 20
-44.4713953657
 10
-44.1165830015
 20
-44.4707512584
 10
-44.1357376768
 20
-44.4688618444
 10
-44.1546488462
 20
-44.4657271159
 10
-44.1733991716
 20
-44.4613244512
 10
-44.1919059911
 20
-44.4556764406
 10
-44.2099213189
 20
-44.4488508884
 10
-44.2274325809
 20
-44.4408337893
 10
-44.2444523511
 20
-44.4316390902
 10
-44.2607703666
 20
-44.421376521
 10
-44.2763787018
 20
-44.410032491
 10
-44.2912852822
 20
-44.397620514
 10
-44.3053036219
 20
-44.3842909812
 10
-44.3184236261
 20
-44.3700311053
 10
-44.3306553896
 20
-44.3548535894
 10
-44.34184271
 20
-44.3389470711
 10
-44.351971709
 20
-44.3223029393
 10
-44.3610562649
 20
-44.3049297266
 10
-44.3689818099
 20
-44.2870418046
 10
-44.3757343769
 20
-44.2686245406
 10
-44.3813279329
 20
-44.2496925055
 10
-44.385689811
 20
-44.2305039026
 10
-44.3887957891
 20
-44.2111447962
 10
-44.3906700892
 20
-44.1915290937
 10
-44.3913127116
 20
-44.1716567788
  0
LWPOLYLINE
  5
261
100
AcDbEntity
  8
RACCORDO
100
AcDbPolyline
 62
253
  6
CONTINUOUS
 90
25
 70
0
 10
-44.0971848203
 20
-44.8793346272
 10
-44.1486013926
 20
-44.8774287889
 10
-44.1997646991
 20
-44.8721986336
 10
-44.2504633542
 20
-44.8636682256
 10
-44.3004822824
 20
-44.8518767041
 10
-44.3496209034
 20
-44.8368741508
 10
-44.3976928974
 20
-44.8187177257
 10
-44.4445034048
 20
-44.7974783128
 10
-44.4898528527
 20
-44.7732444855
 10
-44.5335542298
 20
-44.746115473
 10
-44.5754230176
 20
-44.7162027591
 10
-44.6152864855
 20
-44.6836276719
 10
-44.6529852476
 20
-44.6485201194
 10
-44.6883604285
 20
-44.6110214431
 10
-44.7212615166
 20
-44.5712852772
 10
-44.7515540321
 20
-44.529473316
 10
-44.7791085412
 20
-44.4857536775
 10
-44.8038048556
 20
-44.4403068967
 10
-44.8255386436
 20
-44.3933251905
 10
-44.8442136031
 20
-44.3450039716
 10
-44.8597486215
 20
-44.2955393815
 10
-44.8720800203
 20
-44.2451333013
 10
-44.8811518859
 20
-44.193992734
 10
-44.886917711
 20
-44.1423293805
 10
-44.8893468269
 20
-44.0903570155
  0
LWPOLYLINE
  5
262
100
AcDbEntity
  8
ASSI
100
AcDbPolyline
 62
253
  6
CONTINUOUS
 90
25
 70
0
 10
-44.0971848203
 20
-44.8793346272
 10
-44.1486013926
 20
-44.8774287889
 10
-44.1997646991
 20
-44.8721986336
 10
-44.2504633542
 20
-44.8636682256
 10
-44.3004822824
 20
-44.8518767041
 10
-44.3496209034
 20
-44.8368741508
 10
-44.3976928974
 20
-44.8187177257
 10
-44.4445034048
 20
-44.7974783128
 10
-44.4898528527
 20
-44.7732444855
 10
-44.5335542298
 20
-44.746115473
 10
-44.5754230176
 20
-44.7162027591
 10
-44.6152864855
 20
-44.6836276719
 10
-44.6529852476
 20
-44.6485201194
 10
-44.6883604285
 20
-44.6110214431
 10
-44.7212615166
 20
-44.5712852772
 10
-44.7515540321
 20
-44.529473316
 10
-44.7791085412
 20
-44.4857536775
 10
-44.8038048556
 20
-44.4403068967
 10
-44.8255386436
 20
-44.3933251905
 10
-44.8442136031
 20
-44.3450039716
 10
-44.8597486215
 20
-44.2955393815
 10
-44.8720800203
 20
-44.2451333013
 10
-44.8811518859
 20
-44.193992734
 10
-44.886917711
 20
-44.1423293805
 10
-44.8893468269
 20
-44.0903570155
  0
LINE
  5
263
100
AcDbEntity
  8
RACCORDO
100
AcDbLine
 62
7
  6
CONTINUOUS
 10
-45.0
 20
-44.2
 11
-45.0
 21
-22.5146222223
  0
LINE
  5
264
100
AcDbEntity
  8
DRAFT
100
AcDbLine
 62
7
  6
CONTINUOUS
 10
-45.0
 20
-22.5146222223
 11
-45.0
 21
22.5146222223
  0
LINE
  5
265
100
AcDbEntity
  8
RACCORDO
100
AcDbLine
 62
7
  6
CONTINUOUS
 10
-45.0
 20
22.5146222223
 11
-45.0
 21
44.2
  0
LINE
  5
266
100
AcDbEntity
  8
ASSI
100
AcDbLine
 62
7
  6
CONTINUOUS
 10
-45.0
 20
-44.2
 11
-45.0
 21
44.2
  0
LINE
  5
267
100
AcDbEntity
  8
RACCORDO
100
AcDbLine
 62
253
  6
CONTINUOUS
 10
-44.8893468268
 20
-44.0903570154
 11
-44.891177473
 21
-7.5076630318
  0
LINE
  5
268
100
AcDbEntity
  8
ASSI
100
AcDbLine
 62
253
  6
CONTINUOUS
 10
-44.8893468268
 20
-44.0903570154
 11
-44.891177473
 21
-7.5076630318
  0
LINE
  5
269
100
AcDbEntity
  8
RACCORDO
100
AcDbLine
 62
253
  6
CONTINUOUS
 10
-44.3913127116
 20
-44.1716567788
 11
-44.3930806632
 21
-7.5152847045
  0
LINE
  5
26A
100
AcDbEntity
  8
ASSI
100
AcDbLine
 62
253
  6
CONTINUOUS
 10
-44.3913127116
 20
-44.1716567788
 11
-44.3930806632
 21
-7.5152847045
  0
LINE
  5
26B
100
AcDbEntity
  8
RACCORDO
100
AcDbLine
 62
253
  6
CONTINUOUS
 10
-44.0971848203
 20
44.8793346272
 11
-44.0971848203
 21
44.4713953657
  0
LINE
  5
26C
100
AcDbEntity
  8
ASSI
100
AcDbLine
 62
253
  6
CONTINUOUS
 10
-44.0971848203
 20
44.8793346272
 11
-44.0971848203
 21
44.4713953657
  0
LINE
  5
26D
100
AcDbEntity
  8
RACCORDO
100
AcDbLine
 62
253
  6
CONTINUOUS
 10
-44.0971848203
 20
-44.8793346272
 11
-44.0971848203
 21
-44.4713953657
  0
LINE
  5
26E
100
AcDbEntity
  8
ASSI
100
AcDbLine
 62
253
  6
CONTINUOUS
 10
-44.0971848203
 20
-44.8793346272
 11
-44.0971848203
 21
-44.4713953657
  0
LWPOLYLINE
  5
26F
100
AcDbEntity
  8
RACCORDO
100
AcDbPolyline
 62
253
  6
CONTINUOUS
 90
3
 70
0
 10
-44.891177473
 20
-7.5076630318
 10
-44.8908455727
 20
27.3826477792
 10
-44.8893468268
 20
44.0903570154
  0
LWPOLYLINE
  5
270
100
AcDbEntity
  8
ASSI
100
AcDbPolyline
 62
253
  6
CONTINUOUS
 90
3
 70
0
 10
-44.891177473
 20
-7.5076630318
 10
-44.8908455727
 20
27.3826477792
 10
-44.8893468268
 20
44.0903570154
  0
LWPOLYLINE
  5
271
100
AcDbEntity
  8
RACCORDO
100
AcDbPolyline
 62
253
  6
CONTINUOUS
 90
3
 70
0
 10
-44.3930806632
 20
-7.5152847045
 10
-44.3927536001
 20
27.4186119366
 10
-44.3913127116
 20
44.1716567788
  0
LWPOLYLINE
  5
272
100
AcDbEntity
  8
ASSI
100
AcDbPolyline
 62
253
  6
CONTINUOUS
 90
3
 70
0
 10
-44.3930806632
 20
-7.5152847045
 10
-44.3927536001
 20
27.4186119366
 10
-44.3913127116
 20
44.1716567788
  0
LWPOLYLINE
  5
273
100
AcDbEntity
  8
RACCORDO
100
AcDbPolyline
 62
253
  6
CONTINUOUS
 90
25
 70
0
 10
-44.3913127116
 20
44.1716567788
 10
-44.3906693967
 20
44.191532647
 10
-44.3887946472
 20
44.2111505192
 10
-44.3856884629
 20
44.2305104117
 10
-44.3813265614
 20
44.249698002
 10
-44.3757332253
 20
44.2686276412
 10
-44.3689813017
 20
44.2870423721
 10
-44.361056897
 20
44.3049279446
 10
-44.3519739049
 20
44.3222986706
 10
-44.3418468541
 20
44.3389404619
 10
-44.3306625325
 20
44.354844381
 10
-44.3184341523
 20
44.3700194438
 10
-44.305315878
 20
44.3842785115
 10
-44.2912964182
 20
44.3976100839
 10
-44.2763870644
 20
44.410025745
 10
-44.2607758555
 20
44.4213729938
 10
-44.2444552717
 20
44.4316376177
 10
-44.2274328329
 20
44.4408339062
 10
-44.2099191378
 20
44.4488521154
 10
-44.1919013109
 20
44.455678212
 10
-44.1733922278
 20
44.4613262877
 10
-44.1546411146
 20
44.4657287833
 10
-44.1357310466
 20
44.4688631901
 10
-44.1165789485
 20
44.4707520484
 10
-44.0971848203
 20
44.4713953657
  0
LWPOLYLINE
  5
274
100
AcDbEntity
  8
ASSI
100
AcDbPolyline
 62
253
  6
CONTINUOUS
 90
25
 70
0
 10
-44.3913127116
 20
44.1716567788
 10
-44.3906693967
 20
44.191532647
 10
-44.3887946472
 20
44.2111505192
 10
-44.3856884629
 20
44.2305104117
 10
-44.3813265614
 20
44.249698002
 10
-44.3757332253
 20
44.2686276412
 10
-44.3689813017
 20
44.2870423721
 10
-44.361056897
 20
44.3049279446
 10
-44.3519739049
 20
44.3222986706
 10
-44.3418468541
 20
44.3389404619
 10
-44.3306625325
 20
44.354844381
 10
-44.3184341523
 20
44.3700194438
 10
-44.305315878
 20
44.3842785115
 10
-44.2912964182
 20
44.3976100839
 10
-44.2763870644
 20
44.410025745
 10
-44.2607758555
 20
44.4213729938
 10
-44.2444552717
 20
44.4316376177
 10
-44.2274328329
 20
44.4408339062
 10
-44.2099191378
 20
44.4488521154
 10
-44.1919013109
 20
44.455678212
 10
-44.1733922278
 20
44.4613262877
 10
-44.1546411146
 20
44.4657287833
 10
-44.1357310466
 20
44.4688631901
 10
-44.1165789485
 20
44.4707520484
 10
-44.0971848203
 20
44.4713953657
  0
LINE
  5
275
100
AcDbEntity
  8
RACCORDO
100
AcDbLine
 62
7
  6
CONTINUOUS
 10
44.2
 20
-45.0
 11
-44.2
 21
-45.0
  0
LINE
  5
276
100
AcDbEntity
  8
ASSI
100
AcDbLine
 62
7
  6
CONTINUOUS
 10
44.2
 20
-45.0
 11
-44.2
 21
-45.0
  0
LINE
  5
277
100
AcDbEntity
  8
RACCORDO
100
AcDbLine
 62
253
  6
CONTINUOUS
 10
44.0971848203
 20
-44.8793346272
 11
-44.0971848203
 21
-44.8793346272
  0
LINE
  5
278
100
AcDbEntity
  8
ASSI
100
AcDbLine
 62
253
  6
CONTINUOUS
 10
44.0971848203
 20
-44.8793346272
 11
-44.0971848203
 21
-44.8793346272
  0
LINE
  5
279
100
AcDbEntity
  8
RACCORDO
100
AcDbLine
 62
253
  6
CONTINUOUS
 10
44.0971848203
 20
-44.4713953657
 11
-44.0971848203
 21
-44.4713953657
  0
LINE
  5
27A
100
AcDbEntity
  8
ASSI
100
AcDbLine
 62
253
  6
CONTINUOUS
 10
44.0971848203
 20
-44.4713953657
 11
-44.0971848203
 21
-44.4713953657
  0
LWPOLYLINE
  5
27B
100
AcDbEntity
  8
RACCORDO
100
AcDbPolyline
 62
7
  6
CONTINUOUS
 90
22
 70
0
 10
-34.0500000078
 20
-22.3005575342
 10
-34.0488339641
 20
-22.3305635
 10
-34.045514901
 20
-22.36007034
 10
-34.0400428185
 20
-22.389078059
 10
-34.0323792395
 20
-22.417718057
 10
-34.0225626412
 20
-22.4458589424
 10
-34.0107084545
 20
-22.4731065368
 10
-33.9967832911
 20
-22.4994773805
 10
-33.9808205392
 20
-22.5249549488
 10
-33.9630357942
 20
-22.5490954724
 10
-33.9433469536
 20
-22.5719078372
 10
-33.9218361199
 20
-22.5933831782
 10
-33.8989651959
 20
-22.6130511062
 10
-33.8747288468
 20
-22.6308336577
 10
-33.8491324074
 20
-22.6468088193
 10
-33.822653785
 20
-22.6607401297
 10
-33.7953306799
 20
-22.6725833907
 10
-33.7671253919
 20
-22.6823828186
 10
-33.738402727
 20
-22.6900345733
 10
-33.7092842874
 20
-22.6955040449
 10
-33.6796484709
 20
-22.698825853
 10
-33.6494952776
 20
-22.7
  0
LWPOLYLINE
  5
27C
100
AcDbEntity
  8
ASSI
100
AcDbPolyline
 62
7
  6
CONTINUOUS
 90
22
 70
0
 10
-34.0500000078
 20
-22.3005575342
 10
-34.0488339641
 20
-22.3305635
 10
-34.045514901
 20
-22.36007034
 10
-34.0400428185
 20
-22.389078059
 10
-34.0323792395
 20
-22.417718057
 10
-34.0225626412
 20
-22.4458589424
 10
-34.0107084545
 20
-22.4731065368
 10
-33.9967832911
 20
-22.4994773805
 10
-33.9808205392
 20
-22.5249549488
 10
-33.9630357942
 20
-22.5490954724
 10
-33.9433469536
 20
-22.5719078372
 10
-33.9218361199
 20
-22.5933831782
 10
-33.8989651959
 20
-22.6130511062
 10
-33.8747288468
 20
-22.6308336577
 10
-33.8491324074
 20
-22.6468088193
 10
-33.822653785
 20
-22.6607401297
 10
-33.7953306799
 20
-22.6725833907
 10
-33.7671253919
 20
-22.6823828186
 10
-33.738402727
 20
-22.6900345733
 10
-33.7092842874
 20
-22.6955040449
 10
-33.6796484709
 20
-22.698825853
 10
-33.6494952776
 20
-22.7
  0
LINE
  5
27D
100
AcDbEntity
  8
RACCORDO
100
AcDbLine
 62
253
  6
CONTINUOUS
 10
-34.6031607314
 20
-22.37782076
 11
-34.6031607314
 21
22.37782076
  0
LINE
  5
27E
100
AcDbEntity
  8
ASSI
100
AcDbLine
 62
253
  6
CONTINUOUS
 10
-34.6031607314
 20
-22.37782076
 11
-34.6031607314
 21
22.37782076
  0
LWPOLYLINE
  5
27F
100
AcDbEntity
  8
RACCORDO
100
AcDbPolyline
 62
253
  6
CONTINUOUS
 90
7
 70
0
 10
-34.1038476651
 20
22.3542704976
 10
-34.1035033388
 20
22.3708652694
 10
-34.1024653828
 20
22.3874336871
 10
-34.1007349745
 20
22.4039471
 10
-34.0983144834
 20
22.4203769021
 10
-34.0952074691
 20
22.4366945821
 10
-34.0914186775
 20
22.4528717732
  0
LWPOLYLINE
  5
280
100
AcDbEntity
  8
ASSI
100
AcDbPolyline
 62
253
  6
CONTINUOUS
 90
7
 70
0
 10
-34.1038476651
 20
22.3542704976
 10
-34.1035033388
 20
22.3708652694
 10
-34.1024653828
 20
22.3874336871
 10
-34.1007349745
 20
22.4039471
 10
-34.0983144834
 20
22.4203769021
 10
-34.0952074691
 20
22.4366945821
 10
-34.0914186775
 20
22.4528717732
  0
LWPOLYLINE
  5
281
100
AcDbEntity
  8
RACCORDO
100
AcDbPolyline
 62
253
  6
CONTINUOUS
 90
7
 70
0
 10
-34.6031607314
 20
22.37782076
 10
-34.6023545675
 20
22.4154689062
 10
-34.6000106153
 20
22.4528697396
 10
-34.5961288748
 20
22.4900232628
 10
-34.5907093459
 20
22.5269294788
 10
-34.5837520286
 20
22.5635883902
 10
-34.5752569231
 20
22.6
  0
LWPOLYLINE
  5
282
100
AcDbEntity
  8
ASSI
100
AcDbPolyline
 62
253
  6
CONTINUOUS
 90
7
 70
0
 10
-34.6031607314
 20
22.37782076
 10
-34.6023545675
 20
22.4154689062
 10
-34.6000106153
 20
22.4528697396
 10
-34.5961288748
 20
22.4900232628
 10
-34.5907093459
 20
22.5269294788
 10
-34.5837520286
 20
22.5635883902
 10
-34.5752569231
 20
22.6
  0
LWPOLYLINE
  5
283
100
AcDbEntity
  8
RACCORDO
100
AcDbPolyline
 62
253
  6
CONTINUOUS
 90
22
 70
0
 10
-34.5752569231
 20
22.6
 10
-34.5594945868
 20
22.654581064
 10
-34.5404870159
 20
22.7077243426
 10
-34.5182342104
 20
22.7594298998
 10
-34.4926166366
 20
22.8099143811
 10
-34.4637538282
 20
22.8589612591
 10
-34.4320043857
 20
22.9059208663
 10
-34.3973395339
 20
22.9507460935
 10
-34.359788048
 20
22.9934842227
 10
-34.3197948543
 20
23.0336272176
 10
-34.2773313482
 20
23.0711430493
 10
-34.2324261342
 20
23.1060639337
 10
-34.1856099528
 20
23.1379782272
 10
-34.1368507819
 20
23.1668523437
 10
-34.0861806435
 20
23.1927200426
 10
-34.0342263438
 20
23.2152707076
 10
-33.9810054578
 20
23.2344576176
 10
-33.9265004104
 20
23.250327627
 10
-33.8712852831
 20
23.2627104785
 10
-33.8155514364
 20
23.2715494444
 10
-33.7591075097
 20
23.2769013243
 10
-33.701953503
 20
23.2787661362
  0
LWPOLYLINE
  5
284
100
AcDbEntity
  8
ASSI
100
AcDbPolyline
 62
253
  6
CONTINUOUS
 90
22
 70
0
 10
-34.5752569231
 20
22.6
 10
-34.5594945868
 20
22.654581064
 10
-34.5404870159
 20
22.7077243426
 10
-34.5182342104
 20
22.7594298998
 10
-34.4926166366
 20
22.8099143811
 10
-34.4637538282
 20
22.8589612591
 10
-34.4320043857
 20
22.9059208663
 10
-34.3973395339
 20
22.9507460935
 10
-34.359788048
 20
22.9934842227
 10
-34.3197948543
 20
23.0336272176
 10
-34.2773313482
 20
23.0711430493
 10
-34.2324261342
 20
23.1060639337
 10
-34.1856099528
 20
23.1379782272
 10
-34.1368507819
 20
23.1668523437
 10
-34.0861806435
 20
23.1927200426
 10
-34.0342263438
 20
23.2152707076
 10
-33.9810054578
 20
23.2344576176
 10
-33.9265004104
 20
23.250327627
 10
-33.8712852831
 20
23.2627104785
 10
-33.8155514364
 20
23.2715494444
 10
-33.7591075097
 20
23.2769013243
 10
-33.701953503
 20
23.2787661362
  0
LWPOLYLINE
  5
285
100
AcDbEntity
  8
RACCORDO
100
AcDbPolyline
 62
253
  6
CONTINUOUS
 90
22
 70
0
 10
-34.0914186775
 20
22.4528717732
 10
-34.0844075088
 20
22.4770038718
 10
-34.0758817104
 20
22.5006430157
 10
-34.065875034
 20
22.5236954721
 10
-34.0544267178
 20
22.5460693403
 10
-34.0415823336
 20
22.5676763338
 10
-34.0273935503
 20
22.5884320986
 10
-34.0119154334
 20
22.6082549846
 10
-33.9952097396
 20
22.6270653573
 10
-33.9773461457
 20
22.6447877491
 10
-33.9583972408
 20
22.6613504791
 10
-33.938436394
 20
22.6766899761
 10
-33.9175407378
 20
22.6907496136
 10
-33.8957882077
 20
22.703475434
 10
-33.8732681326
 20
22.7148138529
 10
-33.850080122
 20
22.7247177141
 10
-33.8263292072
 20
22.7331447067
 10
-33.8020965435
 20
22.740068579
 10
-33.7774482235
 20
22.7454709743
 10
-33.7524701915
 20
22.7493278503
 10
-33.7272697268
 20
22.751615981
 10
-33.7019457772
 20
22.7523215361
  0
LWPOLYLINE
  5
286
100
AcDbEntity
  8
ASSI
100
AcDbPolyline
 62
253
  6
CONTINUOUS
 90
22
 70
0
 10
-34.0914186775
 20
22.4528717732
 10
-34.0844075088
 20
22.4770038718
 10
-34.0758817104
 20
22.5006430157
 10
-34.065875034
 20
22.5236954721
 10
-34.0544267178
 20
22.5460693403
 10
-34.0415823336
 20
22.5676763338
 10
-34.0273935503
 20
22.5884320986
 10
-34.0119154334
 20
22.6082549846
 10
-33.9952097396
 20
22.6270653573
 10
-33.9773461457
 20
22.6447877491
 10
-33.9583972408
 20
22.6613504791
 10
-33.938436394
 20
22.6766899761
 10
-33.9175407378
 20
22.6907496136
 10
-33.8957882077
 20
22.703475434
 10
-33.8732681326
 20
22.7148138529
 10
-33.850080122
 20
22.7247177141
 10
-33.8263292072
 20
22.7331447067
 10
-33.8020965435
 20
22.740068579
 10
-33.7774482235
 20
22.7454709743
 10
-33.7524701915
 20
22.7493278503
 10
-33.7272697268
 20
22.751615981
 10
-33.7019457772
 20
22.7523215361
  0
LWPOLYLINE
  5
287
100
AcDbEntity
  8
RACCORDO
100
AcDbPolyline
 62
253
  6
CONTINUOUS
 90
16
 70
0
 10
-44.891057672
 20
22.5770966572
 10
-44.8857753174
 20
22.5791482783
 10
-44.8771478084
 20
22.581170987
 10
-44.8652337078
 20
22.5831510533
 10
-44.8501138876
 20
22.5850750368
 10
-44.8318909798
 20
22.5869298775
 10
-44.81068868
 20
22.588702985
 10
-44.7866509078
 20
22.5903823235
 10
-44.7599408294
 20
22.5919564938
 10
-44.7307397507
 20
22.5934148107
 10
-44.6992458861
 20
22.5947473751
 10
-44.6656730136
 20
22.5959451418
 10
-44.6302490228
 20
22.5969999803
 10
-44.593214369
 20
22.5979047306
 10
-44.5548204402
 20
22.5986532513
 10
-44.5153278514
 20
22.5992404614
  0
LWPOLYLINE
  5
288
100
AcDbEntity
  8
ASSI
100
AcDbPolyline
 62
253
  6
CONTINUOUS
 90
16
 70
0
 10
-44.891057672
 20
22.5770966572
 10
-44.8857753174
 20
22.5791482783
 10
-44.8771478084
 20
22.581170987
 10
-44.8652337078
 20
22.5831510533
 10
-44.8501138876
 20
22.5850750368
 10
-44.8318909798
 20
22.5869298775
 10
-44.81068868
 20
22.588702985
 10
-44.7866509078
 20
22.5903823235
 10
-44.7599408294
 20
22.5919564938
 10
-44.7307397507
 20
22.5934148107
 10
-44.6992458861
 20
22.5947473751
 10
-44.6656730136
 20
22.5959451418
 10
-44.6302490228
 20
22.5969999803
 10
-44.593214369
 20
22.5979047306
 10
-44.5548204402
 20
22.5986532513
 10
-44.5153278514
 20
22.5992404614
  0
LWPOLYLINE
  5
289
100
AcDbEntity
  8
RACCORDO
100
AcDbPolyline
 62
253
  6
CONTINUOUS
 90
16
 70
0
 10
-44.891059158
 20
22.5146246746
 10
-44.8857768648
 20
22.5166707317
 10
-44.8771494086
 20
22.5186880257
 10
-44.8652353521
 20
22.5206628634
 10
-44.850115567
 20
22.5225818398
 10
-44.8318926854
 20
22.5244319289
 10
-44.810690403
 20
22.5262005725
 10
-44.7866526395
 20
22.5278757651
 10
-44.7599425616
 20
22.5294461357
 10
-44.7307414756
 20
22.5309010246
 10
-44.6992475964
 20
22.5322305562
 10
-44.6656747023
 20
22.5334257057
 10
-44.6302506839
 20
22.5344783605
 10
-44.5932159971
 20
22.5353813753
 10
-44.5548220308
 20
22.5361286205
 10
-44.5153294007
 20
22.5367150238
  0
LWPOLYLINE
  5
28A
100
AcDbEntity
  8
ASSI
100
AcDbPolyline
 62
253
  6
CONTINUOUS
 90
16
 70
0
 10
-44.891059158
 20
22.5146246746
 10
-44.8857768648
 20
22.5166707317
 10
-44.8771494086
 20
22.5186880257
 10
-44.8652353521
 20
22.5206628634
 10
-44.850115567
 20
22.5225818398
 10
-44.8318926854
 20
22.5244319289
 10
-44.810690403
 20
22.5262005725
 10
-44.7866526395
 20
22.5278757651
 10
-44.7599425616
 20
22.5294461357
 10
-44.7307414756
 20
22.5309010246
 10
-44.6992475964
 20
22.5322305562
 10
-44.6656747023
 20
22.5334257057
 10
-44.6302506839
 20
22.5344783605
 10
-44.5932159971
 20
22.5353813753
 10
-44.5548220308
 20
22.5361286205
 10
-44.5153294007
 20
22.5367150238
  0
LWPOLYLINE
  5
28B
100
AcDbEntity
  8
RACCORDO
100
AcDbPolyline
 62
253
  6
CONTINUOUS
 90
18
 70
0
 10
-44.8910591576
 20
-22.5146222223
 10
-44.885776864
 20
-22.5166682791
 10
-44.8771494074
 20
-22.5186855729
 10
-44.8652353506
 20
-22.5206604104
 10
-44.8501155652
 20
-22.5225793865
 10
-44.8318926835
 20
-22.5244294754
 10
-44.810690401
 20
-22.5261981188
 10
-44.7866526374
 20
-22.5278733112
 10
-44.7599425596
 20
-22.5294436816
 10
-44.7307414736
 20
-22.5308985704
 10
-44.6992475944
 20
-22.5322281018
 10
-44.6656747005
 20
-22.5334232512
 10
-44.6302506823
 20
-22.534475906
 10
-44.5932159957
 20
-22.5353789207
 10
-44.5548220297
 20
-22.5361261658
 10
-44.5153293999
 20
-22.536712569
 10
-44.4750061795
 20
-22.5371341499
 10
-44.3929665927
 20
-22.5374725363
  0
LWPOLYLINE
  5
28C
100
AcDbEntity
  8
ASSI
100
AcDbPolyline
 62
253
  6
CONTINUOUS
 90
18
 70
0
 10
-44.8910591576
 20
-22.5146222223
 10
-44.885776864
 20
-22.5166682791
 10
-44.8771494074
 20
-22.5186855729
 10
-44.8652353506
 20
-22.5206604104
 10
-44.8501155652
 20
-22.5225793865
 10
-44.8318926835
 20
-22.5244294754
 10
-44.810690401
 20
-22.5261981188
 10
-44.7866526374
 20
-22.5278733112
 10
-44.7599425596
 20
-22.5294436816
 10
-44.7307414736
 20
-22.5308985704
 10
-44.6992475944
 20
-22.5322281018
 10
-44.6656747005
 20
-22.5334232512
 10
-44.6302506823
 20
-22.534475906
 10
-44.5932159957
 20
-22.5353789207
 10
-44.5548220297
 20
-22.5361261658
 10
-44.5153293999
 20
-22.536712569
 10
-44.4750061795
 20
-22.5371341499
 10
-44.3929665927
 20
-22.5374725363
  0
LWPOLYLINE
  5
28D
100
AcDbEntity
  8
RACCORDO
100
AcDbPolyline
 62
253
  6
CONTINUOUS
 90
17
 70
0
 10
-44.8910576738
 20
-22.5770966572
 10
-44.885775321
 20
-22.5791482784
 10
-44.8771478136
 20
-22.5811709872
 10
-44.8652337144
 20
-22.5831510536
 10
-44.8501138952
 20
-22.5850750371
 10
-44.8318909882
 20
-22.5869298779
 10
-44.810688689
 20
-22.5887029855
 10
-44.786650917
 20
-22.5903823241
 10
-44.7599408386
 20
-22.5919564946
 10
-44.7307397597
 20
-22.5934148115
 10
-44.6992458948
 20
-22.5947473761
 10
-44.6656730216
 20
-22.5959451428
 10
-44.6302490301
 20
-22.5969999814
 10
-44.5932143753
 20
-22.5979047318
 10
-44.5548204455
 20
-22.5986532525
 10
-44.5153278554
 20
-22.5992404626
 10
-44.4341246225
 20
-22.5999161296
  0
LWPOLYLINE
  5
28E
100
AcDbEntity
  8
ASSI
100
AcDbPolyline
 62
253
  6
CONTINUOUS
 90
17
 70
0
 10
-44.8910576738
 20
-22.5770966572
 10
-44.885775321
 20
-22.5791482784
 10
-44.8771478136
 20
-22.5811709872
 10
-44.8652337144
 20
-22.5831510536
 10
-44.8501138952
 20
-22.5850750371
 10
-44.8318909882
 20
-22.5869298779
 10
-44.810688689
 20
-22.5887029855
 10
-44.786650917
 20
-22.5903823241
 10
-44.7599408386
 20
-22.5919564946
 10
-44.7307397597
 20
-22.5934148115
 10
-44.6992458948
 20
-22.5947473761
 10
-44.6656730216
 20
-22.5959451428
 10
-44.6302490301
 20
-22.5969999814
 10
-44.5932143753
 20
-22.5979047318
 10
-44.5548204455
 20
-22.5986532525
 10
-44.5153278554
 20
-22.5992404626
 10
-44.4341246225
 20
-22.5999161296
  0
LWPOLYLINE
  5
28F
100
AcDbEntity
  8
RACCORDO
100
AcDbPolyline
 62
253
  6
CONTINUOUS
 90
7
 70
0
 10
-34.0914186775
 20
-22.4528717732
 10
-34.0951943963
 20
-22.4367563831
 10
-34.0982977878
 20
-22.4204759821
 10
-34.1007209756
 20
-22.4040581558
 10
-34.1024572157
 20
-22.3875308964
 10
-34.1035009182
 20
-22.3709225567
 10
-34.1038476671
 20
-22.3542618027
  0
LWPOLYLINE
  5
290
100
AcDbEntity
  8
ASSI
100
AcDbPolyline
 62
253
  6
CONTINUOUS
 90
7
 70
0
 10
-34.0914186775
 20
-22.4528717732
 10
-34.0951943963
 20
-22.4367563831
 10
-34.0982977878
 20
-22.4204759821
 10
-34.1007209756
 20
-22.4040581558
 10
-34.1024572157
 20
-22.3875308964
 10
-34.1035009182
 20
-22.3709225567
 10
-34.1038476671
 20
-22.3542618027
  0
LWPOLYLINE
  5
291
100
AcDbEntity
  8
RACCORDO
100
AcDbPolyline
 62
253
  6
CONTINUOUS
 90
7
 70
0
 10
-34.5752569231
 20
-22.6
 10
-34.5837295581
 20
-22.5637639458
 10
-34.5906733931
 20
-22.5272103688
 10
-34.5960884279
 20
-22.4903392654
 10
-34.5999746625
 20
-22.4531506319
 10
-34.6023320971
 20
-22.4156444646
 10
-34.6031607314
 20
-22.37782076
  0
LWPOLYLINE
  5
292
100
AcDbEntity
  8
ASSI
100
AcDbPolyline
 62
253
  6
CONTINUOUS
 90
7
 70
0
 10
-34.5752569231
 20
-22.6
 10
-34.5837295581
 20
-22.5637639458
 10
-34.5906733931
 20
-22.5272103688
 10
-34.5960884279
 20
-22.4903392654
 10
-34.5999746625
 20
-22.4531506319
 10
-34.6023320971
 20
-22.4156444646
 10
-34.6031607314
 20
-22.37782076
  0
LINE
  5
293
100
AcDbEntity
  8
RACCORDO
100
AcDbLine
 62
253
  6
CONTINUOUS
 10
-34.1038476666
 20
-22.3542618022
 11
-34.1038476723
 21
22.3542705048
  0
LINE
  5
294
100
AcDbEntity
  8
ASSI
100
AcDbLine
 62
253
  6
CONTINUOUS
 10
-34.1038476666
 20
-22.3542618022
 11
-34.1038476723
 21
22.3542705048
  0
LINE
  5
295
100
AcDbEntity
  8
RACCORDO
100
AcDbLine
 62
7
  6
CONTINUOUS
 10
-34.0500000078
 20
22.3005575342
 11
-34.0500000078
 21
-22.3005575342
  0
LINE
  5
296
100
AcDbEntity
  8
ASSI
100
AcDbLine
 62
7
  6
CONTINUOUS
 10
-34.0500000078
 20
22.3005575342
 11
-34.0500000078
 21
-22.3005575342
  0
LINE
  5
297
100
AcDbEntity
  8
RACCORDO
100
AcDbLine
 62
253
  6
CONTINUOUS
 10
-33.701953503
 20
23.2787661362
 11
-33.701953503
 21
22.7523215624
  0
LINE
  5
298
100
AcDbEntity
  8
ASSI
100
AcDbLine
 62
253
  6
CONTINUOUS
 10
-33.701953503
 20
23.2787661362
 11
-33.701953503
 21
22.7523215624
  0
LINE
  5
299
100
AcDbEntity
  8
RACCORDO
100
AcDbLine
 62
253
  6
CONTINUOUS
 10
-33.701953503
 20
-23.2787661362
 11
-33.701953503
 21
-22.7523215624
  0
LINE
  5
29A
100
AcDbEntity
  8
ASSI
100
AcDbLine
 62
253
  6
CONTINUOUS
 10
-33.701953503
 20
-23.2787661362
 11
-33.701953503
 21
-22.7523215624
  0
LINE
  5
29B
100
AcDbEntity
  8
SCRITTA
100
AcDbLine
 62
253
  6
CONTINUOUS
 10
5.4291482119
 20
-28.8778013544
 11
4.8670156219
 21
-28.8778013544
  0
LINE
  5
29C
100
AcDbEntity
  8
SCRITTA
100
AcDbLine
 62
253
  6
CONTINUOUS
 10
-4.546107
 20
-28.877801
 11
-4.031097
 21
-28.877801
  0
LINE
  5
29D
100
AcDbEntity
  8
SCRITTA
100
AcDbLine
 62
253
  6
CONTINUOUS
 10
3.9720753449
 20
-28.8778013544
 11
3.3900188023
 21
-28.8778013544
  0
LINE
  5
29E
100
AcDbEntity
  8
SCRITTA
100
AcDbLine
 62
253
  6
CONTINUOUS
 10
-2.015272
 20
-28.877801
 11
-1.456183
 21
-28.877801
  0
LINE
  5
29F
100
AcDbEntity
  8
SCRITTA
100
AcDbLine
 62
253
  6
CONTINUOUS
 10
-0.644487
 20
-28.877801
 11
-0.562524
 21
-28.877801
  0
LINE
  5
2A0
100
AcDbEntity
  8
SCRITTA
100
AcDbLine
 62
253
  6
CONTINUOUS
 10
0.252406
 20
-28.877801
 11
0.824112
 21
-28.877801
  0
LINE
  5
2A1
100
AcDbEntity
  8
SCRITTA
100
AcDbLine
 62
253
  6
CONTINUOUS
 10
0.91588
 20
-28.877801
 11
1.493947
 21
-28.877801
  0
LINE
  5
2A2
100
AcDbEntity
  8
SCRITTA
100
AcDbLine
 62
253
  6
CONTINUOUS
 10
2.602466
 20
-28.877801
 11
3.218408
 21
-28.877801
  0
LINE
  5
2A3
100
AcDbEntity
  8
SCRITTA
100
AcDbLine
 62
253
  6
CONTINUOUS
 10
-2.329877
 20
-28.877801
 11
-2.914285
 21
-28.877801
  0
LWPOLYLINE
  5
2A4
100
AcDbEntity
  8
SCRITTA
100
AcDbPolyline
 62
253
  6
CONTINUOUS
 90
36
 70
0
 10
3.3900188023
 20
-26.110807341
 10
3.4338389309
 20
-26.1044565883
 10
3.476972383
 20
-26.0984039671
 10
3.5194013412
 20
-26.0926599605
 10
3.561107988
 20
-26.0872350513
 10
3.602074506
 20
-26.0821397226
 10
3.6422956439
 20
-26.0773821007
 10
3.6818164149
 20
-26.0729608864
 10
3.7206943982
 20
-26.0688724242
 10
3.7589871732
 20
-26.0651130583
 10
3.796752319
 20
-26.0616791331
 10
3.8432965098
 20
-26.0578401935
 10
3.8891708193
 20
-26.0545052144
 10
3.9344398187
 20
-26.0516753669
 10
3.9791680798
 20
-26.0493518224
 10
4.0234235522
 20
-26.0475374056
 10
4.0672877
 20
-26.0462415555
 10
4.1108453652
 20
-26.0454753645
 10
4.1541813902
 20
-26.0452499251
 10
4.2117396017
 20
-26.0458102192
 10
4.2691055906
 20
-26.0473810947
 10
4.3263303305
 20
-26.0499920771
 10
4.369182313
 20
-26.0526574054
 10
4.4119777703
 20
-26.055977418
 10
4.4547109569
 20
-26.0600051308
 10
4.4973761273
 20
-26.06479356
 10
4.5314519416
 20
-26.0692110385
 10
4.5654566709
 20
-26.0741968062
 10
4.5993664372
 20
-26.0797983633
 10
4.6331573628
 20
-26.0860632103
 10
4.66680557
 20
-26.0930388474
 10
4.7002886077
 20
-26.1007731149
 10
4.7335897309
 20
-26.1093152121
 10
4.7666936212
 20
-26.1187146782
 10
4.7995849602
 20
-26.1290210523
 10
4.8322484297
 20
-26.1402838735
  0
LWPOLYLINE
  5
2A5
100
AcDbEntity
  8
RACCORDO
100
AcDbPolyline
 62
7
  6
CONTINUOUS
 90
22
 70
0
 10
33.6494952776
 20
-22.7
 10
33.6796269177
 20
-22.6988321564
 10
33.709253171
 20
-22.6955125192
 10
33.7383740375
 20
-22.690041086
 10
33.7671219346
 20
-22.6823782301
 10
33.795364445
 20
-22.6725635685
 10
33.8227043167
 20
-22.6607159622
 10
33.8491572833
 20
-22.6468019601
 10
33.8747076112
 20
-22.6308549955
 10
33.8989108484
 20
-22.6130942544
 10
33.9217751036
 20
-22.5934381186
 10
33.9432922681
 20
-22.5719681831
 10
33.9629935639
 20
-22.5491484569
 10
33.9808002827
 20
-22.5249746007
 10
33.9967911326
 20
-22.4994509326
 10
34.0107334604
 20
-22.4730544543
 10
34.0225831646
 20
-22.4458235219
 10
34.0323843466
 20
-22.4177197639
 10
34.0400366569
 20
-22.3891050981
 10
34.0455066456
 20
-22.3601001619
 10
34.0488277626
 20
-22.3305843089
 10
34.0500000078
 20
-22.3005575342
  0
LWPOLYLINE
  5
2A6
100
AcDbEntity
  8
ASSI
100
AcDbPolyline
 62
7
  6
CONTINUOUS
 90
22
 70
0
 10
33.6494952776
 20
-22.7
 10
33.6796269177
 20
-22.6988321564
 10
33.709253171
 20
-22.6955125192
 10
33.7383740375
 20
-22.690041086
 10
33.7671219346
 20
-22.6823782301
 10
33.795364445
 20
-22.6725635685
 10
33.8227043167
 20
-22.6607159622
 10
33.8491572833
 20
-22.6468019601
 10
33.8747076112
 20
-22.6308549955
 10
33.8989108484
 20
-22.6130942544
 10
33.9217751036
 20
-22.5934381186
 10
33.9432922681
 20
-22.5719681831
 10
33.9629935639
 20
-22.5491484569
 10
33.9808002827
 20
-22.5249746007
 10
33.9967911326
 20
-22.4994509326
 10
34.0107334604
 20
-22.4730544543
 10
34.0225831646
 20
-22.4458235219
 10
34.0323843466
 20
-22.4177197639
 10
34.0400366569
 20
-22.3891050981
 10
34.0455066456
 20
-22.3601001619
 10
34.0488277626
 20
-22.3305843089
 10
34.0500000078
 20
-22.3005575342
  0
LWPOLYLINE
  5
2A7
100
AcDbEntity
  8
SCRITTA
100
AcDbPolyline
 62
253
  6
CONTINUOUS
 90
56
 70
0
 10
4.2866806432
 20
-27.3236280866
 10
4.303938381
 20
-27.3230813766
 10
4.3208587431
 20
-27.3222218025
 10
4.3374393183
 20
-27.3210525566
 10
4.3536776956
 20
-27.3195768312
 10
4.3695714638
 20
-27.3177978184
 10
4.3851182117
 20
-27.3157187104
 10
4.4003155285
 20
-27.3133426995
 10
4.4151626314
 20
-27.3106717669
 10
4.4296652526
 20
-27.3077030502
 10
4.4438307527
 20
-27.304432476
 10
4.4576664923
 20
-27.3008559711
 10
4.4711798321
 20
-27.2969694619
 10
4.4843781328
 20
-27.2927688752
 10
4.497268755
 20
-27.2882501376
 10
4.5083002385
 20
-27.2840316343
 10
4.5190994935
 20
-27.2795611647
 10
4.5296642224
 20
-27.2748334652
 10
4.5399921276
 20
-27.2698432724
 10
4.5500816053
 20
-27.2645839989
 10
4.5599338275
 20
-27.2590437618
 10
4.5695506599
 20
-27.2532093543
 10
4.5789339683
 20
-27.2470675694
 10
4.5880839963
 20
-27.2406065796
 10
4.5969944972
 20
-27.2338200738
 10
4.6056576024
 20
-27.2267031202
 10
4.6140654431
 20
-27.219250787
 10
4.6222135163
 20
-27.211457939
 10
4.6301107836
 20
-27.2033186278
 10
4.6377695724
 20
-27.1948267016
 10
4.6452022101
 20
-27.1859760089
 10
4.6524170076
 20
-27.1767639904
 10
4.6594062105
 20
-27.1672024585
 10
4.6661580477
 20
-27.1573068178
 10
4.672660748
 20
-27.1470924732
 10
4.6789046315
 20
-27.1365714566
 10
4.6848883821
 20
-27.1257423075
 10
4.6906127748
 20
-27.1146001923
 10
4.6960785845
 20
-27.1031402776
 10
4.7012842172
 20
-27.0913621063
 10
4.7062186029
 20
-27.0792827261
 10
4.710868303
 20
-27.0669235613
 10
4.7152198786
 20
-27.0543060359
 10
4.7192606833
 20
-27.0414510852
 10
4.722981241
 20
-27.0283776885
 10
4.7263728679
 20
-27.0151043359
 10
4.7294268801
 20
-27.0016495179
 10
4.7321348133
 20
-26.9880317871
 10
4.7344890802
 20
-26.974269946
 10
4.736482313
 20
-26.9603828597
 10
4.7381071437
 20
-26.9463893931
 10
4.739135851
 20
-26.9351250007
 10
4.7399145541
 20
-26.9237800422
 10
4.7404337412
 20
-26.9123299613
 10
4.740683901
 20
-26.9007502016
 10
4.740655522
 20
-26.889016207
  0
LINE
  5
2A8
100
AcDbEntity
  8
RACCORDO
100
AcDbLine
 62
253
  6
CONTINUOUS
 10
44.5153278527
 20
-22.5992404618
 11
44.4341246215
 21
-22.5999161287
  0
LINE
  5
2A9
100
AcDbEntity
  8
ASSI
100
AcDbLine
 62
253
  6
CONTINUOUS
 10
44.5153278527
 20
-22.5992404618
 11
44.4341246215
 21
-22.5999161287
  0
LWPOLYLINE
  5
2AA
100
AcDbEntity
  8
RACCORDO
100
AcDbPolyline
 62
253
  6
CONTINUOUS
 90
3
 70
0
 10
44.5153294008
 20
-22.5367125693
 10
44.4341260803
 20
-22.5373880471
 10
44.3929665927
 20
-22.5374725366
  0
LWPOLYLINE
  5
2AB
100
AcDbEntity
  8
ASSI
100
AcDbPolyline
 62
253
  6
CONTINUOUS
 90
3
 70
0
 10
44.5153294008
 20
-22.5367125693
 10
44.4341260803
 20
-22.5373880471
 10
44.3929665927
 20
-22.5374725366
  0
LINE
  5
2AC
100
AcDbEntity
  8
SCRITTA
100
AcDbLine
 62
253
  6
CONTINUOUS
 10
1.655207
 20
-28.318881
 11
2.451074
 21
-28.318881
  0
LINE
  5
2AD
100
AcDbEntity
  8
SCRITTA
100
AcDbLine
 62
253
  6
CONTINUOUS
 10
2.33428
 20
-27.886391
 11
1.774751
 21
-27.886391
  0
LINE
  5
2AE
100
AcDbEntity
  8
SCRITTA
100
AcDbLine
 62
253
  6
CONTINUOUS
 10
4.2854209623
 20
-27.7821519248
 11
3.9720753449
 21
-27.7821519248
  0
LINE
  5
2AF
100
AcDbEntity
  8
SCRITTA
100
AcDbLine
 62
253
  6
CONTINUOUS
 10
3.9526972541
 20
-27.3236280866
 11
4.2866806432
 21
-27.3236280866
  0
LINE
  5
2B0
100
AcDbEntity
  8
SCRITTA
100
AcDbLine
 62
253
  6
CONTINUOUS
 10
2.35939
 20
-26.078098
 11
1.794045
 21
-26.078098
  0
LINE
  5
2B1
100
AcDbEntity
  8
SCRITTA
100
AcDbLine
 62
253
  6
CONTINUOUS
 10
0.562308
 20
-26.078098
 11
-0.015906
 21
-26.078098
  0
LINE
  5
2B2
100
AcDbEntity
  8
SCRITTA
100
AcDbLine
 62
253
  6
CONTINUOUS
 10
-1.17855
 20
-26.078098
 11
-1.762475
 21
-26.078098
  0
LINE
  5
2B3
100
AcDbEntity
  8
SCRITTA
100
AcDbLine
 62
253
  6
CONTINUOUS
 10
-3.13116
 20
-26.078098
 11
-3.715169
 21
-26.078098
  0
LINE
  5
2B4
100
AcDbEntity
  8
SCRITTA
100
AcDbLine
 62
253
  6
CONTINUOUS
 10
-4.79882
 20
-26.078098
 11
-5.433668
 21
-26.078098
  0
LINE
  5
2B5
100
AcDbEntity
  8
SCRITTA
100
AcDbLine
 62
253
  6
CONTINUOUS
 10
-2.914285
 20
-26.07793
 11
-2.329877
 21
-26.07793
  0
LINE
  5
2B6
100
AcDbEntity
  8
RACCORDO
100
AcDbLine
 62
253
  6
CONTINUOUS
 10
33.701953503
 20
-23.2787661362
 11
-33.701953503
 21
-23.2787661362
  0
LINE
  5
2B7
100
AcDbEntity
  8
ASSI
100
AcDbLine
 62
253
  6
CONTINUOUS
 10
33.701953503
 20
-23.2787661362
 11
-33.701953503
 21
-23.2787661362
  0
LINE
  5
2B8
100
AcDbEntity
  8
RACCORDO
100
AcDbLine
 62
253
  6
CONTINUOUS
 10
33.7019456928
 20
-22.7523215624
 11
-33.7019737359
 21
-22.7523215624
  0
LINE
  5
2B9
100
AcDbEntity
  8
ASSI
100
AcDbLine
 62
253
  6
CONTINUOUS
 10
33.7019456928
 20
-22.7523215624
 11
-33.7019737359
 21
-22.7523215624
  0
LINE
  5
2BA
100
AcDbEntity
  8
RACCORDO
100
AcDbLine
 62
7
  6
CONTINUOUS
 10
-33.6494952776
 20
-22.7
 11
33.6494952776
 21
-22.7
  0
LINE
  5
2BB
100
AcDbEntity
  8
ASSI
100
AcDbLine
 62
7
  6
CONTINUOUS
 10
-33.6494952776
 20
-22.7
 11
33.6494952776
 21
-22.7
  0
LINE
  5
2BC
100
AcDbEntity
  8
RACCORDO
100
AcDbLine
 62
253
  6
CONTINUOUS
 10
34.5752569231
 20
-22.6
 11
44.4341246215
 21
-22.5999161287
  0
LINE
  5
2BD
100
AcDbEntity
  8
ASSI
100
AcDbLine
 62
253
  6
CONTINUOUS
 10
34.5752569231
 20
-22.6
 11
44.4341246215
 21
-22.5999161287
  0
LINE
  5
2BE
100
AcDbEntity
  8
RACCORDO
100
AcDbLine
 62
253
  6
CONTINUOUS
 10
-44.4341246225
 20
-22.5999161296
 11
-34.5752569231
 21
-22.6
  0
LINE
  5
2BF
100
AcDbEntity
  8
ASSI
100
AcDbLine
 62
253
  6
CONTINUOUS
 10
-44.4341246225
 20
-22.5999161296
 11
-34.5752569231
 21
-22.6
  0
LWPOLYLINE
  5
2C0
100
AcDbEntity
  8
RACCORDO
100
AcDbPolyline
 62
253
  6
CONTINUOUS
 90
22
 70
0
 10
-33.7019738051
 20
-22.7523216308
 10
-33.7273063552
 20
-22.7516138875
 10
-33.7525230974
 20
-22.7493215148
 10
-33.7775247492
 20
-22.7454568865
 10
-33.8022070935
 20
-22.7400409213
 10
-33.8264797846
 20
-22.733096773
 10
-33.8502655126
 20
-22.7246455505
 10
-33.8734804717
 20
-22.7147153504
 10
-33.8960220255
 20
-22.7033484411
 10
-33.9177878864
 20
-22.6905944188
 10
-33.9386798657
 20
-22.6765147765
 10
-33.9586306451
 20
-22.6611590713
 10
-33.9775865166
 20
-22.6445637313
 10
-33.9954857099
 20
-22.6267733456
 10
-34.0122350097
 20
-22.6078707584
 10
-34.0277404805
 20
-22.58795673
 10
-34.0419521493
 20
-22.5670954401
 10
-34.0548027998
 20
-22.5453865073
 10
-34.0662013372
 20
-22.5230028594
 10
-34.0761083777
 20
-22.5000712547
 10
-34.0845188933
 20
-22.4766617352
 10
-34.0914186775
 20
-22.4528717732
  0
LWPOLYLINE
  5
2C1
100
AcDbEntity
  8
ASSI
100
AcDbPolyline
 62
253
  6
CONTINUOUS
 90
22
 70
0
 10
-33.7019738051
 20
-22.7523216308
 10
-33.7273063552
 20
-22.7516138875
 10
-33.7525230974
 20
-22.7493215148
 10
-33.7775247492
 20
-22.7454568865
 10
-33.8022070935
 20
-22.7400409213
 10
-33.8264797846
 20
-22.733096773
 10
-33.8502655126
 20
-22.7246455505
 10
-33.8734804717
 20
-22.7147153504
 10
-33.8960220255
 20
-22.7033484411
 10
-33.9177878864
 20
-22.6905944188
 10
-33.9386798657
 20
-22.6765147765
 10
-33.9586306451
 20
-22.6611590713
 10
-33.9775865166
 20
-22.6445637313
 10
-33.9954857099
 20
-22.6267733456
 10
-34.0122350097
 20
-22.6078707584
 10
-34.0277404805
 20
-22.58795673
 10
-34.0419521493
 20
-22.5670954401
 10
-34.0548027998
 20
-22.5453865073
 10
-34.0662013372
 20
-22.5230028594
 10
-34.0761083777
 20
-22.5000712547
 10
-34.0845188933
 20
-22.4766617352
 10
-34.0914186775
 20
-22.4528717732
  0
LWPOLYLINE
  5
2C2
100
AcDbEntity
  8
RACCORDO
100
AcDbPolyline
 62
253
  6
CONTINUOUS
 90
22
 70
0
 10
-33.701953503
 20
-23.2787661362
 10
-33.7591837688
 20
-23.2768998021
 10
-33.8157058108
 20
-23.2715340933
 10
-33.8715196289
 20
-23.2626689916
 10
-33.926824023
 20
-23.2502438794
 10
-33.9814201933
 20
-23.2343193019
 10
-34.03471174
 20
-23.2150769699
 10
-34.0867076903
 20
-23.1924708633
 10
-34.1373990171
 20
-23.1665468686
 10
-34.1861622399
 20
-23.1376245515
 10
-34.2329490986
 20
-23.1056918333
 10
-34.2778078533
 20
-23.0707606202
 10
-34.3202598038
 20
-23.0331864632
 10
-34.3603148217
 20
-22.9929003029
 10
-34.3979630353
 20
-22.9499710068
 10
-34.4326961292
 20
-22.9049610423
 10
-34.4644781322
 20
-22.857773709
 10
-34.4933450155
 20
-22.808505533
 10
-34.5188963765
 20
-22.7580088773
 10
-34.5409987476
 20
-22.7065678453
 10
-34.5597855965
 20
-22.6538982373
 10
-34.5752569231
 20
-22.6
  0
LWPOLYLINE
  5
2C3
100
AcDbEntity
  8
ASSI
100
AcDbPolyline
 62
253
  6
CONTINUOUS
 90
22
 70
0
 10
-33.701953503
 20
-23.2787661362
 10
-33.7591837688
 20
-23.2768998021
 10
-33.8157058108
 20
-23.2715340933
 10
-33.8715196289
 20
-23.2626689916
 10
-33.926824023
 20
-23.2502438794
 10
-33.9814201933
 20
-23.2343193019
 10
-34.03471174
 20
-23.2150769699
 10
-34.0867076903
 20
-23.1924708633
 10
-34.1373990171
 20
-23.1665468686
 10
-34.1861622399
 20
-23.1376245515
 10
-34.2329490986
 20
-23.1056918333
 10
-34.2778078533
 20
-23.0707606202
 10
-34.3202598038
 20
-23.0331864632
 10
-34.3603148217
 20
-22.9929003029
 10
-34.3979630353
 20
-22.9499710068
 10
-34.4326961292
 20
-22.9049610423
 10
-34.4644781322
 20
-22.857773709
 10
-34.4933450155
 20
-22.808505533
 10
-34.5188963765
 20
-22.7580088773
 10
-34.5409987476
 20
-22.7065678453
 10
-34.5597855965
 20
-22.6538982373
 10
-34.5752569231
 20
-22.6
  0
LWPOLYLINE
  5
2C4
100
AcDbEntity
  8
SCRITTA
100
AcDbPolyline
 62
253
  6
CONTINUOUS
 90
24
 70
0
 10
4.4105134288
 20
-26.5385722488
 10
4.3890117817
 20
-26.5362355562
 10
4.3674854698
 20
-26.5342129279
 10
4.345937942
 20
-26.5325036357
 10
4.324372647
 20
-26.5311069513
 10
4.3027930337
 20
-26.5300221464
 10
4.2812025508
 20
-26.5292484928
 10
4.2596046471
 20
-26.5287852623
 10
4.2407016842
 20
-26.528634085
 10
4.2217894638
 20
-26.5287199976
 10
4.2028617695
 20
-26.5290429801
 10
4.1839123849
 20
-26.5296030124
 10
4.1649342501
 20
-26.530401114
 10
4.1459169307
 20
-26.5314424632
 10
4.1268491489
 20
-26.532733278
 10
4.1077196267
 20
-26.5342797765
 10
4.0885206982
 20
-26.5360853829
 10
4.069259144
 20
-26.5381423466
 10
4.0499453566
 20
-26.5404401234
 10
4.0305897287
 20
-26.5429681689
 10
4.0111985995
 20
-26.5457141051
 10
3.9917620952
 20
-26.5486582194
 10
3.9722662891
 20
-26.5517789651
 10
3.9526972541
 20
-26.5550547959
  0
LWPOLYLINE
  5
2C5
100
AcDbEntity
  8
SCRITTA
100
AcDbPolyline
 62
253
  6
CONTINUOUS
 90
86
 70
0
 10
4.8322484297
 20
-26.1402838735
 10
4.8477811428
 20
-26.1462165317
 10
4.8635256095
 20
-26.1528981025
 10
4.8795072873
 20
-26.1603590207
 10
4.8957516338
 20
-26.1686297214
 10
4.9122841065
 20
-26.1777406396
 10
4.9291301629
 20
-26.1877222102
 10
4.9462945226
 20
-26.1985951625
 10
4.9636989535
 20
-26.2103414036
 10
4.9812444855
 20
-26.2229331349
 10
4.9988321486
 20
-26.2363425577
 10
5.0163629726
 20
-26.2505418735
 10
5.0337379875
 20
-26.2655032836
 10
5.0508669601
 20
-26.2812021153
 10
5.0676946049
 20
-26.297626199
 10
5.0841743734
 20
-26.3147664909
 10
5.1002597168
 20
-26.3326139475
 10
5.1159040866
 20
-26.3511595248
 10
5.1310609342
 20
-26.3703941793
 10
5.1456830762
 20
-26.3902967346
 10
5.1597207906
 20
-26.4107974836
 10
5.1731237204
 20
-26.4318145867
 10
5.1858415088
 20
-26.4532662043
 10
5.197823799
 20
-26.4750704967
 10
5.209020234
 20
-26.4971456243
 10
5.2193915484
 20
-26.5194167906
 10
5.2289428422
 20
-26.5418373713
 10
5.2376903064
 20
-26.5643677853
 10
5.2456501324
 20
-26.5869684516
 10
5.2528385115
 20
-26.6095997891
 10
5.2592716347
 20
-26.6322222166
 10
5.2660225706
 20
-26.6592981173
 10
5.2717692014
 20
-26.6862146691
 10
5.2765714748
 20
-26.7128823502
 10
5.2804893387
 20
-26.7392116388
 10
5.2835827409
 20
-26.7651130131
 10
5.2859092678
 20
-26.790508547
 10
5.2875170607
 20
-26.8153666971
 10
5.2884518994
 20
-26.8396675157
 10
5.2887595638
 20
-26.8633910552
 10
5.2884858339
 20
-26.8865173677
 10
5.2876735236
 20
-26.909032423
 10
5.2863535828
 20
-26.93094586
 10
5.2845539955
 20
-26.9522732349
 10
5.2823027458
 20
-26.9730301041
 10
5.2796278176
 20
-26.9932320239
 10
5.2757280123
 20
-27.0177299762
 10
5.2712467156
 20
-27.0414290166
 10
5.266220709
 20
-27.0643730353
 10
5.2606867738
 20
-27.0866059223
 10
5.254681836
 20
-27.1081648033
 10
5.2482434012
 20
-27.1290597468
 10
5.2414091193
 20
-27.149294057
 10
5.2342166405
 20
-27.1688710381
 10
5.2267030519
 20
-27.1877942227
 10
5.2189031891
 20
-27.2060680565
 10
5.2108513245
 20
-27.2236972136
 10
5.2025817307
 20
-27.240686368
 10
5.191269572
 20
-27.2623570773
 10
5.1796730248
 20
-27.2829453005
 10
5.1678338458
 20
-27.3024980246
 10
5.1557930086
 20
-27.3210577656
 10
5.1435883551
 20
-27.3386491554
 10
5.1312569439
 20
-27.3552923551
 10
5.1188365729
 20
-27.3710148072
 10
5.1063679973
 20
-27.3858730823
 10
5.0938927112
 20
-27.3999310324
 10
5.0814531687
 20
-27.4132505524
 10
5.0690956624
 20
-27.4258857082
 10
5.0568674447
 20
-27.4378886081
 10
5.0448114187
 20
-27.4493100291
 10
5.0329530919
 20
-27.4601954222
 10
5.0213136224
 20
-27.4705889069
 10
5.0042958708
 20
-27.4853523524
 10
4.9878231002
 20
-27.4992439792
 10
4.9719423933
 20
-27.5123366212
 10
4.9641647688
 20
-27.5185613609
 10
4.9563827227
 20
-27.5245392464
 10
4.9485093931
 20
-27.5302241139
 10
4.9405658199
 20
-27.535506052
 10
4.9325946287
 20
-27.5402697463
 10
4.9246168858
 20
-27.5444420167
 10
4.9166401319
 20
-27.5479668452
 10
4.9086393637
 20
-27.5508147286
 10
4.9005901841
 20
-27.5529618506
 10
4.8925031649
 20
-27.554380628
  0
LWPOLYLINE
  5
2C6
100
AcDbEntity
  8
SCRITTA
100
AcDbPolyline
 62
253
  6
CONTINUOUS
 90
41
 70
0
 10
4.8925031649
 20
-27.5709244369
 10
4.9017963646
 20
-27.5748042831
 10
4.9110358832
 20
-27.5790151288
 10
4.9202269991
 20
-27.5835651371
 10
4.9293749908
 20
-27.5884624711
 10
4.9384846108
 20
-27.5937158986
 10
4.9475585078
 20
-27.5993366064
 10
4.9565988048
 20
-27.6053363858
 10
4.9656076244
 20
-27.611727028
 10
4.9745834994
 20
-27.6185169719
 10
4.9835106009
 20
-27.625701247
 10
4.9923695099
 20
-27.6332715302
 10
5.0011408074
 20
-27.6412194983
 10
5.0098062407
 20
-27.6495353739
 10
5.0183522222
 20
-27.6582035619
 10
5.0267663305
 20
-27.667207013
 10
5.0350361444
 20
-27.6765286776
 10
5.0431525668
 20
-27.6861551493
 10
5.0511197984
 20
-27.6960875927
 10
5.058945364
 20
-27.7063308153
 10
5.0666367886
 20
-27.7168896246
 10
5.0741997657
 20
-27.7277665847
 10
5.0816326637
 20
-27.7389552866
 10
5.0889320192
 20
-27.7504470774
 10
5.0960943693
 20
-27.7622333047
 10
5.1041087181
 20
-27.7760538605
 10
5.1119404902
 20
-27.7902416501
 10
5.1195905782
 20
-27.8047906387
 10
5.1270598747
 20
-27.8196947913
 10
5.1343492724
 20
-27.8349480732
 10
5.1414596638
 20
-27.8505444493
 10
5.1483919417
 20
-27.8664778849
 10
5.1562555574
 20
-27.88548394
 10
5.1638786728
 20
-27.9049255278
 10
5.1712620051
 20
-27.9247876195
 10
5.1784062714
 20
-27.9450551868
 10
5.1853121888
 20
-27.9657132008
 10
5.1919804746
 20
-27.9867466332
 10
5.1984226748
 20
-28.0081409683
 10
5.2046936516
 20
-28.0298837427
 10
5.2108590959
 20
-28.0519630063
  0
LWPOLYLINE
  5
2C7
100
AcDbEntity
  8
RACCORDO
100
AcDbPolyline
 62
253
  6
CONTINUOUS
 90
16
 70
0
 10
-34.4779759784
 20
-22.3770295853
 10
-34.4376358437
 20
-22.3764197292
 10
-34.3984728184
 20
-22.3756430175
 10
-34.3607654052
 20
-22.3747049736
 10
-34.3247817556
 20
-22.3736122683
 10
-34.2907777628
 20
-22.3723726722
 10
-34.258995242
 20
-22.3709950005
 10
-34.2296602104
 20
-22.3694890504
 10
-34.2029812804
 20
-22.3678655313
 10
-34.1791481759
 20
-22.3661359887
 10
-34.158330383
 20
-22.3643127218
 10
-34.1406759447
 20
-22.3624086967
 10
-34.1263104084
 20
-22.3604374536
 10
-34.1153359327
 20
-22.3584130108
 10
-34.1078305613
 20
-22.3563497648
 10
-34.1038476676
 20
-22.3542623881
  0
LWPOLYLINE
  5
2C8
100
AcDbEntity
  8
ASSI
100
AcDbPolyline
 62
253
  6
CONTINUOUS
 90
16
 70
0
 10
-34.4779759784
 20
-22.3770295853
 10
-34.4376358437
 20
-22.3764197292
 10
-34.3984728184
 20
-22.3756430175
 10
-34.3607654052
 20
-22.3747049736
 10
-34.3247817556
 20
-22.3736122683
 10
-34.2907777628
 20
-22.3723726722
 10
-34.258995242
 20
-22.3709950005
 10
-34.2296602104
 20
-22.3694890504
 10
-34.2029812804
 20
-22.3678655313
 10
-34.1791481759
 20
-22.3661359887
 10
-34.158330383
 20
-22.3643127218
 10
-34.1406759447
 20
-22.3624086967
 10
-34.1263104084
 20
-22.3604374536
 10
-34.1153359327
 20
-22.3584130108
 10
-34.1078305613
 20
-22.3563497648
 10
-34.1038476676
 20
-22.3542623881
  0
LWPOLYLINE
  5
2C9
100
AcDbEntity
  8
RACCORDO
100
AcDbPolyline
 62
253
  6
CONTINUOUS
 90
3
 70
0
 10
-34.6031607314
 20
-22.3778207594
 10
-34.5610337496
 20
-22.3777326
 10
-34.4779759784
 20
-22.3770295853
  0
LWPOLYLINE
  5
2CA
100
AcDbEntity
  8
ASSI
100
AcDbPolyline
 62
253
  6
CONTINUOUS
 90
3
 70
0
 10
-34.6031607314
 20
-22.3778207594
 10
-34.5610337496
 20
-22.3777326
 10
-34.4779759784
 20
-22.3770295853
  0
LINE
  5
2CB
100
AcDbEntity
  8
RACCORDO
100
AcDbLine
 62
253
  6
CONTINUOUS
 10
-45.0
 20
-22.5146222223
 11
-44.8910591581
 21
-22.5146222223
  0
LINE
  5
2CC
100
AcDbEntity
  8
RACCORDO
100
AcDbLine
 62
253
  6
CONTINUOUS
 10
45.0
 20
-22.5146222223
 11
44.8910591581
 21
-22.5146222223
  0
LINE
  5
2CD
100
AcDbEntity
  8
ASSI
100
AcDbLine
 62
253
  6
CONTINUOUS
 10
-45.0
 20
-22.5146222223
 11
-44.8910591581
 21
-22.5146222223
  0
LINE
  5
2CE
100
AcDbEntity
  8
ASSI
100
AcDbLine
 62
253
  6
CONTINUOUS
 10
45.0
 20
-22.5146222223
 11
44.8910591581
 21
-22.5146222223
  0
LWPOLYLINE
  5
2CF
100
AcDbEntity
  8
RACCORDO
100
AcDbPolyline
 62
253
  6
CONTINUOUS
 90
18
 70
0
 10
34.6031607314
 20
-22.3778207986
 10
34.5192063685
 20
-22.377468281
 10
34.4779760151
 20
-22.3770296142
 10
34.4376359007
 20
-22.3764197551
 10
34.3984728983
 20
-22.3756430404
 10
34.3607655103
 20
-22.3747049937
 10
34.3247818873
 20
-22.3736122857
 10
34.2907779218
 20
-22.3723726872
 10
34.2589954283
 20
-22.3709950133
 10
34.2296604235
 20
-22.3694890612
 10
34.2029815191
 20
-22.3678655402
 10
34.1791484384
 20
-22.3661359957
 10
34.158330667
 20
-22.3643127273
 10
34.1406762476
 20
-22.3624087007
 10
34.1263107271
 20
-22.3604374563
 10
34.1153362638
 20
-22.3584130122
 10
34.1078309012
 20
-22.356349765
 10
34.1038480125
 20
-22.3542623872
  0
LWPOLYLINE
  5
2D0
100
AcDbEntity
  8
ASSI
100
AcDbPolyline
 62
253
  6
CONTINUOUS
 90
18
 70
0
 10
34.6031607314
 20
-22.3778207986
 10
34.5192063685
 20
-22.377468281
 10
34.4779760151
 20
-22.3770296142
 10
34.4376359007
 20
-22.3764197551
 10
34.3984728983
 20
-22.3756430404
 10
34.3607655103
 20
-22.3747049937
 10
34.3247818873
 20
-22.3736122857
 10
34.2907779218
 20
-22.3723726872
 10
34.2589954283
 20
-22.3709950133
 10
34.2296604235
 20
-22.3694890612
 10
34.2029815191
 20
-22.3678655402
 10
34.1791484384
 20
-22.3661359957
 10
34.158330667
 20
-22.3643127273
 10
34.1406762476
 20
-22.3624087007
 10
34.1263107271
 20
-22.3604374563
 10
34.1153362638
 20
-22.3584130122
 10
34.1078309012
 20
-22.356349765
 10
34.1038480125
 20
-22.3542623872
  0
LWPOLYLINE
  5
2D1
100
AcDbEntity
  8
RACCORDO
100
AcDbPolyline
 62
253
  6
CONTINUOUS
 90
15
 70
0
 10
-34.4147585341
 20
-22.557679002
 10
-34.3767878115
 20
-22.5472164926
 10
-34.3402304984
 20
-22.5369510473
 10
-34.305346951
 20
-22.5269557751
 10
-34.2723856048
 20
-22.5173018609
 10
-34.2415812059
 20
-22.5080580583
 10
-34.2131531388
 20
-22.4992902006
 10
-34.1873038642
 20
-22.4910607311
 10
-34.1642174771
 20
-22.4834282588
 10
-34.1440583952
 20
-22.4764471412
 10
-34.1269701888
 20
-22.4701670967
 10
-34.1130745577
 20
-22.464632851
 10
-34.1024704646
 20
-22.459883818
 10
-34.0952334302
 20
-22.4559538197
 10
-34.0914149959
 20
-22.452870845
  0
LWPOLYLINE
  5
2D2
100
AcDbEntity
  8
ASSI
100
AcDbPolyline
 62
253
  6
CONTINUOUS
 90
15
 70
0
 10
-34.4147585341
 20
-22.557679002
 10
-34.3767878115
 20
-22.5472164926
 10
-34.3402304984
 20
-22.5369510473
 10
-34.305346951
 20
-22.5269557751
 10
-34.2723856048
 20
-22.5173018609
 10
-34.2415812059
 20
-22.5080580583
 10
-34.2131531388
 20
-22.4992902006
 10
-34.1873038642
 20
-22.4910607311
 10
-34.1642174771
 20
-22.4834282588
 10
-34.1440583952
 20
-22.4764471412
 10
-34.1269701888
 20
-22.4701670967
 10
-34.1130745577
 20
-22.464632851
 10
-34.1024704646
 20
-22.459883818
 10
-34.0952334302
 20
-22.4559538197
 10
-34.0914149959
 20
-22.452870845
  0
LINE
  5
2D3
100
AcDbEntity
  8
RACCORDO
100
AcDbLine
 62
253
  6
CONTINUOUS
 10
-34.4938503795
 20
-22.5788962901
 11
-34.4147585341
 21
-22.557679002
  0
LINE
  5
2D4
100
AcDbEntity
  8
ASSI
100
AcDbLine
 62
253
  6
CONTINUOUS
 10
-34.4938503795
 20
-22.5788962901
 11
-34.4147585341
 21
-22.557679002
  0
LINE
  5
2D5
100
AcDbEntity
  8
RACCORDO
100
AcDbLine
 62
253
  6
CONTINUOUS
 10
-34.5752569227
 20
-22.5999995618
 11
-34.4938503795
 21
-22.5788962901
  0
LINE
  5
2D6
100
AcDbEntity
  8
ASSI
100
AcDbLine
 62
253
  6
CONTINUOUS
 10
-34.5752569227
 20
-22.5999995618
 11
-34.4938503795
 21
-22.5788962901
  0
LINE
  5
2D7
100
AcDbEntity
  8
RACCORDO
100
AcDbLine
 62
253
  6
CONTINUOUS
 10
34.575256923
 20
-22.5999994819
 11
34.4938503431
 21
-22.578896211
  0
LINE
  5
2D8
100
AcDbEntity
  8
ASSI
100
AcDbLine
 62
253
  6
CONTINUOUS
 10
34.575256923
 20
-22.5999994819
 11
34.4938503431
 21
-22.578896211
  0
LWPOLYLINE
  5
2D9
100
AcDbEntity
  8
RACCORDO
100
AcDbPolyline
 62
253
  6
CONTINUOUS
 90
16
 70
0
 10
34.4938503431
 20
-22.578896211
 10
34.4147584215
 20
-22.5576789139
 10
34.3767876497
 20
-22.5472163973
 10
34.3402302822
 20
-22.5369509432
 10
34.3053466765
 20
-22.5269556612
 10
34.2723852698
 20
-22.5173017364
 10
34.2415808096
 20
-22.508057923
 10
34.2131526819
 20
-22.4992900544
 10
34.1873033486
 20
-22.4910605744
 10
34.1642169058
 20
-22.4834280922
 10
34.1440577728
 20
-22.4764469656
 10
34.1269695205
 20
-22.4701669134
 10
34.1130738496
 20
-22.4646326613
 10
34.1024697236
 20
-22.4598836236
 10
34.0952326639
 20
-22.4559536225
 10
34.091414212
 20
-22.4528706468
  0
LWPOLYLINE
  5
2DA
100
AcDbEntity
  8
ASSI
100
AcDbPolyline
 62
253
  6
CONTINUOUS
 90
16
 70
0
 10
34.4938503431
 20
-22.578896211
 10
34.4147584215
 20
-22.5576789139
 10
34.3767876497
 20
-22.5472163973
 10
34.3402302822
 20
-22.5369509432
 10
34.3053466765
 20
-22.5269556612
 10
34.2723852698
 20
-22.5173017364
 10
34.2415808096
 20
-22.508057923
 10
34.2131526819
 20
-22.4992900544
 10
34.1873033486
 20
-22.4910605744
 10
34.1642169058
 20
-22.4834280922
 10
34.1440577728
 20
-22.4764469656
 10
34.1269695205
 20
-22.4701669134
 10
34.1130738496
 20
-22.4646326613
 10
34.1024697236
 20
-22.4598836236
 10
34.0952326639
 20
-22.4559536225
 10
34.091414212
 20
-22.4528706468
  0
LINE
  5
2DB
100
AcDbEntity
  8
SCRITTA
100
AcDbLine
 62
253
  6
CONTINUOUS
 10
-5.433668
 20
-26.078098
 11
-4.546107
 21
-28.877801
  0
LINE
  5
2DC
100
AcDbEntity
  8
SCRITTA
100
AcDbLine
 62
253
  6
CONTINUOUS
 10
-4.265146
 20
-28.00522
 11
-4.79882
 21
-26.078098
  0
LINE
  5
2DD
100
AcDbEntity
  8
RACCORDO
100
AcDbLine
 62
253
  6
CONTINUOUS
 10
-34.1038476666
 20
-22.3542618022
 11
-34.0500000078
 21
-22.3005575342
  0
LINE
  5
2DE
100
AcDbEntity
  8
ASSI
100
AcDbLine
 62
253
  6
CONTINUOUS
 10
-34.1038476666
 20
-22.3542618022
 11
-34.0500000078
 21
-22.3005575342
  0
LINE
  5
2DF
100
AcDbEntity
  8
RACCORDO
100
AcDbLine
 62
253
  6
CONTINUOUS
 10
-33.7019737359
 20
-22.7523215624
 11
-33.6494952776
 21
-22.7
  0
LINE
  5
2E0
100
AcDbEntity
  8
ASSI
100
AcDbLine
 62
253
  6
CONTINUOUS
 10
-33.7019737359
 20
-22.7523215624
 11
-33.6494952776
 21
-22.7
  0
LINE
  5
2E1
100
AcDbEntity
  8
RACCORDO
100
AcDbLine
 62
253
  6
CONTINUOUS
 10
-34.1038476723
 20
22.3542705048
 11
-34.0500000078
 21
22.3005575342
  0
LINE
  5
2E2
100
AcDbEntity
  8
ASSI
100
AcDbLine
 62
253
  6
CONTINUOUS
 10
-34.1038476723
 20
22.3542705048
 11
-34.0500000078
 21
22.3005575342
  0
LINE
  5
2E3
100
AcDbEntity
  8
RACCORDO
100
AcDbLine
 62
253
  6
CONTINUOUS
 10
-33.7019458035
 20
22.7523215624
 11
-33.6494952776
 21
22.7
  0
LINE
  5
2E4
100
AcDbEntity
  8
ASSI
100
AcDbLine
 62
253
  6
CONTINUOUS
 10
-33.7019458035
 20
22.7523215624
 11
-33.6494952776
 21
22.7
  0
LWPOLYLINE
  5
2E5
100
AcDbEntity
  8
SCRITTA
100
AcDbPolyline
 62
253
  6
CONTINUOUS
 90
47
 70
0
 10
4.6113801163
 20
-28.0286044903
 10
4.6074473753
 20
-28.0185081936
 10
4.6033376035
 20
-28.0086531842
 10
4.5990598962
 20
-27.999037008
 10
4.5946233489
 20
-27.9896572109
 10
4.5900370571
 20
-27.9805113387
 10
4.585310116
 20
-27.9715969374
 10
4.5804516212
 20
-27.9629115526
 10
4.5754706681
 20
-27.9544527304
 10
4.5703763521
 20
-27.9462180165
 10
4.5651777687
 20
-27.9382049568
 10
4.5592883292
 20
-27.9295583474
 10
4.5532818147
 20
-27.9211778507
 10
4.5471586469
 20
-27.9130589618
 10
4.540919247
 20
-27.9051971762
 10
4.5345640367
 20
-27.897587989
 10
4.5280934372
 20
-27.8902268956
 10
4.5215078701
 20
-27.8831093912
 10
4.5148077569
 20
-27.8762309711
 10
4.5079935189
 20
-27.8695871305
 10
4.5010657924
 20
-27.8631747209
 10
4.4940260722
 20
-27.8569960178
 10
4.4868760678
 20
-27.8510546533
 10
4.4796174889
 20
-27.845354259
 10
4.472252045
 20
-27.8398984668
 10
4.4647814457
 20
-27.8346909085
 10
4.4572074004
 20
-27.8297352159
 10
4.4495316188
 20
-27.8250350209
 10
4.4417558105
 20
-27.8205939552
 10
4.4338814921
 20
-27.8164143027
 10
4.4259094088
 20
-27.8124929547
 10
4.4178401129
 20
-27.8088254548
 10
4.4096741568
 20
-27.8054073465
 10
4.4014120927
 20
-27.8022341732
 10
4.393054473
 20
-27.7993014783
 10
4.38460185
 20
-27.7966048053
 10
4.376054776
 20
-27.7941396976
 10
4.3674138033
 20
-27.7919016988
 10
4.3586793611
 20
-27.7898875973
 10
4.3498513859
 20
-27.7880991619
 10
4.3409296911
 20
-27.7865394064
 10
4.3319140902
 20
-27.7852113445
 10
4.3228043966
 20
-27.7841179903
 10
4.3136004235
 20
-27.7832623573
 10
4.3043019846
 20
-27.7826474596
 10
4.294908893
 20
-27.7822763108
 10
4.2854209623
 20
-27.7821519248
  0
LINE
  5
2E6
100
AcDbEntity
  8
SCRITTA
100
AcDbLine
 62
253
  6
CONTINUOUS
 10
-1.330068
 20
-27.049647
 11
-0.644487
 21
-28.877801
  0
LINE
  5
2E7
100
AcDbEntity
  8
SCRITTA
100
AcDbLine
 62
253
  6
CONTINUOUS
 10
-0.600314
 20
-27.632502
 11
-1.17855
 21
-26.078098
  0
LINE
  5
2E8
100
AcDbEntity
  8
SCRITTA
100
AcDbLine
 62
253
  6
CONTINUOUS
 10
3.218408
 20
-28.877801
 11
2.35939
 21
-26.078098
  0
LINE
  5
2E9
100
AcDbEntity
  8
SCRITTA
100
AcDbLine
 62
253
  6
CONTINUOUS
 10
0.824112
 20
-28.877801
 11
0.562308
 21
-26.078098
  0
LINE
  5
2EA
100
AcDbEntity
  8
SCRITTA
100
AcDbLine
 62
253
  6
CONTINUOUS
 10
0.132337
 20
-27.057269
 11
0.252406
 21
-28.877801
  0
LINE
  5
2EB
100
AcDbEntity
  8
SCRITTA
100
AcDbLine
 62
253
  6
CONTINUOUS
 10
-2.914285
 20
-28.877801
 11
-2.914285
 21
-26.0779299257
  0
LINE
  5
2EC
100
AcDbEntity
  8
SCRITTA
100
AcDbLine
 62
253
  6
CONTINUOUS
 10
-2.329877
 20
-26.07793
 11
-2.329877
 21
-28.8778010742
  0
LINE
  5
2ED
100
AcDbEntity
  8
SCRITTA
100
AcDbLine
 62
253
  6
CONTINUOUS
 10
-1.456183
 20
-28.877801
 11
-1.330068
 21
-27.049647
  0
LINE
  5
2EE
100
AcDbEntity
  8
SCRITTA
100
AcDbLine
 62
253
  6
CONTINUOUS
 10
-1.762475
 20
-26.078098
 11
-2.015272
 21
-28.877801
  0
LINE
  5
2EF
100
AcDbEntity
  8
RACCORDO
100
AcDbLine
 62
253
  6
CONTINUOUS
 10
-44.8893468268
 20
-44.0903570154
 11
-44.9999972781
 21
-44.2028602166
  0
LINE
  5
2F0
100
AcDbEntity
  8
ASSI
100
AcDbLine
 62
253
  6
CONTINUOUS
 10
-44.8893468268
 20
-44.0903570154
 11
-44.9999972781
 21
-44.2028602166
  0
LINE
  5
2F1
100
AcDbEntity
  8
RACCORDO
100
AcDbLine
 62
253
  6
CONTINUOUS
 10
44.0971848203
 20
44.8793346272
 11
44.2157627907
 21
44.9998446939
  0
LINE
  5
2F2
100
AcDbEntity
  8
ASSI
100
AcDbLine
 62
253
  6
CONTINUOUS
 10
44.0971848203
 20
44.8793346272
 11
44.2157627907
 21
44.9998446939
  0
LINE
  5
2F3
100
AcDbEntity
  8
RACCORDO
100
AcDbLine
 62
253
  6
CONTINUOUS
 10
-44.0971848203
 20
-44.8793346272
 11
-44.2157627907
 21
-44.9998446939
  0
LINE
  5
2F4
100
AcDbEntity
  8
ASSI
100
AcDbLine
 62
253
  6
CONTINUOUS
 10
-44.0971848203
 20
-44.8793346272
 11
-44.2157627907
 21
-44.9998446939
  0
LINE
  5
2F5
100
AcDbEntity
  8
RACCORDO
100
AcDbLine
 62
253
  6
CONTINUOUS
 10
44.0971848203
 20
-44.8793346272
 11
44.2157627907
 21
-44.9998446939
  0
LINE
  5
2F6
100
AcDbEntity
  8
ASSI
100
AcDbLine
 62
253
  6
CONTINUOUS
 10
44.0971848203
 20
-44.8793346272
 11
44.2157627907
 21
-44.9998446939
  0
LINE
  5
2F7
100
AcDbEntity
  8
RACCORDO
100
AcDbLine
 62
253
  6
CONTINUOUS
 10
-44.0971848203
 20
44.8793346272
 11
-44.2157627907
 21
44.9998446939
  0
LINE
  5
2F8
100
AcDbEntity
  8
ASSI
100
AcDbLine
 62
253
  6
CONTINUOUS
 10
-44.0971848203
 20
44.8793346272
 11
-44.2157627907
 21
44.9998446939
  0
LINE
  5
2F9
100
AcDbEntity
  8
RACCORDO
100
AcDbLine
 62
253
  6
CONTINUOUS
 10
-44.8893468268
 20
44.0903570154
 11
-44.9999972781
 21
44.2028602166
  0
LINE
  5
2FA
100
AcDbEntity
  8
ASSI
100
AcDbLine
 62
253
  6
CONTINUOUS
 10
-44.8893468268
 20
44.0903570154
 11
-44.9999972781
 21
44.2028602166
  0
LWPOLYLINE
  5
2FB
100
AcDbEntity
  8
SCRITTA
100
AcDbPolyline
 62
253
  6
CONTINUOUS
 90
8
 70
0
 10
4.69753048
 20
-28.2917875275
 10
4.685952164
 20
-28.2527697209
 10
4.6742046201
 20
-28.2142017441
 10
4.6622448694
 20
-28.1761011016
 10
4.6500299336
 20
-28.138485298
 10
4.6375168339
 20
-28.1013718376
 10
4.6246625918
 20
-28.0647782249
 10
4.6114242287
 20
-28.0287219646
  0
LINE
  5
2FC
100
AcDbEntity
  8
SCRITTA
100
AcDbLine
 62
253
  6
CONTINUOUS
 10
4.8520976933
 20
-28.8261999289
 11
4.778865333
 21
-28.5759797019
  0
LINE
  5
2FD
100
AcDbEntity
  8
SCRITTA
100
AcDbLine
 62
253
  6
CONTINUOUS
 10
4.8670156219
 20
-28.8778013544
 11
4.8520976933
 21
-28.8261999289
  0
LWPOLYLINE
  5
2FE
100
AcDbEntity
  8
SCRITTA
100
AcDbPolyline
 62
253
  6
CONTINUOUS
 90
4
 70
0
 10
4.778865333
 20
-28.5759797019
 10
4.7375641915
 20
-28.4316211561
 10
4.724195575
 20
-28.3844746398
 10
4.69753048
 20
-28.2917875275
  0
LINE
  5
2FF
100
AcDbEntity
  8
SCRITTA
100
AcDbLine
 62
253
  6
CONTINUOUS
 10
2.451074
 20
-28.318881
 11
2.602466
 21
-28.877801
  0
LINE
  5
300
100
AcDbEntity
  8
SCRITTA
100
AcDbLine
 62
253
  6
CONTINUOUS
 10
5.2108590959
 20
-28.0519630063
 11
5.2644801142
 21
-28.2504821452
  0
LINE
  5
301
100
AcDbEntity
  8
SCRITTA
100
AcDbLine
 62
253
  6
CONTINUOUS
 10
5.3966396493
 20
-28.7557896901
 11
5.4291482119
 21
-28.8778013544
  0
LINE
  5
302
100
AcDbEntity
  8
SCRITTA
100
AcDbLine
 62
253
  6
CONTINUOUS
 10
5.2644801142
 20
-28.2504821452
 11
5.331759106
 21
-28.5064412296
  0
LINE
  5
303
100
AcDbEntity
  8
SCRITTA
100
AcDbLine
 62
253
  6
CONTINUOUS
 10
5.331759106
 20
-28.5064412296
 11
5.3966396493
 21
-28.7557896901
  0
LINE
  5
304
100
AcDbEntity
  8
SCRITTA
100
AcDbLine
 62
253
  6
CONTINUOUS
 10
2.065737
 20
-26.847385
 11
2.33428
 21
-27.886391
  0
LWPOLYLINE
  5
305
100
AcDbEntity
  8
SCRITTA
100
AcDbPolyline
 62
253
  6
CONTINUOUS
 90
49
 70
0
 10
4.740655522
 20
-26.889016207
 10
4.7403446749
 20
-26.8785150712
 10
4.7397141894
 20
-26.8680715686
 10
4.7387671915
 20
-26.8576818772
 10
4.7375068075
 20
-26.8473421751
 10
4.7359361636
 20
-26.8370486403
 10
4.7340583858
 20
-26.8267974507
 10
4.7318766004
 20
-26.8165847845
 10
4.7293939336
 20
-26.8064068196
 10
4.7266129832
 20
-26.7962622568
 10
4.7235342337
 20
-26.7861598882
 10
4.7201576413
 20
-26.7761110285
 10
4.7164831623
 20
-26.7661269926
 10
4.7125107528
 20
-26.7562190952
 10
4.708240369
 20
-26.7463986512
 10
4.7036719672
 20
-26.7366769754
 10
4.6988055035
 20
-26.7270653826
 10
4.6936409138
 20
-26.7175756884
 10
4.6881780517
 20
-26.7082217119
 10
4.6824167507
 20
-26.6990177731
 10
4.6763568442
 20
-26.689978192
 10
4.6699981655
 20
-26.6811172886
 10
4.6633405479
 20
-26.6724493827
 10
4.6563838248
 20
-26.6639887944
 10
4.6491278295
 20
-26.6557498436
 10
4.6415743525
 20
-26.6477453795
 10
4.6337330116
 20
-26.6399823687
 10
4.6256153819
 20
-26.6324663066
 10
4.6172330383
 20
-26.6252026892
 10
4.6085975559
 20
-26.6181970119
 10
4.5997205095
 20
-26.6114547705
 10
4.5906134741
 20
-26.6049814608
 10
4.5812880248
 20
-26.5987825783
 10
4.5717557512
 20
-26.5928628692
 10
4.5620283022
 20
-26.587224081
 10
4.5521173414
 20
-26.5818672116
 10
4.5420345323
 20
-26.576793259
 10
4.5317915386
 20
-26.5720032212
 10
4.5214000239
 20
-26.567498096
 10
4.5108716518
 20
-26.5632788814
 10
4.5002180858
 20
-26.5593465754
 10
4.4894483162
 20
-26.5557026362
 10
4.4785606395
 20
-26.552350363
 10
4.467550679
 20
-26.5492935155
 10
4.4564140577
 20
-26.5465358533
 10
4.4451463988
 20
-26.5440811359
 10
4.4337433256
 20
-26.5419331229
 10
4.4222004612
 20
-26.540095574
 10
4.4105134288
 20
-26.5385722487
  0
LINE
  5
306
100
AcDbEntity
  8
SCRITTA
100
AcDbLine
 62
253
  6
CONTINUOUS
 10
3.3900188023
 20
-28.8778013544
 11
3.3900188023
 21
-26.1108074645
  0
LINE
  5
307
100
AcDbEntity
  8
SCRITTA
100
AcDbLine
 62
253
  6
CONTINUOUS
 10
3.9526972541
 20
-26.5550547959
 11
3.9526972541
 21
-27.3236281143
  0
LINE
  5
308
100
AcDbEntity
  8
SCRITTA
100
AcDbLine
 62
253
  6
CONTINUOUS
 10
3.9720753449
 20
-27.7821519248
 11
3.9720753449
 21
-28.8778013422
  0
LINE
  5
309
100
AcDbEntity
  8
SCRITTA
100
AcDbLine
 62
253
  6
CONTINUOUS
 10
4.8925031649
 20
-27.554380628
 11
4.8925031649
 21
-27.5709244373
  0
LINE
  5
30A
100
AcDbEntity
  8
SCRITTA
100
AcDbLine
 62
253
  6
CONTINUOUS
 10
-3.715169
 20
-26.078098
 11
-4.265146
 21
-28.00522
  0
LINE
  5
30B
100
AcDbEntity
  8
SCRITTA
100
AcDbLine
 62
253
  6
CONTINUOUS
 10
-4.031097
 20
-28.877801
 11
-3.13116
 21
-26.078098
  0
LINE
  5
30C
100
AcDbEntity
  8
RACCORDO
100
AcDbLine
 62
253
  6
CONTINUOUS
 10
44.8893468268
 20
44.0903570153
 11
44.9999972781
 21
44.2028602166
  0
LINE
  5
30D
100
AcDbEntity
  8
ASSI
100
AcDbLine
 62
253
  6
CONTINUOUS
 10
44.8893468268
 20
44.0903570153
 11
44.9999972781
 21
44.2028602166
  0
LINE
  5
30E
100
AcDbEntity
  8
RACCORDO
100
AcDbLine
 62
253
  6
CONTINUOUS
 10
44.8893468268
 20
-44.0903570155
 11
44.9999972781
 21
-44.2028602166
  0
LINE
  5
30F
100
AcDbEntity
  8
ASSI
100
AcDbLine
 62
253
  6
CONTINUOUS
 10
44.8893468268
 20
-44.0903570155
 11
44.9999972781
 21
-44.2028602166
  0
LINE
  5
310
100
AcDbEntity
  8
SCRITTA
100
AcDbLine
 62
253
  6
CONTINUOUS
 10
1.774751
 20
-27.886391
 11
2.065737
 21
-26.847385
  0
LINE
  5
311
100
AcDbEntity
  8
SCRITTA
100
AcDbLine
 62
253
  6
CONTINUOUS
 10
1.493947
 20
-28.877801
 11
1.655207
 21
-28.318881
  0
LINE
  5
312
100
AcDbEntity
  8
SCRITTA
100
AcDbLine
 62
253
  6
CONTINUOUS
 10
1.794045
 20
-26.078098
 11
0.91588
 21
-28.877801
  0
LINE
  5
313
100
AcDbEntity
  8
SCRITTA
100
AcDbLine
 62
253
  6
CONTINUOUS
 10
-0.015906
 20
-26.078098
 11
-0.600314
 21
-27.632502
  0
LINE
  5
314
100
AcDbEntity
  8
SCRITTA
100
AcDbLine
 62
253
  6
CONTINUOUS
 10
-0.562524
 20
-28.877801
 11
0.132337
 21
-27.057269
  0
LINE
  5
315
100
AcDbEntity
  8
RACCORDO
100
AcDbLine
 62
253
  6
CONTINUOUS
 10
33.6494952776
 20
22.7
 11
33.7019458155
 21
22.7523215624
  0
LINE
  5
316
100
AcDbEntity
  8
ASSI
100
AcDbLine
 62
253
  6
CONTINUOUS
 10
33.6494952776
 20
22.7
 11
33.7019458155
 21
22.7523215624
  0
LINE
  5
317
100
AcDbEntity
  8
RACCORDO
100
AcDbLine
 62
253
  6
CONTINUOUS
 10
34.0500000078
 20
22.3005575342
 11
34.1038476724
 21
22.3542706501
  0
LINE
  5
318
100
AcDbEntity
  8
ASSI
100
AcDbLine
 62
253
  6
CONTINUOUS
 10
34.0500000078
 20
22.3005575342
 11
34.1038476724
 21
22.3542706501
  0
LINE
  5
319
100
AcDbEntity
  8
RACCORDO
100
AcDbLine
 62
253
  6
CONTINUOUS
 10
33.7019456928
 20
-22.7523215624
 11
33.6494952776
 21
-22.7
  0
LINE
  5
31A
100
AcDbEntity
  8
ASSI
100
AcDbLine
 62
253
  6
CONTINUOUS
 10
33.7019456928
 20
-22.7523215624
 11
33.6494952776
 21
-22.7
  0
LINE
  5
31B
100
AcDbEntity
  8
RACCORDO
100
AcDbLine
 62
253
  6
CONTINUOUS
 10
34.1038476715
 20
-22.3542691783
 11
34.0500000078
 21
-22.3005575342
  0
LINE
  5
31C
100
AcDbEntity
  8
ASSI
100
AcDbLine
 62
253
  6
CONTINUOUS
 10
34.1038476715
 20
-22.3542691783
 11
34.0500000078
 21
-22.3005575342
  0
LWPOLYLINE
  5
31D
100
AcDbEntity
  8
RACCORDO
100
AcDbPolyline
 62
253
  6
CONTINUOUS
 90
15
 70
0
 10
34.4147587475
 20
22.5576791563
 10
34.3767881103
 20
22.5472166583
 10
34.3402308904
 20
22.5369512267
 10
34.305347441
 20
22.52695597
 10
34.2723861954
 20
22.5173020723
 10
34.241581897
 20
22.508058287
 10
34.2131539281
 20
22.4992904464
 10
34.1873047471
 20
22.4910609932
 10
34.1642184469
 20
22.4834285362
 10
34.1440594434
 20
22.4764474321
 10
34.1269713054
 20
22.4701673989
 10
34.113075731
 20
22.4646331619
 10
34.102471682
 20
22.4598841347
 10
34.0952346782
 20
22.4559541391
 10
34.0914162602
 20
22.4528711636
  0
LWPOLYLINE
  5
31E
100
AcDbEntity
  8
ASSI
100
AcDbPolyline
 62
253
  6
CONTINUOUS
 90
15
 70
0
 10
34.4147587475
 20
22.5576791563
 10
34.3767881103
 20
22.5472166583
 10
34.3402308904
 20
22.5369512267
 10
34.305347441
 20
22.52695597
 10
34.2723861954
 20
22.5173020723
 10
34.241581897
 20
22.508058287
 10
34.2131539281
 20
22.4992904464
 10
34.1873047471
 20
22.4910609932
 10
34.1642184469
 20
22.4834285362
 10
34.1440594434
 20
22.4764474321
 10
34.1269713054
 20
22.4701673989
 10
34.113075731
 20
22.4646331619
 10
34.102471682
 20
22.4598841347
 10
34.0952346782
 20
22.4559541391
 10
34.0914162602
 20
22.4528711636
  0
LINE
  5
31F
100
AcDbEntity
  8
RACCORDO
100
AcDbLine
 62
253
  6
CONTINUOUS
 10
34.4938504555
 20
22.5788964317
 11
34.4147587475
 21
22.5576791563
  0
LINE
  5
320
100
AcDbEntity
  8
ASSI
100
AcDbLine
 62
253
  6
CONTINUOUS
 10
34.4938504555
 20
22.5788964317
 11
34.4147587475
 21
22.5576791563
  0
LINE
  5
321
100
AcDbEntity
  8
RACCORDO
100
AcDbLine
 62
253
  6
CONTINUOUS
 10
34.575256923
 20
22.5999997079
 11
34.4938504555
 21
22.5788964317
  0
LINE
  5
322
100
AcDbEntity
  8
ASSI
100
AcDbLine
 62
253
  6
CONTINUOUS
 10
34.575256923
 20
22.5999997079
 11
34.4938504555
 21
22.5788964317
  0
LINE
  5
323
100
AcDbEntity
  8
RACCORDO
100
AcDbLine
 62
253
  6
CONTINUOUS
 10
-34.5752569231
 20
22.5999995164
 11
-34.4938503588
 21
22.5788962445
  0
LINE
  5
324
100
AcDbEntity
  8
ASSI
100
AcDbLine
 62
253
  6
CONTINUOUS
 10
-34.5752569231
 20
22.5999995164
 11
-34.4938503588
 21
22.5788962445
  0
LWPOLYLINE
  5
325
100
AcDbEntity
  8
RACCORDO
100
AcDbPolyline
 62
253
  6
CONTINUOUS
 90
16
 70
0
 10
-34.4938503588
 20
22.5788962445
 10
-34.4147584658
 20
22.5576789499
 10
-34.3767877119
 20
22.5472164354
 10
-34.3402303638
 20
22.536950984
 10
-34.3053467786
 20
22.526955705
 10
-34.2723853929
 20
22.5173017835
 10
-34.2415809537
 20
22.5080579734
 10
-34.2131528465
 20
22.4992901082
 10
-34.1873035328
 20
22.4910606312
 10
-34.1642171082
 20
22.483428152
 10
-34.1440579916
 20
22.476447028
 10
-34.1269697537
 20
22.4701669778
 10
-34.1130740948
 20
22.4646327273
 10
-34.1024699781
 20
22.4598836905
 10
-34.0952329249
 20
22.4559536896
 10
-34.0914144766
 20
22.4528707134
  0
LWPOLYLINE
  5
326
100
AcDbEntity
  8
ASSI
100
AcDbPolyline
 62
253
  6
CONTINUOUS
 90
16
 70
0
 10
-34.4938503588
 20
22.5788962445
 10
-34.4147584658
 20
22.5576789499
 10
-34.3767877119
 20
22.5472164354
 10
-34.3402303638
 20
22.536950984
 10
-34.3053467786
 20
22.526955705
 10
-34.2723853929
 20
22.5173017835
 10
-34.2415809537
 20
22.5080579734
 10
-34.2131528465
 20
22.4992901082
 10
-34.1873035328
 20
22.4910606312
 10
-34.1642171082
 20
22.483428152
 10
-34.1440579916
 20
22.476447028
 10
-34.1269697537
 20
22.4701669778
 10
-34.1130740948
 20
22.4646327273
 10
-34.1024699781
 20
22.4598836905
 10
-34.0952329249
 20
22.4559536896
 10
-34.0914144766
 20
22.4528707134
  0
LWPOLYLINE
  5
327
100
AcDbEntity
  8
RACCORDO
100
AcDbPolyline
 62
7
  6
CONTINUOUS
 90
22
 70
0
 10
-33.6494952776
 20
22.7
 10
-33.6796269177
 20
22.6988321564
 10
-33.709253171
 20
22.6955125192
 10
-33.7383740375
 20
22.690041086
 10
-33.7671219346
 20
22.6823782301
 10
-33.795364445
 20
22.6725635685
 10
-33.8227043167
 20
22.6607159622
 10
-33.8491572833
 20
22.6468019601
 10
-33.8747076112
 20
22.6308549955
 10
-33.8989108484
 20
22.6130942544
 10
-33.9217751036
 20
22.5934381186
 10
-33.9432922681
 20
22.5719681831
 10
-33.9629935639
 20
22.5491484569
 10
-33.9808002827
 20
22.5249746007
 10
-33.9967911326
 20
22.4994509326
 10
-34.0107334604
 20
22.4730544543
 10
-34.0225831646
 20
22.4458235219
 10
-34.0323843466
 20
22.4177197639
 10
-34.0400366569
 20
22.3891050981
 10
-34.0455066456
 20
22.3601001619
 10
-34.0488277626
 20
22.3305843089
 10
-34.0500000078
 20
22.3005575342
  0
LWPOLYLINE
  5
328
100
AcDbEntity
  8
ASSI
100
AcDbPolyline
 62
7
  6
CONTINUOUS
 90
22
 70
0
 10
-33.6494952776
 20
22.7
 10
-33.6796269177
 20
22.6988321564
 10
-33.709253171
 20
22.6955125192
 10
-33.7383740375
 20
22.690041086
 10
-33.7671219346
 20
22.6823782301
 10
-33.795364445
 20
22.6725635685
 10
-33.8227043167
 20
22.6607159622
 10
-33.8491572833
 20
22.6468019601
 10
-33.8747076112
 20
22.6308549955
 10
-33.8989108484
 20
22.6130942544
 10
-33.9217751036
 20
22.5934381186
 10
-33.9432922681
 20
22.5719681831
 10
-33.9629935639
 20
22.5491484569
 10
-33.9808002827
 20
22.5249746007
 10
-33.9967911326
 20
22.4994509326
 10
-34.0107334604
 20
22.4730544543
 10
-34.0225831646
 20
22.4458235219
 10
-34.0323843466
 20
22.4177197639
 10
-34.0400366569
 20
22.3891050981
 10
-34.0455066456
 20
22.3601001619
 10
-34.0488277626
 20
22.3305843089
 10
-34.0500000078
 20
22.3005575342
  0
LWPOLYLINE
  5
329
100
AcDbEntity
  8
RACCORDO
100
AcDbPolyline
 62
253
  6
CONTINUOUS
 90
16
 70
0
 10
34.4779759784
 20
22.3770295853
 10
34.4376358437
 20
22.3764197292
 10
34.3984728184
 20
22.3756430175
 10
34.3607654052
 20
22.3747049736
 10
34.3247817556
 20
22.3736122683
 10
34.2907777628
 20
22.3723726722
 10
34.258995242
 20
22.3709950005
 10
34.2296602104
 20
22.3694890504
 10
34.2029812804
 20
22.3678655313
 10
34.1791481759
 20
22.3661359887
 10
34.158330383
 20
22.3643127218
 10
34.1406759447
 20
22.3624086967
 10
34.1263104084
 20
22.3604374536
 10
34.1153359327
 20
22.3584130108
 10
34.1078305613
 20
22.3563497648
 10
34.1038476676
 20
22.3542623881
  0
LWPOLYLINE
  5
32A
100
AcDbEntity
  8
ASSI
100
AcDbPolyline
 62
253
  6
CONTINUOUS
 90
16
 70
0
 10
34.4779759784
 20
22.3770295853
 10
34.4376358437
 20
22.3764197292
 10
34.3984728184
 20
22.3756430175
 10
34.3607654052
 20
22.3747049736
 10
34.3247817556
 20
22.3736122683
 10
34.2907777628
 20
22.3723726722
 10
34.258995242
 20
22.3709950005
 10
34.2296602104
 20
22.3694890504
 10
34.2029812804
 20
22.3678655313
 10
34.1791481759
 20
22.3661359887
 10
34.158330383
 20
22.3643127218
 10
34.1406759447
 20
22.3624086967
 10
34.1263104084
 20
22.3604374536
 10
34.1153359327
 20
22.3584130108
 10
34.1078305613
 20
22.3563497648
 10
34.1038476676
 20
22.3542623881
  0
LWPOLYLINE
  5
32B
100
AcDbEntity
  8
RACCORDO
100
AcDbPolyline
 62
253
  6
CONTINUOUS
 90
3
 70
0
 10
-44.5153294007
 20
22.5367150238
 10
-44.4341260803
 20
22.5373905016
 10
-44.3929665926
 20
22.5374749911
  0
LWPOLYLINE
  5
32C
100
AcDbEntity
  8
ASSI
100
AcDbPolyline
 62
253
  6
CONTINUOUS
 90
3
 70
0
 10
-44.5153294007
 20
22.5367150238
 10
-44.4341260803
 20
22.5373905016
 10
-44.3929665926
 20
22.5374749911
  0
LINE
  5
32D
100
AcDbEntity
  8
RACCORDO
100
AcDbLine
 62
253
  6
CONTINUOUS
 10
-44.5153278514
 20
22.5992404614
 11
-44.4341246211
 21
22.5999161283
  0
LINE
  5
32E
100
AcDbEntity
  8
ASSI
100
AcDbLine
 62
253
  6
CONTINUOUS
 10
-44.5153278514
 20
22.5992404614
 11
-44.4341246211
 21
22.5999161283
  0
LWPOLYLINE
  5
32F
100
AcDbEntity
  8
RACCORDO
100
AcDbPolyline
 62
253
  6
CONTINUOUS
 90
3
 70
0
 10
34.6031607314
 20
22.3778207594
 10
34.5610337496
 20
22.3777326
 10
34.4779759784
 20
22.3770295853
  0
LWPOLYLINE
  5
330
100
AcDbEntity
  8
ASSI
100
AcDbPolyline
 62
253
  6
CONTINUOUS
 90
3
 70
0
 10
34.6031607314
 20
22.3778207594
 10
34.5610337496
 20
22.3777326
 10
34.4779759784
 20
22.3770295853
  0
LINE
  5
331
100
AcDbEntity
  8
RACCORDO
100
AcDbLine
 62
253
  6
CONTINUOUS
 10
45.0
 20
22.5146222223
 11
44.8910591581
 21
22.5146222223
  0
LINE
  5
332
100
AcDbEntity
  8
ASSI
100
AcDbLine
 62
253
  6
CONTINUOUS
 10
45.0
 20
22.5146222223
 11
44.8910591581
 21
22.5146222223
  0
LINE
  5
333
100
AcDbEntity
  8
RACCORDO
100
AcDbLine
 62
253
  6
CONTINUOUS
 10
-45.0
 20
22.5146222223
 11
-44.891059158
 21
22.5146246745
  0
LINE
  5
334
100
AcDbEntity
  8
ASSI
100
AcDbLine
 62
253
  6
CONTINUOUS
 10
-45.0
 20
22.5146222223
 11
-44.891059158
 21
22.5146246745
  0
LINE
  5
335
100
AcDbEntity
  8
RACCORDO
100
AcDbLine
 62
253
  6
CONTINUOUS
 10
-34.5752569231
 20
22.6
 11
-44.4341246211
 21
22.5999161283
  0
LINE
  5
336
100
AcDbEntity
  8
ASSI
100
AcDbLine
 62
253
  6
CONTINUOUS
 10
-34.5752569231
 20
22.6
 11
-44.4341246211
 21
22.5999161283
  0
LINE
  5
337
100
AcDbEntity
  8
RACCORDO
100
AcDbLine
 62
7
  6
CONTINUOUS
 10
33.6494952776
 20
22.7
 11
-33.6494952776
 21
22.7
  0
LINE
  5
338
100
AcDbEntity
  8
ASSI
100
AcDbLine
 62
7
  6
CONTINUOUS
 10
33.6494952776
 20
22.7
 11
-33.6494952776
 21
22.7
  0
LINE
  5
339
100
AcDbEntity
  8
RACCORDO
100
AcDbLine
 62
253
  6
CONTINUOUS
 10
-33.7019458035
 20
22.7523215624
 11
33.7019458155
 21
22.7523215624
  0
LINE
  5
33A
100
AcDbEntity
  8
ASSI
100
AcDbLine
 62
253
  6
CONTINUOUS
 10
-33.7019458035
 20
22.7523215624
 11
33.7019458155
 21
22.7523215624
  0
LINE
  5
33B
100
AcDbEntity
  8
RACCORDO
100
AcDbLine
 62
253
  6
CONTINUOUS
 10
-33.701953503
 20
23.2787661362
 11
33.701953503
 21
23.2787661362
  0
LINE
  5
33C
100
AcDbEntity
  8
ASSI
100
AcDbLine
 62
253
  6
CONTINUOUS
 10
-33.701953503
 20
23.2787661362
 11
33.701953503
 21
23.2787661362
  0
LINE
  5
33D
100
AcDbEntity
  8
RACCORDO
100
AcDbLine
 62
253
  6
CONTINUOUS
 10
44.4341246225
 20
22.5999161296
 11
34.5752569231
 21
22.6
  0
LINE
  5
33E
100
AcDbEntity
  8
ASSI
100
AcDbLine
 62
253
  6
CONTINUOUS
 10
44.4341246225
 20
22.5999161296
 11
34.5752569231
 21
22.6
  0
LWPOLYLINE
  5
33F
100
AcDbEntity
  8
RACCORDO
100
AcDbPolyline
 62
253
  6
CONTINUOUS
 90
18
 70
0
 10
-34.6031607314
 20
22.3778207964
 10
-34.5192063672
 20
22.3774682791
 10
-34.4779760126
 20
22.3770296126
 10
-34.4376358969
 20
22.3764197536
 10
-34.3984728931
 20
22.3756430391
 10
-34.3607655034
 20
22.3747049926
 10
-34.3247818787
 20
22.3736122848
 10
-34.2907779115
 20
22.3723726864
 10
-34.2589954162
 20
22.3709950126
 10
-34.2296604097
 20
22.3694890606
 10
-34.2029815037
 20
22.3678655397
 10
-34.1791484215
 20
22.3661359954
 10
-34.1583306488
 20
22.364312727
 10
-34.1406762282
 20
22.3624087006
 10
-34.1263107068
 20
22.3604374562
 10
-34.1153362428
 20
22.3584130122
 10
-34.1078308796
 20
22.356349765
 10
-34.1038479907
 20
22.3542623872
  0
LWPOLYLINE
  5
340
100
AcDbEntity
  8
ASSI
100
AcDbPolyline
 62
253
  6
CONTINUOUS
 90
18
 70
0
 10
-34.6031607314
 20
22.3778207964
 10
-34.5192063672
 20
22.3774682791
 10
-34.4779760126
 20
22.3770296126
 10
-34.4376358969
 20
22.3764197536
 10
-34.3984728931
 20
22.3756430391
 10
-34.3607655034
 20
22.3747049926
 10
-34.3247818787
 20
22.3736122848
 10
-34.2907779115
 20
22.3723726864
 10
-34.2589954162
 20
22.3709950126
 10
-34.2296604097
 20
22.3694890606
 10
-34.2029815037
 20
22.3678655397
 10
-34.1791484215
 20
22.3661359954
 10
-34.1583306488
 20
22.364312727
 10
-34.1406762282
 20
22.3624087006
 10
-34.1263107068
 20
22.3604374562
 10
-34.1153362428
 20
22.3584130122
 10
-34.1078308796
 20
22.356349765
 10
-34.1038479907
 20
22.3542623872
  0
LWPOLYLINE
  5
341
100
AcDbEntity
  8
RACCORDO
100
AcDbPolyline
 62
253
  6
CONTINUOUS
 90
22
 70
0
 10
33.7019457893
 20
22.7523215361
 10
33.7272697234
 20
22.7516159811
 10
33.7524701772
 20
22.749327852
 10
33.777448203
 20
22.745470978
 10
33.8020965231
 20
22.7400685841
 10
33.8263291912
 20
22.7331447118
 10
33.8500801098
 20
22.7247177189
 10
33.8732681219
 20
22.7148138579
 10
33.895788198
 20
22.7034754392
 10
33.9175407292
 20
22.690749619
 10
33.9384363867
 20
22.6766899813
 10
33.9583972348
 20
22.661350484
 10
33.9773461409
 20
22.6447877536
 10
33.9952097355
 20
22.6270653616
 10
34.01191543
 20
22.6082549887
 10
34.0273935478
 20
22.588432102
 10
34.0415823323
 20
22.5676763358
 10
34.0544267177
 20
22.5460693404
 10
34.0658750346
 20
22.5236954709
 10
34.075881711
 20
22.5006430141
 10
34.0844075092
 20
22.4770038707
 10
34.0914186775
 20
22.4528717732
  0
LWPOLYLINE
  5
342
100
AcDbEntity
  8
ASSI
100
AcDbPolyline
 62
253
  6
CONTINUOUS
 90
22
 70
0
 10
33.7019457893
 20
22.7523215361
 10
33.7272697234
 20
22.7516159811
 10
33.7524701772
 20
22.749327852
 10
33.777448203
 20
22.745470978
 10
33.8020965231
 20
22.7400685841
 10
33.8263291912
 20
22.7331447118
 10
33.8500801098
 20
22.7247177189
 10
33.8732681219
 20
22.7148138579
 10
33.895788198
 20
22.7034754392
 10
33.9175407292
 20
22.690749619
 10
33.9384363867
 20
22.6766899813
 10
33.9583972348
 20
22.661350484
 10
33.9773461409
 20
22.6447877536
 10
33.9952097355
 20
22.6270653616
 10
34.01191543
 20
22.6082549887
 10
34.0273935478
 20
22.588432102
 10
34.0415823323
 20
22.5676763358
 10
34.0544267177
 20
22.5460693404
 10
34.0658750346
 20
22.5236954709
 10
34.075881711
 20
22.5006430141
 10
34.0844075092
 20
22.4770038707
 10
34.0914186775
 20
22.4528717732
  0
LWPOLYLINE
  5
343
100
AcDbEntity
  8
RACCORDO
100
AcDbPolyline
 62
253
  6
CONTINUOUS
 90
22
 70
0
 10
33.701953503
 20
23.2787661362
 10
33.7591075058
 20
23.2769013231
 10
33.8155514294
 20
23.2715494429
 10
33.8712852739
 20
23.2627104774
 10
33.9265004
 20
23.2503276276
 10
33.9810054468
 20
23.2344576207
 10
34.0342263325
 20
23.2152707128
 10
34.0861806315
 20
23.1927200491
 10
34.1368507694
 20
23.1668523511
 10
34.1856099407
 20
23.1379782348
 10
34.2324261243
 20
23.1060639405
 10
34.2773313413
 20
23.0711430545
 10
34.3197948501
 20
23.0336272214
 10
34.3597880453
 20
22.9934842258
 10
34.3973395322
 20
22.9507460962
 10
34.4320043848
 20
22.9059208681
 10
34.4637538282
 20
22.8589612591
 10
34.4926166374
 20
22.8099143789
 10
34.5182342116
 20
22.7594298964
 10
34.5404870171
 20
22.7077243394
 10
34.5594945876
 20
22.6545810619
 10
34.5752569231
 20
22.6
  0
LWPOLYLINE
  5
344
100
AcDbEntity
  8
ASSI
100
AcDbPolyline
 62
253
  6
CONTINUOUS
 90
22
 70
0
 10
33.701953503
 20
23.2787661362
 10
33.7591075058
 20
23.2769013231
 10
33.8155514294
 20
23.2715494429
 10
33.8712852739
 20
23.2627104774
 10
33.9265004
 20
23.2503276276
 10
33.9810054468
 20
23.2344576207
 10
34.0342263325
 20
23.2152707128
 10
34.0861806315
 20
23.1927200491
 10
34.1368507694
 20
23.1668523511
 10
34.1856099407
 20
23.1379782348
 10
34.2324261243
 20
23.1060639405
 10
34.2773313413
 20
23.0711430545
 10
34.3197948501
 20
23.0336272214
 10
34.3597880453
 20
22.9934842258
 10
34.3973395322
 20
22.9507460962
 10
34.4320043848
 20
22.9059208681
 10
34.4637538282
 20
22.8589612591
 10
34.4926166374
 20
22.8099143789
 10
34.5182342116
 20
22.7594298964
 10
34.5404870171
 20
22.7077243394
 10
34.5594945876
 20
22.6545810619
 10
34.5752569231
 20
22.6
  0
LWPOLYLINE
  5
345
100
AcDbEntity
  8
RACCORDO
100
AcDbPolyline
 62
7
  6
CONTINUOUS
 90
22
 70
0
 10
34.0500000078
 20
22.3005575342
 10
34.048827765
 20
22.3305843015
 10
34.0455066486
 20
22.360100152
 10
34.0400366586
 20
22.3891050905
 10
34.0323843425
 20
22.4177197686
 10
34.0225831528
 20
22.4458235436
 10
34.0107334468
 20
22.4730544827
 10
33.9967911286
 20
22.4994509463
 10
33.980800294
 20
22.5249745894
 10
33.9629935872
 20
22.5491484276
 10
33.9432922982
 20
22.5719681499
 10
33.921775137
 20
22.5934380885
 10
33.8989108779
 20
22.613094231
 10
33.8747076222
 20
22.6308549841
 10
33.8491572686
 20
22.6468019643
 10
33.8227042885
 20
22.6607159757
 10
33.7953644284
 20
22.672563579
 10
33.7671219418
 20
22.6823782315
 10
33.7383740603
 20
22.6900410808
 10
33.7092531943
 20
22.6955125132
 10
33.6796269334
 20
22.6988321521
 10
33.6494952776
 20
22.7
  0
LWPOLYLINE
  5
346
100
AcDbEntity
  8
ASSI
100
AcDbPolyline
 62
7
  6
CONTINUOUS
 90
22
 70
0
 10
34.0500000078
 20
22.3005575342
 10
34.048827765
 20
22.3305843015
 10
34.0455066486
 20
22.360100152
 10
34.0400366586
 20
22.3891050905
 10
34.0323843425
 20
22.4177197686
 10
34.0225831528
 20
22.4458235436
 10
34.0107334468
 20
22.4730544827
 10
33.9967911286
 20
22.4994509463
 10
33.980800294
 20
22.5249745894
 10
33.9629935872
 20
22.5491484276
 10
33.9432922982
 20
22.5719681499
 10
33.921775137
 20
22.5934380885
 10
33.8989108779
 20
22.613094231
 10
33.8747076222
 20
22.6308549841
 10
33.8491572686
 20
22.6468019643
 10
33.8227042885
 20
22.6607159757
 10
33.7953644284
 20
22.672563579
 10
33.7671219418
 20
22.6823782315
 10
33.7383740603
 20
22.6900410808
 10
33.7092531943
 20
22.6955125132
 10
33.6796269334
 20
22.6988321521
 10
33.6494952776
 20
22.7
  0
LINE
  5
347
100
AcDbEntity
  8
RACCORDO
100
AcDbLine
 62
253
  6
CONTINUOUS
 10
33.701953503
 20
23.2787661362
 11
33.701953503
 21
22.7523215624
  0
LINE
  5
348
100
AcDbEntity
  8
ASSI
100
AcDbLine
 62
253
  6
CONTINUOUS
 10
33.701953503
 20
23.2787661362
 11
33.701953503
 21
22.7523215624
  0
LINE
  5
349
100
AcDbEntity
  8
RACCORDO
100
AcDbLine
 62
253
  6
CONTINUOUS
 10
33.701953503
 20
-23.2787661362
 11
33.701953503
 21
-22.7523215624
  0
LINE
  5
34A
100
AcDbEntity
  8
ASSI
100
AcDbLine
 62
253
  6
CONTINUOUS
 10
33.701953503
 20
-23.2787661362
 11
33.701953503
 21
-22.7523215624
  0
LINE
  5
34B
100
AcDbEntity
  8
RACCORDO
100
AcDbLine
 62
7
  6
CONTINUOUS
 10
34.0500000078
 20
-22.3005575342
 11
34.0500000078
 21
22.3005575342
  0
LINE
  5
34C
100
AcDbEntity
  8
ASSI
100
AcDbLine
 62
7
  6
CONTINUOUS
 10
34.0500000078
 20
-22.3005575342
 11
34.0500000078
 21
22.3005575342
  0
LINE
  5
34D
100
AcDbEntity
  8
RACCORDO
100
AcDbLine
 62
253
  6
CONTINUOUS
 10
34.1038476724
 20
22.3542706501
 11
34.1038476715
 21
-22.3542691783
  0
LINE
  5
34E
100
AcDbEntity
  8
ASSI
100
AcDbLine
 62
253
  6
CONTINUOUS
 10
34.1038476724
 20
22.3542706501
 11
34.1038476715
 21
-22.3542691783
  0
LINE
  5
34F
100
AcDbEntity
  8
RACCORDO
100
AcDbLine
 62
253
  6
CONTINUOUS
 10
34.6031607314
 20
22.37782076
 11
34.6031607314
 21
-22.37782076
  0
LINE
  5
350
100
AcDbEntity
  8
ASSI
100
AcDbLine
 62
253
  6
CONTINUOUS
 10
34.6031607314
 20
22.37782076
 11
34.6031607314
 21
-22.37782076
  0
LWPOLYLINE
  5
351
100
AcDbEntity
  8
RACCORDO
100
AcDbPolyline
 62
253
  6
CONTINUOUS
 90
7
 70
0
 10
34.1038476654
 20
-22.3542691723
 10
34.1035030978
 20
-22.3708709706
 10
34.1024645447
 20
-22.3874436671
 10
34.1007335245
 20
-22.403958609
 10
34.0983127459
 20
-22.4203872165
 10
34.0952061046
 20
-22.4367010329
 10
34.0914186775
 20
-22.4528717732
  0
LWPOLYLINE
  5
352
100
AcDbEntity
  8
ASSI
100
AcDbPolyline
 62
253
  6
CONTINUOUS
 90
7
 70
0
 10
34.1038476654
 20
-22.3542691723
 10
34.1035030978
 20
-22.3708709706
 10
34.1024645447
 20
-22.3874436671
 10
34.1007335245
 20
-22.403958609
 10
34.0983127459
 20
-22.4203872165
 10
34.0952061046
 20
-22.4367010329
 10
34.0914186775
 20
-22.4528717732
  0
LWPOLYLINE
  5
353
100
AcDbEntity
  8
RACCORDO
100
AcDbPolyline
 62
253
  6
CONTINUOUS
 90
7
 70
0
 10
34.6031607314
 20
-22.37782076
 10
34.6023530342
 20
-22.415480556
 10
34.6000081619
 20
-22.4528883791
 10
34.5961261147
 20
-22.4900442322
 10
34.5907068925
 20
-22.5269481182
 10
34.5837504953
 20
-22.5636000398
 10
34.5752569231
 20
-22.6
  0
LWPOLYLINE
  5
354
100
AcDbEntity
  8
ASSI
100
AcDbPolyline
 62
253
  6
CONTINUOUS
 90
7
 70
0
 10
34.6031607314
 20
-22.37782076
 10
34.6023530342
 20
-22.415480556
 10
34.6000081619
 20
-22.4528883791
 10
34.5961261147
 20
-22.4900442322
 10
34.5907068925
 20
-22.5269481182
 10
34.5837504953
 20
-22.5636000398
 10
34.5752569231
 20
-22.6
  0
LWPOLYLINE
  5
355
100
AcDbEntity
  8
RACCORDO
100
AcDbPolyline
 62
253
  6
CONTINUOUS
 90
22
 70
0
 10
34.5752569231
 20
-22.6
 10
34.5594937888
 20
-22.6545825488
 10
34.5404857625
 20
-22.707726624
 10
34.5182328444
 20
-22.7594322894
 10
34.4926151609
 20
-22.8099162785
 10
34.4637525855
 20
-22.8589619761
 10
34.4320047384
 20
-22.9059194513
 10
34.3973438217
 20
-22.9507407718
 10
34.3597976333
 20
-22.9934740426
 10
34.3198091873
 20
-23.0336134338
 10
34.2773498769
 20
-23.0711276259
 10
34.232448309
 20
-23.1060481251
 10
34.185633318
 20
-23.1379633655
 10
34.1368711404
 20
-23.1668405194
 10
34.0861955398
 20
-23.1927125877
 10
34.0342366409
 20
-23.2152667561
 10
33.9810134014
 20
-23.2344553665
 10
33.9265068635
 20
-23.2503262105
 10
33.8712902796
 20
-23.2627096431
 10
33.8155547335
 20
-23.2715491408
 10
33.7591091413
 20
-23.2769012992
 10
33.701953503
 20
-23.2787661362
  0
LWPOLYLINE
  5
356
100
AcDbEntity
  8
ASSI
100
AcDbPolyline
 62
253
  6
CONTINUOUS
 90
22
 70
0
 10
34.5752569231
 20
-22.6
 10
34.5594937888
 20
-22.6545825488
 10
34.5404857625
 20
-22.707726624
 10
34.5182328444
 20
-22.7594322894
 10
34.4926151609
 20
-22.8099162785
 10
34.4637525855
 20
-22.8589619761
 10
34.4320047384
 20
-22.9059194513
 10
34.3973438217
 20
-22.9507407718
 10
34.3597976333
 20
-22.9934740426
 10
34.3198091873
 20
-23.0336134338
 10
34.2773498769
 20
-23.0711276259
 10
34.232448309
 20
-23.1060481251
 10
34.185633318
 20
-23.1379633655
 10
34.1368711404
 20
-23.1668405194
 10
34.0861955398
 20
-23.1927125877
 10
34.0342366409
 20
-23.2152667561
 10
33.9810134014
 20
-23.2344553665
 10
33.9265068635
 20
-23.2503262105
 10
33.8712902796
 20
-23.2627096431
 10
33.8155547335
 20
-23.2715491408
 10
33.7591091413
 20
-23.2769012992
 10
33.701953503
 20
-23.2787661362
  0
LWPOLYLINE
  5
357
100
AcDbEntity
  8
RACCORDO
100
AcDbPolyline
 62
253
  6
CONTINUOUS
 90
22
 70
0
 10
34.0914186775
 20
-22.4528717732
 10
34.0844075525
 20
-22.4770037396
 10
34.0758817021
 20
-22.5006430372
 10
34.0658748251
 20
-22.5236959125
 10
34.0544259495
 20
-22.5460707242
 10
34.0415807252
 20
-22.5676788443
 10
34.0273913656
 20
-22.5884350805
 10
34.0119134854
 20
-22.6082573268
 10
33.9952085719
 20
-22.6270666056
 10
33.9773456157
 20
-22.6447882639
 10
33.9583967636
 20
-22.6613508965
 10
33.9384356805
 20
-22.6766905195
 10
33.9175398306
 20
-22.6907502137
 10
33.895787265
 20
-22.7034759718
 10
33.873267222
 20
-22.7148142939
 10
33.8500793896
 20
-22.7247180111
 10
33.8263289705
 20
-22.7331447874
 10
33.8020969686
 20
-22.7400684711
 10
33.7774490487
 20
-22.7454708164
 10
33.7524709948
 20
-22.7493277476
 10
33.7272702184
 20
-22.7516159489
 10
33.7019456661
 20
-22.7523215357
  0
LWPOLYLINE
  5
358
100
AcDbEntity
  8
ASSI
100
AcDbPolyline
 62
253
  6
CONTINUOUS
 90
22
 70
0
 10
34.0914186775
 20
-22.4528717732
 10
34.0844075525
 20
-22.4770037396
 10
34.0758817021
 20
-22.5006430372
 10
34.0658748251
 20
-22.5236959125
 10
34.0544259495
 20
-22.5460707242
 10
34.0415807252
 20
-22.5676788443
 10
34.0273913656
 20
-22.5884350805
 10
34.0119134854
 20
-22.6082573268
 10
33.9952085719
 20
-22.6270666056
 10
33.9773456157
 20
-22.6447882639
 10
33.9583967636
 20
-22.6613508965
 10
33.9384356805
 20
-22.6766905195
 10
33.9175398306
 20
-22.6907502137
 10
33.895787265
 20
-22.7034759718
 10
33.873267222
 20
-22.7148142939
 10
33.8500793896
 20
-22.7247180111
 10
33.8263289705
 20
-22.7331447874
 10
33.8020969686
 20
-22.7400684711
 10
33.7774490487
 20
-22.7454708164
 10
33.7524709948
 20
-22.7493277476
 10
33.7272702184
 20
-22.7516159489
 10
33.7019456661
 20
-22.7523215357
  0
LWPOLYLINE
  5
359
100
AcDbEntity
  8
RACCORDO
100
AcDbPolyline
 62
253
  6
CONTINUOUS
 90
16
 70
0
 10
44.8910576725
 20
-22.5770966572
 10
44.8857753185
 20
-22.5791482783
 10
44.87714781
 20
-22.581170987
 10
44.8652337099
 20
-22.5831510534
 10
44.85011389
 20
-22.5850750369
 10
44.8318909825
 20
-22.5869298776
 10
44.8106886829
 20
-22.5887029851
 10
44.7866509107
 20
-22.5903823237
 10
44.7599408323
 20
-22.5919564941
 10
44.7307397536
 20
-22.593414811
 10
44.6992458889
 20
-22.5947473754
 10
44.6656730161
 20
-22.5959451421
 10
44.6302490251
 20
-22.5969999807
 10
44.593214371
 20
-22.597904731
 10
44.5548204419
 20
-22.5986532517
 10
44.5153278527
 20
-22.5992404618
  0
LWPOLYLINE
  5
35A
100
AcDbEntity
  8
ASSI
100
AcDbPolyline
 62
253
  6
CONTINUOUS
 90
16
 70
0
 10
44.8910576725
 20
-22.5770966572
 10
44.8857753185
 20
-22.5791482783
 10
44.87714781
 20
-22.581170987
 10
44.8652337099
 20
-22.5831510534
 10
44.85011389
 20
-22.5850750369
 10
44.8318909825
 20
-22.5869298776
 10
44.8106886829
 20
-22.5887029851
 10
44.7866509107
 20
-22.5903823237
 10
44.7599408323
 20
-22.5919564941
 10
44.7307397536
 20
-22.593414811
 10
44.6992458889
 20
-22.5947473754
 10
44.6656730161
 20
-22.5959451421
 10
44.6302490251
 20
-22.5969999807
 10
44.593214371
 20
-22.597904731
 10
44.5548204419
 20
-22.5986532517
 10
44.5153278527
 20
-22.5992404618
  0
LWPOLYLINE
  5
35B
100
AcDbEntity
  8
RACCORDO
100
AcDbPolyline
 62
253
  6
CONTINUOUS
 90
16
 70
0
 10
44.8910591581
 20
-22.5146222223
 10
44.8857768649
 20
-22.5166682791
 10
44.8771494087
 20
-22.5186855729
 10
44.8652353521
 20
-22.5206604105
 10
44.850115567
 20
-22.5225793866
 10
44.8318926854
 20
-22.5244294755
 10
44.810690403
 20
-22.5261981189
 10
44.7866526396
 20
-22.5278733114
 10
44.7599425617
 20
-22.5294436818
 10
44.7307414756
 20
-22.5308985706
 10
44.6992475964
 20
-22.5322281021
 10
44.6656747023
 20
-22.5334232515
 10
44.630250684
 20
-22.5344759062
 10
44.5932159972
 20
-22.5353789209
 10
44.5548220309
 20
-22.5361261661
 10
44.5153294008
 20
-22.5367125693
  0
LWPOLYLINE
  5
35C
100
AcDbEntity
  8
ASSI
100
AcDbPolyline
 62
253
  6
CONTINUOUS
 90
16
 70
0
 10
44.8910591581
 20
-22.5146222223
 10
44.8857768649
 20
-22.5166682791
 10
44.8771494087
 20
-22.5186855729
 10
44.8652353521
 20
-22.5206604105
 10
44.850115567
 20
-22.5225793866
 10
44.8318926854
 20
-22.5244294755
 10
44.810690403
 20
-22.5261981189
 10
44.7866526396
 20
-22.5278733114
 10
44.7599425617
 20
-22.5294436818
 10
44.7307414756
 20
-22.5308985706
 10
44.6992475964
 20
-22.5322281021
 10
44.6656747023
 20
-22.5334232515
 10
44.630250684
 20
-22.5344759062
 10
44.5932159972
 20
-22.5353789209
 10
44.5548220309
 20
-22.5361261661
 10
44.5153294008
 20
-22.5367125693
  0
LWPOLYLINE
  5
35D
100
AcDbEntity
  8
RACCORDO
100
AcDbPolyline
 62
253
  6
CONTINUOUS
 90
18
 70
0
 10
44.8910591576
 20
22.5146222223
 10
44.885776864
 20
22.5166682791
 10
44.8771494074
 20
22.5186855729
 10
44.8652353506
 20
22.5206604104
 10
44.8501155652
 20
22.5225793865
 10
44.8318926835
 20
22.5244294754
 10
44.810690401
 20
22.5261981188
 10
44.7866526374
 20
22.5278733112
 10
44.7599425596
 20
22.5294436816
 10
44.7307414736
 20
22.5308985704
 10
44.6992475944
 20
22.5322281018
 10
44.6656747005
 20
22.5334232512
 10
44.6302506823
 20
22.534475906
 10
44.5932159957
 20
22.5353789207
 10
44.5548220297
 20
22.5361261658
 10
44.5153293999
 20
22.536712569
 10
44.4750061795
 20
22.5371341499
 10
44.3929665927
 20
22.5374725363
  0
LWPOLYLINE
  5
35E
100
AcDbEntity
  8
ASSI
100
AcDbPolyline
 62
253
  6
CONTINUOUS
 90
18
 70
0
 10
44.8910591576
 20
22.5146222223
 10
44.885776864
 20
22.5166682791
 10
44.8771494074
 20
22.5186855729
 10
44.8652353506
 20
22.5206604104
 10
44.8501155652
 20
22.5225793865
 10
44.8318926835
 20
22.5244294754
 10
44.810690401
 20
22.5261981188
 10
44.7866526374
 20
22.5278733112
 10
44.7599425596
 20
22.5294436816
 10
44.7307414736
 20
22.5308985704
 10
44.6992475944
 20
22.5322281018
 10
44.6656747005
 20
22.5334232512
 10
44.6302506823
 20
22.534475906
 10
44.5932159957
 20
22.5353789207
 10
44.5548220297
 20
22.5361261658
 10
44.5153293999
 20
22.536712569
 10
44.4750061795
 20
22.5371341499
 10
44.3929665927
 20
22.5374725363
  0
LWPOLYLINE
  5
35F
100
AcDbEntity
  8
RACCORDO
100
AcDbPolyline
 62
253
  6
CONTINUOUS
 90
17
 70
0
 10
44.8910576738
 20
22.5770966572
 10
44.885775321
 20
22.5791482784
 10
44.8771478136
 20
22.5811709872
 10
44.8652337144
 20
22.5831510536
 10
44.8501138952
 20
22.5850750371
 10
44.8318909882
 20
22.586929878
 10
44.810688689
 20
22.5887029855
 10
44.786650917
 20
22.5903823241
 10
44.7599408386
 20
22.5919564946
 10
44.7307397597
 20
22.5934148115
 10
44.6992458948
 20
22.5947473761
 10
44.6656730216
 20
22.5959451428
 10
44.6302490301
 20
22.5969999814
 10
44.5932143753
 20
22.5979047318
 10
44.5548204455
 20
22.5986532525
 10
44.5153278554
 20
22.5992404626
 10
44.4341246225
 20
22.5999161296
  0
LWPOLYLINE
  5
360
100
AcDbEntity
  8
ASSI
100
AcDbPolyline
 62
253
  6
CONTINUOUS
 90
17
 70
0
 10
44.8910576738
 20
22.5770966572
 10
44.885775321
 20
22.5791482784
 10
44.8771478136
 20
22.5811709872
 10
44.8652337144
 20
22.5831510536
 10
44.8501138952
 20
22.5850750371
 10
44.8318909882
 20
22.586929878
 10
44.810688689
 20
22.5887029855
 10
44.786650917
 20
22.5903823241
 10
44.7599408386
 20
22.5919564946
 10
44.7307397597
 20
22.5934148115
 10
44.6992458948
 20
22.5947473761
 10
44.6656730216
 20
22.5959451428
 10
44.6302490301
 20
22.5969999814
 10
44.5932143753
 20
22.5979047318
 10
44.5548204455
 20
22.5986532525
 10
44.5153278554
 20
22.5992404626
 10
44.4341246225
 20
22.5999161296
  0
LWPOLYLINE
  5
361
100
AcDbEntity
  8
RACCORDO
100
AcDbPolyline
 62
253
  6
CONTINUOUS
 90
7
 70
0
 10
34.0914186775
 20
22.4528717732
 10
34.0952009819
 20
22.4367252408
 10
34.0983061499
 20
22.4204263478
 10
34.1007279172
 20
22.4040030785
 10
34.1024611809
 20
22.387483689
 10
34.1035020118
 20
22.3708966589
 10
34.1038476651
 20
22.3542706429
  0
LWPOLYLINE
  5
362
100
AcDbEntity
  8
ASSI
100
AcDbPolyline
 62
253
  6
CONTINUOUS
 90
7
 70
0
 10
34.0914186775
 20
22.4528717732
 10
34.0952009819
 20
22.4367252408
 10
34.0983061499
 20
22.4204263478
 10
34.1007279172
 20
22.4040030785
 10
34.1024611809
 20
22.387483689
 10
34.1035020118
 20
22.3708966589
 10
34.1038476651
 20
22.3542706429
  0
LWPOLYLINE
  5
363
100
AcDbEntity
  8
RACCORDO
100
AcDbPolyline
 62
253
  6
CONTINUOUS
 90
7
 70
0
 10
34.5752569231
 20
22.6
 10
34.5837433059
 20
22.563657555
 10
34.5906953896
 20
22.5270401429
 10
34.5961131739
 20
22.4901477605
 10
34.599996659
 20
22.4529804046
 10
34.6023458449
 20
22.4155380722
 10
34.6031607314
 20
22.37782076
  0
LWPOLYLINE
  5
364
100
AcDbEntity
  8
ASSI
100
AcDbPolyline
 62
253
  6
CONTINUOUS
 90
7
 70
0
 10
34.5752569231
 20
22.6
 10
34.5837433059
 20
22.563657555
 10
34.5906953896
 20
22.5270401429
 10
34.5961131739
 20
22.4901477605
 10
34.599996659
 20
22.4529804046
 10
34.6023458449
 20
22.4155380722
 10
34.6031607314
 20
22.37782076
  0
LINE
  5
365
100
AcDbEntity
  8
RACCORDO
100
AcDbLine
 62
253
  6
CONTINUOUS
 10
44.0971848203
 20
44.8793346272
 11
44.0971848203
 21
44.4713953657
  0
LINE
  5
366
100
AcDbEntity
  8
ASSI
100
AcDbLine
 62
253
  6
CONTINUOUS
 10
44.0971848203
 20
44.8793346272
 11
44.0971848203
 21
44.4713953657
  0
LINE
  5
367
100
AcDbEntity
  8
RACCORDO
100
AcDbLine
 62
253
  6
CONTINUOUS
 10
44.0971848203
 20
-44.8793346272
 11
44.0971848203
 21
-44.4713953657
  0
LINE
  5
368
100
AcDbEntity
  8
ASSI
100
AcDbLine
 62
253
  6
CONTINUOUS
 10
44.0971848203
 20
-44.8793346272
 11
44.0971848203
 21
-44.4713953657
  0
LINE
  5
369
100
AcDbEntity
  8
RACCORDO
100
AcDbLine
 62
7
  6
CONTINUOUS
 10
45.0
 20
44.2
 11
45.0
 21
22.5146222223
  0
LINE
  5
36A
100
AcDbEntity
  8
DRAFT
100
AcDbLine
 62
7
  6
CONTINUOUS
 10
45.0
 20
22.5146222223
 11
45.0
 21
-22.5146222223
  0
LINE
  5
36B
100
AcDbEntity
  8
RACCORDO
100
AcDbLine
 62
7
  6
CONTINUOUS
 10
45.0
 20
-22.5146222223
 11
45.0
 21
-44.2
  0
LINE
  5
36C
100
AcDbEntity
  8
ASSI
100
AcDbLine
 62
7
  6
CONTINUOUS
 10
45.0
 20
44.2
 11
45.0
 21
-44.2
  0
LINE
  5
36D
100
AcDbEntity
  8
RACCORDO
100
AcDbLine
 62
253
  6
CONTINUOUS
 10
44.3913127116
 20
44.1716567788
 11
44.3913127116
 21
-44.1716567788
  0
LINE
  5
36E
100
AcDbEntity
  8
ASSI
100
AcDbLine
 62
253
  6
CONTINUOUS
 10
44.3913127116
 20
44.1716567788
 11
44.3913127116
 21
-44.1716567788
  0
LINE
  5
36F
100
AcDbEntity
  8
RACCORDO
100
AcDbLine
 62
253
  6
CONTINUOUS
 10
44.8893468268
 20
44.0903570153
 11
44.8893468268
 21
-44.0903570155
  0
LINE
  5
370
100
AcDbEntity
  8
ASSI
100
AcDbLine
 62
253
  6
CONTINUOUS
 10
44.8893468268
 20
44.0903570153
 11
44.8893468268
 21
-44.0903570155
  0
LWPOLYLINE
  5
371
100
AcDbEntity
  8
RACCORDO
100
AcDbPolyline
 62
253
  6
CONTINUOUS
 90
25
 70
0
 10
44.3913127116
 20
-44.1716567788
 10
44.3906693967
 20
-44.191532647
 10
44.3887946472
 20
-44.2111505192
 10
44.3856884629
 20
-44.2305104117
 10
44.3813265614
 20
-44.249698002
 10
44.3757332253
 20
-44.2686276412
 10
44.3689813017
 20
-44.2870423721
 10
44.361056897
 20
-44.3049279446
 10
44.3519739049
 20
-44.3222986706
 10
44.3418468541
 20
-44.3389404619
 10
44.3306625325
 20
-44.354844381
 10
44.3184341523
 20
-44.3700194438
 10
44.305315878
 20
-44.3842785115
 10
44.2912964182
 20
-44.3976100839
 10
44.2763870644
 20
-44.410025745
 10
44.2607758555
 20
-44.4213729938
 10
44.2444552717
 20
-44.4316376177
 10
44.2274328329
 20
-44.4408339062
 10
44.2099191378
 20
-44.4488521154
 10
44.1919013109
 20
-44.455678212
 10
44.1733922278
 20
-44.4613262877
 10
44.1546411146
 20
-44.4657287833
 10
44.1357310466
 20
-44.4688631901
 10
44.1165789485
 20
-44.4707520484
 10
44.0971848203
 20
-44.4713953657
  0
LWPOLYLINE
  5
372
100
AcDbEntity
  8
ASSI
100
AcDbPolyline
 62
253
  6
CONTINUOUS
 90
25
 70
0
 10
44.3913127116
 20
-44.1716567788
 10
44.3906693967
 20
-44.191532647
 10
44.3887946472
 20
-44.2111505192
 10
44.3856884629
 20
-44.2305104117
 10
44.3813265614
 20
-44.249698002
 10
44.3757332253
 20
-44.2686276412
 10
44.3689813017
 20
-44.2870423721
 10
44.361056897
 20
-44.3049279446
 10
44.3519739049
 20
-44.3222986706
 10
44.3418468541
 20
-44.3389404619
 10
44.3306625325
 20
-44.354844381
 10
44.3184341523
 20
-44.3700194438
 10
44.305315878
 20
-44.3842785115
 10
44.2912964182
 20
-44.3976100839
 10
44.2763870644
 20
-44.410025745
 10
44.2607758555
 20
-44.4213729938
 10
44.2444552717
 20
-44.4316376177
 10
44.2274328329
 20
-44.4408339062
 10
44.2099191378
 20
-44.4488521154
 10
44.1919013109
 20
-44.455678212
 10
44.1733922278
 20
-44.4613262877
 10
44.1546411146
 20
-44.4657287833
 10
44.1357310466
 20
-44.4688631901
 10
44.1165789485
 20
-44.4707520484
 10
44.0971848203
 20
-44.4713953657
  0
LWPOLYLINE
  5
373
100
AcDbEntity
  8
RACCORDO
100
AcDbPolyline
 62
253
  6
CONTINUOUS
 90
25
 70
0
 10
44.8893468269
 20
-44.0903570156
 10
44.8869177887
 20
-44.1423284223
 10
44.8811521386
 20
-44.1939910241
 10
44.8720805067
 20
-44.2451310513
 10
44.8597493644
 20
-44.2955368233
 10
44.8442145837
 20
-44.3450013124
 10
44.8255398056
 20
-44.393322571
 10
44.8038060956
 20
-44.4403044488
 10
44.7791097476
 20
-44.4857515167
 10
44.7515551409
 20
-44.5294714855
 10
44.7212624568
 20
-44.5712838139
 10
44.6883611219
 20
-44.6110203695
 10
44.6529856944
 20
-44.6485193913
 10
44.6152867228
 20
-44.6836272453
 10
44.5754230647
 20
-44.7162025958
 10
44.5335541201
 20
-44.7461154949
 10
44.489852618
 20
-44.7732446239
 10
44.4445030981
 20
-44.7974785099
 10
44.397692627
 20
-44.8187179049
 10
44.349620898
 20
-44.8368742121
 10
44.3004826721
 20
-44.8518766351
 10
44.2504639803
 20
-44.8636681166
 10
44.1997652938
 20
-44.8721985613
 10
44.1486017789
 20
-44.8774287644
 10
44.0971848203
 20
-44.8793346272
  0
LWPOLYLINE
  5
374
100
AcDbEntity
  8
ASSI
100
AcDbPolyline
 62
253
  6
CONTINUOUS
 90
25
 70
0
 10
44.8893468269
 20
-44.0903570156
 10
44.8869177887
 20
-44.1423284223
 10
44.8811521386
 20
-44.1939910241
 10
44.8720805067
 20
-44.2451310513
 10
44.8597493644
 20
-44.2955368233
 10
44.8442145837
 20
-44.3450013124
 10
44.8255398056
 20
-44.393322571
 10
44.8038060956
 20
-44.4403044488
 10
44.7791097476
 20
-44.4857515167
 10
44.7515551409
 20
-44.5294714855
 10
44.7212624568
 20
-44.5712838139
 10
44.6883611219
 20
-44.6110203695
 10
44.6529856944
 20
-44.6485193913
 10
44.6152867228
 20
-44.6836272453
 10
44.5754230647
 20
-44.7162025958
 10
44.5335541201
 20
-44.7461154949
 10
44.489852618
 20
-44.7732446239
 10
44.4445030981
 20
-44.7974785099
 10
44.397692627
 20
-44.8187179049
 10
44.349620898
 20
-44.8368742121
 10
44.3004826721
 20
-44.8518766351
 10
44.2504639803
 20
-44.8636681166
 10
44.1997652938
 20
-44.8721985613
 10
44.1486017789
 20
-44.8774287644
 10
44.0971848203
 20
-44.8793346272
  0
LINE
  5
375
100
AcDbEntity
  8
RACCORDO
100
AcDbLine
 62
253
  6
CONTINUOUS
 10
-44.0971848203
 20
44.4713953657
 11
44.0971848203
 21
44.4713953657
  0
LINE
  5
376
100
AcDbEntity
  8
ASSI
100
AcDbLine
 62
253
  6
CONTINUOUS
 10
-44.0971848203
 20
44.4713953657
 11
44.0971848203
 21
44.4713953657
  0
LINE
  5
377
100
AcDbEntity
  8
RACCORDO
100
AcDbLine
 62
253
  6
CONTINUOUS
 10
-44.0971848203
 20
44.8793346272
 11
44.0971848203
 21
44.8793346272
  0
LINE
  5
378
100
AcDbEntity
  8
ASSI
100
AcDbLine
 62
253
  6
CONTINUOUS
 10
-44.0971848203
 20
44.8793346272
 11
44.0971848203
 21
44.8793346272
  0
LINE
  5
379
100
AcDbEntity
  8
RACCORDO
100
AcDbLine
 62
7
  6
CONTINUOUS
 10
-44.2
 20
45.0
 11
44.2
 21
45.0
  0
LINE
  5
37A
100
AcDbEntity
  8
ASSI
100
AcDbLine
 62
7
  6
CONTINUOUS
 10
-44.2
 20
45.0
 11
44.2
 21
45.0
  0
LWPOLYLINE
  5
37B
100
AcDbEntity
  8
RACCORDO
100
AcDbPolyline
 62
253
  6
CONTINUOUS
 90
25
 70
0
 10
44.0971848203
 20
44.4713953657
 10
44.1165830015
 20
44.4707512584
 10
44.1357376768
 20
44.4688618444
 10
44.1546488462
 20
44.4657271159
 10
44.1733991716
 20
44.4613244512
 10
44.1919059911
 20
44.4556764406
 10
44.2099213189
 20
44.4488508884
 10
44.2274325809
 20
44.4408337893
 10
44.2444523511
 20
44.4316390902
 10
44.2607703666
 20
44.421376521
 10
44.2763787018
 20
44.410032491
 10
44.2912852822
 20
44.397620514
 10
44.3053036219
 20
44.3842909811
 10
44.3184236261
 20
44.3700311053
 10
44.3306553896
 20
44.3548535894
 10
44.34184271
 20
44.3389470711
 10
44.351971709
 20
44.3223029393
 10
44.3610562649
 20
44.3049297266
 10
44.3689818099
 20
44.2870418046
 10
44.3757343769
 20
44.2686245406
 10
44.3813279329
 20
44.2496925055
 10
44.385689811
 20
44.2305039026
 10
44.3887957891
 20
44.2111447962
 10
44.3906700892
 20
44.1915290937
 10
44.3913127116
 20
44.1716567788
  0
LWPOLYLINE
  5
37C
100
AcDbEntity
  8
ASSI
100
AcDbPolyline
 62
253
  6
CONTINUOUS
 90
25
 70
0
 10
44.0971848203
 20
44.4713953657
 10
44.1165830015
 20
44.4707512584
 10
44.1357376768
 20
44.4688618444
 10
44.1546488462
 20
44.4657271159
 10
44.1733991716
 20
44.4613244512
 10
44.1919059911
 20
44.4556764406
 10
44.2099213189
 20
44.4488508884
 10
44.2274325809
 20
44.4408337893
 10
44.2444523511
 20
44.4316390902
 10
44.2607703666
 20
44.421376521
 10
44.2763787018
 20
44.410032491
 10
44.2912852822
 20
44.397620514
 10
44.3053036219
 20
44.3842909811
 10
44.3184236261
 20
44.3700311053
 10
44.3306553896
 20
44.3548535894
 10
44.34184271
 20
44.3389470711
 10
44.351971709
 20
44.3223029393
 10
44.3610562649
 20
44.3049297266
 10
44.3689818099
 20
44.2870418046
 10
44.3757343769
 20
44.2686245406
 10
44.3813279329
 20
44.2496925055
 10
44.385689811
 20
44.2305039026
 10
44.3887957891
 20
44.2111447962
 10
44.3906700892
 20
44.1915290937
 10
44.3913127116
 20
44.1716567788
  0
LWPOLYLINE
  5
37D
100
AcDbEntity
  8
RACCORDO
100
AcDbPolyline
 62
253
  6
CONTINUOUS
 90
25
 70
0
 10
44.0971848203
 20
44.8793346272
 10
44.1486013926
 20
44.8774287889
 10
44.1997646991
 20
44.8721986336
 10
44.2504633542
 20
44.8636682256
 10
44.3004822824
 20
44.8518767041
 10
44.3496209034
 20
44.8368741508
 10
44.3976928974
 20
44.8187177257
 10
44.4445034048
 20
44.7974783128
 10
44.4898528527
 20
44.7732444855
 10
44.5335542298
 20
44.746115473
 10
44.5754230176
 20
44.7162027591
 10
44.6152864855
 20
44.6836276719
 10
44.6529852476
 20
44.6485201194
 10
44.6883604285
 20
44.6110214431
 10
44.7212615166
 20
44.5712852772
 10
44.7515540321
 20
44.529473316
 10
44.7791085412
 20
44.4857536775
 10
44.8038048556
 20
44.4403068967
 10
44.8255386436
 20
44.3933251905
 10
44.8442136031
 20
44.3450039716
 10
44.8597486215
 20
44.2955393815
 10
44.8720800203
 20
44.2451333013
 10
44.8811518859
 20
44.193992734
 10
44.886917711
 20
44.1423293805
 10
44.8893468269
 20
44.0903570155
  0
LWPOLYLINE
  5
37E
100
AcDbEntity
  8
ASSI
100
AcDbPolyline
 62
253
  6
CONTINUOUS
 90
25
 70
0
 10
44.0971848203
 20
44.8793346272
 10
44.1486013926
 20
44.8774287889
 10
44.1997646991
 20
44.8721986336
 10
44.2504633542
 20
44.8636682256
 10
44.3004822824
 20
44.8518767041
 10
44.3496209034
 20
44.8368741508
 10
44.3976928974
 20
44.8187177257
 10
44.4445034048
 20
44.7974783128
 10
44.4898528527
 20
44.7732444855
 10
44.5335542298
 20
44.746115473
 10
44.5754230176
 20
44.7162027591
 10
44.6152864855
 20
44.6836276719
 10
44.6529852476
 20
44.6485201194
 10
44.6883604285
 20
44.6110214431
 10
44.7212615166
 20
44.5712852772
 10
44.7515540321
 20
44.529473316
 10
44.7791085412
 20
44.4857536775
 10
44.8038048556
 20
44.4403068967
 10
44.8255386436
 20
44.3933251905
 10
44.8442136031
 20
44.3450039716
 10
44.8597486215
 20
44.2955393815
 10
44.8720800203
 20
44.2451333013
 10
44.8811518859
 20
44.193992734
 10
44.886917711
 20
44.1423293805
 10
44.8893468269
 20
44.0903570155
  0
LWPOLYLINE
  5
37F
100
AcDbEntity
  8
RACCORDO
100
AcDbPolyline
 62
253
  6
CONTINUOUS
 90
19
 70
0
 10
44.8893403208
 20
-44.0903569212
 10
44.8840101121
 20
-44.0976424249
 10
44.8753414985
 20
-44.1048245797
 10
44.8633932162
 20
-44.1118547211
 10
44.8482462232
 20
-44.1186852144
 10
44.8300031513
 20
-44.1252697779
 10
44.8087876105
 20
-44.1315637961
 10
44.7847433513
 20
-44.1375246222
 10
44.7580332908
 20
-44.1431118672
 10
44.7288384088
 20
-44.1482876733
 10
44.6973565217
 20
-44.1530169703
 10
44.6638009419
 20
-44.1572677139
 10
44.6283990325
 20
-44.161011102
 10
44.5913906669
 20
-44.1642217704
 10
44.5530266034
 20
-44.1668779645
 10
44.5135667859
 20
-44.1689616866
 10
44.4732785833
 20
-44.1704588179
 10
44.4324349769
 20
-44.1713592145
 10
44.3913127116
 20
-44.1716567756
  0
LWPOLYLINE
  5
380
100
AcDbEntity
  8
ASSI
100
AcDbPolyline
 62
253
  6
CONTINUOUS
 90
19
 70
0
 10
44.8893403208
 20
-44.0903569212
 10
44.8840101121
 20
-44.0976424249
 10
44.8753414985
 20
-44.1048245797
 10
44.8633932162
 20
-44.1118547211
 10
44.8482462232
 20
-44.1186852144
 10
44.8300031513
 20
-44.1252697779
 10
44.8087876105
 20
-44.1315637961
 10
44.7847433513
 20
-44.1375246222
 10
44.7580332908
 20
-44.1431118672
 10
44.7288384088
 20
-44.1482876733
 10
44.6973565217
 20
-44.1530169703
 10
44.6638009419
 20
-44.1572677139
 10
44.6283990325
 20
-44.161011102
 10
44.5913906669
 20
-44.1642217704
 10
44.5530266034
 20
-44.1668779645
 10
44.5135667859
 20
-44.1689616866
 10
44.4732785833
 20
-44.1704588179
 10
44.4324349769
 20
-44.1713592145
 10
44.3913127116
 20
-44.1716567756
  0
LWPOLYLINE
  5
381
100
AcDbEntity
  8
RACCORDO
100
AcDbPolyline
 62
253
  6
CONTINUOUS
 90
19
 70
0
 10
44.8893468237
 20
44.0903570254
 10
44.8840165058
 20
44.0976425057
 10
44.8753477366
 20
44.1048246393
 10
44.8633992537
 20
44.1118547616
 10
44.8482520173
 20
44.118685238
 10
44.8300086619
 20
44.1252697869
 10
44.8087928003
 20
44.1315637927
 10
44.7847481864
 20
44.1375246087
 10
44.7580377413
 20
44.1431118456
 10
44.728842449
 20
44.1482876458
 10
44.6973601302
 20
44.1530169389
 10
44.6638041021
 20
44.1572676805
 10
44.6284017331
 20
44.1610110684
 10
44.5913929015
 20
44.1642217383
 10
44.5530283711
 20
44.1668779354
 10
44.5135680913
 20
44.1689616619
 10
44.4732794363
 20
44.1704587989
 10
44.432435393
 20
44.1713592022
 10
44.3913127116
 20
44.1716567708
  0
LWPOLYLINE
  5
382
100
AcDbEntity
  8
ASSI
100
AcDbPolyline
 62
253
  6
CONTINUOUS
 90
19
 70
0
 10
44.8893468237
 20
44.0903570254
 10
44.8840165058
 20
44.0976425057
 10
44.8753477366
 20
44.1048246393
 10
44.8633992537
 20
44.1118547616
 10
44.8482520173
 20
44.118685238
 10
44.8300086619
 20
44.1252697869
 10
44.8087928003
 20
44.1315637927
 10
44.7847481864
 20
44.1375246087
 10
44.7580377413
 20
44.1431118456
 10
44.728842449
 20
44.1482876458
 10
44.6973601302
 20
44.1530169389
 10
44.6638041021
 20
44.1572676805
 10
44.6284017331
 20
44.1610110684
 10
44.5913929015
 20
44.1642217383
 10
44.5530283711
 20
44.1668779354
 10
44.5135680913
 20
44.1689616619
 10
44.4732794363
 20
44.1704587989
 10
44.432435393
 20
44.1713592022
 10
44.3913127116
 20
44.1716567708
  0
LINE
  5
383
100
AcDbEntity
  8
RACCORDO
100
AcDbLine
 62
7
  6
CONTINUOUS
 10
-77.0504346246
 20
-45.0
 11
-76.2362607305
 21
-45.0
  0
LINE
  5
384
100
AcDbEntity
  8
ASSI
100
AcDbLine
 62
7
  6
CONTINUOUS
 10
-77.0504346246
 20
-45.0
 11
-76.2362607305
 21
-45.0
  0
LINE
  5
385
100
AcDbEntity
  8
RACCORDO
100
AcDbLine
 62
253
  6
CONTINUOUS
 10
-77.19925648
 20
-44.2
 11
-76.3858618636
 21
-44.2
  0
LINE
  5
386
100
AcDbEntity
  8
ASSI
100
AcDbLine
 62
253
  6
CONTINUOUS
 10
-77.19925648
 20
-44.2
 11
-76.3858618636
 21
-44.2
  0
LINE
  5
387
100
AcDbEntity
  8
RACCORDO
100
AcDbLine
 62
7
  6
CONTINUOUS
 10
-78.4296461466
 20
-44.8793346272
 11
-77.052209781
 21
-44.9998446939
  0
LINE
  5
388
100
AcDbEntity
  8
ASSI
100
AcDbLine
 62
7
  6
CONTINUOUS
 10
-78.4296461466
 20
-44.8793346272
 11
-77.052209781
 21
-44.9998446939
  0
LINE
  5
389
100
AcDbEntity
  8
RACCORDO
100
AcDbLine
 62
253
  6
CONTINUOUS
 10
-78.4841457329
 20
-44.0903570155
 11
-77.1987948748
 21
-44.2028602166
  0
LINE
  5
38A
100
AcDbEntity
  8
ASSI
100
AcDbLine
 62
253
  6
CONTINUOUS
 10
-78.4841457329
 20
-44.0903570155
 11
-77.1987948748
 21
-44.2028602166
  0
LINE
  5
38B
100
AcDbEntity
  8
RACCORDO
100
AcDbLine
 62
253
  6
CONTINUOUS
 10
-78.4841451622
 20
-44.0903569212
 11
-78.9325403107
 21
-44.1716567756
  0
LINE
  5
38C
100
AcDbEntity
  8
ASSI
100
AcDbLine
 62
253
  6
CONTINUOUS
 10
-78.4841451622
 20
-44.0903569212
 11
-78.9325403107
 21
-44.1716567756
  0
LWPOLYLINE
  5
38D
100
AcDbEntity
  8
RACCORDO
100
AcDbPolyline
 62
253
  6
CONTINUOUS
 90
13
 70
0
 10
-75.9674407089
 20
-43.709250902
 10
-75.8127814838
 20
-43.685944315
 10
-75.6581213491
 20
-43.6581013678
 10
-75.5036121508
 20
-43.6257123361
 10
-75.3495964252
 20
-43.5889555876
 10
-75.1960689481
 20
-43.5476332035
 10
-75.042683651
 20
-43.5011693233
 10
-74.8894732085
 20
-43.449625265
 10
-74.7368482422
 20
-43.3929159488
 10
-74.5850420381
 20
-43.330242386
 10
-74.4342800307
 20
-43.2613280669
 10
-74.2847656849
 20
-43.1864210984
 10
-74.1367026962
 20
-43.1055075237
  0
LINE
  5
38E
100
AcDbEntity
  8
RACCORDO
100
AcDbLine
 62
253
  6
CONTINUOUS
 10
-74.1367026962
 20
-43.1055075237
 11
-76.0740271531
 21
-43.1172115123
  0
LINE
  5
38F
100
AcDbEntity
  8
RACCORDO
100
AcDbLine
 62
7
  6
CONTINUOUS
 10
-76.6475039984
 20
-42.7178381158
 11
-76.6370227902
 21
-42.7181125759
  0
LINE
  5
390
100
AcDbEntity
  8
0
100
AcDbLine
 62
7
  6
CONTINUOUS
 10
-76.4336632569
 20
-43.856164843
 11
-75.9326251193
 21
-43.9
  0
LINE
  5
391
100
AcDbEntity
  8
0
100
AcDbLine
 62
253
  6
CONTINUOUS
 10
-76.1119516791
 20
-42.9035217104
 11
-76.6121626359
 21
-42.8597347062
  0
LWPOLYLINE
  5
392
100
AcDbEntity
  8
RACCORDO
100
AcDbPolyline
 62
253
  6
CONTINUOUS
 90
17
 70
0
 10
-78.4296461466
 20
44.8793346272
 10
-78.4324072265
 20
44.8774287889
 10
-78.4352140954
 20
44.8721986336
 10
-78.4380506609
 20
44.8636682256
 10
-78.4409016695
 20
44.8518767041
 10
-78.4437543977
 20
44.8368741508
 10
-78.4465982936
 20
44.8187177257
 10
-78.449426893
 20
44.7974783128
 10
-78.452226655
 20
44.7732444855
 10
-78.4549783209
 20
44.746115473
 10
-78.457680299
 20
44.7162027591
 10
-78.4603237945
 20
44.6836276719
 10
-78.4628809923
 20
44.6485201194
 10
-78.4653545562
 20
44.6110214431
 10
-78.4677409948
 20
44.5712852772
 10
-78.4700054927
 20
44.529473316
 10
-78.4741925823
 20
44.4403068967
  0
LWPOLYLINE
  5
393
100
AcDbEntity
  8
ASSI
100
AcDbPolyline
 62
253
  6
CONTINUOUS
 90
17
 70
0
 10
-78.4296461466
 20
44.8793346272
 10
-78.4324072265
 20
44.8774287889
 10
-78.4352140954
 20
44.8721986336
 10
-78.4380506609
 20
44.8636682256
 10
-78.4409016695
 20
44.8518767041
 10
-78.4437543977
 20
44.8368741508
 10
-78.4465982936
 20
44.8187177257
 10
-78.449426893
 20
44.7974783128
 10
-78.452226655
 20
44.7732444855
 10
-78.4549783209
 20
44.746115473
 10
-78.457680299
 20
44.7162027591
 10
-78.4603237945
 20
44.6836276719
 10
-78.4628809923
 20
44.6485201194
 10
-78.4653545562
 20
44.6110214431
 10
-78.4677409948
 20
44.5712852772
 10
-78.4700054927
 20
44.529473316
 10
-78.4741925823
 20
44.4403068967
  0
LINE
  5
394
100
AcDbEntity
  8
RACCORDO
100
AcDbLine
 62
253
  6
CONTINUOUS
 10
-77.2699939228
 20
-38.9064327188
 11
-77.2557724688
 21
-38.9064327187
  0
LINE
  5
395
100
AcDbEntity
  8
0
100
AcDbLine
 62
7
  6
CONTINUOUS
 10
-77.6019985823
 20
-36.5004717671
 11
-77.6152170162
 21
-36.5013633387
  0
LINE
  5
396
100
AcDbEntity
  8
RACCORDO
100
AcDbLine
 62
7
  6
CONTINUOUS
 10
-77.6423751626
 20
-36.3
 11
-77.6314855038
 21
-36.3
  0
LINE
  5
397
100
AcDbEntity
  8
RACCORDO
100
AcDbLine
 62
253
  6
CONTINUOUS
 10
-77.6487976081
 20
-36.2523809524
 11
-77.6379033978
 21
-36.2523809524
  0
LINE
  5
398
100
AcDbEntity
  8
RACCORDO
100
AcDbLine
 62
253
  6
CONTINUOUS
 10
-80.9656301864
 20
-22.5770966572
 11
-81.4214217568
 21
-22.5999999992
  0
LINE
  5
399
100
AcDbEntity
  8
ASSI
100
AcDbLine
 62
253
  6
CONTINUOUS
 10
-80.9656301864
 20
-22.5770966572
 11
-81.4214217568
 21
-22.5999999992
  0
LINE
  5
39A
100
AcDbEntity
  8
RACCORDO
100
AcDbLine
 62
253
  6
CONTINUOUS
 10
-80.9687665795
 20
-22.5146222223
 11
-81.4245616494
 21
-22.5374725366
  0
LINE
  5
39B
100
AcDbEntity
  8
ASSI
100
AcDbLine
 62
253
  6
CONTINUOUS
 10
-80.9687665795
 20
-22.5146222223
 11
-81.4245616494
 21
-22.5374725366
  0
LINE
  5
39C
100
AcDbEntity
  8
0
100
AcDbLine
 62
253
  6
CONTINUOUS
 10
-73.4192911914
 20
-22.3686091925
 11
-76.1507005621
 21
-22.4139622947
  0
LINE
  5
39D
100
AcDbEntity
  8
0
100
AcDbLine
 62
253
  6
CONTINUOUS
 10
-76.1507005621
 20
-22.4139622947
 11
-78.42520757
 21
-22.4493333334
  0
LINE
  5
39E
100
AcDbEntity
  8
RACCORDO
100
AcDbLine
 62
7
  6
CONTINUOUS
 10
-78.7608496263
 20
-25.25
 11
-78.7466053249
 21
-25.25
  0
LINE
  5
39F
100
AcDbEntity
  8
RACCORDO
100
AcDbLine
 62
253
  6
CONTINUOUS
 10
-79.7235670584
 20
-22.5146222223
 11
-80.9687665795
 21
-22.5146222223
  0
LINE
  5
3A0
100
AcDbEntity
  8
ASSI
100
AcDbLine
 62
253
  6
CONTINUOUS
 10
-79.7235670584
 20
-22.5146222223
 11
-80.9687665795
 21
-22.5146222223
  0
LINE
  5
3A1
100
AcDbEntity
  8
0
100
AcDbLine
 62
253
  6
CONTINUOUS
 10
-78.910819715
 20
-22.4493333334
 11
-78.42520757
 21
-22.4493333334
  0
LWPOLYLINE
  5
3A2
100
AcDbEntity
  8
RACCORDO
100
AcDbPolyline
 62
253
  6
CONTINUOUS
 90
19
 70
0
 10
-74.1367028036
 20
-43.1055075308
 10
-74.1145326295
 20
-43.153322361
 10
-74.0947454088
 20
-43.2010583141
 10
-74.0774355031
 20
-43.2484877456
 10
-74.0626854602
 20
-43.2953844728
 10
-74.0505656203
 20
-43.3415248531
 10
-74.0411337807
 20
-43.3866888507
 10
-74.0344349199
 20
-43.4306610864
 10
-74.0305009833
 20
-43.4732318643
 10
-74.029350731
 20
-43.5141981715
 10
-74.0309896479
 20
-43.5533646471
 10
-74.0354099182
 20
-43.5905445131
 10
-74.0425904619
 20
-43.6255604652
 10
-74.052497036
 20
-43.6582455186
 10
-74.0650823975
 20
-43.6884438043
 10
-74.0802865289
 20
-43.7160113121
 10
-74.098036924
 20
-43.7408165777
 10
-74.1182489342
 20
-43.7627413091
 10
-74.1408261717
 20
-43.7816809513
  0
LWPOLYLINE
  5
3A3
100
AcDbEntity
  8
RACCORDO
100
AcDbPolyline
 62
253
  6
CONTINUOUS
 90
10
 70
0
 10
-78.484145733
 20
44.0903570153
 10
-78.8970179796
 20
41.7181311372
 10
-79.2756453983
 20
39.3402098213
 10
-79.620027563
 20
36.9570942364
 10
-79.9302201964
 20
34.569295661
 10
-80.2061667259
 20
32.177304891
 10
-80.4476982719
 20
29.7815920682
 10
-80.6547582463
 20
27.3826475882
 10
-80.8274023631
 20
24.9809822729
 10
-80.9656301865
 20
22.5770966572
  0
LWPOLYLINE
  5
3A4
100
AcDbEntity
  8
ASSI
100
AcDbPolyline
 62
253
  6
CONTINUOUS
 90
10
 70
0
 10
-78.484145733
 20
44.0903570153
 10
-78.8970179796
 20
41.7181311372
 10
-79.2756453983
 20
39.3402098213
 10
-79.620027563
 20
36.9570942364
 10
-79.9302201964
 20
34.569295661
 10
-80.2061667259
 20
32.177304891
 10
-80.4476982719
 20
29.7815920682
 10
-80.6547582463
 20
27.3826475882
 10
-80.8274023631
 20
24.9809822729
 10
-80.9656301865
 20
22.5770966572
  0
LINE
  5
3A5
100
AcDbEntity
  8
SCRITTA
100
AcDbLine
 62
253
  6
CONTINUOUS
 10
-80.9878200119
 20
-28.8778013544
 11
-81.0542559405
 21
-28.1013718376
  0
LINE
  5
3A6
100
AcDbEntity
  8
SCRITTA
100
AcDbLine
 62
253
  6
CONTINUOUS
 10
-81.1134426501
 20
-27.3710148072
 11
-81.0526961412
 21
-28.120100228
  0
LINE
  5
3A7
100
AcDbEntity
  8
SCRITTA
100
AcDbLine
 62
253
  6
CONTINUOUS
 10
-81.1700546938
 20
-26.6322222166
 11
-81.1134426501
 21
-27.3710148072
  0
LINE
  5
3A8
100
AcDbEntity
  8
SCRITTA
100
AcDbLine
 62
253
  6
CONTINUOUS
 10
-81.1700546938
 20
-26.6322222166
 11
-81.2126992948
 21
-26.0452499251
  0
LWPOLYLINE
  5
3A9
100
AcDbEntity
  8
RACCORDO
100
AcDbPolyline
 62
253
  6
CONTINUOUS
 90
10
 70
0
 10
-80.9656301865
 20
-22.5770966572
 10
-80.8274023944
 20
-24.980981833
 10
-80.6547582977
 20
-27.3826468776
 10
-80.4476983324
 20
-29.7815912556
 10
-80.2061667799
 20
-32.1773042225
 10
-79.9302202327
 20
-34.5692953036
 10
-79.6200275837
 20
-36.9570941243
 10
-79.27564541
 20
-39.3402098115
 10
-78.8970179843
 20
-41.7181311647
 10
-78.4841457329
 20
-44.0903570155
  0
LWPOLYLINE
  5
3AA
100
AcDbEntity
  8
ASSI
100
AcDbPolyline
 62
253
  6
CONTINUOUS
 90
10
 70
0
 10
-80.9656301865
 20
-22.5770966572
 10
-80.8274023944
 20
-24.980981833
 10
-80.6547582977
 20
-27.3826468776
 10
-80.4476983324
 20
-29.7815912556
 10
-80.2061667799
 20
-32.1773042225
 10
-79.9302202327
 20
-34.5692953036
 10
-79.6200275837
 20
-36.9570941243
 10
-79.27564541
 20
-39.3402098115
 10
-78.8970179843
 20
-41.7181311647
 10
-78.4841457329
 20
-44.0903570155
  0
LWPOLYLINE
  5
3AB
100
AcDbEntity
  8
RACCORDO
100
AcDbPolyline
 62
7
  6
CONTINUOUS
 90
3
 70
0
 10
-78.0221996148
 20
33.2727402769
 10
-78.0017335263
 20
33.4170058525
 10
-77.9810880885
 20
33.5675240351
  0
LWPOLYLINE
  5
3AC
100
AcDbEntity
  8
RACCORDO
100
AcDbPolyline
 62
7
  6
CONTINUOUS
 90
10
 70
0
 10
-77.19925648
 20
44.2
 10
-77.6199478918
 20
41.8098309278
 10
-78.0056642285
 20
39.4141901623
 10
-78.35640549
 20
37.0130777036
 10
-78.6722757291
 20
34.6056370764
 10
-78.953170893
 20
32.192724756
 10
-79.1987788237
 20
29.7769101678
 10
-79.4089954685
 20
27.359049787
 10
-79.58392488
 20
24.9382871385
 10
-79.7235670584
 20
22.5146222223
  0
LWPOLYLINE
  5
3AD
100
AcDbEntity
  8
ASSI
100
AcDbPolyline
 62
7
  6
CONTINUOUS
 90
10
 70
0
 10
-77.19925648
 20
44.2
 10
-77.6199478918
 20
41.8098309278
 10
-78.0056642285
 20
39.4141901623
 10
-78.35640549
 20
37.0130777036
 10
-78.6722757291
 20
34.6056370764
 10
-78.953170893
 20
32.192724756
 10
-79.1987788237
 20
29.7769101678
 10
-79.4089954685
 20
27.359049787
 10
-79.58392488
 20
24.9382871385
 10
-79.7235670584
 20
22.5146222223
  0
LWPOLYLINE
  5
3AE
100
AcDbEntity
  8
RACCORDO
100
AcDbPolyline
 62
7
  6
CONTINUOUS
 90
3
 70
0
 10
-78.0221974284
 20
-33.2727589871
 10
-78.0017199847
 20
-33.4171098548
 10
-77.9810888011
 20
-33.5675241328
  0
LWPOLYLINE
  5
3AF
100
AcDbEntity
  8
RACCORDO
100
AcDbPolyline
 62
7
  6
CONTINUOUS
 90
5
 70
0
 10
-77.1992887422
 20
-44.2
 10
-77.1925846585
 20
-44.2517790975
 10
-77.1863512342
 20
-44.3033484065
 10
-77.1805884692
 20
-44.3544914658
 10
-77.1754088532
 20
-44.4050017815
  0
LWPOLYLINE
  5
3B0
100
AcDbEntity
  8
ASSI
100
AcDbPolyline
 62
7
  6
CONTINUOUS
 90
5
 70
0
 10
-77.1992887422
 20
-44.2
 10
-77.1925846585
 20
-44.2517790975
 10
-77.1863512342
 20
-44.3033484065
 10
-77.1805884692
 20
-44.3544914658
 10
-77.1754088532
 20
-44.4050017815
  0
LWPOLYLINE
  5
3B1
100
AcDbEntity
  8
RACCORDO
100
AcDbPolyline
 62
7
  6
CONTINUOUS
 90
17
 70
0
 10
-77.1572887168
 20
-44.5961695322
 10
-77.152858505
 20
-44.6404012864
 10
-77.1483190729
 20
-44.6830445821
 10
-77.1437005406
 20
-44.7237710663
 10
-77.1388809773
 20
-44.7622218763
 10
-77.1338553176
 20
-44.7982281581
 10
-77.1286286269
 20
-44.8316514715
 10
-77.1230941702
 20
-44.862250801
 10
-77.1172788441
 20
-44.8898627638
 10
-77.1111557519
 20
-44.9144919999
 10
-77.1045374685
 20
-44.9361616004
 10
-77.0974298195
 20
-44.9548486855
 10
-77.0898269792
 20
-44.9703843024
 10
-77.0815240454
 20
-44.9826242691
 10
-77.0724527174
 20
-44.9915711638
 10
-77.0626812959
 20
-44.9972949573
 10
-77.052209781
 20
-44.9998446939
  0
LWPOLYLINE
  5
3B2
100
AcDbEntity
  8
ASSI
100
AcDbPolyline
 62
7
  6
CONTINUOUS
 90
17
 70
0
 10
-77.1572887168
 20
-44.5961695322
 10
-77.152858505
 20
-44.6404012864
 10
-77.1483190729
 20
-44.6830445821
 10
-77.1437005406
 20
-44.7237710663
 10
-77.1388809773
 20
-44.7622218763
 10
-77.1338553176
 20
-44.7982281581
 10
-77.1286286269
 20
-44.8316514715
 10
-77.1230941702
 20
-44.862250801
 10
-77.1172788441
 20
-44.8898627638
 10
-77.1111557519
 20
-44.9144919999
 10
-77.1045374685
 20
-44.9361616004
 10
-77.0974298195
 20
-44.9548486855
 10
-77.0898269792
 20
-44.9703843024
 10
-77.0815240454
 20
-44.9826242691
 10
-77.0724527174
 20
-44.9915711638
 10
-77.0626812959
 20
-44.9972949573
 10
-77.052209781
 20
-44.9998446939
  0
LINE
  5
3B3
100
AcDbEntity
  8
RACCORDO
100
AcDbLine
 62
7
  6
CONTINUOUS
 10
-77.1754088532
 20
-44.4050017815
 11
-77.1572887168
 21
-44.5961695322
  0
LINE
  5
3B4
100
AcDbEntity
  8
ASSI
100
AcDbLine
 62
7
  6
CONTINUOUS
 10
-77.1754088532
 20
-44.4050017815
 11
-77.1572887168
 21
-44.5961695322
  0
LWPOLYLINE
  5
3B5
100
AcDbEntity
  8
RACCORDO
100
AcDbPolyline
 62
7
  6
CONTINUOUS
 90
10
 70
0
 10
-79.7235670584
 20
-22.5146222223
 10
-79.58392488
 20
-24.9382871385
 10
-79.4089954685
 20
-27.359049787
 10
-79.1987788237
 20
-29.7769101678
 10
-78.953170893
 20
-32.192724756
 10
-78.6722757291
 20
-34.6056370764
 10
-78.35640549
 20
-37.0130777036
 10
-78.0056642285
 20
-39.4141901623
 10
-77.6199478918
 20
-41.8098309278
 10
-77.19925648
 20
-44.2
  0
LWPOLYLINE
  5
3B6
100
AcDbEntity
  8
ASSI
100
AcDbPolyline
 62
7
  6
CONTINUOUS
 90
10
 70
0
 10
-79.7235670584
 20
-22.5146222223
 10
-79.58392488
 20
-24.9382871385
 10
-79.4089954685
 20
-27.359049787
 10
-79.1987788237
 20
-29.7769101678
 10
-78.953170893
 20
-32.192724756
 10
-78.6722757291
 20
-34.6056370764
 10
-78.35640549
 20
-37.0130777036
 10
-78.0056642285
 20
-39.4141901623
 10
-77.6199478918
 20
-41.8098309278
 10
-77.19925648
 20
-44.2
  0
LWPOLYLINE
  5
3B7
100
AcDbEntity
  8
RACCORDO
100
AcDbPolyline
 62
253
  6
CONTINUOUS
 90
16
 70
0
 10
-78.470006473
 20
-44.5294714855
 10
-78.4677423306
 20
-44.5712838139
 10
-78.4653561795
 20
-44.6110203695
 10
-78.4628826753
 20
-44.6485193913
 10
-78.4603251679
 20
-44.6836272453
 10
-78.4576811371
 20
-44.7162025958
 10
-78.4549786689
 20
-44.7461154949
 10
-78.4522266183
 20
-44.7732446239
 10
-78.4494265203
 20
-44.7974785099
 10
-78.4465977309
 20
-44.8187179049
 10
-78.4437538861
 20
-44.8368742121
 10
-78.4409013626
 20
-44.8518766351
 10
-78.4380505301
 20
-44.8636681166
 10
-78.4352140463
 20
-44.8721985613
 10
-78.432407222
 20
-44.8774287644
 10
-78.4296461466
 20
-44.8793346272
  0
LWPOLYLINE
  5
3B8
100
AcDbEntity
  8
ASSI
100
AcDbPolyline
 62
253
  6
CONTINUOUS
 90
16
 70
0
 10
-78.470006473
 20
-44.5294714855
 10
-78.4677423306
 20
-44.5712838139
 10
-78.4653561795
 20
-44.6110203695
 10
-78.4628826753
 20
-44.6485193913
 10
-78.4603251679
 20
-44.6836272453
 10
-78.4576811371
 20
-44.7162025958
 10
-78.4549786689
 20
-44.7461154949
 10
-78.4522266183
 20
-44.7732446239
 10
-78.4494265203
 20
-44.7974785099
 10
-78.4465977309
 20
-44.8187179049
 10
-78.4437538861
 20
-44.8368742121
 10
-78.4409013626
 20
-44.8518766351
 10
-78.4380505301
 20
-44.8636681166
 10
-78.4352140463
 20
-44.8721985613
 10
-78.432407222
 20
-44.8774287644
 10
-78.4296461466
 20
-44.8793346272
  0
LINE
  5
3B9
100
AcDbEntity
  8
RACCORDO
100
AcDbLine
 62
253
  6
CONTINUOUS
 10
-78.4741926072
 20
-44.4403044488
 11
-78.470006473
 21
-44.5294714855
  0
LINE
  5
3BA
100
AcDbEntity
  8
ASSI
100
AcDbLine
 62
253
  6
CONTINUOUS
 10
-78.4741926072
 20
-44.4403044488
 11
-78.470006473
 21
-44.5294714855
  0
LINE
  5
3BB
100
AcDbEntity
  8
RACCORDO
100
AcDbLine
 62
253
  6
CONTINUOUS
 10
-78.4778146606
 20
-44.3450013124
 11
-78.4741926072
 21
-44.4403044488
  0
LINE
  5
3BC
100
AcDbEntity
  8
ASSI
100
AcDbLine
 62
253
  6
CONTINUOUS
 10
-78.4778146606
 20
-44.3450013124
 11
-78.4741926072
 21
-44.4403044488
  0
LINE
  5
3BD
100
AcDbEntity
  8
RACCORDO
100
AcDbLine
 62
253
  6
CONTINUOUS
 10
-78.4808460128
 20
-44.2451310513
 11
-78.4778146606
 21
-44.3450013124
  0
LINE
  5
3BE
100
AcDbEntity
  8
ASSI
100
AcDbLine
 62
253
  6
CONTINUOUS
 10
-78.4808460128
 20
-44.2451310513
 11
-78.4778146606
 21
-44.3450013124
  0
LWPOLYLINE
  5
3BF
100
AcDbEntity
  8
RACCORDO
100
AcDbPolyline
 62
253
  6
CONTINUOUS
 90
3
 70
0
 10
-78.4841457315
 20
-44.0903570156
 10
-78.4831848858
 20
-44.1423284223
 10
-78.4808460128
 20
-44.2451310513
  0
LWPOLYLINE
  5
3C0
100
AcDbEntity
  8
ASSI
100
AcDbPolyline
 62
253
  6
CONTINUOUS
 90
3
 70
0
 10
-78.4841457315
 20
-44.0903570156
 10
-78.4831848858
 20
-44.1423284223
 10
-78.4808460128
 20
-44.2451310513
  0
LINE
  5
3C1
100
AcDbEntity
  8
RACCORDO
100
AcDbLine
 62
253
  6
CONTINUOUS
 10
-78.4820903546
 20
44.193992734
 11
-78.4841457315
 21
44.0903570155
  0
LINE
  5
3C2
100
AcDbEntity
  8
ASSI
100
AcDbLine
 62
253
  6
CONTINUOUS
 10
-78.4820903546
 20
44.193992734
 11
-78.4841457315
 21
44.0903570155
  0
LINE
  5
3C3
100
AcDbEntity
  8
RACCORDO
100
AcDbLine
 62
253
  6
CONTINUOUS
 10
-78.4794193173
 20
44.2955393815
 11
-78.4820903546
 21
44.193992734
  0
LINE
  5
3C4
100
AcDbEntity
  8
ASSI
100
AcDbLine
 62
253
  6
CONTINUOUS
 10
-78.4794193173
 20
44.2955393815
 11
-78.4820903546
 21
44.193992734
  0
LWPOLYLINE
  5
3C5
100
AcDbEntity
  8
RACCORDO
100
AcDbPolyline
 62
253
  6
CONTINUOUS
 90
12
 70
0
 10
-81.1411189454
 20
18.7645857495
 10
-81.2821371959
 20
15.0132381456
 10
-81.391821332
 20
11.2608425895
 10
-81.4701746306
 20
7.5076638405
 10
-81.5171938168
 20
3.7539634916
 10
-81.5328690627
 20
-0.0000000315
 10
-81.5171938157
 20
-3.7539635639
 10
-81.4701746284
 20
-7.5076639281
 10
-81.3918213293
 20
-11.2608426795
 10
-81.2821371935
 20
-15.0132382186
 10
-81.1411189439
 20
-18.7645857925
 10
-80.9656301865
 20
-22.5770966572
  0
LWPOLYLINE
  5
3C6
100
AcDbEntity
  8
ASSI
100
AcDbPolyline
 62
253
  6
CONTINUOUS
 90
12
 70
0
 10
-81.1411189454
 20
18.7645857495
 10
-81.2821371959
 20
15.0132381456
 10
-81.391821332
 20
11.2608425895
 10
-81.4701746306
 20
7.5076638405
 10
-81.5171938168
 20
3.7539634916
 10
-81.5328690627
 20
-0.0000000315
 10
-81.5171938157
 20
-3.7539635639
 10
-81.4701746284
 20
-7.5076639281
 10
-81.3918213293
 20
-11.2608426795
 10
-81.2821371935
 20
-15.0132382186
 10
-81.1411189439
 20
-18.7645857925
 10
-80.9656301865
 20
-22.5770966572
  0
LWPOLYLINE
  5
3C7
100
AcDbEntity
  8
RACCORDO
100
AcDbPolyline
 62
253
  6
CONTINUOUS
 90
3
 70
0
 10
-78.4741925823
 20
44.4403068967
 10
-78.4760755293
 20
44.3933251905
 10
-78.4794193173
 20
44.2955393815
  0
LWPOLYLINE
  5
3C8
100
AcDbEntity
  8
ASSI
100
AcDbPolyline
 62
253
  6
CONTINUOUS
 90
3
 70
0
 10
-78.4741925823
 20
44.4403068967
 10
-78.4760755293
 20
44.3933251905
 10
-78.4794193173
 20
44.2955393815
  0
LWPOLYLINE
  5
3C9
100
AcDbEntity
  8
DRAFT
100
AcDbPolyline
 62
7
  6
CONTINUOUS
 90
13
 70
0
 10
-79.7235670584
 20
22.5146222223
 10
-79.8963670068
 20
18.7651079046
 10
-80.0377539838
 20
15.0144244993
 10
-80.1477279893
 20
11.2625720061
 10
-80.2262953801
 20
7.5091607293
 10
-80.2734497995
 20
3.7545803646
 10
-80.2891721771
 20
0.0
 10
-80.2734497995
 20
-3.7545803646
 10
-80.2262953801
 20
-7.5091607292
 10
-80.1477279893
 20
-11.2625720061
 10
-80.0377539838
 20
-15.0144244993
 10
-79.8963670068
 20
-18.7651079046
 10
-79.7235670584
 20
-22.5146222223
  0
LWPOLYLINE
  5
3CA
100
AcDbEntity
  8
ASSI
100
AcDbPolyline
 62
7
  6
CONTINUOUS
 90
13
 70
0
 10
-79.7235670584
 20
22.5146222223
 10
-79.8963670068
 20
18.7651079046
 10
-80.0377539838
 20
15.0144244993
 10
-80.1477279893
 20
11.2625720061
 10
-80.2262953801
 20
7.5091607293
 10
-80.2734497995
 20
3.7545803646
 10
-80.2891721771
 20
0.0
 10
-80.2734497995
 20
-3.7545803646
 10
-80.2262953801
 20
-7.5091607292
 10
-80.1477279893
 20
-11.2625720061
 10
-80.0377539838
 20
-15.0144244993
 10
-79.8963670068
 20
-18.7651079046
 10
-79.7235670584
 20
-22.5146222223
  0
LINE
  5
3CB
100
AcDbEntity
  8
RACCORDO
100
AcDbLine
 62
253
  6
CONTINUOUS
 10
-80.9656301865
 20
22.5770966572
 11
-81.1411189454
 21
18.7645857495
  0
LINE
  5
3CC
100
AcDbEntity
  8
ASSI
100
AcDbLine
 62
253
  6
CONTINUOUS
 10
-80.9656301865
 20
22.5770966572
 11
-81.1411189454
 21
18.7645857495
  0
LWPOLYLINE
  5
3CD
100
AcDbEntity
  8
RACCORDO
100
AcDbPolyline
 62
7
  6
CONTINUOUS
 90
5
 70
0
 10
-77.1754088531
 20
44.4050017287
 10
-77.1805884271
 20
44.3544918701
 10
-77.1863511827
 20
44.3033489299
 10
-77.1925846211
 20
44.2517794872
 10
-77.1992887422
 20
44.2
  0
LWPOLYLINE
  5
3CE
100
AcDbEntity
  8
ASSI
100
AcDbPolyline
 62
7
  6
CONTINUOUS
 90
5
 70
0
 10
-77.1754088531
 20
44.4050017287
 10
-77.1805884271
 20
44.3544918701
 10
-77.1863511827
 20
44.3033489299
 10
-77.1925846211
 20
44.2517794872
 10
-77.1992887422
 20
44.2
  0
LINE
  5
3CF
100
AcDbEntity
  8
RACCORDO
100
AcDbLine
 62
7
  6
CONTINUOUS
 10
-73.4192911914
 20
-3.8526539614
 11
-75.2540208269
 21
-3.5291416244
  0
LINE
  5
3D0
100
AcDbEntity
  8
RACCORDO
100
AcDbLine
 62
253
  6
CONTINUOUS
 10
-77.9192911914
 20
34.1563426119
 11
-77.9192911914
 21
34.0507955596
  0
LINE
  5
3D1
100
AcDbEntity
  8
RACCORDO
100
AcDbLine
 62
253
  6
CONTINUOUS
 10
-77.9192911914
 20
-34.0507955596
 11
-77.9192911914
 21
-34.1403212189
  0
LINE
  5
3D2
100
AcDbEntity
  8
0
100
AcDbLine
 62
7
  6
CONTINUOUS
 10
-77.6192911914
 20
36.4792550907
 11
-77.6192911914
 21
36.3901924258
  0
LINE
  5
3D3
100
AcDbEntity
  8
0
100
AcDbLine
 62
7
  6
CONTINUOUS
 10
-77.6192911914
 20
-36.3901924258
 11
-77.6192911914
 21
-36.4711554776
  0
LINE
  5
3D4
100
AcDbEntity
  8
RACCORDO
100
AcDbLine
 62
7
  6
CONTINUOUS
 10
-75.4192911914
 20
-3.3321800738
 11
-75.4192911914
 21
3.3321800738
  0
LINE
  5
3D5
100
AcDbEntity
  8
0
100
AcDbLine
 62
253
  6
CONTINUOUS
 10
-75.4192911914
 20
-0.0
 11
-78.9892911914
 21
-0.0
  0
LINE
  5
3D6
100
AcDbEntity
  8
DRAFT
100
AcDbLine
 62
7
  6
CONTINUOUS
 10
-73.4192911914
 20
-22.3686091925
 11
-73.4192911914
 21
-3.8526539614
  0
LINE
  5
3D7
100
AcDbEntity
  8
RACCORDO
100
AcDbLine
 62
7
  6
CONTINUOUS
 10
-73.4192911914
 20
-22.3686091925
 11
-73.4192911914
 21
-43.100000231
  0
LINE
  5
3D8
100
AcDbEntity
  8
DRAFT
100
AcDbLine
 62
7
  6
CONTINUOUS
 10
-73.4192911914
 20
3.8526539614
 11
-73.4192911914
 21
22.3686091925
  0
LINE
  5
3D9
100
AcDbEntity
  8
RACCORDO
100
AcDbLine
 62
7
  6
CONTINUOUS
 10
-73.4192911914
 20
22.3686091925
 11
-73.4192911914
 21
43.1000002325
  0
LINE
  5
3DA
100
AcDbEntity
  8
RACCORDO
100
AcDbLine
 62
7
  6
CONTINUOUS
 10
-75.2540208269
 20
3.5291416244
 11
-73.4192911914
 21
3.8526539614
  0
LINE
  5
3DB
100
AcDbEntity
  8
0
100
AcDbLine
 62
253
  6
CONTINUOUS
 10
-78.910819715
 20
22.4493333334
 11
-78.42520757
 21
22.4493333334
  0
LINE
  5
3DC
100
AcDbEntity
  8
RACCORDO
100
AcDbLine
 62
253
  6
CONTINUOUS
 10
-79.7235670584
 20
22.5146222223
 11
-80.9687665795
 21
22.5146222223
  0
LINE
  5
3DD
100
AcDbEntity
  8
ASSI
100
AcDbLine
 62
253
  6
CONTINUOUS
 10
-79.7235670584
 20
22.5146222223
 11
-80.9687665795
 21
22.5146222223
  0
LINE
  5
3DE
100
AcDbEntity
  8
0
100
AcDbLine
 62
253
  6
CONTINUOUS
 10
-73.4192911914
 20
22.3686091925
 11
-78.42520757
 21
22.4493333334
  0
LINE
  5
3DF
100
AcDbEntity
  8
RACCORDO
100
AcDbLine
 62
253
  6
CONTINUOUS
 10
-80.9687665794
 20
22.5146222223
 11
-81.4245616437
 21
22.5374725363
  0
LINE
  5
3E0
100
AcDbEntity
  8
ASSI
100
AcDbLine
 62
253
  6
CONTINUOUS
 10
-80.9687665794
 20
22.5146222223
 11
-81.4245616437
 21
22.5374725363
  0
LINE
  5
3E1
100
AcDbEntity
  8
RACCORDO
100
AcDbLine
 62
253
  6
CONTINUOUS
 10
-80.9656301865
 20
22.5770966572
 11
-81.4214217739
 21
22.6
  0
LINE
  5
3E2
100
AcDbEntity
  8
ASSI
100
AcDbLine
 62
253
  6
CONTINUOUS
 10
-80.9656301865
 20
22.5770966572
 11
-81.4214217739
 21
22.6
  0
LINE
  5
3E3
100
AcDbEntity
  8
RACCORDO
100
AcDbLine
 62
7
  6
CONTINUOUS
 10
-78.7589695978
 20
25.25
 11
-78.7466053249
 21
25.25
  0
LINE
  5
3E4
100
AcDbEntity
  8
RACCORDO
100
AcDbLine
 62
253
  6
CONTINUOUS
 10
-77.6379033978
 20
36.2523809524
 11
-77.6507405328
 21
36.2523809524
  0
LINE
  5
3E5
100
AcDbEntity
  8
RACCORDO
100
AcDbLine
 62
7
  6
CONTINUOUS
 10
-77.6314855038
 20
36.3
 11
-77.6443810794
 21
36.3
  0
LINE
  5
3E6
100
AcDbEntity
  8
0
100
AcDbLine
 62
7
  6
CONTINUOUS
 10
-77.6163678712
 20
36.5014412145
 11
-77.601998607
 21
36.5004717688
  0
LWPOLYLINE
  5
3E7
100
AcDbEntity
  8
RACCORDO
100
AcDbPolyline
 62
253
  6
CONTINUOUS
 90
19
 70
0
 10
-74.1408248189
 20
43.7816827945
 10
-74.1182476311
 20
43.7627430305
 10
-74.0980356828
 20
43.7408181703
 10
-74.0802853603
 20
43.7160127711
 10
-74.065081311
 20
43.6884451268
 10
-74.0524960395
 20
43.658246704
 10
-74.0425895617
 20
43.6255615153
 10
-74.035409119
 20
43.5905454322
 10
-74.0309889523
 20
43.5533654411
 10
-74.0293501393
 20
43.5141988473
 10
-74.0305004943
 20
43.4732324305
 10
-74.0344345302
 20
43.4306615526
 10
-74.0411334855
 20
43.3866892259
 10
-74.0505654131
 20
43.341525147
 10
-74.0626853333
 20
43.2953846953
 10
-74.0774354481
 20
43.2484879042
 10
-74.0947454169
 20
43.2010584152
 10
-74.1145326912
 20
43.1533224117
 10
-74.1367029089
 20
43.1055075376
  0
LWPOLYLINE
  5
3E8
100
AcDbEntity
  8
RACCORDO
100
AcDbPolyline
 62
253
  6
CONTINUOUS
 90
13
 70
0
 10
-74.1367026962
 20
-43.1055075237
 10
-74.0552378781
 20
-43.0567378851
 10
-73.9783464879
 20
-43.0085413328
 10
-73.9059083173
 20
-42.9609212393
 10
-73.8379682502
 20
-42.9138402273
 10
-73.7742318031
 20
-42.8673421781
 10
-73.7140932148
 20
-42.821552004
 10
-73.6574277571
 20
-42.7764958885
 10
-73.6041679434
 20
-42.732153135
 10
-73.5538367247
 20
-42.6885777809
 10
-73.5062320546
 20
-42.6457892602
 10
-73.4614080142
 20
-42.60377264
 10
-73.4192911589
 20
-42.562530075
  0
LINE
  5
3E9
100
AcDbEntity
  8
RACCORDO
100
AcDbLine
 62
253
  6
CONTINUOUS
 10
-77.2557725287
 20
38.9064324322
 11
-77.2729970907
 21
38.9064324323
  0
LWPOLYLINE
  5
3EA
100
AcDbEntity
  8
RACCORDO
100
AcDbPolyline
 62
253
  6
CONTINUOUS
 90
10
 70
0
 10
-74.1367026962
 20
43.1055075237
 10
-74.0385938704
 20
43.0465439491
 10
-73.9453988955
 20
42.9871029852
 10
-73.8569793958
 20
42.9271873259
 10
-73.7731639416
 20
42.8666277546
 10
-73.6938312642
 20
42.8055987772
 10
-73.6189166043
 20
42.7446194223
 10
-73.5483011933
 20
42.6838652879
 10
-73.4818085929
 20
42.6231677395
 10
-73.4192911927
 20
42.5625301072
  0
LWPOLYLINE
  5
3EB
100
AcDbEntity
  8
RACCORDO
100
AcDbPolyline
 62
7
  6
CONTINUOUS
 90
18
 70
0
 10
-77.052209781
 20
44.9998446939
 10
-77.0626813467
 20
44.9972949555
 10
-77.072452904
 20
44.9915710433
 10
-77.0815244528
 20
44.9826237656
 10
-77.0898277438
 20
44.9703829157
 10
-77.0974310263
 20
44.954845822
 10
-77.1045390491
 20
44.9361569258
 10
-77.1111576213
 20
44.9144851669
 10
-77.1172809338
 20
44.8898535319
 10
-77.1230963075
 20
44.8622398064
 10
-77.1286305425
 20
44.8316402387
 10
-77.1338568388
 20
44.798217977
 10
-77.1388821165
 20
44.7622132206
 10
-77.1437013482
 20
44.7237643054
 10
-77.1483195614
 20
44.6830401782
 10
-77.1528587586
 20
44.6403988149
 10
-77.1572888733
 20
44.5961678803
 10
-77.1754088531
 20
44.4050017287
  0
LWPOLYLINE
  5
3EC
100
AcDbEntity
  8
ASSI
100
AcDbPolyline
 62
7
  6
CONTINUOUS
 90
18
 70
0
 10
-77.052209781
 20
44.9998446939
 10
-77.0626813467
 20
44.9972949555
 10
-77.072452904
 20
44.9915710433
 10
-77.0815244528
 20
44.9826237656
 10
-77.0898277438
 20
44.9703829157
 10
-77.0974310263
 20
44.954845822
 10
-77.1045390491
 20
44.9361569258
 10
-77.1111576213
 20
44.9144851669
 10
-77.1172809338
 20
44.8898535319
 10
-77.1230963075
 20
44.8622398064
 10
-77.1286305425
 20
44.8316402387
 10
-77.1338568388
 20
44.798217977
 10
-77.1388821165
 20
44.7622132206
 10
-77.1437013482
 20
44.7237643054
 10
-77.1483195614
 20
44.6830401782
 10
-77.1528587586
 20
44.6403988149
 10
-77.1572888733
 20
44.5961678803
 10
-77.1754088531
 20
44.4050017287
  0
LINE
  5
3ED
100
AcDbEntity
  8
0
100
AcDbLine
 62
253
  6
CONTINUOUS
 10
-76.6121626359
 20
42.8597347062
 11
-76.1119516791
 21
42.9035217104
  0
LINE
  5
3EE
100
AcDbEntity
  8
0
100
AcDbLine
 62
7
  6
CONTINUOUS
 10
-76.4336632569
 20
43.856164843
 11
-75.9326251193
 21
43.9
  0
LINE
  5
3EF
100
AcDbEntity
  8
RACCORDO
100
AcDbLine
 62
253
  6
CONTINUOUS
 10
-78.484145733
 20
44.0903570153
 11
-77.1987948748
 21
44.2028602166
  0
LINE
  5
3F0
100
AcDbEntity
  8
ASSI
100
AcDbLine
 62
253
  6
CONTINUOUS
 10
-78.484145733
 20
44.0903570153
 11
-77.1987948748
 21
44.2028602166
  0
LINE
  5
3F1
100
AcDbEntity
  8
RACCORDO
100
AcDbLine
 62
7
  6
CONTINUOUS
 10
-76.6370227902
 20
42.7181125759
 11
-76.6475039984
 21
42.7178381158
  0
LINE
  5
3F2
100
AcDbEntity
  8
RACCORDO
100
AcDbLine
 62
253
  6
CONTINUOUS
 10
-77.19925648
 20
44.2
 11
-76.3858618636
 21
44.2
  0
LINE
  5
3F3
100
AcDbEntity
  8
ASSI
100
AcDbLine
 62
253
  6
CONTINUOUS
 10
-77.19925648
 20
44.2
 11
-76.3858618636
 21
44.2
  0
LINE
  5
3F4
100
AcDbEntity
  8
RACCORDO
100
AcDbLine
 62
253
  6
CONTINUOUS
 10
-74.1367026962
 20
43.1055075237
 11
-76.0740271531
 21
43.1172115123
  0
LWPOLYLINE
  5
3F5
100
AcDbEntity
  8
RACCORDO
100
AcDbPolyline
 62
253
  6
CONTINUOUS
 90
16
 70
0
 10
-75.9674403565
 20
43.7092508424
 10
-75.8446697401
 20
43.691043044
 10
-75.7219092162
 20
43.6700289372
 10
-75.5992333399
 20
43.6462037756
 10
-75.4768960668
 20
43.6196747233
 10
-75.3548042884
 20
43.5903251221
 10
-75.232525699
 20
43.5578136493
 10
-75.1100730503
 20
43.5221604861
 10
-74.9876476864
 20
43.4833338546
 10
-74.8651195542
 20
43.4409127441
 10
-74.7424536866
 20
43.3949058392
 10
-74.6199564889
 20
43.3452905199
 10
-74.4980022652
 20
43.2915971271
 10
-74.3767762286
 20
43.233663619
 10
-74.2563057723
 20
43.1716363435
 10
-74.1367026962
 20
43.1055075237
  0
LINE
  5
3F6
100
AcDbEntity
  8
RACCORDO
100
AcDbLine
 62
253
  6
CONTINUOUS
 10
-78.4841457311
 20
44.0903570254
 11
-78.9325402839
 21
44.1716567708
  0
LINE
  5
3F7
100
AcDbEntity
  8
ASSI
100
AcDbLine
 62
253
  6
CONTINUOUS
 10
-78.4841457311
 20
44.0903570254
 11
-78.9325402839
 21
44.1716567708
  0
LINE
  5
3F8
100
AcDbEntity
  8
RACCORDO
100
AcDbLine
 62
7
  6
CONTINUOUS
 10
-78.4296461466
 20
44.8793346272
 11
-77.0504346246
 21
45.0
  0
LINE
  5
3F9
100
AcDbEntity
  8
ASSI
100
AcDbLine
 62
7
  6
CONTINUOUS
 10
-78.4296461466
 20
44.8793346272
 11
-77.0504346246
 21
45.0
  0
LINE
  5
3FA
100
AcDbEntity
  8
RACCORDO
100
AcDbLine
 62
7
  6
CONTINUOUS
 10
-77.0504346246
 20
45.0
 11
-76.2362607305
 21
45.0
  0
LINE
  5
3FB
100
AcDbEntity
  8
ASSI
100
AcDbLine
 62
7
  6
CONTINUOUS
 10
-77.0504346246
 20
45.0
 11
-76.2362607305
 21
45.0
  0
ARC
  5
3FC
100
AcDbEntity
  8
RACCORDO
100
AcDbCircle
 62
7
  6
CONTINUOUS
 10
44.2
 20
-44.2
 40
0.8
100
AcDbArc
 50
270.0
 51
360.0
  0
ARC
  5
3FD
100
AcDbEntity
  8
RACCORDO
100
AcDbCircle
 62
7
  6
CONTINUOUS
 10
44.2
 20
44.2
 40
0.8
100
AcDbArc
 50
0.0
 51
90.0
  0
ARC
  5
3FE
100
AcDbEntity
  8
RACCORDO
100
AcDbCircle
 62
7
  6
CONTINUOUS
 10
-44.2
 20
-44.2
 40
0.8
100
AcDbArc
 50
180.0
 51
270.0
  0
ARC
  5
3FF
100
AcDbEntity
  8
RACCORDO
100
AcDbCircle
 62
7
  6
CONTINUOUS
 10
-44.2
 20
44.2
 40
0.8
100
AcDbArc
 50
90.0
 51
180.0
  0
ARC
  5
400
100
AcDbEntity
  8
ASSI
100
AcDbCircle
 62
7
  6
CONTINUOUS
 10
-44.2
 20
44.2
 40
0.8
100
AcDbArc
 50
90.0
 51
180.0
  0
ARC
  5
401
100
AcDbEntity
  8
ASSI
100
AcDbCircle
 62
7
  6
CONTINUOUS
 10
-44.2
 20
-44.2
 40
0.8
100
AcDbArc
 50
180.0
 51
270.0
  0
ARC
  5
402
100
AcDbEntity
  8
ASSI
100
AcDbCircle
 62
7
  6
CONTINUOUS
 10
44.2
 20
44.2
 40
0.8
100
AcDbArc
 50
0.0
 51
90.0
  0
ARC
  5
403
100
AcDbEntity
  8
ASSI
100
AcDbCircle
 62
7
  6
CONTINUOUS
 10
44.2
 20
-44.2
 40
0.8
100
AcDbArc
 50
270.0
 51
360.0
  0
ARC
  5
404
100
AcDbEntity
  8
RACCORDO
100
AcDbCircle
 62
7
  6
CONTINUOUS
 10
-76.519672386
 20
-40.5410492628
 40
4.0200239337
100
AcDbArc
 50
279.9999994914
 51
320.4648724279
  0
ARC
  5
405
100
AcDbEntity
  8
RACCORDO
100
AcDbCircle
 62
7
  6
CONTINUOUS
 10
-78.386069067
 20
-44.381233015
 40
0.5
100
AcDbArc
 50
190.3886735272
 51
265.0001329639
  0
ARC
  5
406
100
AcDbEntity
  8
ASSI
100
AcDbCircle
 62
7
  6
CONTINUOUS
 10
-78.386069067
 20
-44.381233015
 40
0.5
100
AcDbArc
 50
190.3886735272
 51
265.0001329639
  0
ARC
  5
407
100
AcDbEntity
  8
RACCORDO
100
AcDbCircle
 62
7
  6
CONTINUOUS
 10
-78.1273812771
 20
-27.4738416493
 40
0.5000000002
100
AcDbArc
 50
159.6544507239
 51
163.3006402331
  0
ARC
  5
408
100
AcDbEntity
  8
RACCORDO
100
AcDbCircle
 62
7
  6
CONTINUOUS
 10
-75.2192911914
 20
-3.3321800738
 40
0.2
100
AcDbArc
 50
180.0
 51
260.0
  0
ARC
  5
409
100
AcDbEntity
  8
RACCORDO
100
AcDbCircle
 62
7
  6
CONTINUOUS
 10
86.4864222117
 20
-14.15664
 40
168.12
100
AcDbArc
 50
182.8787323945
 51
190.3881766496
  0
ARC
  5
40A
100
AcDbEntity
  8
ASSI
100
AcDbCircle
 62
7
  6
CONTINUOUS
 10
86.4864222117
 20
-14.15664
 40
168.12
100
AcDbArc
 50
182.8787323945
 51
190.3881766496
  0
ARC
  5
40B
100
AcDbEntity
  8
SCRITTA
100
AcDbCircle
 62
253
  6
CONTINUOUS
 10
86.4864222117
 20
-14.15664
 40
168.12
100
AcDbArc
 50
184.066222377
 51
185.0234475517
  0
ARC
  5
40C
100
AcDbEntity
  8
RACCORDO
100
AcDbCircle
 62
7
  6
CONTINUOUS
 10
86.4864222117
 20
-14.15664
 40
165.62
100
AcDbArc
 50
182.8787323946
 51
190.7328340038
  0
ARC
  5
40D
100
AcDbEntity
  8
ASSI
100
AcDbCircle
 62
7
  6
CONTINUOUS
 10
86.4864222117
 20
-14.15664
 40
165.62
100
AcDbArc
 50
182.8787323946
 51
190.7328340038
  0
ARC
  5
40E
100
AcDbEntity
  8
0
100
AcDbCircle
 62
7
  6
CONTINUOUS
 10
86.4864222117
 20
-14.15664
 40
165.605
100
AcDbArc
 50
182.8787323946
 51
190.3312923639
  0
ARC
  5
40F
100
AcDbEntity
  8
0
100
AcDbCircle
 62
7
  6
CONTINUOUS
 10
86.4864222117
 20
-14.15664
 40
165.12
100
AcDbArc
 50
182.8787323946
 51
190.1014160662
  0
ARC
  5
410
100
AcDbEntity
  8
RACCORDO
100
AcDbCircle
 62
7
  6
CONTINUOUS
 10
86.4864222117
 20
-14.15664
 40
165.12
100
AcDbArc
 50
190.1014160662
 51
190.5891670948
  0
ARC
  5
411
100
AcDbEntity
  8
RACCORDO
100
AcDbCircle
 62
7
  6
CONTINUOUS
 10
-75.2192911914
 20
3.3321800738
 40
0.2
100
AcDbArc
 50
100.0
 51
180.0
  0
ARC
  5
412
100
AcDbEntity
  8
RACCORDO
100
AcDbCircle
 62
7
  6
CONTINUOUS
 10
-76.519672386
 20
40.5410492628
 40
4.0200239337
100
AcDbArc
 50
39.5351276004
 51
80.0000000614
  0
ARC
  5
413
100
AcDbEntity
  8
RACCORDO
100
AcDbCircle
 62
7
  6
CONTINUOUS
 10
-78.386069067
 20
44.381233015
 40
0.5
100
AcDbArc
 50
94.9998670361
 51
169.6113264728
  0
ARC
  5
414
100
AcDbEntity
  8
ASSI
100
AcDbCircle
 62
7
  6
CONTINUOUS
 10
-78.386069067
 20
44.381233015
 40
0.5
100
AcDbArc
 50
94.9998670361
 51
169.6113264728
  0
ARC
  5
415
100
AcDbEntity
  8
RACCORDO
100
AcDbCircle
 62
7
  6
CONTINUOUS
 10
-78.1273812771
 20
27.4738416495
 40
0.5000000002
100
AcDbArc
 50
196.6229900138
 51
200.3455492795
  0
ARC
  5
416
100
AcDbEntity
  8
RACCORDO
100
AcDbCircle
 62
7
  6
CONTINUOUS
 10
86.4864222117
 20
14.15664
 40
168.12
100
AcDbArc
 50
169.6120465221
 51
177.1212676055
  0
ARC
  5
417
100
AcDbEntity
  8
ASSI
100
AcDbCircle
 62
7
  6
CONTINUOUS
 10
86.4864222117
 20
14.15664
 40
168.12
100
AcDbArc
 50
169.6120465221
 51
177.1212676055
  0
ARC
  5
418
100
AcDbEntity
  8
RACCORDO
100
AcDbCircle
 62
7
  6
CONTINUOUS
 10
86.4864222117
 20
14.15664
 40
165.62
100
AcDbArc
 50
169.2676317374
 51
177.1212676054
  0
ARC
  5
419
100
AcDbEntity
  8
ASSI
100
AcDbCircle
 62
7
  6
CONTINUOUS
 10
86.4864222117
 20
14.15664
 40
165.62
100
AcDbArc
 50
169.2676317374
 51
177.1212676054
  0
ARC
  5
41A
100
AcDbEntity
  8
0
100
AcDbCircle
 62
7
  6
CONTINUOUS
 10
86.4864222117
 20
14.15664
 40
165.605
100
AcDbArc
 50
169.6687076361
 51
177.1212676054
  0
ARC
  5
41B
100
AcDbEntity
  8
0
100
AcDbCircle
 62
7
  6
CONTINUOUS
 10
86.4864222117
 20
14.15664
 40
165.12
100
AcDbArc
 50
169.8985839314
 51
177.1212676054
  0
ARC
  5
41C
100
AcDbEntity
  8
RACCORDO
100
AcDbCircle
 62
7
  6
CONTINUOUS
 10
86.4864222117
 20
14.15664
 40
165.12
100
AcDbArc
 50
169.4108329051
 51
169.8985839314
  0
ARC
  5
41D
100
AcDbEntity
  8
RACCORDO
100
AcDbCircle
 62
7
  6
CONTINUOUS
 10
368.0107088086
 20
-0.0
 40
450.0
100
AcDbArc
 50
177.1212731691
 51
182.8787274802
  0
ARC
  5
41E
100
AcDbEntity
  8
ASSI
100
AcDbCircle
 62
7
  6
CONTINUOUS
 10
368.0107088086
 20
-0.0
 40
450.0
100
AcDbArc
 50
177.1212731691
 51
182.8787274802
  0
ARC
  5
41F
100
AcDbEntity
  8
DRAFT
100
AcDbCircle
 62
7
  6
CONTINUOUS
 10
368.0107088086
 20
-0.0
 40
447.5
100
AcDbArc
 50
177.1212676054
 51
182.8787323946
  0
ARC
  5
420
100
AcDbEntity
  8
ASSI
100
AcDbCircle
 62
7
  6
CONTINUOUS
 10
368.0107088086
 20
-0.0
 40
447.5
100
AcDbArc
 50
177.1212676054
 51
182.8787323946
  0
ARC
  5
421
100
AcDbEntity
  8
0
100
AcDbCircle
 62
7
  6
CONTINUOUS
 10
368.0107088086
 20
-0.0
 40
447.485
100
AcDbArc
 50
177.1212676054
 51
182.8787323946
  0
ARC
  5
422
100
AcDbEntity
  8
0
100
AcDbCircle
 62
7
  6
CONTINUOUS
 10
368.0107088086
 20
-0.0
 40
447.0
100
AcDbArc
 50
177.1212676054
 51
182.8787323946
  0
ELLIPSE
  5
423
100
AcDbEntity
  8
SCRITTA
100
AcDbEllipse
 62
253
  6
CONTINUOUS
 10
86.4864222117
 20
-14.15664
 30
0.0
 11
0.0
 21
168.12
 31
0.0
 40
1.0
 41
1.6417662972
 42
1.6584720243
  0
ENDSEC
  0
SECTION
  2
OBJECTS
  0
DICTIONARY
  5
C
100
AcDbDictionary
280
0
281
1
  3
ACAD_GROUP
350
D
  3
ACAD_MLINESTYLE
350
17
  3
ACAD_LAYOUT
350
1A
  3
ACAD_PLOTSETTINGS
350
19
  3
ACAD_PLOTSTYLENAME
350
E
  0
DICTIONARY
  5
D
102
{ACAD_REACTORS
330
C
102
}
100
AcDbDictionary
280
0
281
1
  0
ACDBDICTIONARYWDFLT
  5
E
102
{ACAD_REACTORS
330
C
102
}
100
AcDbDictionary
281
1
  3
Normal
350
F
100
AcDbDictionaryWithDefault
340
F
  0
DICTIONARY
  5
17
102
{ACAD_REACTORS
330
C
102
}
100
AcDbDictionary
280
0
281
1
  3
Standard
350
18
  0
DICTIONARY
  5
19
102
{ACAD_REACTORS
330
C
102
}
100
AcDbDictionary
281
1
  0
DICTIONARY
  5
1A
102
{ACAD_REACTORS
330
C
102
}
100
AcDbDictionary
281
1
  3
Model
350
424
  3
Layout1
350
425
  0
ACDBPLACEHOLDER
  5
F
102
{ACAD_REACTORS
330
E
102
}
  0
MLINESTYLE
  5
18
102
{ACAD_REACTORS
330
17
102
}
100
AcDbMlineStyle
  2
STANDARD
 70
0
  3

 62
256
 51
90.0
 52
90.0
 71
2
 49
0.5
 62
256
  6
BYLAYER
 49
-0.5
 62
256
  6
BYLAYER
  0
LAYOUT
  5
424
102
{ACAD_REACTORS
330
1A
102
}
100
AcDbPlotSettings
  1

  2
none_device
  4
ISO_A4_(297.00_x_210.00_MM)
  6

 40
0.0
 41
0.0
 42
0.0
 43
0.0
 44
297.0
 45
210.0
 46
0.0
 47
0.0
 48
0.0
 49
0.0
140
0.0
141
0.0
142
1.0
143
1.0
 70
1024
 72
1
 73
0
 74
0
  7

 75
0
147
1.0
148
0.0
149
0.0
100
AcDbLayout
  1
Model
 70
0
 71
0
 10
0.0
 20
0.0
 11
297.0
 21
210.0
 12
0.0
 22
0.0
 32
0.0
 14
0.0
 24
0.0
 34
0.0
 15
0.0
 25
0.0
 35
0.0
146
0.0
 13
0.0
 23
0.0
 33
0.0
 16
1.0
 26
0.0
 36
0.0
 17
0.0
 27
1.0
 37
0.0
 76
0
330
217
345
0
346
0
  0
LAYOUT
  5
425
102
{ACAD_REACTORS
330
1A
102
}
100
AcDbPlotSettings
  1

  2
none_device
  4
ISO_A4_(297.00_x_210.00_MM)
  6

 40
0.0
 41
0.0
 42
0.0
 43
0.0
 44
297.0
 45
210.0
 46
0.0
 47
0.0
 48
0.0
 49
0.0
140
0.0
141
0.0
142
1.0
143
1.0
 70
0
 72
1
 73
0
 74
0
  7

 75
0
147
1.0
148
0.0
149
0.0
100
AcDbLayout
  1
Layout1
 70
0
 71
1
 10
0.0
 20
0.0
 11
297.0
 21
210.0
 12
0.0
 22
0.0
 32
0.0
 14
0.0
 24
0.0
 34
0.0
 15
0.0
 25
0.0
 35
0.0
146
0.0
 13
0.0
 23
0.0
 33
0.0
 16
1.0
 26
0.0
 36
0.0
 17
0.0
 27
1.0
 37
0.0
 76
0
330
218
345
0
346
0
  0
ENDSEC
  0
EOF
