  0
SECTION
  2
HEADER
  9
$ACADVER
  1
AC1021
  9
$DWGCODEPAGE
  3
ANSI_1252
  9
$EXTMAX
 10
297.0
 20
210.0
 30
0.0
  9
$EXTMIN
 10
0.0
 20
0.0
 30
0.0
  9
$LIMMIN
 10
0.0
 20
0.0
  9
$LIMMAX
 10
297.0
 20
210.0
  9
$VIEWCTR
 10
148.5
 20
105.0
  9
$VIEWSIZE
 40
210.0
  9
$CLAYER
  8
0
  9
$LTSCALE
 40
16.335
  9
$CELTYPE
  6
BYLAYER
  9
$DIMSCALE
 40
1.0
  9
$DIMASZ
 40
3.0
  9
$DIMEXO
 40
0.5
  9
$DIMDLI
 40
11.286
  9
$DIMEXE
 40
1.5
  9
$DIMCEN
 40
2.673
  9
$DIMLFAC
 40
1.0
  9
$DIMBLK
  1
_FILLED
  9
$DIMALT
 70
0
  9
$DIMALTF
 40
25.4
  9
$DIMTXT
 40
3.0
  9
$DIMTOL
 70
1
  9
$DIMLIM
 70
0
  9
$DIMTFAC
 40
1.0
  9
$DIMTP
 40
0.01
  9
$DIMTM
 40
0.01
  9
$DIMGAP
 40
0.625
  9
$DIMDSEP
 70
44
  9
$AUNITS
 70
0
  9
$PDMODE
 70
3
  9
$PDSIZE
 40
3.0
  9
$HANDSEED
  5
386
  9
$TILEMODE
 70
1
  9
$MEASUREMENT
 70
1
  9
$INSUNITS
 70
4
  0
ENDSEC
  0
SECTION
  2
CLASSES
  0
CLASS
  1
ACDBDICTIONARYWDFLT
  2
AcDbDictionaryWithDefault
  3
AutoCAD 2000
 90
0
 91
1
280
0
281
0
  0
CLASS
  1
ACDBPLACEHOLDER
  2
AcDbPlaceHolder
  3
AutoCAD 2000
 90
0
 91
1
280
0
281
0
  0
CLASS
  1
LAYOUT
  2
AcDbLayout
  3
AutoCAD 2000
 90
0
 91
0
280
0
281
0
  0
ENDSEC
  0
SECTION
  2
TABLES
  0
TABLE
  2
VPORT
  5
8
100
AcDbSymbolTable
 70
2
  0
VPORT
  5
1F4
100
AcDbSymbolTableRecord
100
AcDbViewportTableRecord
  2
*ACTIVE
 70
0
 10
0.0
 20
0.0
 11
1.0
 21
1.0
 12
148.5
 22
105.0
 13
0.0
 23
0.0
 14
1.0
 24
1.0
 15
0.0
 25
0.0
 16
0.0
 26
0.0
 36
1.0
 17
0.0
 27
0.0
 37
0.0
 40
210.0
 41
1.4142857143
 42
50.0
 43
0.0
 44
0.0
 50
0.0
 51
0.0
 71
0
 72
100
 73
1
 74
1
 75
0
 76
0
 77
0
 78
0
  0
ENDTAB
  0
TABLE
  2
LTYPE
  5
5
100
AcDbSymbolTable
 70
6
  0
LTYPE
  5
14
100
AcDbSymbolTableRecord
100
AcDbLinetypeTableRecord
  2
BYBLOCK
 70
0
  3

 72
65
 73
0
 40
0.0
  0
LTYPE
  5
15
100
AcDbSymbolTableRecord
100
AcDbLinetypeTableRecord
  2
BYLAYER
 70
0
  3

 72
65
 73
0
 40
0.0
  0
LTYPE
  5
16
100
AcDbSymbolTableRecord
100
AcDbLinetypeTableRecord
  2
CONTINUOUS
 70
64
  3
Solid line
 72
65
 73
0
 40
0.0
  0
LTYPE
  5
1F5
100
AcDbSymbolTableRecord
100
AcDbLinetypeTableRecord
  2
CENTER
 70
64
  3
____ _ ____ _ ____ _ ____ _ ____ _ ____ _ ____
 72
65
 73
4
 40
0.6
 49
0.375
 74
0
 49
-0.075
 74
0
 49
0.075
 74
0
 49
-0.075
 74
0
  0
LTYPE
  5
1F6
100
AcDbSymbolTableRecord
100
AcDbLinetypeTableRecord
  2
HIDDEN
 70
64
  3
- - - - - - - - - - - - - - - - - - - -
 72
65
 73
2
 40
0.2
 49
0.1
 74
0
 49
-0.1
 74
0
  0
LTYPE
  5
1F7
100
AcDbSymbolTableRecord
100
AcDbLinetypeTableRecord
  2
PHANTOM
 70
64
  3
_____ _ _ _____ _ _ _____ _ _ _____
 72
65
 73
6
 40
0.8
 49
0.45
 74
0
 49
-0.05
 74
0
 49
0.1
 74
0
 49
-0.05
 74
0
 49
0.1
 74
0
 49
-0.05
 74
0
  0
LTYPE
  5
1F8
100
AcDbSymbolTableRecord
100
AcDbLinetypeTableRecord
  2
DOT
 70
64
  3
. . . . . . . . . . . . . . . . . . . .
 72
65
 73
2
 40
0.2
 49
0.1
 74
0
 49
-0.1
 74
0
  0
LTYPE
  5
1F9
100
AcDbSymbolTableRecord
100
AcDbLinetypeTableRecord
  2
DASHED
 70
64
  3
- - - - - - - - - - - - - - - - - - - -
 72
65
 73
2
 40
0.2
 49
0.1
 74
0
 49
-0.1
 74
0
  0
ENDTAB
  0
TABLE
  2
LAYER
  5
2
100
AcDbSymbolTable
 70
36
  0
LAYER
  5
10
100
AcDbSymbolTableRecord
100
AcDbLayerTableRecord
  2
0
 70
0
 62
7
  6
CONTINUOUS
370
-3
390
F
  0
LAYER
  5
1FA
100
AcDbSymbolTableRecord
100
AcDbLayerTableRecord
  2
DEFAULT_1
 70
0
 62
7
  6
CENTER
370
-3
390
F
  0
LAYER
  5
1FB
100
AcDbSymbolTableRecord
100
AcDbLayerTableRecord
  2
DEFAULT_2
 70
0
 62
7
  6
HIDDEN
370
-3
390
F
  0
LAYER
  5
1FC
100
AcDbSymbolTableRecord
100
AcDbLayerTableRecord
  2
DEFAULT_3
 70
0
 62
7
  6
PHANTOM
370
-3
390
F
  0
LAYER
  5
1FD
100
AcDbSymbolTableRecord
100
AcDbLayerTableRecord
  2
ASSI
 70
0
 62
7
  6
CONTINUOUS
370
-3
390
F
  0
LAYER
  5
1FE
100
AcDbSymbolTableRecord
100
AcDbLayerTableRecord
  2
BIADESIVO_85X15X038
 70
0
 62
7
  6
CONTINUOUS
370
-3
390
F
  0
LAYER
  5
1FF
100
AcDbSymbolTableRecord
100
AcDbLayerTableRecord
  2
COORDINATE
 70
0
 62
7
  6
CONTINUOUS
370
-3
390
F
  0
LAYER
  5
200
100
AcDbSymbolTableRecord
100
AcDbLayerTableRecord
  2
COPY_PUBLISH
 70
0
 62
7
  6
CONTINUOUS
370
-3
390
F
  0
LAYER
  5
201
100
AcDbSymbolTableRecord
100
AcDbLayerTableRecord
  2
COSMETICI
 70
0
 62
7
  6
CONTINUOUS
370
-3
390
F
  0
LAYER
  5
202
100
AcDbSymbolTableRecord
100
AcDbLayerTableRecord
  2
CURVE
 70
0
 62
7
  6
CONTINUOUS
370
-3
390
F
  0
LAYER
  5
203
100
AcDbSymbolTableRecord
100
AcDbLayerTableRecord
  2
DRAFT
 70
0
 62
7
  6
CONTINUOUS
370
-3
390
F
  0
LAYER
  5
204
100
AcDbSymbolTableRecord
100
AcDbLayerTableRecord
  2
IMPORT_IGES
 70
0
 62
7
  6
CONTINUOUS
370
-3
390
F
  0
LAYER
  5
205
100
AcDbSymbolTableRecord
100
AcDbLayerTableRecord
  2
INTF_1
 70
0
 62
7
  6
CONTINUOUS
370
-3
390
F
  0
LAYER
  5
206
100
AcDbSymbolTableRecord
100
AcDbLayerTableRecord
  2
INTF_7
 70
0
 62
7
  6
CONTINUOUS
370
-3
390
F
  0
LAYER
  5
207
100
AcDbSymbolTableRecord
100
AcDbLayerTableRecord
  2
INTF_CYAN
 70
0
 62
7
  6
CONTINUOUS
370
-3
390
F
  0
LAYER
  5
208
100
AcDbSymbolTableRecord
100
AcDbLayerTableRecord
  2
NOTE
 70
0
 62
7
  6
CONTINUOUS
370
-3
390
F
  0
LAYER
  5
209
100
AcDbSymbolTableRecord
100
AcDbLayerTableRecord
  2
PIANI
 70
0
 62
7
  6
CONTINUOUS
370
-3
390
F
  0
LAYER
  5
20A
100
AcDbSymbolTableRecord
100
AcDbLayerTableRecord
  2
PUNTI
 70
0
 62
7
  6
CONTINUOUS
370
-3
390
F
  0
LAYER
  5
20B
100
AcDbSymbolTableRecord
100
AcDbLayerTableRecord
  2
RACCORDO
 70
0
 62
7
  6
CONTINUOUS
370
-3
390
F
  0
LAYER
  5
20C
100
AcDbSymbolTableRecord
100
AcDbLayerTableRecord
  2
RGB____0____0____0__
 70
0
 62
7
  6
CONTINUOUS
370
-3
390
F
  0
LAYER
  5
20D
100
AcDbSymbolTableRecord
100
AcDbLayerTableRecord
  2
SCRITTE_SUPERF
 70
0
 62
7
  6
CONTINUOUS
370
-3
390
F
  0
LAYER
  5
20E
100
AcDbSymbolTableRecord
100
AcDbLayerTableRecord
  2
SIMBOLI
 70
0
 62
7
  6
CONTINUOUS
370
-3
390
F
  0
LAYER
  5
20F
100
AcDbSymbolTableRecord
100
AcDbLayerTableRecord
  2
SMUSSO
 70
0
 62
7
  6
CONTINUOUS
370
-3
390
F
  0
LAYER
  5
210
100
AcDbSymbolTableRecord
100
AcDbLayerTableRecord
  2
SNAPLINE
 70
0
 62
7
  6
CONTINUOUS
370
-3
390
F
  0
LAYER
  5
211
100
AcDbSymbolTableRecord
100
AcDbLayerTableRecord
  2
SUPERFICI
 70
0
 62
7
  6
CONTINUOUS
370
-3
390
F
  0
LAYER
  5
212
100
AcDbSymbolTableRecord
100
AcDbLayerTableRecord
  2
TRASH
 70
0
 62
7
  6
CONTINUOUS
370
-3
390
F
  0
ENDTAB
  0
TABLE
  2
STYLE
  5
3
100
AcDbSymbolTable
 70
1
  0
STYLE
  5
11
100
AcDbSymbolTableRecord
100
AcDbTextStyleTableRecord
  2
STANDARD
 70
0
 40
0.0
 41
0.8
 50
0.0
 71
0
 42
0.2
  3
txt
  4

  0
STYLE
  5
213
100
AcDbSymbolTableRecord
100
AcDbTextStyleTableRecord
  2
TEXTSTYLE_1
 70
0
 40
0.0
 41
0.8
 50
0.0
 71
0
 42
0.2
  3
gdt
  4

  0
ENDTAB
  0
TABLE
  2
VIEW
  5
6
100
AcDbSymbolTable
 70
0
  0
ENDTAB
  0
TABLE
  2
UCS
  5
7
100
AcDbSymbolTable
 70
0
  0
ENDTAB
  0
TABLE
  2
APPID
  5
9
100
AcDbSymbolTable
 70
1
  0
APPID
  5
214
100
AcDbSymbolTableRecord
100
AcDbRegAppTableRecord
  2
ACAD
 70
0
  0
ENDTAB
  0
TABLE
  2
BLOCK_RECORD
  5
1
100
AcDbSymbolTable
 70
0
  0
BLOCK_RECORD
  5
215
100
AcDbSymbolTableRecord
100
AcDbBlockTableRecord
  2
*Model_Space
  0
BLOCK_RECORD
  5
216
100
AcDbSymbolTableRecord
100
AcDbBlockTableRecord
  2
*Paper_Space
  0
BLOCK_RECORD
  5
217
100
AcDbSymbolTableRecord
100
AcDbBlockTableRecord
  2
_FILLED
  0
BLOCK_RECORD
  5
218
100
AcDbSymbolTableRecord
100
AcDbBlockTableRecord
  2
*D0
  0
BLOCK_RECORD
  5
219
100
AcDbSymbolTableRecord
100
AcDbBlockTableRecord
  2
*D1
  0
BLOCK_RECORD
  5
21A
100
AcDbSymbolTableRecord
100
AcDbBlockTableRecord
  2
*D2
  0
BLOCK_RECORD
  5
21B
100
AcDbSymbolTableRecord
100
AcDbBlockTableRecord
  2
*D3
  0
BLOCK_RECORD
  5
21C
100
AcDbSymbolTableRecord
100
AcDbBlockTableRecord
  2
*D4
  0
ENDTAB
  0
TABLE
  2
DIMSTYLE
  5
A
100
AcDbSymbolTable
 70
1
100
AcDbDimStyleTable
 71
0
  0
DIMSTYLE
105
21D
100
AcDbSymbolTableRecord
100
AcDbDimStyleTableRecord
  2
STANDARD
 70
0
  3

  4

 40
1.0
 41
3.0
 42
0.5
 43
0.38
 44
1.5
 45
0.0
 46
0.0
 47
0.01
 48
0.01
140
3.0
141
0.09
142
0.0
143
25.4
144
1.0
145
0.0
146
1.0
147
0.625
 71
1.0
 72
0.0
 73
0
 74
0
 75
0
 76
0
 77
1
 78
8
170
0
171
1
172
0
173
0
174
0
175
0
176
0
177
0
178
0
270
2
271
2
272
2
273
2
274
2
275
0
280
0
281
0
282
0
283
1
284
8
285
0
286
0
287
3
288
0
340
11
278
44
341
217
342
217
343
217
344
217
  0
DIMSTYLE
105
21E
100
AcDbSymbolTableRecord
100
AcDbDimStyleTableRecord
  2
DIMSTYLE_1
 70
0
  3

  4

 40
1.0
 41
3.0
 42
0.5
 43
0.38
 44
1.5
 45
0.0
 46
0.0
 47
0.0
 48
0.0
140
3.0
141
0.09
142
0.0
143
25.4
144
1.0
145
0.0
146
1.0
147
0.75
 71
0.0
 72
0.0
 73
0
 74
0
 75
0
 76
0
 77
1
 78
8
170
0
171
1
172
0
173
0
174
0
175
0
176
0
177
0
178
0
270
2
271
1
272
1
273
2
274
2
275
0
280
0
281
0
282
0
283
1
284
8
285
0
286
0
287
3
288
0
340
11
278
44
341
217
342
217
343
217
344
217
  0
DIMSTYLE
105
21F
100
AcDbSymbolTableRecord
100
AcDbDimStyleTableRecord
  2
DIMSTYLE_2
 70
0
  3

  4

 40
1.0
 41
3.0
 42
0.5
 43
0.38
 44
1.5
 45
0.0
 46
0.0
 47
0.0
 48
0.0
140
3.0
141
0.09
142
0.0
143
25.4
144
1.0
145
0.0
146
1.0
147
0.75
 71
0.0
 72
0.0
 73
0
 74
0
 75
0
 76
0
 77
1
 78
8
170
0
171
1
172
0
173
0
174
0
175
0
176
0
177
0
178
0
270
2
271
2
272
2
273
2
274
2
275
0
280
0
281
0
282
0
283
1
284
8
285
0
286
0
287
3
288
0
340
11
278
44
341
217
342
217
343
217
344
217
  0
ENDTAB
  0
ENDSEC
  0
SECTION
  2
BLOCKS
  0
BLOCK
  5
20
100
AcDbEntity
  8
0
100
AcDbBlockBegin
  2
*Model_Space
 70
0
 10
0.0
 20
0.0
 30
0.0
  3
*Model_Space
  1

  0
ENDBLK
  5
21
100
AcDbEntity
  8
0
100
AcDbBlockEnd
  0
BLOCK
  5
1C
100
AcDbEntity
  8
0
100
AcDbBlockBegin
  2
*Paper_Space
 70
0
 10
0.0
 20
0.0
 30
0.0
  3
*Paper_Space
  1

  0
ENDBLK
  5
1D
100
AcDbEntity
  8
0
100
AcDbBlockEnd
  0
BLOCK
  5
220
100
AcDbEntity
  8
0
100
AcDbBlockBegin
  2
_FILLED
 70
64
 10
0.0
 20
0.0
  3
_FILLED
  1

  0
SOLID
  5
221
100
AcDbEntity
  8
0
  6
BYBLOCK
 62
0
100
AcDbTrace
 10
0.0
 20
0.0
 11
-1.0
 21
0.3166666667
 12
-1.0
 22
-0.3166666667
 13
-1.0
 23
-0.3166666667
  0
ENDBLK
  5
222
100
AcDbEntity
  8
0
  6
BYBLOCK
 62
0
100
AcDbBlockEnd
  0
BLOCK
  5
223
100
AcDbEntity
  8
0
100
AcDbBlockBegin
 62
7
  6
CONTINUOUS
  2
*D0
 70
65
 10
0.0
 20
0.0
  3
*D0
  1

  0
MTEXT
  5
224
100
AcDbEntity
  8
0
100
AcDbMText
 62
7
  6
CONTINUOUS
  7
STANDARD
 71
2
 72
1
 10
-77.7533469935
 20
68.75
 30
0.0
 11
1.0
 21
0.0
 31
0.0
 44
0.9
  1
8,6
 40
3.0
 41
9.6428571429
  0
LINE
  5
225
100
AcDbEntity
  8
0
100
AcDbLine
 62
7
  6
CONTINUOUS
 10
-73.4692911931
 20
47.5418684671
 11
-73.4692911944
 21
66.5000000003
  0
LINE
  5
226
100
AcDbEntity
  8
0
100
AcDbLine
 62
7
  6
CONTINUOUS
 10
-82.0374027903
 20
28.8551922904
 11
-82.0374027928
 21
66.4999999997
  0
LINE
  5
227
100
AcDbEntity
  8
0
100
AcDbLine
 62
7
  6
CONTINUOUS
 10
-73.4692911943
 20
65.0000000003
 11
-69.4692911943
 21
65.0000000006
  0
LINE
  5
228
100
AcDbEntity
  8
0
100
AcDbLine
 62
7
  6
CONTINUOUS
 10
-69.4692911943
 20
65.0000000006
 11
-77.7533469935
 21
65.0
  0
LINE
  5
229
100
AcDbEntity
  8
0
100
AcDbLine
 62
7
  6
CONTINUOUS
 10
-82.0374027927
 20
64.9999999997
 11
-86.0374027927
 21
64.9999999994
  0
LINE
  5
22A
100
AcDbEntity
  8
0
100
AcDbLine
 62
7
  6
CONTINUOUS
 10
-86.0374027927
 20
64.9999999994
 11
-77.7533469935
 21
65.0
  0
INSERT
  5
22B
100
AcDbEntity
  8
0
100
AcDbBlockReference
 62
7
  6
CONTINUOUS
  2
_FILLED
 10
-73.4692911943
 20
65.0000000003
 41
3.0
 42
3.0
 43
3.0
 50
180.0000000039
  0
INSERT
  5
22C
100
AcDbEntity
  8
0
100
AcDbBlockReference
 62
7
  6
CONTINUOUS
  2
_FILLED
 10
-82.0374027927
 20
64.9999999997
 41
3.0
 42
3.0
 43
3.0
 50
0.0000000039
  0
ENDBLK
  5
22D
100
AcDbEntity
  8
0
  6
BYBLOCK
 62
0
100
AcDbBlockEnd
  0
BLOCK
  5
22E
100
AcDbEntity
  8
0
100
AcDbBlockBegin
 62
7
  6
CONTINUOUS
  2
*D1
 70
65
 10
0.0
 20
0.0
  3
*D1
  1

  0
MTEXT
  5
22F
100
AcDbEntity
  8
0
100
AcDbMText
 62
7
  6
CONTINUOUS
  7
STANDARD
 71
2
 72
1
 10
-0.0
 20
76.75
 30
0.0
 11
1.0
 21
0.0
 31
0.0
 44
0.9
  1
90
 40
3.0
 41
7.0714285714
  0
LINE
  5
230
100
AcDbEntity
  8
0
100
AcDbLine
 62
7
  6
CONTINUOUS
 10
-45.0
 20
43.0490190027
 11
-45.0
 21
74.5
  0
LINE
  5
231
100
AcDbEntity
  8
0
100
AcDbLine
 62
7
  6
CONTINUOUS
 10
45.0
 20
43.0490190027
 11
45.0
 21
74.5
  0
LINE
  5
232
100
AcDbEntity
  8
0
100
AcDbLine
 62
7
  6
CONTINUOUS
 10
-45.0
 20
73.0
 11
-0.0
 21
73.0
  0
LINE
  5
233
100
AcDbEntity
  8
0
100
AcDbLine
 62
7
  6
CONTINUOUS
 10
45.0
 20
73.0
 11
-0.0
 21
73.0
  0
INSERT
  5
234
100
AcDbEntity
  8
0
100
AcDbBlockReference
 62
7
  6
CONTINUOUS
  2
_FILLED
 10
-45.0
 20
73.0
 41
3.0
 42
3.0
 43
3.0
 50
180.0
  0
INSERT
  5
235
100
AcDbEntity
  8
0
100
AcDbBlockReference
 62
7
  6
CONTINUOUS
  2
_FILLED
 10
45.0
 20
73.0
 41
3.0
 42
3.0
 43
3.0
 50
0.0
  0
ENDBLK
  5
236
100
AcDbEntity
  8
0
  6
BYBLOCK
 62
0
100
AcDbBlockEnd
  0
BLOCK
  5
237
100
AcDbEntity
  8
0
100
AcDbBlockBegin
 62
7
  6
CONTINUOUS
  2
*D2
 70
65
 10
0.0
 20
0.0
  3
*D2
  1

  0
MTEXT
  5
238
100
AcDbEntity
  8
0
100
AcDbMText
 62
7
  6
CONTINUOUS
  7
STANDARD
 71
2
 72
1
 10
82.25
 20
-0.0
 30
0.0
 11
0.0
 21
1.0
 31
0.0
 44
0.9
  1
90
 40
3.0
 41
7.0714285714
  0
LINE
  5
239
100
AcDbEntity
  8
0
100
AcDbLine
 62
7
  6
CONTINUOUS
 10
43.9
 20
45.0
 11
87.5
 21
45.0
  0
LINE
  5
23A
100
AcDbEntity
  8
0
100
AcDbLine
 62
7
  6
CONTINUOUS
 10
43.9
 20
-45.0
 11
87.5
 21
-45.0
  0
LINE
  5
23B
100
AcDbEntity
  8
0
100
AcDbLine
 62
7
  6
CONTINUOUS
 10
86.0
 20
45.0
 11
86.0
 21
-0.0
  0
LINE
  5
23C
100
AcDbEntity
  8
0
100
AcDbLine
 62
7
  6
CONTINUOUS
 10
86.0
 20
-45.0
 11
86.0
 21
-0.0
  0
INSERT
  5
23D
100
AcDbEntity
  8
0
100
AcDbBlockReference
 62
7
  6
CONTINUOUS
  2
_FILLED
 10
86.0
 20
45.0
 41
3.0
 42
3.0
 43
3.0
 50
90.0
  0
INSERT
  5
23E
100
AcDbEntity
  8
0
100
AcDbBlockReference
 62
7
  6
CONTINUOUS
  2
_FILLED
 10
86.0
 20
-45.0
 41
3.0
 42
3.0
 43
3.0
 50
270.0
  0
ENDBLK
  5
23F
100
AcDbEntity
  8
0
  6
BYBLOCK
 62
0
100
AcDbBlockEnd
  0
BLOCK
  5
240
100
AcDbEntity
  8
0
100
AcDbBlockBegin
 62
7
  6
CONTINUOUS
  2
*D3
 70
65
 10
0.0
 20
0.0
  3
*D3
  1

  0
MTEXT
  5
241
100
AcDbEntity
  8
0
100
AcDbMText
 62
7
  6
CONTINUOUS
  7
STANDARD
 71
2
 72
1
 10
74.25
 20
-0.0
 30
0.0
 11
0.0
 21
1.0
 31
0.0
 44
0.9
  1
45,1
 40
3.0
 41
11.8928571429
  0
LINE
  5
242
100
AcDbEntity
  8
0
100
AcDbLine
 62
7
  6
CONTINUOUS
 10
33.6
 20
22.55
 11
79.5
 21
22.55
  0
LINE
  5
243
100
AcDbEntity
  8
0
100
AcDbLine
 62
7
  6
CONTINUOUS
 10
33.6
 20
-22.55
 11
79.5
 21
-22.55
  0
LINE
  5
244
100
AcDbEntity
  8
0
100
AcDbLine
 62
7
  6
CONTINUOUS
 10
78.0
 20
22.55
 11
78.0
 21
-0.0
  0
LINE
  5
245
100
AcDbEntity
  8
0
100
AcDbLine
 62
7
  6
CONTINUOUS
 10
78.0
 20
-22.55
 11
78.0
 21
-0.0
  0
INSERT
  5
246
100
AcDbEntity
  8
0
100
AcDbBlockReference
 62
7
  6
CONTINUOUS
  2
_FILLED
 10
78.0
 20
22.55
 41
3.0
 42
3.0
 43
3.0
 50
90.0
  0
INSERT
  5
247
100
AcDbEntity
  8
0
100
AcDbBlockReference
 62
7
  6
CONTINUOUS
  2
_FILLED
 10
78.0
 20
-22.55
 41
3.0
 42
3.0
 43
3.0
 50
270.0
  0
ENDBLK
  5
248
100
AcDbEntity
  8
0
  6
BYBLOCK
 62
0
100
AcDbBlockEnd
  0
BLOCK
  5
249
100
AcDbEntity
  8
0
100
AcDbBlockBegin
 62
7
  6
CONTINUOUS
  2
*D4
 70
65
 10
0.0
 20
0.0
  3
*D4
  1

  0
MTEXT
  5
24A
100
AcDbEntity
  8
0
100
AcDbMText
 62
7
  6
CONTINUOUS
  7
STANDARD
 71
2
 72
1
 10
-0.0
 20
68.75
 30
0.0
 11
1.0
 21
0.0
 31
0.0
 44
0.9
  1
67,8
 40
3.0
 41
13.1785714286
  0
LINE
  5
24B
100
AcDbEntity
  8
0
100
AcDbLine
 62
7
  6
CONTINUOUS
 10
-33.9
 20
22.2500116612
 11
-33.9
 21
66.5
  0
LINE
  5
24C
100
AcDbEntity
  8
0
100
AcDbLine
 62
7
  6
CONTINUOUS
 10
33.9
 20
22.2500003062
 11
33.9
 21
66.5
  0
LINE
  5
24D
100
AcDbEntity
  8
0
100
AcDbLine
 62
7
  6
CONTINUOUS
 10
-33.9
 20
65.0
 11
-0.0
 21
65.0
  0
LINE
  5
24E
100
AcDbEntity
  8
0
100
AcDbLine
 62
7
  6
CONTINUOUS
 10
33.9
 20
65.0
 11
-0.0
 21
65.0
  0
INSERT
  5
24F
100
AcDbEntity
  8
0
100
AcDbBlockReference
 62
7
  6
CONTINUOUS
  2
_FILLED
 10
-33.9
 20
65.0
 41
3.0
 42
3.0
 43
3.0
 50
180.0
  0
INSERT
  5
250
100
AcDbEntity
  8
0
100
AcDbBlockReference
 62
7
  6
CONTINUOUS
  2
_FILLED
 10
33.9
 20
65.0
 41
3.0
 42
3.0
 43
3.0
  0
ENDBLK
  5
251
100
AcDbEntity
  8
0
  6
BYBLOCK
 62
0
100
AcDbBlockEnd
  0
ENDSEC
  0
SECTION
  2
ENTITIES
  0
DIMENSION
  5
252
100
AcDbEntity
  8
0
100
AcDbDimension
 62
7
  6
CONTINUOUS
  2
*D0
 10
-82.0374027927
 20
64.9999999997
 11
-78.1819168166
 21
65.0
 70
160
 71
2
 42
8.5681115985
  3
DIMSTYLE_1
100
AcDbAlignedDimension
 13
-73.469291193
 23
47.0418684671
 14
-82.0374027902
 24
28.3551922904
 50
180.0000000039
100
AcDbRotatedDimension
  0
DIMENSION
  5
253
100
AcDbEntity
  8
0
100
AcDbDimension
 62
7
  6
CONTINUOUS
  2
*D1
 10
45.0
 20
73.0
 11
-0.4285713773
 21
73.0
 70
160
 71
2
 42
90.0
  3
DIMSTYLE_2
100
AcDbAlignedDimension
 13
-45.0
 23
42.5490190027
 14
45.0
 24
42.5490190027
100
AcDbRotatedDimension
  0
DIMENSION
  5
254
100
AcDbEntity
  8
0
100
AcDbDimension
 62
7
  6
CONTINUOUS
  2
*D2
 10
86.0
 20
-45.0
 11
86.0
 21
-0.4285700727
 70
160
 71
2
 42
90.0
  3
DIMSTYLE_2
100
AcDbAlignedDimension
 13
43.4
 23
45.0
 14
43.4
 24
-45.0
 50
270.0
100
AcDbRotatedDimension
  0
DIMENSION
  5
255
100
AcDbEntity
  8
0
100
AcDbDimension
 62
7
  6
CONTINUOUS
  2
*D3
 10
78.0
 20
-22.55
 11
78.0
 21
-0.4285726711
 70
160
 71
2
 42
45.1
  3
DIMSTYLE_2
100
AcDbAlignedDimension
 13
33.1
 23
22.55
 14
33.1
 24
-22.55
 50
270.0
100
AcDbRotatedDimension
  0
DIMENSION
  5
256
100
AcDbEntity
  8
0
100
AcDbDimension
 62
7
  6
CONTINUOUS
  2
*D4
 10
33.9
 20
65.0
 11
-0.4285713773
 21
65.0
 70
160
 71
2
 42
67.8
  3
DIMSTYLE_2
100
AcDbAlignedDimension
 13
-33.9
 23
21.7500116612
 14
33.9
 24
21.7500003062
100
AcDbRotatedDimension
  0
LWPOLYLINE
  5
257
100
AcDbEntity
  8
0
100
AcDbPolyline
 62
253
  6
CONTINUOUS
 90
25
 70
0
 10
-44.8673198021
 20
43.3983157649
 10
-44.8578025016
 20
43.4156614623
 10
-44.8433793462
 20
43.4328790779
 10
-44.8241053817
 20
43.4499029007
 10
-44.800054167
 20
43.4666679595
 10
-44.7713174935
 20
43.4831102705
 10
-44.7380050345
 20
43.4991670816
 10
-44.7002439268
 20
43.5147771122
 10
-44.6581782854
 20
43.5298807866
 10
-44.6119686535
 20
43.5444204618
 10
-44.56179139
 20
43.5583406471
 10
-44.5078379961
 20
43.5715882163
 10
-44.4503143844
 20
43.58411261
 10
-44.3894400936
 20
43.595866029
 10
-44.32544745
 20
43.6068036164
 10
-44.258580681
 20
43.6168836289
 10
-44.1890949834
 20
43.6260675962
 10
-44.1172555487
 20
43.6343204677
 10
-44.0433365519
 20
43.6416107465
 10
-43.9676201041
 20
43.6479106091
 10
-43.8903951769
 20
43.6531960122
 10
-43.8119564985
 20
43.657446784
 10
-43.7326034298
 20
43.6606467015
 10
-43.6526388213
 20
43.6627835522
 10
-43.5723678573
 20
43.6638491808
  0
LWPOLYLINE
  5
258
100
AcDbEntity
  8
0
100
AcDbPolyline
 62
253
  6
CONTINUOUS
 90
25
 70
0
 10
-44.8643139146
 20
42.5490190027
 10
-44.8546961239
 20
42.5657349522
 10
-44.8401826209
 20
42.5822934065
 10
-44.8208286917
 20
42.5986312897
 10
-44.7967080611
 20
42.614686366
 10
-44.7679126115
 20
42.630397477
 10
-44.7345520334
 20
42.6457047744
 10
-44.6967534067
 20
42.6605499482
 10
-44.6546607175
 20
42.674876449
 10
-44.6084343091
 20
42.6886297028
 10
-44.5582502714
 20
42.7017573195
 10
-44.50429977
 20
42.7142092922
 10
-44.4467883181
 20
42.7259381878
 10
-44.3859349936
 20
42.7368993273
 10
-44.3219716045
 20
42.7470509567
 10
-44.255141806
 20
42.7563544055
 10
-44.1857001723
 20
42.764774234
 10
-44.1139112269
 20
42.7722783687
 10
-44.0400484346
 20
42.7788382242
 10
-43.9643931605
 20
42.7844288121
 10
-43.8872335975
 20
42.7890288361
 10
-43.8088636689
 20
42.7926207735
 10
-43.7295819086
 20
42.7951909416
 10
-43.649690324
 20
42.7967295497
 10
-43.5694932453
 20
42.7972307369
  0
LWPOLYLINE
  5
259
100
AcDbEntity
  8
0
100
AcDbPolyline
 62
253
  6
CONTINUOUS
 90
25
 70
0
 10
-44.8643139147
 20
-42.5490190027
 10
-44.8546961248
 20
-42.5657349523
 10
-44.8401826225
 20
-42.5822934068
 10
-44.820828694
 20
-42.5986312901
 10
-44.796708064
 20
-42.6146863666
 10
-44.7679126149
 20
-42.6303974777
 10
-44.7345520371
 20
-42.6457047752
 10
-44.6967534108
 20
-42.6605499493
 10
-44.6546607219
 20
-42.6748764502
 10
-44.6084343137
 20
-42.6886297042
 10
-44.5582502761
 20
-42.7017573211
 10
-44.5042997747
 20
-42.714209294
 10
-44.4467883228
 20
-42.7259381897
 10
-44.3859349981
 20
-42.7368993294
 10
-44.3219716089
 20
-42.7470509589
 10
-44.2551418101
 20
-42.7563544078
 10
-44.1857001761
 20
-42.7647742364
 10
-44.1139112303
 20
-42.7722783713
 10
-44.0400484377
 20
-42.7788382269
 10
-43.9643931631
 20
-42.7844288149
 10
-43.8872335997
 20
-42.789028839
 10
-43.8088636706
 20
-42.7926207765
 10
-43.7295819098
 20
-42.7951909445
 10
-43.6496903245
 20
-42.7967295527
 10
-43.5694932453
 20
-42.79723074
  0
LWPOLYLINE
  5
25A
100
AcDbEntity
  8
0
100
AcDbPolyline
 62
253
  6
CONTINUOUS
 90
25
 70
0
 10
-44.8673207418
 20
-43.3983158897
 10
-44.8578034618
 20
-43.4156615851
 10
-44.8433803196
 20
-43.4328791987
 10
-44.824106361
 20
-43.4499030194
 10
-44.8000551451
 20
-43.466668076
 10
-44.7713184633
 20
-43.4831103848
 10
-44.7380059891
 20
-43.4991671938
 10
-44.7002448596
 20
-43.5147772223
 10
-44.6581791902
 20
-43.5298808948
 10
-44.6119695244
 20
-43.5444205681
 10
-44.5617922213
 20
-43.5583407518
 10
-44.5078387827
 20
-43.5715883195
 10
-44.4503151218
 20
-43.5841127121
 10
-44.3894407776
 20
-43.5958661301
 10
-44.325448077
 20
-43.6068037169
 10
-44.2585812481
 20
-43.6168837291
 10
-44.1890954882
 20
-43.6260676965
 10
-44.1172559895
 20
-43.6343205685
 10
-44.0433369275
 20
-43.6416108481
 10
-43.9676204143
 20
-43.647910712
 10
-43.8903954218
 20
-43.6531961167
 10
-43.8119566792
 20
-43.6574468906
 10
-43.732603548
 20
-43.6606468106
 10
-43.6526388792
 20
-43.6627836642
 10
-43.5723678581
 20
-43.6638492961
  0
LWPOLYLINE
  5
25B
100
AcDbEntity
  8
0
100
AcDbPolyline
 62
7
  6
CONTINUOUS
 90
28
 70
0
 10
-45.0
 20
43.4
 10
-44.9973629925
 20
43.4920955803
 10
-44.9893300057
 20
43.5845768341
 10
-44.9757457415
 20
43.6773539598
 10
-44.956823965
 20
43.7690715625
 10
-44.9327245646
 20
43.8590900684
 10
-44.9032258868
 20
43.9479887997
 10
-44.868587061
 20
44.0350212432
 10
-44.8292565213
 20
44.1191564341
 10
-44.7851753059
 20
44.2007881254
 10
-44.7363090371
 20
44.2799714931
 10
-44.6830445904
 20
44.3559476031
 10
-44.6259342016
 20
44.4281426124
 10
-44.5647918467
 20
44.496933532
 10
-44.4994605304
 20
44.562407061
 10
-44.4307538307
 20
44.6237400353
 10
-44.3585421309
 20
44.6811058044
 10
-44.2824618418
 20
44.734666718
 10
-44.2031389505
 20
44.78381442
 10
-44.121308445
 20
44.8281709117
 10
-44.036902982
 20
44.8677719908
 10
-43.9495879979
 20
44.9026421403
 10
-43.8603905117
 20
44.9323342552
 10
-43.7700565136
 20
44.9565915763
 10
-43.6780589376
 20
44.9756226592
 10
-43.5850371514
 20
44.9892758143
 10
-43.4923153524
 20
44.9973493871
 10
-43.4
 20
45.0
  0
LWPOLYLINE
  5
25C
100
AcDbEntity
  8
0
100
AcDbPolyline
 62
7
  6
CONTINUOUS
 90
28
 70
0
 10
-43.4
 20
-45.0
 10
-43.4923253538
 20
-44.9973489346
 10
-43.5850571387
 20
-44.9892736782
 10
-43.6780930467
 20
-44.9756163717
 10
-43.7701134049
 20
-44.9565775267
 10
-43.8604699431
 20
-44.9323105912
 10
-43.9496757368
 20
-44.9026102877
 10
-44.0370007149
 20
-44.8677295704
 10
-44.121415057
 20
-44.8281180515
 10
-44.2032331394
 20
-44.7837602304
 10
-44.282549104
 20
-44.734608644
 10
-44.3586445161
 20
-44.6810287871
 10
-44.4308666839
 20
-44.6236450192
 10
-44.4995696837
 20
-44.5623037188
 10
-44.5648932375
 20
-44.496825951
 10
-44.6260245941
 20
-44.4280347651
 10
-44.6831149765
 20
-44.3558536944
 10
-44.7363586181
 20
-44.2798967688
 10
-44.7852198161
 20
-44.2007102052
 10
-44.8292993527
 20
-44.119069303
 10
-44.8686197153
 20
-44.0349457687
 10
-44.9032488746
 20
-43.9479250492
 10
-44.9327407623
 20
-43.8590353108
 10
-44.9568323563
 20
-43.7690385109
 10
-44.9757484084
 20
-43.6773402858
 10
-44.9893304221
 20
-43.5845714985
 10
-44.9973630044
 20
-43.4920932848
 10
-45.0
 20
-43.4
  0
LINE
  5
25D
100
AcDbEntity
  8
0
100
AcDbLine
 62
253
  6
CONTINUOUS
 10
-43.5694932453
 20
42.7972307399
 11
-43.5723678573
 21
43.6638491808
  0
LINE
  5
25E
100
AcDbEntity
  8
0
100
AcDbLine
 62
253
  6
CONTINUOUS
 10
-44.8646431873
 20
42.8331115734
 11
-44.8673198351
 21
43.3983203598
  0
LINE
  5
25F
100
AcDbEntity
  8
0
100
AcDbLine
 62
7
  6
CONTINUOUS
 10
-45.0
 20
-43.4
 11
-45.0
 21
43.4
  0
LINE
  5
260
100
AcDbEntity
  8
0
100
AcDbLine
 62
253
  6
CONTINUOUS
 10
-43.5694932453
 20
-42.7972307399
 11
-43.5723832817
 21
-22.5285705483
  0
LINE
  5
261
100
AcDbEntity
  8
0
100
AcDbLine
 62
253
  6
CONTINUOUS
 10
-43.4
 20
45.0
 11
-43.4
 21
43.8489320825
  0
LINE
  5
262
100
AcDbEntity
  8
0
100
AcDbLine
 62
253
  6
CONTINUOUS
 10
-43.4
 20
-45.0
 11
-43.4
 21
-43.8489320825
  0
LINE
  5
263
100
AcDbEntity
  8
0
100
AcDbLine
 62
253
  6
CONTINUOUS
 10
-44.8674239464
 20
-22.4691866652
 11
-44.8672743838
 21
24.7854889222
  0
LINE
  5
264
100
AcDbEntity
  8
0
100
AcDbLine
 62
253
  6
CONTINUOUS
 10
-43.5723832817
 20
-22.5285705483
 11
-43.5722315242
 21
24.8662016483
  0
LINE
  5
265
100
AcDbEntity
  8
0
100
AcDbLine
 62
253
  6
CONTINUOUS
 10
-44.8672743838
 20
24.7854889222
 11
-44.8646431873
 21
42.8331115734
  0
LINE
  5
266
100
AcDbEntity
  8
0
100
AcDbLine
 62
253
  6
CONTINUOUS
 10
-43.5722315242
 20
24.8662016483
 11
-43.5694932453
 21
42.7972307399
  0
LWPOLYLINE
  5
267
100
AcDbEntity
  8
0
100
AcDbPolyline
 62
253
  6
CONTINUOUS
 90
115
 70
0
 10
-43.5723678573
 20
43.6638491808
 10
-43.5723602492
 20
43.6667602273
 10
-43.5723241193
 20
43.6695259513
 10
-43.5722594676
 20
43.672146355
 10
-43.5721640122
 20
43.674597813
 10
-43.5720400351
 20
43.676903955
 10
-43.5718943821
 20
43.6791356645
 10
-43.5717303133
 20
43.6812922811
 10
-43.5715445687
 20
43.683374467
 10
-43.5713342141
 20
43.6854550883
 10
-43.5711015797
 20
43.6875367099
 10
-43.5708443353
 20
43.6896167668
 10
-43.5705525563
 20
43.6917604289
 10
-43.5702212283
 20
43.6940044865
 10
-43.5698553657
 20
43.6963121475
 10
-43.5694600875
 20
43.6986382076
 10
-43.5690336605
 20
43.7009858284
 10
-43.5685778179
 20
43.7033518479
 10
-43.5681028776
 20
43.7056815773
 10
-43.567612193
 20
43.7079565337
 10
-43.5671024106
 20
43.7101952012
 10
-43.5665737882
 20
43.7123983424
 10
-43.5660427749
 20
43.7145150461
 10
-43.5654929215
 20
43.7165962247
 10
-43.5648751373
 20
43.7187953739
 10
-43.564170691
 20
43.7211816731
 10
-43.5633983139
 20
43.7236859395
 10
-43.5625651101
 20
43.726254124
 10
-43.561658306
 20
43.7289127877
 10
-43.5606906752
 20
43.7316353673
 10
-43.559707642
 20
43.7342881302
 10
-43.5587309822
 20
43.736808897
 10
-43.55773892
 20
43.7392598495
 10
-43.5567115527
 20
43.7416937974
 10
-43.5556462833
 20
43.7441187589
 10
-43.5545457087
 20
43.7465267161
 10
-43.5533977172
 20
43.7489464237
 10
-43.5521950146
 20
43.7513953312
 10
-43.550944895
 20
43.7538559887
 10
-43.5496571287
 20
43.7563048016
 10
-43.5483227358
 20
43.7587544406
 10
-43.5469506961
 20
43.7611922351
 10
-43.5455777196
 20
43.7635565795
 10
-43.5442181496
 20
43.7658216575
 10
-43.5428576427
 20
43.7680132875
 10
-43.5414898796
 20
43.7701473168
 10
-43.5401223265
 20
43.7722127187
 10
-43.5387475172
 20
43.7742205213
 10
-43.537336733
 20
43.7762196539
 10
-43.5358666216
 20
43.7782420999
 10
-43.5343605355
 20
43.7802558759
 10
-43.5328598134
 20
43.7822139612
 10
-43.5313789819
 20
43.7840985972
 10
-43.5299035145
 20
43.7859275437
 10
-43.5284311701
 20
43.7877070573
 10
-43.5269772032
 20
43.789420831
 10
-43.5255263594
 20
43.791085173
 10
-43.524030635
 20
43.7927552621
 10
-43.5224705564
 20
43.7944544242
 10
-43.5208655972
 20
43.7961593333
 10
-43.5192261755
 20
43.7978551904
 10
-43.5175516395
 20
43.7995421381
 10
-43.5158426409
 20
43.8012200341
 10
-43.5141115525
 20
43.802873652
 10
-43.5123697602
 20
43.8044917811
 10
-43.5106058781
 20
43.8060856326
 10
-43.5087981215
 20
43.8076736138
 10
-43.50692262
 20
43.8092749555
 10
-43.5050032441
 20
43.810870427
 10
-43.50308982
 20
43.8124207432
 10
-43.5011978613
 20
43.8139140686
 10
-43.4993118544
 20
43.8153622396
 10
-43.4974350853
 20
43.81676148
 10
-43.4955932894
 20
43.8180936091
 10
-43.4937607312
 20
43.8193768083
 10
-43.4918634902
 20
43.8206618446
 10
-43.4898756846
 20
43.8219676656
 10
-43.4878231963
 20
43.8232753236
 10
-43.4857097498
 20
43.8245787418
 10
-43.4835180006
 20
43.8258875933
 10
-43.4812652933
 20
43.8271922049
 10
-43.4790073862
 20
43.8284574814
 10
-43.476754466
 20
43.8296754268
 10
-43.4744963461
 20
43.8308540376
 10
-43.4722582247
 20
43.8319822074
 10
-43.4700646905
 20
43.8330489407
 10
-43.4678911548
 20
43.8340652336
 10
-43.4656890499
 20
43.8350529668
 10
-43.4634448409
 20
43.8360181468
 10
-43.4611720627
 20
43.8369547675
 10
-43.4588627514
 20
43.83786669
 10
-43.4564906998
 20
43.8387637948
 10
-43.4540821152
 20
43.8396362017
 10
-43.4517076557
 20
43.8404581315
 10
-43.4494170556
 20
43.8412139556
 10
-43.4471605807
 20
43.8419193031
 10
-43.4448596861
 20
43.8425952817
 10
-43.4425063462
 20
43.8432446876
 10
-43.4401085866
 20
43.8438647249
 10
-43.4376119399
 20
43.8444681132
 10
-43.4349479608
 20
43.8450704881
 10
-43.4321850945
 20
43.845656214
 10
-43.4294742088
 20
43.8461911041
 10
-43.4268559818
 20
43.8466637907
 10
-43.4242897354
 20
43.8470856418
 10
-43.4218043038
 20
43.8474565734
 10
-43.4194427719
 20
43.8477712056
 10
-43.4171620548
 20
43.8480349186
 10
-43.4148617312
 20
43.848263769
 10
-43.412524891
 20
43.848463286
 10
-43.4101684444
 20
43.8486279404
 10
-43.4077427011
 20
43.8487572004
 10
-43.4052310975
 20
43.8488508888
 10
-43.4026501971
 20
43.8489091828
 10
-43.4
 20
43.8489320825
  0
LINE
  5
268
100
AcDbEntity
  8
0
100
AcDbLine
 62
253
  6
CONTINUOUS
 10
-43.5723657858
 20
-43.6668088355
 11
-43.5694932453
 21
-42.7972307399
  0
LINE
  5
269
100
AcDbEntity
  8
0
100
AcDbLine
 62
253
  6
CONTINUOUS
 10
-44.8652401723
 20
-43.0219600148
 11
-44.8674239464
 21
-22.4691866652
  0
LINE
  5
26A
100
AcDbEntity
  8
0
100
AcDbLine
 62
253
  6
CONTINUOUS
 10
-44.8673198022
 20
-43.3983156248
 11
-44.8652401723
 21
-43.0219600148
  0
LWPOLYLINE
  5
26B
100
AcDbEntity
  8
0
100
AcDbPolyline
 62
253
  6
CONTINUOUS
 90
115
 70
0
 10
-44.8673207531
 20
43.3983203713
 10
-44.8669655363
 20
43.4193889496
 10
-44.8663365806
 20
43.439811881
 10
-44.8654592605
 20
43.4595845146
 10
-44.8643642734
 20
43.478614335
 10
-44.8630729953
 20
43.4969847441
 10
-44.8615861233
 20
43.5149567799
 10
-44.859917625
 20
43.5325267442
 10
-44.8580815788
 20
43.5496934237
 10
-44.8560587059
 20
43.5667247087
 10
-44.8538437899
 20
43.583686915
 10
-44.8514486607
 20
43.6005122115
 10
-44.8488681517
 20
43.6172664482
 10
-44.8461051891
 20
43.6339517638
 10
-44.8431653338
 20
43.6505487394
 10
-44.8400451309
 20
43.6670864618
 10
-44.8367573253
 20
43.6835109396
 10
-44.8332962516
 20
43.6998598179
 10
-44.8296234444
 20
43.7162992441
 10
-44.8257480326
 20
43.7327676304
 10
-44.8216560337
 20
43.749308648
 10
-44.8172567694
 20
43.7662423197
 10
-44.8125238723
 20
43.7835921789
 10
-44.8074529967
 20
43.8013049541
 10
-44.8019680076
 20
43.8195789014
 10
-44.7960006962
 20
43.8385478326
 10
-44.7895759998
 20
43.8580369027
 10
-44.7827612954
 20
43.8777823088
 10
-44.7755371914
 20
43.8977960413
 10
-44.7679050594
 20
43.9180255434
 10
-44.7599871267
 20
43.9381222334
 10
-44.7518208493
 20
43.9579951336
 10
-44.7433821305
 20
43.9777098882
 10
-44.7347177164
 20
43.9971651817
 10
-44.7258635028
 20
44.0163001922
 10
-44.7168046615
 20
44.0351688009
 10
-44.7075127972
 20
44.0538453001
 10
-44.6980171398
 20
44.0722832346
 10
-44.6883039003
 20
44.0905186078
 10
-44.6782712995
 20
44.1087380765
 10
-44.6678921073
 20
44.1269769267
 10
-44.6571966962
 20
44.1451685945
 10
-44.6461628521
 20
44.1633364318
 10
-44.6347002187
 20
44.1816056296
 10
-44.6228846298
 20
44.1998330756
 10
-44.6109504751
 20
44.2176605147
 10
-44.5989259896
 20
44.2350673482
 10
-44.5867894562
 20
44.2521059687
 10
-44.574719622
 20
44.2685563073
 10
-44.5628187201
 20
44.2843245739
 10
-44.5510078767
 20
44.2995549088
 10
-44.5391977576
 20
44.3143875311
 10
-44.5274155072
 20
44.3288072652
 10
-44.515645603
 20
44.3428513099
 10
-44.503724006
 20
44.3567223913
 10
-44.4916439957
 20
44.3704281255
 10
-44.4794102393
 20
44.3839649077
 10
-44.4668634438
 20
44.3975046884
 10
-44.4539455154
 20
44.4110966911
 10
-44.4406989601
 20
44.4246818005
 10
-44.42710893
 20
44.4382628002
 10
-44.4131009342
 20
44.4518981991
 10
-44.398729814
 20
44.465517388
 10
-44.3841815718
 20
44.4789365381
 10
-44.3695003782
 20
44.4921163746
 10
-44.3546391227
 20
44.5051012071
 10
-44.3396569902
 20
44.5178422676
 10
-44.3246266832
 20
44.530285435
 10
-44.3094782206
 20
44.5424945426
 10
-44.2940530953
 20
44.554594581
 10
-44.2782910506
 20
44.5666223039
 10
-44.2622308259
 20
44.5785359913
 10
-44.2458545431
 20
44.5903373013
 10
-44.2290915219
 20
44.6020632268
 10
-44.2119848659
 20
44.6136708725
 10
-44.1946943837
 20
44.6250472253
 10
-44.1772621928
 20
44.6361660553
 10
-44.1596368655
 20
44.6470604803
 10
-44.141848006
 20
44.657712456
 10
-44.1239410808
 20
44.6680969434
 10
-44.1058862753
 20
44.678232168
 10
-44.0876024578
 20
44.6881601266
 10
-44.0690651333
 20
44.6978881673
 10
-44.0503098641
 20
44.7073919597
 10
-44.0313416151
 20
44.7166633674
 10
-44.0121481408
 20
44.7257023457
 10
-43.9927528505
 20
44.7344926643
 10
-43.9732161412
 20
44.7430040046
 10
-43.9535894806
 20
44.7512150573
 10
-43.9338475541
 20
44.7591387971
 10
-43.9139368232
 20
44.7667963085
 10
-43.8938852466
 20
44.7741755265
 10
-43.8736890828
 20
44.7812759208
 10
-43.8532422505
 20
44.7881286701
 10
-43.8325002945
 20
44.7947385063
 10
-43.8115258389
 20
44.8010762082
 10
-43.7903718289
 20
44.8071188302
 10
-43.7690422074
 20
44.8128604242
 10
-43.7475626611
 20
44.818293291
 10
-43.7260209971
 20
44.8233969668
 10
-43.7044743408
 20
44.8281623341
 10
-43.6829031363
 20
44.8325973896
 10
-43.6612807229
 20
44.8367084429
 10
-43.6396236593
 20
44.8404923374
 10
-43.6179523543
 20
44.8439457931
 10
-43.5962460362
 20
44.8470710268
 10
-43.5745090654
 20
44.8498653062
 10
-43.5527572807
 20
44.8523267931
 10
-43.5309875115
 20
44.8544570299
 10
-43.5092008069
 20
44.8562569428
 10
-43.4873980771
 20
44.8577273909
 10
-43.4655760119
 20
44.8588695234
 10
-43.4437342204
 20
44.8596842361
 10
-43.4218751948
 20
44.8601723917
 10
-43.4
 20
44.860335
  0
LWPOLYLINE
  5
26C
100
AcDbEntity
  8
0
100
AcDbPolyline
 62
253
  6
CONTINUOUS
 90
10
 70
0
 10
-35.0459366909
 20
22.6048155586
 10
-35.0777102997
 20
22.5214238433
 10
-35.1058819164
 20
22.436665574
 10
-35.130451541
 20
22.3505407151
 10
-35.1515016717
 20
22.2627557551
 10
-35.1689498104
 20
22.1736041275
 10
-35.182548462
 20
22.0839662397
 10
-35.1922151283
 20
21.9941355651
 10
-35.1980323077
 20
21.9038186147
 10
-35.2
 20
21.8130153778
  0
LINE
  5
26D
100
AcDbEntity
  8
0
100
AcDbLine
 62
253
  6
CONTINUOUS
 10
-45.0
 20
-43.4
 11
-44.8673198022
 21
-43.3983156248
  0
LINE
  5
26E
100
AcDbEntity
  8
0
100
AcDbLine
 62
7
  6
CONTINUOUS
 10
43.4
 20
-45.0
 11
-43.4
 21
-45.0
  0
LINE
  5
26F
100
AcDbEntity
  8
0
100
AcDbLine
 62
253
  6
CONTINUOUS
 10
43.4
 20
-44.860335
 11
-43.4000051502
 21
-44.860335
  0
LINE
  5
270
100
AcDbEntity
  8
0
100
AcDbLine
 62
253
  6
CONTINUOUS
 10
43.4
 20
-43.8489320825
 11
-43.4
 21
-43.8489320825
  0
LINE
  5
271
100
AcDbEntity
  8
0
100
AcDbLine
 62
253
  6
CONTINUOUS
 10
45.0
 20
-42.5490190027
 11
44.8643139009
 21
-42.5490247436
  0
LINE
  5
272
100
AcDbEntity
  8
0
100
AcDbLine
 62
253
  6
CONTINUOUS
 10
-45.0
 20
-42.5490190027
 11
-44.8643139164
 21
-42.5490243299
  0
LWPOLYLINE
  5
273
100
AcDbEntity
  8
0
100
AcDbPolyline
 62
253
  6
CONTINUOUS
 90
115
 70
0
 10
-43.4000051502
 20
-44.8603349998
 10
-43.4212736727
 20
-44.860181195
 10
-43.4418845919
 20
-44.8597382219
 10
-43.4618327503
 20
-44.8590325326
 10
-43.481023054
 20
-44.8580951914
 10
-43.4995406508
 20
-44.8569492788
 10
-43.5176526812
 20
-44.8555981286
 10
-43.5353564977
 20
-44.8540563557
 10
-43.5526493518
 20
-44.85233838
 10
-43.5698013878
 20
-44.850426517
 10
-43.5868774369
 20
-44.8483166457
 10
-43.6038105677
 20
-44.8460201327
 10
-43.6206713694
 20
-44.843530994
 10
-43.6374613518
 20
-44.8408518744
 10
-43.6541612692
 20
-44.8379888069
 10
-43.6708069364
 20
-44.8349379268
 10
-43.6873435455
 20
-44.8317112815
 10
-43.7038094106
 20
-44.8283035216
 10
-43.720379524
 20
-44.8246767081
 10
-43.7369948401
 20
-44.8208391416
 10
-43.7536959585
 20
-44.8167765379
 10
-43.770802981
 20
-44.8123990708
 10
-43.7883469191
 20
-44.8076790118
 10
-43.8062657771
 20
-44.8026119746
 10
-43.8247341203
 20
-44.7971259631
 10
-43.8438853775
 20
-44.7911526724
 10
-43.8635441965
 20
-44.7847178274
 10
-43.8834230279
 20
-44.7778955889
 10
-43.9035258248
 20
-44.7706697184
 10
-43.9238088104
 20
-44.7630413208
 10
-43.9439259111
 20
-44.7551351536
 10
-43.9637839421
 20
-44.7469922001
 10
-43.9834527438
 20
-44.738587185
 10
-44.0028441092
 20
-44.7299618058
 10
-44.0218995562
 20
-44.7211524563
 10
-44.0406734271
 20
-44.7121447971
 10
-44.059250674
 20
-44.7029046129
 10
-44.0775899027
 20
-44.6934575178
 10
-44.0957223319
 20
-44.6837932273
 10
-44.1138304342
 20
-44.673814674
 10
-44.1319575483
 20
-44.6634904684
 10
-44.1500301168
 20
-44.6528552743
 10
-44.168047735
 20
-44.6419042457
 10
-44.1861290598
 20
-44.6305540497
 10
-44.2041452834
 20
-44.618872767
 10
-44.2217491021
 20
-44.6070880277
 10
-44.2389115203
 20
-44.5952353451
 10
-44.2556946567
 20
-44.5832872271
 10
-44.2719132508
 20
-44.5713947689
 10
-44.287479219
 20
-44.5596518103
 10
-44.3025275363
 20
-44.5479869055
 10
-44.3172081908
 20
-44.5363052222
 10
-44.3315088316
 20
-44.5246299609
 10
-44.3454606181
 20
-44.5129478971
 10
-44.3592628314
 20
-44.5010984221
 10
-44.3729242695
 20
-44.4890736373
 10
-44.386438759
 20
-44.476877909
 10
-44.3999699524
 20
-44.4643568328
 10
-44.4135686907
 20
-44.4514488768
 10
-44.427173614
 20
-44.4381986987
 10
-44.440774314
 20
-44.4246053103
 10
-44.4544297771
 20
-44.4105937879
 10
-44.4680690496
 20
-44.3962188832
 10
-44.4814945839
 20
-44.3816820189
 10
-44.4946618225
 20
-44.3670354182
 10
-44.5076216175
 20
-44.3522256131
 10
-44.5203293519
 20
-44.3373062711
 10
-44.5327261476
 20
-44.3223542257
 10
-44.5448811269
 20
-44.3072968458
 10
-44.5569377736
 20
-44.2919586582
 10
-44.5689343042
 20
-44.276277535
 10
-44.5808270387
 20
-44.2602925323
 10
-44.5926299318
 20
-44.2439694052
 10
-44.6043833556
 20
-44.2272329174
 10
-44.6160395676
 20
-44.2101284089
 10
-44.6274847164
 20
-44.1928087194
 10
-44.6386948982
 20
-44.1753069327
 10
-44.6496987485
 20
-44.1575779802
 10
-44.6604669957
 20
-44.1396689821
 10
-44.6709731653
 20
-44.121625028
 10
-44.6812342709
 20
-44.1034182083
 10
-44.6912811871
 20
-44.0849921389
 10
-44.7011190748
 20
-44.0663283585
 10
-44.7107262277
 20
-44.0474580561
 10
-44.720091735
 20
-44.028396491
 10
-44.7292152081
 20
-44.0091376836
 10
-44.7380821705
 20
-43.9897007643
 10
-44.74666291
 20
-43.9701410037
 10
-44.7549348136
 20
-43.9505139232
 10
-44.762913815
 20
-43.9307930163
 10
-44.7706275812
 20
-43.9109123957
 10
-44.7780632601
 20
-43.8909004517
 10
-44.7852217177
 20
-43.8707534831
 10
-44.7921429413
 20
-43.8503515657
 10
-44.7988341817
 20
-43.8296494973
 10
-44.805263084
 20
-43.8087101158
 10
-44.8114058972
 20
-43.7875735038
 10
-44.8172563602
 20
-43.7662404956
 10
-44.8228062059
 20
-43.7447405931
 10
-44.828033636
 20
-43.7231597427
 10
-44.8329282477
 20
-43.701549518
 10
-44.8374973747
 20
-43.6798963112
 10
-44.8417475062
 20
-43.6581889411
 10
-44.8456774337
 20
-43.6364395316
 10
-44.8492812711
 20
-43.6146737049
 10
-44.8525566126
 20
-43.5929005842
 10
-44.8555031115
 20
-43.5711226695
 10
-44.8581198829
 20
-43.5493542531
 10
-44.8604046655
 20
-43.5276216591
 10
-44.8623607698
 20
-43.50592339
 10
-44.8639917936
 20
-43.4842612868
 10
-44.8652985568
 20
-43.4626664025
 10
-44.8662852103
 20
-43.4411489994
 10
-44.8669576741
 20
-43.4196987488
 10
-44.8673208008
 20
-43.3983156373
  0
LWPOLYLINE
  5
274
100
AcDbEntity
  8
0
100
AcDbPolyline
 62
253
  6
CONTINUOUS
 90
114
 70
0
 10
-43.4
 20
-43.8489320825
 10
-43.4025723324
 20
-43.8489056956
 10
-43.4050121115
 20
-43.8488536611
 10
-43.4073193374
 20
-43.848775979
 10
-43.4094724732
 20
-43.8486705909
 10
-43.4114930558
 20
-43.8485395552
 10
-43.4134456959
 20
-43.8483890474
 10
-43.4153276933
 20
-43.8482225763
 10
-43.4171417482
 20
-43.848036633
 10
-43.418960572
 20
-43.8478268667
 10
-43.4207887822
 20
-43.8475952684
 10
-43.4226217611
 20
-43.847339847
 10
-43.4245183671
 20
-43.847050279
 10
-43.4265136945
 20
-43.8467211531
 10
-43.4285726488
 20
-43.8463578804
 10
-43.4306488054
 20
-43.8459663709
 10
-43.432746649
 20
-43.8455442737
 10
-43.4348616949
 20
-43.8450939396
 10
-43.4369340636
 20
-43.8446283319
 10
-43.4389375718
 20
-43.8441533217
 10
-43.4408984029
 20
-43.8436630377
 10
-43.442835228
 20
-43.8431528302
 10
-43.4447085314
 20
-43.8426372324
 10
-43.4465578288
 20
-43.842101711
 10
-43.4485203389
 20
-43.8414980155
 10
-43.4506621637
 20
-43.8408061556
 10
-43.4529172012
 20
-43.8400461212
 10
-43.4552243638
 20
-43.8392296319
 10
-43.457601393
 20
-43.838346588
 10
-43.4600305472
 20
-43.8374070888
 10
-43.4623975138
 20
-43.8364531525
 10
-43.4646459838
 20
-43.8355063205
 10
-43.4668322662
 20
-43.8345450513
 10
-43.4690109757
 20
-43.8335467382
 10
-43.4711921977
 20
-43.8325077374
 10
-43.4733658468
 20
-43.8314316923
 10
-43.4755562818
 20
-43.8303069262
 10
-43.4777819548
 20
-43.8291246588
 10
-43.4800244137
 20
-43.8278936699
 10
-43.4822526617
 20
-43.8266286229
 10
-43.484473708
 20
-43.8253231633
 10
-43.4866805435
 20
-43.8239836451
 10
-43.4888211439
 20
-43.8226437958
 10
-43.4908695763
 20
-43.8213198164
 10
-43.4928517737
 20
-43.8199955059
 10
-43.494793511
 20
-43.8186559887
 10
-43.4966904144
 20
-43.8173044266
 10
-43.4985468577
 20
-43.8159376577
 10
-43.5004017383
 20
-43.8145313201
 10
-43.5022833754
 20
-43.8130634218
 10
-43.5041634497
 20
-43.8115559542
 10
-43.5059959002
 20
-43.8100505307
 10
-43.5077627569
 20
-43.8085627278
 10
-43.5094819898
 20
-43.8070769691
 10
-43.5111614488
 20
-43.8055881387
 10
-43.512786542
 20
-43.8041108302
 10
-43.5143718612
 20
-43.8026304501
 10
-43.5159690321
 20
-43.8010981011
 10
-43.5176004267
 20
-43.7994938734
 10
-43.5192436731
 20
-43.7978376758
 10
-43.5208832806
 20
-43.7961403384
 10
-43.5225192534
 20
-43.7944012976
 10
-43.5241515874
 20
-43.7926211162
 10
-43.5257647797
 20
-43.7908123134
 10
-43.5273494722
 20
-43.7889843522
 10
-43.5289150231
 20
-43.7871277691
 10
-43.5304740046
 20
-43.7852266936
 10
-43.5320415833
 20
-43.7832612236
 10
-43.5336025925
 20
-43.7812512599
 10
-43.5351241045
 20
-43.7792406363
 10
-43.5365951875
 20
-43.7772451307
 10
-43.5380267733
 20
-43.7752489651
 10
-43.5394187299
 20
-43.77324864
 10
-43.5407554433
 20
-43.7712679703
 10
-43.5420525275
 20
-43.7692831411
 10
-43.5433566927
 20
-43.7672192071
 10
-43.5446867752
 20
-43.7650485729
 10
-43.5460239388
 20
-43.7627988319
 10
-43.5473583841
 20
-43.7604778213
 10
-43.5486993257
 20
-43.7580668804
 10
-43.5500375492
 20
-43.755584668
 10
-43.551335612
 20
-43.7530950013
 10
-43.5525840426
 20
-43.7506120327
 10
-43.5537923126
 20
-43.7481216096
 10
-43.5549513945
 20
-43.7456450932
 10
-43.5560515199
 20
-43.7432058701
 10
-43.5571024572
 20
-43.7407805542
 10
-43.5581244836
 20
-43.7383203478
 10
-43.5591235377
 20
-43.7358106789
 10
-43.5600936809
 20
-43.7332661185
 10
-43.5610373744
 20
-43.7306815823
 10
-43.561963119
 20
-43.7280338303
 10
-43.5628624138
 20
-43.7253461011
 10
-43.5637122178
 20
-43.7226830294
 10
-43.5644984769
 20
-43.7200926578
 10
-43.5652352452
 20
-43.7175269449
 10
-43.5659416439
 20
-43.7149063993
 10
-43.5666206234
 20
-43.7122217274
 10
-43.5672692333
 20
-43.7094822212
 10
-43.5678977435
 20
-43.7066362654
 10
-43.5685207686
 20
-43.703613251
 10
-43.5691236939
 20
-43.7004837828
 10
-43.5696729446
 20
-43.6974080686
 10
-43.5701572345
 20
-43.6944289893
 10
-43.5705878498
 20
-43.6915036662
 10
-43.5709650743
 20
-43.6886636696
 10
-43.5712838871
 20
-43.685954142
 10
-43.5715493091
 20
-43.6833299439
 10
-43.5717766862
 20
-43.6806872215
 10
-43.5719713128
 20
-43.6780056093
 10
-43.5721278944
 20
-43.6753054722
 10
-43.5722458935
 20
-43.6725440493
 10
-43.5723251309
 20
-43.6697070862
 10
-43.5723657858
 20
-43.6668088355
  0
LINE
  5
275
100
AcDbEntity
  8
0
100
AcDbLine
 62
253
  6
CONTINUOUS
 10
45.0
 20
-43.4
 11
44.8673198351
 21
-43.3983203603
  0
LWPOLYLINE
  5
276
100
AcDbEntity
  8
0
100
AcDbPolyline
 62
253
  6
CONTINUOUS
 90
25
 70
0
 10
-35.0459366909
 20
-22.6048155586
 10
-35.005003519
 20
-22.7001458434
 10
-34.959509582
 20
-22.7931892423
 10
-34.9094548798
 20
-22.8839459641
 10
-34.8546970529
 20
-22.9726971863
 10
-34.7953784609
 20
-23.0591621308
 10
-34.7319261825
 20
-23.1424981659
 10
-34.6642901422
 20
-23.2226602181
 10
-34.5925204155
 20
-23.2996939576
 10
-34.5171943078
 20
-23.3728930252
 10
-34.4382755181
 20
-23.4422066459
 10
-34.3558003475
 20
-23.5076862836
 10
-34.2704550043
 20
-23.56877904
 10
-34.1822072025
 20
-23.6254356292
 10
-34.0910892282
 20
-23.6777060244
 10
-33.9978841483
 20
-23.7251862633
 10
-33.9025548603
 20
-23.7678228123
 10
-33.8051384667
 20
-23.8056698023
 10
-33.7065293417
 20
-23.8384847671
 10
-33.6067150908
 20
-23.8661987136
 10
-33.5057081086
 20
-23.888881068
 10
-33.4044399526
 20
-23.9064969562
 10
-33.3032211421
 20
-23.9190348274
 10
-33.2017411579
 20
-23.9265064521
 10
-33.1
 20
-23.928911885
  0
LWPOLYLINE
  5
277
100
AcDbEntity
  8
0
100
AcDbPolyline
 62
253
  6
CONTINUOUS
 90
16
 70
0
 10
-35.2
 20
-21.8130153778
 10
-35.1997103181
 20
-21.8556987213
 10
-35.1983373307
 20
-21.8996464661
 10
-35.195881038
 20
-21.9448585934
 10
-35.1924673669
 20
-21.9911862022
 10
-35.1879703904
 20
-22.0387781564
 10
-35.1820123271
 20
-22.0880810777
 10
-35.1746074099
 20
-22.1392886418
 10
-35.1657414058
 20
-22.1922071132
 10
-35.1549938344
 20
-22.24670199
 10
-35.1423807519
 20
-22.3027909986
 10
-35.1278861022
 20
-22.3604563531
 10
-35.1110412361
 20
-22.4195102881
 10
-35.0916899373
 20
-22.4798901976
 10
-35.0699884223
 20
-22.541658631
 10
-35.0459366909
 20
-22.6048155586
  0
LINE
  5
278
100
AcDbEntity
  8
0
100
AcDbLine
 62
253
  6
CONTINUOUS
 10
-35.2
 20
21.8130153778
 11
-35.2
 21
-21.8130153778
  0
LWPOLYLINE
  5
279
100
AcDbEntity
  8
0
100
AcDbPolyline
 62
253
  6
CONTINUOUS
 90
15
 70
0
 10
-44.8674210162
 20
22.5452814834
 10
-44.8579403878
 20
22.5492884354
 10
-44.8435500222
 20
22.5532580526
 10
-44.8243048781
 20
22.5571751746
 10
-44.8002784556
 20
22.5610248413
 10
-44.7715625149
 20
22.5647923503
 10
-44.7382667265
 20
22.5684633128
 10
-44.7005182517
 20
22.5720237091
 10
-44.6584612574
 20
22.5754599413
 10
-44.6122563652
 20
22.5787588861
 10
-44.5620800382
 20
22.5819079443
 10
-44.5081239072
 20
22.5848950891
 10
-44.4505940383
 20
22.5877089124
 10
-44.3897101463
 20
22.5903386676
 10
-44.3257047555
 20
22.5927743113
  0
LWPOLYLINE
  5
27A
100
AcDbEntity
  8
0
100
AcDbPolyline
 62
253
  6
CONTINUOUS
 90
15
 70
0
 10
-44.867423946
 20
22.4691866652
 10
-44.8579435109
 20
22.4731804797
 10
-44.8435533187
 20
22.4771372771
 10
-44.824308328
 20
22.4810419458
 10
-44.8002820382
 20
22.4848795732
 10
-44.7715662097
 20
22.4886355029
 10
-44.7382705126
 20
22.4922953904
 10
-44.7005221085
 20
22.495845258
 10
-44.6584651645
 20
22.4992715481
 10
-44.6122603027
 20
22.5025611753
 10
-44.5620839868
 20
22.5057015759
 10
-44.5081278479
 20
22.5086807562
 10
-44.4505979531
 20
22.5114873384
 10
-44.3897140182
 20
22.5141106035
 10
-44.3257085684
 20
22.516540533
  0
LWPOLYLINE
  5
27B
100
AcDbEntity
  8
0
100
AcDbPolyline
 62
253
  6
CONTINUOUS
 90
16
 70
0
 10
-44.8674239464
 20
-22.4691866652
 10
-44.8579435116
 20
-22.4731804797
 10
-44.8435533197
 20
-22.4771372771
 10
-44.8243083292
 20
-22.4810419458
 10
-44.8002820397
 20
-22.4848795733
 10
-44.7715662113
 20
-22.488635503
 10
-44.7382705144
 20
-22.4922953905
 10
-44.7005221104
 20
-22.4958452581
 10
-44.6584651665
 20
-22.4992715482
 10
-44.6122603047
 20
-22.5025611754
 10
-44.5620839888
 20
-22.505701576
 10
-44.5081278499
 20
-22.5086807564
 10
-44.4505979551
 20
-22.5114873385
 10
-44.3897140201
 20
-22.5141106037
 10
-44.3257085702
 20
-22.5165405332
 10
-44.1893219013
 20
-22.5207840379
  0
LWPOLYLINE
  5
27C
100
AcDbEntity
  8
0
100
AcDbPolyline
 62
253
  6
CONTINUOUS
 90
17
 70
0
 10
-44.8674210136
 20
-22.5452814834
 10
-44.8579403833
 20
-22.5492884353
 10
-44.8435500159
 20
-22.5532580525
 10
-44.8243048702
 20
-22.5571751744
 10
-44.8002784463
 20
-22.5610248409
 10
-44.7715625046
 20
-22.5647923498
 10
-44.7382667152
 20
-22.5684633123
 10
-44.7005182396
 20
-22.5720237084
 10
-44.6584612448
 20
-22.5754599405
 10
-44.6122563522
 20
-22.5787588852
 10
-44.5620800252
 20
-22.5819079433
 10
-44.5081238942
 20
-22.5848950881
 10
-44.4505940255
 20
-22.5877089112
 10
-44.3897101339
 20
-22.5903386663
 10
-44.3257047437
 20
-22.59277431
 10
-44.2588223007
 20
-22.5950065401
 10
-44.1174580033
 20
-22.5988274684
  0
LINE
  5
27D
100
AcDbEntity
  8
0
100
AcDbLine
 62
7
  6
CONTINUOUS
 10
-33.9
 20
21.7500116681
 11
-33.9
 21
-21.7500003012
  0
LINE
  5
27E
100
AcDbEntity
  8
0
100
AcDbLine
 62
253
  6
CONTINUOUS
 10
-33.1
 20
22.55
 11
-33.1
 21
23.928911885
  0
LINE
  5
27F
100
AcDbEntity
  8
0
100
AcDbLine
 62
253
  6
CONTINUOUS
 10
-33.1
 20
-22.55
 11
-33.1
 21
-23.928911885
  0
LINE
  5
280
100
AcDbEntity
  8
0
100
AcDbLine
 62
7
  6
CONTINUOUS
 10
-4.616107
 20
-28.877801
 11
-4.101097
 21
-28.877801
  0
LINE
  5
281
100
AcDbEntity
  8
0
100
AcDbLine
 62
7
  6
CONTINUOUS
 10
-2.984285
 20
-28.877801
 11
-2.399877
 21
-28.877801
  0
LINE
  5
282
100
AcDbEntity
  8
0
100
AcDbLine
 62
7
  6
CONTINUOUS
 10
-2.085272
 20
-28.877801
 11
-1.526183
 21
-28.877801
  0
LINE
  5
283
100
AcDbEntity
  8
0
100
AcDbLine
 62
7
  6
CONTINUOUS
 10
-0.714487
 20
-28.877801
 11
-0.632524
 21
-28.877801
  0
LINE
  5
284
100
AcDbEntity
  8
0
100
AcDbLine
 62
7
  6
CONTINUOUS
 10
0.182406
 20
-28.877801
 11
0.754112
 21
-28.877801
  0
LINE
  5
285
100
AcDbEntity
  8
0
100
AcDbLine
 62
7
  6
CONTINUOUS
 10
0.84588
 20
-28.877801
 11
1.423947
 21
-28.877801
  0
LINE
  5
286
100
AcDbEntity
  8
0
100
AcDbLine
 62
7
  6
CONTINUOUS
 10
2.532466
 20
-28.877801
 11
3.148408
 21
-28.877801
  0
LINE
  5
287
100
AcDbEntity
  8
0
100
AcDbLine
 62
7
  6
CONTINUOUS
 10
3.3200188023
 20
-28.8778013544
 11
3.9020753449
 21
-28.8778013544
  0
LINE
  5
288
100
AcDbEntity
  8
0
100
AcDbLine
 62
7
  6
CONTINUOUS
 10
4.7970156219
 20
-28.8778013544
 11
5.3591482119
 21
-28.8778013544
  0
LWPOLYLINE
  5
289
100
AcDbEntity
  8
0
100
AcDbPolyline
 62
253
  6
CONTINUOUS
 90
16
 70
0
 10
-33.8413087857
 20
-22.0507665906
 10
-33.8424443069
 20
-22.0555503529
 10
-33.8488579961
 20
-22.0624566337
 10
-33.8605217247
 20
-22.0714551441
 10
-33.8773843389
 20
-22.0825064191
 10
-33.8993718842
 20
-22.0955619911
 10
-33.9263879293
 20
-22.110564602
 10
-33.9583139898
 20
-22.1274484547
 10
-33.9950100469
 20
-22.1461395015
 10
-34.0363151624
 20
-22.1665557687
 10
-34.0820481839
 20
-22.1886077165
 10
-34.1320085393
 20
-22.2121986313
 10
-34.1859771169
 20
-22.2372250502
 10
-34.243717226
 20
-22.2635772145
 10
-34.3049756349
 20
-22.291139551
 10
-34.3694836818
 20
-22.3197911794
  0
LWPOLYLINE
  5
28A
100
AcDbEntity
  8
0
100
AcDbPolyline
 62
7
  6
CONTINUOUS
 90
25
 70
0
 10
3.3200188023
 20
-26.110807341
 10
3.3798052157
 20
-26.1020976325
 10
3.4395536102
 20
-26.0938946496
 10
3.4992639859
 20
-26.0861983999
 10
3.5588985888
 20
-26.0789570839
 10
3.6184951728
 20
-26.0722225148
 10
3.678167
 20
-26.0661501209
 10
3.7379262225
 20
-26.0607333769
 10
3.7977606881
 20
-26.0559788223
 10
3.8577472026
 20
-26.0520614849
 10
3.9178972515
 20
-26.0489741842
 10
3.9781993492
 20
-26.0467241117
 10
4.0386958449
 20
-26.0455078535
 10
4.0994481384
 20
-26.0453229126
 10
4.1603948299
 20
-26.0461717887
 10
4.2213940692
 20
-26.0482585614
 10
4.2824525615
 20
-26.0515146208
 10
4.3435636015
 20
-26.0560085648
 10
4.4045652236
 20
-26.0621502765
 10
4.4655918865
 20
-26.0698509927
 10
4.5265091314
 20
-26.0791994353
 10
4.5867516163
 20
-26.0908716917
 10
4.6461308939
 20
-26.1050930818
 10
4.7048354115
 20
-26.1216381702
 10
4.7628651691
 20
-26.1405068851
  0
LWPOLYLINE
  5
28B
100
AcDbEntity
  8
0
100
AcDbPolyline
 62
7
  6
CONTINUOUS
 90
31
 70
0
 10
4.2166806432
 20
-27.3236280866
 10
4.2409800574
 20
-27.3228501092
 10
4.2651495887
 20
-27.3213081758
 10
4.2891892371
 20
-27.319002284
 10
4.3131664991
 20
-27.3159867607
 10
4.3370138781
 20
-27.3122072707
 10
4.3605288849
 20
-27.3075008151
 10
4.3837155697
 20
-27.3018807948
 10
4.4065698822
 20
-27.2953337891
 10
4.4288771815
 20
-27.2876565591
 10
4.4506863085
 20
-27.2788358101
 10
4.4719484223
 20
-27.2688847981
 10
4.4923023596
 20
-27.2576401001
 10
4.5117093369
 20
-27.2450400969
 10
4.5302081375
 20
-27.2311463429
 10
4.5475539489
 20
-27.2159801679
 10
4.5636640908
 20
-27.1994405938
 10
4.5786212434
 20
-27.1816285135
 10
4.5924286338
 20
-27.1628680713
 10
4.6050733482
 20
-27.1431687823
 10
4.6165683004
 20
-27.1225210574
 10
4.6269554588
 20
-27.101220406
 10
4.6362431558
 20
-27.0792959424
 10
4.6444230589
 20
-27.0567184965
 10
4.6515121391
 20
-27.0336961725
 10
4.6575353544
 20
-27.010218677
 10
4.6624677468
 20
-26.9862962626
 10
4.6662514123
 20
-26.9621678725
 10
4.6688670497
 20
-26.9379131538
 10
4.6703339603
 20
-26.9134524439
 10
4.6706521441
 20
-26.8887857334
  0
LINE
  5
28C
100
AcDbEntity
  8
0
100
AcDbLine
 62
253
  6
CONTINUOUS
 10
44.3257047555
 20
-22.5927743113
 11
44.1893182488
 21
-22.597026833
  0
LINE
  5
28D
100
AcDbEntity
  8
0
100
AcDbLine
 62
253
  6
CONTINUOUS
 10
44.3257085684
 20
-22.516540533
 11
44.1893218998
 21
-22.5207840377
  0
LWPOLYLINE
  5
28E
100
AcDbEntity
  8
0
100
AcDbPolyline
 62
253
  6
CONTINUOUS
 90
25
 70
0
 10
33.1
 20
-23.928911885
 10
33.2012714093
 20
-23.9265175148
 10
33.3022452117
 20
-23.9191203789
 10
33.4029214072
 20
-23.9067204239
 10
33.5035247994
 20
-23.8893372694
 10
33.6038305846
 20
-23.8669510819
 10
33.7031643517
 20
-23.8395025734
 10
33.8016618268
 20
-23.8068869609
 10
33.8991872837
 20
-23.769208594
 10
33.9946591325
 20
-23.7267218426
 10
34.0879834513
 20
-23.6793780531
 10
34.1792541619
 20
-23.6272252815
 10
34.2676714404
 20
-23.5706629608
 10
34.3531961649
 20
-23.509646413
 10
34.4358674571
 20
-23.4442196259
 10
34.5150028584
 20
-23.3749150767
 10
34.5905730341
 20
-23.3016771683
 10
34.6626073188
 20
-23.2245607999
 10
34.7305112575
 20
-23.1442642927
 10
34.7942375141
 20
-23.0607339102
 10
34.8538334246
 20
-22.9740227796
 10
34.9088465422
 20
-22.8849896756
 10
34.9591260513
 20
-22.7939207555
 10
35.0048227675
 20
-22.7005294543
 10
35.0459366909
 20
-22.6048155586
  0
LINE
  5
28F
100
AcDbEntity
  8
0
100
AcDbLine
 62
253
  6
CONTINUOUS
 10
44.1893182488
 20
-22.597026833
 11
44.0435160475
 21
-22.6004015755
  0
LINE
  5
290
100
AcDbEntity
  8
0
100
AcDbLine
 62
253
  6
CONTINUOUS
 10
44.1893218998
 20
-22.5207840377
 11
44.0435194867
 21
-22.5241530879
  0
LINE
  5
291
100
AcDbEntity
  8
0
100
AcDbLine
 62
253
  6
CONTINUOUS
 10
44.0435160475
 20
-22.6004015755
 11
43.8905233832
 21
-22.6028470336
  0
LINE
  5
292
100
AcDbEntity
  8
0
100
AcDbLine
 62
253
  6
CONTINUOUS
 10
44.0435194867
 20
-22.5241530879
 11
43.8905265721
 21
-22.526596265
  0
LINE
  5
293
100
AcDbEntity
  8
0
100
AcDbLine
 62
253
  6
CONTINUOUS
 10
43.8905233832
 20
-22.6028470336
 11
43.7326752282
 21
-22.6043258847
  0
LINE
  5
294
100
AcDbEntity
  8
0
100
AcDbLine
 62
253
  6
CONTINUOUS
 10
43.8905265721
 20
-22.526596265
 11
43.7326781405
 21
-22.5280762812
  0
LINE
  5
295
100
AcDbEntity
  8
0
100
AcDbLine
 62
253
  6
CONTINUOUS
 10
43.7326781405
 20
-22.5280762812
 11
43.5723832817
 21
-22.5285705483
  0
LINE
  5
296
100
AcDbEntity
  8
0
100
AcDbLine
 62
253
  6
CONTINUOUS
 10
43.7326752282
 20
-22.6043258847
 11
43.5723806593
 21
-22.6048155586
  0
LINE
  5
297
100
AcDbEntity
  8
0
100
AcDbLine
 62
7
  6
CONTINUOUS
 10
1.585207
 20
-28.318881
 11
2.381074
 21
-28.318881
  0
LINE
  5
298
100
AcDbEntity
  8
0
100
AcDbLine
 62
7
  6
CONTINUOUS
 10
1.704751
 20
-27.886391
 11
2.26428
 21
-27.886391
  0
LINE
  5
299
100
AcDbEntity
  8
0
100
AcDbLine
 62
7
  6
CONTINUOUS
 10
3.9020753449
 20
-27.7821519248
 11
4.2154209623
 21
-27.7821519248
  0
LINE
  5
29A
100
AcDbEntity
  8
0
100
AcDbLine
 62
7
  6
CONTINUOUS
 10
3.8826972541
 20
-27.3236280866
 11
4.2166806432
 21
-27.3236280866
  0
LINE
  5
29B
100
AcDbEntity
  8
0
100
AcDbLine
 62
7
  6
CONTINUOUS
 10
-5.503668
 20
-26.078098
 11
-4.86882
 21
-26.078098
  0
LINE
  5
29C
100
AcDbEntity
  8
0
100
AcDbLine
 62
7
  6
CONTINUOUS
 10
-3.785169
 20
-26.078098
 11
-3.20116
 21
-26.078098
  0
LINE
  5
29D
100
AcDbEntity
  8
0
100
AcDbLine
 62
7
  6
CONTINUOUS
 10
-1.832475
 20
-26.078098
 11
-1.24855
 21
-26.078098
  0
LINE
  5
29E
100
AcDbEntity
  8
0
100
AcDbLine
 62
7
  6
CONTINUOUS
 10
-0.085906
 20
-26.078098
 11
0.492308
 21
-26.078098
  0
LINE
  5
29F
100
AcDbEntity
  8
0
100
AcDbLine
 62
7
  6
CONTINUOUS
 10
1.724045
 20
-26.078098
 11
2.28939
 21
-26.078098
  0
LINE
  5
2A0
100
AcDbEntity
  8
0
100
AcDbLine
 62
7
  6
CONTINUOUS
 10
-2.984285
 20
-26.07793
 11
-2.399877
 21
-26.07793
  0
LINE
  5
2A1
100
AcDbEntity
  8
0
100
AcDbLine
 62
253
  6
CONTINUOUS
 10
-33.1
 20
-23.928911885
 11
33.1
 21
-23.928911885
  0
LINE
  5
2A2
100
AcDbEntity
  8
0
100
AcDbLine
 62
253
  6
CONTINUOUS
 10
43.5723806636
 20
-22.6047651128
 11
35.0459366909
 21
-22.6048155586
  0
LINE
  5
2A3
100
AcDbEntity
  8
0
100
AcDbLine
 62
7
  6
CONTINUOUS
 10
-33.1000198446
 20
-22.55
 11
33.1000115581
 21
-22.55
  0
LINE
  5
2A4
100
AcDbEntity
  8
0
100
AcDbLine
 62
253
  6
CONTINUOUS
 10
-43.6526812821
 20
-22.6046951904
 11
-35.0459366909
 21
-22.6048155586
  0
LINE
  5
2A5
100
AcDbEntity
  8
0
100
AcDbLine
 62
253
  6
CONTINUOUS
 10
-43.7326781409
 20
-22.5280762814
 11
-43.5723832817
 21
-22.5285705486
  0
LINE
  5
2A6
100
AcDbEntity
  8
0
100
AcDbLine
 62
253
  6
CONTINUOUS
 10
-43.8120569806
 20
-22.6037090449
 11
-43.6526812821
 21
-22.6046951904
  0
LINE
  5
2A7
100
AcDbEntity
  8
0
100
AcDbLine
 62
253
  6
CONTINUOUS
 10
-43.890526573
 20
-22.5265962653
 11
-43.7326781409
 21
-22.5280762814
  0
LINE
  5
2A8
100
AcDbEntity
  8
0
100
AcDbLine
 62
253
  6
CONTINUOUS
 10
-43.9677747419
 20
-22.6017431363
 11
-43.8120569806
 21
-22.6037090449
  0
LINE
  5
2A9
100
AcDbEntity
  8
0
100
AcDbLine
 62
253
  6
CONTINUOUS
 10
-44.043519488
 20
-22.5241530881
 11
-43.890526573
 21
-22.5265962653
  0
LINE
  5
2AA
100
AcDbEntity
  8
0
100
AcDbLine
 62
253
  6
CONTINUOUS
 10
-44.1174580033
 20
-22.5988274684
 11
-43.9677747419
 21
-22.6017431363
  0
LINE
  5
2AB
100
AcDbEntity
  8
0
100
AcDbLine
 62
253
  6
CONTINUOUS
 10
-44.1893219013
 20
-22.5207840379
 11
-44.043519488
 21
-22.5241530881
  0
LWPOLYLINE
  5
2AC
100
AcDbEntity
  8
0
100
AcDbPolyline
 62
7
  6
CONTINUOUS
 90
10
 70
0
 10
4.34051343
 20
-26.5385722489
 10
4.2918186548
 20
-26.5336528119
 10
4.2425208437
 20
-26.5304058747
 10
4.192619997
 20
-26.5288314479
 10
4.1420366296
 20
-26.5289092666
 10
4.0908502265
 20
-26.5306596004
 10
4.039299242
 20
-26.534143254
 10
3.9874631608
 20
-26.5393804856
 10
3.9352624981
 20
-26.5463510074
 10
3.8826972541
 20
-26.5550547959
  0
LWPOLYLINE
  5
2AD
100
AcDbEntity
  8
0
100
AcDbPolyline
 62
7
  6
CONTINUOUS
 90
3
 70
0
 10
4.8225031649
 20
-27.5709244369
 10
4.8503114661
 20
-27.5842811145
 10
4.8762511777
 20
-27.5990524581
  0
LWPOLYLINE
  5
2AE
100
AcDbEntity
  8
0
100
AcDbPolyline
 62
253
  6
CONTINUOUS
 90
18
 70
0
 10
-33.8413075098
 20
22.0507660728
 10
-33.8424430428
 20
22.0555498294
 10
-33.8488567526
 20
22.0624561082
 10
-33.8605205105
 20
22.0714546201
 10
-33.8773831623
 20
22.0825059001
 10
-33.8993707531
 20
22.0955614803
 10
-33.9263868512
 20
22.1105641027
 10
-33.9583129713
 20
22.1274479697
 10
-33.9950090941
 20
22.1461390333
 10
-34.0363142803
 20
22.1665553198
 10
-34.0820473765
 20
22.1886072888
 10
-34.13200781
 20
22.2121982264
 10
-34.1859764676
 20
22.2372246692
 10
-34.2437166574
 20
22.2635768581
 10
-34.3049751468
 20
22.2911392196
 10
-34.3694832725
 20
22.3197908727
 10
-34.4369581194
 20
22.349406159
 10
-34.579612558
 20
22.4110044364
  0
LINE
  5
2AF
100
AcDbEntity
  8
0
100
AcDbLine
 62
253
  6
CONTINUOUS
 10
-34.4777586949
 20
-21.8023953716
 11
-34.6250247008
 21
-21.8065167746
  0
LINE
  5
2B0
100
AcDbEntity
  8
0
100
AcDbLine
 62
253
  6
CONTINUOUS
 10
-34.6250247008
 20
-21.8065167746
 11
-34.7821286936
 21
-21.8096711598
  0
LINE
  5
2B1
100
AcDbEntity
  8
0
100
AcDbLine
 62
253
  6
CONTINUOUS
 10
-34.7821286936
 20
-21.8096711598
 11
-34.9463825804
 21
-21.8118045549
  0
LWPOLYLINE
  5
2B2
100
AcDbEntity
  8
0
100
AcDbPolyline
 62
253
  6
CONTINUOUS
 90
3
 70
0
 10
-34.9463825804
 20
-21.8118045549
 10
-35.1149759317
 20
-21.812880457
 10
-35.2
 20
-21.8130153778
  0
LINE
  5
2B3
100
AcDbEntity
  8
0
100
AcDbLine
 62
253
  6
CONTINUOUS
 10
45.0
 20
-22.4691866652
 11
44.8674239464
 21
-22.4691866652
  0
LINE
  5
2B4
100
AcDbEntity
  8
0
100
AcDbLine
 62
253
  6
CONTINUOUS
 10
-45.0
 20
-22.4691866652
 11
-44.8674239464
 21
-22.4691866652
  0
LINE
  5
2B5
100
AcDbEntity
  8
0
100
AcDbLine
 62
253
  6
CONTINUOUS
 10
35.0303159361
 20
-21.8124762725
 11
35.2
 21
-21.8130153778
  0
LINE
  5
2B6
100
AcDbEntity
  8
0
100
AcDbLine
 62
253
  6
CONTINUOUS
 10
34.8635352168
 20
-21.8108681807
 11
35.0303159361
 21
-21.8124762725
  0
LINE
  5
2B7
100
AcDbEntity
  8
0
100
AcDbLine
 62
253
  6
CONTINUOUS
 10
34.7025115068
 20
-21.8082186173
 11
34.8635352168
 21
-21.8108681807
  0
LWPOLYLINE
  5
2B8
100
AcDbEntity
  8
0
100
AcDbPolyline
 62
7
  6
CONTINUOUS
 90
45
 70
0
 10
4.7628651691
 20
-26.1405068851
 10
4.7961809169
 20
-26.154127485
 10
4.8296836388
 20
-26.1707415405
 10
4.8633733349
 20
-26.1903489581
 10
4.8974436353
 20
-26.2128121292
 10
4.9317009099
 20
-26.2382684286
 10
4.9655642676
 20
-26.2671301925
 10
4.9993280833
 20
-26.2995497644
 10
5.0326979823
 20
-26.3353743966
 10
5.0642099493
 20
-26.374558737
 10
5.0939162993
 20
-26.4177445309
 10
5.1217647173
 20
-26.4642894614
 10
5.1461342445
 20
-26.5122222255
 10
5.1664549814
 20
-26.5616507918
 10
5.1832968274
 20
-26.6124669083
 10
5.1967485218
 20
-26.6623753348
 10
5.2064726092
 20
-26.7108758029
 10
5.2128065449
 20
-26.7584687736
 10
5.2168514338
 20
-26.8043604003
 10
5.21876091
 20
-26.8482819385
 10
5.2183813394
 20
-26.8905024416
 10
5.2163529256
 20
-26.9310348271
 10
5.212742311
 20
-26.969858301
 10
5.2074828532
 20
-27.0069939205
 10
5.2010148281
 20
-27.042517365
 10
5.1933559694
 20
-27.0764163863
 10
5.1844885435
 20
-27.1087034558
 10
5.1747996252
 20
-27.1394913133
 10
5.1643138121
 20
-27.1687747823
 10
5.1530065067
 20
-27.1965592212
 10
5.1411909919
 20
-27.222973151
 10
5.1289057615
 20
-27.2480098314
 10
5.1161123218
 20
-27.2716761468
 10
5.103008474
 20
-27.2941210359
 10
5.089605538
 20
-27.3153567887
 10
5.075892194
 20
-27.3353712248
 10
5.0620322832
 20
-27.3542765602
 10
5.0480187346
 20
-27.372040559
 10
5.0338586191
 20
-27.3886955426
 10
5.0197369915
 20
-27.4044505474
 10
5.0056595739
 20
-27.4193034762
 10
4.9916206441
 20
-27.4332564838
 10
4.9777880895
 20
-27.4465249686
 10
4.9641901538
 20
-27.459123431
 10
4.9507985934
 20
-27.4710374074
  0
LWPOLYLINE
  5
2B9
100
AcDbEntity
  8
0
100
AcDbPolyline
 62
7
  6
CONTINUOUS
 90
22
 70
0
 10
4.8762511777
 20
-27.5990524581
 10
4.9003222997
 20
-27.6152384228
 10
4.9223979577
 20
-27.6331066553
 10
4.9426050261
 20
-27.6523893981
 10
4.9613241279
 20
-27.6722835261
 10
4.9785380514
 20
-27.6926326463
 10
4.9942640082
 20
-27.713593102
 10
5.0089342566
 20
-27.7348309192
 10
5.0226076544
 20
-27.7563077438
 10
5.0352253437
 20
-27.7780619042
 10
5.0470430086
 20
-27.7998744749
 10
5.058089309
 20
-27.8217248545
 10
5.068335585
 20
-27.8436336381
 10
5.0779515405
 20
-27.8654437135
 10
5.0869439681
 20
-27.8871129009
 10
5.0953060754
 20
-27.9086833895
 10
5.1031871881
 20
-27.930124629
 10
5.1105806109
 20
-27.9513999813
 10
5.1174930392
 20
-27.9725460967
 10
5.1240938853
 20
-27.9936423552
 10
5.1303698195
 20
-28.0146867481
 10
5.1363341716
 20
-28.0356812876
  0
LWPOLYLINE
  5
2BA
100
AcDbEntity
  8
0
100
AcDbPolyline
 62
253
  6
CONTINUOUS
 90
16
 70
0
 10
-33.9
 20
-21.75
 10
-33.9027833998
 20
-21.7541214029
 10
-33.9111216801
 20
-21.7582251573
 10
-33.9249791352
 20
-21.7622936903
 10
-33.9442964253
 20
-21.7663095798
 10
-33.9689908309
 20
-21.7702556292
 10
-33.9989566068
 20
-21.7741149409
 10
-34.0340654348
 20
-21.7778709888
 10
-34.0741669736
 20
-21.7815076888
 10
-34.1190895023
 20
-21.785009468
 10
-34.1686406558
 20
-21.7883613313
 10
-34.2226082483
 20
-21.7915489255
 10
-34.2807611823
 20
-21.7945586008
 10
-34.3428504382
 20
-21.7973774694
 10
-34.4086101401
 20
-21.7999934604
 10
-34.4777586949
 20
-21.8023953716
  0
LWPOLYLINE
  5
2BB
100
AcDbEntity
  8
0
100
AcDbPolyline
 62
253
  6
CONTINUOUS
 90
18
 70
0
 10
-33.9
 20
21.75
 10
-33.9027833993
 20
21.7541214026
 10
-33.9111216783
 20
21.7582251567
 10
-33.9249791313
 20
21.7622936895
 10
-33.9442964186
 20
21.7663095788
 10
-33.9689908208
 20
21.7702556281
 10
-33.9989565927
 20
21.7741149396
 10
-34.0340654165
 20
21.7778709873
 10
-34.0741669509
 20
21.7815076872
 10
-34.1190894751
 20
21.7850094664
 10
-34.1686406242
 20
21.7883613297
 10
-34.2226082127
 20
21.7915489239
 10
-34.2807611432
 20
21.7945585993
 10
-34.3428503962
 20
21.797377468
 10
-34.408610096
 20
21.7999934591
 10
-34.4777586497
 20
21.8023953706
 10
-34.5499999527
 20
21.804572917
 10
-34.7025114944
 20
21.8082186172
  0
LINE
  5
2BC
100
AcDbEntity
  8
0
100
AcDbLine
 62
7
  6
CONTINUOUS
 10
-5.503668
 20
-26.078098
 11
-4.616107
 21
-28.877801
  0
LINE
  5
2BD
100
AcDbEntity
  8
0
100
AcDbLine
 62
7
  6
CONTINUOUS
 10
-4.86882
 20
-26.078098
 11
-4.335146
 21
-28.00522
  0
LINE
  5
2BE
100
AcDbEntity
  8
0
100
AcDbLine
 62
253
  6
CONTINUOUS
 10
34.3694836667
 20
22.3197911688
 11
34.5071040133
 21
22.3798554448
  0
LINE
  5
2BF
100
AcDbEntity
  8
0
100
AcDbLine
 62
253
  6
CONTINUOUS
 10
34.5071040133
 20
22.3798554448
 11
34.6541666383
 21
22.4427174866
  0
LINE
  5
2C0
100
AcDbEntity
  8
0
100
AcDbLine
 62
253
  6
CONTINUOUS
 10
34.6541666383
 20
22.4427174866
 11
34.8080944718
 21
22.5072757236
  0
LWPOLYLINE
  5
2C1
100
AcDbEntity
  8
0
100
AcDbPolyline
 62
253
  6
CONTINUOUS
 90
3
 70
0
 10
34.8080944718
 20
22.5072757236
 10
34.9661901405
 20
22.5723988617
 10
35.0459366909
 20
22.6048154853
  0
LINE
  5
2C2
100
AcDbEntity
  8
0
100
AcDbLine
 62
253
  6
CONTINUOUS
 10
34.8867933096
 20
-22.5398377997
 11
35.045936691
 21
-22.6048152823
  0
LINE
  5
2C3
100
AcDbEntity
  8
0
100
AcDbLine
 62
253
  6
CONTINUOUS
 10
34.7304386186
 20
-22.4748545898
 11
34.8867933096
 21
-22.5398377997
  0
LINE
  5
2C4
100
AcDbEntity
  8
0
100
AcDbLine
 62
253
  6
CONTINUOUS
 10
34.5796125289
 20
-22.4110043978
 11
34.7304386186
 21
-22.4748545898
  0
LWPOLYLINE
  5
2C5
100
AcDbEntity
  8
0
100
AcDbPolyline
 62
7
  6
CONTINUOUS
 90
19
 70
0
 10
4.5414020599
 20
-28.0286629471
 10
4.5320519407
 20
-28.0057166772
 10
4.5215481441
 20
-27.9834837452
 10
4.5098906699
 20
-27.9619641871
 10
4.4970574787
 20
-27.9410556066
 10
4.4830706101
 20
-27.9208604649
 10
4.4679961823
 20
-27.9016860967
 10
4.451846438
 20
-27.8835081823
 10
4.4346091346
 20
-27.8663511256
 10
4.4163136623
 20
-27.8505953704
 10
4.3968777141
 20
-27.8362473075
 10
4.376383597
 20
-27.8233006393
 10
4.3551076222
 20
-27.8121167944
 10
4.3329998349
 20
-27.8028387173
 10
4.3101101899
 20
-27.7953235448
 10
4.2868648627
 20
-27.7895039922
 10
4.2634059115
 20
-27.7853576433
 10
4.2395912781
 20
-27.7829069511
 10
4.2154209623
 20
-27.7821519248
  0
LINE
  5
2C6
100
AcDbEntity
  8
0
100
AcDbLine
 62
7
  6
CONTINUOUS
 10
-1.400068
 20
-27.049647
 11
-0.714487
 21
-28.877801
  0
LINE
  5
2C7
100
AcDbEntity
  8
0
100
AcDbLine
 62
7
  6
CONTINUOUS
 10
-1.24855
 20
-26.078098
 11
-0.670314
 21
-27.632502
  0
LINE
  5
2C8
100
AcDbEntity
  8
0
100
AcDbLine
 62
7
  6
CONTINUOUS
 10
2.28939
 20
-26.078098
 11
3.148408
 21
-28.877801
  0
LINE
  5
2C9
100
AcDbEntity
  8
0
100
AcDbLine
 62
7
  6
CONTINUOUS
 10
2.381074
 20
-28.318881
 11
2.532466
 21
-28.877801
  0
LINE
  5
2CA
100
AcDbEntity
  8
0
100
AcDbLine
 62
7
  6
CONTINUOUS
 10
0.492308
 20
-26.078098
 11
0.754112
 21
-28.877801
  0
LINE
  5
2CB
100
AcDbEntity
  8
0
100
AcDbLine
 62
7
  6
CONTINUOUS
 10
0.062337
 20
-27.057269
 11
0.182406
 21
-28.877801
  0
LINE
  5
2CC
100
AcDbEntity
  8
0
100
AcDbLine
 62
7
  6
CONTINUOUS
 10
-2.984285
 20
-26.07793
 11
-2.984285
 21
-28.877801
  0
LINE
  5
2CD
100
AcDbEntity
  8
0
100
AcDbLine
 62
7
  6
CONTINUOUS
 10
-2.399877
 20
-26.07793
 11
-2.399877
 21
-28.877801
  0
LINE
  5
2CE
100
AcDbEntity
  8
0
100
AcDbLine
 62
7
  6
CONTINUOUS
 10
-1.400068
 20
-27.049647
 11
-1.526183
 21
-28.877801
  0
LINE
  5
2CF
100
AcDbEntity
  8
0
100
AcDbLine
 62
7
  6
CONTINUOUS
 10
-1.832475
 20
-26.078098
 11
-2.085272
 21
-28.877801
  0
LWPOLYLINE
  5
2D0
100
AcDbEntity
  8
0
100
AcDbPolyline
 62
7
  6
CONTINUOUS
 90
8
 70
0
 10
4.6309655834
 20
-28.30345279
 10
4.6192811843
 20
-28.2638881338
 10
4.607340274
 20
-28.2244310687
 10
4.5951426065
 20
-28.1850866386
 10
4.5824716086
 20
-28.145839168
 10
4.5692550894
 20
-28.1066834395
 10
4.5555652398
 20
-28.0676246951
 10
4.5414020599
 20
-28.0286629471
  0
LINE
  5
2D1
100
AcDbEntity
  8
0
100
AcDbLine
 62
7
  6
CONTINUOUS
 10
4.7970156219
 20
-28.8778013544
 11
4.6995570098
 21
-28.5437583918
  0
LWPOLYLINE
  5
2D2
100
AcDbEntity
  8
0
100
AcDbPolyline
 62
7
  6
CONTINUOUS
 90
4
 70
0
 10
4.6995570098
 20
-28.5437583918
 10
4.6764575508
 20
-28.4630152256
 10
4.6651392089
 20
-28.4229112884
 10
4.6309655834
 20
-28.30345279
  0
LWPOLYLINE
  5
2D3
100
AcDbEntity
  8
0
100
AcDbPolyline
 62
7
  6
CONTINUOUS
 90
3
 70
0
 10
5.1363341716
 20
-28.0356812876
 10
5.1480261335
 20
-28.0778054834
 10
5.1537537433
 20
-28.0989351341
  0
LINE
  5
2D4
100
AcDbEntity
  8
0
100
AcDbLine
 62
7
  6
CONTINUOUS
 10
5.1537537433
 20
-28.0989351341
 11
5.2289151581
 21
-28.3807993252
  0
LINE
  5
2D5
100
AcDbEntity
  8
0
100
AcDbLine
 62
7
  6
CONTINUOUS
 10
5.2289151581
 20
-28.3807993252
 11
5.3591482119
 21
-28.8778013544
  0
LINE
  5
2D6
100
AcDbEntity
  8
0
100
AcDbLine
 62
7
  6
CONTINUOUS
 10
1.995737
 20
-26.847385
 11
2.26428
 21
-27.886391
  0
LWPOLYLINE
  5
2D7
100
AcDbEntity
  8
0
100
AcDbPolyline
 62
7
  6
CONTINUOUS
 90
19
 70
0
 10
4.6706521441
 20
-26.8887857334
 10
4.6691853206
 20
-26.8617039454
 10
4.6655679316
 20
-26.8347738999
 10
4.659799977
 20
-26.8079956061
 10
4.651939425
 20
-26.7812020435
 10
4.6419283073
 20
-26.7545602454
 10
4.6295927197
 20
-26.7285713287
 10
4.6148047891
 20
-26.7030492355
 10
4.5976923885
 20
-26.678180086
 10
4.5784652322
 20
-26.6550233413
 10
4.5568979748
 20
-26.6337808057
 10
4.5332159618
 20
-26.6142508314
 10
4.5083049435
 20
-26.5968877612
 10
4.4822486068
 20
-26.5818636194
 10
4.4549632649
 20
-26.569006523
 10
4.4270836073
 20
-26.5582549551
 10
4.3988211972
 20
-26.5495884361
 10
4.3699644714
 20
-26.5430275251
 10
4.34051343
 20
-26.5385722489
  0
LINE
  5
2D8
100
AcDbEntity
  8
0
100
AcDbLine
 62
7
  6
CONTINUOUS
 10
3.3200188023
 20
-26.110807341
 11
3.3200188023
 21
-28.8778013544
  0
LINE
  5
2D9
100
AcDbEntity
  8
0
100
AcDbLine
 62
7
  6
CONTINUOUS
 10
3.8826972541
 20
-26.5550547959
 11
3.8826972541
 21
-27.3236280866
  0
LINE
  5
2DA
100
AcDbEntity
  8
0
100
AcDbLine
 62
7
  6
CONTINUOUS
 10
3.9020753449
 20
-27.7821519248
 11
3.9020753449
 21
-28.8778013544
  0
LINE
  5
2DB
100
AcDbEntity
  8
0
100
AcDbLine
 62
7
  6
CONTINUOUS
 10
4.8225031649
 20
-27.554380628
 11
4.8225031649
 21
-27.5709244369
  0
LINE
  5
2DC
100
AcDbEntity
  8
0
100
AcDbLine
 62
7
  6
CONTINUOUS
 10
-3.785169
 20
-26.078098
 11
-4.335146
 21
-28.00522
  0
LINE
  5
2DD
100
AcDbEntity
  8
0
100
AcDbLine
 62
7
  6
CONTINUOUS
 10
-3.20116
 20
-26.078098
 11
-4.101097
 21
-28.877801
  0
LINE
  5
2DE
100
AcDbEntity
  8
0
100
AcDbLine
 62
7
  6
CONTINUOUS
 10
1.995737
 20
-26.847385
 11
1.704751
 21
-27.886391
  0
LINE
  5
2DF
100
AcDbEntity
  8
0
100
AcDbLine
 62
7
  6
CONTINUOUS
 10
1.585207
 20
-28.318881
 11
1.423947
 21
-28.877801
  0
LINE
  5
2E0
100
AcDbEntity
  8
0
100
AcDbLine
 62
7
  6
CONTINUOUS
 10
1.724045
 20
-26.078098
 11
0.84588
 21
-28.877801
  0
LINE
  5
2E1
100
AcDbEntity
  8
0
100
AcDbLine
 62
7
  6
CONTINUOUS
 10
-0.085906
 20
-26.078098
 11
-0.670314
 21
-27.632502
  0
LINE
  5
2E2
100
AcDbEntity
  8
0
100
AcDbLine
 62
7
  6
CONTINUOUS
 10
0.062337
 20
-27.057269
 11
-0.632524
 21
-28.877801
  0
LINE
  5
2E3
100
AcDbEntity
  8
0
100
AcDbLine
 62
253
  6
CONTINUOUS
 10
-34.3694836818
 20
-22.3197911794
 11
-34.5071040233
 21
-22.3798554539
  0
LINE
  5
2E4
100
AcDbEntity
  8
0
100
AcDbLine
 62
253
  6
CONTINUOUS
 10
-34.5071040233
 20
-22.3798554539
 11
-34.6541666439
 21
-22.4427174945
  0
LINE
  5
2E5
100
AcDbEntity
  8
0
100
AcDbLine
 62
253
  6
CONTINUOUS
 10
-34.6541666439
 20
-22.4427174945
 11
-34.808094474
 21
-22.5072757308
  0
LWPOLYLINE
  5
2E6
100
AcDbEntity
  8
0
100
AcDbPolyline
 62
253
  6
CONTINUOUS
 90
3
 70
0
 10
-34.808094474
 20
-22.5072757308
 10
-34.9661901408
 20
-22.5723988688
 10
-35.0459366909
 20
-22.6048154925
  0
LINE
  5
2E7
100
AcDbEntity
  8
0
100
AcDbLine
 62
253
  6
CONTINUOUS
 10
-34.8867933125
 20
22.5398378308
 11
-35.045936691
 21
22.6048153131
  0
LINE
  5
2E8
100
AcDbEntity
  8
0
100
AcDbLine
 62
253
  6
CONTINUOUS
 10
-34.7304386316
 20
22.4748546237
 11
-34.8867933125
 21
22.5398378308
  0
LINE
  5
2E9
100
AcDbEntity
  8
0
100
AcDbLine
 62
253
  6
CONTINUOUS
 10
-34.579612558
 20
22.4110044364
 11
-34.7304386316
 21
22.4748546237
  0
LWPOLYLINE
  5
2EA
100
AcDbEntity
  8
0
100
AcDbPolyline
 62
253
  6
CONTINUOUS
 90
16
 70
0
 10
33.9
 20
21.75
 10
33.9027833998
 20
21.7541214029
 10
33.9111216801
 20
21.7582251573
 10
33.9249791352
 20
21.7622936903
 10
33.9442964253
 20
21.7663095798
 10
33.9689908309
 20
21.7702556292
 10
33.9989566068
 20
21.7741149409
 10
34.0340654348
 20
21.7778709888
 10
34.0741669736
 20
21.7815076888
 10
34.1190895023
 20
21.785009468
 10
34.1686406558
 20
21.7883613313
 10
34.2226082483
 20
21.7915489255
 10
34.2807611823
 20
21.7945586008
 10
34.3428504382
 20
21.7973774694
 10
34.4086101401
 20
21.7999934604
 10
34.4777586949
 20
21.8023953716
  0
LWPOLYLINE
  5
2EB
100
AcDbEntity
  8
0
100
AcDbPolyline
 62
253
  6
CONTINUOUS
 90
18
 70
0
 10
33.9
 20
-21.75
 10
33.9027833994
 20
-21.7541214027
 10
33.9111216789
 20
-21.7582251569
 10
33.9249791325
 20
-21.7622936897
 10
33.9442964207
 20
-21.7663095791
 10
33.9689908239
 20
-21.7702556284
 10
33.998956597
 20
-21.77411494
 10
34.0340654221
 20
-21.7778709878
 10
34.0741669578
 20
-21.7815076877
 10
34.1190894834
 20
-21.7850094669
 10
34.1686406338
 20
-21.7883613302
 10
34.2226082234
 20
-21.7915489244
 10
34.280761155
 20
-21.7945585998
 10
34.3428504088
 20
-21.7973774684
 10
34.4086101092
 20
-21.7999934595
 10
34.4777586632
 20
-21.8023953709
 10
34.5499999662
 20
-21.8045729173
 10
34.7025115068
 20
-21.8082186173
  0
LWPOLYLINE
  5
2EC
100
AcDbEntity
  8
0
100
AcDbPolyline
 62
7
  6
CONTINUOUS
 90
10
 70
0
 10
4.9507985934
 20
-27.4710374074
 10
4.9249782894
 20
-27.4934105869
 10
4.9125495459
 20
-27.5038698128
 10
4.9002108208
 20
-27.5137399031
 10
4.8880869676
 20
-27.5232196067
 10
4.8760531327
 20
-27.5321101962
 10
4.8635352424
 20
-27.5397388562
 10
4.8503419387
 20
-27.5458813327
 10
4.8366645795
 20
-27.5507619189
 10
4.8225031649
 20
-27.554380628
  0
LINE
  5
2ED
100
AcDbEntity
  8
0
100
AcDbLine
 62
253
  6
CONTINUOUS
 10
-44.3257085684
 20
22.516540533
 11
-44.1893218998
 21
22.5207840377
  0
LINE
  5
2EE
100
AcDbEntity
  8
0
100
AcDbLine
 62
253
  6
CONTINUOUS
 10
-44.3257047555
 20
22.5927743113
 11
-44.1893182488
 21
22.597026833
  0
LINE
  5
2EF
100
AcDbEntity
  8
0
100
AcDbLine
 62
253
  6
CONTINUOUS
 10
34.4777586949
 20
21.8023953716
 11
34.6250247008
 21
21.8065167746
  0
LINE
  5
2F0
100
AcDbEntity
  8
0
100
AcDbLine
 62
253
  6
CONTINUOUS
 10
-44.1893218998
 20
22.5207840377
 11
-44.0435194867
 21
22.5241530879
  0
LINE
  5
2F1
100
AcDbEntity
  8
0
100
AcDbLine
 62
253
  6
CONTINUOUS
 10
-44.1893182488
 20
22.597026833
 11
-44.0435160475
 21
22.6004015755
  0
LINE
  5
2F2
100
AcDbEntity
  8
0
100
AcDbLine
 62
253
  6
CONTINUOUS
 10
34.6250247008
 20
21.8065167746
 11
34.7821286936
 21
21.8096711598
  0
LINE
  5
2F3
100
AcDbEntity
  8
0
100
AcDbLine
 62
253
  6
CONTINUOUS
 10
-44.0435194867
 20
22.5241530879
 11
-43.8905265721
 21
22.526596265
  0
LINE
  5
2F4
100
AcDbEntity
  8
0
100
AcDbLine
 62
253
  6
CONTINUOUS
 10
-44.0435160475
 20
22.6004015755
 11
-43.8905233832
 21
22.6028470336
  0
LINE
  5
2F5
100
AcDbEntity
  8
0
100
AcDbLine
 62
253
  6
CONTINUOUS
 10
34.7821286936
 20
21.8096711598
 11
34.9463825804
 21
21.8118045549
  0
LINE
  5
2F6
100
AcDbEntity
  8
0
100
AcDbLine
 62
253
  6
CONTINUOUS
 10
-43.8905265721
 20
22.526596265
 11
-43.7326781405
 21
22.5280762812
  0
LINE
  5
2F7
100
AcDbEntity
  8
0
100
AcDbLine
 62
253
  6
CONTINUOUS
 10
-43.8905233832
 20
22.6028470336
 11
-43.7326752282
 21
22.6043258847
  0
LWPOLYLINE
  5
2F8
100
AcDbEntity
  8
0
100
AcDbPolyline
 62
253
  6
CONTINUOUS
 90
3
 70
0
 10
34.9463825804
 20
21.8118045549
 10
35.1149759317
 20
21.812880457
 10
35.2
 20
21.8130153778
  0
LINE
  5
2F9
100
AcDbEntity
  8
0
100
AcDbLine
 62
253
  6
CONTINUOUS
 10
-43.7326781405
 20
22.5280762812
 11
-43.5723832817
 21
22.5285705483
  0
LINE
  5
2FA
100
AcDbEntity
  8
0
100
AcDbLine
 62
253
  6
CONTINUOUS
 10
-43.7326752282
 20
22.6043258847
 11
-43.5723806593
 21
22.6048155586
  0
LINE
  5
2FB
100
AcDbEntity
  8
0
100
AcDbLine
 62
253
  6
CONTINUOUS
 10
45.0
 20
22.4691866652
 11
44.8674239464
 21
22.4691866652
  0
LINE
  5
2FC
100
AcDbEntity
  8
0
100
AcDbLine
 62
253
  6
CONTINUOUS
 10
-45.0
 20
22.4691866652
 11
-44.8674239464
 21
22.4691866652
  0
LINE
  5
2FD
100
AcDbEntity
  8
0
100
AcDbLine
 62
7
  6
CONTINUOUS
 10
33.1000195291
 20
22.55
 11
-33.1000116714
 21
22.55
  0
LINE
  5
2FE
100
AcDbEntity
  8
0
100
AcDbLine
 62
253
  6
CONTINUOUS
 10
-35.0459366909
 20
22.6048155586
 11
-43.5723806614
 21
22.6047671027
  0
LINE
  5
2FF
100
AcDbEntity
  8
0
100
AcDbLine
 62
253
  6
CONTINUOUS
 10
33.1
 20
23.928911885
 11
-33.1
 21
23.928911885
  0
LINE
  5
300
100
AcDbEntity
  8
0
100
AcDbLine
 62
253
  6
CONTINUOUS
 10
43.6526812823
 20
22.6046951906
 11
35.0459366909
 21
22.6048155586
  0
LINE
  5
301
100
AcDbEntity
  8
0
100
AcDbLine
 62
253
  6
CONTINUOUS
 10
43.7326781409
 20
22.5280762814
 11
43.5723832817
 21
22.5285705486
  0
LINE
  5
302
100
AcDbEntity
  8
0
100
AcDbLine
 62
253
  6
CONTINUOUS
 10
-35.0303159305
 20
21.8124762725
 11
-35.2
 21
21.8130153778
  0
LINE
  5
303
100
AcDbEntity
  8
0
100
AcDbLine
 62
253
  6
CONTINUOUS
 10
43.812056981
 20
22.603709045
 11
43.6526812823
 21
22.6046951906
  0
LINE
  5
304
100
AcDbEntity
  8
0
100
AcDbLine
 62
253
  6
CONTINUOUS
 10
43.890526573
 20
22.5265962653
 11
43.7326781409
 21
22.5280762814
  0
LINE
  5
305
100
AcDbEntity
  8
0
100
AcDbLine
 62
253
  6
CONTINUOUS
 10
-34.863535207
 20
21.8108681806
 11
-35.0303159305
 21
21.8124762725
  0
LINE
  5
306
100
AcDbEntity
  8
0
100
AcDbLine
 62
253
  6
CONTINUOUS
 10
43.9677747426
 20
22.6017431365
 11
43.812056981
 21
22.603709045
  0
LINE
  5
307
100
AcDbEntity
  8
0
100
AcDbLine
 62
253
  6
CONTINUOUS
 10
44.043519488
 20
22.5241530881
 11
43.890526573
 21
22.5265962653
  0
LINE
  5
308
100
AcDbEntity
  8
0
100
AcDbLine
 62
253
  6
CONTINUOUS
 10
-34.7025114944
 20
21.8082186172
 11
-34.863535207
 21
21.8108681806
  0
LINE
  5
309
100
AcDbEntity
  8
0
100
AcDbLine
 62
253
  6
CONTINUOUS
 10
44.1174580043
 20
22.5988274686
 11
43.9677747426
 21
22.6017431365
  0
LINE
  5
30A
100
AcDbEntity
  8
0
100
AcDbLine
 62
253
  6
CONTINUOUS
 10
44.1893219013
 20
22.5207840379
 11
44.043519488
 21
22.5241530881
  0
LWPOLYLINE
  5
30B
100
AcDbEntity
  8
0
100
AcDbPolyline
 62
253
  6
CONTINUOUS
 90
16
 70
0
 10
33.8413087425
 20
22.050766573
 10
33.8424442639
 20
22.0555503351
 10
33.8488579536
 20
22.0624566159
 10
33.860521683
 20
22.0714551263
 10
33.8773842984
 20
22.0825064015
 10
33.899371845
 20
22.0955619738
 10
33.9263878918
 20
22.1105645851
 10
33.9583139541
 20
22.1274484383
 10
33.9950100134
 20
22.1461394856
 10
34.0363151313
 20
22.1665557535
 10
34.0820481552
 20
22.188607702
 10
34.1320085132
 20
22.2121986176
 10
34.1859770935
 20
22.2372250373
 10
34.2437172053
 20
22.2635772023
 10
34.304975617
 20
22.2911395397
 10
34.3694836667
 20
22.3197911688
  0
LWPOLYLINE
  5
30C
100
AcDbEntity
  8
0
100
AcDbPolyline
 62
253
  6
CONTINUOUS
 90
25
 70
0
 10
-33.1
 20
23.928911885
 10
-33.2012702663
 20
23.9265182686
 10
-33.3022456498
 20
23.9191208992
 10
-33.4029261505
 20
23.9067197234
 10
-33.5035386402
 20
23.8893338611
 10
-33.6038562471
 20
23.8669439785
 10
-33.703198356
 20
23.839492286
 10
-33.8016978622
 20
23.8068744054
 10
-33.8992218704
 20
23.7691942815
 10
-33.99469108
 20
23.726706569
 10
-34.0880123153
 20
23.679362446
 10
-34.1792787519
 20
23.6272101367
 10
-34.2676906158
 20
23.5706498639
 10
-34.3532083486
 20
23.5096373182
 10
-34.4358715087
 20
23.444216119
 10
-34.5149989974
 20
23.3749184266
 10
-34.5905610978
 20
23.3016897915
 10
-34.6625875268
 20
23.2245839657
 10
-34.7304863372
 20
23.1442955101
 10
-34.7942112734
 20
23.0607701633
 10
-34.853808591
 20
22.974061577
 10
-34.9088251096
 20
22.8850263391
 10
-34.959109769
 20
22.7939498774
 10
-35.0048136295
 20
22.7005463552
 10
-35.0459366909
 20
22.6048155586
  0
LWPOLYLINE
  5
30D
100
AcDbEntity
  8
0
100
AcDbPolyline
 62
253
  6
CONTINUOUS
 90
18
 70
0
 10
33.8413073214
 20
-22.0507659963
 10
33.8424428561
 20
-22.055549752
 10
33.848856569
 20
-22.0624560303
 10
33.8605203313
 20
-22.0714545422
 10
33.8773829887
 20
-22.0825058227
 10
33.8993705862
 20
-22.095561404
 10
33.926386692
 20
-22.1105640278
 10
33.9583128209
 20
-22.1274478968
 10
33.9950089534
 20
-22.1461389627
 10
34.03631415
 20
-22.1665552518
 10
34.0820472573
 20
-22.1886072238
 10
34.1320077022
 20
-22.2121981646
 10
34.1859763716
 20
-22.2372246108
 10
34.2437165734
 20
-22.2635768031
 10
34.3049750747
 20
-22.2911391681
 10
34.369483212
 20
-22.3197908246
 10
34.4369580701
 20
-22.3494061143
 10
34.5796125289
 20
-22.4110043978
  0
LWPOLYLINE
  5
30E
100
AcDbEntity
  8
0
100
AcDbPolyline
 62
253
  6
CONTINUOUS
 90
16
 70
0
 10
35.2
 20
21.8130153778
 10
35.1997147829
 20
21.8555784513
 10
35.1983479625
 20
21.8994274576
 10
35.1958995389
 20
21.944562378
 10
35.1924958424
 20
21.9908389301
 10
35.1880105427
 20
22.0384013585
 10
35.1820646486
 20
22.0876824265
 10
35.1746738561
 20
22.1388667494
 10
35.1658224692
 20
22.191769652
 10
35.1550844088
 20
22.2462699556
 10
35.1424749469
 20
22.3023923481
 10
35.1279788115
 20
22.3601120812
 10
35.1111241077
 20
22.4192338271
 10
35.0917535372
 20
22.4796924587
 10
35.0700243982
 20
22.5415530459
 10
35.0459366909
 20
22.6048155586
  0
LINE
  5
30F
100
AcDbEntity
  8
0
100
AcDbLine
 62
253
  6
CONTINUOUS
 10
33.1
 20
-22.55
 11
33.1
 21
-23.928911885
  0
LINE
  5
310
100
AcDbEntity
  8
0
100
AcDbLine
 62
253
  6
CONTINUOUS
 10
33.1
 20
22.55
 11
33.1
 21
23.928911885
  0
LINE
  5
311
100
AcDbEntity
  8
0
100
AcDbLine
 62
7
  6
CONTINUOUS
 10
33.9
 20
-21.7500108443
 11
33.9
 21
21.7500003063
  0
LINE
  5
312
100
AcDbEntity
  8
0
100
AcDbLine
 62
253
  6
CONTINUOUS
 10
35.2
 20
-21.8130153778
 11
35.2
 21
21.8130153778
  0
LWPOLYLINE
  5
313
100
AcDbEntity
  8
0
100
AcDbPolyline
 62
253
  6
CONTINUOUS
 90
10
 70
0
 10
35.0459366909
 20
-22.6048155586
 10
35.0777100172
 20
-22.5214247697
 10
35.1058814258
 20
-22.4366673803
 10
35.1304509165
 20
-22.350543355
 10
35.1515009926
 20
-22.2627594289
 10
35.1689491509
 20
-22.1736087889
 10
35.1825478817
 20
-22.0839711015
 10
35.1922146819
 20
-21.9941395935
 10
35.1980320547
 20
-21.9038210224
 10
35.2
 20
-21.8130153778
  0
LWPOLYLINE
  5
314
100
AcDbEntity
  8
0
100
AcDbPolyline
 62
253
  6
CONTINUOUS
 90
15
 70
0
 10
44.8674210162
 20
-22.5452814834
 10
44.8579403878
 20
-22.5492884354
 10
44.8435500222
 20
-22.5532580526
 10
44.8243048781
 20
-22.5571751746
 10
44.8002784556
 20
-22.5610248413
 10
44.7715625149
 20
-22.5647923503
 10
44.7382667265
 20
-22.5684633128
 10
44.7005182517
 20
-22.5720237091
 10
44.6584612574
 20
-22.5754599413
 10
44.6122563652
 20
-22.5787588861
 10
44.5620800382
 20
-22.5819079443
 10
44.5081239072
 20
-22.5848950891
 10
44.4505940383
 20
-22.5877089124
 10
44.3897101463
 20
-22.5903386676
 10
44.3257047555
 20
-22.5927743113
  0
LWPOLYLINE
  5
315
100
AcDbEntity
  8
0
100
AcDbPolyline
 62
253
  6
CONTINUOUS
 90
15
 70
0
 10
44.867423946
 20
-22.4691866652
 10
44.8579435109
 20
-22.4731804797
 10
44.8435533187
 20
-22.4771372771
 10
44.824308328
 20
-22.4810419458
 10
44.8002820382
 20
-22.4848795732
 10
44.7715662097
 20
-22.4886355029
 10
44.7382705126
 20
-22.4922953904
 10
44.7005221085
 20
-22.495845258
 10
44.6584651645
 20
-22.4992715481
 10
44.6122603027
 20
-22.5025611753
 10
44.5620839868
 20
-22.5057015759
 10
44.5081278479
 20
-22.5086807562
 10
44.4505979531
 20
-22.5114873384
 10
44.3897140182
 20
-22.5141106035
 10
44.3257085684
 20
-22.516540533
  0
LWPOLYLINE
  5
316
100
AcDbEntity
  8
0
100
AcDbPolyline
 62
253
  6
CONTINUOUS
 90
16
 70
0
 10
44.8674239464
 20
22.4691866652
 10
44.8579435116
 20
22.4731804797
 10
44.8435533197
 20
22.4771372771
 10
44.8243083292
 20
22.4810419458
 10
44.8002820397
 20
22.4848795733
 10
44.7715662113
 20
22.488635503
 10
44.7382705144
 20
22.4922953905
 10
44.7005221104
 20
22.4958452581
 10
44.6584651665
 20
22.4992715482
 10
44.6122603047
 20
22.5025611754
 10
44.5620839888
 20
22.505701576
 10
44.5081278499
 20
22.5086807564
 10
44.4505979551
 20
22.5114873385
 10
44.3897140201
 20
22.5141106037
 10
44.3257085702
 20
22.5165405332
 10
44.1893219013
 20
22.5207840379
  0
LWPOLYLINE
  5
317
100
AcDbEntity
  8
0
100
AcDbPolyline
 62
253
  6
CONTINUOUS
 90
17
 70
0
 10
44.8674210139
 20
22.5452814834
 10
44.8579403837
 20
22.5492884353
 10
44.8435500165
 20
22.5532580525
 10
44.824304871
 20
22.5571751744
 10
44.8002784473
 20
22.561024841
 10
44.7715625056
 20
22.5647923499
 10
44.7382667164
 20
22.5684633123
 10
44.7005182409
 20
22.5720237085
 10
44.6584612461
 20
22.5754599406
 10
44.6122563536
 20
22.5787588853
 10
44.5620800265
 20
22.5819079434
 10
44.5081238956
 20
22.5848950882
 10
44.4505940268
 20
22.5877089113
 10
44.3897101352
 20
22.5903386664
 10
44.3257047449
 20
22.5927743101
 10
44.2588223019
 20
22.5950065403
 10
44.1174580043
 20
22.5988274686
  0
LWPOLYLINE
  5
318
100
AcDbEntity
  8
0
100
AcDbPolyline
 62
253
  6
CONTINUOUS
 90
25
 70
0
 10
35.0459366909
 20
22.6048155586
 10
35.0049981783
 20
22.7001553901
 10
34.9595005746
 20
22.7932051152
 10
34.9094438796
 20
22.8839649433
 10
34.8546860411
 20
22.9727150692
 10
34.7953691114
 20
23.0591756982
 10
34.731919247
 20
23.1425071482
 10
34.6642862256
 20
23.2226650772
 10
34.5925202696
 20
23.2996944238
 10
34.517198203
 20
23.3728895837
 10
34.4382839048
 20
23.4421998867
 10
34.355813496
 20
23.507676692
 10
34.2704721633
 20
23.5687675412
 10
34.1822272833
 20
23.6254234579
 10
34.0911114795
 20
23.6776941057
 10
33.9979078087
 20
23.7251750339
 10
33.9025791582
 20
23.7678126762
 10
33.8051626407
 20
23.805661196
 10
33.7065526513
 20
23.8384777372
 10
33.6067368995
 20
23.8661932734
 10
33.5057276759
 20
23.888877264
 10
33.4044562474
 20
23.9064945434
 10
33.3032330364
 20
23.9190334638
 10
33.2017476206
 20
23.9265058928
 10
33.1
 20
23.928911885
  0
LINE
  5
319
100
AcDbEntity
  8
0
100
AcDbLine
 62
253
  6
CONTINUOUS
 10
43.5694932453
 20
-42.7972307399
 11
43.5723678573
 21
-43.6638491808
  0
LINE
  5
31A
100
AcDbEntity
  8
0
100
AcDbLine
 62
253
  6
CONTINUOUS
 10
44.8646431873
 20
-42.8331115734
 11
44.8673198351
 21
-43.3983203603
  0
LINE
  5
31B
100
AcDbEntity
  8
0
100
AcDbLine
 62
253
  6
CONTINUOUS
 10
43.4
 20
-45.0
 11
43.4
 21
-43.8489320825
  0
LINE
  5
31C
100
AcDbEntity
  8
0
100
AcDbLine
 62
253
  6
CONTINUOUS
 10
43.4
 20
45.0
 11
43.4
 21
43.8489320825
  0
LINE
  5
31D
100
AcDbEntity
  8
0
100
AcDbLine
 62
253
  6
CONTINUOUS
 10
43.5694932453
 20
42.7972307399
 11
43.5718057585
 21
29.3800354907
  0
LINE
  5
31E
100
AcDbEntity
  8
0
100
AcDbLine
 62
7
  6
CONTINUOUS
 10
45.0
 20
-43.4
 11
45.0
 21
43.4
  0
LINE
  5
31F
100
AcDbEntity
  8
0
100
AcDbLine
 62
253
  6
CONTINUOUS
 10
43.5718057585
 20
29.3800354907
 11
43.5704408745
 21
-38.35131197
  0
LINE
  5
320
100
AcDbEntity
  8
0
100
AcDbLine
 62
253
  6
CONTINUOUS
 10
44.8670660508
 20
27.0229967089
 11
44.8657740061
 21
-35.9314034101
  0
LINE
  5
321
100
AcDbEntity
  8
0
100
AcDbLine
 62
253
  6
CONTINUOUS
 10
43.5704408745
 20
-38.35131197
 11
43.5694932453
 21
-42.7972307399
  0
LINE
  5
322
100
AcDbEntity
  8
0
100
AcDbLine
 62
253
  6
CONTINUOUS
 10
44.8657740061
 20
-35.9314034101
 11
44.8646431873
 21
-42.8331115734
  0
LWPOLYLINE
  5
323
100
AcDbEntity
  8
0
100
AcDbPolyline
 62
253
  6
CONTINUOUS
 90
115
 70
0
 10
43.5723678573
 20
-43.6638491808
 10
43.5723602492
 20
-43.6667602267
 10
43.5723241193
 20
-43.6695259503
 10
43.5722594677
 20
-43.6721463538
 10
43.5721640123
 20
-43.6745978117
 10
43.5720400351
 20
-43.6769039537
 10
43.5718943822
 20
-43.6791356632
 10
43.5717303134
 20
-43.6812922799
 10
43.5715445688
 20
-43.683374466
 10
43.5713342142
 20
-43.6854550873
 10
43.5711015798
 20
-43.6875367089
 10
43.5708443354
 20
-43.6896167658
 10
43.5705525565
 20
-43.6917604279
 10
43.5702212285
 20
-43.6940044855
 10
43.5698553659
 20
-43.6963121465
 10
43.5694600877
 20
-43.6986382066
 10
43.5690336607
 20
-43.7009858274
 10
43.5685778181
 20
-43.7033518469
 10
43.5681028778
 20
-43.7056815763
 10
43.5676121932
 20
-43.7079565328
 10
43.5671024108
 20
-43.7101952004
 10
43.5665737884
 20
-43.7123983415
 10
43.5660427751
 20
-43.7145150452
 10
43.5654929217
 20
-43.7165962238
 10
43.5648751376
 20
-43.7187953729
 10
43.5641706913
 20
-43.7211816721
 10
43.5633983143
 20
-43.7236859385
 10
43.5625651105
 20
-43.726254123
 10
43.5616583064
 20
-43.7289127867
 10
43.5606906756
 20
-43.7316353664
 10
43.5597076424
 20
-43.7342881292
 10
43.5587309825
 20
-43.7368088961
 10
43.5577389204
 20
-43.7392598486
 10
43.5567115531
 20
-43.7416937965
 10
43.5556462836
 20
-43.744118758
 10
43.5545457091
 20
-43.7465267152
 10
43.5533977176
 20
-43.7489464228
 10
43.552195015
 20
-43.7513953304
 10
43.5509448955
 20
-43.7538559879
 10
43.5496571292
 20
-43.7563048008
 10
43.5483227362
 20
-43.7587544398
 10
43.5469506965
 20
-43.7611922343
 10
43.5455777201
 20
-43.7635565788
 10
43.54421815
 20
-43.7658216568
 10
43.5428576432
 20
-43.7680132868
 10
43.54148988
 20
-43.7701473162
 10
43.540122327
 20
-43.772212718
 10
43.5387475176
 20
-43.7742205206
 10
43.5373367334
 20
-43.7762196533
 10
43.5358666221
 20
-43.7782420993
 10
43.5343605359
 20
-43.7802558754
 10
43.5328598138
 20
-43.7822139606
 10
43.5313789823
 20
-43.7840985967
 10
43.5299035149
 20
-43.7859275432
 10
43.5284311705
 20
-43.7877070569
 10
43.5269772036
 20
-43.7894208306
 10
43.5255263598
 20
-43.7910851725
 10
43.5240306354
 20
-43.7927552617
 10
43.5224705568
 20
-43.7944544238
 10
43.5208655976
 20
-43.7961593329
 10
43.5192261759
 20
-43.79785519
 10
43.5175516399
 20
-43.7995421378
 10
43.5158426413
 20
-43.8012200337
 10
43.5141115529
 20
-43.8028736517
 10
43.5123697606
 20
-43.8044917807
 10
43.5106058785
 20
-43.8060856322
 10
43.5087981219
 20
-43.8076736135
 10
43.5069226204
 20
-43.8092749552
 10
43.5050032445
 20
-43.8108704267
 10
43.5030898204
 20
-43.812420743
 10
43.5011978617
 20
-43.8139140684
 10
43.4993118548
 20
-43.8153622394
 10
43.4974350857
 20
-43.8167614798
 10
43.4955932897
 20
-43.8180936088
 10
43.4937607315
 20
-43.8193768081
 10
43.4918634905
 20
-43.8206618443
 10
43.489875685
 20
-43.8219676654
 10
43.4878231966
 20
-43.8232753234
 10
43.4857097501
 20
-43.8245787416
 10
43.4835180009
 20
-43.8258875931
 10
43.4812652936
 20
-43.8271922047
 10
43.4790073865
 20
-43.8284574812
 10
43.4767544664
 20
-43.8296754266
 10
43.4744963464
 20
-43.8308540374
 10
43.472258225
 20
-43.8319822072
 10
43.4700646908
 20
-43.8330489405
 10
43.4678911551
 20
-43.8340652334
 10
43.4656890501
 20
-43.8350529666
 10
43.4634448412
 20
-43.8360181467
 10
43.4611720629
 20
-43.8369547674
 10
43.4588627516
 20
-43.83786669
 10
43.4564907
 20
-43.8387637947
 10
43.4540821154
 20
-43.8396362016
 10
43.4517076559
 20
-43.8404581315
 10
43.4494170558
 20
-43.8412139555
 10
43.4471605809
 20
-43.841919303
 10
43.4448596863
 20
-43.8425952816
 10
43.4425063464
 20
-43.8432446876
 10
43.4401085868
 20
-43.8438647249
 10
43.4376119401
 20
-43.8444681132
 10
43.4349479609
 20
-43.845070488
 10
43.4321850946
 20
-43.845656214
 10
43.429474209
 20
-43.8461911041
 10
43.4268559819
 20
-43.8466637907
 10
43.4242897355
 20
-43.8470856417
 10
43.4218043039
 20
-43.8474565734
 10
43.419442772
 20
-43.8477712056
 10
43.4171620549
 20
-43.8480349186
 10
43.4148617313
 20
-43.8482637689
 10
43.4125248911
 20
-43.848463286
 10
43.4101684445
 20
-43.8486279404
 10
43.4077427011
 20
-43.8487572004
 10
43.4052310975
 20
-43.8488508888
 10
43.4026501971
 20
-43.8489091828
 10
43.4
 20
-43.8489320825
  0
LINE
  5
324
100
AcDbEntity
  8
0
100
AcDbLine
 62
253
  6
CONTINUOUS
 10
43.5723657858
 20
43.6668088345
 11
43.5694932453
 21
42.7972307399
  0
LINE
  5
325
100
AcDbEntity
  8
0
100
AcDbLine
 62
253
  6
CONTINUOUS
 10
44.8652401723
 20
43.0219600148
 11
44.8670660508
 21
27.0229967089
  0
LINE
  5
326
100
AcDbEntity
  8
0
100
AcDbLine
 62
253
  6
CONTINUOUS
 10
44.8673198022
 20
43.3983156248
 11
44.8652401723
 21
43.0219600148
  0
LWPOLYLINE
  5
327
100
AcDbEntity
  8
0
100
AcDbPolyline
 62
253
  6
CONTINUOUS
 90
115
 70
0
 10
44.8673207531
 20
-43.3983203718
 10
44.8669655364
 20
-43.4193889462
 10
44.8663365809
 20
-43.4398118746
 10
44.8654592609
 20
-43.459584506
 10
44.864364274
 20
-43.4786143254
 10
44.863072996
 20
-43.4969847343
 10
44.8615861241
 20
-43.5149567702
 10
44.8599176259
 20
-43.532526735
 10
44.8580815797
 20
-43.5496934153
 10
44.8560587068
 20
-43.5667247009
 10
44.8538437909
 20
-43.5836869076
 10
44.8514486617
 20
-43.6005122044
 10
44.8488681528
 20
-43.6172664413
 10
44.8461051902
 20
-43.6339517571
 10
44.8431653351
 20
-43.6505487326
 10
44.8400451322
 20
-43.6670864551
 10
44.8367573267
 20
-43.683510933
 10
44.833296253
 20
-43.6998598114
 10
44.8296234458
 20
-43.7162992376
 10
44.8257480341
 20
-43.732767624
 10
44.8216560353
 20
-43.7493086416
 10
44.8172567711
 20
-43.7662423132
 10
44.8125238742
 20
-43.7835921723
 10
44.8074529987
 20
-43.8013049473
 10
44.8019680098
 20
-43.8195788945
 10
44.7960006985
 20
-43.8385478256
 10
44.7895760022
 20
-43.8580368956
 10
44.7827612979
 20
-43.8777823017
 10
44.775537194
 20
-43.8977960343
 10
44.7679050621
 20
-43.9180255364
 10
44.7599871295
 20
-43.9381222266
 10
44.7518208521
 20
-43.9579951269
 10
44.7433821334
 20
-43.9777098817
 10
44.7347177193
 20
-43.9971651753
 10
44.7258635057
 20
-44.016300186
 10
44.7168046645
 20
-44.0351687948
 10
44.7075128002
 20
-44.0538452941
 10
44.6980171429
 20
-44.0722832288
 10
44.6883039034
 20
-44.0905186021
 10
44.6782713026
 20
-44.1087380709
 10
44.6678921105
 20
-44.1269769212
 10
44.6571966995
 20
-44.145168589
 10
44.6461628554
 20
-44.1633364263
 10
44.6347002221
 20
-44.1816056243
 10
44.6228846333
 20
-44.1998330704
 10
44.6109504785
 20
-44.2176605097
 10
44.598925993
 20
-44.2350673434
 10
44.5867894595
 20
-44.2521059641
 10
44.5747196253
 20
-44.2685563029
 10
44.5628187233
 20
-44.2843245697
 10
44.5510078798
 20
-44.2995549048
 10
44.5391977607
 20
-44.3143875273
 10
44.5274155102
 20
-44.3288072615
 10
44.515645606
 20
-44.3428513064
 10
44.503724009
 20
-44.3567223878
 10
44.4916439987
 20
-44.3704281221
 10
44.4794102423
 20
-44.3839649044
 10
44.4668634468
 20
-44.3975046852
 10
44.4539455184
 20
-44.4110966879
 10
44.4406989632
 20
-44.4246817974
 10
44.4271089331
 20
-44.4382627972
 10
44.4131009373
 20
-44.4518981961
 10
44.3987298171
 20
-44.4655173851
 10
44.3841815749
 20
-44.4789365353
 10
44.3695003813
 20
-44.4921163719
 10
44.3546391258
 20
-44.5051012045
 10
44.3396569932
 20
-44.5178422651
 10
44.3246266862
 20
-44.5302854326
 10
44.3094782235
 20
-44.5424945403
 10
44.2940530982
 20
-44.5545945788
 10
44.2782910535
 20
-44.5666223017
 10
44.2622308288
 20
-44.5785359892
 10
44.245854546
 20
-44.5903372992
 10
44.2290915247
 20
-44.6020632248
 10
44.2119848688
 20
-44.6136708706
 10
44.1946943865
 20
-44.6250472235
 10
44.1772621955
 20
-44.6361660535
 10
44.1596368682
 20
-44.6470604787
 10
44.1418480087
 20
-44.6577124544
 10
44.1239410834
 20
-44.6680969419
 10
44.1058862779
 20
-44.6782321666
 10
44.0876024603
 20
-44.6881601252
 10
44.0690651357
 20
-44.6978881661
 10
44.0503098665
 20
-44.7073919585
 10
44.0313416174
 20
-44.7166633663
 10
44.0121481431
 20
-44.7257023446
 10
43.9927528527
 20
-44.7344926633
 10
43.9732161434
 20
-44.7430040037
 10
43.9535894827
 20
-44.7512150564
 10
43.9338475561
 20
-44.7591387963
 10
43.9139368252
 20
-44.7667963078
 10
43.8938852486
 20
-44.7741755258
 10
43.8736890846
 20
-44.7812759201
 10
43.8532422523
 20
-44.7881286695
 10
43.8325002962
 20
-44.7947385057
 10
43.8115258405
 20
-44.8010762077
 10
43.7903718305
 20
-44.8071188298
 10
43.7690422089
 20
-44.8128604238
 10
43.7475626626
 20
-44.8182932907
 10
43.7260209984
 20
-44.8233969665
 10
43.7044743421
 20
-44.8281623339
 10
43.6829031375
 20
-44.8325973893
 10
43.661280724
 20
-44.8367084427
 10
43.6396236603
 20
-44.8404923372
 10
43.6179523552
 20
-44.8439457929
 10
43.596246037
 20
-44.8470710266
 10
43.5745090662
 20
-44.8498653061
 10
43.5527572814
 20
-44.8523267931
 10
43.5309875121
 20
-44.8544570298
 10
43.5092008074
 20
-44.8562569428
 10
43.4873980775
 20
-44.8577273909
 10
43.4655760122
 20
-44.8588695234
 10
43.4437342205
 20
-44.8596842361
 10
43.4218751949
 20
-44.8601723917
 10
43.4
 20
-44.860335
  0
LWPOLYLINE
  5
328
100
AcDbEntity
  8
0
100
AcDbPolyline
 62
7
  6
CONTINUOUS
 90
28
 70
0
 10
45.0
 20
-43.4
 10
44.9973629925
 20
-43.4920955803
 10
44.9893300057
 20
-43.5845768341
 10
44.9757457415
 20
-43.6773539598
 10
44.956823965
 20
-43.7690715625
 10
44.9327245646
 20
-43.8590900684
 10
44.9032258868
 20
-43.9479887997
 10
44.868587061
 20
-44.0350212432
 10
44.8292565213
 20
-44.1191564341
 10
44.7851753059
 20
-44.2007881254
 10
44.7363090371
 20
-44.2799714931
 10
44.6830445904
 20
-44.3559476031
 10
44.6259342016
 20
-44.4281426124
 10
44.5647918467
 20
-44.496933532
 10
44.4994605304
 20
-44.562407061
 10
44.4307538307
 20
-44.6237400353
 10
44.3585421309
 20
-44.6811058044
 10
44.2824618418
 20
-44.734666718
 10
44.2031389505
 20
-44.78381442
 10
44.121308445
 20
-44.8281709117
 10
44.036902982
 20
-44.8677719908
 10
43.9495879979
 20
-44.9026421403
 10
43.8603905117
 20
-44.9323342552
 10
43.7700565136
 20
-44.9565915763
 10
43.6780589376
 20
-44.9756226592
 10
43.5850371514
 20
-44.9892758143
 10
43.4923153524
 20
-44.9973493871
 10
43.4
 20
-45.0
  0
LINE
  5
329
100
AcDbEntity
  8
0
100
AcDbLine
 62
253
  6
CONTINUOUS
 10
45.0
 20
43.4
 11
44.8673198022
 21
43.3983156248
  0
LINE
  5
32A
100
AcDbEntity
  8
0
100
AcDbLine
 62
253
  6
CONTINUOUS
 10
45.0
 20
42.5490190027
 11
44.8643139164
 21
42.5490243279
  0
LINE
  5
32B
100
AcDbEntity
  8
0
100
AcDbLine
 62
253
  6
CONTINUOUS
 10
-45.0
 20
42.5490190027
 11
-44.864313901
 21
42.5490247417
  0
LINE
  5
32C
100
AcDbEntity
  8
0
100
AcDbLine
 62
253
  6
CONTINUOUS
 10
-43.4
 20
43.8489320825
 11
43.4
 21
43.8489320825
  0
LINE
  5
32D
100
AcDbEntity
  8
0
100
AcDbLine
 62
253
  6
CONTINUOUS
 10
-43.4
 20
44.860335
 11
43.4000051502
 21
44.860335
  0
LINE
  5
32E
100
AcDbEntity
  8
0
100
AcDbLine
 62
7
  6
CONTINUOUS
 10
43.4
 20
45.0
 11
-43.4
 21
45.0
  0
LWPOLYLINE
  5
32F
100
AcDbEntity
  8
0
100
AcDbPolyline
 62
253
  6
CONTINUOUS
 90
115
 70
0
 10
43.4000051502
 20
44.8603349998
 10
43.4212736729
 20
44.860181195
 10
43.4418845923
 20
44.8597382219
 10
43.461832751
 20
44.8590325326
 10
43.4810230549
 20
44.8580951913
 10
43.4995406519
 20
44.8569492787
 10
43.5176526824
 20
44.8555981285
 10
43.5353564991
 20
44.8540563556
 10
43.5526493534
 20
44.8523383798
 10
43.5698013895
 20
44.8504265168
 10
43.5868774389
 20
44.8483166454
 10
43.6038105698
 20
44.8460201324
 10
43.6206713717
 20
44.8435309936
 10
43.6374613543
 20
44.840851874
 10
43.6541612719
 20
44.8379888064
 10
43.6708069392
 20
44.8349379263
 10
43.6873435485
 20
44.8317112808
 10
43.7038094138
 20
44.8283035209
 10
43.7203795274
 20
44.8246767074
 10
43.7369948437
 20
44.8208391408
 10
43.7536959624
 20
44.816776537
 10
43.7708029851
 20
44.8123990697
 10
43.7883469236
 20
44.8076790106
 10
43.806265782
 20
44.8026119732
 10
43.8247341255
 20
44.7971259615
 10
43.8438853831
 20
44.7911526706
 10
43.8635442024
 20
44.7847178254
 10
43.8834230341
 20
44.7778955867
 10
43.9035258313
 20
44.770669716
 10
43.9238088171
 20
44.7630413182
 10
43.943925918
 20
44.7551351509
 10
43.9637839491
 20
44.7469921972
 10
43.9834527509
 20
44.7385871819
 10
44.0028441165
 20
44.7299618026
 10
44.0218995636
 20
44.7211524528
 10
44.0406734346
 20
44.7121447934
 10
44.0592506816
 20
44.702904609
 10
44.0775899104
 20
44.6934575138
 10
44.0957223398
 20
44.683793223
 10
44.1138304423
 20
44.6738146695
 10
44.1319575566
 20
44.6634904636
 10
44.1500301254
 20
44.6528552692
 10
44.1680477437
 20
44.6419042403
 10
44.1861290686
 20
44.6305540441
 10
44.2041452924
 20
44.6188727611
 10
44.2217491111
 20
44.6070880216
 10
44.2389115292
 20
44.5952353389
 10
44.2556946655
 20
44.5832872208
 10
44.2719132595
 20
44.5713947625
 10
44.2874792276
 20
44.5596518037
 10
44.3025275448
 20
44.5479868988
 10
44.3172081992
 20
44.5363052154
 10
44.33150884
 20
44.5246299539
 10
44.3454606265
 20
44.51294789
 10
44.3592628399
 20
44.5010984147
 10
44.372924278
 20
44.4890736297
 10
44.3864387677
 20
44.4768779011
 10
44.3999699613
 20
44.4643568245
 10
44.4135686997
 20
44.4514488681
 10
44.4271736233
 20
44.4381986896
 10
44.4407743233
 20
44.4246053008
 10
44.4544297866
 20
44.4105937781
 10
44.4680690592
 20
44.396218873
 10
44.4814945935
 20
44.3816820084
 10
44.4946618321
 20
44.3670354074
 10
44.507621627
 20
44.3522256021
 10
44.5203293614
 20
44.3373062598
 10
44.532726157
 20
44.3223542142
 10
44.5448811364
 20
44.307296834
 10
44.5569377831
 20
44.2919586459
 10
44.5689343138
 20
44.2762775224
 10
44.5808270483
 20
44.2602925192
 10
44.5926299416
 20
44.2439693916
 10
44.6043833654
 20
44.2272329034
 10
44.6160395773
 20
44.2101283944
 10
44.6274847261
 20
44.1928087045
 10
44.6386949078
 20
44.1753069174
 10
44.6496987581
 20
44.1575779645
 10
44.6604670051
 20
44.1396689661
 10
44.6709731747
 20
44.1216250116
 10
44.6812342802
 20
44.1034181916
 10
44.6912811962
 20
44.0849921218
 10
44.7011190839
 20
44.066328341
 10
44.7107262366
 20
44.0474580381
 10
44.7200917439
 20
44.0283964727
 10
44.7292152168
 20
44.0091376649
 10
44.738082179
 20
43.9897007452
 10
44.7466629184
 20
43.9701409843
 10
44.7549348217
 20
43.9505139034
 10
44.762913823
 20
43.9307929962
 10
44.770627589
 20
43.9109123752
 10
44.7780632677
 20
43.8909004308
 10
44.7852217251
 20
43.8707534617
 10
44.7921429486
 20
43.8503515439
 10
44.7988341887
 20
43.829649475
 10
44.8052630908
 20
43.8087100931
 10
44.8114059037
 20
43.7875734806
 10
44.8172563665
 20
43.766240472
 10
44.8228062118
 20
43.7447405691
 10
44.8280336417
 20
43.7231597184
 10
44.8329282531
 20
43.7015494933
 10
44.8374973798
 20
43.679896286
 10
44.841747511
 20
43.6581889157
 10
44.8456774381
 20
43.636439506
 10
44.8492812752
 20
43.6146736792
 10
44.8525566163
 20
43.5929005588
 10
44.8555031147
 20
43.5711226447
 10
44.8581198856
 20
43.5493542293
 10
44.8604046677
 20
43.5276216366
 10
44.8623607715
 20
43.5059233695
 10
44.8639917949
 20
43.4842612689
 10
44.8652985576
 20
43.4626663878
 10
44.8662852107
 20
43.4411489889
 10
44.8669576742
 20
43.4196987431
 10
44.8673208008
 20
43.3983156373
  0
LWPOLYLINE
  5
330
100
AcDbEntity
  8
0
100
AcDbPolyline
 62
253
  6
CONTINUOUS
 90
114
 70
0
 10
43.4
 20
43.8489320825
 10
43.4025723324
 20
43.8489056956
 10
43.4050121116
 20
43.8488536611
 10
43.4073193375
 20
43.848775979
 10
43.4094724733
 20
43.8486705909
 10
43.4114930559
 20
43.8485395552
 10
43.413445696
 20
43.8483890474
 10
43.4153276935
 20
43.8482225763
 10
43.4171417484
 20
43.848036633
 10
43.4189605722
 20
43.8478268667
 10
43.4207887824
 20
43.8475952683
 10
43.4226217614
 20
43.847339847
 10
43.4245183674
 20
43.8470502789
 10
43.4265136948
 20
43.846721153
 10
43.4285726492
 20
43.8463578803
 10
43.4306488058
 20
43.8459663709
 10
43.4327466494
 20
43.8455442736
 10
43.4348616953
 20
43.8450939395
 10
43.4369340641
 20
43.8446283318
 10
43.4389375723
 20
43.8441533216
 10
43.4408984034
 20
43.8436630376
 10
43.4428352285
 20
43.84315283
 10
43.4447085319
 20
43.8426372323
 10
43.4465578294
 20
43.8421017108
 10
43.4485203395
 20
43.8414980153
 10
43.4506621644
 20
43.8408061554
 10
43.452917202
 20
43.8400461209
 10
43.4552243646
 20
43.8392296316
 10
43.4576013938
 20
43.8383465877
 10
43.460030548
 20
43.8374070885
 10
43.4623975147
 20
43.8364531521
 10
43.4646459847
 20
43.8355063201
 10
43.4668322671
 20
43.8345450509
 10
43.4690109766
 20
43.8335467377
 10
43.4711921986
 20
43.8325077369
 10
43.4733658477
 20
43.8314316918
 10
43.4755562828
 20
43.8303069257
 10
43.4777819558
 20
43.8291246583
 10
43.4800244147
 20
43.8278936693
 10
43.4822526628
 20
43.8266286223
 10
43.4844737091
 20
43.8253231626
 10
43.4866805446
 20
43.8239836445
 10
43.488821145
 20
43.8226437951
 10
43.4908695774
 20
43.8213198157
 10
43.4928517747
 20
43.8199955052
 10
43.4947935121
 20
43.8186559879
 10
43.4966904155
 20
43.8173044258
 10
43.4985468589
 20
43.8159376568
 10
43.5004017394
 20
43.8145313192
 10
43.5022833765
 20
43.8130634209
 10
43.5041634508
 20
43.8115559533
 10
43.5059959014
 20
43.8100505297
 10
43.507762758
 20
43.8085627268
 10
43.5094819909
 20
43.8070769681
 10
43.5111614499
 20
43.8055881377
 10
43.5127865431
 20
43.8041108292
 10
43.5143718623
 20
43.8026304491
 10
43.5159690332
 20
43.8010981
 10
43.5176004279
 20
43.7994938723
 10
43.5192436743
 20
43.7978376746
 10
43.5208832818
 20
43.7961403371
 10
43.5225192546
 20
43.7944012963
 10
43.5241515886
 20
43.7926211148
 10
43.525764781
 20
43.7908123119
 10
43.5273494735
 20
43.7889843507
 10
43.5289150244
 20
43.7871277676
 10
43.5304740059
 20
43.7852266919
 10
43.5320415846
 20
43.7832612219
 10
43.5336025938
 20
43.7812512583
 10
43.5351241058
 20
43.7792406346
 10
43.5365951887
 20
43.777245129
 10
43.5380267745
 20
43.7752489634
 10
43.5394187311
 20
43.7732486383
 10
43.5407554445
 20
43.7712679685
 10
43.5420525287
 20
43.7692831392
 10
43.5433566939
 20
43.7672192051
 10
43.5446867765
 20
43.7650485708
 10
43.54602394
 20
43.7627988297
 10
43.5473583854
 20
43.760477819
 10
43.548699327
 20
43.758066878
 10
43.5500375505
 20
43.7555846656
 10
43.5513356133
 20
43.7530949988
 10
43.5525840439
 20
43.7506120301
 10
43.5537923138
 20
43.7481216071
 10
43.5549513956
 20
43.7456450907
 10
43.5560515211
 20
43.7432058675
 10
43.5571024583
 20
43.7407805515
 10
43.5581244847
 20
43.7383203451
 10
43.5591235388
 20
43.7358106762
 10
43.560093682
 20
43.7332661156
 10
43.5610373755
 20
43.7306815793
 10
43.56196312
 20
43.7280338273
 10
43.5628624148
 20
43.7253460981
 10
43.5637122188
 20
43.7226830264
 10
43.5644984778
 20
43.7200926548
 10
43.5652352461
 20
43.7175269418
 10
43.5659416447
 20
43.7149063961
 10
43.5666206242
 20
43.7122217241
 10
43.5672692341
 20
43.7094822177
 10
43.5678977442
 20
43.7066362617
 10
43.5685207694
 20
43.7036132472
 10
43.5691236946
 20
43.700483779
 10
43.5696729453
 20
43.6974080647
 10
43.5701572351
 20
43.6944289855
 10
43.5705878503
 20
43.6915036625
 10
43.5709650747
 20
43.688663666
 10
43.5712838875
 20
43.6859541385
 10
43.5715493095
 20
43.6833299406
 10
43.5717766865
 20
43.6806872184
 10
43.571971313
 20
43.6780056065
 10
43.5721278946
 20
43.6753054695
 10
43.5722458936
 20
43.672544047
 10
43.572325131
 20
43.6697070845
 10
43.5723657858
 20
43.6668088345
  0
LINE
  5
331
100
AcDbEntity
  8
0
100
AcDbLine
 62
253
  6
CONTINUOUS
 10
-45.0
 20
43.4
 11
-44.8673198351
 21
43.3983203598
  0
LWPOLYLINE
  5
332
100
AcDbEntity
  8
0
100
AcDbPolyline
 62
7
  6
CONTINUOUS
 90
28
 70
0
 10
43.4
 20
45.0
 10
43.4923253538
 20
44.9973489346
 10
43.5850571387
 20
44.9892736782
 10
43.6780930467
 20
44.9756163717
 10
43.7701134049
 20
44.9565775267
 10
43.8604699431
 20
44.9323105912
 10
43.9496757368
 20
44.9026102877
 10
44.0370007149
 20
44.8677295704
 10
44.121415057
 20
44.8281180515
 10
44.2032331394
 20
44.7837602304
 10
44.282549104
 20
44.734608644
 10
44.3586445161
 20
44.6810287871
 10
44.4308666839
 20
44.6236450192
 10
44.4995696837
 20
44.5623037188
 10
44.5648932375
 20
44.496825951
 10
44.6260245941
 20
44.4280347651
 10
44.6831149765
 20
44.3558536944
 10
44.7363586181
 20
44.2798967688
 10
44.7852198161
 20
44.2007102052
 10
44.8292993527
 20
44.119069303
 10
44.8686197153
 20
44.0349457687
 10
44.9032488746
 20
43.9479250492
 10
44.9327407623
 20
43.8590353108
 10
44.9568323563
 20
43.7690385109
 10
44.9757484084
 20
43.6773402858
 10
44.9893304221
 20
43.5845714985
 10
44.9973630044
 20
43.4920932848
 10
45.0
 20
43.4
  0
LWPOLYLINE
  5
333
100
AcDbEntity
  8
0
100
AcDbPolyline
 62
253
  6
CONTINUOUS
 90
25
 70
0
 10
44.8673198021
 20
-43.3983157649
 10
44.8578025016
 20
-43.4156614623
 10
44.8433793462
 20
-43.4328790779
 10
44.8241053817
 20
-43.4499029007
 10
44.800054167
 20
-43.4666679595
 10
44.7713174935
 20
-43.4831102705
 10
44.7380050345
 20
-43.4991670816
 10
44.7002439268
 20
-43.5147771122
 10
44.6581782854
 20
-43.5298807866
 10
44.6119686535
 20
-43.5444204618
 10
44.56179139
 20
-43.5583406471
 10
44.5078379961
 20
-43.5715882163
 10
44.4503143844
 20
-43.58411261
 10
44.3894400936
 20
-43.595866029
 10
44.32544745
 20
-43.6068036164
 10
44.258580681
 20
-43.6168836289
 10
44.1890949834
 20
-43.6260675962
 10
44.1172555487
 20
-43.6343204677
 10
44.0433365519
 20
-43.6416107465
 10
43.9676201041
 20
-43.6479106091
 10
43.8903951769
 20
-43.6531960122
 10
43.8119564985
 20
-43.657446784
 10
43.7326034298
 20
-43.6606467015
 10
43.6526388213
 20
-43.6627835522
 10
43.5723678573
 20
-43.6638491808
  0
LWPOLYLINE
  5
334
100
AcDbEntity
  8
0
100
AcDbPolyline
 62
253
  6
CONTINUOUS
 90
25
 70
0
 10
44.8643139146
 20
-42.5490190027
 10
44.8546961239
 20
-42.5657349522
 10
44.8401826209
 20
-42.5822934065
 10
44.8208286917
 20
-42.5986312897
 10
44.7967080611
 20
-42.614686366
 10
44.7679126115
 20
-42.630397477
 10
44.7345520333
 20
-42.6457047744
 10
44.6967534067
 20
-42.6605499482
 10
44.6546607175
 20
-42.674876449
 10
44.6084343091
 20
-42.6886297028
 10
44.5582502714
 20
-42.7017573195
 10
44.50429977
 20
-42.7142092922
 10
44.4467883181
 20
-42.7259381878
 10
44.3859349936
 20
-42.7368993273
 10
44.3219716045
 20
-42.7470509567
 10
44.255141806
 20
-42.7563544055
 10
44.1857001723
 20
-42.764774234
 10
44.1139112268
 20
-42.7722783687
 10
44.0400484346
 20
-42.7788382242
 10
43.9643931605
 20
-42.7844288121
 10
43.8872335975
 20
-42.7890288361
 10
43.8088636689
 20
-42.7926207735
 10
43.7295819086
 20
-42.7951909416
 10
43.649690324
 20
-42.7967295497
 10
43.5694932453
 20
-42.7972307369
  0
LWPOLYLINE
  5
335
100
AcDbEntity
  8
0
100
AcDbPolyline
 62
253
  6
CONTINUOUS
 90
25
 70
0
 10
44.8643139147
 20
42.5490190027
 10
44.8546961248
 20
42.5657349523
 10
44.8401826225
 20
42.5822934068
 10
44.820828694
 20
42.5986312901
 10
44.796708064
 20
42.6146863666
 10
44.7679126149
 20
42.6303974777
 10
44.7345520371
 20
42.6457047752
 10
44.6967534108
 20
42.6605499493
 10
44.6546607219
 20
42.6748764502
 10
44.6084343137
 20
42.6886297042
 10
44.5582502761
 20
42.7017573211
 10
44.5042997747
 20
42.714209294
 10
44.4467883228
 20
42.7259381896
 10
44.3859349981
 20
42.7368993294
 10
44.3219716089
 20
42.7470509589
 10
44.2551418101
 20
42.7563544078
 10
44.1857001761
 20
42.7647742364
 10
44.1139112303
 20
42.7722783713
 10
44.0400484377
 20
42.7788382269
 10
43.9643931631
 20
42.7844288149
 10
43.8872335997
 20
42.789028839
 10
43.8088636706
 20
42.7926207765
 10
43.7295819098
 20
42.7951909445
 10
43.6496903245
 20
42.7967295527
 10
43.5694932453
 20
42.79723074
  0
LWPOLYLINE
  5
336
100
AcDbEntity
  8
0
100
AcDbPolyline
 62
253
  6
CONTINUOUS
 90
25
 70
0
 10
44.8673207418
 20
43.3983158897
 10
44.8578034618
 20
43.415661585
 10
44.8433803196
 20
43.4328791984
 10
44.824106361
 20
43.449903019
 10
44.8000551451
 20
43.4666680755
 10
44.7713184633
 20
43.4831103841
 10
44.7380059891
 20
43.499167193
 10
44.7002448596
 20
43.5147772214
 10
44.6581791902
 20
43.5298808938
 10
44.6119695244
 20
43.5444205671
 10
44.5617922213
 20
43.5583407507
 10
44.5078387827
 20
43.5715883184
 10
44.4503151218
 20
43.5841127109
 10
44.3894407776
 20
43.595866129
 10
44.325448077
 20
43.6068037157
 10
44.2585812481
 20
43.616883728
 10
44.1890954882
 20
43.6260676954
 10
44.1172559895
 20
43.6343205675
 10
44.0433369275
 20
43.6416108472
 10
43.9676204143
 20
43.6479107112
 10
43.8903954218
 20
43.653196116
 10
43.8119566792
 20
43.6574468901
 10
43.732603548
 20
43.6606468102
 10
43.6526388792
 20
43.662783664
 10
43.5723678581
 20
43.6638492961
  0
LINE
  5
337
100
AcDbEntity
  8
0
100
AcDbLine
 62
7
  6
CONTINUOUS
 10
-75.8296948161
 20
-45.0
 11
-77.4260730713
 21
-44.860335
  0
LWPOLYLINE
  5
338
100
AcDbEntity
  8
0
100
AcDbPolyline
 62
253
  6
CONTINUOUS
 90
3
 70
0
 10
-77.6541275539
 20
-42.5490190027
 10
-78.8094665399
 20
-42.7967295497
 10
-78.8118913986
 20
-42.7972307369
  0
LWPOLYLINE
  5
339
100
AcDbEntity
  8
RACCORDO
100
AcDbPolyline
 62
253
  6
CONTINUOUS
 90
13
 70
0
 10
-76.0174407089
 20
-43.709250902
 10
-75.8627814838
 20
-43.685944315
 10
-75.7081213491
 20
-43.6581013678
 10
-75.5536121508
 20
-43.6257123361
 10
-75.3995964252
 20
-43.5889555876
 10
-75.2460689481
 20
-43.5476332035
 10
-75.092683651
 20
-43.5011693233
 10
-74.9394732085
 20
-43.449625265
 10
-74.7868482422
 20
-43.3929159488
 10
-74.6350420381
 20
-43.330242386
 10
-74.4842800307
 20
-43.2613280669
 10
-74.3347656849
 20
-43.1864210984
 10
-74.1867026962
 20
-43.1055075237
  0
LINE
  5
33A
100
AcDbEntity
  8
RACCORDO
100
AcDbLine
 62
253
  6
CONTINUOUS
 10
-74.1867026962
 20
-43.1055075237
 11
-76.1240271531
 21
-43.1172115123
  0
LINE
  5
33B
100
AcDbEntity
  8
0
100
AcDbLine
 62
253
  6
CONTINUOUS
 10
-73.4692911914
 20
-22.3686091925
 11
-76.2007005621
 21
-22.4139622947
  0
LINE
  5
33C
100
AcDbEntity
  8
0
100
AcDbLine
 62
253
  6
CONTINUOUS
 10
-76.2007005621
 20
-22.4139622947
 11
-78.47520757
 21
-22.4493333334
  0
LINE
  5
33D
100
AcDbEntity
  8
RACCORDO
100
AcDbLine
 62
253
  6
CONTINUOUS
 10
-78.7029759366
 20
-22.4493333334
 11
-78.47520757
 21
-22.4493333334
  0
LWPOLYLINE
  5
33E
100
AcDbEntity
  8
RACCORDO
100
AcDbPolyline
 62
253
  6
CONTINUOUS
 90
19
 70
0
 10
-74.1867028036
 20
-43.1055075308
 10
-74.1645326295
 20
-43.153322361
 10
-74.1447454088
 20
-43.2010583141
 10
-74.1274355031
 20
-43.2484877456
 10
-74.1126854602
 20
-43.2953844728
 10
-74.1005656203
 20
-43.3415248531
 10
-74.0911337807
 20
-43.3866888507
 10
-74.0844349199
 20
-43.4306610864
 10
-74.0805009833
 20
-43.4732318643
 10
-74.079350731
 20
-43.5141981715
 10
-74.0809896479
 20
-43.5533646471
 10
-74.0854099182
 20
-43.5905445131
 10
-74.0925904619
 20
-43.6255604652
 10
-74.102497036
 20
-43.6582455186
 10
-74.1150823975
 20
-43.6884438043
 10
-74.1302865289
 20
-43.7160113121
 10
-74.148036924
 20
-43.7408165777
 10
-74.1682489342
 20
-43.7627413091
 10
-74.1908261717
 20
-43.7816809513
  0
LWPOLYLINE
  5
33F
100
AcDbEntity
  8
0
100
AcDbPolyline
 62
7
  6
CONTINUOUS
 90
8
 70
0
 10
-77.049058333
 20
-37.3036939461
 10
-77.2885869168
 20
-35.8964858565
 10
-77.6260724693
 20
-33.6699967363
 10
-77.9230722921
 20
-31.4377275191
 10
-78.1792926051
 20
-29.200420188
 10
-78.3946349804
 20
-26.9588160209
 10
-78.5691963417
 20
-24.7136555822
 10
-78.7029759366
 20
-22.4656798014
  0
LINE
  5
340
100
AcDbEntity
  8
0
100
AcDbLine
 62
253
  6
CONTINUOUS
 10
-77.4260788724
 20
-44.8601723917
 11
-77.4260730713
 21
-44.860335
  0
LINE
  5
341
100
AcDbEntity
  8
0
100
AcDbLine
 62
253
  6
CONTINUOUS
 10
-77.4612101415
 20
-43.6005122044
 11
-77.4562036059
 21
-43.7662423132
  0
LINE
  5
342
100
AcDbEntity
  8
0
100
AcDbLine
 62
253
  6
CONTINUOUS
 10
-77.466874293
 20
-43.3983203718
 11
-77.4612101415
 21
-43.6005122044
  0
LINE
  5
343
100
AcDbEntity
  8
0
100
AcDbLine
 62
253
  6
CONTINUOUS
 10
-77.4562036059
 20
-43.7662423132
 11
-77.433183118
 21
-44.5903372992
  0
LINE
  5
344
100
AcDbEntity
  8
0
100
AcDbLine
 62
253
  6
CONTINUOUS
 10
-77.4274828905
 20
-44.8071188298
 11
-77.4264006845
 21
-44.8470710266
  0
LINE
  5
345
100
AcDbEntity
  8
0
100
AcDbLine
 62
253
  6
CONTINUOUS
 10
-77.4261413387
 20
-44.8577273909
 11
-77.4261127784
 21
-44.8588695234
  0
LWPOLYLINE
  5
346
100
AcDbEntity
  8
0
100
AcDbPolyline
 62
253
  6
CONTINUOUS
 90
4
 70
0
 10
-77.433183118
 20
-44.5903372992
 10
-77.4328912813
 20
-44.6020632248
 10
-77.4326110872
 20
-44.6136708706
 10
-77.4279405064
 20
-44.7881286695
  0
LWPOLYLINE
  5
347
100
AcDbEntity
  8
0
100
AcDbPolyline
 62
253
  6
CONTINUOUS
 90
3
 70
0
 10
-77.4264006845
 20
-44.8470710266
 10
-77.426331629
 20
-44.8498653061
 10
-77.4261777578
 20
-44.8562569428
  0
LINE
  5
348
100
AcDbEntity
  8
0
100
AcDbLine
 62
253
  6
CONTINUOUS
 10
-77.4260907397
 20
44.8597382219
 11
-77.4261945359
 21
44.8555981285
  0
LINE
  5
349
100
AcDbEntity
  8
0
100
AcDbLine
 62
253
  6
CONTINUOUS
 10
-77.4264254219
 20
44.8460201324
 11
-77.4273518208
 21
44.8123990697
  0
LINE
  5
34A
100
AcDbEntity
  8
0
100
AcDbLine
 62
253
  6
CONTINUOUS
 10
-77.4277192374
 20
44.7971259615
 11
-77.4574689332
 21
43.7231597184
  0
LINE
  5
34B
100
AcDbEntity
  8
0
100
AcDbLine
 62
253
  6
CONTINUOUS
 10
-77.4595134569
 20
43.6581889157
 11
-77.4668744246
 21
43.3983156373
  0
LINE
  5
34C
100
AcDbEntity
  8
0
100
AcDbLine
 62
253
  6
CONTINUOUS
 10
-77.4574689332
 20
43.7231597184
 11
-77.4595134569
 21
43.6581889157
  0
LINE
  5
34D
100
AcDbEntity
  8
0
100
AcDbLine
 62
253
  6
CONTINUOUS
 10
-77.4260730733
 20
44.8603349998
 11
-77.4260789515
 21
44.860181195
  0
LINE
  5
34E
100
AcDbEntity
  8
RACCORDO
100
AcDbLine
 62
7
  6
CONTINUOUS
 10
-73.4692911914
 20
-3.8526539614
 11
-75.3040208269
 21
-3.5291416244
  0
LWPOLYLINE
  5
34F
100
AcDbEntity
  8
0
100
AcDbPolyline
 62
7
  6
CONTINUOUS
 90
13
 70
0
 10
-75.9500924084
 20
-43.4
 10
-75.9372874534
 20
-43.4920955803
 10
-75.925161269
 20
-43.5845768341
 10
-75.9137360572
 20
-43.6773539598
 10
-75.9031548639
 20
-43.7690715625
 10
-75.8934598996
 20
-43.8590900684
 10
-75.8845650372
 20
-43.9479887997
 10
-75.8765016109
 20
-44.0350212432
 10
-75.8693153133
 20
-44.1191564341
 10
-75.8629117646
 20
-44.2007881254
 10
-75.8572321793
 20
-44.2799714931
 10
-75.8522812705
 20
-44.3559476031
 10
-75.848026046
 20
-44.4281426124
  0
LINE
  5
350
100
AcDbEntity
  8
0
100
AcDbLine
 62
7
  6
CONTINUOUS
 10
-75.848026046
 20
-44.4281426124
 11
-75.8442912205
 21
-44.4987039858
  0
LWPOLYLINE
  5
351
100
AcDbEntity
  8
0
100
AcDbPolyline
 62
7
  6
CONTINUOUS
 90
4
 70
0
 10
-75.8442912205
 20
-44.4987039858
 10
-75.8412682861
 20
-44.562407061
 10
-75.8386831317
 20
-44.6237400353
 10
-75.8365495596
 20
-44.6811058044
  0
LINE
  5
352
100
AcDbEntity
  8
0
100
AcDbLine
 62
7
  6
CONTINUOUS
 10
-75.8365495596
 20
-44.6811058044
 11
-75.8334163538
 21
-44.78381442
  0
LINE
  5
353
100
AcDbEntity
  8
0
100
AcDbLine
 62
253
  6
CONTINUOUS
 10
-77.4279405064
 20
-44.7881286695
 11
-77.4274828905
 21
-44.8071188298
  0
LINE
  5
354
100
AcDbEntity
  8
0
100
AcDbLine
 62
7
  6
CONTINUOUS
 10
-75.8334163538
 20
-44.78381442
 11
-75.8315080227
 21
-44.8677719908
  0
LINE
  5
355
100
AcDbEntity
  8
0
100
AcDbLine
 62
7
  6
CONTINUOUS
 10
-75.8315080227
 20
-44.8677719908
 11
-75.8304407301
 21
-44.9323342552
  0
LWPOLYLINE
  5
356
100
AcDbEntity
  8
0
100
AcDbPolyline
 62
7
  6
CONTINUOUS
 90
3
 70
0
 10
-75.8304407301
 20
-44.9323342552
 10
-75.8297162659
 20
-44.9973493871
 10
-75.8296948161
 20
-45.0
  0
LINE
  5
357
100
AcDbEntity
  8
RACCORDO
100
AcDbLine
 62
7
  6
CONTINUOUS
 10
-75.4692911914
 20
-3.3321800738
 11
-75.4692911914
 21
3.3321800738
  0
LINE
  5
358
100
AcDbEntity
  8
0
100
AcDbLine
 62
7
  6
CONTINUOUS
 10
-75.8296948161
 20
45.0
 11
-75.8301289864
 21
44.9565775267
  0
LINE
  5
359
100
AcDbEntity
  8
0
100
AcDbLine
 62
7
  6
CONTINUOUS
 10
-75.8301289864
 20
44.9565775267
 11
-75.830888808
 21
44.9026102877
  0
LINE
  5
35A
100
AcDbEntity
  8
0
100
AcDbLine
 62
7
  6
CONTINUOUS
 10
-75.830888808
 20
44.9026102877
 11
-75.8323368448
 21
44.8281180515
  0
LINE
  5
35B
100
AcDbEntity
  8
0
100
AcDbLine
 62
253
  6
CONTINUOUS
 10
-77.4261945359
 20
44.8555981285
 11
-77.4264254219
 21
44.8460201324
  0
LINE
  5
35C
100
AcDbEntity
  8
0
100
AcDbLine
 62
253
  6
CONTINUOUS
 10
-77.4273518208
 20
44.8123990697
 11
-77.4277192374
 21
44.7971259615
  0
LWPOLYLINE
  5
35D
100
AcDbEntity
  8
0
100
AcDbPolyline
 62
7
  6
CONTINUOUS
 90
6
 70
0
 10
-75.8323368448
 20
44.8281180515
 10
-75.8348068418
 20
44.734608644
 10
-75.8365522412
 20
44.6810287871
 10
-75.8386868905
 20
44.6236450192
 10
-75.8412729116
 20
44.5623037188
 10
-75.8443806298
 20
44.496825951
  0
LINE
  5
35E
100
AcDbEntity
  8
0
100
AcDbLine
 62
7
  6
CONTINUOUS
 10
-75.8443806298
 20
44.496825951
 11
-75.8480320823
 21
44.4280347651
  0
LWPOLYLINE
  5
35F
100
AcDbEntity
  8
0
100
AcDbPolyline
 62
7
  6
CONTINUOUS
 90
13
 70
0
 10
-75.8480320823
 20
44.4280347651
 10
-75.8522870474
 20
44.3558536944
 10
-75.8572372445
 20
44.2798967688
 10
-75.8629176567
 20
44.2007102052
 10
-75.8693225346
 20
44.119069303
 10
-75.8765083247
 20
44.0349457687
 10
-75.8845712359
 20
43.9479250492
 10
-75.8934656166
 20
43.8590353108
 10
-75.9031584761
 20
43.7690385109
 10
-75.9137376635
 20
43.6773402858
 10
-75.9251619702
 20
43.5845714985
 10
-75.9372877766
 20
43.4920932848
 10
-75.9500924084
 20
43.4
  0
LINE
  5
360
100
AcDbEntity
  8
0
100
AcDbLine
 62
253
  6
CONTINUOUS
 10
-75.4692911914
 20
-0.0
 11
-79.0392911914
 21
-0.0
  0
LINE
  5
361
100
AcDbEntity
  8
0
100
AcDbLine
 62
7
  6
CONTINUOUS
 10
-75.8296948161
 20
45.0
 11
-75.7844674873
 21
44.4830492665
  0
LINE
  5
362
100
AcDbEntity
  8
DRAFT
100
AcDbLine
 62
7
  6
CONTINUOUS
 10
-73.4692911914
 20
-22.3686091925
 11
-73.4692911914
 21
-3.8526539614
  0
LINE
  5
363
100
AcDbEntity
  8
RACCORDO
100
AcDbLine
 62
7
  6
CONTINUOUS
 10
-73.4692911914
 20
-22.3686091925
 11
-73.4692911914
 21
-43.100000231
  0
LINE
  5
364
100
AcDbEntity
  8
DRAFT
100
AcDbLine
 62
7
  6
CONTINUOUS
 10
-73.4692911914
 20
3.8526539614
 11
-73.4692911914
 21
22.3686091925
  0
LINE
  5
365
100
AcDbEntity
  8
RACCORDO
100
AcDbLine
 62
7
  6
CONTINUOUS
 10
-73.4692911914
 20
22.3686091925
 11
-73.4692911914
 21
43.1000002325
  0
LINE
  5
366
100
AcDbEntity
  8
0
100
AcDbLine
 62
7
  6
CONTINUOUS
 10
-75.8296948161
 20
-45.0
 11
-75.784465839
 21
-44.4830304257
  0
LINE
  5
367
100
AcDbEntity
  8
RACCORDO
100
AcDbLine
 62
7
  6
CONTINUOUS
 10
-75.3040208269
 20
3.5291416244
 11
-73.4692911914
 21
3.8526539614
  0
LINE
  5
368
100
AcDbEntity
  8
0
100
AcDbLine
 62
253
  6
CONTINUOUS
 10
-73.4692911914
 20
22.3686091925
 11
-78.47520757
 21
22.4493333334
  0
LINE
  5
369
100
AcDbEntity
  8
0
100
AcDbLine
 62
253
  6
CONTINUOUS
 10
-80.2880510873
 20
22.4691866652
 11
-81.4731195588
 21
22.5285705486
  0
LWPOLYLINE
  5
36A
100
AcDbEntity
  8
RACCORDO
100
AcDbPolyline
 62
253
  6
CONTINUOUS
 90
19
 70
0
 10
-74.1908248189
 20
43.7816827945
 10
-74.1682476311
 20
43.7627430305
 10
-74.1480356828
 20
43.7408181703
 10
-74.1302853603
 20
43.7160127711
 10
-74.115081311
 20
43.6884451268
 10
-74.1024960395
 20
43.658246704
 10
-74.0925895617
 20
43.6255615153
 10
-74.085409119
 20
43.5905454322
 10
-74.0809889523
 20
43.5533654411
 10
-74.0793501393
 20
43.5141988473
 10
-74.0805004943
 20
43.4732324305
 10
-74.0844345302
 20
43.4306615526
 10
-74.0911334855
 20
43.3866892259
 10
-74.1005654131
 20
43.341525147
 10
-74.1126853333
 20
43.2953846953
 10
-74.1274354481
 20
43.2484879042
 10
-74.1447454169
 20
43.2010584152
 10
-74.1645326912
 20
43.1533224117
 10
-74.1867029089
 20
43.1055075376
  0
LWPOLYLINE
  5
36B
100
AcDbEntity
  8
RACCORDO
100
AcDbPolyline
 62
253
  6
CONTINUOUS
 90
13
 70
0
 10
-74.1867026962
 20
-43.1055075237
 10
-74.1052378781
 20
-43.0567378851
 10
-74.0283464879
 20
-43.0085413328
 10
-73.9559083173
 20
-42.9609212393
 10
-73.8879682502
 20
-42.9138402273
 10
-73.8242318031
 20
-42.8673421781
 10
-73.7640932148
 20
-42.821552004
 10
-73.7074277571
 20
-42.7764958885
 10
-73.6541679434
 20
-42.732153135
 10
-73.6038367247
 20
-42.6885777809
 10
-73.5562320546
 20
-42.6457892602
 10
-73.5114080142
 20
-42.60377264
 10
-73.4692911589
 20
-42.562530075
  0
LWPOLYLINE
  5
36C
100
AcDbEntity
  8
RACCORDO
100
AcDbPolyline
 62
253
  6
CONTINUOUS
 90
10
 70
0
 10
-74.1867026962
 20
43.1055075237
 10
-74.0885938704
 20
43.0465439491
 10
-73.9953988955
 20
42.9871029852
 10
-73.9069793958
 20
42.9271873259
 10
-73.8231639416
 20
42.8666277546
 10
-73.7438312642
 20
42.8055987772
 10
-73.6689166043
 20
42.7446194223
 10
-73.5983011933
 20
42.6838652879
 10
-73.5318085929
 20
42.6231677395
 10
-73.4692911927
 20
42.5625301072
  0
LINE
  5
36D
100
AcDbEntity
  8
RACCORDO
100
AcDbLine
 62
253
  6
CONTINUOUS
 10
-74.1867026962
 20
43.1055075237
 11
-76.1240271531
 21
43.1172115123
  0
LWPOLYLINE
  5
36E
100
AcDbEntity
  8
RACCORDO
100
AcDbPolyline
 62
253
  6
CONTINUOUS
 90
16
 70
0
 10
-76.0174403565
 20
43.7092508424
 10
-75.8946697401
 20
43.691043044
 10
-75.7719092162
 20
43.6700289372
 10
-75.6492333399
 20
43.6462037756
 10
-75.5268960668
 20
43.6196747233
 10
-75.4048042884
 20
43.5903251221
 10
-75.282525699
 20
43.5578136493
 10
-75.1600730503
 20
43.5221604861
 10
-75.0376476864
 20
43.4833338546
 10
-74.9151195542
 20
43.4409127441
 10
-74.7924536866
 20
43.3949058392
 10
-74.6699564889
 20
43.3452905199
 10
-74.5480022652
 20
43.2915971271
 10
-74.4267762286
 20
43.233663619
 10
-74.3063057723
 20
43.1716363435
 10
-74.1867026962
 20
43.1055075237
  0
LINE
  5
36F
100
AcDbEntity
  8
0
100
AcDbLine
 62
253
  6
CONTINUOUS
 10
-77.4668744115
 20
43.3983158897
 11
-78.1170487856
 21
43.5444205671
  0
LINE
  5
370
100
AcDbEntity
  8
0
100
AcDbLine
 62
253
  6
CONTINUOUS
 10
-78.1170487856
 20
43.5444205671
 11
-78.3891395386
 21
43.6068037157
  0
LINE
  5
371
100
AcDbEntity
  8
0
100
AcDbLine
 62
253
  6
CONTINUOUS
 10
-78.3891395386
 20
43.6068037157
 11
-78.5066139023
 21
43.6343205675
  0
LWPOLYLINE
  5
372
100
AcDbEntity
  8
0
100
AcDbPolyline
 62
253
  6
CONTINUOUS
 90
7
 70
0
 10
-78.5066139023
 20
43.6343205675
 10
-78.5631773166
 20
43.6479107112
 10
-78.5845840512
 20
43.653196116
 10
-78.6012926662
 20
43.6574468901
 10
-78.6132393932
 20
43.6606468102
 10
-78.6203786375
 20
43.662783664
 10
-78.6226831521
 20
43.6638492961
  0
LINE
  5
373
100
AcDbEntity
  8
0
100
AcDbLine
 62
7
  6
CONTINUOUS
 10
-75.8296948161
 20
45.0
 11
-77.4260730713
 21
44.860335
  0
ARC
  5
374
100
AcDbEntity
  8
0
100
AcDbCircle
 62
7
  6
CONTINUOUS
 10
33.1
 20
21.75
 40
0.8
100
AcDbArc
 50
0.0000219403
 51
89.998601331
  0
ARC
  5
375
100
AcDbEntity
  8
0
100
AcDbCircle
 62
7
  6
CONTINUOUS
 10
33.1
 20
-21.75
 40
0.8
100
AcDbArc
 50
270.0008277896
 51
359.9992233358
  0
ARC
  5
376
100
AcDbEntity
  8
0
100
AcDbCircle
 62
7
  6
CONTINUOUS
 10
-33.1
 20
-21.75
 40
0.8
100
AcDbArc
 50
180.0000215712
 51
269.998578734
  0
ARC
  5
377
100
AcDbEntity
  8
0
100
AcDbCircle
 62
7
  6
CONTINUOUS
 10
-33.1
 20
21.75
 40
0.8
100
AcDbArc
 50
90.0008359049
 51
179.9991643371
  0
ARC
  5
378
100
AcDbEntity
  8
0
100
AcDbCircle
 62
7
  6
CONTINUOUS
 10
86.4364222117
 20
-14.15664
 40
165.12
100
AcDbArc
 50
182.8787323946
 51
190.1014160662
  0
ARC
  5
379
100
AcDbEntity
  8
0
100
AcDbCircle
 62
7
  6
CONTINUOUS
 10
44.8545703021
 20
-16.2511774136
 40
126.4835431995
100
AcDbArc
 50
182.8793234251
 51
192.6028892677
  0
ARC
  5
37A
100
AcDbEntity
  8
RACCORDO
100
AcDbCircle
 62
7
  6
CONTINUOUS
 10
-76.569672386
 20
-40.5410492628
 40
4.0200239337
100
AcDbArc
 50
279.9999994914
 51
320.4648724279
  0
ARC
  5
37B
100
AcDbEntity
  8
0
100
AcDbCircle
 62
7
  6
CONTINUOUS
 10
-77.3127705958
 20
-43.5652819371
 40
1.3
100
AcDbArc
 50
192.6028872522
 51
264.9999993909
  0
ARC
  5
37C
100
AcDbEntity
  8
RACCORDO
100
AcDbCircle
 62
7
  6
CONTINUOUS
 10
-75.2692911914
 20
-3.3321800738
 40
0.2
100
AcDbArc
 50
180.0
 51
260.0
  0
ARC
  5
37D
100
AcDbEntity
  8
0
100
AcDbCircle
 62
7
  6
CONTINUOUS
 10
86.4364222117
 20
14.15664
 40
165.12
100
AcDbArc
 50
169.8985839314
 51
177.1212676054
  0
ARC
  5
37E
100
AcDbEntity
  8
0
100
AcDbCircle
 62
7
  6
CONTINUOUS
 10
44.8545703021
 20
16.2511774136
 40
126.4835431995
100
AcDbArc
 50
167.3971107323
 51
177.1206756724
  0
ARC
  5
37F
100
AcDbEntity
  8
RACCORDO
100
AcDbCircle
 62
7
  6
CONTINUOUS
 10
-76.569672386
 20
40.5410492628
 40
4.0200239337
100
AcDbArc
 50
39.5351276004
 51
80.0000001099
  0
ARC
  5
380
100
AcDbEntity
  8
0
100
AcDbCircle
 62
7
  6
CONTINUOUS
 10
-77.3127705958
 20
43.5652819371
 40
1.3
100
AcDbArc
 50
95.0000006091
 51
167.3971127478
  0
ARC
  5
381
100
AcDbEntity
  8
RACCORDO
100
AcDbCircle
 62
7
  6
CONTINUOUS
 10
-75.2692911914
 20
3.3321800738
 40
0.2
100
AcDbArc
 50
100.0
 51
180.0
  0
ARC
  5
382
100
AcDbEntity
  8
0
100
AcDbCircle
 62
7
  6
CONTINUOUS
 10
367.9625972117
 20
-0.0
 40
450.0
100
AcDbArc
 50
177.1206598848
 51
182.8793398743
  0
ARC
  5
383
100
AcDbEntity
  8
0
100
AcDbCircle
 62
7
  6
CONTINUOUS
 10
367.9607088086
 20
-0.0
 40
447.0
100
AcDbArc
 50
177.1212676054
 51
182.8787323946
  0
ENDSEC
  0
SECTION
  2
OBJECTS
  0
DICTIONARY
  5
C
100
AcDbDictionary
280
0
281
1
  3
ACAD_GROUP
350
D
  3
ACAD_MLINESTYLE
350
17
  3
ACAD_LAYOUT
350
1A
  3
ACAD_PLOTSETTINGS
350
19
  3
ACAD_PLOTSTYLENAME
350
E
  0
DICTIONARY
  5
D
102
{ACAD_REACTORS
330
C
102
}
100
AcDbDictionary
280
0
281
1
  0
ACDBDICTIONARYWDFLT
  5
E
102
{ACAD_REACTORS
330
C
102
}
100
AcDbDictionary
281
1
  3
Normal
350
F
100
AcDbDictionaryWithDefault
340
F
  0
DICTIONARY
  5
17
102
{ACAD_REACTORS
330
C
102
}
100
AcDbDictionary
280
0
281
1
  3
Standard
350
18
  0
DICTIONARY
  5
19
102
{ACAD_REACTORS
330
C
102
}
100
AcDbDictionary
281
1
  0
DICTIONARY
  5
1A
102
{ACAD_REACTORS
330
C
102
}
100
AcDbDictionary
281
1
  3
Model
350
384
  3
Layout1
350
385
  0
ACDBPLACEHOLDER
  5
F
102
{ACAD_REACTORS
330
E
102
}
  0
MLINESTYLE
  5
18
102
{ACAD_REACTORS
330
17
102
}
100
AcDbMlineStyle
  2
STANDARD
 70
0
  3

 62
256
 51
90.0
 52
90.0
 71
2
 49
0.5
 62
256
  6
BYLAYER
 49
-0.5
 62
256
  6
BYLAYER
  0
LAYOUT
  5
384
102
{ACAD_REACTORS
330
1A
102
}
100
AcDbPlotSettings
  1

  2
none_device
  4
ISO_A4_(297.00_x_210.00_MM)
  6

 40
0.0
 41
0.0
 42
0.0
 43
0.0
 44
297.0
 45
210.0
 46
0.0
 47
0.0
 48
0.0
 49
0.0
140
0.0
141
0.0
142
1.0
143
1.0
 70
1024
 72
1
 73
0
 74
0
  7

 75
0
147
1.0
148
0.0
149
0.0
100
AcDbLayout
  1
Model
 70
0
 71
0
 10
0.0
 20
0.0
 11
297.0
 21
210.0
 12
0.0
 22
0.0
 32
0.0
 14
0.0
 24
0.0
 34
0.0
 15
0.0
 25
0.0
 35
0.0
146
0.0
 13
0.0
 23
0.0
 33
0.0
 16
1.0
 26
0.0
 36
0.0
 17
0.0
 27
1.0
 37
0.0
 76
0
330
215
345
0
346
0
  0
LAYOUT
  5
385
102
{ACAD_REACTORS
330
1A
102
}
100
AcDbPlotSettings
  1

  2
none_device
  4
ISO_A4_(297.00_x_210.00_MM)
  6

 40
0.0
 41
0.0
 42
0.0
 43
0.0
 44
297.0
 45
210.0
 46
0.0
 47
0.0
 48
0.0
 49
0.0
140
0.0
141
0.0
142
1.0
143
1.0
 70
0
 72
1
 73
0
 74
0
  7

 75
0
147
1.0
148
0.0
149
0.0
100
AcDbLayout
  1
Layout1
 70
0
 71
1
 10
0.0
 20
0.0
 11
297.0
 21
210.0
 12
0.0
 22
0.0
 32
0.0
 14
0.0
 24
0.0
 34
0.0
 15
0.0
 25
0.0
 35
0.0
146
0.0
 13
0.0
 23
0.0
 33
0.0
 16
1.0
 26
0.0
 36
0.0
 17
0.0
 27
1.0
 37
0.0
 76
0
330
216
345
0
346
0
  0
ENDSEC
  0
EOF
