  0
SECTION
  2
HEADER
  9
$ACADVER
  1
AC1021
  9
$DWGCODEPAGE
  3
ANSI_1252
  9
$EXTMAX
 10
297.0
 20
210.0
 30
0.0
  9
$EXTMIN
 10
0.0
 20
0.0
 30
0.0
  9
$LIMMIN
 10
0.0
 20
0.0
  9
$LIMMAX
 10
297.0
 20
210.0
  9
$VIEWCTR
 10
148.5
 20
105.0
  9
$VIEWSIZE
 40
210.0
  9
$CLAYER
  8
0
  9
$LTSCALE
 40
16.335
  9
$CELTYPE
  6
BYLAYER
  9
$DIMSCALE
 40
1.0
  9
$DIMASZ
 40
3.0
  9
$DIMEXO
 40
0.5
  9
$DIMDLI
 40
11.286
  9
$DIMEXE
 40
1.5
  9
$DIMCEN
 40
2.673
  9
$DIMLFAC
 40
1.0
  9
$DIMBLK
  1
_FILLED
  9
$DIMALT
 70
0
  9
$DIMALTF
 40
25.4
  9
$DIMTXT
 40
3.0
  9
$DIMTOL
 70
1
  9
$DIMLIM
 70
0
  9
$DIMTFAC
 40
1.0
  9
$DIMTP
 40
0.01
  9
$DIMTM
 40
0.01
  9
$DIMGAP
 40
0.625
  9
$DIMDSEP
 70
44
  9
$AUNITS
 70
0
  9
$PDMODE
 70
3
  9
$PDSIZE
 40
3.0
  9
$HANDSEED
  5
37C
  9
$TILEMODE
 70
1
  9
$MEASUREMENT
 70
1
  9
$INSUNITS
 70
4
  0
ENDSEC
  0
SECTION
  2
CLASSES
  0
CLASS
  1
ACDBDICTIONARYWDFLT
  2
AcDbDictionaryWithDefault
  3
AutoCAD 2000
 90
0
 91
1
280
0
281
0
  0
CLASS
  1
ACDBPLACEHOLDER
  2
AcDbPlaceHolder
  3
AutoCAD 2000
 90
0
 91
1
280
0
281
0
  0
CLASS
  1
LAYOUT
  2
AcDbLayout
  3
AutoCAD 2000
 90
0
 91
0
280
0
281
0
  0
ENDSEC
  0
SECTION
  2
TABLES
  0
TABLE
  2
VPORT
  5
8
100
AcDbSymbolTable
 70
2
  0
VPORT
  5
1F4
100
AcDbSymbolTableRecord
100
AcDbViewportTableRecord
  2
*ACTIVE
 70
0
 10
0.0
 20
0.0
 11
1.0
 21
1.0
 12
148.5
 22
105.0
 13
0.0
 23
0.0
 14
1.0
 24
1.0
 15
0.0
 25
0.0
 16
0.0
 26
0.0
 36
1.0
 17
0.0
 27
0.0
 37
0.0
 40
210.0
 41
1.4142857143
 42
50.0
 43
0.0
 44
0.0
 50
0.0
 51
0.0
 71
0
 72
100
 73
1
 74
1
 75
0
 76
0
 77
0
 78
0
  0
ENDTAB
  0
TABLE
  2
LTYPE
  5
5
100
AcDbSymbolTable
 70
6
  0
LTYPE
  5
14
100
AcDbSymbolTableRecord
100
AcDbLinetypeTableRecord
  2
BYBLOCK
 70
0
  3

 72
65
 73
0
 40
0.0
  0
LTYPE
  5
15
100
AcDbSymbolTableRecord
100
AcDbLinetypeTableRecord
  2
BYLAYER
 70
0
  3

 72
65
 73
0
 40
0.0
  0
LTYPE
  5
16
100
AcDbSymbolTableRecord
100
AcDbLinetypeTableRecord
  2
CONTINUOUS
 70
64
  3
Solid line
 72
65
 73
0
 40
0.0
  0
LTYPE
  5
1F5
100
AcDbSymbolTableRecord
100
AcDbLinetypeTableRecord
  2
CENTER
 70
64
  3
____ _ ____ _ ____ _ ____ _ ____ _ ____ _ ____
 72
65
 73
4
 40
0.6
 49
0.375
 74
0
 49
-0.075
 74
0
 49
0.075
 74
0
 49
-0.075
 74
0
  0
LTYPE
  5
1F6
100
AcDbSymbolTableRecord
100
AcDbLinetypeTableRecord
  2
HIDDEN
 70
64
  3
- - - - - - - - - - - - - - - - - - - -
 72
65
 73
2
 40
0.2
 49
0.1
 74
0
 49
-0.1
 74
0
  0
LTYPE
  5
1F7
100
AcDbSymbolTableRecord
100
AcDbLinetypeTableRecord
  2
PHANTOM
 70
64
  3
_____ _ _ _____ _ _ _____ _ _ _____
 72
65
 73
6
 40
0.8
 49
0.45
 74
0
 49
-0.05
 74
0
 49
0.1
 74
0
 49
-0.05
 74
0
 49
0.1
 74
0
 49
-0.05
 74
0
  0
LTYPE
  5
1F8
100
AcDbSymbolTableRecord
100
AcDbLinetypeTableRecord
  2
DOT
 70
64
  3
. . . . . . . . . . . . . . . . . . . .
 72
65
 73
2
 40
0.2
 49
0.1
 74
0
 49
-0.1
 74
0
  0
LTYPE
  5
1F9
100
AcDbSymbolTableRecord
100
AcDbLinetypeTableRecord
  2
DASHED
 70
64
  3
- - - - - - - - - - - - - - - - - - - -
 72
65
 73
2
 40
0.2
 49
0.1
 74
0
 49
-0.1
 74
0
  0
ENDTAB
  0
TABLE
  2
LAYER
  5
2
100
AcDbSymbolTable
 70
36
  0
LAYER
  5
10
100
AcDbSymbolTableRecord
100
AcDbLayerTableRecord
  2
0
 70
0
 62
7
  6
CONTINUOUS
370
-3
390
F
  0
LAYER
  5
1FA
100
AcDbSymbolTableRecord
100
AcDbLayerTableRecord
  2
DEFAULT_1
 70
0
 62
7
  6
CENTER
370
-3
390
F
  0
LAYER
  5
1FB
100
AcDbSymbolTableRecord
100
AcDbLayerTableRecord
  2
DEFAULT_2
 70
0
 62
7
  6
HIDDEN
370
-3
390
F
  0
LAYER
  5
1FC
100
AcDbSymbolTableRecord
100
AcDbLayerTableRecord
  2
DEFAULT_3
 70
0
 62
7
  6
PHANTOM
370
-3
390
F
  0
LAYER
  5
1FD
100
AcDbSymbolTableRecord
100
AcDbLayerTableRecord
  2
ASSI
 70
0
 62
7
  6
CONTINUOUS
370
-3
390
F
  0
LAYER
  5
1FE
100
AcDbSymbolTableRecord
100
AcDbLayerTableRecord
  2
COORDINATE
 70
0
 62
7
  6
CONTINUOUS
370
-3
390
F
  0
LAYER
  5
1FF
100
AcDbSymbolTableRecord
100
AcDbLayerTableRecord
  2
COPY_PUBLISH
 70
0
 62
7
  6
CONTINUOUS
370
-3
390
F
  0
LAYER
  5
200
100
AcDbSymbolTableRecord
100
AcDbLayerTableRecord
  2
COSMETIC
 70
0
 62
7
  6
CONTINUOUS
370
-3
390
F
  0
LAYER
  5
201
100
AcDbSymbolTableRecord
100
AcDbLayerTableRecord
  2
COSMETICI
 70
0
 62
7
  6
CONTINUOUS
370
-3
390
F
  0
LAYER
  5
202
100
AcDbSymbolTableRecord
100
AcDbLayerTableRecord
  2
CURVA_VERNICIATO
 70
0
 62
7
  6
CONTINUOUS
370
-3
390
F
  0
LAYER
  5
203
100
AcDbSymbolTableRecord
100
AcDbLayerTableRecord
  2
CURVE
 70
0
 62
7
  6
CONTINUOUS
370
-3
390
F
  0
LAYER
  5
204
100
AcDbSymbolTableRecord
100
AcDbLayerTableRecord
  2
DRAFT
 70
0
 62
7
  6
CONTINUOUS
370
-3
390
F
  0
LAYER
  5
205
100
AcDbSymbolTableRecord
100
AcDbLayerTableRecord
  2
IMPORT_IGES
 70
0
 62
7
  6
CONTINUOUS
370
-3
390
F
  0
LAYER
  5
206
100
AcDbSymbolTableRecord
100
AcDbLayerTableRecord
  2
INTFCLR_1
 70
0
 62
7
  6
CONTINUOUS
370
-3
390
F
  0
LAYER
  5
207
100
AcDbSymbolTableRecord
100
AcDbLayerTableRecord
  2
INTF_1
 70
0
 62
7
  6
CONTINUOUS
370
-3
390
F
  0
LAYER
  5
208
100
AcDbSymbolTableRecord
100
AcDbLayerTableRecord
  2
INTF_7
 70
0
 62
7
  6
CONTINUOUS
370
-3
390
F
  0
LAYER
  5
209
100
AcDbSymbolTableRecord
100
AcDbLayerTableRecord
  2
INTF_CYAN
 70
0
 62
7
  6
CONTINUOUS
370
-3
390
F
  0
LAYER
  5
20A
100
AcDbSymbolTableRecord
100
AcDbLayerTableRecord
  2
NOTE
 70
0
 62
7
  6
CONTINUOUS
370
-3
390
F
  0
LAYER
  5
20B
100
AcDbSymbolTableRecord
100
AcDbLayerTableRecord
  2
PIANI
 70
0
 62
7
  6
CONTINUOUS
370
-3
390
F
  0
LAYER
  5
20C
100
AcDbSymbolTableRecord
100
AcDbLayerTableRecord
  2
PUNTI
 70
0
 62
7
  6
CONTINUOUS
370
-3
390
F
  0
LAYER
  5
20D
100
AcDbSymbolTableRecord
100
AcDbLayerTableRecord
  2
RACCORDO
 70
0
 62
7
  6
CONTINUOUS
370
-3
390
F
  0
LAYER
  5
20E
100
AcDbSymbolTableRecord
100
AcDbLayerTableRecord
  2
RGB__255__255__255__
 70
0
 62
7
  6
CONTINUOUS
370
-3
390
F
  0
LAYER
  5
20F
100
AcDbSymbolTableRecord
100
AcDbLayerTableRecord
  2
RGB____0____0____0__
 70
0
 62
7
  6
CONTINUOUS
370
-3
390
F
  0
LAYER
  5
210
100
AcDbSymbolTableRecord
100
AcDbLayerTableRecord
  2
SIMBOLI
 70
0
 62
7
  6
CONTINUOUS
370
-3
390
F
  0
LAYER
  5
211
100
AcDbSymbolTableRecord
100
AcDbLayerTableRecord
  2
SMUSSO
 70
0
 62
7
  6
CONTINUOUS
370
-3
390
F
  0
LAYER
  5
212
100
AcDbSymbolTableRecord
100
AcDbLayerTableRecord
  2
SNAPLINE
 70
0
 62
7
  6
CONTINUOUS
370
-3
390
F
  0
LAYER
  5
213
100
AcDbSymbolTableRecord
100
AcDbLayerTableRecord
  2
SUPERFICI
 70
0
 62
7
  6
CONTINUOUS
370
-3
390
F
  0
LAYER
  5
214
100
AcDbSymbolTableRecord
100
AcDbLayerTableRecord
  2
TRASH
 70
0
 62
7
  6
CONTINUOUS
370
-3
390
F
  0
LAYER
  5
215
100
AcDbSymbolTableRecord
100
AcDbLayerTableRecord
  2
XSEC_DATUMS
 70
0
 62
7
  6
CONTINUOUS
370
-3
390
F
  0
ENDTAB
  0
TABLE
  2
STYLE
  5
3
100
AcDbSymbolTable
 70
1
  0
STYLE
  5
11
100
AcDbSymbolTableRecord
100
AcDbTextStyleTableRecord
  2
STANDARD
 70
0
 40
0.0
 41
0.8
 50
0.0
 71
0
 42
0.2
  3
txt
  4

  0
STYLE
  5
216
100
AcDbSymbolTableRecord
100
AcDbTextStyleTableRecord
  2
TEXTSTYLE_1
 70
0
 40
0.0
 41
0.8
 50
0.0
 71
0
 42
0.2
  3
gdt
  4

  0
ENDTAB
  0
TABLE
  2
VIEW
  5
6
100
AcDbSymbolTable
 70
0
  0
ENDTAB
  0
TABLE
  2
UCS
  5
7
100
AcDbSymbolTable
 70
0
  0
ENDTAB
  0
TABLE
  2
APPID
  5
9
100
AcDbSymbolTable
 70
1
  0
APPID
  5
217
100
AcDbSymbolTableRecord
100
AcDbRegAppTableRecord
  2
ACAD
 70
0
  0
ENDTAB
  0
TABLE
  2
BLOCK_RECORD
  5
1
100
AcDbSymbolTable
 70
0
  0
BLOCK_RECORD
  5
218
100
AcDbSymbolTableRecord
100
AcDbBlockTableRecord
  2
*Model_Space
  0
BLOCK_RECORD
  5
219
100
AcDbSymbolTableRecord
100
AcDbBlockTableRecord
  2
*Paper_Space
  0
BLOCK_RECORD
  5
21A
100
AcDbSymbolTableRecord
100
AcDbBlockTableRecord
  2
_FILLED
  0
BLOCK_RECORD
  5
21B
100
AcDbSymbolTableRecord
100
AcDbBlockTableRecord
  2
*D0
  0
BLOCK_RECORD
  5
21C
100
AcDbSymbolTableRecord
100
AcDbBlockTableRecord
  2
*D1
  0
BLOCK_RECORD
  5
21D
100
AcDbSymbolTableRecord
100
AcDbBlockTableRecord
  2
*D2
  0
BLOCK_RECORD
  5
21E
100
AcDbSymbolTableRecord
100
AcDbBlockTableRecord
  2
*D3
  0
BLOCK_RECORD
  5
21F
100
AcDbSymbolTableRecord
100
AcDbBlockTableRecord
  2
*D4
  0
ENDTAB
  0
TABLE
  2
DIMSTYLE
  5
A
100
AcDbSymbolTable
 70
1
100
AcDbDimStyleTable
 71
0
  0
DIMSTYLE
105
220
100
AcDbSymbolTableRecord
100
AcDbDimStyleTableRecord
  2
STANDARD
 70
0
  3

  4

 40
1.0
 41
3.0
 42
0.5
 43
0.38
 44
1.5
 45
0.0
 46
0.0
 47
0.01
 48
0.01
140
3.0
141
0.09
142
0.0
143
25.4
144
1.0
145
0.0
146
1.0
147
0.625
 71
1.0
 72
0.0
 73
0
 74
0
 75
0
 76
0
 77
1
 78
8
170
0
171
1
172
0
173
0
174
0
175
0
176
0
177
0
178
0
270
2
271
2
272
2
273
2
274
2
275
0
280
0
281
0
282
0
283
1
284
8
285
0
286
0
287
3
288
0
340
11
278
44
341
21A
342
21A
343
21A
344
21A
  0
DIMSTYLE
105
221
100
AcDbSymbolTableRecord
100
AcDbDimStyleTableRecord
  2
DIMSTYLE_1
 70
0
  3

  4

 40
1.0
 41
3.0
 42
0.5
 43
0.38
 44
1.5
 45
0.0
 46
0.0
 47
0.0
 48
0.0
140
3.0
141
0.09
142
0.0
143
25.4
144
1.0
145
0.0
146
1.0
147
0.75
 71
0.0
 72
0.0
 73
0
 74
0
 75
0
 76
0
 77
1
 78
8
170
0
171
1
172
0
173
0
174
0
175
0
176
0
177
0
178
0
270
2
271
1
272
1
273
2
274
2
275
0
280
0
281
0
282
0
283
1
284
8
285
0
286
0
287
3
288
0
340
11
278
44
341
21A
342
21A
343
21A
344
21A
  0
DIMSTYLE
105
222
100
AcDbSymbolTableRecord
100
AcDbDimStyleTableRecord
  2
DIMSTYLE_2
 70
0
  3

  4

 40
1.0
 41
3.0
 42
0.5
 43
0.38
 44
1.5
 45
0.0
 46
0.0
 47
0.0
 48
0.0
140
3.0
141
0.09
142
0.0
143
25.4
144
1.0
145
0.0
146
1.0
147
0.75
 71
0.0
 72
0.0
 73
0
 74
0
 75
0
 76
0
 77
1
 78
8
170
0
171
1
172
0
173
0
174
0
175
0
176
0
177
0
178
0
270
2
271
2
272
2
273
2
274
2
275
0
280
0
281
0
282
0
283
1
284
8
285
0
286
0
287
3
288
0
340
11
278
44
341
21A
342
21A
343
21A
344
21A
  0
ENDTAB
  0
ENDSEC
  0
SECTION
  2
BLOCKS
  0
BLOCK
  5
20
100
AcDbEntity
  8
0
100
AcDbBlockBegin
  2
*Model_Space
 70
0
 10
0.0
 20
0.0
 30
0.0
  3
*Model_Space
  1

  0
ENDBLK
  5
21
100
AcDbEntity
  8
0
100
AcDbBlockEnd
  0
BLOCK
  5
1C
100
AcDbEntity
  8
0
100
AcDbBlockBegin
  2
*Paper_Space
 70
0
 10
0.0
 20
0.0
 30
0.0
  3
*Paper_Space
  1

  0
ENDBLK
  5
1D
100
AcDbEntity
  8
0
100
AcDbBlockEnd
  0
BLOCK
  5
223
100
AcDbEntity
  8
0
100
AcDbBlockBegin
  2
_FILLED
 70
64
 10
0.0
 20
0.0
  3
_FILLED
  1

  0
SOLID
  5
224
100
AcDbEntity
  8
0
  6
BYBLOCK
 62
0
100
AcDbTrace
 10
0.0
 20
0.0
 11
-1.0
 21
0.3166666667
 12
-1.0
 22
-0.3166666667
 13
-1.0
 23
-0.3166666667
  0
ENDBLK
  5
225
100
AcDbEntity
  8
0
  6
BYBLOCK
 62
0
100
AcDbBlockEnd
  0
BLOCK
  5
226
100
AcDbEntity
  8
0
100
AcDbBlockBegin
 62
7
  6
CONTINUOUS
  2
*D0
 70
65
 10
0.0
 20
0.0
  3
*D0
  1

  0
MTEXT
  5
227
100
AcDbEntity
  8
0
100
AcDbMText
 62
7
  6
CONTINUOUS
  7
STANDARD
 71
2
 72
1
 10
-114.1305651669
 20
61.7500000075
 30
0.0
 11
1.0
 21
0.0
 31
0.0
 44
0.9
  1
8,6
 40
3.0
 41
9.6428571429
  0
LINE
  5
228
100
AcDbEntity
  8
0
100
AcDbLine
 62
7
  6
CONTINUOUS
 10
-109.8449256317
 20
43.5970753448
 11
-109.8449256119
 21
59.5000000022
  0
LINE
  5
229
100
AcDbEntity
  8
0
100
AcDbLine
 62
7
  6
CONTINUOUS
 10
-118.4162047972
 20
0.5000005599
 11
-118.4162047238
 21
59.5000000128
  0
LINE
  5
22A
100
AcDbEntity
  8
0
100
AcDbLine
 62
7
  6
CONTINUOUS
 10
-109.8449256138
 20
58.0000000022
 11
-105.8449256138
 21
57.9999999972
  0
LINE
  5
22B
100
AcDbEntity
  8
0
100
AcDbLine
 62
7
  6
CONTINUOUS
 10
-105.8449256138
 20
57.9999999972
 11
-114.1305651697
 21
58.0000000075
  0
LINE
  5
22C
100
AcDbEntity
  8
0
100
AcDbLine
 62
7
  6
CONTINUOUS
 10
-118.4162047256
 20
58.0000000128
 11
-122.4162047256
 21
58.0000000178
  0
LINE
  5
22D
100
AcDbEntity
  8
0
100
AcDbLine
 62
7
  6
CONTINUOUS
 10
-122.4162047256
 20
58.0000000178
 11
-114.1305651697
 21
58.0000000075
  0
INSERT
  5
22E
100
AcDbEntity
  8
0
100
AcDbBlockReference
 62
7
  6
CONTINUOUS
  2
_FILLED
 10
-109.8449256138
 20
58.0000000022
 41
3.0
 42
3.0
 43
3.0
 50
179.9999999287
  0
INSERT
  5
22F
100
AcDbEntity
  8
0
100
AcDbBlockReference
 62
7
  6
CONTINUOUS
  2
_FILLED
 10
-118.4162047256
 20
58.0000000128
 41
3.0
 42
3.0
 43
3.0
 50
359.9999999287
  0
ENDBLK
  5
230
100
AcDbEntity
  8
0
  6
BYBLOCK
 62
0
100
AcDbBlockEnd
  0
BLOCK
  5
231
100
AcDbEntity
  8
0
100
AcDbBlockBegin
 62
7
  6
CONTINUOUS
  2
*D1
 70
65
 10
0.0
 20
0.0
  3
*D1
  1

  0
MTEXT
  5
232
100
AcDbEntity
  8
0
100
AcDbMText
 62
7
  6
CONTINUOUS
  7
STANDARD
 71
2
 72
1
 10
0.0
 20
71.75
 30
0.0
 11
1.0
 21
0.0
 31
0.0
 44
0.9
  1
155
 40
3.0
 41
9.0
  0
LINE
  5
233
100
AcDbEntity
  8
0
100
AcDbLine
 62
7
  6
CONTINUOUS
 10
-77.5
 20
44.5013704652
 11
-77.5
 21
69.5
  0
LINE
  5
234
100
AcDbEntity
  8
0
100
AcDbLine
 62
7
  6
CONTINUOUS
 10
77.5
 20
44.5013704652
 11
77.5
 21
69.5
  0
LINE
  5
235
100
AcDbEntity
  8
0
100
AcDbLine
 62
7
  6
CONTINUOUS
 10
-77.5
 20
68.0
 11
0.0
 21
68.0
  0
LINE
  5
236
100
AcDbEntity
  8
0
100
AcDbLine
 62
7
  6
CONTINUOUS
 10
77.5
 20
68.0
 11
0.0
 21
68.0
  0
INSERT
  5
237
100
AcDbEntity
  8
0
100
AcDbBlockReference
 62
7
  6
CONTINUOUS
  2
_FILLED
 10
-77.5
 20
68.0
 41
3.0
 42
3.0
 43
3.0
 50
180.0
  0
INSERT
  5
238
100
AcDbEntity
  8
0
100
AcDbBlockReference
 62
7
  6
CONTINUOUS
  2
_FILLED
 10
77.5
 20
68.0
 41
3.0
 42
3.0
 43
3.0
  0
ENDBLK
  5
239
100
AcDbEntity
  8
0
  6
BYBLOCK
 62
0
100
AcDbBlockEnd
  0
BLOCK
  5
23A
100
AcDbEntity
  8
0
100
AcDbBlockBegin
 62
7
  6
CONTINUOUS
  2
*D2
 70
65
 10
0.0
 20
0.0
  3
*D2
  1

  0
MTEXT
  5
23B
100
AcDbEntity
  8
0
100
AcDbMText
 62
7
  6
CONTINUOUS
  7
STANDARD
 71
2
 72
1
 10
0.0
 20
61.75
 30
0.0
 11
1.0
 21
0.0
 31
0.0
 44
0.9
  1
112,7
 40
3.0
 41
14.7857142857
  0
LINE
  5
23C
100
AcDbEntity
  8
0
100
AcDbLine
 62
7
  6
CONTINUOUS
 10
56.35
 20
19.4825022673
 11
56.35
 21
59.5
  0
LINE
  5
23D
100
AcDbEntity
  8
0
100
AcDbLine
 62
7
  6
CONTINUOUS
 10
-56.35
 20
19.4825022673
 11
-56.35
 21
59.5
  0
LINE
  5
23E
100
AcDbEntity
  8
0
100
AcDbLine
 62
7
  6
CONTINUOUS
 10
56.35
 20
58.0
 11
0.0
 21
58.0
  0
LINE
  5
23F
100
AcDbEntity
  8
0
100
AcDbLine
 62
7
  6
CONTINUOUS
 10
-56.35
 20
58.0
 11
0.0
 21
58.0
  0
INSERT
  5
240
100
AcDbEntity
  8
0
100
AcDbBlockReference
 62
7
  6
CONTINUOUS
  2
_FILLED
 10
56.35
 20
58.0
 41
3.0
 42
3.0
 43
3.0
  0
INSERT
  5
241
100
AcDbEntity
  8
0
100
AcDbBlockReference
 62
7
  6
CONTINUOUS
  2
_FILLED
 10
-56.35
 20
58.0
 41
3.0
 42
3.0
 43
3.0
 50
180.0
  0
ENDBLK
  5
242
100
AcDbEntity
  8
0
  6
BYBLOCK
 62
0
100
AcDbBlockEnd
  0
BLOCK
  5
243
100
AcDbEntity
  8
0
100
AcDbBlockBegin
 62
7
  6
CONTINUOUS
  2
*D3
 70
65
 10
0.0
 20
0.0
  3
*D3
  1

  0
MTEXT
  5
244
100
AcDbEntity
  8
0
100
AcDbMText
 62
7
  6
CONTINUOUS
  7
STANDARD
 71
2
 72
1
 10
88.6832289403
 20
0.0
 30
0.0
 11
0.0
 21
1.0
 31
0.0
 44
0.9
  1
45
 40
3.0
 41
6.75
  0
LINE
  5
245
100
AcDbEntity
  8
0
100
AcDbLine
 62
7
  6
CONTINUOUS
 10
60.6073463722
 20
22.5
 11
93.9332289403
 21
22.5
  0
LINE
  5
246
100
AcDbEntity
  8
0
100
AcDbLine
 62
7
  6
CONTINUOUS
 10
58.0760963722
 20
-22.5
 11
93.9332289403
 21
-22.5
  0
LINE
  5
247
100
AcDbEntity
  8
0
100
AcDbLine
 62
7
  6
CONTINUOUS
 10
92.4332289403
 20
22.5
 11
92.4332289403
 21
0.0
  0
LINE
  5
248
100
AcDbEntity
  8
0
100
AcDbLine
 62
7
  6
CONTINUOUS
 10
92.4332289403
 20
-22.5
 11
92.4332289403
 21
0.0
  0
INSERT
  5
249
100
AcDbEntity
  8
0
100
AcDbBlockReference
 62
7
  6
CONTINUOUS
  2
_FILLED
 10
92.4332289403
 20
22.5
 41
3.0
 42
3.0
 43
3.0
 50
90.0
  0
INSERT
  5
24A
100
AcDbEntity
  8
0
100
AcDbBlockReference
 62
7
  6
CONTINUOUS
  2
_FILLED
 10
92.4332289403
 20
-22.5
 41
3.0
 42
3.0
 43
3.0
 50
270.0
  0
ENDBLK
  5
24B
100
AcDbEntity
  8
0
  6
BYBLOCK
 62
0
100
AcDbBlockEnd
  0
BLOCK
  5
24C
100
AcDbEntity
  8
0
100
AcDbBlockBegin
 62
7
  6
CONTINUOUS
  2
*D4
 70
65
 10
0.0
 20
0.0
  3
*D4
  1

  0
MTEXT
  5
24D
100
AcDbEntity
  8
0
100
AcDbMText
 62
7
  6
CONTINUOUS
  7
STANDARD
 71
2
 72
1
 10
98.6832289403
 20
0.0
 30
0.0
 11
0.0
 21
1.0
 31
0.0
 44
0.9
  1
90
 40
3.0
 41
7.0714285714
  0
LINE
  5
24E
100
AcDbEntity
  8
0
100
AcDbLine
 62
7
  6
CONTINUOUS
 10
77.0013704652
 20
45.0
 11
103.9332289403
 21
45.0
  0
LINE
  5
24F
100
AcDbEntity
  8
0
100
AcDbLine
 62
7
  6
CONTINUOUS
 10
77.0013704652
 20
-45.0
 11
103.9332289403
 21
-45.0
  0
LINE
  5
250
100
AcDbEntity
  8
0
100
AcDbLine
 62
7
  6
CONTINUOUS
 10
102.4332289403
 20
45.0
 11
102.4332289403
 21
0.0
  0
LINE
  5
251
100
AcDbEntity
  8
0
100
AcDbLine
 62
7
  6
CONTINUOUS
 10
102.4332289403
 20
-45.0
 11
102.4332289403
 21
0.0
  0
INSERT
  5
252
100
AcDbEntity
  8
0
100
AcDbBlockReference
 62
7
  6
CONTINUOUS
  2
_FILLED
 10
102.4332289403
 20
45.0
 41
3.0
 42
3.0
 43
3.0
 50
90.0
  0
INSERT
  5
253
100
AcDbEntity
  8
0
100
AcDbBlockReference
 62
7
  6
CONTINUOUS
  2
_FILLED
 10
102.4332289403
 20
-45.0
 41
3.0
 42
3.0
 43
3.0
 50
270.0
  0
ENDBLK
  5
254
100
AcDbEntity
  8
0
  6
BYBLOCK
 62
0
100
AcDbBlockEnd
  0
ENDSEC
  0
SECTION
  2
ENTITIES
  0
DIMENSION
  5
255
100
AcDbEntity
  8
0
100
AcDbDimension
 62
7
  6
CONTINUOUS
  2
*D0
 10
-118.4162047256
 20
58.0000000128
 11
-114.5591349361
 21
58.000000008
 70
160
 71
2
 42
8.5712791118
  3
DIMSTYLE_1
100
AcDbAlignedDimension
 13
-109.8449256323
 23
43.0970753448
 14
-118.4162047978
 24
0.0000005599
 50
179.9999999287
100
AcDbRotatedDimension
  0
DIMENSION
  5
256
100
AcDbEntity
  8
0
100
AcDbDimension
 62
7
  6
CONTINUOUS
  2
*D1
 10
77.5
 20
68.0
 11
-0.4285714481
 21
68.0
 70
160
 71
2
 42
155.0
  3
DIMSTYLE_2
100
AcDbAlignedDimension
 13
-77.5
 23
44.0013704652
 14
77.5
 24
44.0013704652
100
AcDbRotatedDimension
  0
DIMENSION
  5
257
100
AcDbEntity
  8
0
100
AcDbDimension
 62
7
  6
CONTINUOUS
  2
*D2
 10
-56.35
 20
58.0
 11
-0.4285715189
 21
58.0
 70
160
 71
2
 42
112.7
  3
DIMSTYLE_2
100
AcDbAlignedDimension
 13
56.35
 23
18.9825022673
 14
-56.35
 24
18.9825022673
 50
180.0
100
AcDbRotatedDimension
  0
DIMENSION
  5
258
100
AcDbEntity
  8
0
100
AcDbDimension
 62
7
  6
CONTINUOUS
  2
*D3
 10
92.4332289403
 20
-22.5
 11
92.4332289403
 21
-0.4285688451
 70
160
 71
2
 42
45.0
  3
DIMSTYLE_2
100
AcDbAlignedDimension
 13
60.1073463722
 23
22.5
 14
57.5760963722
 24
-22.5
 50
270.0
100
AcDbRotatedDimension
  0
DIMENSION
  5
259
100
AcDbEntity
  8
0
100
AcDbDimension
 62
7
  6
CONTINUOUS
  2
*D4
 10
102.4332289403
 20
-45.0
 11
102.4332289403
 21
-0.4285709399
 70
160
 71
2
 42
90.0
  3
DIMSTYLE_2
100
AcDbAlignedDimension
 13
76.5013704652
 23
45.0
 14
76.5013704652
 24
-45.0
 50
270.0
100
AcDbRotatedDimension
  0
LWPOLYLINE
  5
25A
100
AcDbEntity
  8
RACCORDO
100
AcDbPolyline
 62
253
  6
CONTINUOUS
 90
28
 70
0
 10
-77.3700585586
 20
-43.8714290238
 10
-77.3686844686
 20
-43.9304743766
 10
-77.3638791753
 20
-43.9892336337
 10
-77.355673708
 20
-44.0475080222
 10
-77.3441178827
 20
-44.1050781734
 10
-77.3292609004
 20
-44.1617759443
 10
-77.3111367022
 20
-44.2174811733
 10
-77.2897893175
 20
-44.2720490404
 10
-77.2653059647
 20
-44.3252495663
 10
-77.2377989693
 20
-44.3768420397
 10
-77.2073859689
 20
-44.4266363763
 10
-77.1741696803
 20
-44.474493136
 10
-77.1382628328
 20
-44.5202616709
 10
-77.0997942217
 20
-44.5637943459
 10
-77.0589019354
 20
-44.6049511246
 10
-77.0157222969
 20
-44.6436030133
 10
-76.9704085578
 20
-44.6796246207
 10
-76.9231162995
 20
-44.7129042432
 10
-76.8739924813
 20
-44.7433438558
 10
-76.8231994415
 20
-44.7708483634
 10
-76.7709145997
 20
-44.7953277337
 10
-76.7173134256
 20
-44.8167039603
 10
-76.6625837313
 20
-44.8349078545
 10
-76.6069030317
 20
-44.849886574
 10
-76.5504351778
 20
-44.8615986049
 10
-76.4933606624
 20
-44.8700064094
 10
-76.4358771298
 20
-44.8750808273
 10
-76.3781758769
 20
-44.8768054117
  0
LWPOLYLINE
  5
25B
100
AcDbEntity
  8
RACCORDO
100
AcDbPolyline
 62
253
  6
CONTINUOUS
 90
28
 70
0
 10
-77.0704696982
 20
-43.9246281065
 10
-77.0696252612
 20
-43.96629429
 10
-77.0664307296
 20
-44.0075145745
 10
-77.0608861034
 20
-44.0482890176
 10
-77.0529569095
 20
-44.0887456584
 10
-77.0426776209
 20
-44.1287565602
 10
-77.0301516566
 20
-44.1679378676
 10
-77.0153473063
 20
-44.2063007183
 10
-76.9982962802
 20
-44.2438341817
 10
-76.9791971275
 20
-44.2801213992
 10
-76.9580341378
 20
-44.3151318114
 10
-76.9348230214
 20
-44.3488962717
 10
-76.9098094588
 20
-44.3810901221
 10
-76.8829763229
 20
-44.4116984623
 10
-76.8543407408
 20
-44.4407365201
 10
-76.824199774
 20
-44.4679248808
 10
-76.7925403022
 20
-44.4932444941
 10
-76.7593754457
 20
-44.5167147349
 10
-76.7250416268
 20
-44.5381138549
 10
-76.6895275462
 20
-44.5574215069
 10
-76.6528445032
 20
-44.5746583208
 10
-76.6153628175
 20
-44.5896640194
 10
-76.5770676316
 20
-44.6024166075
 10
-76.5379738031
 20
-44.6129382887
 10
-76.4984962242
 20
-44.621135071
 10
-76.4587731922
 20
-44.6269756618
 10
-76.4186664098
 20
-44.6304914639
 10
-76.3781758769
 20
-44.6316825048
  0
LWPOLYLINE
  5
25C
100
AcDbEntity
  8
RACCORDO
100
AcDbPolyline
 62
253
  6
CONTINUOUS
 90
9
 70
0
 10
-77.3700585586
 20
43.8714290238
 10
-77.3488539353
 20
41.530635219
 10
-77.3294010733
 20
39.1852651697
 10
-77.3116999728
 20
36.8353188758
 10
-77.2957477181
 20
34.4803128887
 10
-77.2815472247
 20
32.1207306571
 10
-77.2691072395
 20
29.7580225269
 10
-77.2584306778
 20
27.3926719467
 10
-77.2495146241
 20
25.0241954679
  0
LWPOLYLINE
  5
25D
100
AcDbEntity
  8
RACCORDO
100
AcDbPolyline
 62
253
  6
CONTINUOUS
 90
9
 70
0
 10
-77.0704696982
 20
43.9246281065
 10
-77.0492646814
 20
41.5803705021
 10
-77.0298115775
 20
39.2305985388
 10
-77.0121103866
 20
36.8757866537
 10
-76.9961582719
 20
34.5164144648
 10
-76.9819580701
 20
32.1529541779
 10
-76.9695182913
 20
29.7858704217
 10
-76.9588417721
 20
27.4156368628
 10
-76.9499256757
 20
25.0427361763
  0
LINE
  5
25E
100
AcDbEntity
  8
RACCORDO
100
AcDbLine
 62
253
  6
CONTINUOUS
 10
-77.2495146241
 20
25.0241954679
 11
-77.2332181219
 21
18.8795044447
  0
LINE
  5
25F
100
AcDbEntity
  8
RACCORDO
100
AcDbLine
 62
253
  6
CONTINUOUS
 10
-76.9499256757
 20
25.0427361763
 11
-76.9336291884
 21
18.8925039473
  0
LINE
  5
260
100
AcDbEntity
  8
RACCORDO
100
AcDbLine
 62
253
  6
CONTINUOUS
 10
-77.2332181219
 20
18.8795044447
 11
-77.2199214545
 21
11.3305150114
  0
LINE
  5
261
100
AcDbEntity
  8
RACCORDO
100
AcDbLine
 62
253
  6
CONTINUOUS
 10
-76.9336291884
 20
18.8925039473
 11
-76.9203325766
 21
11.3380604683
  0
LINE
  5
262
100
AcDbEntity
  8
RACCORDO
100
AcDbLine
 62
253
  6
CONTINUOUS
 10
-77.2199214545
 20
11.3305150114
 11
-77.2132711867
 21
3.77715111
  0
LINE
  5
263
100
AcDbEntity
  8
RACCORDO
100
AcDbLine
 62
253
  6
CONTINUOUS
 10
-76.9203325766
 20
11.3380604683
 11
-76.9136823257
 21
3.7797559319
  0
LINE
  5
264
100
AcDbEntity
  8
RACCORDO
100
AcDbLine
 62
7
  6
CONTINUOUS
 10
-77.5
 20
-44.0013704652
 11
-77.5
 21
44.0013704652
  0
LINE
  5
265
100
AcDbEntity
  8
RACCORDO
100
AcDbLine
 62
253
  6
CONTINUOUS
 10
-76.3781758769
 20
-44.6316825048
 11
-76.3781758769
 21
-44.8768054117
  0
LINE
  5
266
100
AcDbEntity
  8
RACCORDO
100
AcDbLine
 62
253
  6
CONTINUOUS
 10
-76.3781758769
 20
44.6316825048
 11
-76.3781758772
 21
44.8768054117
  0
LINE
  5
267
100
AcDbEntity
  8
RACCORDO
100
AcDbLine
 62
253
  6
CONTINUOUS
 10
-77.2132711867
 20
3.77715111
 11
-77.213271186
 21
-3.7771499691
  0
LINE
  5
268
100
AcDbEntity
  8
RACCORDO
100
AcDbLine
 62
253
  6
CONTINUOUS
 10
-76.9136823257
 20
3.7797559319
 11
-76.9136823261
 21
-3.7797569659
  0
LINE
  5
269
100
AcDbEntity
  8
RACCORDO
100
AcDbLine
 62
253
  6
CONTINUOUS
 10
-77.213271186
 20
-3.7771499691
 11
-77.2199214528
 21
-11.3305136537
  0
LINE
  5
26A
100
AcDbEntity
  8
RACCORDO
100
AcDbLine
 62
253
  6
CONTINUOUS
 10
-76.9136823261
 20
-3.7797569659
 11
-76.9203325776
 21
-11.3380611962
  0
LINE
  5
26B
100
AcDbEntity
  8
RACCORDO
100
AcDbLine
 62
253
  6
CONTINUOUS
 10
-77.2199214528
 20
-11.3305136537
 11
-77.2332181209
 21
-18.8795038031
  0
LINE
  5
26C
100
AcDbEntity
  8
RACCORDO
100
AcDbLine
 62
253
  6
CONTINUOUS
 10
-76.9203325776
 20
-11.3380611962
 11
-76.933629189
 21
-18.892504222
  0
LWPOLYLINE
  5
26D
100
AcDbEntity
  8
RACCORDO
100
AcDbPolyline
 62
253
  6
CONTINUOUS
 90
10
 70
0
 10
-76.933629189
 20
-18.892504222
 10
-76.949925677
 20
-25.0427362954
 10
-76.9588417737
 20
-27.4156370147
 10
-76.9695182923
 20
-29.7858705046
 10
-76.9819580688
 20
-32.1529539987
 10
-76.9961582673
 20
-34.516413923
 10
-77.0121103802
 20
-36.8757859222
 10
-77.0298115717
 20
-39.2305978808
 10
-77.0492646777
 20
-41.5803700883
 10
-77.0704696982
 20
-43.9246281065
  0
LWPOLYLINE
  5
26E
100
AcDbEntity
  8
RACCORDO
100
AcDbPolyline
 62
253
  6
CONTINUOUS
 90
10
 70
0
 10
-77.2332181209
 20
-18.8795038031
 10
-77.2495146367
 20
-25.0241988665
 10
-77.2584307064
 20
-27.3926785798
 10
-77.2691072875
 20
-29.7580322302
 10
-77.2815473045
 20
-32.1207441804
 10
-77.2957478329
 20
-34.4803300678
 10
-77.3117000999
 20
-36.8353368046
 10
-77.329401181
 20
-39.1852800282
 10
-77.3488540005
 20
-41.5306441013
 10
-77.3700585586
 20
-43.8714290238
  0
LWPOLYLINE
  5
26F
100
AcDbEntity
  8
0
100
AcDbPolyline
 62
7
  6
CONTINUOUS
 90
7
 70
0
 10
-56.35
 20
-6.0898979486
 10
-56.3516011241
 20
-6.0687536693
 10
-56.353260569
 20
-6.0500739052
 10
-56.3549783346
 20
-6.0338586562
 10
-56.356754421
 20
-6.0201079223
 10
-56.358588828
 20
-6.0088217036
 10
-56.3604815559
 20
-6.0
  0
LINE
  5
270
100
AcDbEntity
  8
RACCORDO
100
AcDbLine
 62
253
  6
CONTINUOUS
 10
-56.9942885593
 20
-21.8703705759
 11
-57.0097532489
 21
-14.5834397175
  0
LINE
  5
271
100
AcDbEntity
  8
RACCORDO
100
AcDbLine
 62
253
  6
CONTINUOUS
 10
-56.4949737308
 20
-21.8461021525
 11
-56.5104384536
 21
-14.5669359818
  0
LINE
  5
272
100
AcDbEntity
  8
RACCORDO
100
AcDbLine
 62
253
  6
CONTINUOUS
 10
-57.0097532489
 20
-14.5834397175
 11
-57.0190327639
 21
-7.2926778504
  0
LINE
  5
273
100
AcDbEntity
  8
RACCORDO
100
AcDbLine
 62
253
  6
CONTINUOUS
 10
-56.5104384536
 20
-14.5669359818
 11
-56.5197179895
 21
-7.2846612491
  0
LINE
  5
274
100
AcDbEntity
  8
RACCORDO
100
AcDbLine
 62
253
  6
CONTINUOUS
 10
-57.0190327639
 20
-7.2926778504
 11
-57.0221266469
 21
-0.0000000449
  0
LINE
  5
275
100
AcDbEntity
  8
RACCORDO
100
AcDbLine
 62
253
  6
CONTINUOUS
 10
-56.5197179895
 20
-7.2846612491
 11
-56.5228118795
 21
0.0000046778
  0
LINE
  5
276
100
AcDbEntity
  8
0
100
AcDbLine
 62
7
  6
CONTINUOUS
 10
-56.3604815559
 20
-6.0
 11
-56.3604815559
 21
6.0
  0
LINE
  5
277
100
AcDbEntity
  8
0
100
AcDbLine
 62
7
  6
CONTINUOUS
 10
-56.35
 20
-21.7010963722
 11
-56.35
 21
-6.0898979486
  0
LINE
  5
278
100
AcDbEntity
  8
0
100
AcDbLine
 62
7
  6
CONTINUOUS
 10
-56.35
 20
6.0898979486
 11
-56.35
 21
21.7010963722
  0
LINE
  5
279
100
AcDbEntity
  8
RACCORDO
100
AcDbLine
 62
253
  6
CONTINUOUS
 10
-55.6926456448
 20
23.1675430277
 11
-55.6926456448
 21
22.6415492726
  0
LINE
  5
27A
100
AcDbEntity
  8
RACCORDO
100
AcDbLine
 62
253
  6
CONTINUOUS
 10
-55.6926456448
 20
-23.1675430277
 11
-55.6926456448
 21
-22.6415492726
  0
LINE
  5
27B
100
AcDbEntity
  8
RACCORDO
100
AcDbLine
 62
253
  6
CONTINUOUS
 10
-57.0221266469
 20
-0.0000000449
 11
-57.0190327641
 21
7.2926777695
  0
LINE
  5
27C
100
AcDbEntity
  8
RACCORDO
100
AcDbLine
 62
253
  6
CONTINUOUS
 10
-56.5228118795
 20
0.0000046778
 11
-56.519717977
 21
7.2846728244
  0
LINE
  5
27D
100
AcDbEntity
  8
RACCORDO
100
AcDbLine
 62
253
  6
CONTINUOUS
 10
-57.0190327641
 20
7.2926777695
 11
-57.0097532492
 21
14.5834396663
  0
LINE
  5
27E
100
AcDbEntity
  8
RACCORDO
100
AcDbLine
 62
253
  6
CONTINUOUS
 10
-56.519717977
 20
7.2846728244
 11
-56.5104384523
 21
14.5669384586
  0
LINE
  5
27F
100
AcDbEntity
  8
RACCORDO
100
AcDbLine
 62
253
  6
CONTINUOUS
 10
-57.0097532492
 20
14.5834396663
 11
-56.9942885593
 21
21.8703705759
  0
LINE
  5
280
100
AcDbEntity
  8
RACCORDO
100
AcDbLine
 62
253
  6
CONTINUOUS
 10
-56.5104384523
 20
14.5669384586
 11
-56.4949737716
 21
21.8460808361
  0
LWPOLYLINE
  5
281
100
AcDbEntity
  8
RACCORDO
100
AcDbPolyline
 62
253
  6
CONTINUOUS
 90
13
 70
0
 10
-56.9942885593
 20
21.8703705759
 10
-56.9924155439
 20
21.9398583102
 10
-56.9866078772
 20
22.0094119758
 10
-56.9768655593
 20
22.0790315696
 10
-56.96317883
 20
22.1490872379
 10
-56.9455574495
 20
22.2192088224
 10
-56.9240306982
 20
22.2882858881
 10
-56.8984214608
 20
22.3563516252
 10
-56.8689068525
 20
22.4233728872
 10
-56.8360474991
 20
22.4881397869
 10
-56.8000302758
 20
22.5502490714
 10
-56.7606683073
 20
22.6101040923
 10
-56.7179615936
 20
22.6677048937
  0
LWPOLYLINE
  5
282
100
AcDbEntity
  8
RACCORDO
100
AcDbPolyline
 62
253
  6
CONTINUOUS
 90
13
 70
0
 10
-56.4949737619
 20
21.8460808265
 10
-56.4937328644
 20
21.8886036479
 10
-56.4901738482
 20
21.9314160131
 10
-56.4842389437
 20
21.9743886709
 10
-56.4758591596
 20
22.0174673069
 10
-56.4650003536
 20
22.0604256281
 10
-56.4517087855
 20
22.1028768865
 10
-56.4359804906
 20
22.144722119
 10
-56.4178500493
 20
22.1857771256
 10
-56.3975336802
 20
22.2255624421
 10
-56.3751945359
 20
22.2638604283
 10
-56.3508761538
 20
22.3006865786
 10
-56.3246817863
 20
22.3359476087
  0
LWPOLYLINE
  5
283
100
AcDbEntity
  8
0
100
AcDbPolyline
 62
7
  6
CONTINUOUS
 90
7
 70
0
 10
-56.3604815559
 20
6.0
 10
-56.3585888281
 20
6.0088217034
 10
-56.356754421
 20
6.0201079221
 10
-56.3549783347
 20
6.0338586559
 10
-56.353260569
 20
6.0500739049
 10
-56.3516011242
 20
6.0687536691
 10
-56.35
 20
6.0898979486
  0
LWPOLYLINE
  5
284
100
AcDbEntity
  8
RACCORDO
100
AcDbPolyline
 62
253
  6
CONTINUOUS
 90
19
 70
0
 10
-56.7179615936
 20
22.6677048937
 10
-56.6763515819
 20
22.7182633631
 10
-56.6323970285
 20
22.7665090906
 10
-56.5860979334
 20
22.8124421741
 10
-56.5373275136
 20
22.856185478
 10
-56.4862125521
 20
22.8976163188
 10
-56.4331333978
 20
22.9363664805
 10
-56.3780583149
 20
22.9724168283
 10
-56.3210190391
 20
23.0057866808
 10
-56.2624911261
 20
23.0361655172
 10
-56.2024288641
 20
23.0635235532
 10
-56.1408779649
 20
23.0878907349
 10
-56.0784511205
 20
23.1090461402
 10
-56.0151331148
 20
23.126936511
 10
-55.9509391638
 20
23.141615225
 10
-55.8865276073
 20
23.1530213053
 10
-55.8221178919
 20
23.1611344469
 10
-55.7574905711
 20
23.165975016
 10
-55.6926456448
 20
23.1675430277
  0
LWPOLYLINE
  5
285
100
AcDbEntity
  8
RACCORDO
100
AcDbPolyline
 62
253
  6
CONTINUOUS
 90
19
 70
0
 10
-56.3246817863
 20
22.3359476087
 10
-56.2990830042
 20
22.3668591205
 10
-56.271922505
 20
22.3964852272
 10
-56.2432631352
 20
22.4247458834
 10
-56.2131733801
 20
22.4515620177
 10
-56.181723042
 20
22.4768619692
 10
-56.148982314
 20
22.50058075
 10
-56.1150162128
 20
22.5226586151
 10
-56.0799188397
 20
22.5430223145
 10
-56.0438117559
 20
22.5615964443
 10
-56.0067701843
 20
22.5783371431
 10
-55.9689030148
 20
22.5931902598
 10
-55.9303941157
 20
22.6060896159
 10
-55.8913427985
 20
22.6170126917
 10
-55.8518539734
 20
22.6259407359
 10
-55.8121289781
 20
22.6328483042
 10
-55.7723053082
 20
22.6377400429
 10
-55.7324526834
 20
22.6406344807
 10
-55.692671399
 20
22.6415493158
  0
LWPOLYLINE
  5
286
100
AcDbEntity
  8
RACCORDO
100
AcDbPolyline
 62
253
  6
CONTINUOUS
 90
13
 70
0
 10
-56.3246817863
 20
-22.3359476087
 10
-56.3506557687
 20
-22.3010009824
 10
-56.3748203413
 20
-22.264462247
 10
-56.3970659179
 20
-22.2264169859
 10
-56.4173353876
 20
-22.1868568238
 10
-56.4354657963
 20
-22.1459797892
 10
-56.4512467764
 20
-22.1042156145
 10
-56.4646370571
 20
-22.0617066033
 10
-56.4756095632
 20
-22.0185810825
 10
-56.4840895554
 20
-21.9752853469
 10
-56.4901016143
 20
-21.9320674269
 10
-56.4937126284
 20
-21.8889625714
 10
-56.4949737014
 20
-21.8461021237
  0
LWPOLYLINE
  5
287
100
AcDbEntity
  8
RACCORDO
100
AcDbPolyline
 62
253
  6
CONTINUOUS
 90
13
 70
0
 10
-56.7179615936
 20
-22.6677048937
 10
-56.7603004273
 20
-22.6106822652
 10
-56.7993880176
 20
-22.5513301182
 10
-56.8352243643
 20
-22.4896484074
 10
-56.8680084775
 20
-22.4252653073
 10
-56.8975413472
 20
-22.3585525425
 10
-56.9232259432
 20
-22.2906254159
 10
-56.9449016682
 20
-22.2214638456
 10
-56.9627291194
 20
-22.1510878612
 10
-56.976593058
 20
-22.0806729838
 10
-56.986455071
 20
-22.0106110663
 10
-56.9923535715
 20
-21.9405102634
 10
-56.9942885593
 20
-21.8703705759
  0
LWPOLYLINE
  5
288
100
AcDbEntity
  8
RACCORDO
100
AcDbPolyline
 62
253
  6
CONTINUOUS
 90
28
 70
0
 10
76.3781758769
 20
-44.8768054117
 10
76.4358790912
 20
-44.8750806058
 10
76.4933273885
 20
-44.8700102287
 10
76.5503303845
 20
-44.8616171492
 10
76.6066620052
 20
-44.8499439897
 10
76.6621751202
 20
-44.8350306373
 10
76.7167964506
 20
-44.8168925971
 10
76.770393801
 20
-44.7955529004
 10
76.8227268303
 20
-44.771086409
 10
76.8735626186
 20
-44.743592966
 10
76.9227052357
 20
-44.713175756
 10
76.9700127188
 20
-44.6799207097
 10
77.0153430184
 20
-44.6439229412
 10
77.058541784
 20
-44.6052929096
 10
77.0994543358
 20
-44.5641569719
 10
77.1379446408
 20
-44.5206436514
 10
77.1738754279
 20
-44.4748915901
 10
77.2071166854
 20
-44.4270494968
 10
77.2375534477
 20
-44.3772716237
 10
77.2650750393
 20
-44.3257147992
 10
77.289574811
 20
-44.2725531665
 10
77.3109589176
 20
-44.2179774542
 10
77.3291446967
 20
-44.1621714079
 10
77.3440619639
 20
-44.105319636
 10
77.3556541505
 20
-44.047622577
 10
77.3638742693
 20
-43.9892780405
 10
77.3686841964
 20
-43.9304802998
 10
77.3700585586
 20
-43.8714290238
  0
LWPOLYLINE
  5
289
100
AcDbEntity
  8
RACCORDO
100
AcDbPolyline
 62
253
  6
CONTINUOUS
 90
28
 70
0
 10
76.3781758769
 20
-44.6316825048
 10
76.4187038743
 20
-44.6304780836
 10
76.4588119933
 20
-44.626961863
 10
76.4985002339
 20
-44.6211338159
 10
76.537882471
 20
-44.6129688545
 10
76.5768448297
 20
-44.6024919575
 10
76.6150456852
 20
-44.5897781721
 10
76.6525079896
 20
-44.5747958048
 10
76.6892087907
 20
-44.5575763404
 10
76.7247376072
 20
-44.538289581
 10
76.7590663946
 20
-44.5169205958
 10
76.7922231974
 20
-44.4934840338
 10
76.8238816675
 20
-44.4681940731
 10
76.8540327652
 20
-44.4410301138
 10
76.8826855302
 20
-44.4120124308
 10
76.9095407336
 20
-44.3814165412
 10
76.9345831099
 20
-44.3492228294
 10
76.9578279245
 20
-44.3154505818
 10
76.979021745
 20
-44.2804337214
 10
76.9981438556
 20
-44.2441561065
 10
77.0152149721
 20
-44.2066335864
 10
77.0300438091
 20
-44.1682481484
 10
77.0426064825
 20
-44.1289768997
 10
77.0529268766
 20
-44.0888425141
 10
77.0608853584
 20
-44.0482954332
 10
77.0664420505
 20
-44.0074857957
 10
77.0696368304
 20
-43.9662633712
 10
77.0704696982
 20
-43.9246281065
  0
LWPOLYLINE
  5
28A
100
AcDbEntity
  8
RACCORDO
100
AcDbPolyline
 62
253
  6
CONTINUOUS
 90
19
 70
0
 10
77.0704696982
 20
-43.9246280943
 10
77.0957596656
 20
-43.924207405
 10
77.1208695746
 20
-43.9234109463
 10
77.1456206487
 20
-43.9222443888
 10
77.1698366663
 20
-43.9207160381
 10
77.1933452151
 20
-43.9188367757
 10
77.2159789199
 20
-43.9166199815
 10
77.2375766343
 20
-43.9140814385
 10
77.2579845877
 20
-43.9112392206
 10
77.2770574805
 20
-43.9081135635
 10
77.2946595182
 20
-43.9047267214
 10
77.3106653787
 20
-43.9011028076
 10
77.324961104
 20
-43.8972676235
 10
77.337444912
 20
-43.8932484748
 10
77.3480279211
 20
-43.8890739767
 10
77.3566347828
 20
-43.8847738508
 10
77.3632042183
 20
-43.8803787129
 10
77.3676894548
 20
-43.8759198552
 10
77.3700585586
 20
-43.8714290238
  0
LINE
  5
28B
100
AcDbEntity
  8
RACCORDO
100
AcDbLine
 62
7
  6
CONTINUOUS
 10
-76.5013704652
 20
-45.0
 11
76.5013704652
 21
-45.0
  0
LINE
  5
28C
100
AcDbEntity
  8
RACCORDO
100
AcDbLine
 62
253
  6
CONTINUOUS
 10
-76.3781758769
 20
-44.8768054117
 11
76.3781758769
 21
-44.8768054117
  0
LINE
  5
28D
100
AcDbEntity
  8
RACCORDO
100
AcDbLine
 62
253
  6
CONTINUOUS
 10
-76.3781758769
 20
-44.6316825048
 11
76.3781758769
 21
-44.6316825048
  0
LWPOLYLINE
  5
28E
100
AcDbEntity
  8
RACCORDO
100
AcDbPolyline
 62
253
  6
CONTINUOUS
 90
19
 70
0
 10
-77.0704696982
 20
-43.9246280955
 10
-77.095759238
 20
-43.9242073328
 10
-77.1208686854
 20
-43.9234108103
 10
-77.1456192716
 20
-43.9222441987
 10
-77.1698347824
 20
-43.9207158039
 10
-77.1933428136
 20
-43.9188365074
 10
-77.2159759974
 20
-43.9166196889
 10
-77.2375731949
 20
-43.9140811314
 10
-77.2579806431
 20
-43.9112389082
 10
-77.2770530492
 20
-43.9081132548
 10
-77.2946546255
 20
-43.9047264246
 10
-77.3106600561
 20
-43.9011025304
 10
-77.3249553888
 20
-43.8972673728
 10
-77.3374388469
 20
-43.8932482565
 10
-77.3480215531
 20
-43.889073796
 10
-77.356628163
 20
-43.8847737118
 10
-77.363197401
 20
-43.8803786186
 10
-77.3676824969
 20
-43.8759198077
 10
-77.3700515186
 20
-43.871429024
  0
LWPOLYLINE
  5
28F
100
AcDbEntity
  8
0
100
AcDbPolyline
 62
7
  6
CONTINUOUS
 90
28
 70
0
 10
4.2166806432
 20
-27.3236280866
 10
4.2480821794
 20
-27.322366315
 10
4.2783241464
 20
-27.3200893883
 10
4.3074065443
 20
-27.3167973033
 10
4.3352696447
 20
-27.3125143789
 10
4.3619731759
 20
-27.3072162854
 10
4.3876963226
 20
-27.3008300442
 10
4.4125087821
 20
-27.2933855828
 10
4.4363408571
 20
-27.2848529528
 10
4.4591626413
 20
-27.2750693561
 10
4.4809916753
 20
-27.2640698945
 10
4.5018104185
 20
-27.2518194302
 10
4.5215363427
 20
-27.2380497957
 10
4.5401741422
 20
-27.2226414491
 10
4.5577191229
 20
-27.2057138689
 10
4.5740746735
 20
-27.1873574113
 10
4.5892392933
 20
-27.1674583785
 10
4.6032144831
 20
-27.1461303906
 10
4.6159081342
 20
-27.1238047911
 10
4.6272981529
 20
-27.1005173896
 10
4.6374066329
 20
-27.0762323151
 10
4.6462077473
 20
-27.0512734122
 10
4.6537245892
 20
-27.0257201152
 10
4.6599340655
 20
-26.9994929458
 10
4.6647410698
 20
-26.9726773931
 10
4.6681139001
 20
-26.9453019408
 10
4.6700842585
 20
-26.9173380636
 10
4.6706521449
 20
-26.8887857398
  0
LINE
  5
290
100
AcDbEntity
  8
0
100
AcDbLine
 62
7
  6
CONTINUOUS
 10
5.3591482119
 20
-28.8778013544
 11
4.7970156219
 21
-28.8778013544
  0
LINE
  5
291
100
AcDbEntity
  8
0
100
AcDbLine
 62
7
  6
CONTINUOUS
 10
3.9020753449
 20
-28.8778013544
 11
3.3200188023
 21
-28.8778013544
  0
LINE
  5
292
100
AcDbEntity
  8
0
100
AcDbLine
 62
7
  6
CONTINUOUS
 10
3.148408
 20
-28.877801
 11
2.532466
 21
-28.877801
  0
LINE
  5
293
100
AcDbEntity
  8
0
100
AcDbLine
 62
7
  6
CONTINUOUS
 10
1.423947
 20
-28.877801
 11
0.84588
 21
-28.877801
  0
LINE
  5
294
100
AcDbEntity
  8
0
100
AcDbLine
 62
7
  6
CONTINUOUS
 10
0.754112
 20
-28.877801
 11
0.182406
 21
-28.877801
  0
LINE
  5
295
100
AcDbEntity
  8
0
100
AcDbLine
 62
7
  6
CONTINUOUS
 10
-0.632524
 20
-28.877801
 11
-0.714487
 21
-28.877801
  0
LINE
  5
296
100
AcDbEntity
  8
0
100
AcDbLine
 62
7
  6
CONTINUOUS
 10
-1.526183
 20
-28.877801
 11
-2.085272
 21
-28.877801
  0
LINE
  5
297
100
AcDbEntity
  8
0
100
AcDbLine
 62
7
  6
CONTINUOUS
 10
-2.399877
 20
-28.877801
 11
-2.984285
 21
-28.877801
  0
LINE
  5
298
100
AcDbEntity
  8
0
100
AcDbLine
 62
7
  6
CONTINUOUS
 10
-4.101097
 20
-28.877801
 11
-4.616107
 21
-28.877801
  0
LINE
  5
299
100
AcDbEntity
  8
0
100
AcDbLine
 62
7
  6
CONTINUOUS
 10
2.381074
 20
-28.318881
 11
1.585207
 21
-28.318881
  0
LINE
  5
29A
100
AcDbEntity
  8
0
100
AcDbLine
 62
7
  6
CONTINUOUS
 10
2.26428
 20
-27.886391
 11
1.704751
 21
-27.886391
  0
LINE
  5
29B
100
AcDbEntity
  8
0
100
AcDbLine
 62
7
  6
CONTINUOUS
 10
4.2154209623
 20
-27.7821519248
 11
3.9020753449
 21
-27.7821519248
  0
LINE
  5
29C
100
AcDbEntity
  8
0
100
AcDbLine
 62
7
  6
CONTINUOUS
 10
4.2166806432
 20
-27.3236280866
 11
3.8826972541
 21
-27.3236280866
  0
LINE
  5
29D
100
AcDbEntity
  8
0
100
AcDbLine
 62
253
  6
CONTINUOUS
 10
-56.4949737308
 20
-21.8461021525
 11
-56.35
 21
-21.7010963722
  0
LINE
  5
29E
100
AcDbEntity
  8
RACCORDO
100
AcDbLine
 62
253
  6
CONTINUOUS
 10
-77.3700585586
 20
-43.8714290238
 11
-77.5
 21
-44.0013704652
  0
LINE
  5
29F
100
AcDbEntity
  8
0
100
AcDbLine
 62
253
  6
CONTINUOUS
 10
-55.6926540311
 20
-22.6415492726
 11
-55.5510963722
 21
-22.5
  0
LINE
  5
2A0
100
AcDbEntity
  8
RACCORDO
100
AcDbLine
 62
253
  6
CONTINUOUS
 10
-76.3781758769
 20
-44.8768054117
 11
-76.5013704652
 21
-45.0
  0
LWPOLYLINE
  5
2A1
100
AcDbEntity
  8
0
100
AcDbPolyline
 62
7
  6
CONTINUOUS
 90
19
 70
0
 10
3.3200188023
 20
-26.110807341
 10
3.421190671
 20
-26.0962515683
 10
3.5198685414
 20
-26.0834846271
 10
3.6160524134
 20
-26.0725065466
 10
3.7097167916
 20
-26.0632585346
 10
3.8008871714
 20
-26.0557994289
 10
3.8896400391
 20
-26.0503056997
 10
3.9760128838
 20
-26.0468464695
 10
4.0599682163
 20
-26.0453526383
 10
4.1414700547
 20
-26.0457933368
 10
4.2204825325
 20
-26.0481450292
 10
4.2970415161
 20
-26.0524312444
 10
4.3712186234
 20
-26.0586917029
 10
4.4431916776
 20
-26.0668473301
 10
4.5127828555
 20
-26.0769771647
 10
4.5795303049
 20
-26.0893580854
 10
4.6432800751
 20
-26.1040823574
 10
4.7041861167
 20
-26.1210576365
 10
4.7622484297
 20
-26.1402838735
  0
LWPOLYLINE
  5
2A2
100
AcDbEntity
  8
RACCORDO
100
AcDbPolyline
 62
253
  6
CONTINUOUS
 90
16
 70
0
 10
-56.869093969
 20
-21.8692779856
 10
-56.8287508969
 20
-21.8685789918
 10
-56.7895852216
 20
-21.8677199025
 10
-56.7518755116
 20
-21.8667068282
 10
-56.7158899793
 20
-21.8655469743
 10
-56.6818845742
 20
-21.8642485904
 10
-56.6501011618
 20
-21.8628209112
 10
-56.6207658036
 20
-21.8612740914
 10
-56.594087149
 20
-21.8596191327
 10
-56.5702549518
 20
-21.8578678061
 10
-56.5494387199
 20
-21.856032568
 10
-56.53178651
 20
-21.8541264717
 10
-56.5174238746
 20
-21.8521630745
 10
-56.5064529687
 20
-21.850156341
 10
-56.4989518238
 20
-21.8481205443
 10
-56.494973792
 20
-21.8460701642
  0
LWPOLYLINE
  5
2A3
100
AcDbEntity
  8
RACCORDO
100
AcDbPolyline
 62
253
  6
CONTINUOUS
 90
17
 70
0
 10
76.9931469953
 20
-22.667357485
 10
77.0178871765
 20
-22.6670254536
 10
77.0420930806
 20
-22.6665907705
 10
77.0655925403
 20
-22.6660565275
 10
77.0882184134
 20
-22.6654265243
 10
77.1098097709
 20
-22.664705242
 10
77.1302130421
 20
-22.6638978107
 10
77.1492831066
 20
-22.6630099734
 10
77.1668843265
 20
-22.6620480449
 10
77.1828915112
 20
-22.6610188671
 10
77.1971908081
 20
-22.6599297601
 10
77.2096805118
 20
-22.6587884702
 10
77.2202717881
 20
-22.657603115
 10
77.2288893053
 20
-22.6563821255
 10
77.2354717705
 20
-22.6551341861
 10
77.2399723652
 20
-22.6538681728
 10
77.2423590785
 20
-22.6525930904
  0
LINE
  5
2A4
100
AcDbEntity
  8
RACCORDO
100
AcDbLine
 62
253
  6
CONTINUOUS
 10
76.9427702181
 20
-22.6677048932
 11
76.9931469953
 21
-22.667357485
  0
LWPOLYLINE
  5
2A5
100
AcDbEntity
  8
RACCORDO
100
AcDbPolyline
 62
253
  6
CONTINUOUS
 90
3
 70
0
 10
-56.9942885593
 20
-21.8703705753
 10
-56.9521581999
 20
-21.8701769744
 10
-56.869093969
 20
-21.8692779856
  0
LINE
  5
2A6
100
AcDbEntity
  8
0
100
AcDbLine
 62
7
  6
CONTINUOUS
 10
2.28939
 20
-26.078098
 11
1.724045
 21
-26.078098
  0
LINE
  5
2A7
100
AcDbEntity
  8
0
100
AcDbLine
 62
7
  6
CONTINUOUS
 10
0.492308
 20
-26.078098
 11
-0.085906
 21
-26.078098
  0
LINE
  5
2A8
100
AcDbEntity
  8
0
100
AcDbLine
 62
7
  6
CONTINUOUS
 10
-1.24855
 20
-26.078098
 11
-1.832475
 21
-26.078098
  0
LINE
  5
2A9
100
AcDbEntity
  8
0
100
AcDbLine
 62
7
  6
CONTINUOUS
 10
-3.20116
 20
-26.078098
 11
-3.785169
 21
-26.078098
  0
LINE
  5
2AA
100
AcDbEntity
  8
0
100
AcDbLine
 62
7
  6
CONTINUOUS
 10
-4.86882
 20
-26.078098
 11
-5.503668
 21
-26.078098
  0
LINE
  5
2AB
100
AcDbEntity
  8
0
100
AcDbLine
 62
7
  6
CONTINUOUS
 10
-2.399877
 20
-26.07793
 11
-2.984285
 21
-26.07793
  0
LINE
  5
2AC
100
AcDbEntity
  8
RACCORDO
100
AcDbLine
 62
253
  6
CONTINUOUS
 10
55.6926456448
 20
-23.1675430277
 11
-55.6926456448
 21
-23.1675430277
  0
LINE
  5
2AD
100
AcDbEntity
  8
RACCORDO
100
AcDbLine
 62
253
  6
CONTINUOUS
 10
-56.7179615936
 20
-22.6677048937
 11
-76.9427701041
 21
-22.6676473889
  0
LINE
  5
2AE
100
AcDbEntity
  8
RACCORDO
100
AcDbLine
 62
253
  6
CONTINUOUS
 10
76.9427701044
 20
-22.6676475367
 11
56.7179615936
 21
-22.6677048937
  0
LINE
  5
2AF
100
AcDbEntity
  8
RACCORDO
100
AcDbLine
 62
253
  6
CONTINUOUS
 10
55.6926713554
 20
-22.6415492726
 11
-55.6926540311
 21
-22.6415492726
  0
LINE
  5
2B0
100
AcDbEntity
  8
0
100
AcDbLine
 62
7
  6
CONTINUOUS
 10
55.5510963722
 20
-22.5
 11
-55.5510963722
 21
-22.5
  0
LWPOLYLINE
  5
2B1
100
AcDbEntity
  8
RACCORDO
100
AcDbPolyline
 62
253
  6
CONTINUOUS
 90
18
 70
0
 10
56.9942885593
 20
-21.8703704105
 10
56.9103272302
 20
-21.8698117862
 10
56.8690935311
 20
-21.8692778769
 10
56.8287502659
 20
-21.8685788992
 10
56.7895843821
 20
-21.8677198246
 10
56.7518744527
 20
-21.8667067634
 10
56.7158886954
 20
-21.8655469213
 10
56.6818830641
 20
-21.8642485476
 10
56.6500994291
 20
-21.8628208775
 10
56.620763856
 20
-21.8612740652
 10
56.5940849987
 20
-21.8596191129
 10
56.5702526143
 20
-21.8578677915
 10
56.5494362143
 20
-21.8560325576
 10
56.5317838585
 20
-21.8541264646
 10
56.5174211019
 20
-21.8521630699
 10
56.5064501016
 20
-21.8501563383
 10
56.4989488906
 20
-21.8481205432
 10
56.4949708223
 20
-21.8460701642
  0
LWPOLYLINE
  5
2B2
100
AcDbEntity
  8
RACCORDO
100
AcDbPolyline
 62
253
  6
CONTINUOUS
 90
18
 70
0
 10
-76.9427702181
 20
-22.6677048929
 10
-76.9931469947
 20
-22.6673574847
 10
-77.0178871757
 20
-22.6670254534
 10
-77.0420930795
 20
-22.6665907703
 10
-77.065592539
 20
-22.6660565272
 10
-77.0882184119
 20
-22.6654265241
 10
-77.1098097693
 20
-22.6647052418
 10
-77.1302130404
 20
-22.6638978105
 10
-77.1492831048
 20
-22.6630099732
 10
-77.1668843246
 20
-22.6620480448
 10
-77.1828915094
 20
-22.661018867
 10
-77.1971908064
 20
-22.65992976
 10
-77.2096805103
 20
-22.6587884701
 10
-77.2202717867
 20
-22.6576031149
 10
-77.2288893042
 20
-22.6563821254
 10
-77.2354717697
 20
-22.655134186
 10
-77.2399723648
 20
-22.6538681728
 10
-77.2423590785
 20
-22.6525930904
  0
LWPOLYLINE
  5
2B3
100
AcDbEntity
  8
RACCORDO
100
AcDbPolyline
 62
253
  6
CONTINUOUS
 90
31
 70
0
 10
-55.6926540454
 20
-22.6415492868
 10
-55.7185796276
 20
-22.6411763754
 10
-55.744162917
 20
-22.6399893307
 10
-55.7693794123
 20
-22.638019527
 10
-55.7941804146
 20
-22.6353020301
 10
-55.8185715719
 20
-22.6318669589
 10
-55.8426116885
 20
-22.6277313968
 10
-55.8662817624
 20
-22.6229205166
 10
-55.8895652692
 20
-22.6174595124
 10
-55.9125240697
 20
-22.6113516052
 10
-55.9351412743
 20
-22.6046156456
 10
-55.9574017183
 20
-22.5972705261
 10
-55.9793672958
 20
-22.5893061202
 10
-56.0010217451
 20
-22.5807352206
 10
-56.0223490936
 20
-22.5715710726
 10
-56.043407399
 20
-22.5617915029
 10
-56.0641791317
 20
-22.5514039568
 10
-56.0846461838
 20
-22.5404167282
 10
-56.1048599189
 20
-22.5287970808
 10
-56.1247996188
 20
-22.5165481451
 10
-56.1444440146
 20
-22.5036739324
 10
-56.1638363031
 20
-22.4901321171
 10
-56.1829507773
 20
-22.4759226904
 10
-56.2017618811
 20
-22.4610460466
 10
-56.2203040298
 20
-22.4454503681
 10
-56.2385437798
 20
-22.4291346563
 10
-56.2564508735
 20
-22.4120955772
 10
-56.2740531795
 20
-22.394268098
 10
-56.2913304519
 20
-22.3756254022
 10
-56.3082206965
 20
-22.3561855801
 10
-56.3246817863
 20
-22.3359476087
  0
LWPOLYLINE
  5
2B4
100
AcDbEntity
  8
RACCORDO
100
AcDbPolyline
 62
253
  6
CONTINUOUS
 90
31
 70
0
 10
-55.6926456448
 20
-23.1675430277
 10
-55.7347708606
 20
-23.1667771935
 10
-55.7762653498
 20
-23.1647882958
 10
-55.8171291124
 20
-23.1615763321
 10
-55.8573514508
 20
-23.1571010166
 10
-55.8969430626
 20
-23.1514026259
 10
-55.9359360403
 20
-23.1446020007
 10
-55.974325978
 20
-23.1367137257
 10
-56.0121172816
 20
-23.1277232007
 10
-56.0493552609
 20
-23.1177074884
 10
-56.0860390143
 20
-23.1066804047
 10
-56.1221694435
 20
-23.0946281134
 10
-56.1577945631
 20
-23.0815861983
 10
-56.192917418
 20
-23.0675671613
 10
-56.2275349634
 20
-23.0525584753
 10
-56.2616860802
 20
-23.0365581804
 10
-56.2953770221
 20
-23.0195771065
 10
-56.3286015353
 20
-23.0016043932
 10
-56.3613797397
 20
-22.9826055428
 10
-56.3937202955
 20
-22.9625899176
 10
-56.4256145425
 20
-22.9415481184
 10
-56.45705662
 20
-22.9194175027
 10
-56.4880571543
 20
-22.8962062868
 10
-56.518605519
 20
-22.8719062094
 10
-56.5486639741
 20
-22.8464299069
 10
-56.5782454777
 20
-22.8197849106
 10
-56.6073370717
 20
-22.7919636339
 10
-56.6358621417
 20
-22.7628560301
 10
-56.6637951496
 20
-22.7324253927
 10
-56.6911616336
 20
-22.7007083592
 10
-56.7179615936
 20
-22.6677048937
  0
LWPOLYLINE
  5
2B5
100
AcDbEntity
  8
0
100
AcDbPolyline
 62
7
  6
CONTINUOUS
 90
10
 70
0
 10
4.34051343
 20
-26.5385722489
 10
4.2918892288
 20
-26.5336557823
 10
4.242644433
 20
-26.5304097142
 10
4.1927790428
 20
-26.5288340517
 10
4.1422136863
 20
-26.5289067141
 10
4.0910277354
 20
-26.5306497855
 10
4.0394593052
 20
-26.5341295142
 10
3.9875877674
 20
-26.5393679763
 10
3.9353337504
 20
-26.5463430755
 10
3.8826972541
 20
-26.5550547959
  0
LWPOLYLINE
  5
2B6
100
AcDbEntity
  8
0
100
AcDbPolyline
 62
7
  6
CONTINUOUS
 90
48
 70
0
 10
4.7622484297
 20
-26.1402838735
 10
4.7939204592
 20
-26.1530933334
 10
4.8258475254
 20
-26.168681427
 10
4.8580296284
 20
-26.1870480985
 10
4.8906397565
 20
-26.2080857322
 10
4.9235049214
 20
-26.2319018042
 10
4.9561061581
 20
-26.2588188713
 10
4.988679507
 20
-26.2889036235
 10
5.0209889277
 20
-26.3220891387
 10
5.0518073332
 20
-26.3584975207
 10
5.0812261103
 20
-26.3986141889
 10
5.1091538721
 20
-26.4419533819
 10
5.1340893713
 20
-26.4871804802
 10
5.1556575462
 20
-26.5346428741
 10
5.1742334586
 20
-26.583992921
 10
5.1894410458
 20
-26.6328536741
 10
5.2008268664
 20
-26.6808294164
 10
5.2088443619
 20
-26.7283159368
 10
5.2144777944
 20
-26.7741237763
 10
5.2178116708
 20
-26.8178449063
 10
5.2187614842
 20
-26.8598875681
 10
5.2180579755
 20
-26.9002867768
 10
5.2158020612
 20
-26.9390249784
 10
5.2118928247
 20
-26.9761199004
 10
5.2067582572
 20
-27.0116594687
 10
5.2004155986
 20
-27.0456449747
 10
5.192847609
 20
-27.0780752727
 10
5.1844305591
 20
-27.1090346197
 10
5.1751874539
 20
-27.1385024726
 10
5.1650952883
 20
-27.1664994964
 10
5.1544613185
 20
-27.1931717465
 10
5.1433150884
 20
-27.2185247369
 10
5.131627054
 20
-27.2425530484
 10
5.1196158403
 20
-27.2653863238
 10
5.1073058059
 20
-27.2870260962
 10
5.0946725921
 20
-27.3074709063
 10
5.0818617476
 20
-27.3268458979
 10
5.0688745736
 20
-27.345147043
 10
5.0557097688
 20
-27.3623784262
 10
5.0425089777
 20
-27.3786773507
 10
5.02926716
 20
-27.3940206642
 10
5.015989356
 20
-27.408431561
 10
5.0028323316
 20
-27.4221168556
 10
4.9898116195
 20
-27.4350890254
 10
4.9769116869
 20
-27.4473356201
 10
4.9642427011
 20
-27.4590260543
 10
4.9518288768
 20
-27.470174195
 10
4.9396459993
 20
-27.4807661931
  0
LWPOLYLINE
  5
2B7
100
AcDbEntity
  8
0
100
AcDbPolyline
 62
7
  6
CONTINUOUS
 90
3
 70
0
 10
4.8225031649
 20
-27.5709244369
 10
4.8496421796
 20
-27.5838294764
 10
4.875095677
 20
-27.5982345117
  0
LWPOLYLINE
  5
2B8
100
AcDbEntity
  8
0
100
AcDbPolyline
 62
7
  6
CONTINUOUS
 90
22
 70
0
 10
4.875095677
 20
-27.5982345117
 10
4.8988636571
 20
-27.6141395117
 10
4.9208844506
 20
-27.6318421079
 10
4.9412197268
 20
-27.651044591
 10
4.9600544937
 20
-27.6708539376
 10
4.9772891635
 20
-27.6910561463
 10
4.9930233241
 20
-27.711865187
 10
5.0077407464
 20
-27.7330300247
 10
5.0215321307
 20
-27.7545575897
 10
5.0343067767
 20
-27.7764409287
 10
5.0462763551
 20
-27.798408197
 10
5.0574590904
 20
-27.8204341059
 10
5.067836758
 20
-27.8425439385
 10
5.0775663545
 20
-27.8645417222
 10
5.08664905
 20
-27.8863751743
 10
5.0950836743
 20
-27.908096585
 10
5.1030237136
 20
-27.9296668484
 10
5.1104618171
 20
-27.9510448231
 10
5.1174053355
 20
-27.9722716602
 10
5.1240298078
 20
-27.9934316913
 10
5.1303214718
 20
-28.0145181127
 10
5.1362940895
 20
-28.0355377317
  0
LINE
  5
2B9
100
AcDbEntity
  8
0
100
AcDbLine
 62
253
  6
CONTINUOUS
 10
-56.4949737716
 20
21.8460808361
 11
-56.35
 21
21.7010963722
  0
LINE
  5
2BA
100
AcDbEntity
  8
RACCORDO
100
AcDbLine
 62
253
  6
CONTINUOUS
 10
-77.3700585586
 20
43.8714290238
 11
-77.5
 21
44.0013704652
  0
LINE
  5
2BB
100
AcDbEntity
  8
0
100
AcDbLine
 62
253
  6
CONTINUOUS
 10
-55.6926713554
 20
22.6415492726
 11
-55.5510963722
 21
22.5
  0
LINE
  5
2BC
100
AcDbEntity
  8
RACCORDO
100
AcDbLine
 62
253
  6
CONTINUOUS
 10
-76.3781758769
 20
44.8768054117
 11
-76.5013704652
 21
45.0
  0
LWPOLYLINE
  5
2BD
100
AcDbEntity
  8
RACCORDO
100
AcDbPolyline
 62
253
  6
CONTINUOUS
 90
12
 70
0
 10
-56.4975272282
 20
-22.4909531968
 10
-56.4706627899
 20
-22.4686674846
 10
-56.4455802882
 20
-22.4476344712
 10
-56.4224604615
 20
-22.4280057154
 10
-56.4014699056
 20
-22.409922657
 10
-56.3827598731
 20
-22.3935155981
 10
-56.366465184
 20
-22.3789027639
 10
-56.3527032538
 20
-22.3661894508
 10
-56.3415732475
 20
-22.3554672678
 10
-56.3331553653
 20
-22.3468134762
 10
-56.3275102643
 20
-22.3402904331
 10
-56.3246786217
 20
-22.335945142
  0
LINE
  5
2BE
100
AcDbEntity
  8
RACCORDO
100
AcDbLine
 62
253
  6
CONTINUOUS
 10
-56.5558161556
 20
-22.5386325071
 11
-56.4975272282
 21
-22.4909531968
  0
LINE
  5
2BF
100
AcDbEntity
  8
RACCORDO
100
AcDbLine
 62
253
  6
CONTINUOUS
 10
-56.6187700344
 20
-22.5893006167
 11
-56.5558161556
 21
-22.5386325071
  0
LWPOLYLINE
  5
2C0
100
AcDbEntity
  8
RACCORDO
100
AcDbPolyline
 62
253
  6
CONTINUOUS
 90
3
 70
0
 10
-56.7179615935
 20
-22.6677046708
 10
-56.6845776132
 20
-22.6414997491
 10
-56.6187700344
 20
-22.5893006167
  0
LINE
  5
2C1
100
AcDbEntity
  8
RACCORDO
100
AcDbLine
 62
253
  6
CONTINUOUS
 10
-56.7179615936
 20
22.6677047264
 11
-56.6514342305
 21
22.6153022377
  0
LINE
  5
2C2
100
AcDbEntity
  8
RACCORDO
100
AcDbLine
 62
253
  6
CONTINUOUS
 10
-56.6514342305
 20
22.6153022377
 11
-56.586820812
 21
22.5636827043
  0
LWPOLYLINE
  5
2C3
100
AcDbEntity
  8
RACCORDO
100
AcDbPolyline
 62
253
  6
CONTINUOUS
 90
14
 70
0
 10
-56.586820812
 20
22.5636827043
 10
-56.5259803287
 20
22.5143312696
 10
-56.4975275952
 20
22.4909534884
 10
-56.4706632198
 20
22.4686678215
 10
-56.4455807796
 20
22.4476348533
 10
-56.4224610119
 20
22.4280061413
 10
-56.4014705111
 20
22.4099231246
 10
-56.3827605291
 20
22.3935161043
 10
-56.3664658848
 20
22.3789033048
 10
-56.3527039927
 20
22.3661900219
 10
-56.3415740174
 20
22.3554678637
 10
-56.3331561584
 20
22.3468140913
 10
-56.3275110724
 20
22.3402910613
 10
-56.3246794363
 20
22.3359457767
  0
LINE
  5
2C4
100
AcDbEntity
  8
0
100
AcDbLine
 62
7
  6
CONTINUOUS
 10
-4.616107
 20
-28.877801
 11
-5.503668
 21
-26.078098
  0
LWPOLYLINE
  5
2C5
100
AcDbEntity
  8
0
100
AcDbPolyline
 62
7
  6
CONTINUOUS
 90
16
 70
0
 10
4.5414020766
 20
-28.0286629948
 10
4.5295099041
 20
-28.000043444
 10
4.5159150794
 20
-27.9726902677
 10
4.5006176024
 20
-27.9466035181
 10
4.4835634051
 20
-27.9215808115
 10
4.4648065555
 20
-27.8978246233
 10
4.4445092579
 20
-27.8759423116
 10
4.4225241591
 20
-27.8559002738
 10
4.3989986122
 20
-27.8377322279
 10
4.3745368807
 20
-27.8221465444
 10
4.3491142442
 20
-27.8094582571
 10
4.3227554231
 20
-27.7993524437
 10
4.2961388419
 20
-27.7915925415
 10
4.2694906421
 20
-27.7860997096
 10
4.2425846823
 20
-27.7829528338
 10
4.2154209623
 20
-27.7821519248
  0
LINE
  5
2C6
100
AcDbEntity
  8
0
100
AcDbLine
 62
7
  6
CONTINUOUS
 10
-0.714487
 20
-28.877801
 11
-1.400068
 21
-27.049647
  0
LINE
  5
2C7
100
AcDbEntity
  8
0
100
AcDbLine
 62
7
  6
CONTINUOUS
 10
-0.670314
 20
-27.632502
 11
-1.24855
 21
-26.078098
  0
LINE
  5
2C8
100
AcDbEntity
  8
0
100
AcDbLine
 62
7
  6
CONTINUOUS
 10
-4.335146
 20
-28.00522
 11
-4.86882
 21
-26.078098
  0
LINE
  5
2C9
100
AcDbEntity
  8
0
100
AcDbLine
 62
7
  6
CONTINUOUS
 10
0.754112
 20
-28.877801
 11
0.492308
 21
-26.078098
  0
LINE
  5
2CA
100
AcDbEntity
  8
0
100
AcDbLine
 62
7
  6
CONTINUOUS
 10
0.182406
 20
-28.877801
 11
0.062337
 21
-27.057269
  0
LINE
  5
2CB
100
AcDbEntity
  8
0
100
AcDbLine
 62
7
  6
CONTINUOUS
 10
-2.984285
 20
-28.877801
 11
-2.984285
 21
-26.07793
  0
LINE
  5
2CC
100
AcDbEntity
  8
0
100
AcDbLine
 62
7
  6
CONTINUOUS
 10
-2.399877
 20
-28.877801
 11
-2.399877
 21
-26.07793
  0
LINE
  5
2CD
100
AcDbEntity
  8
0
100
AcDbLine
 62
7
  6
CONTINUOUS
 10
-1.526183
 20
-28.877801
 11
-1.400068
 21
-27.049647
  0
LINE
  5
2CE
100
AcDbEntity
  8
0
100
AcDbLine
 62
7
  6
CONTINUOUS
 10
-2.085272
 20
-28.877801
 11
-1.832475
 21
-26.078098
  0
LINE
  5
2CF
100
AcDbEntity
  8
0
100
AcDbLine
 62
7
  6
CONTINUOUS
 10
3.148408
 20
-28.877801
 11
2.28939
 21
-26.078098
  0
LWPOLYLINE
  5
2D0
100
AcDbEntity
  8
0
100
AcDbPolyline
 62
7
  6
CONTINUOUS
 90
8
 70
0
 10
4.6309618547
 20
-28.3034400348
 10
4.6192775092
 20
-28.2638758063
 10
4.6073367348
 20
-28.224419535
 10
4.5951393065
 20
-28.1850762713
 10
4.5824687719
 20
-28.1458305273
 10
4.5692529799
 20
-28.1066771452
 10
4.5555640815
 20
-28.0676212984
 10
4.5414020766
 20
-28.0286629948
  0
LINE
  5
2D1
100
AcDbEntity
  8
0
100
AcDbLine
 62
7
  6
CONTINUOUS
 10
4.7970156219
 20
-28.8778013544
 11
4.6995541539
 21
-28.5437484623
  0
LWPOLYLINE
  5
2D2
100
AcDbEntity
  8
0
100
AcDbPolyline
 62
7
  6
CONTINUOUS
 90
4
 70
0
 10
4.6995541539
 20
-28.5437484623
 10
4.6764542736
 20
-28.4630037025
 10
4.6651357558
 20
-28.4228990981
 10
4.6309618547
 20
-28.3034400348
  0
LWPOLYLINE
  5
2D3
100
AcDbEntity
  8
0
100
AcDbPolyline
 62
7
  6
CONTINUOUS
 90
3
 70
0
 10
5.1362940895
 20
-28.0355377317
 10
5.148004936
 20
-28.0777257008
 10
5.1537431648
 20
-28.098894047
  0
LINE
  5
2D4
100
AcDbEntity
  8
0
100
AcDbLine
 62
7
  6
CONTINUOUS
 10
2.532466
 20
-28.877801
 11
2.381074
 21
-28.318881
  0
LINE
  5
2D5
100
AcDbEntity
  8
0
100
AcDbLine
 62
7
  6
CONTINUOUS
 10
5.1537431648
 20
-28.098894047
 11
5.2290125198
 21
-28.3811704293
  0
LINE
  5
2D6
100
AcDbEntity
  8
0
100
AcDbLine
 62
7
  6
CONTINUOUS
 10
5.2290125198
 20
-28.3811704293
 11
5.3591482119
 21
-28.8778013544
  0
LINE
  5
2D7
100
AcDbEntity
  8
0
100
AcDbLine
 62
7
  6
CONTINUOUS
 10
2.26428
 20
-27.886391
 11
1.995737
 21
-26.847385
  0
LWPOLYLINE
  5
2D8
100
AcDbEntity
  8
0
100
AcDbPolyline
 62
7
  6
CONTINUOUS
 90
19
 70
0
 10
4.6706521449
 20
-26.8887857398
 10
4.669185359
 20
-26.861706529
 10
4.6655687138
 20
-26.8347794215
 10
4.6598022094
 20
-26.8080044237
 10
4.6519440223
 20
-26.7812150227
 10
4.641935976
 20
-26.7545777397
 10
4.6296035409
 20
-26.7285921502
 10
4.614818864
 20
-26.7030715526
 10
4.5977097982
 20
-26.6782026907
 10
4.5784853734
 20
-26.6550453595
 10
4.5569200757
 20
-26.6338011652
 10
4.5332394188
 20
-26.614268608
 10
4.5083289744
 20
-26.596902865
 10
4.4822727654
 20
-26.5818761394
 10
4.4549867688
 20
-26.5690163241
 10
4.4271044868
 20
-26.5582621328
 10
4.3988370867
 20
-26.549593154
 10
4.3699734011
 20
-26.5430298533
 10
4.34051343
 20
-26.5385722489
  0
LINE
  5
2D9
100
AcDbEntity
  8
0
100
AcDbLine
 62
7
  6
CONTINUOUS
 10
3.3200188023
 20
-28.8778013544
 11
3.3200188023
 21
-26.110807341
  0
LINE
  5
2DA
100
AcDbEntity
  8
0
100
AcDbLine
 62
7
  6
CONTINUOUS
 10
3.8826972541
 20
-27.3236280866
 11
3.8826972541
 21
-26.5550547959
  0
LINE
  5
2DB
100
AcDbEntity
  8
0
100
AcDbLine
 62
7
  6
CONTINUOUS
 10
3.9020753449
 20
-28.8778013544
 11
3.9020753449
 21
-27.7821519248
  0
LINE
  5
2DC
100
AcDbEntity
  8
0
100
AcDbLine
 62
7
  6
CONTINUOUS
 10
4.8225031649
 20
-27.5709244369
 11
4.8225031649
 21
-27.554380628
  0
LINE
  5
2DD
100
AcDbEntity
  8
0
100
AcDbLine
 62
7
  6
CONTINUOUS
 10
-4.335146
 20
-28.00522
 11
-3.785169
 21
-26.078098
  0
LINE
  5
2DE
100
AcDbEntity
  8
0
100
AcDbLine
 62
7
  6
CONTINUOUS
 10
-4.101097
 20
-28.877801
 11
-3.20116
 21
-26.078098
  0
LINE
  5
2DF
100
AcDbEntity
  8
0
100
AcDbLine
 62
7
  6
CONTINUOUS
 10
1.704751
 20
-27.886391
 11
1.995737
 21
-26.847385
  0
LINE
  5
2E0
100
AcDbEntity
  8
0
100
AcDbLine
 62
7
  6
CONTINUOUS
 10
1.423947
 20
-28.877801
 11
1.585207
 21
-28.318881
  0
LINE
  5
2E1
100
AcDbEntity
  8
0
100
AcDbLine
 62
7
  6
CONTINUOUS
 10
0.84588
 20
-28.877801
 11
1.724045
 21
-26.078098
  0
LINE
  5
2E2
100
AcDbEntity
  8
0
100
AcDbLine
 62
7
  6
CONTINUOUS
 10
-0.670314
 20
-27.632502
 11
-0.085906
 21
-26.078098
  0
LINE
  5
2E3
100
AcDbEntity
  8
0
100
AcDbLine
 62
7
  6
CONTINUOUS
 10
-0.632524
 20
-28.877801
 11
0.062337
 21
-27.057269
  0
LWPOLYLINE
  5
2E4
100
AcDbEntity
  8
RACCORDO
100
AcDbPolyline
 62
253
  6
CONTINUOUS
 90
12
 70
0
 10
56.4975271439
 20
22.4909531247
 10
56.4706626907
 20
22.4686674018
 10
56.4455801744
 20
22.4476343779
 10
56.4224603337
 20
22.4280056119
 10
56.4014697646
 20
22.4099225439
 10
56.3827597199
 20
22.3935154762
 10
56.36646502
 20
22.378902634
 10
56.3527030804
 20
22.366189314
 10
56.3415730664
 20
22.3554671254
 10
56.3331551782
 20
22.3468133296
 10
56.3275100732
 20
22.3402902837
 10
56.3246784285
 20
22.3359449913
  0
LINE
  5
2E5
100
AcDbEntity
  8
RACCORDO
100
AcDbLine
 62
253
  6
CONTINUOUS
 10
56.5558161004
 20
22.5386324556
 11
56.4975271439
 21
22.4909531247
  0
LINE
  5
2E6
100
AcDbEntity
  8
RACCORDO
100
AcDbLine
 62
253
  6
CONTINUOUS
 10
56.6187700057
 20
22.5893005832
 11
56.5558161004
 21
22.5386324556
  0
LWPOLYLINE
  5
2E7
100
AcDbEntity
  8
RACCORDO
100
AcDbPolyline
 62
253
  6
CONTINUOUS
 90
3
 70
0
 10
56.7179615935
 20
22.6677046554
 10
56.6845776055
 20
22.6414997293
 10
56.6187700057
 20
22.5893005832
  0
LWPOLYLINE
  5
2E8
100
AcDbEntity
  8
RACCORDO
100
AcDbPolyline
 62
253
  6
CONTINUOUS
 90
16
 70
0
 10
56.869093969
 20
21.8692779856
 10
56.8287508969
 20
21.8685789918
 10
56.7895852216
 20
21.8677199025
 10
56.7518755116
 20
21.8667068282
 10
56.7158899793
 20
21.8655469743
 10
56.6818845742
 20
21.8642485904
 10
56.6501011618
 20
21.8628209112
 10
56.6207658036
 20
21.8612740914
 10
56.594087149
 20
21.8596191327
 10
56.5702549518
 20
21.8578678061
 10
56.5494387199
 20
21.856032568
 10
56.53178651
 20
21.8541264717
 10
56.5174238746
 20
21.8521630745
 10
56.5064529687
 20
21.850156341
 10
56.4989518238
 20
21.8481205443
 10
56.494973792
 20
21.8460701642
  0
LWPOLYLINE
  5
2E9
100
AcDbEntity
  8
RACCORDO
100
AcDbPolyline
 62
253
  6
CONTINUOUS
 90
17
 70
0
 10
-56.9521580775
 20
21.8701768236
 10
-56.8690935132
 20
21.8692778725
 10
-56.8287502401
 20
21.8685788954
 10
-56.7895843477
 20
21.8677198214
 10
-56.7518744094
 20
21.8667067608
 10
-56.7158886428
 20
21.8655469191
 10
-56.6818830023
 20
21.8642485459
 10
-56.6500993581
 20
21.8628208761
 10
-56.6207637762
 20
21.8612740642
 10
-56.5940849105
 20
21.8596191121
 10
-56.5702525184
 20
21.8578677909
 10
-56.5494361115
 20
21.8560325572
 10
-56.5317837497
 20
21.8541264643
 10
-56.517420988
 20
21.8521630697
 10
-56.5064499838
 20
21.8501563382
 10
-56.49894877
 20
21.8481205431
 10
-56.4949707002
 20
21.8460701642
  0
LINE
  5
2EA
100
AcDbEntity
  8
RACCORDO
100
AcDbLine
 62
253
  6
CONTINUOUS
 10
56.7179615936
 20
-22.6677047264
 11
56.6514342305
 21
-22.6153022377
  0
LINE
  5
2EB
100
AcDbEntity
  8
RACCORDO
100
AcDbLine
 62
253
  6
CONTINUOUS
 10
56.6514342305
 20
-22.6153022377
 11
56.586820812
 21
-22.5636827043
  0
LWPOLYLINE
  5
2EC
100
AcDbEntity
  8
RACCORDO
100
AcDbPolyline
 62
253
  6
CONTINUOUS
 90
14
 70
0
 10
56.586820812
 20
-22.5636827043
 10
56.5259803287
 20
-22.5143312696
 10
56.4975275952
 20
-22.4909534884
 10
56.4706632198
 20
-22.4686678215
 10
56.4455807796
 20
-22.4476348533
 10
56.4224610119
 20
-22.4280061413
 10
56.4014705111
 20
-22.4099231246
 10
56.3827605291
 20
-22.3935161043
 10
56.3664658848
 20
-22.3789033048
 10
56.3527039927
 20
-22.3661900219
 10
56.3415740174
 20
-22.3554678637
 10
56.3331561584
 20
-22.3468140913
 10
56.3275110724
 20
-22.3402910613
 10
56.3246794363
 20
-22.3359457767
  0
LINE
  5
2ED
100
AcDbEntity
  8
RACCORDO
100
AcDbLine
 62
253
  6
CONTINUOUS
 10
76.3781758769
 20
44.8768054117
 11
76.5013704652
 21
45.0
  0
LINE
  5
2EE
100
AcDbEntity
  8
0
100
AcDbLine
 62
253
  6
CONTINUOUS
 10
55.6926540311
 20
22.6415492726
 11
55.5510963722
 21
22.5
  0
LINE
  5
2EF
100
AcDbEntity
  8
RACCORDO
100
AcDbLine
 62
253
  6
CONTINUOUS
 10
77.3700585586
 20
43.8714290238
 11
77.5
 21
44.0013704652
  0
LINE
  5
2F0
100
AcDbEntity
  8
0
100
AcDbLine
 62
253
  6
CONTINUOUS
 10
56.4949737296
 20
21.8461028089
 11
56.35
 21
21.7010963722
  0
LWPOLYLINE
  5
2F1
100
AcDbEntity
  8
0
100
AcDbPolyline
 62
7
  6
CONTINUOUS
 90
10
 70
0
 10
4.9396459993
 20
-27.4807661931
 10
4.9161756022
 20
-27.5007599667
 10
4.9048880826
 20
-27.5101617536
 10
4.8936367022
 20
-27.5189789857
 10
4.8824891849
 20
-27.527341584
 10
4.8713778067
 20
-27.5351196408
 10
4.8598670658
 20
-27.5417671633
 10
4.8478117949
 20
-27.5471021631
 10
4.8353571612
 20
-27.551306649
 10
4.8225031649
 20
-27.554380628
  0
LWPOLYLINE
  5
2F2
100
AcDbEntity
  8
RACCORDO
100
AcDbPolyline
 62
253
  6
CONTINUOUS
 90
17
 70
0
 10
-76.9931469952
 20
22.667357485
 10
-77.0178871764
 20
22.6670254536
 10
-77.0420930804
 20
22.6665907705
 10
-77.0655925401
 20
22.6660565274
 10
-77.0882184131
 20
22.6654265242
 10
-77.1098097706
 20
22.6647052419
 10
-77.1302130418
 20
22.6638978107
 10
-77.1492831063
 20
22.6630099734
 10
-77.1668843261
 20
22.6620480449
 10
-77.1828915109
 20
22.6610188671
 10
-77.1971908078
 20
22.65992976
 10
-77.2096805115
 20
22.6587884702
 10
-77.2202717878
 20
22.657603115
 10
-77.2288893051
 20
22.6563821255
 10
-77.2354717704
 20
22.6551341861
 10
-77.2399723652
 20
22.6538681728
 10
-77.2423590785
 20
22.6525930904
  0
LINE
  5
2F3
100
AcDbEntity
  8
RACCORDO
100
AcDbLine
 62
253
  6
CONTINUOUS
 10
-76.9427702181
 20
22.6677048931
 11
-76.9931469952
 21
22.667357485
  0
LWPOLYLINE
  5
2F4
100
AcDbEntity
  8
RACCORDO
100
AcDbPolyline
 62
253
  6
CONTINUOUS
 90
3
 70
0
 10
56.9942885593
 20
21.8703705753
 10
56.9521581999
 20
21.8701769744
 10
56.869093969
 20
21.8692779856
  0
LINE
  5
2F5
100
AcDbEntity
  8
0
100
AcDbLine
 62
7
  6
CONTINUOUS
 10
-55.5510963722
 20
22.5
 11
55.5510963722
 21
22.5
  0
LINE
  5
2F6
100
AcDbEntity
  8
RACCORDO
100
AcDbLine
 62
253
  6
CONTINUOUS
 10
-55.6926713554
 20
22.6415492726
 11
55.6926540311
 21
22.6415492726
  0
LINE
  5
2F7
100
AcDbEntity
  8
RACCORDO
100
AcDbLine
 62
253
  6
CONTINUOUS
 10
-76.9427701042
 20
22.6676474049
 11
-56.7179615936
 21
22.6677048937
  0
LINE
  5
2F8
100
AcDbEntity
  8
RACCORDO
100
AcDbLine
 62
253
  6
CONTINUOUS
 10
56.7179615936
 20
22.6677048937
 11
76.9427701039
 21
22.667647257
  0
LINE
  5
2F9
100
AcDbEntity
  8
RACCORDO
100
AcDbLine
 62
253
  6
CONTINUOUS
 10
-55.6926456448
 20
23.1675430277
 11
55.6926456448
 21
23.1675430277
  0
LINE
  5
2FA
100
AcDbEntity
  8
RACCORDO
100
AcDbLine
 62
253
  6
CONTINUOUS
 10
-56.9942885593
 20
21.8703704037
 11
-56.9521580775
 21
21.8701768236
  0
LWPOLYLINE
  5
2FB
100
AcDbEntity
  8
RACCORDO
100
AcDbPolyline
 62
253
  6
CONTINUOUS
 90
18
 70
0
 10
76.9427702181
 20
22.6677048929
 10
76.9931469947
 20
22.6673574847
 10
77.0178871757
 20
22.6670254534
 10
77.0420930795
 20
22.6665907703
 10
77.065592539
 20
22.6660565272
 10
77.0882184119
 20
22.6654265241
 10
77.1098097693
 20
22.6647052418
 10
77.1302130404
 20
22.6638978105
 10
77.1492831048
 20
22.6630099732
 10
77.1668843246
 20
22.6620480448
 10
77.1828915094
 20
22.661018867
 10
77.1971908064
 20
22.65992976
 10
77.2096805103
 20
22.6587884701
 10
77.2202717867
 20
22.6576031149
 10
77.2288893042
 20
22.6563821254
 10
77.2354717697
 20
22.655134186
 10
77.2399723648
 20
22.6538681728
 10
77.2423590785
 20
22.6525930904
  0
LWPOLYLINE
  5
2FC
100
AcDbEntity
  8
RACCORDO
100
AcDbPolyline
 62
253
  6
CONTINUOUS
 90
31
 70
0
 10
55.6926540454
 20
22.6415492868
 10
55.7185796274
 20
22.6411763754
 10
55.7441629167
 20
22.6399893308
 10
55.7693794118
 20
22.638019527
 10
55.794180414
 20
22.6353020302
 10
55.8185715713
 20
22.6318669591
 10
55.8426116877
 20
22.627731397
 10
55.8662817615
 20
22.6229205168
 10
55.8895652683
 20
22.6174595127
 10
55.9125240687
 20
22.6113516055
 10
55.9351412732
 20
22.6046156459
 10
55.9574017171
 20
22.5972705265
 10
55.9793672946
 20
22.5893061207
 10
56.0010217437
 20
22.5807352212
 10
56.0223490921
 20
22.5715710732
 10
56.0434073974
 20
22.5617915037
 10
56.06417913
 20
22.5514039577
 10
56.084646182
 20
22.5404167292
 10
56.104859917
 20
22.528797082
 10
56.1247996168
 20
22.5165481464
 10
56.1444440126
 20
22.5036739338
 10
56.1638363011
 20
22.4901321185
 10
56.1829507754
 20
22.4759226919
 10
56.2017618792
 20
22.4610460482
 10
56.220304028
 20
22.4454503696
 10
56.2385437782
 20
22.4291346578
 10
56.2564508721
 20
22.4120955786
 10
56.2740531784
 20
22.3942680991
 10
56.2913304512
 20
22.375625403
 10
56.3082206961
 20
22.3561855806
 10
56.3246817863
 20
22.3359476087
  0
LWPOLYLINE
  5
2FD
100
AcDbEntity
  8
RACCORDO
100
AcDbPolyline
 62
253
  6
CONTINUOUS
 90
31
 70
0
 10
55.6926456448
 20
23.1675430277
 10
55.7347708603
 20
23.1667771936
 10
55.7762653493
 20
23.1647882958
 10
55.8171291116
 20
23.1615763322
 10
55.8573514499
 20
23.1571010167
 10
55.8969430615
 20
23.1514026261
 10
55.935936039
 20
23.144602001
 10
55.9743259766
 20
23.136713726
 10
56.01211728
 20
23.1277232011
 10
56.0493552592
 20
23.1177074888
 10
56.0860390125
 20
23.1066804053
 10
56.1221694415
 20
23.0946281141
 10
56.157794561
 20
23.0815861992
 10
56.1929174157
 20
23.0675671622
 10
56.227534961
 20
23.0525584764
 10
56.2616860776
 20
23.0365581816
 10
56.2953770192
 20
23.0195771079
 10
56.3286015323
 20
23.0016043949
 10
56.3613797365
 20
22.9826055447
 10
56.3937202922
 20
22.9625899197
 10
56.4256145392
 20
22.9415481207
 10
56.4570566166
 20
22.9194175052
 10
56.488057151
 20
22.8962062894
 10
56.5186055158
 20
22.871906212
 10
56.5486639711
 20
22.8464299095
 10
56.578245475
 20
22.8197849131
 10
56.6073370693
 20
22.7919636363
 10
56.6358621398
 20
22.7628560321
 10
56.6637951483
 20
22.7324253942
 10
56.6911616329
 20
22.70070836
 10
56.7179615936
 20
22.6677048937
  0
LINE
  5
2FE
100
AcDbEntity
  8
RACCORDO
100
AcDbLine
 62
253
  6
CONTINUOUS
 10
76.3781758769
 20
-44.8768054117
 11
76.5013704652
 21
-45.0
  0
LINE
  5
2FF
100
AcDbEntity
  8
0
100
AcDbLine
 62
253
  6
CONTINUOUS
 10
55.6926713554
 20
-22.6415492726
 11
55.5510963722
 21
-22.5
  0
LINE
  5
300
100
AcDbEntity
  8
RACCORDO
100
AcDbLine
 62
253
  6
CONTINUOUS
 10
77.3700585586
 20
-43.8714290238
 11
77.5
 21
-44.0013704652
  0
LINE
  5
301
100
AcDbEntity
  8
0
100
AcDbLine
 62
253
  6
CONTINUOUS
 10
56.4949737709
 20
-21.8460811902
 11
56.35
 21
-21.7010963722
  0
LWPOLYLINE
  5
302
100
AcDbEntity
  8
RACCORDO
100
AcDbPolyline
 62
253
  6
CONTINUOUS
 90
28
 70
0
 10
-76.3781758769
 20
44.8768054117
 10
-76.4358790912
 20
44.8750806058
 10
-76.4933273885
 20
44.8700102287
 10
-76.5503303845
 20
44.8616171492
 10
-76.6066620052
 20
44.8499439897
 10
-76.6621751202
 20
44.8350306373
 10
-76.7167964506
 20
44.8168925971
 10
-76.770393801
 20
44.7955529004
 10
-76.8227268303
 20
44.771086409
 10
-76.8735626186
 20
44.743592966
 10
-76.9227052357
 20
44.713175756
 10
-76.9700127188
 20
44.6799207097
 10
-77.0153430184
 20
44.6439229412
 10
-77.058541784
 20
44.6052929096
 10
-77.0994543358
 20
44.5641569719
 10
-77.1379446408
 20
44.5206436514
 10
-77.1738754279
 20
44.4748915901
 10
-77.2071166854
 20
44.4270494968
 10
-77.2375534477
 20
44.3772716237
 10
-77.2650750393
 20
44.3257147992
 10
-77.289574811
 20
44.2725531665
 10
-77.3109589176
 20
44.2179774542
 10
-77.3291446967
 20
44.1621714079
 10
-77.3440619639
 20
44.105319636
 10
-77.3556541505
 20
44.047622577
 10
-77.3638742693
 20
43.9892780405
 10
-77.3686841964
 20
43.9304802998
 10
-77.3700585586
 20
43.8714290238
  0
LWPOLYLINE
  5
303
100
AcDbEntity
  8
RACCORDO
100
AcDbPolyline
 62
253
  6
CONTINUOUS
 90
28
 70
0
 10
-76.3781758769
 20
44.6316825048
 10
-76.4187038743
 20
44.6304780836
 10
-76.4588119933
 20
44.626961863
 10
-76.4985002339
 20
44.6211338159
 10
-76.537882471
 20
44.6129688545
 10
-76.5768448297
 20
44.6024919575
 10
-76.6150456852
 20
44.5897781721
 10
-76.6525079896
 20
44.5747958048
 10
-76.6892087907
 20
44.5575763404
 10
-76.7247376072
 20
44.538289581
 10
-76.7590663946
 20
44.5169205958
 10
-76.7922231974
 20
44.4934840338
 10
-76.8238816675
 20
44.4681940731
 10
-76.8540327652
 20
44.4410301138
 10
-76.8826855302
 20
44.4120124308
 10
-76.9095407336
 20
44.3814165412
 10
-76.9345831099
 20
44.3492228294
 10
-76.9578279245
 20
44.3154505818
 10
-76.979021745
 20
44.2804337214
 10
-76.9981438556
 20
44.2441561065
 10
-77.0152149721
 20
44.2066335864
 10
-77.0300438091
 20
44.1682481484
 10
-77.0426064825
 20
44.1289768997
 10
-77.0529268766
 20
44.0888425141
 10
-77.0608853584
 20
44.0482954332
 10
-77.0664420505
 20
44.0074857957
 10
-77.0696368304
 20
43.9662633712
 10
-77.0704696982
 20
43.9246281065
  0
LWPOLYLINE
  5
304
100
AcDbEntity
  8
RACCORDO
100
AcDbPolyline
 62
253
  6
CONTINUOUS
 90
19
 70
0
 10
-77.0704696982
 20
43.9246280943
 10
-77.0957596656
 20
43.924207405
 10
-77.1208695746
 20
43.9234109463
 10
-77.1456206487
 20
43.9222443888
 10
-77.1698366663
 20
43.9207160381
 10
-77.1933452151
 20
43.9188367757
 10
-77.2159789199
 20
43.9166199815
 10
-77.2375766343
 20
43.9140814385
 10
-77.2579845877
 20
43.9112392206
 10
-77.2770574805
 20
43.9081135635
 10
-77.2946595182
 20
43.9047267214
 10
-77.3106653787
 20
43.9011028076
 10
-77.324961104
 20
43.8972676235
 10
-77.337444912
 20
43.8932484748
 10
-77.3480279211
 20
43.8890739767
 10
-77.3566347828
 20
43.8847738508
 10
-77.3632042183
 20
43.8803787129
 10
-77.3676894548
 20
43.8759198552
 10
-77.3700585586
 20
43.8714290238
  0
LINE
  5
305
100
AcDbEntity
  8
RACCORDO
100
AcDbLine
 62
253
  6
CONTINUOUS
 10
76.3781758769
 20
44.6316825048
 11
-76.3781758769
 21
44.6316825048
  0
LINE
  5
306
100
AcDbEntity
  8
RACCORDO
100
AcDbLine
 62
253
  6
CONTINUOUS
 10
76.3781758769
 20
44.8768054117
 11
-76.3781758769
 21
44.8768054117
  0
LINE
  5
307
100
AcDbEntity
  8
RACCORDO
100
AcDbLine
 62
7
  6
CONTINUOUS
 10
-76.5013704652
 20
45.0
 11
76.5013704652
 21
45.0
  0
LWPOLYLINE
  5
308
100
AcDbEntity
  8
RACCORDO
100
AcDbPolyline
 62
253
  6
CONTINUOUS
 90
19
 70
0
 10
77.0704696982
 20
43.9246280955
 10
77.095759238
 20
43.9242073328
 10
77.1208686854
 20
43.9234108103
 10
77.1456192716
 20
43.9222441987
 10
77.1698347824
 20
43.9207158039
 10
77.1933428136
 20
43.9188365074
 10
77.2159759974
 20
43.9166196889
 10
77.2375731949
 20
43.9140811314
 10
77.2579806431
 20
43.9112389082
 10
77.2770530492
 20
43.9081132548
 10
77.2946546255
 20
43.9047264246
 10
77.3106600561
 20
43.9011025304
 10
77.3249553888
 20
43.8972673728
 10
77.3374388469
 20
43.8932482565
 10
77.3480215531
 20
43.889073796
 10
77.356628163
 20
43.8847737118
 10
77.363197401
 20
43.8803786186
 10
77.3676824969
 20
43.8759198077
 10
77.3700515186
 20
43.871429024
  0
LINE
  5
309
100
AcDbEntity
  8
RACCORDO
100
AcDbLine
 62
253
  6
CONTINUOUS
 10
55.6926456448
 20
23.1675430277
 11
55.6926456448
 21
22.6415492726
  0
LINE
  5
30A
100
AcDbEntity
  8
RACCORDO
100
AcDbLine
 62
253
  6
CONTINUOUS
 10
55.6926456448
 20
-23.1675430277
 11
55.6926456448
 21
-22.6415492726
  0
LWPOLYLINE
  5
30B
100
AcDbEntity
  8
0
100
AcDbPolyline
 62
7
  6
CONTINUOUS
 90
7
 70
0
 10
56.35
 20
6.0899094567
 10
56.3516010699
 20
6.0687612987
 10
56.3532604823
 20
6.0500784401
 10
56.354978237
 20
6.033860881
 10
56.3567543342
 20
6.0201086212
 10
56.3585887738
 20
6.0088216609
 10
56.3604815559
 20
6.0
  0
LINE
  5
30C
100
AcDbEntity
  8
RACCORDO
100
AcDbLine
 62
253
  6
CONTINUOUS
 10
56.4949737296
 20
21.8461028089
 11
56.5104384533
 21
14.5669361326
  0
LINE
  5
30D
100
AcDbEntity
  8
RACCORDO
100
AcDbLine
 62
253
  6
CONTINUOUS
 10
56.9942885593
 20
21.8703705759
 11
57.0097532489
 21
14.5834397224
  0
LINE
  5
30E
100
AcDbEntity
  8
RACCORDO
100
AcDbLine
 62
253
  6
CONTINUOUS
 10
56.5104384533
 20
14.5669361326
 11
56.5197179896
 21
7.284661208
  0
LINE
  5
30F
100
AcDbEntity
  8
RACCORDO
100
AcDbLine
 62
253
  6
CONTINUOUS
 10
57.0097532489
 20
14.5834397224
 11
57.0190327639
 21
7.2926778579
  0
LINE
  5
310
100
AcDbEntity
  8
RACCORDO
100
AcDbLine
 62
253
  6
CONTINUOUS
 10
56.5197179896
 20
7.284661208
 11
56.5228118795
 21
-0.0000046698
  0
LINE
  5
311
100
AcDbEntity
  8
RACCORDO
100
AcDbLine
 62
253
  6
CONTINUOUS
 10
57.0190327639
 20
7.2926778579
 11
57.0221266469
 21
0.0000000529
  0
LINE
  5
312
100
AcDbEntity
  8
0
100
AcDbLine
 62
7
  6
CONTINUOUS
 10
56.35
 20
-21.7010963722
 11
56.35
 21
-6.0898979486
  0
LINE
  5
313
100
AcDbEntity
  8
0
100
AcDbLine
 62
7
  6
CONTINUOUS
 10
56.35
 20
6.0899094567
 11
56.35
 21
21.7010963722
  0
LINE
  5
314
100
AcDbEntity
  8
0
100
AcDbLine
 62
7
  6
CONTINUOUS
 10
56.3604815559
 20
-6.0
 11
56.3604815559
 21
6.0
  0
LINE
  5
315
100
AcDbEntity
  8
RACCORDO
100
AcDbLine
 62
253
  6
CONTINUOUS
 10
56.5228118795
 20
-0.0000046698
 11
56.5197179771
 21
-7.2846727906
  0
LINE
  5
316
100
AcDbEntity
  8
RACCORDO
100
AcDbLine
 62
253
  6
CONTINUOUS
 10
57.0221266469
 20
0.0000000529
 11
57.0190327641
 21
-7.292677762
  0
LINE
  5
317
100
AcDbEntity
  8
RACCORDO
100
AcDbLine
 62
253
  6
CONTINUOUS
 10
56.5197179771
 20
-7.2846727906
 11
56.5104384522
 21
-14.5669385324
  0
LINE
  5
318
100
AcDbEntity
  8
RACCORDO
100
AcDbLine
 62
253
  6
CONTINUOUS
 10
57.0190327641
 20
-7.292677762
 11
57.0097532492
 21
-14.5834396614
  0
LINE
  5
319
100
AcDbEntity
  8
RACCORDO
100
AcDbLine
 62
253
  6
CONTINUOUS
 10
56.5104384522
 20
-14.5669385324
 11
56.4949737709
 21
-21.8460811902
  0
LINE
  5
31A
100
AcDbEntity
  8
RACCORDO
100
AcDbLine
 62
253
  6
CONTINUOUS
 10
57.0097532492
 20
-14.5834396614
 11
56.9942885593
 21
-21.8703705759
  0
LWPOLYLINE
  5
31B
100
AcDbEntity
  8
RACCORDO
100
AcDbPolyline
 62
253
  6
CONTINUOUS
 90
13
 70
0
 10
56.9942885593
 20
-21.8703705759
 10
56.992416098
 20
-21.9398660133
 10
56.9866066457
 20
-22.0094305253
 10
56.9768602025
 20
-22.0790641089
 10
56.9631656193
 20
-22.1491408256
 10
56.9455340452
 20
-22.2192866015
 10
56.9239989273
 20
-22.2883792558
 10
56.8983832336
 20
-22.3564474246
 10
56.8688639962
 20
-22.423462516
 10
56.8360057591
 20
-22.4882165587
 10
56.7999967036
 20
-22.5503069386
 10
56.7606486485
 20
-22.6101363689
 10
56.7179615936
 20
-22.6677048937
  0
LWPOLYLINE
  5
31C
100
AcDbEntity
  8
RACCORDO
100
AcDbPolyline
 62
253
  6
CONTINUOUS
 90
13
 70
0
 10
56.4949737609
 20
-21.8460811803
 10
56.4937327786
 20
-21.8886052515
 10
56.4901732154
 20
-21.9314217759
 10
56.4842368259
 20
-21.9744014273
 10
56.4758535437
 20
-22.0174924277
 10
56.4649890592
 20
-22.0604655599
 10
56.4516918617
 20
-22.1029260611
 10
56.4359600455
 20
-22.1447721932
 10
56.417828174
 20
-22.1858230986
 10
56.3975126767
 20
-22.2256008643
 10
56.375177045
 20
-22.2638885872
 10
56.3508655087
 20
-22.3007017748
 10
56.3246817863
 20
-22.3359476087
  0
LWPOLYLINE
  5
31D
100
AcDbEntity
  8
RACCORDO
100
AcDbPolyline
 62
253
  6
CONTINUOUS
 90
19
 70
0
 10
56.7179615936
 20
-22.6677048937
 10
56.676351582
 20
-22.7182633629
 10
56.6323970288
 20
-22.7665090903
 10
56.5860979339
 20
-22.8124421736
 10
56.5373275144
 20
-22.8561854773
 10
56.4862125532
 20
-22.897616318
 10
56.4331333991
 20
-22.9363664796
 10
56.3780583164
 20
-22.9724168273
 10
56.3210190407
 20
-23.0057866799
 10
56.2624911279
 20
-23.0361655164
 10
56.2024288658
 20
-23.0635235524
 10
56.1408779666
 20
-23.0878907343
 10
56.078451122
 20
-23.1090461397
 10
56.0151331161
 20
-23.1269365107
 10
55.9509391649
 20
-23.1416152248
 10
55.8865276081
 20
-23.1530213051
 10
55.8221178925
 20
-23.1611344468
 10
55.7574905714
 20
-23.165975016
 10
55.6926456448
 20
-23.1675430277
  0
LWPOLYLINE
  5
31E
100
AcDbEntity
  8
RACCORDO
100
AcDbPolyline
 62
253
  6
CONTINUOUS
 90
19
 70
0
 10
56.3246817863
 20
-22.3359476087
 10
56.2990830043
 20
-22.3668591204
 10
56.2719225051
 20
-22.3964852271
 10
56.2432631354
 20
-22.4247458832
 10
56.2131733805
 20
-22.4515620173
 10
56.1817230425
 20
-22.4768619688
 10
56.1489823148
 20
-22.5005807494
 10
56.1150162137
 20
-22.5226586146
 10
56.0799188407
 20
-22.543022314
 10
56.0438117569
 20
-22.5615964438
 10
56.0067701854
 20
-22.5783371427
 10
55.9689030158
 20
-22.5931902595
 10
55.9303941166
 20
-22.6060896157
 10
55.8913427993
 20
-22.6170126915
 10
55.851853974
 20
-22.6259407357
 10
55.8121289785
 20
-22.6328483041
 10
55.7723053085
 20
-22.6377400429
 10
55.7324526836
 20
-22.6406344807
 10
55.692671399
 20
-22.6415493158
  0
LWPOLYLINE
  5
31F
100
AcDbEntity
  8
RACCORDO
100
AcDbPolyline
 62
253
  6
CONTINUOUS
 90
13
 70
0
 10
56.3246817863
 20
22.3359476087
 10
56.3506671573
 20
22.3009847399
 10
56.3748390157
 20
22.2644322383
 10
56.3970882814
 20
22.2263761875
 10
56.4173583313
 20
22.1868087836
 10
56.4354869097
 20
22.1459283201
 10
56.4512644829
 20
22.1041644472
 10
56.4646500926
 20
22.0616607816
 10
56.475617737
 20
22.0185447306
 10
56.4840939832
 20
21.9752588584
 10
56.4901035717
 20
21.9320498242
 10
56.4937131093
 20
21.888954044
 10
56.4949736995
 20
21.8461027795
  0
LWPOLYLINE
  5
320
100
AcDbEntity
  8
RACCORDO
100
AcDbPolyline
 62
253
  6
CONTINUOUS
 90
13
 70
0
 10
56.7179615936
 20
22.6677048937
 10
56.7603205645
 20
22.6106490843
 10
56.7994223064
 20
22.5512709454
 10
56.8352668194
 20
22.4895704319
 10
56.8680515472
 20
22.4251760457
 10
56.897579046
 20
22.3584591843
 10
56.9232569848
 20
22.2905341686
 10
56.9449253505
 20
22.2213824348
 10
56.9627441561
 20
22.1510224948
 10
56.976601109
 20
22.0806243342
 10
56.9864587784
 20
22.0105779607
 10
56.9923545952
 20
21.9404933744
 10
56.9942885593
 20
21.8703705759
  0
LINE
  5
321
100
AcDbEntity
  8
RACCORDO
100
AcDbLine
 62
253
  6
CONTINUOUS
 10
76.3781758769
 20
-44.6316825048
 11
76.3781758772
 21
-44.8768054117
  0
LINE
  5
322
100
AcDbEntity
  8
RACCORDO
100
AcDbLine
 62
253
  6
CONTINUOUS
 10
76.3781758769
 20
44.6316825048
 11
76.3781758769
 21
44.8768054117
  0
LWPOLYLINE
  5
323
100
AcDbEntity
  8
RACCORDO
100
AcDbPolyline
 62
253
  6
CONTINUOUS
 90
28
 70
0
 10
77.3700585586
 20
43.8714290238
 10
77.3686844686
 20
43.9304743766
 10
77.3638791753
 20
43.9892336337
 10
77.355673708
 20
44.0475080222
 10
77.3441178827
 20
44.1050781734
 10
77.3292609004
 20
44.1617759443
 10
77.3111367022
 20
44.2174811733
 10
77.2897893175
 20
44.2720490404
 10
77.2653059647
 20
44.3252495663
 10
77.2377989693
 20
44.3768420397
 10
77.2073859689
 20
44.4266363763
 10
77.1741696803
 20
44.474493136
 10
77.1382628328
 20
44.5202616709
 10
77.0997942217
 20
44.5637943459
 10
77.0589019354
 20
44.6049511246
 10
77.0157222969
 20
44.6436030133
 10
76.9704085578
 20
44.6796246207
 10
76.9231162995
 20
44.7129042432
 10
76.8739924813
 20
44.7433438558
 10
76.8231994415
 20
44.7708483634
 10
76.7709145997
 20
44.7953277337
 10
76.7173134256
 20
44.8167039603
 10
76.6625837314
 20
44.8349078545
 10
76.6069030317
 20
44.849886574
 10
76.5504351778
 20
44.8615986049
 10
76.4933606624
 20
44.8700064094
 10
76.4358771298
 20
44.8750808273
 10
76.3781758769
 20
44.8768054117
  0
LWPOLYLINE
  5
324
100
AcDbEntity
  8
RACCORDO
100
AcDbPolyline
 62
253
  6
CONTINUOUS
 90
28
 70
0
 10
77.0704696982
 20
43.9246281065
 10
77.0696252612
 20
43.96629429
 10
77.0664307296
 20
44.0075145745
 10
77.0608861034
 20
44.0482890176
 10
77.0529569095
 20
44.0887456584
 10
77.0426776209
 20
44.1287565602
 10
77.0301516566
 20
44.1679378676
 10
77.0153473063
 20
44.2063007183
 10
76.9982962802
 20
44.2438341817
 10
76.9791971275
 20
44.2801213992
 10
76.9580341378
 20
44.3151318114
 10
76.9348230214
 20
44.3488962717
 10
76.9098094588
 20
44.3810901221
 10
76.8829763229
 20
44.4116984623
 10
76.8543407408
 20
44.4407365201
 10
76.824199774
 20
44.4679248808
 10
76.7925403022
 20
44.4932444941
 10
76.7593754457
 20
44.5167147349
 10
76.7250416268
 20
44.5381138549
 10
76.6895275462
 20
44.5574215069
 10
76.6528445032
 20
44.5746583208
 10
76.6153628175
 20
44.5896640194
 10
76.5770676316
 20
44.6024166075
 10
76.5379738031
 20
44.6129382887
 10
76.4984962242
 20
44.621135071
 10
76.4587731922
 20
44.6269756618
 10
76.4186664098
 20
44.6304914639
 10
76.3781758769
 20
44.6316825048
  0
LWPOLYLINE
  5
325
100
AcDbEntity
  8
RACCORDO
100
AcDbPolyline
 62
253
  6
CONTINUOUS
 90
9
 70
0
 10
77.0704696982
 20
-43.9246281065
 10
77.0492646814
 20
-41.5803705021
 10
77.0298115775
 20
-39.2305985388
 10
77.0121103866
 20
-36.8757866537
 10
76.9961582719
 20
-34.51641446
 10
76.9819580701
 20
-32.1529541681
 10
76.9695182913
 20
-29.7858704217
 10
76.9588417722
 20
-27.415636892
 10
76.949925676
 20
-25.0427362495
  0
LWPOLYLINE
  5
326
100
AcDbEntity
  8
RACCORDO
100
AcDbPolyline
 62
253
  6
CONTINUOUS
 90
9
 70
0
 10
77.3700585586
 20
-43.8714290238
 10
77.3488539353
 20
-41.530635219
 10
77.3294010733
 20
-39.1852651697
 10
77.3116999728
 20
-36.8353188758
 10
77.2957477181
 20
-34.4803128887
 10
77.2815472247
 20
-32.1207306571
 10
77.2691072395
 20
-29.7580225269
 10
77.2584306778
 20
-27.3926719467
 10
77.2495146241
 20
-25.0241954679
  0
LINE
  5
327
100
AcDbEntity
  8
RACCORDO
100
AcDbLine
 62
253
  6
CONTINUOUS
 10
76.949925676
 20
-25.0427362495
 11
76.9336291891
 21
-18.8925043042
  0
LINE
  5
328
100
AcDbEntity
  8
RACCORDO
100
AcDbLine
 62
253
  6
CONTINUOUS
 10
77.2495146241
 20
-25.0241954679
 11
77.2332181209
 21
-18.8795038031
  0
LINE
  5
329
100
AcDbEntity
  8
RACCORDO
100
AcDbLine
 62
253
  6
CONTINUOUS
 10
76.9336291891
 20
-18.8925043042
 11
76.9203325776
 21
-11.3380611962
  0
LINE
  5
32A
100
AcDbEntity
  8
RACCORDO
100
AcDbLine
 62
253
  6
CONTINUOUS
 10
77.2332181209
 20
-18.8795038031
 11
77.2199214528
 21
-11.3305136537
  0
LINE
  5
32B
100
AcDbEntity
  8
RACCORDO
100
AcDbLine
 62
253
  6
CONTINUOUS
 10
76.9203325776
 20
-11.3380611962
 11
76.9136823261
 21
-3.7797569604
  0
LINE
  5
32C
100
AcDbEntity
  8
RACCORDO
100
AcDbLine
 62
253
  6
CONTINUOUS
 10
77.2199214528
 20
-11.3305136537
 11
77.213271186
 21
-3.7771499691
  0
LINE
  5
32D
100
AcDbEntity
  8
RACCORDO
100
AcDbLine
 62
7
  6
CONTINUOUS
 10
77.5
 20
-44.0013704652
 11
77.5
 21
44.0013704652
  0
LINE
  5
32E
100
AcDbEntity
  8
RACCORDO
100
AcDbLine
 62
253
  6
CONTINUOUS
 10
76.9136823261
 20
-3.7797569604
 11
76.9136823257
 21
3.7797559374
  0
LINE
  5
32F
100
AcDbEntity
  8
RACCORDO
100
AcDbLine
 62
253
  6
CONTINUOUS
 10
77.213271186
 20
-3.7771499691
 11
77.2132711867
 21
3.77715111
  0
LINE
  5
330
100
AcDbEntity
  8
RACCORDO
100
AcDbLine
 62
253
  6
CONTINUOUS
 10
76.9136823257
 20
3.7797559374
 11
76.9203325766
 21
11.3380604683
  0
LINE
  5
331
100
AcDbEntity
  8
RACCORDO
100
AcDbLine
 62
253
  6
CONTINUOUS
 10
77.2132711867
 20
3.77715111
 11
77.2199214545
 21
11.3305150114
  0
LINE
  5
332
100
AcDbEntity
  8
RACCORDO
100
AcDbLine
 62
253
  6
CONTINUOUS
 10
76.9203325766
 20
11.3380604683
 11
76.9336291883
 21
18.8925038652
  0
LINE
  5
333
100
AcDbEntity
  8
RACCORDO
100
AcDbLine
 62
253
  6
CONTINUOUS
 10
77.2199214545
 20
11.3305150114
 11
77.2332181219
 21
18.8795044447
  0
LWPOLYLINE
  5
334
100
AcDbEntity
  8
RACCORDO
100
AcDbPolyline
 62
253
  6
CONTINUOUS
 90
10
 70
0
 10
76.9336291883
 20
18.8925038652
 10
76.9499256767
 20
25.0427362222
 10
76.9588417736
 20
27.4156369854
 10
76.9695182923
 20
29.7858705046
 10
76.9819580689
 20
32.1529540084
 10
76.9961582673
 20
34.5164139278
 10
77.0121103802
 20
36.8757859222
 10
77.0298115717
 20
39.2305978808
 10
77.0492646777
 20
41.5803700883
 10
77.0704696982
 20
43.9246281065
  0
LWPOLYLINE
  5
335
100
AcDbEntity
  8
RACCORDO
100
AcDbPolyline
 62
253
  6
CONTINUOUS
 90
10
 70
0
 10
77.2332181219
 20
18.8795044447
 10
77.2495146367
 20
25.0241988665
 10
77.2584307064
 20
27.3926785798
 10
77.2691072875
 20
29.7580322302
 10
77.2815473045
 20
32.1207441804
 10
77.2957478329
 20
34.4803300678
 10
77.3117000999
 20
36.8353368046
 10
77.329401181
 20
39.1852800282
 10
77.3488540005
 20
41.5306441013
 10
77.3700585586
 20
43.8714290238
  0
LINE
  5
336
100
AcDbEntity
  8
RACCORDO
100
AcDbLine
 62
7
  6
CONTINUOUS
 10
-114.9956184603
 20
-44.8768054117
 11
-112.6449256812
 21
-45.0
  0
LINE
  5
337
100
AcDbEntity
  8
RACCORDO
100
AcDbLine
 62
253
  6
CONTINUOUS
 10
-115.124356086
 20
-43.8714290238
 11
-112.6449256812
 21
-44.0013704652
  0
LINE
  5
338
100
AcDbEntity
  8
RACCORDO
100
AcDbLine
 62
253
  6
CONTINUOUS
 10
-115.3781994987
 20
-43.9188367757
 11
-115.3541262959
 21
-43.9140814385
  0
LINE
  5
339
100
AcDbEntity
  8
RACCORDO
100
AcDbLine
 62
253
  6
CONTINUOUS
 10
-115.3541262959
 20
-43.9140814385
 11
-115.3052008715
 21
-43.9047267214
  0
LINE
  5
33A
100
AcDbEntity
  8
RACCORDO
100
AcDbLine
 62
253
  6
CONTINUOUS
 10
-115.3052008715
 20
-43.9047267214
 11
-115.1977139851
 21
-43.8847738508
  0
LINE
  5
33B
100
AcDbEntity
  8
RACCORDO
100
AcDbLine
 62
253
  6
CONTINUOUS
 10
-115.1977139851
 20
-43.8847738508
 11
-115.124356086
 21
-43.8714290238
  0
LWPOLYLINE
  5
33C
100
AcDbEntity
  8
RACCORDO
100
AcDbPolyline
 62
253
  6
CONTINUOUS
 90
9
 70
0
 10
-114.9956184603
 20
-44.8768054117
 10
-114.9967116127
 20
-44.8750806058
 10
-114.9981858336
 20
-44.8700102287
 10
-115.000032344
 20
-44.8616171492
 10
-115.0022425209
 20
-44.8499439897
 10
-115.0048097525
 20
-44.8350306373
 10
-115.0077280374
 20
-44.8168925971
 10
-115.0109976025
 20
-44.7955529004
 10
-115.0146038274
 20
-44.771086409
  0
LWPOLYLINE
  5
33D
100
AcDbEntity
  8
RACCORDO
100
AcDbPolyline
 62
253
  6
CONTINUOUS
 90
3
 70
0
 10
-117.8449256704
 20
-22.6677048932
 10
-117.8438634956
 20
-22.6675845031
 10
-117.8406778031
 20
-22.667357485
  0
LINE
  5
33E
100
AcDbEntity
  8
RACCORDO
100
AcDbLine
 62
253
  6
CONTINUOUS
 10
-117.8406778031
 20
-22.667357485
 11
-117.8280414415
 21
-22.6665907705
  0
LINE
  5
33F
100
AcDbEntity
  8
RACCORDO
100
AcDbLine
 62
253
  6
CONTINUOUS
 10
-117.8280414415
 20
-22.6665907705
 11
-117.7445136277
 21
-22.6620480449
  0
LINE
  5
340
100
AcDbEntity
  8
RACCORDO
100
AcDbLine
 62
253
  6
CONTINUOUS
 10
-117.7445136277
 20
-22.6620480449
 11
-117.5610073208
 21
-22.6525930904
  0
LINE
  5
341
100
AcDbEntity
  8
0
100
AcDbLine
 62
7
  6
CONTINUOUS
 10
-117.5371488509
 20
-27.423487196
 11
-117.5383112925
 21
-27.4087686351
  0
LINE
  5
342
100
AcDbEntity
  8
RACCORDO
100
AcDbLine
 62
253
  6
CONTINUOUS
 10
-115.124356086
 20
43.8714290238
 11
-115.0913138477
 21
44.1617759443
  0
LINE
  5
343
100
AcDbEntity
  8
RACCORDO
100
AcDbLine
 62
253
  6
CONTINUOUS
 10
-115.0913138477
 20
44.1617759443
 11
-115.0657321191
 21
44.3768420397
  0
LINE
  5
344
100
AcDbEntity
  8
RACCORDO
100
AcDbLine
 62
253
  6
CONTINUOUS
 10
-115.0657321191
 20
44.3768420397
 11
-115.0479867853
 21
44.5202616709
  0
LINE
  5
345
100
AcDbEntity
  8
RACCORDO
100
AcDbLine
 62
253
  6
CONTINUOUS
 10
-115.0479867853
 20
44.5202616709
 11
-115.0320989401
 21
44.6436030133
  0
LINE
  5
346
100
AcDbEntity
  8
RACCORDO
100
AcDbLine
 62
253
  6
CONTINUOUS
 10
-115.0320989401
 20
44.6436030133
 11
-115.0227805697
 21
44.7129042432
  0
LWPOLYLINE
  5
347
100
AcDbEntity
  8
RACCORDO
100
AcDbPolyline
 62
253
  6
CONTINUOUS
 90
10
 70
0
 10
-115.0227805697
 20
44.7129042432
 10
-115.014636613
 20
44.7708483634
 10
-115.0110289165
 20
44.7953277337
 10
-115.0077565611
 20
44.8167039603
 10
-115.0048313039
 20
44.8349078545
 10
-115.0022541383
 20
44.849886574
 10
-115.0000357802
 20
44.8615986049
 10
-114.9981851564
 20
44.8700064094
 10
-114.996709662
 20
44.8750808273
 10
-114.9956184603
 20
44.8768054117
  0
LWPOLYLINE
  5
348
100
AcDbEntity
  8
RACCORDO
100
AcDbPolyline
 62
253
  6
CONTINUOUS
 90
10
 70
0
 10
-115.124356086
 20
-43.8714290238
 10
-115.5289644021
 20
-41.530635219
 10
-115.9001471197
 20
-39.1852651697
 10
-116.2379042388
 20
-36.8353188758
 10
-116.5422913915
 20
-34.4803128887
 10
-116.8132529456
 20
-32.1207306571
 10
-117.0506220052
 20
-29.7580225269
 10
-117.2543429383
 20
-27.3926719467
 10
-117.4244713768
 20
-25.0241954679
 10
-117.5610073208
 20
-22.6525930904
  0
LINE
  5
349
100
AcDbEntity
  8
RACCORDO
100
AcDbLine
 62
253
  6
CONTINUOUS
 10
-115.0146038274
 20
-44.771086409
 11
-115.0227432014
 21
-44.713175756
  0
LINE
  5
34A
100
AcDbEntity
  8
RACCORDO
100
AcDbLine
 62
253
  6
CONTINUOUS
 10
-115.0227432014
 20
-44.713175756
 11
-115.03205615
 21
-44.6439229412
  0
LINE
  5
34B
100
AcDbEntity
  8
RACCORDO
100
AcDbLine
 62
253
  6
CONTINUOUS
 10
-115.03205615
 20
-44.6439229412
 11
-115.0479373942
 21
-44.5206436514
  0
LINE
  5
34C
100
AcDbEntity
  8
RACCORDO
100
AcDbLine
 62
253
  6
CONTINUOUS
 10
-115.0479373942
 20
-44.5206436514
 11
-115.071908243
 21
-44.3257147992
  0
LINE
  5
34D
100
AcDbEntity
  8
RACCORDO
100
AcDbLine
 62
253
  6
CONTINUOUS
 10
-115.071908243
 20
-44.3257147992
 11
-115.0978847633
 21
-44.105319636
  0
LINE
  5
34E
100
AcDbEntity
  8
RACCORDO
100
AcDbLine
 62
253
  6
CONTINUOUS
 10
-115.0978847633
 20
-44.105319636
 11
-115.124356086
 21
-43.8714290238
  0
LWPOLYLINE
  5
34F
100
AcDbEntity
  8
RACCORDO
100
AcDbPolyline
 62
253
  6
CONTINUOUS
 90
13
 70
0
 10
-117.5610073208
 20
-22.6525930904
 10
-117.7354271823
 20
-18.8795038031
 10
-117.8781389835
 20
-15.1054773242
 10
-117.9891427244
 20
-11.3305136537
 10
-118.0684440793
 20
-7.5543004072
 10
-118.1160373739
 20
-3.7771499691
 10
-118.1319055847
 20
0.0000005072
 10
-118.1160373603
 20
3.77715111
 10
-118.0684440521
 20
7.554301751
 10
-117.989142691
 20
11.3305150114
 10
-117.8781389539
 20
15.1054784183
 10
-117.7354271638
 20
18.8795044447
 10
-117.5610073208
 20
22.6525930904
  0
LWPOLYLINE
  5
350
100
AcDbEntity
  8
RACCORDO
100
AcDbPolyline
 62
253
  6
CONTINUOUS
 90
10
 70
0
 10
-117.5610073208
 20
22.6525930904
 10
-117.4244711365
 20
25.0241988665
 10
-117.2543423921
 20
27.3926785798
 10
-117.0506210876
 20
29.7580322302
 10
-116.8132514236
 20
32.1207441804
 10
-116.5422891995
 20
34.4803300678
 10
-116.2379018139
 20
36.8353368046
 10
-115.9001450662
 20
39.1852800282
 10
-115.5289631569
 20
41.5306441013
 10
-115.124356086
 20
43.8714290238
  0
LINE
  5
351
100
AcDbEntity
  8
0
100
AcDbLine
 62
7
  6
CONTINUOUS
 10
-109.8449256812
 20
-3.8526539614
 11
-111.6383377256
 21
-3.5364270305
  0
LINE
  5
352
100
AcDbEntity
  8
RACCORDO
100
AcDbLine
 62
7
  6
CONTINUOUS
 10
-112.6449256812
 20
-45.0
 11
-112.6449256812
 21
45.0
  0
LINE
  5
353
100
AcDbEntity
  8
0
100
AcDbLine
 62
7
  6
CONTINUOUS
 10
-111.8449256812
 20
3.2902250922
 11
-111.8449256812
 21
-3.2902250922
  0
LINE
  5
354
100
AcDbEntity
  8
RACCORDO
100
AcDbLine
 62
7
  6
CONTINUOUS
 10
-109.8449256812
 20
43.4999999353
 11
-109.8449256812
 21
43.0970757376
  0
LINE
  5
355
100
AcDbEntity
  8
DRAFT
100
AcDbLine
 62
7
  6
CONTINUOUS
 10
-109.8449256812
 20
43.0970757376
 11
-109.8449256812
 21
3.8526539614
  0
LINE
  5
356
100
AcDbEntity
  8
DRAFT
100
AcDbLine
 62
7
  6
CONTINUOUS
 10
-109.8449256812
 20
-3.8526539614
 11
-109.8449256812
 21
-43.097075533
  0
LINE
  5
357
100
AcDbEntity
  8
RACCORDO
100
AcDbLine
 62
7
  6
CONTINUOUS
 10
-109.8449256812
 20
-43.097075533
 11
-109.8449256812
 21
-43.4999999839
  0
LINE
  5
358
100
AcDbEntity
  8
0
100
AcDbLine
 62
7
  6
CONTINUOUS
 10
-109.8449256812
 20
3.8526539614
 11
-111.6383377256
 21
3.5364270305
  0
LINE
  5
359
100
AcDbEntity
  8
RACCORDO
100
AcDbLine
 62
253
  6
CONTINUOUS
 10
-117.8073754516
 20
22.6654265241
 11
-117.5610073208
 21
22.6525930904
  0
LWPOLYLINE
  5
35A
100
AcDbEntity
  8
RACCORDO
100
AcDbPolyline
 62
253
  6
CONTINUOUS
 90
5
 70
0
 10
-117.844925665
 20
22.6677048929
 10
-117.8438634903
 20
22.6675845028
 10
-117.8406777978
 20
22.6673574847
 10
-117.8353912462
 20
22.6670254534
 10
-117.8073754516
 20
22.6654265241
  0
LWPOLYLINE
  5
35B
100
AcDbEntity
  8
RACCORDO
100
AcDbPolyline
 62
253
  6
CONTINUOUS
 90
13
 70
0
 10
-109.8449256591
 20
-43.097075361
 10
-109.9566822921
 20
-43.1691618729
 10
-110.0692544543
 20
-43.2378912119
 10
-110.1824986598
 20
-43.3032633782
 10
-110.2960897478
 20
-43.3651494058
 10
-110.4100741676
 20
-43.4236782606
 10
-110.5248969866
 20
-43.4792368405
 10
-110.6406179563
 20
-43.5319223489
 10
-110.7569773408
 20
-43.5816375824
 10
-110.8739717519
 20
-43.6284778276
 10
-110.9915395432
 20
-43.672474847
 10
-111.1095571832
 20
-43.7135968782
 10
-111.2279346183
 20
-43.7518439213
  0
LWPOLYLINE
  5
35C
100
AcDbEntity
  8
RACCORDO
100
AcDbPolyline
 62
253
  6
CONTINUOUS
 90
6
 70
0
 10
-115.4039006506
 20
-43.9246280943
 10
-115.4028912911
 20
-43.924207405
 10
-115.3997870421
 20
-43.9234109463
 10
-115.394610005
 20
-43.9222443888
 10
-115.387397039
 20
-43.9207160381
 10
-115.3781994987
 20
-43.9188367757
  0
LWPOLYLINE
  5
35D
100
AcDbEntity
  8
RACCORDO
100
AcDbPolyline
 62
253
  6
CONTINUOUS
 90
7
 70
0
 10
-115.4039006573
 20
43.9246280955
 10
-115.4028908408
 20
43.9242073328
 10
-115.3997861877
 20
43.9234108103
 10
-115.3946088019
 20
43.9222441987
 10
-115.3873955442
 20
43.9207158039
 10
-115.3781977702
 20
43.9188365074
 10
-115.3541242732
 20
43.9140811314
  0
LWPOLYLINE
  5
35E
100
AcDbEntity
  8
RACCORDO
100
AcDbPolyline
 62
253
  6
CONTINUOUS
 90
13
 70
0
 10
-111.2279346183
 20
-43.7518439213
 10
-111.3545214364
 20
-43.7894236581
 10
-111.4804309535
 20
-43.8237997492
 10
-111.605543128
 20
-43.8549721945
 10
-111.7300913759
 20
-43.8828777592
 10
-111.8536251525
 20
-43.907579678
 10
-111.9749910117
 20
-43.9292676558
 10
-112.0939187799
 20
-43.9478492584
 10
-112.2104705934
 20
-43.9634169199
 10
-112.3239834894
 20
-43.9764376472
 10
-112.4341819896
 20
-43.9870671091
 10
-112.5411838737
 20
-43.9951496368
 10
-112.6449256498
 20
-44.0006852303
  0
LINE
  5
35F
100
AcDbEntity
  8
RACCORDO
100
AcDbLine
 62
253
  6
CONTINUOUS
 10
-115.124356086
 20
43.8714290238
 11
-112.6449256812
 21
44.0013704652
  0
LWPOLYLINE
  5
360
100
AcDbEntity
  8
RACCORDO
100
AcDbPolyline
 62
253
  6
CONTINUOUS
 90
13
 70
0
 10
-112.6449256459
 20
44.0006852299
 10
-112.5360406576
 20
43.9947404144
 10
-112.4247218145
 20
43.9862050713
 10
-112.311034984
 20
43.9750792006
 10
-112.194738084
 20
43.9614412089
 10
-112.0762305475
 20
43.9452126896
 10
-111.9565426251
 20
43.9261584231
 10
-111.8357929314
 20
43.9042068132
 10
-111.714039791
 20
43.8794294561
 10
-111.5922075778
 20
43.8518059203
 10
-111.4706559208
 20
43.8213293955
 10
-111.349194772
 20
43.788006692
 10
-111.2279139561
 20
43.7518378099
  0
LINE
  5
361
100
AcDbEntity
  8
RACCORDO
100
AcDbLine
 62
253
  6
CONTINUOUS
 10
-115.2437392873
 20
43.8932482565
 11
-115.124355717
 21
43.871429024
  0
LINE
  5
362
100
AcDbEntity
  8
RACCORDO
100
AcDbLine
 62
253
  6
CONTINUOUS
 10
-115.3230726642
 20
43.9081132548
 11
-115.2437392873
 21
43.8932482565
  0
LINE
  5
363
100
AcDbEntity
  8
RACCORDO
100
AcDbLine
 62
253
  6
CONTINUOUS
 10
-115.3541242732
 20
43.9140811314
 11
-115.3230726642
 21
43.9081132548
  0
LWPOLYLINE
  5
364
100
AcDbEntity
  8
RACCORDO
100
AcDbPolyline
 62
253
  6
CONTINUOUS
 90
10
 70
0
 10
-111.2279139561
 20
43.7518378099
 10
-111.0743296105
 20
43.7017941929
 10
-110.9205307229
 20
43.64640744
 10
-110.7667522749
 20
43.5856775513
 10
-110.613824705
 20
43.5200496016
 10
-110.4614024649
 20
43.449078516
 10
-110.3080629539
 20
43.3714290699
 10
-110.1536372575
 20
43.2866561886
 10
-109.9991116378
 20
43.1952049469
 10
-109.8449256323
 20
43.0970753448
  0
LINE
  5
365
100
AcDbEntity
  8
RACCORDO
100
AcDbLine
 62
7
  6
CONTINUOUS
 10
-114.9956184603
 20
44.8768054117
 11
-112.6449256812
 21
45.0
  0
ARC
  5
366
100
AcDbEntity
  8
RACCORDO
100
AcDbCircle
 62
7
  6
CONTINUOUS
 10
49.3757660864
 20
-14.2336437913
 40
167.4332498099
100
AcDbArc
 50
182.8873441217
 51
190.4602411505
  0
ARC
  5
367
100
AcDbEntity
  8
0
100
AcDbCircle
 62
7
  6
CONTINUOUS
 10
49.3757660864
 20
-14.2336437913
 40
167.4332498099
100
AcDbArc
 50
184.5182554331
 51
185.0176525292
  0
ARC
  5
368
100
AcDbEntity
  8
0
100
AcDbCircle
 62
7
  6
CONTINUOUS
 10
49.3757660864
 20
-14.2336437913
 40
167.4332498099
100
AcDbArc
 50
184.0677903884
 51
184.5132030469
  0
ARC
  5
369
100
AcDbEntity
  8
RACCORDO
100
AcDbCircle
 62
7
  6
CONTINUOUS
 10
-112.9164054976
 20
-39.3198565139
 40
5.1872524353
100
AcDbArc
 50
273.0000002146
 51
306.3076484548
  0
ARC
  5
36A
100
AcDbEntity
  8
RACCORDO
100
AcDbCircle
 62
7
  6
CONTINUOUS
 10
-114.9799189235
 20
-44.577209968
 40
0.3000000001
100
AcDbArc
 50
190.4615209044
 51
267.0003041861
  0
ARC
  5
36B
100
AcDbEntity
  8
0
100
AcDbCircle
 62
7
  6
CONTINUOUS
 10
-111.5949256812
 20
-3.2902250922
 40
0.25
100
AcDbArc
 50
180.0
 51
260.0
  0
ARC
  5
36C
100
AcDbEntity
  8
RACCORDO
100
AcDbCircle
 62
7
  6
CONTINUOUS
 10
49.3757660864
 20
14.2336437913
 40
167.4332498099
100
AcDbArc
 50
169.5397588495
 51
177.1126559741
  0
ARC
  5
36D
100
AcDbEntity
  8
RACCORDO
100
AcDbCircle
 62
7
  6
CONTINUOUS
 10
-112.9164054976
 20
39.3198565139
 40
5.1872524353
100
AcDbArc
 50
53.6923506765
 51
86.9999996095
  0
ARC
  5
36E
100
AcDbEntity
  8
RACCORDO
100
AcDbCircle
 62
7
  6
CONTINUOUS
 10
-114.9799176735
 20
44.5772165512
 40
0.3
100
AcDbArc
 50
93.0
 51
169.5397588495
  0
ARC
  5
36F
100
AcDbEntity
  8
0
100
AcDbCircle
 62
7
  6
CONTINUOUS
 10
-111.5949256812
 20
3.2902250922
 40
0.25
100
AcDbArc
 50
100.0
 51
180.0
  0
ARC
  5
370
100
AcDbEntity
  8
RACCORDO
100
AcDbCircle
 62
7
  6
CONTINUOUS
 10
331.5837952022
 20
0.0
 40
450.0
100
AcDbArc
 50
177.1126435736
 51
182.8873564621
  0
ELLIPSE
  5
371
100
AcDbEntity
  8
RACCORDO
100
AcDbEllipse
 62
7
  6
CONTINUOUS
 10
-76.498627654
 20
-43.998627654
 30
0.0
 11
0.7090462434
 21
0.7090462434
 31
0.0
 40
0.9972646886
 41
2.3575640181
 42
3.9256212891
  0
ELLIPSE
  5
372
100
AcDbEntity
  8
RACCORDO
100
AcDbEllipse
 62
7
  6
CONTINUOUS
 10
76.498627654
 20
-43.998627654
 30
0.0
 11
0.7090462434
 21
-0.7090462434
 31
0.0
 40
0.9972646886
 41
-0.7840286355
 42
0.7840286355
  0
ELLIPSE
  5
373
100
AcDbEntity
  8
RACCORDO
100
AcDbEllipse
 62
7
  6
CONTINUOUS
 10
76.498627654
 20
43.998627654
 30
0.0
 11
0.7090462434
 21
0.7090462434
 31
0.0
 40
0.9972646886
 41
-0.7840286355
 42
0.7840286355
  0
ELLIPSE
  5
374
100
AcDbEntity
  8
RACCORDO
100
AcDbEllipse
 62
7
  6
CONTINUOUS
 10
-76.498627654
 20
43.998627654
 30
0.0
 11
0.7090462434
 21
-0.7090462434
 31
0.0
 40
0.9972646886
 41
2.3575640181
 42
3.9256212891
  0
ELLIPSE
  5
375
100
AcDbEntity
  8
0
100
AcDbEllipse
 62
7
  6
CONTINUOUS
 10
56.3657223338
 20
-6.4898979486
 30
0.0
 11
0.0
 21
0.5
 31
0.0
 40
0.0524077793
 41
0.2013579208
 42
0.6435011088
  0
ELLIPSE
  5
376
100
AcDbEntity
  8
0
100
AcDbEllipse
 62
7
  6
CONTINUOUS
 10
55.5489021232
 20
-21.6989021232
 30
0.0
 11
0.5672369947
 21
-0.5672369947
 31
0.0
 40
0.9972646886
 41
-0.7840286355
 42
0.7840286355
  0
ELLIPSE
  5
377
100
AcDbEntity
  8
0
100
AcDbEllipse
 62
7
  6
CONTINUOUS
 10
55.5489021232
 20
21.6989021232
 30
0.0
 11
0.5672369947
 21
0.5672369947
 31
0.0
 40
0.9972646886
 41
-0.7840286355
 42
0.7840286355
  0
ELLIPSE
  5
378
100
AcDbEntity
  8
0
100
AcDbEllipse
 62
7
  6
CONTINUOUS
 10
-55.5489021232
 20
21.6989021232
 30
0.0
 11
0.5672369947
 21
-0.5672369947
 31
0.0
 40
0.9972646886
 41
2.3575640181
 42
3.9256212891
  0
ELLIPSE
  5
379
100
AcDbEntity
  8
0
100
AcDbEllipse
 62
7
  6
CONTINUOUS
 10
-55.5489021232
 20
-21.6989021232
 30
0.0
 11
0.5672369947
 21
0.5672369947
 31
0.0
 40
0.9972646886
 41
2.3575640181
 42
3.9256212891
  0
ENDSEC
  0
SECTION
  2
OBJECTS
  0
DICTIONARY
  5
C
100
AcDbDictionary
280
0
281
1
  3
ACAD_GROUP
350
D
  3
ACAD_MLINESTYLE
350
17
  3
ACAD_LAYOUT
350
1A
  3
ACAD_PLOTSETTINGS
350
19
  3
ACAD_PLOTSTYLENAME
350
E
  0
DICTIONARY
  5
D
102
{ACAD_REACTORS
330
C
102
}
100
AcDbDictionary
280
0
281
1
  0
ACDBDICTIONARYWDFLT
  5
E
102
{ACAD_REACTORS
330
C
102
}
100
AcDbDictionary
281
1
  3
Normal
350
F
100
AcDbDictionaryWithDefault
340
F
  0
DICTIONARY
  5
17
102
{ACAD_REACTORS
330
C
102
}
100
AcDbDictionary
280
0
281
1
  3
Standard
350
18
  0
DICTIONARY
  5
19
102
{ACAD_REACTORS
330
C
102
}
100
AcDbDictionary
281
1
  0
DICTIONARY
  5
1A
102
{ACAD_REACTORS
330
C
102
}
100
AcDbDictionary
281
1
  3
Model
350
37A
  3
Layout1
350
37B
  0
ACDBPLACEHOLDER
  5
F
102
{ACAD_REACTORS
330
E
102
}
  0
MLINESTYLE
  5
18
102
{ACAD_REACTORS
330
17
102
}
100
AcDbMlineStyle
  2
STANDARD
 70
0
  3

 62
256
 51
90.0
 52
90.0
 71
2
 49
0.5
 62
256
  6
BYLAYER
 49
-0.5
 62
256
  6
BYLAYER
  0
LAYOUT
  5
37A
102
{ACAD_REACTORS
330
1A
102
}
100
AcDbPlotSettings
  1

  2
none_device
  4
ISO_A4_(297.00_x_210.00_MM)
  6

 40
0.0
 41
0.0
 42
0.0
 43
0.0
 44
297.0
 45
210.0
 46
0.0
 47
0.0
 48
0.0
 49
0.0
140
0.0
141
0.0
142
1.0
143
1.0
 70
1024
 72
1
 73
0
 74
0
  7

 75
0
147
1.0
148
0.0
149
0.0
100
AcDbLayout
  1
Model
 70
0
 71
0
 10
0.0
 20
0.0
 11
297.0
 21
210.0
 12
0.0
 22
0.0
 32
0.0
 14
0.0
 24
0.0
 34
0.0
 15
0.0
 25
0.0
 35
0.0
146
0.0
 13
0.0
 23
0.0
 33
0.0
 16
1.0
 26
0.0
 36
0.0
 17
0.0
 27
1.0
 37
0.0
 76
0
330
218
345
0
346
0
  0
LAYOUT
  5
37B
102
{ACAD_REACTORS
330
1A
102
}
100
AcDbPlotSettings
  1

  2
none_device
  4
ISO_A4_(297.00_x_210.00_MM)
  6

 40
0.0
 41
0.0
 42
0.0
 43
0.0
 44
297.0
 45
210.0
 46
0.0
 47
0.0
 48
0.0
 49
0.0
140
0.0
141
0.0
142
1.0
143
1.0
 70
0
 72
1
 73
0
 74
0
  7

 75
0
147
1.0
148
0.0
149
0.0
100
AcDbLayout
  1
Layout1
 70
0
 71
1
 10
0.0
 20
0.0
 11
297.0
 21
210.0
 12
0.0
 22
0.0
 32
0.0
 14
0.0
 24
0.0
 34
0.0
 15
0.0
 25
0.0
 35
0.0
146
0.0
 13
0.0
 23
0.0
 33
0.0
 16
1.0
 26
0.0
 36
0.0
 17
0.0
 27
1.0
 37
0.0
 76
0
330
219
345
0
346
0
  0
ENDSEC
  0
EOF
