  0
SECTION
  2
HEADER
  9
$ACADVER
  1
AC1021
  9
$DWGCODEPAGE
  3
ANSI_1252
  9
$EXTMAX
 10
297.0
 20
210.0
 30
0.0
  9
$EXTMIN
 10
0.0
 20
0.0
 30
0.0
  9
$LIMMIN
 10
0.0
 20
0.0
  9
$LIMMAX
 10
297.0
 20
210.0
  9
$VIEWCTR
 10
148.5
 20
105.0
  9
$VIEWSIZE
 40
210.0
  9
$CLAYER
  8
0
  9
$LTSCALE
 40
16.335
  9
$CELTYPE
  6
BYLAYER
  9
$DIMSCALE
 40
1.0
  9
$DIMASZ
 40
3.0
  9
$DIMEXO
 40
0.5
  9
$DIMDLI
 40
11.286
  9
$DIMEXE
 40
1.5
  9
$DIMCEN
 40
2.673
  9
$DIMLFAC
 40
1.0
  9
$DIMBLK
  1
_FILLED
  9
$DIMALT
 70
0
  9
$DIMALTF
 40
25.4
  9
$DIMTXT
 40
3.0
  9
$DIMTOL
 70
1
  9
$DIMLIM
 70
0
  9
$DIMTFAC
 40
1.0
  9
$DIMTP
 40
0.01
  9
$DIMTM
 40
0.01
  9
$DIMGAP
 40
0.625
  9
$DIMDSEP
 70
44
  9
$AUNITS
 70
0
  9
$PDMODE
 70
3
  9
$PDSIZE
 40
3.0
  9
$HANDSEED
  5
38A
  9
$TILEMODE
 70
1
  9
$MEASUREMENT
 70
1
  9
$INSUNITS
 70
4
  0
ENDSEC
  0
SECTION
  2
CLASSES
  0
CLASS
  1
ACDBDICTIONARYWDFLT
  2
AcDbDictionaryWithDefault
  3
AutoCAD 2000
 90
0
 91
1
280
0
281
0
  0
CLASS
  1
ACDBPLACEHOLDER
  2
AcDbPlaceHolder
  3
AutoCAD 2000
 90
0
 91
1
280
0
281
0
  0
CLASS
  1
LAYOUT
  2
AcDbLayout
  3
AutoCAD 2000
 90
0
 91
0
280
0
281
0
  0
ENDSEC
  0
SECTION
  2
TABLES
  0
TABLE
  2
VPORT
  5
8
100
AcDbSymbolTable
 70
2
  0
VPORT
  5
1F4
100
AcDbSymbolTableRecord
100
AcDbViewportTableRecord
  2
*ACTIVE
 70
0
 10
0.0
 20
0.0
 11
1.0
 21
1.0
 12
148.5
 22
105.0
 13
0.0
 23
0.0
 14
1.0
 24
1.0
 15
0.0
 25
0.0
 16
0.0
 26
0.0
 36
1.0
 17
0.0
 27
0.0
 37
0.0
 40
210.0
 41
1.4142857143
 42
50.0
 43
0.0
 44
0.0
 50
0.0
 51
0.0
 71
0
 72
100
 73
1
 74
1
 75
0
 76
0
 77
0
 78
0
  0
ENDTAB
  0
TABLE
  2
LTYPE
  5
5
100
AcDbSymbolTable
 70
6
  0
LTYPE
  5
14
100
AcDbSymbolTableRecord
100
AcDbLinetypeTableRecord
  2
BYBLOCK
 70
0
  3

 72
65
 73
0
 40
0.0
  0
LTYPE
  5
15
100
AcDbSymbolTableRecord
100
AcDbLinetypeTableRecord
  2
BYLAYER
 70
0
  3

 72
65
 73
0
 40
0.0
  0
LTYPE
  5
16
100
AcDbSymbolTableRecord
100
AcDbLinetypeTableRecord
  2
CONTINUOUS
 70
64
  3
Solid line
 72
65
 73
0
 40
0.0
  0
LTYPE
  5
1F5
100
AcDbSymbolTableRecord
100
AcDbLinetypeTableRecord
  2
CENTER
 70
64
  3
____ _ ____ _ ____ _ ____ _ ____ _ ____ _ ____
 72
65
 73
4
 40
0.6
 49
0.375
 74
0
 49
-0.075
 74
0
 49
0.075
 74
0
 49
-0.075
 74
0
  0
LTYPE
  5
1F6
100
AcDbSymbolTableRecord
100
AcDbLinetypeTableRecord
  2
HIDDEN
 70
64
  3
- - - - - - - - - - - - - - - - - - - -
 72
65
 73
2
 40
0.2
 49
0.1
 74
0
 49
-0.1
 74
0
  0
LTYPE
  5
1F7
100
AcDbSymbolTableRecord
100
AcDbLinetypeTableRecord
  2
PHANTOM
 70
64
  3
_____ _ _ _____ _ _ _____ _ _ _____
 72
65
 73
6
 40
0.8
 49
0.45
 74
0
 49
-0.05
 74
0
 49
0.1
 74
0
 49
-0.05
 74
0
 49
0.1
 74
0
 49
-0.05
 74
0
  0
LTYPE
  5
1F8
100
AcDbSymbolTableRecord
100
AcDbLinetypeTableRecord
  2
DOT
 70
64
  3
. . . . . . . . . . . . . . . . . . . .
 72
65
 73
2
 40
0.2
 49
0.1
 74
0
 49
-0.1
 74
0
  0
LTYPE
  5
1F9
100
AcDbSymbolTableRecord
100
AcDbLinetypeTableRecord
  2
DASHED
 70
64
  3
- - - - - - - - - - - - - - - - - - - -
 72
65
 73
2
 40
0.2
 49
0.1
 74
0
 49
-0.1
 74
0
  0
ENDTAB
  0
TABLE
  2
LAYER
  5
2
100
AcDbSymbolTable
 70
36
  0
LAYER
  5
10
100
AcDbSymbolTableRecord
100
AcDbLayerTableRecord
  2
0
 70
0
 62
7
  6
CONTINUOUS
370
-3
390
F
  0
LAYER
  5
1FA
100
AcDbSymbolTableRecord
100
AcDbLayerTableRecord
  2
DEFAULT_1
 70
0
 62
7
  6
CENTER
370
-3
390
F
  0
LAYER
  5
1FB
100
AcDbSymbolTableRecord
100
AcDbLayerTableRecord
  2
DEFAULT_2
 70
0
 62
7
  6
HIDDEN
370
-3
390
F
  0
LAYER
  5
1FC
100
AcDbSymbolTableRecord
100
AcDbLayerTableRecord
  2
DEFAULT_3
 70
0
 62
7
  6
PHANTOM
370
-3
390
F
  0
LAYER
  5
1FD
100
AcDbSymbolTableRecord
100
AcDbLayerTableRecord
  2
ASSI
 70
0
 62
7
  6
CONTINUOUS
370
-3
390
F
  0
LAYER
  5
1FE
100
AcDbSymbolTableRecord
100
AcDbLayerTableRecord
  2
BIADESIVO_85X15X038
 70
0
 62
7
  6
CONTINUOUS
370
-3
390
F
  0
LAYER
  5
1FF
100
AcDbSymbolTableRecord
100
AcDbLayerTableRecord
  2
COORDINATE
 70
0
 62
7
  6
CONTINUOUS
370
-3
390
F
  0
LAYER
  5
200
100
AcDbSymbolTableRecord
100
AcDbLayerTableRecord
  2
COPY_PUBLISH
 70
0
 62
7
  6
CONTINUOUS
370
-3
390
F
  0
LAYER
  5
201
100
AcDbSymbolTableRecord
100
AcDbLayerTableRecord
  2
COSMETICI
 70
0
 62
7
  6
CONTINUOUS
370
-3
390
F
  0
LAYER
  5
202
100
AcDbSymbolTableRecord
100
AcDbLayerTableRecord
  2
CURVE
 70
0
 62
7
  6
CONTINUOUS
370
-3
390
F
  0
LAYER
  5
203
100
AcDbSymbolTableRecord
100
AcDbLayerTableRecord
  2
DRAFT
 70
0
 62
7
  6
CONTINUOUS
370
-3
390
F
  0
LAYER
  5
204
100
AcDbSymbolTableRecord
100
AcDbLayerTableRecord
  2
IMPORT_IGES
 70
0
 62
7
  6
CONTINUOUS
370
-3
390
F
  0
LAYER
  5
205
100
AcDbSymbolTableRecord
100
AcDbLayerTableRecord
  2
INTF_1
 70
0
 62
7
  6
CONTINUOUS
370
-3
390
F
  0
LAYER
  5
206
100
AcDbSymbolTableRecord
100
AcDbLayerTableRecord
  2
INTF_7
 70
0
 62
7
  6
CONTINUOUS
370
-3
390
F
  0
LAYER
  5
207
100
AcDbSymbolTableRecord
100
AcDbLayerTableRecord
  2
INTF_CYAN
 70
0
 62
7
  6
CONTINUOUS
370
-3
390
F
  0
LAYER
  5
208
100
AcDbSymbolTableRecord
100
AcDbLayerTableRecord
  2
NOTE
 70
0
 62
7
  6
CONTINUOUS
370
-3
390
F
  0
LAYER
  5
209
100
AcDbSymbolTableRecord
100
AcDbLayerTableRecord
  2
PIANI
 70
0
 62
7
  6
CONTINUOUS
370
-3
390
F
  0
LAYER
  5
20A
100
AcDbSymbolTableRecord
100
AcDbLayerTableRecord
  2
PUNTI
 70
0
 62
7
  6
CONTINUOUS
370
-3
390
F
  0
LAYER
  5
20B
100
AcDbSymbolTableRecord
100
AcDbLayerTableRecord
  2
RACCORDO
 70
0
 62
7
  6
CONTINUOUS
370
-3
390
F
  0
LAYER
  5
20C
100
AcDbSymbolTableRecord
100
AcDbLayerTableRecord
  2
RGB____0____0____0__
 70
0
 62
7
  6
CONTINUOUS
370
-3
390
F
  0
LAYER
  5
20D
100
AcDbSymbolTableRecord
100
AcDbLayerTableRecord
  2
SIMBOLI
 70
0
 62
7
  6
CONTINUOUS
370
-3
390
F
  0
LAYER
  5
20E
100
AcDbSymbolTableRecord
100
AcDbLayerTableRecord
  2
SMUSSO
 70
0
 62
7
  6
CONTINUOUS
370
-3
390
F
  0
LAYER
  5
20F
100
AcDbSymbolTableRecord
100
AcDbLayerTableRecord
  2
SNAPLINE
 70
0
 62
7
  6
CONTINUOUS
370
-3
390
F
  0
LAYER
  5
210
100
AcDbSymbolTableRecord
100
AcDbLayerTableRecord
  2
SUPERFICI
 70
0
 62
7
  6
CONTINUOUS
370
-3
390
F
  0
LAYER
  5
211
100
AcDbSymbolTableRecord
100
AcDbLayerTableRecord
  2
SUP_SCRITTE
 70
0
 62
7
  6
CONTINUOUS
370
-3
390
F
  0
LAYER
  5
212
100
AcDbSymbolTableRecord
100
AcDbLayerTableRecord
  2
TRASH
 70
0
 62
7
  6
CONTINUOUS
370
-3
390
F
  0
ENDTAB
  0
TABLE
  2
STYLE
  5
3
100
AcDbSymbolTable
 70
1
  0
STYLE
  5
11
100
AcDbSymbolTableRecord
100
AcDbTextStyleTableRecord
  2
STANDARD
 70
0
 40
0.0
 41
0.8
 50
0.0
 71
0
 42
0.2
  3
txt
  4

  0
STYLE
  5
213
100
AcDbSymbolTableRecord
100
AcDbTextStyleTableRecord
  2
TEXTSTYLE_1
 70
0
 40
0.0
 41
0.8
 50
0.0
 71
0
 42
0.2
  3
gdt
  4

  0
ENDTAB
  0
TABLE
  2
VIEW
  5
6
100
AcDbSymbolTable
 70
0
  0
ENDTAB
  0
TABLE
  2
UCS
  5
7
100
AcDbSymbolTable
 70
0
  0
ENDTAB
  0
TABLE
  2
APPID
  5
9
100
AcDbSymbolTable
 70
1
  0
APPID
  5
214
100
AcDbSymbolTableRecord
100
AcDbRegAppTableRecord
  2
ACAD
 70
0
  0
ENDTAB
  0
TABLE
  2
BLOCK_RECORD
  5
1
100
AcDbSymbolTable
 70
0
  0
BLOCK_RECORD
  5
215
100
AcDbSymbolTableRecord
100
AcDbBlockTableRecord
  2
*Model_Space
  0
BLOCK_RECORD
  5
216
100
AcDbSymbolTableRecord
100
AcDbBlockTableRecord
  2
*Paper_Space
  0
BLOCK_RECORD
  5
217
100
AcDbSymbolTableRecord
100
AcDbBlockTableRecord
  2
_FILLED
  0
BLOCK_RECORD
  5
218
100
AcDbSymbolTableRecord
100
AcDbBlockTableRecord
  2
*D0
  0
BLOCK_RECORD
  5
219
100
AcDbSymbolTableRecord
100
AcDbBlockTableRecord
  2
*D1
  0
BLOCK_RECORD
  5
21A
100
AcDbSymbolTableRecord
100
AcDbBlockTableRecord
  2
*D2
  0
BLOCK_RECORD
  5
21B
100
AcDbSymbolTableRecord
100
AcDbBlockTableRecord
  2
*D3
  0
BLOCK_RECORD
  5
21C
100
AcDbSymbolTableRecord
100
AcDbBlockTableRecord
  2
*D4
  0
ENDTAB
  0
TABLE
  2
DIMSTYLE
  5
A
100
AcDbSymbolTable
 70
1
100
AcDbDimStyleTable
 71
0
  0
DIMSTYLE
105
21D
100
AcDbSymbolTableRecord
100
AcDbDimStyleTableRecord
  2
STANDARD
 70
0
  3

  4

 40
1.0
 41
3.0
 42
0.5
 43
0.38
 44
1.5
 45
0.0
 46
0.0
 47
0.01
 48
0.01
140
3.0
141
0.09
142
0.0
143
25.4
144
1.0
145
0.0
146
1.0
147
0.625
 71
1.0
 72
0.0
 73
0
 74
0
 75
0
 76
0
 77
1
 78
8
170
0
171
1
172
0
173
0
174
0
175
0
176
0
177
0
178
0
270
2
271
2
272
2
273
2
274
2
275
0
280
0
281
0
282
0
283
1
284
8
285
0
286
0
287
3
288
0
340
11
278
44
341
217
342
217
343
217
344
217
  0
DIMSTYLE
105
21E
100
AcDbSymbolTableRecord
100
AcDbDimStyleTableRecord
  2
DIMSTYLE_1
 70
0
  3

  4

 40
1.0
 41
3.0
 42
0.5
 43
0.38
 44
1.5
 45
0.0
 46
0.0
 47
0.0
 48
0.0
140
3.0
141
0.09
142
0.0
143
25.4
144
1.0
145
0.0
146
1.0
147
0.75
 71
0.0
 72
0.0
 73
0
 74
0
 75
0
 76
0
 77
1
 78
8
170
0
171
1
172
0
173
0
174
0
175
0
176
0
177
0
178
0
270
2
271
2
272
2
273
2
274
2
275
0
280
0
281
0
282
0
283
1
284
8
285
0
286
0
287
3
288
0
340
11
278
44
341
217
342
217
343
217
344
217
  0
DIMSTYLE
105
21F
100
AcDbSymbolTableRecord
100
AcDbDimStyleTableRecord
  2
DIMSTYLE_2
 70
0
  3

  4

 40
1.0
 41
3.0
 42
0.5
 43
0.38
 44
1.5
 45
0.0
 46
0.0
 47
0.0
 48
0.0
140
3.0
141
0.09
142
0.0
143
25.4
144
1.0
145
0.0
146
1.0
147
0.75
 71
0.0
 72
0.0
 73
0
 74
0
 75
0
 76
0
 77
1
 78
8
170
0
171
1
172
0
173
0
174
0
175
0
176
0
177
0
178
0
270
2
271
1
272
1
273
2
274
2
275
0
280
0
281
0
282
0
283
1
284
8
285
0
286
0
287
3
288
0
340
11
278
44
341
217
342
217
343
217
344
217
  0
ENDTAB
  0
ENDSEC
  0
SECTION
  2
BLOCKS
  0
BLOCK
  5
20
100
AcDbEntity
  8
0
100
AcDbBlockBegin
  2
*Model_Space
 70
0
 10
0.0
 20
0.0
 30
0.0
  3
*Model_Space
  1

  0
ENDBLK
  5
21
100
AcDbEntity
  8
0
100
AcDbBlockEnd
  0
BLOCK
  5
1C
100
AcDbEntity
  8
0
100
AcDbBlockBegin
  2
*Paper_Space
 70
0
 10
0.0
 20
0.0
 30
0.0
  3
*Paper_Space
  1

  0
ENDBLK
  5
1D
100
AcDbEntity
  8
0
100
AcDbBlockEnd
  0
BLOCK
  5
220
100
AcDbEntity
  8
0
100
AcDbBlockBegin
  2
_FILLED
 70
64
 10
0.0
 20
0.0
  3
_FILLED
  1

  0
SOLID
  5
221
100
AcDbEntity
  8
0
  6
BYBLOCK
 62
0
100
AcDbTrace
 10
0.0
 20
0.0
 11
-1.0
 21
0.3166666667
 12
-1.0
 22
-0.3166666667
 13
-1.0
 23
-0.3166666667
  0
ENDBLK
  5
222
100
AcDbEntity
  8
0
  6
BYBLOCK
 62
0
100
AcDbBlockEnd
  0
BLOCK
  5
223
100
AcDbEntity
  8
0
100
AcDbBlockBegin
 62
7
  6
CONTINUOUS
  2
*D0
 70
65
 10
0.0
 20
0.0
  3
*D0
  1

  0
MTEXT
  5
224
100
AcDbEntity
  8
0
100
AcDbMText
 62
7
  6
CONTINUOUS
  7
STANDARD
 71
2
 72
1
 10
0.0
 20
81.8035013869
 30
0.0
 11
1.0
 21
0.0
 31
0.0
 44
0.9
  1
155
 40
3.0
 41
9.0
  0
LINE
  5
225
100
AcDbEntity
  8
0
100
AcDbLine
 62
7
  6
CONTINUOUS
 10
-77.5
 20
37.9955176158
 11
-77.5
 21
79.5535013869
  0
LINE
  5
226
100
AcDbEntity
  8
0
100
AcDbLine
 62
7
  6
CONTINUOUS
 10
77.5
 20
37.9955193312
 11
77.5
 21
79.5535013869
  0
LINE
  5
227
100
AcDbEntity
  8
0
100
AcDbLine
 62
7
  6
CONTINUOUS
 10
-77.5
 20
78.0535013869
 11
0.0
 21
78.0535013869
  0
LINE
  5
228
100
AcDbEntity
  8
0
100
AcDbLine
 62
7
  6
CONTINUOUS
 10
77.5
 20
78.0535013869
 11
0.0
 21
78.0535013869
  0
INSERT
  5
229
100
AcDbEntity
  8
0
100
AcDbBlockReference
 62
7
  6
CONTINUOUS
  2
_FILLED
 10
-77.5
 20
78.0535013869
 41
3.0
 42
3.0
 43
3.0
 50
180.0
  0
INSERT
  5
22A
100
AcDbEntity
  8
0
100
AcDbBlockReference
 62
7
  6
CONTINUOUS
  2
_FILLED
 10
77.5
 20
78.0535013869
 41
3.0
 42
3.0
 43
3.0
 50
360.0
  0
ENDBLK
  5
22B
100
AcDbEntity
  8
0
  6
BYBLOCK
 62
0
100
AcDbBlockEnd
  0
BLOCK
  5
22C
100
AcDbEntity
  8
0
100
AcDbBlockBegin
 62
7
  6
CONTINUOUS
  2
*D1
 70
65
 10
0.0
 20
0.0
  3
*D1
  1

  0
MTEXT
  5
22D
100
AcDbEntity
  8
0
100
AcDbMText
 62
7
  6
CONTINUOUS
  7
STANDARD
 71
2
 72
1
 10
0.0
 20
73.8035013869
 30
0.0
 11
1.0
 21
0.0
 31
0.0
 44
0.9
  1
112,8
 40
3.0
 41
14.7857142857
  0
LINE
  5
22E
100
AcDbEntity
  8
0
100
AcDbLine
 62
7
  6
CONTINUOUS
 10
-56.4
 20
17.1965102743
 11
-56.4
 21
71.5535013869
  0
LINE
  5
22F
100
AcDbEntity
  8
0
100
AcDbLine
 62
7
  6
CONTINUOUS
 10
56.4
 20
17.1964989199
 11
56.4
 21
71.5535013869
  0
LINE
  5
230
100
AcDbEntity
  8
0
100
AcDbLine
 62
7
  6
CONTINUOUS
 10
-56.4
 20
70.0535013869
 11
0.0
 21
70.0535013869
  0
LINE
  5
231
100
AcDbEntity
  8
0
100
AcDbLine
 62
7
  6
CONTINUOUS
 10
56.4
 20
70.0535013869
 11
0.0
 21
70.0535013869
  0
INSERT
  5
232
100
AcDbEntity
  8
0
100
AcDbBlockReference
 62
7
  6
CONTINUOUS
  2
_FILLED
 10
-56.4
 20
70.0535013869
 41
3.0
 42
3.0
 43
3.0
 50
180.0
  0
INSERT
  5
233
100
AcDbEntity
  8
0
100
AcDbBlockReference
 62
7
  6
CONTINUOUS
  2
_FILLED
 10
56.4
 20
70.0535013869
 41
3.0
 42
3.0
 43
3.0
  0
ENDBLK
  5
234
100
AcDbEntity
  8
0
  6
BYBLOCK
 62
0
100
AcDbBlockEnd
  0
BLOCK
  5
235
100
AcDbEntity
  8
0
100
AcDbBlockBegin
 62
7
  6
CONTINUOUS
  2
*D2
 70
65
 10
0.0
 20
0.0
  3
*D2
  1

  0
MTEXT
  5
236
100
AcDbEntity
  8
0
100
AcDbMText
 62
7
  6
CONTINUOUS
  7
STANDARD
 71
2
 72
1
 10
99.25
 20
-5.0535013869
 30
0.0
 11
0.0
 21
1.0
 31
0.0
 44
0.9
  1
90
 40
3.0
 41
7.0714285714
  0
LINE
  5
237
100
AcDbEntity
  8
0
100
AcDbLine
 62
7
  6
CONTINUOUS
 10
76.4
 20
39.9464986131
 11
104.5
 21
39.9464986131
  0
LINE
  5
238
100
AcDbEntity
  8
0
100
AcDbLine
 62
7
  6
CONTINUOUS
 10
76.4
 20
-50.0535013869
 11
104.5
 21
-50.0535013869
  0
LINE
  5
239
100
AcDbEntity
  8
0
100
AcDbLine
 62
7
  6
CONTINUOUS
 10
103.0
 20
39.9464986131
 11
103.0
 21
-5.0535013869
  0
LINE
  5
23A
100
AcDbEntity
  8
0
100
AcDbLine
 62
7
  6
CONTINUOUS
 10
103.0
 20
-50.0535013869
 11
103.0
 21
-5.0535013869
  0
INSERT
  5
23B
100
AcDbEntity
  8
0
100
AcDbBlockReference
 62
7
  6
CONTINUOUS
  2
_FILLED
 10
103.0
 20
39.9464986131
 41
3.0
 42
3.0
 43
3.0
 50
90.0
  0
INSERT
  5
23C
100
AcDbEntity
  8
0
100
AcDbBlockReference
 62
7
  6
CONTINUOUS
  2
_FILLED
 10
103.0
 20
-50.0535013869
 41
3.0
 42
3.0
 43
3.0
 50
270.0
  0
ENDBLK
  5
23D
100
AcDbEntity
  8
0
  6
BYBLOCK
 62
0
100
AcDbBlockEnd
  0
BLOCK
  5
23E
100
AcDbEntity
  8
0
100
AcDbBlockBegin
 62
7
  6
CONTINUOUS
  2
*D3
 70
65
 10
0.0
 20
0.0
  3
*D3
  1

  0
MTEXT
  5
23F
100
AcDbEntity
  8
0
100
AcDbMText
 62
7
  6
CONTINUOUS
  7
STANDARD
 71
2
 72
1
 10
91.25
 20
-5.0535013869
 30
0.0
 11
0.0
 21
1.0
 31
0.0
 44
0.9
  1
45,1
 40
3.0
 41
11.8928571429
  0
LINE
  5
240
100
AcDbEntity
  8
0
100
AcDbLine
 62
7
  6
CONTINUOUS
 10
56.1
 20
17.4964986131
 11
96.5
 21
17.4964986131
  0
LINE
  5
241
100
AcDbEntity
  8
0
100
AcDbLine
 62
7
  6
CONTINUOUS
 10
56.1
 20
-27.6035013869
 11
96.5
 21
-27.6035013869
  0
LINE
  5
242
100
AcDbEntity
  8
0
100
AcDbLine
 62
7
  6
CONTINUOUS
 10
95.0
 20
17.4964986131
 11
95.0
 21
-5.0535013869
  0
LINE
  5
243
100
AcDbEntity
  8
0
100
AcDbLine
 62
7
  6
CONTINUOUS
 10
95.0
 20
-27.6035013869
 11
95.0
 21
-5.0535013869
  0
INSERT
  5
244
100
AcDbEntity
  8
0
100
AcDbBlockReference
 62
7
  6
CONTINUOUS
  2
_FILLED
 10
95.0
 20
17.4964986131
 41
3.0
 42
3.0
 43
3.0
 50
90.0
  0
INSERT
  5
245
100
AcDbEntity
  8
0
100
AcDbBlockReference
 62
7
  6
CONTINUOUS
  2
_FILLED
 10
95.0
 20
-27.6035013869
 41
3.0
 42
3.0
 43
3.0
 50
270.0
  0
ENDBLK
  5
246
100
AcDbEntity
  8
0
  6
BYBLOCK
 62
0
100
AcDbBlockEnd
  0
BLOCK
  5
247
100
AcDbEntity
  8
0
100
AcDbBlockBegin
 62
7
  6
CONTINUOUS
  2
*D4
 70
65
 10
0.0
 20
0.0
  3
*D4
  1

  0
MTEXT
  5
248
100
AcDbEntity
  8
0
100
AcDbMText
 62
7
  6
CONTINUOUS
  7
STANDARD
 71
2
 72
1
 10
-110.3953944754
 20
73.8035013869
 30
0.0
 11
1.0
 21
0.0
 31
0.0
 44
0.9
  1
8,6
 40
3.0
 41
9.6428571429
  0
LINE
  5
249
100
AcDbEntity
  8
0
100
AcDbLine
 62
7
  6
CONTINUOUS
 10
-106.111338677
 20
38.0132479116
 11
-106.111338677
 21
71.5535013869
  0
LINE
  5
24A
100
AcDbEntity
  8
0
100
AcDbLine
 62
7
  6
CONTINUOUS
 10
-114.6794502739
 20
-4.5535013869
 11
-114.6794502739
 21
71.5535013869
  0
LINE
  5
24B
100
AcDbEntity
  8
0
100
AcDbLine
 62
7
  6
CONTINUOUS
 10
-106.111338677
 20
70.0535013869
 11
-102.111338677
 21
70.0535013869
  0
LINE
  5
24C
100
AcDbEntity
  8
0
100
AcDbLine
 62
7
  6
CONTINUOUS
 10
-102.111338677
 20
70.0535013869
 11
-110.3953944754
 21
70.0535013869
  0
LINE
  5
24D
100
AcDbEntity
  8
0
100
AcDbLine
 62
7
  6
CONTINUOUS
 10
-114.6794502739
 20
70.0535013869
 11
-118.6794502739
 21
70.0535013869
  0
LINE
  5
24E
100
AcDbEntity
  8
0
100
AcDbLine
 62
7
  6
CONTINUOUS
 10
-118.6794502739
 20
70.0535013869
 11
-110.3953944754
 21
70.0535013869
  0
INSERT
  5
24F
100
AcDbEntity
  8
0
100
AcDbBlockReference
 62
7
  6
CONTINUOUS
  2
_FILLED
 10
-106.111338677
 20
70.0535013869
 41
3.0
 42
3.0
 43
3.0
 50
180.0
  0
INSERT
  5
250
100
AcDbEntity
  8
0
100
AcDbBlockReference
 62
7
  6
CONTINUOUS
  2
_FILLED
 10
-114.6794502739
 20
70.0535013869
 41
3.0
 42
3.0
 43
3.0
  0
ENDBLK
  5
251
100
AcDbEntity
  8
0
  6
BYBLOCK
 62
0
100
AcDbBlockEnd
  0
ENDSEC
  0
SECTION
  2
ENTITIES
  0
DIMENSION
  5
252
100
AcDbEntity
  8
0
100
AcDbDimension
 62
7
  6
CONTINUOUS
  2
*D0
 10
77.5
 20
78.0535013869
 11
-0.4285714481
 21
78.0535013869
 70
160
 71
2
 42
155.0
  3
DIMSTYLE_1
100
AcDbAlignedDimension
 13
-77.5
 23
37.4955176158
 14
77.5
 24
37.4955193312
 50
360.0
100
AcDbRotatedDimension
  0
DIMENSION
  5
253
100
AcDbEntity
  8
0
100
AcDbDimension
 62
7
  6
CONTINUOUS
  2
*D1
 10
56.4
 20
70.0535013869
 11
-0.4285715189
 21
70.0535013869
 70
160
 71
2
 42
112.8
  3
DIMSTYLE_1
100
AcDbAlignedDimension
 13
-56.4
 23
16.6965102743
 14
56.4
 24
16.6964989199
100
AcDbRotatedDimension
  0
DIMENSION
  5
254
100
AcDbEntity
  8
0
100
AcDbDimension
 62
7
  6
CONTINUOUS
  2
*D2
 10
103.0
 20
-50.0535013869
 11
103.0
 21
-5.4820753353
 70
160
 71
2
 42
90.0
  3
DIMSTYLE_1
100
AcDbAlignedDimension
 13
75.9
 23
39.9464986131
 14
75.9
 24
-50.0535013869
 50
270.0
100
AcDbRotatedDimension
  0
DIMENSION
  5
255
100
AcDbEntity
  8
0
100
AcDbDimension
 62
7
  6
CONTINUOUS
  2
*D3
 10
95.0
 20
-27.6035013869
 11
95.0
 21
-5.4820734018
 70
160
 71
2
 42
45.1
  3
DIMSTYLE_1
100
AcDbAlignedDimension
 13
55.6
 23
17.4964986131
 14
55.6
 24
-27.6035013869
 50
270.0
100
AcDbRotatedDimension
  0
DIMENSION
  5
256
100
AcDbEntity
  8
0
100
AcDbDimension
 62
7
  6
CONTINUOUS
  2
*D4
 10
-114.6794502739
 20
70.0535013869
 11
-110.823966568
 21
70.0535013869
 70
160
 71
2
 42
8.5681115969
  3
DIMSTYLE_2
100
AcDbAlignedDimension
 13
-106.111338677
 23
37.5132479116
 14
-114.6794502739
 24
-5.0535013869
 50
180.0
100
AcDbRotatedDimension
  0
LWPOLYLINE
  5
257
100
AcDbEntity
  8
0
100
AcDbPolyline
 62
253
  6
CONTINUOUS
 90
25
 70
0
 10
-77.3643139147
 20
-47.6025203896
 10
-77.3546961248
 20
-47.6192363392
 10
-77.3401826225
 20
-47.6357947937
 10
-77.320828694
 20
-47.652132677
 10
-77.296708064
 20
-47.6681877535
 10
-77.2679126149
 20
-47.6838988646
 10
-77.2345520371
 20
-47.6992061621
 10
-77.1967534108
 20
-47.7140513362
 10
-77.1546607219
 20
-47.7283778371
 10
-77.1084343137
 20
-47.742131091
 10
-77.0582502761
 20
-47.7552587079
 10
-77.0042997747
 20
-47.7677106808
 10
-76.9467883228
 20
-47.7794395765
 10
-76.8859349981
 20
-47.7904007162
 10
-76.8219716089
 20
-47.8005523458
 10
-76.7551418101
 20
-47.8098557947
 10
-76.6857001761
 20
-47.8182756233
 10
-76.6139112303
 20
-47.8257797582
 10
-76.5400484377
 20
-47.8323396138
 10
-76.4643931631
 20
-47.8379302017
 10
-76.3872335997
 20
-47.8425302259
 10
-76.3088636706
 20
-47.8461221633
 10
-76.2295819098
 20
-47.8486923314
 10
-76.1496903245
 20
-47.8502309396
 10
-76.0694932453
 20
-47.8507321268
  0
LWPOLYLINE
  5
258
100
AcDbEntity
  8
0
100
AcDbPolyline
 62
253
  6
CONTINUOUS
 90
25
 70
0
 10
-77.367320749
 20
-48.4518169687
 10
-77.3578034689
 20
-48.4691626582
 10
-77.3433803265
 20
-48.486380266
 10
-77.3241063676
 20
-48.5034040813
 10
-77.3000551515
 20
-48.5201691327
 10
-77.2713184694
 20
-48.5366114366
 10
-77.2380059949
 20
-48.5526682411
 10
-77.2002448652
 20
-48.5682782655
 10
-77.1581791954
 20
-48.5833819345
 10
-77.1119695293
 20
-48.5979216048
 10
-77.0617922259
 20
-48.6118417861
 10
-77.0078387869
 20
-48.625089352
 10
-76.9503151256
 20
-48.6376137433
 10
-76.889440781
 20
-48.6493671608
 10
-76.82544808
 20
-48.6603047478
 10
-76.7585812507
 20
-48.6703847609
 10
-76.6890954903
 20
-48.6795687299
 10
-76.6172559912
 20
-48.6878216043
 10
-76.5433369287
 20
-48.695111887
 10
-76.467620415
 20
-48.7014117547
 10
-76.390395422
 20
-48.706697164
 10
-76.3119566789
 20
-48.7109479432
 10
-76.2326035471
 20
-48.7141478692
 10
-76.1526388777
 20
-48.7162847295
 10
-76.072367856
 20
-48.7173503688
  0
LWPOLYLINE
  5
259
100
AcDbEntity
  8
0
100
AcDbPolyline
 62
253
  6
CONTINUOUS
 90
25
 70
0
 10
-77.3673197999
 20
38.3448140692
 10
-77.3578024994
 20
38.3621597664
 10
-77.343379344
 20
38.3793773817
 10
-77.3241053794
 20
38.3964012043
 10
-77.3000541647
 20
38.4131662628
 10
-77.2713174912
 20
38.4296085735
 10
-77.2380050322
 20
38.4456653844
 10
-77.2002439245
 20
38.4612754147
 10
-77.1581782831
 20
38.4763790889
 10
-77.1119686512
 20
38.4909187638
 10
-77.0617913877
 20
38.5048389488
 10
-77.0078379938
 20
38.5180865177
 10
-76.9503143821
 20
38.5306109111
 10
-76.8894400913
 20
38.5423643298
 10
-76.8254474477
 20
38.5533019169
 10
-76.7585806788
 20
38.5633819291
 10
-76.6890949811
 20
38.5725658962
 10
-76.6172555465
 20
38.5808187675
 10
-76.5433365496
 20
38.5881090459
 10
-76.4676201019
 20
38.5944089083
 10
-76.3903951747
 20
38.5996943112
 10
-76.3119564964
 20
38.6039450828
 10
-76.2326034277
 20
38.607145
 10
-76.1526388192
 20
38.6092818505
 10
-76.0723678552
 20
38.6103474789
  0
LWPOLYLINE
  5
25A
100
AcDbEntity
  8
0
100
AcDbPolyline
 62
253
  6
CONTINUOUS
 90
25
 70
0
 10
-77.3643139146
 20
37.4955176158
 10
-77.3546961239
 20
37.5122335653
 10
-77.3401826209
 20
37.5287920197
 10
-77.3208286917
 20
37.5451299029
 10
-77.2967080611
 20
37.5611849792
 10
-77.2679126115
 20
37.5768960901
 10
-77.2345520334
 20
37.5922033875
 10
-77.1967534067
 20
37.6070485613
 10
-77.1546607175
 20
37.6213750621
 10
-77.1084343091
 20
37.6351283159
 10
-77.0582502714
 20
37.6482559326
 10
-77.00429977
 20
37.6607079054
 10
-76.9467883181
 20
37.6724368009
 10
-76.8859349936
 20
37.6833979405
 10
-76.8219716045
 20
37.6935495699
 10
-76.755141806
 20
37.7028530186
 10
-76.6857001723
 20
37.7112728471
 10
-76.6139112269
 20
37.7187769818
 10
-76.5400484346
 20
37.7253368373
 10
-76.4643931605
 20
37.7309274252
 10
-76.3872335975
 20
37.7355274492
 10
-76.3088636689
 20
37.7391193867
 10
-76.2295819086
 20
37.7416895547
 10
-76.149690324
 20
37.7432281628
 10
-76.0694932453
 20
37.74372935
  0
LINE
  5
25B
100
AcDbEntity
  8
0
100
AcDbLine
 62
253
  6
CONTINUOUS
 10
-76.0694932453
 20
37.7437293531
 11
-76.0723678552
 21
38.6103474789
  0
LINE
  5
25C
100
AcDbEntity
  8
0
100
AcDbLine
 62
253
  6
CONTINUOUS
 10
-77.3646431871
 20
37.7796100828
 11
-77.3673198341
 21
38.3448188359
  0
LINE
  5
25D
100
AcDbEntity
  8
0
100
AcDbLine
 62
7
  6
CONTINUOUS
 10
-77.5
 20
-48.4535013869
 11
-77.5
 21
38.3464986131
  0
LINE
  5
25E
100
AcDbEntity
  8
0
100
AcDbLine
 62
253
  6
CONTINUOUS
 10
-76.0694932453
 20
-47.8507321268
 11
-76.0723832817
 21
-27.5820719357
  0
LINE
  5
25F
100
AcDbEntity
  8
0
100
AcDbLine
 62
253
  6
CONTINUOUS
 10
-75.9
 20
39.9464986131
 11
-75.9
 21
38.7954306956
  0
LINE
  5
260
100
AcDbEntity
  8
0
100
AcDbLine
 62
253
  6
CONTINUOUS
 10
-75.9
 20
-50.0535013869
 11
-75.9
 21
-48.9024334694
  0
LINE
  5
261
100
AcDbEntity
  8
0
100
AcDbLine
 62
253
  6
CONTINUOUS
 10
-77.3674239464
 20
-27.5226880521
 11
-77.3672743838
 21
19.7319875353
  0
LINE
  5
262
100
AcDbEntity
  8
0
100
AcDbLine
 62
253
  6
CONTINUOUS
 10
-76.0723832817
 20
-27.5820719357
 11
-76.0722315242
 21
19.8127002614
  0
LINE
  5
263
100
AcDbEntity
  8
0
100
AcDbLine
 62
253
  6
CONTINUOUS
 10
-77.3672743838
 20
19.7319875353
 11
-77.3646431871
 21
37.7796100828
  0
LINE
  5
264
100
AcDbEntity
  8
0
100
AcDbLine
 62
253
  6
CONTINUOUS
 10
-76.0722315242
 20
19.8127002614
 11
-76.0694932453
 21
37.7437293531
  0
LWPOLYLINE
  5
265
100
AcDbEntity
  8
0
100
AcDbPolyline
 62
253
  6
CONTINUOUS
 90
115
 70
0
 10
-76.0723678552
 20
38.6103474789
 10
-76.0723598513
 20
38.6132835453
 10
-76.0723230455
 20
38.6160706754
 10
-76.0722574378
 20
38.6187088712
 10
-76.0721606448
 20
38.6211741582
 10
-76.0720350498
 20
38.6234905152
 10
-76.0718878032
 20
38.6257298744
 10
-76.0717222854
 20
38.6278912105
 10
-76.0715351159
 20
38.6299755506
 10
-76.0713233046
 20
38.6320579033
 10
-76.0710891627
 20
38.6341414065
 10
-76.0708303789
 20
38.6362229223
 10
-76.0705370292
 20
38.6383680445
 10
-76.0702040687
 20
38.6406138209
 10
-76.0698365423
 20
38.6429232019
 10
-76.0694396602
 20
38.6452506348
 10
-76.0690116142
 20
38.6475995499
 10
-76.0685542125
 20
38.6499665163
 10
-76.0680780902
 20
38.6522956916
 10
-76.0675869133
 20
38.6545673651
 10
-76.0670770159
 20
38.6568012484
 10
-76.066548035
 20
38.659000633
 10
-76.0660162587
 20
38.6611154961
 10
-76.0654653989
 20
38.6631958616
 10
-76.0648462285
 20
38.6653950892
 10
-76.0641398243
 20
38.6677827258
 10
-76.0633651095
 20
38.6702892209
 10
-76.0625296261
 20
38.672859288
 10
-76.0616207266
 20
38.6755190753
 10
-76.0606510586
 20
38.6782424325
 10
-76.0596661065
 20
38.6808956271
 10
-76.0586877297
 20
38.6834163385
 10
-76.0576940687
 20
38.6858668899
 10
-76.0566650292
 20
38.6883005161
 10
-76.0555980099
 20
38.6907252559
 10
-76.0544956121
 20
38.693133071
 10
-76.0533455454
 20
38.6955530795
 10
-76.0521402982
 20
38.6980031686
 10
-76.0508873821
 20
38.7004654506
 10
-76.0495970412
 20
38.7029153814
 10
-76.0482603768
 20
38.7053653788
 10
-76.0468862876
 20
38.7078030253
 10
-76.0455117146
 20
38.7101665249
 10
-76.0441512899
 20
38.7124296813
 10
-76.0427903813
 20
38.7146186928
 10
-76.0414220338
 20
38.716750357
 10
-76.0400533722
 20
38.7188140969
 10
-76.0386772718
 20
38.7208204908
 10
-76.0372654025
 20
38.722818068
 10
-76.0357944733
 20
38.7248387505
 10
-76.0342877753
 20
38.7268506163
 10
-76.0327868519
 20
38.728806429
 10
-76.0313064138
 20
38.730688239
 10
-76.0298317503
 20
38.7325139972
 10
-76.0283602724
 20
38.7342903182
 10
-76.0269073128
 20
38.7360008054
 10
-76.0254575388
 20
38.7376618565
 10
-76.0239623624
 20
38.7393292768
 10
-76.0224018553
 20
38.7410268791
 10
-76.0207959459
 20
38.7427308502
 10
-76.0191558308
 20
38.7444255566
 10
-76.0174811976
 20
38.7461108029
 10
-76.0157723588
 20
38.7477867846
 10
-76.0140414485
 20
38.749438454
 10
-76.0122997028
 20
38.7510546723
 10
-76.0105358856
 20
38.7526465789
 10
-76.0087284225
 20
38.7542325434
 10
-76.0068535191
 20
38.7558317883
 10
-76.0049349698
 20
38.7574250912
 10
-76.0030225843
 20
38.7589731544
 10
-76.0011320543
 20
38.760464041
 10
-75.999247688
 20
38.7619096886
 10
-75.9973722203
 20
38.7633066115
 10
-75.9955315033
 20
38.7646365168
 10
-75.9936996848
 20
38.7659176982
 10
-75.9918019426
 20
38.7672015491
 10
-75.9898117267
 20
38.7685075031
 10
-75.9877555871
 20
38.7698161266
 10
-75.9856383512
 20
38.7711205122
 10
-75.9834425195
 20
38.7724303261
 10
-75.9811855916
 20
38.7737359022
 10
-75.9789248934
 20
38.7750013348
 10
-75.9766718113
 20
38.7762180088
 10
-75.9744149589
 20
38.77739454
 10
-75.972177503
 20
38.7785208694
 10
-75.9699833876
 20
38.7795863458
 10
-75.9678086687
 20
38.7806016209
 10
-75.965604681
 20
38.7815885903
 10
-75.9633573272
 20
38.7825534576
 10
-75.9610807047
 20
38.7834900195
 10
-75.9587684396
 20
38.7844015602
 10
-75.956395207
 20
38.7852976852
 10
-75.9539863318
 20
38.7861687894
 10
-75.9516114154
 20
38.7869893411
 10
-75.9493202057
 20
38.7877436794
 10
-75.9470629548
 20
38.7884474656
 10
-75.9447600201
 20
38.7891221521
 10
-75.9424027038
 20
38.789770735
 10
-75.9399997038
 20
38.7903902183
 10
-75.9374974714
 20
38.7909930656
 10
-75.9348267802
 20
38.7915950283
 10
-75.9320568566
 20
38.792180355
 10
-75.9293418315
 20
38.7927142553
 10
-75.926723705
 20
38.7931850103
 10
-75.924160477
 20
38.7936043392
 10
-75.9216802772
 20
38.7939726094
 10
-75.919326534
 20
38.7942844562
 10
-75.9170558189
 20
38.7945452444
 10
-75.9147659761
 20
38.7947714358
 10
-75.9124385434
 20
38.7949686762
 10
-75.9100919829
 20
38.7951313197
 10
-75.9076795252
 20
38.795258891
 10
-75.9051855806
 20
38.7953512315
 10
-75.9026257389
 20
38.7954084997
 10
-75.9
 20
38.7954306956
  0
LINE
  5
266
100
AcDbEntity
  8
0
100
AcDbLine
 62
253
  6
CONTINUOUS
 10
-76.0723663048
 20
-48.7202839935
 11
-76.0694932453
 21
-47.8507321268
  0
LINE
  5
267
100
AcDbEntity
  8
0
100
AcDbLine
 62
253
  6
CONTINUOUS
 10
-77.3652401716
 20
-48.0754612297
 11
-77.3674239464
 21
-27.5226880521
  0
LINE
  5
268
100
AcDbEntity
  8
0
100
AcDbLine
 62
253
  6
CONTINUOUS
 10
-77.3673198001
 20
-48.4518167036
 11
-77.3652401716
 21
-48.0754612297
  0
LWPOLYLINE
  5
269
100
AcDbEntity
  8
0
100
AcDbPolyline
 62
253
  6
CONTINUOUS
 90
115
 70
0
 10
-77.3673207495
 20
38.3448188474
 10
-77.3669615582
 20
38.366056076
 10
-77.3663246022
 20
38.3866312193
 10
-77.3654360966
 20
38.4065394581
 10
-77.3643275543
 20
38.4256887701
 10
-77.3630211654
 20
38.4441617304
 10
-77.3615184532
 20
38.462217254
 10
-77.3598343377
 20
38.4798499129
 10
-77.3579835364
 20
38.497059947
 10
-77.3559469832
 20
38.5141179665
 10
-77.3537205374
 20
38.5310864939
 10
-77.3513162791
 20
38.5479012965
 10
-77.3487274634
 20
38.5646418662
 10
-77.3459566704
 20
38.5813131696
 10
-77.34301002
 20
38.5978927399
 10
-77.3398831187
 20
38.6144146636
 10
-77.336588303
 20
38.630826639
 10
-77.3331201661
 20
38.6471645275
 10
-77.3294401398
 20
38.6635942577
 10
-77.3255575848
 20
38.6800531862
 10
-77.321458224
 20
38.6965859111
 10
-77.3170504055
 20
38.7135151475
 10
-77.3123071997
 20
38.7308656109
 10
-77.3072245179
 20
38.748582509
 10
-77.3017265183
 20
38.7668627418
 10
-77.2957447036
 20
38.7858406333
 10
-77.2893042297
 20
38.8053404219
 10
-77.2824736944
 20
38.8250948429
 10
-77.2752343869
 20
38.8451141191
 10
-77.2675872908
 20
38.8653471766
 10
-77.259654304
 20
38.8854469663
 10
-77.2514727421
 20
38.9053229171
 10
-77.2430187476
 20
38.9250399686
 10
-77.2343392218
 20
38.9444967713
 10
-77.2254703073
 20
38.9636323393
 10
-77.2163970475
 20
38.9825007925
 10
-77.2070906277
 20
39.0011771495
 10
-77.1975807185
 20
39.0196141527
 10
-77.1878531868
 20
39.0378484709
 10
-77.1778045907
 20
39.0560694447
 10
-77.1674063598
 20
39.074314349
 10
-77.1566902099
 20
39.0925139654
 10
-77.1456363314
 20
39.1106874148
 10
-77.1341539027
 20
39.1289604463
 10
-77.1223190693
 20
39.1471897786
 10
-77.1103696957
 20
39.1650127932
 10
-77.0983357105
 20
39.1824071404
 10
-77.0861939351
 20
39.1994279112
 10
-77.0741218332
 20
39.2158576164
 10
-77.0622218867
 20
39.2316026349
 10
-77.0504149308
 20
39.2468075347
 10
-77.0386093517
 20
39.2616152002
 10
-77.0268318881
 20
39.2760107287
 10
-77.0150671838
 20
39.2900310872
 10
-77.0031496582
 20
39.3038805817
 10
-76.9910719801
 20
39.3175673861
 10
-76.9788391518
 20
39.3310873383
 10
-76.9662917445
 20
39.3446122233
 10
-76.9533704784
 20
39.3581923424
 10
-76.9401187623
 20
39.3717675137
 10
-76.9265248701
 20
39.3853372711
 10
-76.9125147688
 20
39.3989596216
 10
-76.898142699
 20
39.4125647151
 10
-76.8835963332
 20
39.4259675043
 10
-76.8689215657
 20
39.4391274309
 10
-76.8540696224
 20
39.4520905031
 10
-76.8390962225
 20
39.4648111186
 10
-76.8240734564
 20
39.477235698
 10
-76.8089317157
 20
39.4894276058
 10
-76.793510248
 20
39.5015133021
 10
-76.7777466779
 20
39.513530657
 10
-76.7616810537
 20
39.525436708
 10
-76.7452981595
 20
39.5372310575
 10
-76.7285275096
 20
39.548950482
 10
-76.7114116562
 20
39.5605524239
 10
-76.6941122046
 20
39.5719227666
 10
-76.6766725698
 20
39.5830345745
 10
-76.6590400334
 20
39.5939218411
 10
-76.6412423293
 20
39.6045676412
 10
-76.6233250228
 20
39.6149467257
 10
-76.6052588134
 20
39.6250769202
 10
-76.586961804
 20
39.635000509
 10
-76.5684085397
 20
39.6447252013
 10
-76.5496355014
 20
39.6542260615
 10
-76.5306497335
 20
39.6634938476
 10
-76.5114399029
 20
39.6725280702
 10
-76.4920286726
 20
39.6813128939
 10
-76.4724761542
 20
39.6898182216
 10
-76.4528349599
 20
39.6980225037
 10
-76.4330792663
 20
39.7059389491
 10
-76.4131530292
 20
39.7135895154
 10
-76.3930832662
 20
39.7209623584
 10
-76.3728672895
 20
39.7280564335
 10
-76.3523994293
 20
39.7349025999
 10
-76.3316349484
 20
39.7415055221
 10
-76.3106369094
 20
39.7478357701
 10
-76.2894597921
 20
39.7538699413
 10
-76.2681082931
 20
39.7596021734
 10
-76.246608036
 20
39.7650249567
 10
-76.2250473374
 20
39.7701177667
 10
-76.2034825747
 20
39.7748717203
 10
-76.1818953185
 20
39.7792945995
 10
-76.1602622417
 20
39.7833921392
 10
-76.1385985892
 20
39.7871615938
 10
-76.1169264428
 20
39.7905995643
 10
-76.0952328235
 20
39.7937073955
 10
-76.0735214089
 20
39.7964830882
 10
-76.0518077393
 20
39.7989254946
 10
-76.0300968428
 20
39.8010359833
 10
-76.0083887486
 20
39.8028164919
 10
-75.9866850088
 20
39.804268731
 10
-75.9649928625
 20
39.8053942946
 10
-75.9433152105
 20
39.8061953584
 10
-75.9216506661
 20
39.8066743524
 10
-75.9
 20
39.8068336131
  0
LWPOLYLINE
  5
26A
100
AcDbEntity
  8
0
100
AcDbPolyline
 62
7
  6
CONTINUOUS
 90
28
 70
0
 10
-77.5
 20
38.3464986131
 10
-77.4973638591
 20
38.4385829682
 10
-77.4893319541
 20
38.5310603881
 10
-77.475746944
 20
38.623843701
 10
-77.4568245524
 20
38.71556577
 10
-77.4327257601
 20
38.8055848253
 10
-77.4032238153
 20
38.894492817
 10
-77.3685794186
 20
38.9815375025
 10
-77.329245232
 20
39.0656775016
 10
-77.2851594263
 20
39.147313882
 10
-77.2362880739
 20
39.2265021744
 10
-77.183024419
 20
39.3024736021
 10
-77.1259235652
 20
39.3746539581
 10
-77.0647890812
 20
39.4434351605
 10
-76.9994600652
 20
39.5089061819
 10
-76.9307631458
 20
39.5702308505
 10
-76.8585662532
 20
39.6275865898
 10
-76.7824908421
 20
39.6811463313
 10
-76.7031631692
 20
39.7302987823
 10
-76.6213280873
 20
39.7746595942
 10
-76.5369181041
 20
39.8142640407
 10
-76.4495910868
 20
39.8491395174
 10
-76.3603846881
 20
39.8788346584
 10
-76.270050772
 20
39.9030911126
 10
-76.1780491885
 20
39.9221226332
 10
-76.0850214135
 20
39.9357764529
 10
-75.9923037247
 20
39.9438488883
 10
-75.9
 20
39.9464986131
  0
LWPOLYLINE
  5
26B
100
AcDbEntity
  8
0
100
AcDbPolyline
 62
253
  6
CONTINUOUS
 90
25
 70
0
 10
-57.5459366909
 20
-27.6583169454
 10
-57.505003519
 20
-27.7536472303
 10
-57.459509582
 20
-27.8466906292
 10
-57.4094548798
 20
-27.9374473509
 10
-57.3546970529
 20
-28.0261985732
 10
-57.2953784609
 20
-28.1126635177
 10
-57.2319261825
 20
-28.1959995528
 10
-57.1642901422
 20
-28.276161605
 10
-57.0925204155
 20
-28.3531953445
 10
-57.0171943078
 20
-28.4263944121
 10
-56.9382755181
 20
-28.4957080327
 10
-56.8558003475
 20
-28.5611876705
 10
-56.7704550043
 20
-28.6222804269
 10
-56.6822072025
 20
-28.678937016
 10
-56.5910892282
 20
-28.7312074112
 10
-56.4978841483
 20
-28.7786876501
 10
-56.4025548603
 20
-28.8213241992
 10
-56.3051384667
 20
-28.8591711891
 10
-56.2065293417
 20
-28.891986154
 10
-56.1067150908
 20
-28.9197001005
 10
-56.0057081086
 20
-28.9423824549
 10
-55.9044399526
 20
-28.9599983431
 10
-55.8032211421
 20
-28.9725362143
 10
-55.7017411579
 20
-28.980007839
 10
-55.6
 20
-28.9824132719
  0
LWPOLYLINE
  5
26C
100
AcDbEntity
  8
0
100
AcDbPolyline
 62
253
  6
CONTINUOUS
 90
16
 70
0
 10
-57.7
 20
-26.8665167646
 10
-57.6997101759
 20
-26.909204396
 10
-57.6983369589
 20
-26.9531558131
 10
-57.6958803488
 20
-26.9983709973
 10
-57.6924662291
 20
-27.044701082
 10
-57.6879687164
 20
-27.0922948968
 10
-57.6820101603
 20
-27.1415989594
 10
-57.6746048049
 20
-27.1928068307
 10
-57.6657384061
 20
-27.2457248901
 10
-57.654990582
 20
-27.300218877
 10
-57.6423773629
 20
-27.3563066205
 10
-57.6278827186
 20
-27.4139702319
 10
-57.6110381764
 20
-27.4730218786
 10
-57.591687579
 20
-27.5333989321
 10
-57.5699870838
 20
-27.5951639643
 10
-57.5459366909
 20
-27.6583169454
  0
LINE
  5
26D
100
AcDbEntity
  8
0
100
AcDbLine
 62
253
  6
CONTINUOUS
 10
-57.7
 20
16.7595139909
 11
-57.7
 21
-26.8665167646
  0
LINE
  5
26E
100
AcDbEntity
  8
0
100
AcDbLine
 62
7
  6
CONTINUOUS
 10
-56.4
 20
16.6965102812
 11
-56.4
 21
-26.8035016887
  0
LINE
  5
26F
100
AcDbEntity
  8
0
100
AcDbLine
 62
253
  6
CONTINUOUS
 10
-55.6
 20
-27.6035013869
 11
-55.6
 21
-28.9824132719
  0
LINE
  5
270
100
AcDbEntity
  8
0
100
AcDbLine
 62
253
  6
CONTINUOUS
 10
-55.6
 20
17.4964986131
 11
-55.6
 21
18.8754104981
  0
LWPOLYLINE
  5
271
100
AcDbEntity
  8
0
100
AcDbPolyline
 62
253
  6
CONTINUOUS
 90
10
 70
0
 10
-57.5459366909
 20
17.5513141717
 10
-57.5777102997
 20
17.4679224564
 10
-57.6058819164
 20
17.3831641871
 10
-57.630451541
 20
17.2970393283
 10
-57.6515016717
 20
17.2092543682
 10
-57.6689498104
 20
17.1201027406
 10
-57.682548462
 20
17.0304648528
 10
-57.6922151283
 20
16.9406341782
 10
-57.6980323077
 20
16.8503172278
 10
-57.7
 20
16.7595139909
  0
LWPOLYLINE
  5
272
100
AcDbEntity
  8
0
100
AcDbPolyline
 62
253
  6
CONTINUOUS
 90
16
 70
0
 10
-77.3674239464
 20
-27.5226880521
 10
-77.3579435116
 20
-27.5266818666
 10
-77.3435533197
 20
-27.530638664
 10
-77.3243083292
 20
-27.5345433327
 10
-77.3002820397
 20
-27.5383809602
 10
-77.2715662113
 20
-27.5421368899
 10
-77.2382705144
 20
-27.5457967774
 10
-77.2005221104
 20
-27.549346645
 10
-77.1584651665
 20
-27.5527729351
 10
-77.1122603047
 20
-27.5560625623
 10
-77.0620839888
 20
-27.5592029629
 10
-77.0081278499
 20
-27.5621821433
 10
-76.9505979551
 20
-27.5649887254
 10
-76.8897140201
 20
-27.5676119906
 10
-76.8257085702
 20
-27.5700419201
 10
-76.6893219013
 20
-27.5742854248
  0
LWPOLYLINE
  5
273
100
AcDbEntity
  8
0
100
AcDbPolyline
 62
253
  6
CONTINUOUS
 90
17
 70
0
 10
-77.3674210136
 20
-27.5987828703
 10
-77.3579403833
 20
-27.6027898222
 10
-77.3435500159
 20
-27.6067594393
 10
-77.3243048702
 20
-27.6106765612
 10
-77.3002784463
 20
-27.6145262278
 10
-77.2715625046
 20
-27.6182937367
 10
-77.2382667152
 20
-27.6219646991
 10
-77.2005182396
 20
-27.6255250953
 10
-77.1584612448
 20
-27.6289613274
 10
-77.1122563522
 20
-27.6322602721
 10
-77.0620800252
 20
-27.6354093302
 10
-77.0081238942
 20
-27.6383964749
 10
-76.9505940255
 20
-27.6412102981
 10
-76.8897101339
 20
-27.6438400532
 10
-76.8257047437
 20
-27.6462756968
 10
-76.7588223007
 20
-27.648507927
 10
-76.6174580033
 20
-27.6523288553
  0
LWPOLYLINE
  5
274
100
AcDbEntity
  8
0
100
AcDbPolyline
 62
253
  6
CONTINUOUS
 90
16
 70
0
 10
-56.3413087858
 20
-27.1042679775
 10
-56.3420571965
 20
-27.1084149304
 10
-56.3469776731
 20
-27.1142412705
 10
-56.3560531636
 20
-27.1217268066
 10
-56.3692522166
 20
-27.1308455974
 10
-56.3865290907
 20
-27.1415660414
 10
-56.4078239124
 20
-27.1538509868
 10
-56.433062884
 20
-27.1676578599
 10
-56.4621585395
 20
-27.1829388126
 10
-56.4950100471
 20
-27.1996408884
 10
-56.5315035592
 20
-27.217706206
 10
-56.5715126069
 20
-27.2370721597
 10
-56.614898538
 20
-27.2576716362
 10
-56.6615109975
 20
-27.2794332478
 10
-56.711188449
 20
-27.302281579
 10
-56.7637587343
 20
-27.3261374485
  0
LINE
  5
275
100
AcDbEntity
  8
0
100
AcDbLine
 62
7
  6
CONTINUOUS
 10
75.9
 20
-50.0535013869
 11
-75.9
 21
-50.0535013869
  0
LINE
  5
276
100
AcDbEntity
  8
0
100
AcDbLine
 62
253
  6
CONTINUOUS
 10
75.9
 20
-49.9138363869
 11
-75.9000052558
 21
-49.9138363869
  0
LINE
  5
277
100
AcDbEntity
  8
0
100
AcDbLine
 62
253
  6
CONTINUOUS
 10
75.9
 20
-48.9024334694
 11
-75.9
 21
-48.9024334694
  0
LWPOLYLINE
  5
278
100
AcDbEntity
  8
0
100
AcDbPolyline
 62
253
  6
CONTINUOUS
 90
115
 70
0
 10
-75.9000052558
 20
-49.9138363867
 10
-75.9213029072
 20
-49.9136821804
 10
-75.9419394446
 20
-49.9132381159
 10
-75.9619096598
 20
-49.9125308046
 10
-75.9811178537
 20
-49.9115915081
 10
-75.9996496578
 20
-49.9104434493
 10
-76.0177738253
 20
-49.9090899644
 10
-76.0354876751
 20
-49.907545756
 10
-76.0527884333
 20
-49.9058253305
 10
-76.0699479376
 20
-49.9039108594
 10
-76.0870315155
 20
-49.9017981684
 10
-76.1039717438
 20
-49.8994987026
 10
-76.120839401
 20
-49.897006469
 10
-76.1376359917
 20
-49.8943241363
 10
-76.1543420891
 20
-49.8914577934
 10
-76.1709934125
 20
-49.8884036131
 10
-76.1875348522
 20
-49.8851737318
 10
-76.2040048714
 20
-49.8817627925
 10
-76.2205790526
 20
-49.8781327221
 10
-76.2371980361
 20
-49.8742918983
 10
-76.2539025909
 20
-49.8702259912
 10
-76.2710141103
 20
-49.8658447835
 10
-76.2885638081
 20
-49.8611204209
 10
-76.3064892363
 20
-49.8560485627
 10
-76.3249652288
 20
-49.8505570355
 10
-76.3441251809
 20
-49.844577466
 10
-76.3637934541
 20
-49.838135656
 10
-76.3836823897
 20
-49.8313058208
 10
-76.4037957942
 20
-49.8240717343
 10
-76.4240896706
 20
-49.8164345616
 10
-76.4442177905
 20
-49.808519185
 10
-76.464087137
 20
-49.8003665235
 10
-76.4837670708
 20
-49.7919514475
 10
-76.5031683734
 20
-49.7833161119
 10
-76.5222320942
 20
-49.7744972085
 10
-76.5410130366
 20
-49.7654802513
 10
-76.5595966081
 20
-49.7562308302
 10
-76.57794076
 20
-49.7467749551
 10
-76.5960772923
 20
-49.7371020944
 10
-76.6141907919
 20
-49.7271139762
 10
-76.6323253311
 20
-49.7167786836
 10
-76.6504061505
 20
-49.7061315029
 10
-76.668431963
 20
-49.6951680781
 10
-76.6865223291
 20
-49.6838044062
 10
-76.7045474632
 20
-49.6721091439
 10
-76.7221568116
 20
-49.6603122514
 10
-76.7393209538
 20
-49.6484497708
 10
-76.7561030575
 20
-49.6364936746
 10
-76.7723171846
 20
-49.6245958398
 10
-76.7878748178
 20
-49.6128507239
 10
-76.8029120305
 20
-49.6011862605
 10
-76.8175803526
 20
-49.5895065043
 10
-76.8318675249
 20
-49.5778346512
 10
-76.8458048776
 20
-49.5661573512
 10
-76.8595931779
 20
-49.5543126314
 10
-76.8732416241
 20
-49.5422921991
 10
-76.8867437548
 20
-49.5301006411
 10
-76.9002635869
 20
-49.517583086
 10
-76.9138526143
 20
-49.5046772857
 10
-76.9274489173
 20
-49.4914284109
 10
-76.9410406757
 20
-49.4778368899
 10
-76.9546868891
 20
-49.4638277686
 10
-76.9683167859
 20
-49.4494556315
 10
-76.9817317283
 20
-49.4349231903
 10
-76.9948863998
 20
-49.4202836707
 10
-77.0078327135
 20
-49.4054825554
 10
-77.0205276557
 20
-49.3905717266
 10
-77.0329123782
 20
-49.3756279539
 10
-77.0450560911
 20
-49.3605784967
 10
-77.0571038561
 20
-49.3452458308
 10
-77.069094724
 20
-49.329566409
 10
-77.0809841245
 20
-49.3135800799
 10
-77.092784983
 20
-49.297253666
 10
-77.104537809
 20
-49.2805115102
 10
-77.1161947786
 20
-49.2633989102
 10
-77.1276407578
 20
-49.2460705294
 10
-77.1388513289
 20
-49.2285602548
 10
-77.1498557636
 20
-49.2108220998
 10
-77.1606251176
 20
-49.1929027292
 10
-77.1711326172
 20
-49.1748476324
 10
-77.1813951693
 20
-49.1566289452
 10
-77.1914439372
 20
-49.1381896193
 10
-77.2012843302
 20
-49.1195105343
 10
-77.2108941781
 20
-49.1006235672
 10
-77.2202618237
 20
-49.0815453402
 10
-77.2293866143
 20
-49.0622704481
 10
-77.2382542612
 20
-49.0428176102
 10
-77.2468350406
 20
-49.0232421134
 10
-77.2551059609
 20
-49.0036006573
 10
-77.2630833175
 20
-48.983866115
 10
-77.2707958139
 20
-48.9639700828
 10
-77.2782307076
 20
-48.9439404474
 10
-77.2853884821
 20
-48.9237741464
 10
-77.2923092804
 20
-48.9033503294
 10
-77.2990003474
 20
-48.882623366
 10
-77.3054289482
 20
-48.8616566245
 10
-77.3115709075
 20
-48.8404907084
 10
-77.31741992
 20
-48.8191266878
 10
-77.3229677341
 20
-48.7975943985
 10
-77.3281924466
 20
-48.7759806763
 10
-77.3330838965
 20
-48.7543361363
 10
-77.3376490116
 20
-48.7326485621
 10
-77.3418934285
 20
-48.7109112149
 10
-77.3458163352
 20
-48.6891351013
 10
-77.3494116606
 20
-48.6673474192
 10
-77.3526758574
 20
-48.6455657342
 10
-77.3556092813
 20
-48.6237918576
 10
-77.3582117209
 20
-48.6020399203
 10
-77.3604806469
 20
-48.5803449672
 10
-77.3624204208
 20
-48.5587044522
 10
-77.3640354777
 20
-48.5371208742
 10
-77.3653269365
 20
-48.5156364133
 10
-77.366300185
 20
-48.4942648146
 10
-77.366962753
 20
-48.4729916811
 10
-77.3673207988
 20
-48.4518167161
  0
LWPOLYLINE
  5
279
100
AcDbEntity
  8
0
100
AcDbPolyline
 62
253
  6
CONTINUOUS
 90
114
 70
0
 10
-75.9
 20
-48.9024334694
 10
-75.9025779516
 20
-48.9024069506
 10
-75.9050220272
 20
-48.9023547772
 10
-75.9073322267
 20
-48.9022769491
 10
-75.9094867262
 20
-48.9021713957
 10
-75.9115073497
 20
-48.9020401876
 10
-75.9134595689
 20
-48.901889537
 10
-75.9153406674
 20
-48.9017229977
 10
-75.9171533616
 20
-48.9015370158
 10
-75.9189712734
 20
-48.901327142
 10
-75.9207992253
 20
-48.9010953625
 10
-75.9226323947
 20
-48.900839691
 10
-75.9245299353
 20
-48.9005497195
 10
-75.9265272387
 20
-48.9002199794
 10
-75.9285889133
 20
-48.899855939
 10
-75.9306679379
 20
-48.8994635956
 10
-75.9327688915
 20
-48.899040554
 10
-75.9348871952
 20
-48.8985892092
 10
-75.9369620906
 20
-48.8981227433
 10
-75.9389670523
 20
-48.8976471016
 10
-75.9409286059
 20
-48.8971563388
 10
-75.9428655698
 20
-48.8966458014
 10
-75.9447381172
 20
-48.8961301433
 10
-75.9465860749
 20
-48.8955947105
 10
-75.948547742
 20
-48.8949908881
 10
-75.9506895666
 20
-48.8942985708
 10
-75.9529451005
 20
-48.8935378635
 10
-75.9552532982
 20
-48.8927204661
 10
-75.9576322054
 20
-48.8918361631
 10
-75.9600637763
 20
-48.8908951696
 10
-75.9624328283
 20
-48.8899398325
 10
-75.9646827475
 20
-48.8889918088
 10
-75.9668701477
 20
-48.8880294415
 10
-75.9690496882
 20
-48.8870301062
 10
-75.9712312397
 20
-48.8859902632
 10
-75.9734049314
 20
-48.8849134518
 10
-75.97559581
 20
-48.8837876665
 10
-75.9778226948
 20
-48.8826039481
 10
-75.9800667665
 20
-48.8813712552
 10
-75.9822966137
 20
-48.8801044589
 10
-75.98451929
 20
-48.8787971416
 10
-75.9867277419
 20
-48.8774557204
 10
-75.9888693977
 20
-48.8761143187
 10
-75.9909179682
 20
-48.8747893983
 10
-75.9928997426
 20
-48.8734644975
 10
-75.9948410166
 20
-48.8721243544
 10
-75.9967375836
 20
-48.8707719748
 10
-75.9985936502
 20
-48.8694043526
 10
-76.0004481319
 20
-48.867997209
 10
-76.0023294606
 20
-48.8665284785
 10
-76.0042092044
 20
-48.8650202257
 10
-76.0060409827
 20
-48.863514367
 10
-76.0078066653
 20
-48.8620266317
 10
-76.0095243824
 20
-48.8605412907
 10
-76.0112021447
 20
-48.8590530735
 10
-76.0128252191
 20
-48.8575767048
 10
-76.0144083386
 20
-48.85609746
 10
-76.0160037128
 20
-48.8545658943
 10
-76.017634072
 20
-48.8529617501
 10
-76.0192766859
 20
-48.8513052839
 10
-76.0209155728
 20
-48.8496078225
 10
-76.0225505648
 20
-48.8478689967
 10
-76.0241818298
 20
-48.8460891748
 10
-76.0257938895
 20
-48.8442807895
 10
-76.0273773581
 20
-48.8424532732
 10
-76.0289416214
 20
-48.840597193
 10
-76.0304993588
 20
-48.8386966835
 10
-76.0320657933
 20
-48.8367318356
 10
-76.033625702
 20
-48.8347225572
 10
-76.0351460956
 20
-48.8327127082
 10
-76.0366159779
 20
-48.8307181829
 10
-76.0380463451
 20
-48.8287230871
 10
-76.0394371965
 20
-48.8267235988
 10
-76.0407727931
 20
-48.8247436854
 10
-76.042068874
 20
-48.8227593796
 10
-76.0433726552
 20
-48.8206949565
 10
-76.0447033251
 20
-48.8185223113
 10
-76.0460416953
 20
-48.8162695467
 10
-76.0473774172
 20
-48.8139452487
 10
-76.0487197455
 20
-48.811530552
 10
-76.0500594255
 20
-48.8090443197
 10
-76.0513583441
 20
-48.8065517313
 10
-76.0526065739
 20
-48.8040678886
 10
-76.0538140423
 20
-48.8015776897
 10
-76.0549724185
 20
-48.7991010093
 10
-76.0560721184
 20
-48.7966608511
 10
-76.057122726
 20
-48.7942342119
 10
-76.0581446627
 20
-48.7917719555
 10
-76.0591440878
 20
-48.7892589107
 10
-76.060114842
 20
-48.7867102477
 10
-76.0610588684
 20
-48.7841223417
 10
-76.061984428
 20
-48.7814727577
 10
-76.0628832598
 20
-48.7787839294
 10
-76.0637325244
 20
-48.7761195361
 10
-76.0645181198
 20
-48.7735277266
 10
-76.065254148
 20
-48.7709603531
 10
-76.0659600761
 20
-48.76833665
 10
-76.0666390693
 20
-48.7656465763
 10
-76.0672879625
 20
-48.7629001712
 10
-76.067916727
 20
-48.7600467869
 10
-76.0685400531
 20
-48.7570151106
 10
-76.0691432507
 20
-48.753876451
 10
-76.0696922205
 20
-48.7507940942
 10
-76.0701753926
 20
-48.7478119804
 10
-76.0706043369
 20
-48.7448861718
 10
-76.0709796642
 20
-48.7420481407
 10
-76.071296337
 20
-48.7393434538
 10
-76.0715593926
 20
-48.7367265474
 10
-76.0717845548
 20
-48.7340921975
 10
-76.0719771889
 20
-48.7314186221
 10
-76.0721319294
 20
-48.7287276024
 10
-76.0722484036
 20
-48.7259792564
 10
-76.0723264874
 20
-48.723160289
 10
-76.0723663048
 20
-48.7202839935
  0
LWPOLYLINE
  5
27A
100
AcDbEntity
  8
0
100
AcDbPolyline
 62
7
  6
CONTINUOUS
 90
28
 70
0
 10
-75.9
 20
-50.0535013869
 10
-75.9923138915
 20
-50.0508512018
 10
-76.0850416379
 20
-50.0427770672
 10
-76.178083591
 20
-50.0291190652
 10
-76.2701080797
 20
-50.0100797267
 10
-76.3604646915
 20
-49.985813599
 10
-76.4496794663
 20
-49.956110214
 10
-76.5370166043
 20
-49.9212240576
 10
-76.6214355172
 20
-49.8816090975
 10
-76.7032578353
 20
-49.8372470978
 10
-76.7825782482
 20
-49.7880909348
 10
-76.8586687542
 20
-49.7345122494
 10
-76.9308760485
 20
-49.6771385654
 10
-76.9995690865
 20
-49.6158057347
 10
-77.0648902784
 20
-49.5503305631
 10
-77.1260138091
 20
-49.4815490636
 10
-77.1830946196
 20
-49.4093827294
 10
-77.2363373871
 20
-49.3334306316
 10
-77.2852037806
 20
-49.2542389904
 10
-77.3292880251
 20
-49.1725932157
 10
-77.3686119731
 20
-49.0884650402
 10
-77.403246637
 20
-49.0014322673
 10
-77.432741802
 20
-48.9125333536
 10
-77.4568328082
 20
-48.8225361149
 10
-77.4757495068
 20
-48.7308334055
 10
-77.489332317
 20
-48.638058249
 10
-77.4973638583
 20
-48.545583639
 10
-77.5
 20
-48.4535013869
  0
LWPOLYLINE
  5
27B
100
AcDbEntity
  8
0
100
AcDbPolyline
 62
253
  6
CONTINUOUS
 90
17
 70
0
 10
-56.3413080019
 20
16.9972648856
 10
-56.3420564195
 20
17.0014118351
 10
-56.3469769073
 20
17.0072381736
 10
-56.3560524132
 20
17.0147237097
 10
-56.3692514858
 20
17.0238425022
 10
-56.3865283832
 20
17.0345629496
 10
-56.4078232319
 20
17.0468478999
 10
-56.433062234
 20
17.0606547794
 10
-56.462157923
 20
17.0759357398
 10
-56.4950094669
 20
17.0926378247
 10
-56.5315030178
 20
17.1107031525
 10
-56.5715121062
 20
17.1300691173
 10
-56.6148980795
 20
17.1506686059
 10
-56.6615105824
 20
17.1724302301
 10
-56.7111880779
 20
17.1952785744
 10
-56.7637584072
 20
17.2191344574
 10
-56.8768394376
 20
17.269534941
  0
LWPOLYLINE
  5
27C
100
AcDbEntity
  8
0
100
AcDbPolyline
 62
253
  6
CONTINUOUS
 90
15
 70
0
 10
-77.3674210162
 20
17.4917800965
 10
-77.3579403878
 20
17.4957870485
 10
-77.3435500222
 20
17.4997566658
 10
-77.3243048781
 20
17.5036737878
 10
-77.3002784556
 20
17.5075234544
 10
-77.2715625149
 20
17.5112909634
 10
-77.2382667265
 20
17.514961926
 10
-77.2005182517
 20
17.5185223222
 10
-77.1584612574
 20
17.5219585544
 10
-77.1122563652
 20
17.5252574992
 10
-77.0620800382
 20
17.5284065574
 10
-77.0081239072
 20
17.5313937023
 10
-76.9505940383
 20
17.5342075255
 10
-76.8897101463
 20
17.5368372807
 10
-76.8257047555
 20
17.5392729244
  0
LWPOLYLINE
  5
27D
100
AcDbEntity
  8
0
100
AcDbPolyline
 62
253
  6
CONTINUOUS
 90
15
 70
0
 10
-77.3674239461
 20
17.4156770365
 10
-77.357943511
 20
17.4196708496
 10
-77.3435533189
 20
17.4236276456
 10
-77.3243083281
 20
17.4275323129
 10
-77.3002820384
 20
17.431369939
 10
-77.2715662098
 20
17.4351258674
 10
-77.2382705128
 20
17.4387857536
 10
-77.2005221087
 20
17.4423356199
 10
-77.1584651647
 20
17.4457619089
 10
-77.1122603029
 20
17.4490515349
 10
-77.062083987
 20
17.4521919344
 10
-77.0081278481
 20
17.4551711137
 10
-76.9505979533
 20
17.4579776949
 10
-76.8897140183
 20
17.4606009591
 10
-76.8257085685
 20
17.4630308878
  0
LINE
  5
27E
100
AcDbEntity
  8
0
100
AcDbLine
 62
253
  6
CONTINUOUS
 10
-77.5
 20
-48.4535013869
 11
-77.3673198001
 21
-48.4518167036
  0
LINE
  5
27F
100
AcDbEntity
  8
0
100
AcDbLine
 62
253
  6
CONTINUOUS
 10
77.5
 20
-47.6025203896
 11
77.3643139009
 21
-47.6025261305
  0
LINE
  5
280
100
AcDbEntity
  8
0
100
AcDbLine
 62
253
  6
CONTINUOUS
 10
-77.5
 20
-47.6025203896
 11
-77.3643139164
 21
-47.6025257168
  0
LINE
  5
281
100
AcDbEntity
  8
0
100
AcDbLine
 62
253
  6
CONTINUOUS
 10
77.5
 20
-48.4535013869
 11
77.3673198341
 21
-48.4518216091
  0
LINE
  5
282
100
AcDbEntity
  8
0
100
AcDbLine
 62
7
  6
CONTINUOUS
 10
-4.616107
 20
-33.9313023869
 11
-4.101097
 21
-33.9313023869
  0
LINE
  5
283
100
AcDbEntity
  8
0
100
AcDbLine
 62
7
  6
CONTINUOUS
 10
-2.984285
 20
-33.9313023869
 11
-2.399877
 21
-33.9313023869
  0
LINE
  5
284
100
AcDbEntity
  8
0
100
AcDbLine
 62
7
  6
CONTINUOUS
 10
-2.085272
 20
-33.9313023869
 11
-1.526183
 21
-33.9313023869
  0
LINE
  5
285
100
AcDbEntity
  8
0
100
AcDbLine
 62
7
  6
CONTINUOUS
 10
-0.714487
 20
-33.9313023869
 11
-0.632524
 21
-33.9313023869
  0
LINE
  5
286
100
AcDbEntity
  8
0
100
AcDbLine
 62
7
  6
CONTINUOUS
 10
0.182406
 20
-33.9313023869
 11
0.754112
 21
-33.9313023869
  0
LINE
  5
287
100
AcDbEntity
  8
0
100
AcDbLine
 62
7
  6
CONTINUOUS
 10
0.84588
 20
-33.9313023869
 11
1.423947
 21
-33.9313023869
  0
LINE
  5
288
100
AcDbEntity
  8
0
100
AcDbLine
 62
7
  6
CONTINUOUS
 10
2.532466
 20
-33.9313023869
 11
3.148408
 21
-33.9313023869
  0
LINE
  5
289
100
AcDbEntity
  8
0
100
AcDbLine
 62
7
  6
CONTINUOUS
 10
3.3200188023
 20
-33.9313027413
 11
3.9020753449
 21
-33.9313027413
  0
LINE
  5
28A
100
AcDbEntity
  8
0
100
AcDbLine
 62
7
  6
CONTINUOUS
 10
4.7970156219
 20
-33.9313027413
 11
5.3591482119
 21
-33.9313027413
  0
LWPOLYLINE
  5
28B
100
AcDbEntity
  8
0
100
AcDbPolyline
 62
253
  6
CONTINUOUS
 90
18
 70
0
 10
-56.4
 20
16.6964986131
 10
-56.4027833993
 20
16.7006200157
 10
-56.4111216783
 20
16.7047237699
 10
-56.4249791313
 20
16.7087923026
 10
-56.4442964186
 20
16.7128081919
 10
-56.4689908208
 20
16.7167542412
 10
-56.4989565927
 20
16.7206135527
 10
-56.5340654165
 20
16.7243696004
 10
-56.5741669509
 20
16.7280063003
 10
-56.6190894751
 20
16.7315080795
 10
-56.6686406242
 20
16.7348599428
 10
-56.7226082127
 20
16.7380475371
 10
-56.7807611432
 20
16.7410572125
 10
-56.8428503962
 20
16.7438760811
 10
-56.908610096
 20
16.7464920722
 10
-56.9777586497
 20
16.7488939837
 10
-57.0499999527
 20
16.7510715301
 10
-57.2025114944
 20
16.7547172303
  0
LWPOLYLINE
  5
28C
100
AcDbEntity
  8
0
100
AcDbPolyline
 62
253
  6
CONTINUOUS
 90
16
 70
0
 10
-56.4
 20
-26.8035013869
 10
-56.4027833998
 20
-26.8076227897
 10
-56.4111216801
 20
-26.8117265441
 10
-56.4249791352
 20
-26.8157950771
 10
-56.4442964253
 20
-26.8198109667
 10
-56.4689908309
 20
-26.8237570161
 10
-56.4989566068
 20
-26.8276163278
 10
-56.5340654348
 20
-26.8313723757
 10
-56.5741669736
 20
-26.8350090756
 10
-56.6190895023
 20
-26.8385108549
 10
-56.6686406558
 20
-26.8418627182
 10
-56.7226082483
 20
-26.8450503124
 10
-56.7807611823
 20
-26.8480599877
 10
-56.8428504382
 20
-26.8508788563
 10
-56.9086101401
 20
-26.8534948472
 10
-56.9777586949
 20
-26.8558967585
  0
LWPOLYLINE
  5
28D
100
AcDbEntity
  8
0
100
AcDbPolyline
 62
7
  6
CONTINUOUS
 90
19
 70
0
 10
3.3200188023
 20
-31.1643087279
 10
3.4210030769
 20
-31.1497776195
 10
3.5195215854
 20
-31.1370278632
 10
3.6155743277
 20
-31.1260595012
 10
3.7091367997
 20
-31.1168125017
 10
3.8002335055
 20
-31.1093469627
 10
3.8889379576
 20
-31.1038431144
 10
3.9752880655
 20
-31.1003696548
 10
4.0592459195
 20
-31.0988579188
 10
4.140771303
 20
-31.099282084
 10
4.2198276768
 20
-31.101618695
 10
4.2964515801
 20
-31.1058911972
 10
4.3707124124
 20
-31.1121441085
 10
4.4427832092
 20
-31.1202955209
 10
4.5124909351
 20
-31.1304272903
 10
4.5793858835
 20
-31.1428295626
 10
4.6433181521
 20
-31.1575990123
 10
4.7044376431
 20
-31.1746388485
 10
4.7627443566
 20
-31.1939489988
  0
LWPOLYLINE
  5
28E
100
AcDbEntity
  8
0
100
AcDbPolyline
 62
7
  6
CONTINUOUS
 90
31
 70
0
 10
4.2166806432
 20
-32.3771294735
 10
4.2412665926
 20
-32.3763370239
 10
4.2656981664
 20
-32.3747665064
 10
4.2899753646
 20
-32.3724179186
 10
4.3141814977
 20
-32.3693394911
 10
4.3382332552
 20
-32.3654829845
 10
4.3618807057
 20
-32.3607036879
 10
4.385112356
 20
-32.3550102422
 10
4.4079396993
 20
-32.3483939862
 10
4.4301472848
 20
-32.3406842502
 10
4.4517640285
 20
-32.3318733096
 10
4.4727610143
 20
-32.3219688512
 10
4.4928360425
 20
-32.3108233123
 10
4.5119512579
 20
-32.298389311
 10
4.5301445158
 20
-32.2847141678
 10
4.5472271826
 20
-32.2697923656
 10
4.5631304072
 20
-32.2535353028
 10
4.5779230407
 20
-32.236031499
 10
4.5916230035
 20
-32.2175411247
 10
4.6042296106
 20
-32.19806646
 10
4.6157435468
 20
-32.1776051484
 10
4.6261847876
 20
-32.1564104224
 10
4.6355671984
 20
-32.1344898848
 10
4.6438769137
 20
-32.1118358695
 10
4.6510923126
 20
-32.0886787245
 10
4.6572324353
 20
-32.0649968044
 10
4.6622782416
 20
-32.0408117076
 10
4.6661509898
 20
-32.0164186725
 10
4.6688244327
 20
-31.9919161121
 10
4.6703248175
 20
-31.967205598
 10
4.6706521441
 20
-31.9422871208
  0
LINE
  5
28F
100
AcDbEntity
  8
0
100
AcDbLine
 62
253
  6
CONTINUOUS
 10
76.8257047555
 20
-27.6462756982
 11
76.6893182488
 21
-27.6505282199
  0
LINE
  5
290
100
AcDbEntity
  8
0
100
AcDbLine
 62
253
  6
CONTINUOUS
 10
76.8257085684
 20
-27.5700419199
 11
76.6893218998
 21
-27.5742854246
  0
LINE
  5
291
100
AcDbEntity
  8
0
100
AcDbLine
 62
253
  6
CONTINUOUS
 10
76.6893182488
 20
-27.6505282199
 11
76.5435160475
 21
-27.6539029624
  0
LINE
  5
292
100
AcDbEntity
  8
0
100
AcDbLine
 62
253
  6
CONTINUOUS
 10
76.6893218998
 20
-27.5742854246
 11
76.5435194867
 21
-27.5776544748
  0
LWPOLYLINE
  5
293
100
AcDbEntity
  8
0
100
AcDbPolyline
 62
253
  6
CONTINUOUS
 90
28
 70
0
 10
55.6
 20
-28.9824132719
 10
55.6898589099
 20
-28.9805349246
 10
55.7795952827
 20
-28.9746991239
 10
55.8692091184
 20
-28.9649058365
 10
55.9588743143
 20
-28.9511721174
 10
56.048416973
 20
-28.9334807777
 10
56.1373154027
 20
-28.9117803841
 10
56.2256445182
 20
-28.8860090117
 10
56.3133294047
 20
-28.8562283133
 10
56.3996236259
 20
-28.8225721932
 10
56.484475756
 20
-28.7850059952
 10
56.5679372208
 20
-28.7435639898
 10
56.6494158608
 20
-28.6984834612
 10
56.7288886619
 20
-28.6497329505
 10
56.8063786381
 20
-28.5973434535
 10
56.8813626716
 20
-28.541645951
 10
56.9538171348
 20
-28.4826127061
 10
57.0237656554
 20
-28.4202709616
 10
57.0907559983
 20
-28.3550342094
 10
57.1547683966
 20
-28.2868670307
 10
57.2158226173
 20
-28.2158043679
 10
57.2735257254
 20
-28.1423653273
 10
57.3278448336
 20
-28.0665205605
 10
57.3788128293
 20
-27.9882990107
 10
57.4261354401
 20
-27.908307327
 10
57.4697145752
 20
-27.8267476563
 10
57.5096483255
 20
-27.7434175768
 10
57.5459366909
 20
-27.6583169454
  0
LINE
  5
294
100
AcDbEntity
  8
0
100
AcDbLine
 62
253
  6
CONTINUOUS
 10
76.5435160475
 20
-27.6539029624
 11
76.3905233832
 21
-27.6563484205
  0
LINE
  5
295
100
AcDbEntity
  8
0
100
AcDbLine
 62
253
  6
CONTINUOUS
 10
76.5435194867
 20
-27.5776544748
 11
76.3905265721
 21
-27.5800976519
  0
LINE
  5
296
100
AcDbEntity
  8
0
100
AcDbLine
 62
253
  6
CONTINUOUS
 10
76.3905233832
 20
-27.6563484205
 11
76.2326752282
 21
-27.6578272716
  0
LINE
  5
297
100
AcDbEntity
  8
0
100
AcDbLine
 62
253
  6
CONTINUOUS
 10
76.3905265721
 20
-27.5800976519
 11
76.2326781405
 21
-27.5815776681
  0
LINE
  5
298
100
AcDbEntity
  8
0
100
AcDbLine
 62
253
  6
CONTINUOUS
 10
76.2326781405
 20
-27.5815776681
 11
76.0723832817
 21
-27.5820719352
  0
LINE
  5
299
100
AcDbEntity
  8
0
100
AcDbLine
 62
253
  6
CONTINUOUS
 10
76.2326752282
 20
-27.6578272716
 11
76.0723806593
 21
-27.6583169454
  0
LINE
  5
29A
100
AcDbEntity
  8
0
100
AcDbLine
 62
7
  6
CONTINUOUS
 10
1.585207
 20
-33.3723823869
 11
2.381074
 21
-33.3723823869
  0
LINE
  5
29B
100
AcDbEntity
  8
0
100
AcDbLine
 62
7
  6
CONTINUOUS
 10
1.704751
 20
-32.9398923869
 11
2.26428
 21
-32.9398923869
  0
LINE
  5
29C
100
AcDbEntity
  8
0
100
AcDbLine
 62
7
  6
CONTINUOUS
 10
3.9020753449
 20
-32.8356533116
 11
4.2154209623
 21
-32.8356533116
  0
LINE
  5
29D
100
AcDbEntity
  8
0
100
AcDbLine
 62
7
  6
CONTINUOUS
 10
3.8826972541
 20
-32.3771294735
 11
4.2166806432
 21
-32.3771294735
  0
LINE
  5
29E
100
AcDbEntity
  8
0
100
AcDbLine
 62
7
  6
CONTINUOUS
 10
-5.503668
 20
-31.1315993869
 11
-4.86882
 21
-31.1315993869
  0
LINE
  5
29F
100
AcDbEntity
  8
0
100
AcDbLine
 62
7
  6
CONTINUOUS
 10
-3.785169
 20
-31.1315993869
 11
-3.20116
 21
-31.1315993869
  0
LINE
  5
2A0
100
AcDbEntity
  8
0
100
AcDbLine
 62
7
  6
CONTINUOUS
 10
-1.832475
 20
-31.1315993869
 11
-1.24855
 21
-31.1315993869
  0
LINE
  5
2A1
100
AcDbEntity
  8
0
100
AcDbLine
 62
7
  6
CONTINUOUS
 10
-0.085906
 20
-31.1315993869
 11
0.492308
 21
-31.1315993869
  0
LINE
  5
2A2
100
AcDbEntity
  8
0
100
AcDbLine
 62
7
  6
CONTINUOUS
 10
1.724045
 20
-31.1315993869
 11
2.28939
 21
-31.1315993869
  0
LINE
  5
2A3
100
AcDbEntity
  8
0
100
AcDbLine
 62
7
  6
CONTINUOUS
 10
-2.984285
 20
-31.1314313869
 11
-2.399877
 21
-31.1314313869
  0
LINE
  5
2A4
100
AcDbEntity
  8
0
100
AcDbLine
 62
253
  6
CONTINUOUS
 10
-55.6
 20
-28.9824132719
 11
55.6
 21
-28.9824132719
  0
LINE
  5
2A5
100
AcDbEntity
  8
0
100
AcDbLine
 62
253
  6
CONTINUOUS
 10
76.0723806636
 20
-27.6582664998
 11
57.5459366909
 21
-27.6583169454
  0
LINE
  5
2A6
100
AcDbEntity
  8
0
100
AcDbLine
 62
7
  6
CONTINUOUS
 10
-55.6000198446
 20
-27.6035013869
 11
55.6000144889
 21
-27.6035013869
  0
LINE
  5
2A7
100
AcDbEntity
  8
0
100
AcDbLine
 62
253
  6
CONTINUOUS
 10
77.5
 20
-27.5226880521
 11
77.3674239464
 21
-27.5226880521
  0
LINE
  5
2A8
100
AcDbEntity
  8
0
100
AcDbLine
 62
253
  6
CONTINUOUS
 10
-77.5
 20
-27.5226880521
 11
-77.3674239464
 21
-27.5226880521
  0
LINE
  5
2A9
100
AcDbEntity
  8
0
100
AcDbLine
 62
253
  6
CONTINUOUS
 10
-76.1526812821
 20
-27.6581965773
 11
-57.5459366909
 21
-27.6583169454
  0
LINE
  5
2AA
100
AcDbEntity
  8
0
100
AcDbLine
 62
253
  6
CONTINUOUS
 10
-76.2326781409
 20
-27.5815776683
 11
-76.0723832817
 21
-27.5820719355
  0
LINE
  5
2AB
100
AcDbEntity
  8
0
100
AcDbLine
 62
253
  6
CONTINUOUS
 10
-76.3120569806
 20
-27.6572104317
 11
-76.1526812821
 21
-27.6581965773
  0
LINE
  5
2AC
100
AcDbEntity
  8
0
100
AcDbLine
 62
253
  6
CONTINUOUS
 10
-76.390526573
 20
-27.5800976521
 11
-76.2326781409
 21
-27.5815776683
  0
LINE
  5
2AD
100
AcDbEntity
  8
0
100
AcDbLine
 62
253
  6
CONTINUOUS
 10
-76.4677747419
 20
-27.6552445232
 11
-76.3120569806
 21
-27.6572104317
  0
LINE
  5
2AE
100
AcDbEntity
  8
0
100
AcDbLine
 62
253
  6
CONTINUOUS
 10
-76.543519488
 20
-27.577654475
 11
-76.390526573
 21
-27.5800976521
  0
LINE
  5
2AF
100
AcDbEntity
  8
0
100
AcDbLine
 62
253
  6
CONTINUOUS
 10
-76.6174580033
 20
-27.6523288553
 11
-76.4677747419
 21
-27.6552445232
  0
LINE
  5
2B0
100
AcDbEntity
  8
0
100
AcDbLine
 62
253
  6
CONTINUOUS
 10
-76.6893219013
 20
-27.5742854248
 11
-76.543519488
 21
-27.577654475
  0
LWPOLYLINE
  5
2B1
100
AcDbEntity
  8
0
100
AcDbPolyline
 62
7
  6
CONTINUOUS
 90
10
 70
0
 10
4.34051343
 20
-31.5920736358
 10
4.291871492
 20
-31.5871564151
 10
4.2426133198
 20
-31.5839101263
 10
4.1927389135
 20
-31.58233478
 10
4.1421688029
 20
-31.5824087595
 10
4.0909824582
 20
-31.5841536863
 10
4.0394182898
 20
-31.5876344202
 10
3.9875557682
 20
-31.5928725713
 10
3.9353154229
 20
-31.5998465
 10
3.8826972541
 20
-31.6085561828
  0
LINE
  5
2B2
100
AcDbEntity
  8
0
100
AcDbLine
 62
7
  6
CONTINUOUS
 10
4.762710937
 20
-31.1939524649
 11
4.7628823055
 21
-31.1940144741
  0
LWPOLYLINE
  5
2B3
100
AcDbEntity
  8
0
100
AcDbPolyline
 62
7
  6
CONTINUOUS
 90
48
 70
0
 10
4.7627443566
 20
-31.1939489988
 10
4.7946916829
 20
-31.2069444469
 10
4.8268570076
 20
-31.222725222
 10
4.8592403309
 20
-31.2412912416
 10
4.8920088963
 20
-31.2625276803
 10
4.9249954602
 20
-31.2865491574
 10
4.9576982922
 20
-31.3136997197
 10
4.9903634423
 20
-31.3440533937
 10
5.0227448606
 20
-31.3775358072
 10
5.0536026663
 20
-31.4142683555
 10
5.0830390745
 20
-31.4547857287
 10
5.1109518702
 20
-31.4985527239
 10
5.1357945269
 20
-31.5440859805
 10
5.1571471241
 20
-31.5916819729
 10
5.1754295824
 20
-31.6410438779
 10
5.190355137
 20
-31.6897987278
 10
5.2014890544
 20
-31.7375075176
 10
5.2092660681
 20
-31.7846093803
 10
5.2147036134
 20
-31.8300488784
 10
5.2179049045
 20
-31.8734594382
 10
5.2187667272
 20
-31.9152079373
 10
5.2179968732
 20
-31.9553392029
 10
5.2156915883
 20
-31.9938416197
 10
5.2117546267
 20
-32.0307270515
 10
5.2066050428
 20
-32.0660755272
 10
5.2002593224
 20
-32.0998861409
 10
5.1927009798
 20
-32.1321600093
 10
5.1842996127
 20
-32.1629801775
 10
5.1750774413
 20
-32.1923271609
 10
5.1650122453
 20
-32.2202206209
 10
5.1544069615
 20
-32.2468023023
 10
5.1432904983
 20
-32.2720774483
 10
5.1316339471
 20
-32.2960409539
 10
5.1196535193
 20
-32.3188190221
 10
5.1073733609
 20
-32.3404127253
 10
5.0947693257
 20
-32.360821099
 10
5.0819851869
 20
-32.3801672752
 10
5.0690220918
 20
-32.3984474222
 10
5.0558788931
 20
-32.4156654545
 10
5.042695922
 20
-32.4319561092
 10
5.0294677291
 20
-32.4472961724
 10
5.0161997637
 20
-32.4617089196
 10
5.0030487053
 20
-32.4753988091
 10
4.9900296489
 20
-32.4883780917
 10
4.9771274996
 20
-32.5006345568
 10
4.9644536517
 20
-32.5123359585
 10
4.9520318289
 20
-32.5234961418
 10
4.9398383075
 20
-32.5341012881
  0
LWPOLYLINE
  5
2B4
100
AcDbEntity
  8
0
100
AcDbPolyline
 62
7
  6
CONTINUOUS
 90
3
 70
0
 10
4.8225031649
 20
-32.6244258237
 10
4.8497829198
 20
-32.6374213346
 10
4.8753452012
 20
-32.6519080037
  0
LINE
  5
2B5
100
AcDbEntity
  8
0
100
AcDbLine
 62
253
  6
CONTINUOUS
 10
-56.9777586949
 20
-26.8558967585
 11
-57.1250247008
 21
-26.8600181614
  0
LINE
  5
2B6
100
AcDbEntity
  8
0
100
AcDbLine
 62
253
  6
CONTINUOUS
 10
-57.1250247008
 20
-26.8600181614
 11
-57.2821286936
 21
-26.8631725467
  0
LINE
  5
2B7
100
AcDbEntity
  8
0
100
AcDbLine
 62
253
  6
CONTINUOUS
 10
-57.2821286936
 20
-26.8631725467
 11
-57.4463825804
 21
-26.8653059418
  0
LWPOLYLINE
  5
2B8
100
AcDbEntity
  8
0
100
AcDbPolyline
 62
253
  6
CONTINUOUS
 90
3
 70
0
 10
-57.4463825804
 20
-26.8653059418
 10
-57.6149759317
 20
-26.8663818439
 10
-57.7
 20
-26.8665167646
  0
LINE
  5
2B9
100
AcDbEntity
  8
0
100
AcDbLine
 62
253
  6
CONTINUOUS
 10
57.5303159361
 20
-26.8659776593
 11
57.7
 21
-26.8665167646
  0
LINE
  5
2BA
100
AcDbEntity
  8
0
100
AcDbLine
 62
253
  6
CONTINUOUS
 10
57.3635352168
 20
-26.8643695676
 11
57.5303159361
 21
-26.8659776593
  0
LINE
  5
2BB
100
AcDbEntity
  8
0
100
AcDbLine
 62
253
  6
CONTINUOUS
 10
57.2025115068
 20
-26.8617200042
 11
57.3635352168
 21
-26.8643695676
  0
LWPOLYLINE
  5
2BC
100
AcDbEntity
  8
0
100
AcDbPolyline
 62
7
  6
CONTINUOUS
 90
22
 70
0
 10
4.8753452012
 20
-32.6519080037
 10
4.8991900092
 20
-32.6678857847
 10
4.9212489326
 20
-32.6856539953
 10
4.9415903826
 20
-32.7049132017
 10
4.9604195926
 20
-32.72476526
 10
4.9776409873
 20
-32.7449937364
 10
4.993350142
 20
-32.7658150186
 10
5.0080390161
 20
-32.7869802422
 10
5.0217995564
 20
-32.8084952563
 10
5.034539816
 20
-32.8303541784
 10
5.0464759137
 20
-32.8522905705
 10
5.0576267739
 20
-32.8742786247
 10
5.0679734721
 20
-32.8963441408
 10
5.0776753535
 20
-32.9182981142
 10
5.0867341892
 20
-32.9400886944
 10
5.0951482081
 20
-32.9617677429
 10
5.1030714421
 20
-32.9833018329
 10
5.1104973978
 20
-33.0046525761
 10
5.1174325686
 20
-33.0258583745
 10
5.1240504659
 20
-33.0470009839
 10
5.1303371845
 20
-33.0680740083
 10
5.1363066296
 20
-33.0890838487
  0
LINE
  5
2BD
100
AcDbEntity
  8
0
100
AcDbLine
 62
7
  6
CONTINUOUS
 10
-5.503668
 20
-31.1315993869
 11
-4.616107
 21
-33.9313023869
  0
LINE
  5
2BE
100
AcDbEntity
  8
0
100
AcDbLine
 62
7
  6
CONTINUOUS
 10
-4.86882
 20
-31.1315993869
 11
-4.335146
 21
-33.0587213869
  0
LINE
  5
2BF
100
AcDbEntity
  8
0
100
AcDbLine
 62
253
  6
CONTINUOUS
 10
-57.1291080296
 20
17.3785909447
 11
-57.2648016451
 21
17.4357360281
  0
LINE
  5
2C0
100
AcDbEntity
  8
0
100
AcDbLine
 62
253
  6
CONTINUOUS
 10
-56.9991874895
 20
17.3229336292
 11
-57.1291080296
 21
17.3785909447
  0
LINE
  5
2C1
100
AcDbEntity
  8
0
100
AcDbLine
 62
253
  6
CONTINUOUS
 10
-56.8768394376
 20
17.269534941
 11
-56.9991874895
 21
17.3229336292
  0
LWPOLYLINE
  5
2C2
100
AcDbEntity
  8
0
100
AcDbPolyline
 62
7
  6
CONTINUOUS
 90
16
 70
0
 10
4.5414020766
 20
-33.0821643817
 10
4.5295105757
 20
-33.0535485827
 10
4.5159188773
 20
-33.0262003475
 10
4.5006269815
 20
-33.0001197544
 10
4.483581545
 20
-32.9751057929
 10
4.4648359111
 20
-32.9513596115
 10
4.4445501095
 20
-32.9294845519
 10
4.422577519
 20
-32.9094457985
 10
4.3990647607
 20
-32.8912783396
 10
4.3746117273
 20
-32.8756902708
 10
4.3491934412
 20
-32.8629953075
 10
4.3228348799
 20
-32.8528799008
 10
4.2962108688
 20
-32.84511125
 10
4.2695463498
 20
-32.8396117754
 10
4.2426163809
 20
-32.8364591239
 10
4.2154209623
 20
-32.8356533116
  0
LINE
  5
2C3
100
AcDbEntity
  8
0
100
AcDbLine
 62
7
  6
CONTINUOUS
 10
-1.400068
 20
-32.1031483869
 11
-0.714487
 21
-33.9313023869
  0
LINE
  5
2C4
100
AcDbEntity
  8
0
100
AcDbLine
 62
7
  6
CONTINUOUS
 10
-1.24855
 20
-31.1315993869
 11
-0.670314
 21
-32.6860033869
  0
LINE
  5
2C5
100
AcDbEntity
  8
0
100
AcDbLine
 62
7
  6
CONTINUOUS
 10
2.28939
 20
-31.1315993869
 11
3.148408
 21
-33.9313023869
  0
LINE
  5
2C6
100
AcDbEntity
  8
0
100
AcDbLine
 62
7
  6
CONTINUOUS
 10
2.381074
 20
-33.3723823869
 11
2.532466
 21
-33.9313023869
  0
LINE
  5
2C7
100
AcDbEntity
  8
0
100
AcDbLine
 62
7
  6
CONTINUOUS
 10
1.995737
 20
-31.9008863869
 11
2.26428
 21
-32.9398923869
  0
LINE
  5
2C8
100
AcDbEntity
  8
0
100
AcDbLine
 62
7
  6
CONTINUOUS
 10
0.492308
 20
-31.1315993869
 11
0.754112
 21
-33.9313023869
  0
LINE
  5
2C9
100
AcDbEntity
  8
0
100
AcDbLine
 62
7
  6
CONTINUOUS
 10
0.062337
 20
-32.1107703869
 11
0.182406
 21
-33.9313023869
  0
LINE
  5
2CA
100
AcDbEntity
  8
0
100
AcDbLine
 62
7
  6
CONTINUOUS
 10
-2.984285
 20
-31.1314313869
 11
-2.984285
 21
-33.9313023869
  0
LINE
  5
2CB
100
AcDbEntity
  8
0
100
AcDbLine
 62
7
  6
CONTINUOUS
 10
-2.399877
 20
-31.1314313869
 11
-2.399877
 21
-33.9313023869
  0
LINE
  5
2CC
100
AcDbEntity
  8
0
100
AcDbLine
 62
7
  6
CONTINUOUS
 10
-1.400068
 20
-32.1031483869
 11
-1.526183
 21
-33.9313023869
  0
LINE
  5
2CD
100
AcDbEntity
  8
0
100
AcDbLine
 62
253
  6
CONTINUOUS
 10
-57.4043889651
 20
17.4935774141
 11
-57.5459366909
 21
17.5513139938
  0
LINE
  5
2CE
100
AcDbEntity
  8
0
100
AcDbLine
 62
253
  6
CONTINUOUS
 10
57.4043889637
 20
-27.6005801669
 11
57.5459366909
 21
-27.6583167466
  0
LINE
  5
2CF
100
AcDbEntity
  8
0
100
AcDbLine
 62
253
  6
CONTINUOUS
 10
-57.2648016451
 20
17.4357360281
 11
-57.4043889651
 21
17.4935774141
  0
LINE
  5
2D0
100
AcDbEntity
  8
0
100
AcDbLine
 62
253
  6
CONTINUOUS
 10
57.2648016383
 20
-27.5427387794
 11
57.4043889637
 21
-27.6005801669
  0
LINE
  5
2D1
100
AcDbEntity
  8
0
100
AcDbLine
 62
253
  6
CONTINUOUS
 10
57.1291080142
 20
-27.4855936935
 11
57.2648016383
 21
-27.5427387794
  0
LINE
  5
2D2
100
AcDbEntity
  8
0
100
AcDbLine
 62
253
  6
CONTINUOUS
 10
56.9991874628
 20
-27.4299363747
 11
57.1291080142
 21
-27.4855936935
  0
LINE
  5
2D3
100
AcDbEntity
  8
0
100
AcDbLine
 62
253
  6
CONTINUOUS
 10
56.876839398
 20
-27.3765376826
 11
56.9991874628
 21
-27.4299363747
  0
LWPOLYLINE
  5
2D4
100
AcDbEntity
  8
0
100
AcDbPolyline
 62
7
  6
CONTINUOUS
 90
8
 70
0
 10
4.6309666852
 20
-33.3569579501
 10
4.6192821403
 20
-33.3173927275
 10
4.6073410738
 20
-33.2779350732
 10
4.5951432413
 20
-33.2385900337
 10
4.5824720815
 20
-33.1993419953
 10
4.5692554072
 20
-33.160185761
 10
4.5555654056
 20
-33.1211265523
 10
4.5414020766
 20
-33.0821643817
  0
LINE
  5
2D5
100
AcDbEntity
  8
0
100
AcDbLine
 62
7
  6
CONTINUOUS
 10
4.7970156219
 20
-33.9313027413
 11
4.6995586772
 21
-33.5972655709
  0
LWPOLYLINE
  5
2D6
100
AcDbEntity
  8
0
100
AcDbPolyline
 62
7
  6
CONTINUOUS
 90
4
 70
0
 10
4.6995586772
 20
-33.5972655709
 10
4.6764591199
 20
-33.5165221274
 10
4.6651406815
 20
-33.4764178655
 10
4.6309666852
 20
-33.3569579501
  0
LWPOLYLINE
  5
2D7
100
AcDbEntity
  8
0
100
AcDbPolyline
 62
7
  6
CONTINUOUS
 90
3
 70
0
 10
5.1363066296
 20
-33.0890838487
 10
5.1480111227
 20
-33.1312504511
 10
5.1537461706
 20
-33.1524072073
  0
LINE
  5
2D8
100
AcDbEntity
  8
0
100
AcDbLine
 62
7
  6
CONTINUOUS
 10
5.1537461706
 20
-33.1524072073
 11
5.2289919538
 21
-33.4345934256
  0
LINE
  5
2D9
100
AcDbEntity
  8
0
100
AcDbLine
 62
7
  6
CONTINUOUS
 10
5.2289919538
 20
-33.4345934256
 11
5.3591482119
 21
-33.9313027413
  0
LWPOLYLINE
  5
2DA
100
AcDbEntity
  8
0
100
AcDbPolyline
 62
7
  6
CONTINUOUS
 90
19
 70
0
 10
4.6706521441
 20
-31.9422871208
 10
4.6691853207
 20
-31.9152053326
 10
4.6655679316
 20
-31.8882752869
 10
4.659799977
 20
-31.861496993
 10
4.651939425
 20
-31.8347034303
 10
4.6419283073
 20
-31.8080616322
 10
4.6295927197
 20
-31.7820727156
 10
4.6148047891
 20
-31.7565506223
 10
4.5976923885
 20
-31.7316814729
 10
4.5784652322
 20
-31.7085247282
 10
4.5568979748
 20
-31.6872821926
 10
4.5332159618
 20
-31.6677522183
 10
4.5083049435
 20
-31.650389148
 10
4.4822486068
 20
-31.6353650063
 10
4.4549632649
 20
-31.6225079099
 10
4.4270836073
 20
-31.611756342
 10
4.3988211972
 20
-31.603089823
 10
4.3699644714
 20
-31.596528912
 10
4.34051343
 20
-31.5920736358
  0
LINE
  5
2DB
100
AcDbEntity
  8
0
100
AcDbLine
 62
7
  6
CONTINUOUS
 10
3.3200188023
 20
-31.1643087279
 11
3.3200188023
 21
-33.9313027413
  0
LINE
  5
2DC
100
AcDbEntity
  8
0
100
AcDbLine
 62
7
  6
CONTINUOUS
 10
3.8826972541
 20
-31.6085561828
 11
3.8826972541
 21
-32.3771294735
  0
LINE
  5
2DD
100
AcDbEntity
  8
0
100
AcDbLine
 62
7
  6
CONTINUOUS
 10
3.9020753449
 20
-32.8356533116
 11
3.9020753449
 21
-33.9313027413
  0
LINE
  5
2DE
100
AcDbEntity
  8
0
100
AcDbLine
 62
7
  6
CONTINUOUS
 10
4.8225031649
 20
-32.6078820149
 11
4.8225031649
 21
-32.6244258237
  0
LINE
  5
2DF
100
AcDbEntity
  8
0
100
AcDbLine
 62
7
  6
CONTINUOUS
 10
-1.832475
 20
-31.1315993869
 11
-2.085272
 21
-33.9313023869
  0
LINE
  5
2E0
100
AcDbEntity
  8
0
100
AcDbLine
 62
7
  6
CONTINUOUS
 10
-3.785169
 20
-31.1315993869
 11
-4.335146
 21
-33.0587213869
  0
LINE
  5
2E1
100
AcDbEntity
  8
0
100
AcDbLine
 62
7
  6
CONTINUOUS
 10
-3.20116
 20
-31.1315993869
 11
-4.101097
 21
-33.9313023869
  0
LINE
  5
2E2
100
AcDbEntity
  8
0
100
AcDbLine
 62
253
  6
CONTINUOUS
 10
-56.7637587343
 20
-27.3261374485
 11
-56.8768396785
 21
-27.3765379053
  0
LINE
  5
2E3
100
AcDbEntity
  8
0
100
AcDbLine
 62
253
  6
CONTINUOUS
 10
56.7637587146
 20
17.2191346629
 11
56.8768396636
 21
17.269535121
  0
LINE
  5
2E4
100
AcDbEntity
  8
0
100
AcDbLine
 62
253
  6
CONTINUOUS
 10
-56.8768396785
 20
-27.3765379053
 11
-56.9991876506
 21
-27.4299365679
  0
LINE
  5
2E5
100
AcDbEntity
  8
0
100
AcDbLine
 62
253
  6
CONTINUOUS
 10
56.8768396636
 20
17.269535121
 11
56.9991876403
 21
17.322933785
  0
LINE
  5
2E6
100
AcDbEntity
  8
0
100
AcDbLine
 62
253
  6
CONTINUOUS
 10
-56.9991876506
 20
-27.4299365679
 11
-57.1291081221
 21
-27.4855938609
  0
LINE
  5
2E7
100
AcDbEntity
  8
0
100
AcDbLine
 62
253
  6
CONTINUOUS
 10
56.9991876403
 20
17.322933785
 11
57.1291081159
 21
17.3785910791
  0
LINE
  5
2E8
100
AcDbEntity
  8
0
100
AcDbLine
 62
253
  6
CONTINUOUS
 10
-57.1291081221
 20
-27.4855938609
 11
-57.2648016847
 21
-27.5427389268
  0
LINE
  5
2E9
100
AcDbEntity
  8
0
100
AcDbLine
 62
253
  6
CONTINUOUS
 10
57.1291081159
 20
17.3785910791
 11
57.2648016817
 21
17.4357361457
  0
LINE
  5
2EA
100
AcDbEntity
  8
0
100
AcDbLine
 62
253
  6
CONTINUOUS
 10
-57.2648016847
 20
-27.5427389268
 11
-57.4043889724
 21
-27.6005803021
  0
LINE
  5
2EB
100
AcDbEntity
  8
0
100
AcDbLine
 62
253
  6
CONTINUOUS
 10
57.2648016817
 20
17.4357361457
 11
57.4043889716
 21
17.4935775213
  0
LINE
  5
2EC
100
AcDbEntity
  8
0
100
AcDbLine
 62
253
  6
CONTINUOUS
 10
-57.4043889724
 20
-27.6005803021
 11
-57.5459366909
 21
-27.6583168794
  0
LINE
  5
2ED
100
AcDbEntity
  8
0
100
AcDbLine
 62
253
  6
CONTINUOUS
 10
57.4043889716
 20
17.4935775213
 11
57.5459366909
 21
17.5513140985
  0
LINE
  5
2EE
100
AcDbEntity
  8
0
100
AcDbLine
 62
7
  6
CONTINUOUS
 10
1.995737
 20
-31.9008863869
 11
1.704751
 21
-32.9398923869
  0
LINE
  5
2EF
100
AcDbEntity
  8
0
100
AcDbLine
 62
7
  6
CONTINUOUS
 10
1.585207
 20
-33.3723823869
 11
1.423947
 21
-33.9313023869
  0
LINE
  5
2F0
100
AcDbEntity
  8
0
100
AcDbLine
 62
7
  6
CONTINUOUS
 10
1.724045
 20
-31.1315993869
 11
0.84588
 21
-33.9313023869
  0
LINE
  5
2F1
100
AcDbEntity
  8
0
100
AcDbLine
 62
7
  6
CONTINUOUS
 10
-0.085906
 20
-31.1315993869
 11
-0.670314
 21
-32.6860033869
  0
LINE
  5
2F2
100
AcDbEntity
  8
0
100
AcDbLine
 62
7
  6
CONTINUOUS
 10
0.062337
 20
-32.1107703869
 11
-0.632524
 21
-33.9313023869
  0
LINE
  5
2F3
100
AcDbEntity
  8
0
100
AcDbLine
 62
253
  6
CONTINUOUS
 10
-76.8257085685
 20
17.4630308878
 11
-76.6893218999
 21
17.467274391
  0
LINE
  5
2F4
100
AcDbEntity
  8
0
100
AcDbLine
 62
253
  6
CONTINUOUS
 10
-76.8257047555
 20
17.5392729244
 11
-76.6893182488
 21
17.5435254461
  0
LINE
  5
2F5
100
AcDbEntity
  8
0
100
AcDbLine
 62
253
  6
CONTINUOUS
 10
56.9777586949
 20
16.7488939848
 11
57.1250247008
 21
16.7530153877
  0
LINE
  5
2F6
100
AcDbEntity
  8
0
100
AcDbLine
 62
253
  6
CONTINUOUS
 10
-76.6893218999
 20
17.467274391
 11
-76.5435194869
 21
17.4706434401
  0
LINE
  5
2F7
100
AcDbEntity
  8
0
100
AcDbLine
 62
253
  6
CONTINUOUS
 10
-76.6893182488
 20
17.5435254461
 11
-76.5435160475
 21
17.5469001887
  0
LWPOLYLINE
  5
2F8
100
AcDbEntity
  8
0
100
AcDbPolyline
 62
253
  6
CONTINUOUS
 90
28
 70
0
 10
-55.6
 20
18.8754104981
 10
-55.6898595272
 20
18.8735325711
 10
-55.7795984712
 20
18.8676964363
 10
-55.8692168321
 20
18.8579020603
 10
-55.9588900028
 20
18.8441661801
 10
-56.0484425904
 20
18.826471925
 10
-56.1373484161
 20
18.8047688147
 10
-56.2256803377
 20
18.7789951966
 10
-56.3133654974
 20
18.7492124513
 10
-56.3996591428
 20
18.7155546196
 10
-56.4845104514
 20
18.677986912
 10
-56.5679702457
 20
18.6365437323
 10
-56.6494462406
 20
18.5914629012
 10
-56.7289153583
 20
18.5427129246
 10
-56.8064006765
 20
18.4903248338
 10
-56.8813791434
 20
18.4346302525
 10
-56.9538264576
 20
18.3756022036
 10
-57.0237669204
 20
18.3132671704
 10
-57.0907503835
 20
18.2480370094
 10
-57.1547576357
 20
18.1798762767
 10
-57.2158078883
 20
18.1088199397
 10
-57.273508626
 20
18.0353855447
 10
-57.3278272151
 20
17.9595436838
 10
-57.3787962893
 20
17.8813233592
 10
-57.4261212354
 20
17.801329837
 10
-57.4697038488
 20
17.7197648029
 10
-57.5096423339
 20
17.6364262956
 10
-57.5459366909
 20
17.5513141717
  0
LINE
  5
2F9
100
AcDbEntity
  8
0
100
AcDbLine
 62
253
  6
CONTINUOUS
 10
57.1250247008
 20
16.7530153877
 11
57.2821286936
 21
16.7561697729
  0
LINE
  5
2FA
100
AcDbEntity
  8
0
100
AcDbLine
 62
253
  6
CONTINUOUS
 10
-76.5435194869
 20
17.4706434401
 11
-76.3905265722
 21
17.4730866164
  0
LINE
  5
2FB
100
AcDbEntity
  8
0
100
AcDbLine
 62
253
  6
CONTINUOUS
 10
-76.5435160475
 20
17.5469001887
 11
-76.3905233832
 21
17.5493456467
  0
LINE
  5
2FC
100
AcDbEntity
  8
0
100
AcDbLine
 62
253
  6
CONTINUOUS
 10
57.2821286936
 20
16.7561697729
 11
57.4463825804
 21
16.7583031681
  0
LINE
  5
2FD
100
AcDbEntity
  8
0
100
AcDbLine
 62
253
  6
CONTINUOUS
 10
-76.3905265722
 20
17.4730866164
 11
-76.2326781406
 21
17.4745666322
  0
LINE
  5
2FE
100
AcDbEntity
  8
0
100
AcDbLine
 62
253
  6
CONTINUOUS
 10
-76.3905233832
 20
17.5493456467
 11
-76.2326752282
 21
17.5508244978
  0
LWPOLYLINE
  5
2FF
100
AcDbEntity
  8
0
100
AcDbPolyline
 62
253
  6
CONTINUOUS
 90
3
 70
0
 10
57.4463825804
 20
16.7583031681
 10
57.6149759317
 20
16.7593790701
 10
57.7
 20
16.7595139909
  0
LINE
  5
300
100
AcDbEntity
  8
0
100
AcDbLine
 62
253
  6
CONTINUOUS
 10
-76.2326781406
 20
17.4745666322
 11
-76.0723832818
 21
17.4750608992
  0
LINE
  5
301
100
AcDbEntity
  8
0
100
AcDbLine
 62
253
  6
CONTINUOUS
 10
-76.2326752282
 20
17.5508244978
 11
-76.0723806593
 21
17.5513141717
  0
LINE
  5
302
100
AcDbEntity
  8
0
100
AcDbLine
 62
253
  6
CONTINUOUS
 10
-77.5
 20
17.4156780188
 11
-77.3674239466
 21
17.4156770352
  0
LINE
  5
303
100
AcDbEntity
  8
0
100
AcDbLine
 62
253
  6
CONTINUOUS
 10
77.5
 20
17.4156852783
 11
77.3674239464
 21
17.4156852783
  0
LINE
  5
304
100
AcDbEntity
  8
0
100
AcDbLine
 62
7
  6
CONTINUOUS
 10
55.6000195291
 20
17.4964986131
 11
-55.6000145059
 21
17.4964986131
  0
LINE
  5
305
100
AcDbEntity
  8
0
100
AcDbLine
 62
253
  6
CONTINUOUS
 10
-57.5459366909
 20
17.5513141717
 11
-76.0723806614
 21
17.5512657157
  0
LINE
  5
306
100
AcDbEntity
  8
0
100
AcDbLine
 62
253
  6
CONTINUOUS
 10
55.6
 20
18.8754104981
 11
-55.6
 21
18.8754104981
  0
LINE
  5
307
100
AcDbEntity
  8
0
100
AcDbLine
 62
253
  6
CONTINUOUS
 10
76.1526812823
 20
17.5511938037
 11
57.5459366909
 21
17.5513141717
  0
LINE
  5
308
100
AcDbEntity
  8
0
100
AcDbLine
 62
253
  6
CONTINUOUS
 10
76.2326781409
 20
17.4745748946
 11
76.0723832817
 21
17.4750691617
  0
LINE
  5
309
100
AcDbEntity
  8
0
100
AcDbLine
 62
253
  6
CONTINUOUS
 10
-57.5303159305
 20
16.7589748856
 11
-57.7
 21
16.7595139909
  0
LINE
  5
30A
100
AcDbEntity
  8
0
100
AcDbLine
 62
253
  6
CONTINUOUS
 10
76.312056981
 20
17.5502076582
 11
76.1526812823
 21
17.5511938037
  0
LINE
  5
30B
100
AcDbEntity
  8
0
100
AcDbLine
 62
253
  6
CONTINUOUS
 10
76.390526573
 20
17.4730948784
 11
76.2326781409
 21
17.4745748946
  0
LINE
  5
30C
100
AcDbEntity
  8
0
100
AcDbLine
 62
253
  6
CONTINUOUS
 10
-57.363535207
 20
16.7573667937
 11
-57.5303159305
 21
16.7589748856
  0
LINE
  5
30D
100
AcDbEntity
  8
0
100
AcDbLine
 62
253
  6
CONTINUOUS
 10
76.4677747426
 20
17.5482417496
 11
76.312056981
 21
17.5502076582
  0
LINE
  5
30E
100
AcDbEntity
  8
0
100
AcDbLine
 62
253
  6
CONTINUOUS
 10
76.543519488
 20
17.4706517012
 11
76.390526573
 21
17.4730948784
  0
LINE
  5
30F
100
AcDbEntity
  8
0
100
AcDbLine
 62
253
  6
CONTINUOUS
 10
-57.2025114944
 20
16.7547172303
 11
-57.363535207
 21
16.7573667937
  0
LINE
  5
310
100
AcDbEntity
  8
0
100
AcDbLine
 62
253
  6
CONTINUOUS
 10
76.6174580043
 20
17.5453260817
 11
76.4677747426
 21
17.5482417496
  0
LINE
  5
311
100
AcDbEntity
  8
0
100
AcDbLine
 62
253
  6
CONTINUOUS
 10
76.6893219013
 20
17.467282651
 11
76.543519488
 21
17.4706517012
  0
LWPOLYLINE
  5
312
100
AcDbEntity
  8
0
100
AcDbPolyline
 62
7
  6
CONTINUOUS
 90
10
 70
0
 10
4.9398383075
 20
-32.5341012881
 10
4.9163481339
 20
-32.5541182841
 10
4.9050514816
 20
-32.5635301504
 10
4.8937897051
 20
-32.5723603396
 10
4.8826323647
 20
-32.5807408196
 10
4.8715099
 20
-32.588539642
 10
4.8599799808
 20
-32.5952080357
 10
4.8478951635
 20
-32.6005630903
 10
4.8354028915
 20
-32.6047877466
 10
4.8225031649
 20
-32.6078820149
  0
LWPOLYLINE
  5
313
100
AcDbEntity
  8
0
100
AcDbPolyline
 62
253
  6
CONTINUOUS
 90
18
 70
0
 10
56.4
 20
-26.8035013869
 10
56.4027833994
 20
-26.8076227896
 10
56.4111216789
 20
-26.8117265438
 10
56.4249791325
 20
-26.8157950766
 10
56.4442964207
 20
-26.819810966
 10
56.4689908239
 20
-26.8237570153
 10
56.498956597
 20
-26.8276163269
 10
56.5340654221
 20
-26.8313723747
 10
56.5741669578
 20
-26.8350090746
 10
56.6190894834
 20
-26.8385108538
 10
56.6686406338
 20
-26.8418627171
 10
56.7226082234
 20
-26.8450503113
 10
56.780761155
 20
-26.8480599867
 10
56.8428504088
 20
-26.8508788553
 10
56.9086101092
 20
-26.8534948464
 10
56.9777586632
 20
-26.8558967578
 10
57.0499999662
 20
-26.8580743042
 10
57.2025115068
 20
-26.8617200042
  0
LWPOLYLINE
  5
314
100
AcDbEntity
  8
0
100
AcDbPolyline
 62
253
  6
CONTINUOUS
 90
16
 70
0
 10
56.4
 20
16.6964986131
 10
56.4027833998
 20
16.700620016
 10
56.4111216801
 20
16.7047237704
 10
56.4249791352
 20
16.7087923034
 10
56.4442964253
 20
16.7128081929
 10
56.4689908309
 20
16.7167542423
 10
56.4989566068
 20
16.7206135541
 10
56.5340654348
 20
16.7243696019
 10
56.5741669736
 20
16.7280063019
 10
56.6190895023
 20
16.7315080811
 10
56.6686406558
 20
16.7348599444
 10
56.7226082483
 20
16.7380475386
 10
56.7807611823
 20
16.7410572139
 10
56.8428504382
 20
16.7438760825
 10
56.9086101401
 20
16.7464920735
 10
56.9777586949
 20
16.7488939848
  0
LINE
  5
315
100
AcDbEntity
  8
0
100
AcDbLine
 62
253
  6
CONTINUOUS
 10
77.5
 20
38.3464986131
 11
77.3673198001
 21
38.3448139299
  0
LINE
  5
316
100
AcDbEntity
  8
0
100
AcDbLine
 62
253
  6
CONTINUOUS
 10
77.5
 20
37.4955193312
 11
77.3643139164
 21
37.495522941
  0
LINE
  5
317
100
AcDbEntity
  8
0
100
AcDbLine
 62
253
  6
CONTINUOUS
 10
-77.5
 20
37.4955176158
 11
-77.364313901
 21
37.4955233548
  0
LINE
  5
318
100
AcDbEntity
  8
0
100
AcDbLine
 62
253
  6
CONTINUOUS
 10
-75.9
 20
38.7954306956
 11
75.9
 21
38.7954306956
  0
LINE
  5
319
100
AcDbEntity
  8
0
100
AcDbLine
 62
253
  6
CONTINUOUS
 10
-75.9
 20
39.8068336131
 11
75.9000052558
 21
39.8068336131
  0
LINE
  5
31A
100
AcDbEntity
  8
0
100
AcDbLine
 62
7
  6
CONTINUOUS
 10
75.9
 20
39.9464986131
 11
-75.9
 21
39.9464986131
  0
LWPOLYLINE
  5
31B
100
AcDbEntity
  8
0
100
AcDbPolyline
 62
253
  6
CONTINUOUS
 90
115
 70
0
 10
75.9000052558
 20
39.8068336129
 10
75.9213029109
 20
39.8066794065
 10
75.9419394517
 20
39.8062353419
 10
75.9619096702
 20
39.8055280304
 10
75.981117867
 20
39.8045887336
 10
75.9996496739
 20
39.8034406745
 10
76.0177738442
 20
39.8020871891
 10
76.0354876968
 20
39.8005429802
 10
76.0527884577
 20
39.7988225542
 10
76.0699479648
 20
39.7969080825
 10
76.0870315455
 20
39.7947953907
 10
76.1039717768
 20
39.7924959242
 10
76.1208394367
 20
39.7900036897
 10
76.1376360302
 20
39.7873213561
 10
76.1543421302
 20
39.7844550123
 10
76.1709934564
 20
39.781400831
 10
76.1875348988
 20
39.7781709486
 10
76.2040049207
 20
39.7747600083
 10
76.2205791049
 20
39.7711299366
 10
76.2371980919
 20
39.7672891112
 10
76.2539026506
 20
39.7632232026
 10
76.2710141743
 20
39.7588419929
 10
76.2885638773
 20
39.754117628
 10
76.3064893111
 20
39.7490457672
 10
76.3249653092
 20
39.7435542373
 10
76.3441252667
 20
39.7375746648
 10
76.3637935452
 20
39.7311328517
 10
76.3836824855
 20
39.7243030134
 10
76.4037958937
 20
39.7170689239
 10
76.4240897732
 20
39.7094317483
 10
76.444217896
 20
39.7015163688
 10
76.4640872449
 20
39.6933637046
 10
76.4837671807
 20
39.6849486258
 10
76.5031684852
 20
39.6763132874
 10
76.5222322077
 20
39.6674943812
 10
76.5410131518
 20
39.6584774213
 10
76.5595967252
 20
39.6492279972
 10
76.5779408792
 20
39.6397721188
 10
76.5960774139
 20
39.6300992547
 10
76.6141909162
 20
39.6201111328
 10
76.6323254589
 20
39.6097758358
 10
76.6504062821
 20
39.5991286504
 10
76.6684320976
 20
39.5881652212
 10
76.6865224657
 20
39.5768015452
 10
76.7045476013
 20
39.5651062791
 10
76.7221569501
 20
39.5533093834
 10
76.7393210914
 20
39.5414469005
 10
76.7561031932
 20
39.5294908027
 10
76.7723173185
 20
39.5175929664
 10
76.7878749502
 20
39.5058478488
 10
76.8029121615
 20
39.4941833838
 10
76.8175804826
 20
39.4825036257
 10
76.8318676546
 20
39.4708317701
 10
76.8458050075
 20
39.4591544673
 10
76.8595933085
 20
39.447309744
 10
76.8732417561
 20
39.4352893076
 10
76.8867438887
 20
39.4230977449
 10
76.900263723
 20
39.4105801845
 10
76.9138527532
 20
39.3976743784
 10
76.9274490592
 20
39.384425497
 10
76.94104082
 20
39.3708339699
 10
76.9546870351
 20
39.356824843
 10
76.968316933
 20
39.3424527005
 10
76.9817318759
 20
39.3279202545
 10
76.9948865472
 20
39.3132807308
 10
77.0078328599
 20
39.2984796119
 10
77.0205278015
 20
39.2835687793
 10
77.032912524
 20
39.268625002
 10
77.045056237
 20
39.2535755397
 10
77.0571040025
 20
39.2382428682
 10
77.0690948715
 20
39.2225634397
 10
77.0809842733
 20
39.2065771033
 10
77.0927851327
 20
39.1902506822
 10
77.1045379591
 20
39.1735085195
 10
77.1161949287
 20
39.1563959126
 10
77.1276409076
 20
39.1390675254
 10
77.1388514778
 20
39.1215572448
 10
77.1498559112
 20
39.1038190843
 10
77.1606252639
 20
39.0858997081
 10
77.1711327622
 20
39.0678446054
 10
77.1813953129
 20
39.0496259123
 10
77.1914440793
 20
39.0311865804
 10
77.2012844708
 20
39.012507489
 10
77.2108943171
 20
38.9936205153
 10
77.2202619609
 20
38.9745422819
 10
77.2293867491
 20
38.9552673842
 10
77.2382543934
 20
38.9358145408
 10
77.24683517
 20
38.9162390386
 10
77.2551060873
 20
38.8965975773
 10
77.2630834407
 20
38.87686303
 10
77.2707959341
 20
38.8569669923
 10
77.278230825
 20
38.8369373504
 10
77.2853885967
 20
38.8167710425
 10
77.292309392
 20
38.7963472184
 10
77.2990004557
 20
38.775620248
 10
77.3054290531
 20
38.7546534993
 10
77.3115710086
 20
38.733487576
 10
77.3174200171
 20
38.7121235485
 10
77.322967827
 20
38.6905912524
 10
77.3281925352
 20
38.6689775236
 10
77.3330839808
 20
38.6473329763
 10
77.3376490914
 20
38.6256453948
 10
77.3418935034
 20
38.6039080423
 10
77.3458164047
 20
38.5821319249
 10
77.3494117243
 20
38.560344241
 10
77.3526759145
 20
38.5385625596
 10
77.3556093312
 20
38.5167886918
 10
77.3582117633
 20
38.4950367684
 10
77.3604806814
 20
38.4733418377
 10
77.3624204475
 20
38.4517013533
 10
77.364035497
 20
38.4301178144
 10
77.3653269488
 20
38.4086334052
 10
77.3663001915
 20
38.3872618722
 10
77.3669627552
 20
38.3659888168
 10
77.3673207988
 20
38.3448139424
  0
LWPOLYLINE
  5
31C
100
AcDbEntity
  8
0
100
AcDbPolyline
 62
253
  6
CONTINUOUS
 90
114
 70
0
 10
75.9
 20
38.7954306956
 10
75.9025779521
 20
38.7954041768
 10
75.905022028
 20
38.7953520034
 10
75.9073322279
 20
38.7952741753
 10
75.9094867277
 20
38.7951686218
 10
75.9115073515
 20
38.7950374137
 10
75.913459571
 20
38.7948867631
 10
75.9153406696
 20
38.7947202237
 10
75.9171533641
 20
38.7945342418
 10
75.9189712761
 20
38.7943243679
 10
75.9207992285
 20
38.7940925883
 10
75.9226323984
 20
38.7938369167
 10
75.9245299395
 20
38.793546945
 10
75.9265272434
 20
38.7932172048
 10
75.9285889184
 20
38.7928531643
 10
75.9306679434
 20
38.7924608208
 10
75.9327688974
 20
38.792037779
 10
75.9348872014
 20
38.7915864341
 10
75.9369620971
 20
38.7911199681
 10
75.9389670588
 20
38.7906443263
 10
75.9409286122
 20
38.7901535634
 10
75.9428655763
 20
38.7896430259
 10
75.9447381243
 20
38.7891273675
 10
75.946586083
 20
38.7885919343
 10
75.948547751
 20
38.7879881116
 10
75.9506895765
 20
38.7872957938
 10
75.9529451112
 20
38.786535086
 10
75.9552533095
 20
38.7857176883
 10
75.957632217
 20
38.784833385
 10
75.960063788
 20
38.7838923912
 10
75.9624328401
 20
38.7829370539
 10
75.9646827596
 20
38.7819890299
 10
75.9668701602
 20
38.7810266621
 10
75.969049701
 20
38.7800273265
 10
75.9712312529
 20
38.778987483
 10
75.9734049449
 20
38.7779106712
 10
75.9755958239
 20
38.7767848855
 10
75.9778227092
 20
38.7756011666
 10
75.9800667814
 20
38.774368473
 10
75.9822966291
 20
38.7731016762
 10
75.9845193054
 20
38.7717943586
 10
75.9867277572
 20
38.7704529373
 10
75.9888694128
 20
38.7691115354
 10
75.9909179832
 20
38.7677866147
 10
75.9928997575
 20
38.7664617136
 10
75.9948410315
 20
38.7651215702
 10
75.9967375989
 20
38.7637691899
 10
75.998593666
 20
38.7624015671
 10
76.000448148
 20
38.7609944229
 10
76.0023294767
 20
38.759525692
 10
76.0042092203
 20
38.758017439
 10
76.0060409984
 20
38.7565115802
 10
76.0078066808
 20
38.7550238447
 10
76.0095243978
 20
38.7535385034
 10
76.0112021601
 20
38.7520502858
 10
76.0128252347
 20
38.7505739166
 10
76.0144083545
 20
38.7490946712
 10
76.016003729
 20
38.7475631048
 10
76.0176340885
 20
38.7459589599
 10
76.0192767026
 20
38.7443024931
 10
76.0209155897
 20
38.7426050309
 10
76.0225505819
 20
38.7408662045
 10
76.0241818471
 20
38.7390863819
 10
76.025793907
 20
38.7372779958
 10
76.0273773759
 20
38.7354504786
 10
76.0289416395
 20
38.7335943974
 10
76.0304993771
 20
38.731693887
 10
76.0320658115
 20
38.7297290387
 10
76.0336257199
 20
38.7277197601
 10
76.0351461132
 20
38.7257099109
 10
76.0366159953
 20
38.7237153852
 10
76.0380463622
 20
38.721720289
 10
76.0394372135
 20
38.7197208002
 10
76.0407728102
 20
38.7177408859
 10
76.0420688912
 20
38.7157565791
 10
76.0433726726
 20
38.7136921548
 10
76.0447033427
 20
38.7115195083
 10
76.0460417132
 20
38.7092667423
 10
76.0473774353
 20
38.7069424429
 10
76.0487197637
 20
38.7045277449
 10
76.0500594437
 20
38.7020415114
 10
76.0513583622
 20
38.6995489222
 10
76.0526065915
 20
38.6970650793
 10
76.0538140593
 20
38.6945748805
 10
76.0549724349
 20
38.6920982
 10
76.0560721344
 20
38.6896580412
 10
76.0571227417
 20
38.6872314012
 10
76.0581446781
 20
38.6847691439
 10
76.059144103
 20
38.6822560979
 10
76.0601148571
 20
38.6797074334
 10
76.0610588833
 20
38.6771195263
 10
76.0619844423
 20
38.674469942
 10
76.0628832735
 20
38.6717811138
 10
76.0637325375
 20
38.6691167203
 10
76.0645181324
 20
38.6665249101
 10
76.0652541601
 20
38.6639575358
 10
76.0659600878
 20
38.6613338313
 10
76.0666390808
 20
38.6586437556
 10
76.0672879738
 20
38.655897348
 10
76.067916738
 20
38.6530439616
 10
76.0685400637
 20
38.6500122837
 10
76.0691432607
 20
38.6468736227
 10
76.0696922298
 20
38.6437912654
 10
76.070175401
 20
38.6408091522
 10
76.0706043443
 20
38.6378833449
 10
76.0709796706
 20
38.6350453157
 10
76.0712963423
 20
38.632340631
 10
76.071559397
 20
38.6297237274
 10
76.0717845582
 20
38.6270893808
 10
76.0719771914
 20
38.6244158089
 10
76.0721319311
 20
38.6217247933
 10
76.0722484047
 20
38.618976453
 10
76.0723264879
 20
38.6161574937
 10
76.072366305
 20
38.613281208
  0
LINE
  5
31D
100
AcDbEntity
  8
0
100
AcDbLine
 62
253
  6
CONTINUOUS
 10
-77.5
 20
38.3464986131
 11
-77.3673198341
 21
38.3448188359
  0
LWPOLYLINE
  5
31E
100
AcDbEntity
  8
0
100
AcDbPolyline
 62
7
  6
CONTINUOUS
 90
28
 70
0
 10
75.9
 20
39.9464986131
 10
75.9923138915
 20
39.943848428
 10
76.0850416379
 20
39.9357742934
 10
76.178083591
 20
39.9221162914
 10
76.2701080797
 20
39.9030769529
 10
76.3604646915
 20
39.8788108253
 10
76.4496794663
 20
39.8491074402
 10
76.5370166043
 20
39.8142212838
 10
76.6214355172
 20
39.7746063237
 10
76.7032578353
 20
39.7302443241
 10
76.7825782482
 20
39.681088161
 10
76.8586687542
 20
39.6275094757
 10
76.9308760485
 20
39.5701357916
 10
76.9995690865
 20
39.508802961
 10
77.0648902784
 20
39.4433277894
 10
77.1260138091
 20
39.3745462898
 10
77.1830946196
 20
39.3023799557
 10
77.2363373871
 20
39.2264278579
 10
77.2852037806
 20
39.1472362166
 10
77.3292880251
 20
39.0655904419
 10
77.3686119731
 20
38.9814622664
 10
77.403246637
 20
38.8944294935
 10
77.432741802
 20
38.8055305798
 10
77.4568328082
 20
38.7155333411
 10
77.4757495068
 20
38.6238306317
 10
77.489332317
 20
38.5310554753
 10
77.4973638583
 20
38.4385808652
 10
77.5
 20
38.3464986131
  0
LWPOLYLINE
  5
31F
100
AcDbEntity
  8
0
100
AcDbPolyline
 62
253
  6
CONTINUOUS
 90
16
 70
0
 10
77.3674239464
 20
17.4156852783
 10
77.3579435116
 20
17.4196790928
 10
77.3435533197
 20
17.4236358902
 10
77.3243083292
 20
17.4275405589
 10
77.3002820397
 20
17.4313781864
 10
77.2715662113
 20
17.4351341161
 10
77.2382705144
 20
17.4387940036
 10
77.2005221104
 20
17.4423438712
 10
77.1584651665
 20
17.4457701613
 10
77.1122603047
 20
17.4490597885
 10
77.0620839888
 20
17.4522001891
 10
77.0081278499
 20
17.4551793695
 10
76.9505979551
 20
17.4579859516
 10
76.8897140201
 20
17.4606092168
 10
76.8257085702
 20
17.4630391463
 10
76.6893219013
 20
17.467282651
  0
LWPOLYLINE
  5
320
100
AcDbEntity
  8
0
100
AcDbPolyline
 62
253
  6
CONTINUOUS
 90
17
 70
0
 10
77.3674210139
 20
17.4917800965
 10
77.3579403837
 20
17.4957870484
 10
77.3435500165
 20
17.4997566656
 10
77.324304871
 20
17.5036737875
 10
77.3002784473
 20
17.5075234541
 10
77.2715625056
 20
17.511290963
 10
77.2382667164
 20
17.5149619254
 10
77.2005182409
 20
17.5185223216
 10
77.1584612461
 20
17.5219585537
 10
77.1122563536
 20
17.5252574984
 10
77.0620800265
 20
17.5284065565
 10
77.0081238956
 20
17.5313937013
 10
76.9505940268
 20
17.5342075244
 10
76.8897101352
 20
17.5368372796
 10
76.8257047449
 20
17.5392729232
 10
76.7588223019
 20
17.5415051534
 10
76.6174580043
 20
17.5453260817
  0
LINE
  5
321
100
AcDbEntity
  8
0
100
AcDbLine
 62
253
  6
CONTINUOUS
 10
55.6
 20
-27.6035013869
 11
55.6
 21
-28.9824132719
  0
LINE
  5
322
100
AcDbEntity
  8
0
100
AcDbLine
 62
253
  6
CONTINUOUS
 10
55.6
 20
17.4964986131
 11
55.6
 21
18.8754104981
  0
LINE
  5
323
100
AcDbEntity
  8
0
100
AcDbLine
 62
7
  6
CONTINUOUS
 10
56.4
 20
-26.8035122312
 11
56.4
 21
16.6964989201
  0
LWPOLYLINE
  5
324
100
AcDbEntity
  8
0
100
AcDbPolyline
 62
253
  6
CONTINUOUS
 90
16
 70
0
 10
56.3413087427
 20
16.9972651862
 10
56.3420571535
 20
17.0014121389
 10
56.3469776305
 20
17.007238479
 10
56.3560531216
 20
17.0147240151
 10
56.3692521755
 20
17.0238428059
 10
56.3865290507
 20
17.0345632502
 10
56.4078238737
 20
17.0468481959
 10
56.4330628469
 20
17.0606550693
 10
56.4621585041
 20
17.0759360224
 10
56.4950100136
 20
17.0926380988
 10
56.5315035278
 20
17.110703417
 10
56.5715125777
 20
17.1300693712
 10
56.614898511
 20
17.1506688485
 10
56.6615109729
 20
17.1724304607
 10
56.7111884268
 20
17.1952787926
 10
56.7637587146
 20
17.2191346629
  0
LWPOLYLINE
  5
325
100
AcDbEntity
  8
0
100
AcDbPolyline
 62
253
  6
CONTINUOUS
 90
15
 70
0
 10
77.3674210162
 20
-27.5987828703
 10
77.3579403878
 20
-27.6027898223
 10
77.3435500222
 20
-27.6067594395
 10
77.3243048781
 20
-27.6106765615
 10
77.3002784556
 20
-27.6145262282
 10
77.2715625149
 20
-27.6182937372
 10
77.2382667265
 20
-27.6219646997
 10
77.2005182517
 20
-27.625525096
 10
77.1584612574
 20
-27.6289613282
 10
77.1122563652
 20
-27.632260273
 10
77.0620800382
 20
-27.6354093311
 10
77.0081239072
 20
-27.638396476
 10
76.9505940383
 20
-27.6412102993
 10
76.8897101463
 20
-27.6438400544
 10
76.8257047555
 20
-27.6462756982
  0
LWPOLYLINE
  5
326
100
AcDbEntity
  8
0
100
AcDbPolyline
 62
253
  6
CONTINUOUS
 90
15
 70
0
 10
77.367423946
 20
-27.5226880521
 10
77.3579435109
 20
-27.5266818666
 10
77.3435533187
 20
-27.5306386639
 10
77.324308328
 20
-27.5345433326
 10
77.3002820382
 20
-27.5383809601
 10
77.2715662097
 20
-27.5421368898
 10
77.2382705126
 20
-27.5457967773
 10
77.2005221085
 20
-27.5493466448
 10
77.1584651645
 20
-27.552772935
 10
77.1122603027
 20
-27.5560625622
 10
77.0620839868
 20
-27.5592029628
 10
77.0081278479
 20
-27.5621821431
 10
76.9505979531
 20
-27.5649887252
 10
76.8897140182
 20
-27.5676119904
 10
76.8257085684
 20
-27.5700419199
  0
LWPOLYLINE
  5
327
100
AcDbEntity
  8
0
100
AcDbPolyline
 62
253
  6
CONTINUOUS
 90
17
 70
0
 10
56.3413078758
 20
-27.1042676082
 10
56.3420562945
 20
-27.1084145571
 10
56.346976784
 20
-27.1142408952
 10
56.3560522923
 20
-27.1217264313
 10
56.3692513678
 20
-27.1308452239
 10
56.3865282689
 20
-27.1415656718
 10
56.4078231219
 20
-27.1538506228
 10
56.4330621288
 20
-27.1676575032
 10
56.4621578231
 20
-27.1829384649
 10
56.4950093728
 20
-27.1996405511
 10
56.5315029299
 20
-27.2177058805
 10
56.5715120248
 20
-27.237071847
 10
56.6148980049
 20
-27.2576713374
 10
56.6615105148
 20
-27.2794329635
 10
56.7111880173
 20
-27.3022813099
 10
56.7637583537
 20
-27.3261371949
 10
56.876839398
 20
-27.3765376826
  0
LWPOLYLINE
  5
328
100
AcDbEntity
  8
0
100
AcDbPolyline
 62
253
  6
CONTINUOUS
 90
16
 70
0
 10
57.7
 20
16.7595139909
 10
57.6997146383
 20
16.802081458
 10
57.6983475828
 20
16.8459342317
 10
57.6958988335
 20
16.891072293
 10
57.6924946754
 20
16.9373514003
 10
57.6880088235
 20
16.9849157575
 10
57.682062423
 20
17.034198007
 10
57.6746711822
 20
17.0853826366
 10
57.6658193927
 20
17.1382850985
 10
57.6550810745
 20
17.1927844757
 10
57.642471472
 20
17.2489055679
 10
57.6279753408
 20
17.3066235151
 10
57.6111209683
 20
17.3657429147
 10
57.5917511171
 20
17.426198615
 10
57.5700230246
 20
17.4880557107
 10
57.5459366909
 20
17.5513141717
  0
LINE
  5
329
100
AcDbEntity
  8
0
100
AcDbLine
 62
253
  6
CONTINUOUS
 10
57.7
 20
-26.8665167646
 11
57.7
 21
16.7595139909
  0
LWPOLYLINE
  5
32A
100
AcDbEntity
  8
0
100
AcDbPolyline
 62
253
  6
CONTINUOUS
 90
25
 70
0
 10
57.5459366909
 20
17.5513141717
 10
57.5049981783
 20
17.6466540032
 10
57.4595005746
 20
17.7397037283
 10
57.4094438796
 20
17.8304635565
 10
57.3546860411
 20
17.9192136824
 10
57.2953691114
 20
18.0056743114
 10
57.231919247
 20
18.0890057614
 10
57.1642862256
 20
18.1691636903
 10
57.0925202696
 20
18.2461930369
 10
57.017198203
 20
18.3193881968
 10
56.9382839048
 20
18.3886984999
 10
56.855813496
 20
18.4541753051
 10
56.7704721633
 20
18.5152661543
 10
56.6822272833
 20
18.571922071
 10
56.5911114795
 20
18.6241927188
 10
56.4979078087
 20
18.671673647
 10
56.4025791582
 20
18.7143112893
 10
56.3051626407
 20
18.7521598091
 10
56.2065526513
 20
18.7849763503
 10
56.1067368995
 20
18.8126918865
 10
56.0057276759
 20
18.8353758771
 10
55.9044562474
 20
18.8529931566
 10
55.8032330364
 20
18.8655320769
 10
55.7017476206
 20
18.8730045059
 10
55.6
 20
18.8754104981
  0
LWPOLYLINE
  5
32B
100
AcDbEntity
  8
0
100
AcDbPolyline
 62
253
  6
CONTINUOUS
 90
10
 70
0
 10
57.5459366909
 20
-27.6583169454
 10
57.5777100172
 20
-27.5749261565
 10
57.6058814258
 20
-27.4901687672
 10
57.6304509165
 20
-27.4040447419
 10
57.6515009926
 20
-27.3162608158
 10
57.6689491509
 20
-27.2271101758
 10
57.6825478817
 20
-27.1374724884
 10
57.6922146819
 20
-27.0476409804
 10
57.6980320547
 20
-26.9573224093
 10
57.7
 20
-26.8665167646
  0
LINE
  5
32C
100
AcDbEntity
  8
0
100
AcDbLine
 62
253
  6
CONTINUOUS
 10
76.0694932453
 20
-47.8507321268
 11
76.0723678552
 21
-48.7173502527
  0
LINE
  5
32D
100
AcDbEntity
  8
0
100
AcDbLine
 62
253
  6
CONTINUOUS
 10
77.3646431871
 20
-47.8866128566
 11
77.3673198341
 21
-48.4518216091
  0
LINE
  5
32E
100
AcDbEntity
  8
0
100
AcDbLine
 62
253
  6
CONTINUOUS
 10
75.9
 20
-50.0535013869
 11
75.9
 21
-48.9024334694
  0
LINE
  5
32F
100
AcDbEntity
  8
0
100
AcDbLine
 62
253
  6
CONTINUOUS
 10
75.9
 20
39.9464986131
 11
75.9
 21
38.7954306956
  0
LINE
  5
330
100
AcDbEntity
  8
0
100
AcDbLine
 62
253
  6
CONTINUOUS
 10
76.0694932453
 20
37.7437293531
 11
76.0718057585
 21
24.3265341039
  0
LINE
  5
331
100
AcDbEntity
  8
0
100
AcDbLine
 62
253
  6
CONTINUOUS
 10
76.0718057585
 20
24.3265341039
 11
76.0704408745
 21
-43.4048133569
  0
LINE
  5
332
100
AcDbEntity
  8
0
100
AcDbLine
 62
253
  6
CONTINUOUS
 10
76.0704408745
 20
-43.4048133569
 11
76.0694932453
 21
-47.8507321268
  0
LWPOLYLINE
  5
333
100
AcDbEntity
  8
0
100
AcDbPolyline
 62
253
  6
CONTINUOUS
 90
115
 70
0
 10
76.0723678552
 20
-48.7173502527
 10
76.0723598514
 20
-48.7202863181
 10
76.0723230456
 20
-48.7230734473
 10
76.0722574379
 20
-48.7257116426
 10
76.0721606449
 20
-48.7281769292
 10
76.0720350499
 20
-48.7304932863
 10
76.0718878034
 20
-48.7327326455
 10
76.0717222856
 20
-48.7348939818
 10
76.0715351161
 20
-48.7369783221
 10
76.0713233048
 20
-48.739060675
 10
76.071089163
 20
-48.7411441782
 10
76.0708303792
 20
-48.743225694
 10
76.0705370295
 20
-48.7453708162
 10
76.070204069
 20
-48.7476165925
 10
76.0698365426
 20
-48.7499259735
 10
76.0694396606
 20
-48.7522534064
 10
76.0690116146
 20
-48.7546023215
 10
76.0685542129
 20
-48.756969288
 10
76.0680780906
 20
-48.7592984633
 10
76.0675869138
 20
-48.7615701369
 10
76.0670770163
 20
-48.7638040204
 10
76.0665480354
 20
-48.7660034051
 10
76.0660162591
 20
-48.768118268
 10
76.0654653994
 20
-48.7701986334
 10
76.064846229
 20
-48.7723978609
 10
76.0641398249
 20
-48.7747854974
 10
76.0633651101
 20
-48.7772919926
 10
76.0625296268
 20
-48.7798620596
 10
76.0616207274
 20
-48.782521847
 10
76.0606510594
 20
-48.7852452042
 10
76.0596661072
 20
-48.7878983989
 10
76.0586877304
 20
-48.7904191103
 10
76.0576940695
 20
-48.7928696617
 10
76.05666503
 20
-48.795303288
 10
76.0555980107
 20
-48.7977280279
 10
76.0544956129
 20
-48.800135843
 10
76.0533455462
 20
-48.8025558515
 10
76.0521402991
 20
-48.8050059406
 10
76.050887383
 20
-48.8074682226
 10
76.0495970422
 20
-48.8099181534
 10
76.0482603777
 20
-48.8123681509
 10
76.0468862885
 20
-48.8148057975
 10
76.0455117155
 20
-48.8171692972
 10
76.0441512907
 20
-48.8194324536
 10
76.0427903822
 20
-48.8216214652
 10
76.0414220346
 20
-48.8237531294
 10
76.0400533731
 20
-48.8258168694
 10
76.0386772727
 20
-48.8278232633
 10
76.0372654034
 20
-48.8298208405
 10
76.0357944742
 20
-48.8318415231
 10
76.0342877762
 20
-48.833853389
 10
76.0327868527
 20
-48.8358092017
 10
76.0313064146
 20
-48.8376910117
 10
76.0298317512
 20
-48.8395167699
 10
76.0283602732
 20
-48.8412930909
 10
76.0269073136
 20
-48.8430035782
 10
76.0254575396
 20
-48.8446646294
 10
76.0239623632
 20
-48.8463320497
 10
76.0224018561
 20
-48.848029652
 10
76.0207959467
 20
-48.8497336232
 10
76.0191558316
 20
-48.8514283295
 10
76.0174811984
 20
-48.8531135759
 10
76.0157723596
 20
-48.8547895576
 10
76.0140414493
 20
-48.856441227
 10
76.0122997036
 20
-48.8580574453
 10
76.0105358864
 20
-48.8596493519
 10
76.0087284234
 20
-48.8612353164
 10
76.0068535199
 20
-48.8628345614
 10
76.0049349706
 20
-48.8644278644
 10
76.003022585
 20
-48.8659759275
 10
76.001132055
 20
-48.8674668142
 10
75.9992476888
 20
-48.8689124618
 10
75.997372221
 20
-48.8703093848
 10
75.995531504
 20
-48.8716392901
 10
75.9936996856
 20
-48.8729204714
 10
75.9918019433
 20
-48.8742043224
 10
75.9898117274
 20
-48.8755102764
 10
75.9877555878
 20
-48.8768188999
 10
75.9856383519
 20
-48.8781232855
 10
75.9834425202
 20
-48.8794330995
 10
75.9811855923
 20
-48.8807386755
 10
75.9789248941
 20
-48.8820041082
 10
75.976671812
 20
-48.8832207822
 10
75.9744149595
 20
-48.8843973135
 10
75.9721775036
 20
-48.8855236429
 10
75.9699833882
 20
-48.8865891192
 10
75.9678086693
 20
-48.8876043944
 10
75.9656046815
 20
-48.8885913638
 10
75.9633573278
 20
-48.8895562312
 10
75.9610807052
 20
-48.890492793
 10
75.9587684401
 20
-48.8914043337
 10
75.9563952075
 20
-48.8923004588
 10
75.9539863323
 20
-48.893171563
 10
75.9516114159
 20
-48.8939921147
 10
75.9493202062
 20
-48.894746453
 10
75.9470629552
 20
-48.8954502393
 10
75.9447600206
 20
-48.8961249257
 10
75.9424027042
 20
-48.8967735087
 10
75.9399997042
 20
-48.897392992
 10
75.9374974718
 20
-48.8979958393
 10
75.9348267806
 20
-48.898597802
 10
75.932056857
 20
-48.8991831287
 10
75.9293418318
 20
-48.8997170291
 10
75.9267237053
 20
-48.900187784
 10
75.9241604773
 20
-48.900607113
 10
75.9216802774
 20
-48.9009753832
 10
75.9193265342
 20
-48.9012872299
 10
75.9170558191
 20
-48.9015480182
 10
75.9147659763
 20
-48.9017742096
 10
75.9124385435
 20
-48.9019714499
 10
75.910091983
 20
-48.9021340935
 10
75.9076795253
 20
-48.9022616648
 10
75.9051855807
 20
-48.9023540052
 10
75.9026257389
 20
-48.9024112734
 10
75.9
 20
-48.9024334694
  0
LINE
  5
334
100
AcDbEntity
  8
0
100
AcDbLine
 62
253
  6
CONTINUOUS
 10
76.072366305
 20
38.613281208
 11
76.0694932453
 21
37.7437293531
  0
LINE
  5
335
100
AcDbEntity
  8
0
100
AcDbLine
 62
253
  6
CONTINUOUS
 10
77.3673198001
 20
38.3448139299
 11
77.3649042359
 21
37.8740864486
  0
LINE
  5
336
100
AcDbEntity
  8
0
100
AcDbLine
 62
7
  6
CONTINUOUS
 10
77.5
 20
-48.4535013869
 11
77.5
 21
38.3464986131
  0
LINE
  5
337
100
AcDbEntity
  8
0
100
AcDbLine
 62
253
  6
CONTINUOUS
 10
77.3670660508
 20
21.969495322
 11
77.3657740061
 21
-40.984904797
  0
LINE
  5
338
100
AcDbEntity
  8
0
100
AcDbLine
 62
253
  6
CONTINUOUS
 10
77.3657740061
 20
-40.984904797
 11
77.3646431871
 21
-47.8866128566
  0
LINE
  5
339
100
AcDbEntity
  8
0
100
AcDbLine
 62
253
  6
CONTINUOUS
 10
77.3649042359
 20
37.8740864486
 11
77.3670660508
 21
21.969495322
  0
LWPOLYLINE
  5
33A
100
AcDbEntity
  8
0
100
AcDbPolyline
 62
253
  6
CONTINUOUS
 90
115
 70
0
 10
77.3673207495
 20
-48.4518216206
 10
77.3669615584
 20
-48.4730588414
 10
77.3663246028
 20
-48.4936339787
 10
77.3654360975
 20
-48.5135422132
 10
77.3643275556
 20
-48.5326915229
 10
77.363021167
 20
-48.5511644827
 10
77.3615184551
 20
-48.5692200064
 10
77.3598343397
 20
-48.5868526663
 10
77.3579835385
 20
-48.604062702
 10
77.3559469853
 20
-48.6211207228
 10
77.3537205397
 20
-48.6380892511
 10
77.3513162815
 20
-48.6549040543
 10
77.3487274658
 20
-48.6716446246
 10
77.345956673
 20
-48.6883159283
 10
77.3430100228
 20
-48.7048954986
 10
77.3398831216
 20
-48.7214174225
 10
77.336588306
 20
-48.7378293981
 10
77.3331201693
 20
-48.7541672868
 10
77.329440143
 20
-48.7705970171
 10
77.3255575883
 20
-48.7870559457
 10
77.3214582276
 20
-48.8035886706
 10
77.3170504093
 20
-48.8205179068
 10
77.3123072038
 20
-48.8378683698
 10
77.3072245223
 20
-48.8555852676
 10
77.3017265231
 20
-48.8738655001
 10
77.2957447086
 20
-48.8928433913
 10
77.2893042351
 20
-48.9123431798
 10
77.2824737
 20
-48.9320976007
 10
77.2752343927
 20
-48.952116877
 10
77.2675872968
 20
-48.9723499348
 10
77.2596543102
 20
-48.9924497248
 10
77.2514727484
 20
-49.0123256759
 10
77.243018754
 20
-49.0320427278
 10
77.2343392283
 20
-49.0514995307
 10
77.2254703139
 20
-49.0706350992
 10
77.2163970541
 20
-49.0895035527
 10
77.2070906344
 20
-49.10817991
 10
77.1975807253
 20
-49.1266169136
 10
77.1878531937
 20
-49.144851232
 10
77.1778045977
 20
-49.1630722059
 10
77.1674063669
 20
-49.1813171104
 10
77.1566902172
 20
-49.1995167269
 10
77.1456363389
 20
-49.2176901765
 10
77.1341539102
 20
-49.2359632082
 10
77.1223190769
 20
-49.2541925408
 10
77.1103697032
 20
-49.2720155559
 10
77.098335718
 20
-49.2894099035
 10
77.0861939424
 20
-49.3064306748
 10
77.0741218404
 20
-49.3228603805
 10
77.0622218937
 20
-49.3386053994
 10
77.0504149378
 20
-49.3538102997
 10
77.0386093586
 20
-49.3686179655
 10
77.0268318948
 20
-49.3830134944
 10
77.0150671904
 20
-49.3970338532
 10
77.0031496649
 20
-49.4108833478
 10
76.9910719867
 20
-49.4245701525
 10
76.9788391585
 20
-49.4380901048
 10
76.9662917512
 20
-49.45161499
 10
76.9533704852
 20
-49.4651951092
 10
76.9401187691
 20
-49.4787702806
 10
76.9265248769
 20
-49.4923400382
 10
76.9125147757
 20
-49.5059623888
 10
76.8981427058
 20
-49.5195674824
 10
76.88359634
 20
-49.5329702718
 10
76.8689215724
 20
-49.5461301987
 10
76.8540696291
 20
-49.5590932711
 10
76.8390962291
 20
-49.5718138868
 10
76.8240734629
 20
-49.5842384664
 10
76.8089317222
 20
-49.5964303744
 10
76.7935102545
 20
-49.6085160708
 10
76.7777466843
 20
-49.6205334259
 10
76.7616810601
 20
-49.6324394771
 10
76.7452981658
 20
-49.6442338267
 10
76.7285275159
 20
-49.6559532514
 10
76.7114116625
 20
-49.6675551935
 10
76.6941122108
 20
-49.6789255363
 10
76.6766725759
 20
-49.6900373444
 10
76.6590400394
 20
-49.7009246112
 10
76.6412423352
 20
-49.7115704115
 10
76.6233250286
 20
-49.7219494962
 10
76.605258819
 20
-49.7320796908
 10
76.5869618095
 20
-49.7420032798
 10
76.5684085452
 20
-49.7517279722
 10
76.5496355068
 20
-49.7612288326
 10
76.5306497387
 20
-49.7704966189
 10
76.511439908
 20
-49.7795308416
 10
76.4920286776
 20
-49.7883156654
 10
76.4724761591
 20
-49.7968209933
 10
76.4528349646
 20
-49.8050252756
 10
76.4330792708
 20
-49.8129417211
 10
76.4131530336
 20
-49.8205922875
 10
76.3930832704
 20
-49.8279651306
 10
76.3728672936
 20
-49.8350592059
 10
76.3523994333
 20
-49.8419053723
 10
76.3316349522
 20
-49.8485082947
 10
76.3106369131
 20
-49.8548385428
 10
76.2894597956
 20
-49.8608727141
 10
76.2681082964
 20
-49.8666049463
 10
76.2466080391
 20
-49.8720277297
 10
76.2250473404
 20
-49.8771205398
 10
76.2034825775
 20
-49.8818744934
 10
76.181895321
 20
-49.8862973728
 10
76.1602622441
 20
-49.8903949125
 10
76.1385985913
 20
-49.8941643672
 10
76.1169264448
 20
-49.8976023378
 10
76.0952328253
 20
-49.9007101691
 10
76.0735214105
 20
-49.9034858617
 10
76.0518077407
 20
-49.9059282682
 10
76.030096844
 20
-49.9080387569
 10
76.0083887495
 20
-49.9098192656
 10
75.9866850096
 20
-49.9112715047
 10
75.9649928631
 20
-49.9123970683
 10
75.9433152109
 20
-49.9131981322
 10
75.9216506663
 20
-49.9136771262
 10
75.9
 20
-49.9138363869
  0
LWPOLYLINE
  5
33B
100
AcDbEntity
  8
0
100
AcDbPolyline
 62
7
  6
CONTINUOUS
 90
28
 70
0
 10
77.5
 20
-48.4535013869
 10
77.4973638591
 20
-48.545585742
 10
77.4893319541
 20
-48.6380631618
 10
77.475746944
 20
-48.7308464747
 10
77.4568245524
 20
-48.8225685437
 10
77.4327257601
 20
-48.912587599
 10
77.4032238153
 20
-49.0014955908
 10
77.3685794186
 20
-49.0885402762
 10
77.329245232
 20
-49.1726802753
 10
77.2851594263
 20
-49.2543166557
 10
77.2362880739
 20
-49.3335049481
 10
77.183024419
 20
-49.4094763758
 10
77.1259235652
 20
-49.4816567319
 10
77.0647890812
 20
-49.5504379342
 10
76.9994600652
 20
-49.6159089557
 10
76.9307631458
 20
-49.6772336242
 10
76.8585662532
 20
-49.7345893636
 10
76.7824908421
 20
-49.788149105
 10
76.7031631692
 20
-49.8373015561
 10
76.6213280873
 20
-49.881662368
 10
76.5369181041
 20
-49.9212668145
 10
76.4495910868
 20
-49.9561422912
 10
76.3603846881
 20
-49.9858374322
 10
76.270050772
 20
-50.0100938863
 10
76.1780491885
 20
-50.029125407
 10
76.0850214135
 20
-50.0427792266
 10
75.9923037247
 20
-50.0508516621
 10
75.9
 20
-50.0535013869
  0
LWPOLYLINE
  5
33C
100
AcDbEntity
  8
0
100
AcDbPolyline
 62
253
  6
CONTINUOUS
 90
25
 70
0
 10
77.3643139146
 20
-47.6025203896
 10
77.3546961239
 20
-47.6192363391
 10
77.3401826209
 20
-47.6357947934
 10
77.3208286917
 20
-47.6521326766
 10
77.2967080611
 20
-47.6681877529
 10
77.2679126115
 20
-47.6838988639
 10
77.2345520333
 20
-47.6992061612
 10
77.1967534067
 20
-47.7140513351
 10
77.1546607175
 20
-47.7283778359
 10
77.1084343091
 20
-47.7421310897
 10
77.0582502714
 20
-47.7552587064
 10
77.00429977
 20
-47.7677106791
 10
76.9467883181
 20
-47.7794395747
 10
76.8859349936
 20
-47.7904007142
 10
76.8219716045
 20
-47.8005523436
 10
76.755141806
 20
-47.8098557924
 10
76.6857001723
 20
-47.8182756209
 10
76.6139112268
 20
-47.8257797556
 10
76.5400484346
 20
-47.8323396111
 10
76.4643931605
 20
-47.837930199
 10
76.3872335975
 20
-47.842530223
 10
76.3088636689
 20
-47.8461221604
 10
76.2295819086
 20
-47.8486923284
 10
76.149690324
 20
-47.8502309366
 10
76.0694932453
 20
-47.8507321238
  0
LWPOLYLINE
  5
33D
100
AcDbEntity
  8
0
100
AcDbPolyline
 62
253
  6
CONTINUOUS
 90
25
 70
0
 10
77.3643139147
 20
37.4955176158
 10
77.3546961248
 20
37.5122335654
 10
77.3401826225
 20
37.5287920199
 10
77.320828694
 20
37.5451299033
 10
77.296708064
 20
37.5611849797
 10
77.2679126149
 20
37.5768960908
 10
77.2345520371
 20
37.5922033884
 10
77.1967534108
 20
37.6070485624
 10
77.1546607219
 20
37.6213750633
 10
77.1084343137
 20
37.6351283173
 10
77.0582502761
 20
37.6482559342
 10
77.0042997747
 20
37.6607079071
 10
76.9467883228
 20
37.6724368028
 10
76.8859349981
 20
37.6833979425
 10
76.8219716089
 20
37.693549572
 10
76.7551418101
 20
37.7028530209
 10
76.6857001761
 20
37.7112728496
 10
76.6139112303
 20
37.7187769844
 10
76.5400484377
 20
37.72533684
 10
76.4643931631
 20
37.730927428
 10
76.3872335997
 20
37.7355274521
 10
76.3088636706
 20
37.7391193896
 10
76.2295819098
 20
37.7416895577
 10
76.1496903245
 20
37.7432281658
 10
76.0694932453
 20
37.7437293531
  0
LWPOLYLINE
  5
33E
100
AcDbEntity
  8
0
100
AcDbPolyline
 62
253
  6
CONTINUOUS
 90
25
 70
0
 10
77.367320749
 20
38.3448141949
 10
77.3578034689
 20
38.3621598844
 10
77.3433803265
 20
38.3793774922
 10
77.3241063676
 20
38.3964013073
 10
77.3000551514
 20
38.4131663587
 10
77.2713184694
 20
38.4296086625
 10
77.2380059949
 20
38.445665467
 10
77.2002448652
 20
38.4612754914
 10
77.1581791954
 20
38.4763791603
 10
77.1119695292
 20
38.4909188306
 10
77.0617922259
 20
38.5048390118
 10
77.0078387869
 20
38.5180865777
 10
76.9503151256
 20
38.530610969
 10
76.889440781
 20
38.5423643866
 10
76.82544808
 20
38.5533019735
 10
76.7585812507
 20
38.5633819867
 10
76.6890954903
 20
38.5725659557
 10
76.6172559911
 20
38.5808188301
 10
76.5433369287
 20
38.5881091128
 10
76.4676204149
 20
38.5944089806
 10
76.390395422
 20
38.5996943899
 10
76.3119566789
 20
38.6039451692
 10
76.2326035471
 20
38.6071450953
 10
76.1526388777
 20
38.6092819557
 10
76.072367856
 20
38.610347595
  0
LWPOLYLINE
  5
33F
100
AcDbEntity
  8
0
100
AcDbPolyline
 62
253
  6
CONTINUOUS
 90
25
 70
0
 10
77.3673197999
 20
-48.451816843
 10
77.3578024994
 20
-48.4691625401
 10
77.343379344
 20
-48.4863801555
 10
77.3241053794
 20
-48.5034039781
 10
77.3000541647
 20
-48.5201690366
 10
77.2713174912
 20
-48.5366113473
 10
77.2380050322
 20
-48.5526681582
 10
77.2002439245
 20
-48.5682781885
 10
77.1581782831
 20
-48.5833818626
 10
77.1119686512
 20
-48.5979215375
 10
77.0617913877
 20
-48.6118417226
 10
77.0078379938
 20
-48.6250892915
 10
76.9503143821
 20
-48.6376136849
 10
76.8894400913
 20
-48.6493671036
 10
76.8254474477
 20
-48.6603046907
 10
76.7585806788
 20
-48.6703847029
 10
76.6890949811
 20
-48.6795686699
 10
76.6172555465
 20
-48.6878215412
 10
76.5433365496
 20
-48.6951118197
 10
76.4676201019
 20
-48.7014116821
 10
76.3903951747
 20
-48.7066970849
 10
76.3119564964
 20
-48.7109478565
 10
76.2326034277
 20
-48.7141477738
 10
76.1526388192
 20
-48.7162846243
 10
76.0723678552
 20
-48.7173502527
  0
LWPOLYLINE
  5
340
100
AcDbEntity
  8
RACCORDO
100
AcDbPolyline
 62
253
  6
CONTINUOUS
 90
16
 70
0
 10
-108.6594651663
 20
-48.762878785
 10
-108.5366293439
 20
-48.7449041999
 10
-108.4141929
 20
-48.724219219
 10
-108.292224567
 20
-48.700819385
 10
-108.1710308554
 20
-48.6748049635
 10
-108.0504476703
 20
-48.6460668675
 10
-107.9298535017
 20
-48.6142857982
 10
-107.8094580513
 20
-48.5795799635
 10
-107.6892450016
 20
-48.5418205442
 10
-107.5682985371
 20
-48.5003151474
 10
-107.4468043535
 20
-48.4552637768
 10
-107.3248793454
 20
-48.4064519165
 10
-107.2015748491
 20
-48.3525603965
 10
-107.0767232194
 20
-48.2931406395
 10
-106.9509100449
 20
-48.2286181301
 10
-106.8243652859
 20
-48.1589812484
  0
LINE
  5
341
100
AcDbEntity
  8
RACCORDO
100
AcDbLine
 62
253
  6
CONTINUOUS
 10
-108.7660746387
 20
-48.1707128992
 11
-106.8243652859
 21
-48.1589812484
  0
LINE
  5
342
100
AcDbEntity
  8
0
100
AcDbLine
 62
7
  6
CONTINUOUS
 10
-108.4717423017
 20
-50.0535013869
 11
-110.068120557
 21
-49.9138363869
  0
LWPOLYLINE
  5
343
100
AcDbEntity
  8
0
100
AcDbPolyline
 62
253
  6
CONTINUOUS
 90
3
 70
0
 10
-110.2961750396
 20
-47.6025203896
 10
-111.4515140255
 20
-47.8502309366
 10
-111.4539388842
 20
-47.8507321238
  0
LINE
  5
344
100
AcDbEntity
  8
0
100
AcDbLine
 62
253
  6
CONTINUOUS
 10
-106.111338677
 20
-27.4221105794
 11
-108.5515715784
 21
-27.46290515
  0
LINE
  5
345
100
AcDbEntity
  8
0
100
AcDbLine
 62
253
  6
CONTINUOUS
 10
-108.5515715784
 20
-27.46290515
 11
-111.1172550557
 21
-27.5028347203
  0
LINE
  5
346
100
AcDbEntity
  8
RACCORDO
100
AcDbLine
 62
253
  6
CONTINUOUS
 10
-111.1172550557
 20
-27.5028347203
 11
-111.3450234223
 21
-27.5028347203
  0
LWPOLYLINE
  5
347
100
AcDbEntity
  8
RACCORDO
100
AcDbPolyline
 62
253
  6
CONTINUOUS
 90
19
 70
0
 10
-106.824365425
 20
-48.1589812569
 10
-106.8023598833
 20
-48.2066343573
 10
-106.7827300105
 20
-48.2542009845
 10
-106.7655688272
 20
-48.3014557333
 10
-106.7509576555
 20
-48.3481746762
 10
-106.7389657337
 20
-48.3941364254
 10
-106.7296498882
 20
-48.4391231814
 10
-106.7230542644
 20
-48.4829217644
 10
-106.7192101175
 20
-48.5253246246
 10
-106.7181356638
 20
-48.5661308269
 10
-106.7198359955
 20
-48.6051470018
 10
-106.7243030552
 20
-48.6421882618
 10
-106.7315156754
 20
-48.6770790785
 10
-106.7414396776
 20
-48.7096541136
 10
-106.7540280351
 20
-48.7397590022
 10
-106.7692210953
 20
-48.7672510852
 10
-106.7869468629
 20
-48.7920000846
 10
-106.8071213405
 20
-48.813888721
 10
-106.829648927
 20
-48.8328132699
  0
LINE
  5
348
100
AcDbEntity
  8
RACCORDO
100
AcDbLine
 62
7
  6
CONTINUOUS
 10
-106.111338677
 20
-8.9061553483
 11
-107.9460683125
 21
-8.5826430112
  0
LINE
  5
349
100
AcDbEntity
  8
0
100
AcDbLine
 62
253
  6
CONTINUOUS
 10
-108.111338677
 20
-5.0535013869
 11
-111.681338677
 21
-5.0535013869
  0
LWPOLYLINE
  5
34A
100
AcDbEntity
  8
0
100
AcDbPolyline
 62
7
  6
CONTINUOUS
 90
8
 70
0
 10
-109.6911058259
 20
-42.3571952904
 10
-109.9306344024
 20
-40.9499872434
 10
-110.2681199549
 20
-38.7234981232
 10
-110.5651197777
 20
-36.491228906
 10
-110.8213400907
 20
-34.2539215748
 10
-111.0366824661
 20
-32.0123174078
 10
-111.2112438273
 20
-29.7671569691
 10
-111.3450234223
 20
-27.5191811882
  0
LWPOLYLINE
  5
34B
100
AcDbEntity
  8
0
100
AcDbPolyline
 62
7
  6
CONTINUOUS
 90
5
 70
0
 10
-108.490072818
 20
-49.4816567319
 10
-108.486422564
 20
-49.5504379342
 10
-108.4833157472
 20
-49.6159089557
 10
-108.480730923
 20
-49.6772336242
 10
-108.4785976641
 20
-49.7345893636
  0
LINE
  5
34C
100
AcDbEntity
  8
0
100
AcDbLine
 62
253
  6
CONTINUOUS
 10
-110.0681262411
 20
-49.9136771262
 11
-110.068120557
 21
-49.9138363869
  0
LINE
  5
34D
100
AcDbEntity
  8
0
100
AcDbLine
 62
7
  6
CONTINUOUS
 10
-108.4785976641
 20
-49.7345893636
 11
-108.4754642242
 21
-49.8373015561
  0
LINE
  5
34E
100
AcDbEntity
  8
0
100
AcDbLine
 62
253
  6
CONTINUOUS
 10
-110.108921842
 20
-48.4518216206
 11
-110.0977582141
 21
-48.8378683698
  0
LINE
  5
34F
100
AcDbEntity
  8
0
100
AcDbLine
 62
253
  6
CONTINUOUS
 10
-110.0977582141
 20
-48.8378683698
 11
-110.0752209371
 21
-49.6442338267
  0
LINE
  5
350
100
AcDbEntity
  8
0
100
AcDbLine
 62
253
  6
CONTINUOUS
 10
-110.069525091
 20
-49.8608727141
 11
-110.0684446767
 21
-49.9007101691
  0
LINE
  5
351
100
AcDbEntity
  8
0
100
AcDbLine
 62
253
  6
CONTINUOUS
 10
-110.0684446767
 20
-49.9007101691
 11
-110.0681596199
 21
-49.9123970683
  0
LINE
  5
352
100
AcDbEntity
  8
0
100
AcDbLine
 62
253
  6
CONTINUOUS
 10
-110.0752209371
 20
-49.6442338267
 11
-110.069525091
 21
-49.8608727141
  0
LINE
  5
353
100
AcDbEntity
  8
0
100
AcDbLine
 62
7
  6
CONTINUOUS
 10
-108.4754642242
 20
-49.8373015561
 11
-108.4735556312
 21
-49.9212668145
  0
LINE
  5
354
100
AcDbEntity
  8
0
100
AcDbLine
 62
7
  6
CONTINUOUS
 10
-108.4735556312
 20
-49.9212668145
 11
-108.4724881939
 21
-49.9858374322
  0
LINE
  5
355
100
AcDbEntity
  8
0
100
AcDbLine
 62
7
  6
CONTINUOUS
 10
-108.4724881939
 20
-49.9858374322
 11
-108.4719665452
 21
-50.029125407
  0
LINE
  5
356
100
AcDbEntity
  8
0
100
AcDbLine
 62
7
  6
CONTINUOUS
 10
-108.4724885288
 20
39.8788108253
 11
-108.4735564542
 21
39.8142212838
  0
LINE
  5
357
100
AcDbEntity
  8
0
100
AcDbLine
 62
7
  6
CONTINUOUS
 10
-108.4735564542
 20
39.8142212838
 11
-108.4754656385
 21
39.7302443241
  0
LINE
  5
358
100
AcDbEntity
  8
0
100
AcDbLine
 62
253
  6
CONTINUOUS
 10
-110.0690707913
 20
39.7711299366
 11
-110.0725011437
 21
39.6397721188
  0
LINE
  5
359
100
AcDbEntity
  8
0
100
AcDbLine
 62
253
  6
CONTINUOUS
 10
-110.0725011437
 20
39.6397721188
 11
-110.0763922364
 21
39.4941833838
  0
LINE
  5
35A
100
AcDbEntity
  8
0
100
AcDbLine
 62
253
  6
CONTINUOUS
 10
-110.0830891321
 20
39.2535755397
 11
-110.0881991407
 21
39.0678446054
  0
LINE
  5
35B
100
AcDbEntity
  8
0
100
AcDbLine
 62
253
  6
CONTINUOUS
 10
-110.0681382931
 20
39.8062353419
 11
-110.0690707913
 21
39.7711299366
  0
LINE
  5
35C
100
AcDbEntity
  8
0
100
AcDbLine
 62
253
  6
CONTINUOUS
 10
-110.0763922364
 20
39.4941833838
 11
-110.0830891321
 21
39.2535755397
  0
LINE
  5
35D
100
AcDbEntity
  8
0
100
AcDbLine
 62
253
  6
CONTINUOUS
 10
-110.1015868255
 20
38.6039080423
 11
-110.1089219791
 21
38.3448139424
  0
LWPOLYLINE
  5
35E
100
AcDbEntity
  8
0
100
AcDbPolyline
 62
253
  6
CONTINUOUS
 90
3
 70
0
 10
-110.0881991407
 20
39.0678446054
 10
-110.1002122408
 20
38.6473329763
 10
-110.1015868255
 20
38.6039080423
  0
LWPOLYLINE
  5
35F
100
AcDbEntity
  8
0
100
AcDbPolyline
 62
7
  6
CONTINUOUS
 90
6
 70
0
 10
-108.4754656385
 20
39.7302443241
 10
-108.4786003491
 20
39.6275094757
 10
-108.4807346835
 20
39.5701357916
 10
-108.4833203675
 20
39.508802961
 10
-108.4864279482
 20
39.4433277894
 10
-108.4900788441
 20
39.3745462898
  0
LINE
  5
360
100
AcDbEntity
  8
0
100
AcDbLine
 62
253
  6
CONTINUOUS
 10
-110.068120559
 20
39.8068336129
 11
-110.0681264699
 21
39.8066794065
  0
LWPOLYLINE
  5
361
100
AcDbEntity
  8
0
100
AcDbPolyline
 62
7
  6
CONTINUOUS
 90
13
 70
0
 10
-108.4900788441
 20
39.3745462898
 10
-108.4943327947
 20
39.3023799557
 10
-108.4992824957
 20
39.2264278579
 10
-108.5049630978
 20
39.1472362166
 10
-108.511368164
 20
39.0655904419
 10
-108.5185542236
 20
38.9814622664
 10
-108.5266181654
 20
38.8944294935
 10
-108.5355134415
 20
38.8055305798
 10
-108.5452064486
 20
38.7155333411
 10
-108.5557861842
 20
38.6238306317
 10
-108.5672112919
 20
38.5310554753
 10
-108.5793367244
 20
38.4385808652
 10
-108.592139894
 20
38.3464986131
  0
LINE
  5
362
100
AcDbEntity
  8
RACCORDO
100
AcDbLine
 62
7
  6
CONTINUOUS
 10
-107.9460683125
 20
-1.5243597625
 11
-106.111338677
 21
-1.2008474255
  0
LINE
  5
363
100
AcDbEntity
  8
0
100
AcDbLine
 62
7
  6
CONTINUOUS
 10
-108.4717423017
 20
39.9464986131
 11
-108.426512786
 21
39.4295228826
  0
LINE
  5
364
100
AcDbEntity
  8
0
100
AcDbLine
 62
7
  6
CONTINUOUS
 10
-108.4719665452
 20
-50.029125407
 11
-108.4717423017
 21
-50.0535013869
  0
LINE
  5
365
100
AcDbEntity
  8
RACCORDO
100
AcDbLine
 62
7
  6
CONTINUOUS
 10
-108.111338677
 20
-8.3856814606
 11
-108.111338677
 21
-1.7213213131
  0
LINE
  5
366
100
AcDbEntity
  8
DRAFT
100
AcDbLine
 62
7
  6
CONTINUOUS
 10
-106.111338677
 20
-27.4221105794
 11
-106.111338677
 21
-8.9061553483
  0
LINE
  5
367
100
AcDbEntity
  8
RACCORDO
100
AcDbLine
 62
7
  6
CONTINUOUS
 10
-106.111338677
 20
-27.4221105794
 11
-106.111338677
 21
-48.1535018426
  0
LINE
  5
368
100
AcDbEntity
  8
DRAFT
100
AcDbLine
 62
7
  6
CONTINUOUS
 10
-106.111338677
 20
-1.2008474255
 11
-106.111338677
 21
17.3151078057
  0
LINE
  5
369
100
AcDbEntity
  8
RACCORDO
100
AcDbLine
 62
7
  6
CONTINUOUS
 10
-106.111338677
 20
17.3151078057
 11
-106.111338677
 21
38.0464988789
  0
LWPOLYLINE
  5
36A
100
AcDbEntity
  8
0
100
AcDbPolyline
 62
7
  6
CONTINUOUS
 90
3
 70
0
 10
-108.4717423017
 20
39.9464986131
 10
-108.4721764566
 20
39.9030769529
 10
-108.4724885288
 20
39.8788108253
  0
LINE
  5
36B
100
AcDbEntity
  8
0
100
AcDbLine
 62
7
  6
CONTINUOUS
 10
-108.4717423017
 20
-50.0535013869
 11
-108.4265440061
 21
-49.5368825037
  0
LWPOLYLINE
  5
36C
100
AcDbEntity
  8
0
100
AcDbPolyline
 62
253
  6
CONTINUOUS
 90
3
 70
0
 10
-111.1172550557
 20
17.3958319465
 10
-106.5052426384
 20
17.3219768565
 10
-106.111338677
 20
17.3151078057
  0
LINE
  5
36D
100
AcDbEntity
  8
0
100
AcDbLine
 62
253
  6
CONTINUOUS
 10
-112.9300985729
 20
17.4156852783
 11
-114.1151670444
 21
17.4750691617
  0
LWPOLYLINE
  5
36E
100
AcDbEntity
  8
RACCORDO
100
AcDbPolyline
 62
253
  6
CONTINUOUS
 90
19
 70
0
 10
-106.829648473
 20
38.7258111136
 10
-106.8071209275
 20
38.7068865494
 10
-106.786946487
 20
38.6849978981
 10
-106.7692207527
 20
38.6602488836
 10
-106.7540277223
 20
38.6327567846
 10
-106.7414393915
 20
38.6026518783
 10
-106.7315154132
 20
38.5700768232
 10
-106.7243028146
 20
38.5351859834
 10
-106.7198357748
 20
38.4981446967
 10
-106.7181354619
 20
38.4591284915
 10
-106.7192099338
 20
38.4183222545
 10
-106.7230540991
 20
38.3759193551
 10
-106.7296497417
 20
38.3321207293
 10
-106.738965607
 20
38.2871339263
 10
-106.75095755
 20
38.2411721264
 10
-106.7655687443
 20
38.1944531301
 10
-106.7827299519
 20
38.1471983262
 10
-106.8023598507
 20
38.0996316419
 10
-106.8243654202
 20
38.0519784829
  0
LWPOLYLINE
  5
36F
100
AcDbEntity
  8
RACCORDO
100
AcDbPolyline
 62
253
  6
CONTINUOUS
 90
13
 70
0
 10
-106.8243652859
 20
38.0519784746
 10
-106.7437949794
 20
38.0037015816
 10
-106.6676951106
 20
37.955986293
 10
-106.595949704
 20
37.908835839
 10
-106.5285803105
 20
37.8621949275
 10
-106.4653240982
 20
37.8161250685
 10
-106.4056587983
 20
37.7708044664
 10
-106.349579038
 20
37.7263631402
 10
-106.2968959949
 20
37.6826766461
 10
-106.2468609776
 20
37.6395406535
 10
-106.1991907878
 20
37.5968880557
 10
-106.1540388308
 20
37.5547896428
 10
-106.1113386333
 20
37.5132472446
  0
LINE
  5
370
100
AcDbEntity
  8
0
100
AcDbLine
 62
7
  6
CONTINUOUS
 10
-108.4717423017
 20
39.9464986131
 11
-110.068120557
 21
39.8068336131
  0
LINE
  5
371
100
AcDbEntity
  8
RACCORDO
100
AcDbLine
 62
253
  6
CONTINUOUS
 10
-106.8243652859
 20
38.0519784746
 11
-108.7660746387
 21
38.0637101254
  0
LWPOLYLINE
  5
372
100
AcDbEntity
  8
RACCORDO
100
AcDbPolyline
 62
253
  6
CONTINUOUS
 90
16
 70
0
 10
-108.6594649888
 20
38.6558759814
 10
-108.5356026511
 20
38.6377927398
 10
-108.411667433
 20
38.6168023913
 10
-108.2877365875
 20
38.5928999733
 10
-108.1639402881
 20
38.5661553466
 10
-108.0403187248
 20
38.5364886286
 10
-107.9168214625
 20
38.5036697093
 10
-107.793567427
 20
38.4677281939
 10
-107.6706414303
 20
38.4286231741
 10
-107.5479517262
 20
38.3860175546
 10
-107.4255056727
 20
38.3399368678
 10
-107.3035490633
 20
38.2903425077
 10
-107.1823428634
 20
38.2367997086
 10
-107.0620316146
 20
38.1791583446
 10
-106.9426707817
 20
38.1175537146
 10
-106.8243652859
 20
38.0519784746
  0
LINE
  5
373
100
AcDbEntity
  8
0
100
AcDbLine
 62
253
  6
CONTINUOUS
 10
-110.1089219667
 20
38.3448141949
 11
-110.7590963477
 21
38.4909188306
  0
LINE
  5
374
100
AcDbEntity
  8
0
100
AcDbLine
 62
253
  6
CONTINUOUS
 10
-110.7590963477
 20
38.4909188306
 11
-111.0311871014
 21
38.5533019735
  0
LINE
  5
375
100
AcDbEntity
  8
0
100
AcDbLine
 62
253
  6
CONTINUOUS
 10
-111.0311871014
 20
38.5533019735
 11
-111.1486614642
 21
38.5808188301
  0
LWPOLYLINE
  5
376
100
AcDbEntity
  8
0
100
AcDbPolyline
 62
253
  6
CONTINUOUS
 90
7
 70
0
 10
-111.1486614642
 20
38.5808188301
 10
-111.2052248771
 20
38.5944089806
 10
-111.2266316109
 20
38.5996943899
 10
-111.243340225
 20
38.6039451692
 10
-111.255286951
 20
38.6071450953
 10
-111.2624261941
 20
38.6092819557
 10
-111.2647307075
 20
38.610347595
  0
LWPOLYLINE
  5
377
100
AcDbEntity
  8
RACCORDO
100
AcDbPolyline
 62
253
  6
CONTINUOUS
 90
10
 70
0
 10
-106.8243652859
 20
-48.1589812484
 10
-106.7333482167
 20
-48.1044626146
 10
-106.6459205893
 20
-48.0489931431
 10
-106.5620003251
 20
-47.9925737118
 10
-106.4821299462
 20
-47.9357187121
 10
-106.4055723136
 20
-47.8779164622
 10
-106.3304019419
 20
-47.8176253744
 10
-106.256004961
 20
-47.7543285241
 10
-106.18298844
 20
-47.6885374854
 10
-106.1113386992
 20
-47.6202500802
  0
ARC
  5
378
100
AcDbEntity
  8
0
100
AcDbCircle
 62
7
  6
CONTINUOUS
 10
55.6
 20
16.6964986131
 40
0.8
100
AcDbArc
 50
0.0000219869
 51
89.998601331
  0
ARC
  5
379
100
AcDbEntity
  8
0
100
AcDbCircle
 62
7
  6
CONTINUOUS
 10
55.6
 20
-26.8035013869
 40
0.8
100
AcDbArc
 50
270.0010376883
 51
359.9992233358
  0
ARC
  5
37A
100
AcDbEntity
  8
0
100
AcDbCircle
 62
7
  6
CONTINUOUS
 10
-55.6
 20
-26.8035013869
 40
0.8
100
AcDbArc
 50
180.0000216154
 51
269.998578734
  0
ARC
  5
37B
100
AcDbEntity
  8
0
100
AcDbCircle
 62
7
  6
CONTINUOUS
 10
-55.6
 20
16.6964986131
 40
0.8
100
AcDbArc
 50
90.0010389078
 51
179.9991643371
  0
ARC
  5
37C
100
AcDbEntity
  8
0
100
AcDbCircle
 62
7
  6
CONTINUOUS
 10
53.7943747261
 20
-19.2101413869
 40
165.12
100
AcDbArc
 50
182.8787323946
 51
190.1014160686
  0
ARC
  5
37D
100
AcDbEntity
  8
0
100
AcDbCircle
 62
7
  6
CONTINUOUS
 10
12.2125228165
 20
-21.3046788005
 40
126.4835431995
100
AcDbArc
 50
182.8793234251
 51
192.6028892677
  0
ARC
  5
37E
100
AcDbEntity
  8
RACCORDO
100
AcDbCircle
 62
7
  6
CONTINUOUS
 10
-109.2117198716
 20
-45.5945506497
 40
4.0200239337
100
AcDbArc
 50
279.9999998524
 51
320.4648682741
  0
ARC
  5
37F
100
AcDbEntity
  8
0
100
AcDbCircle
 62
7
  6
CONTINUOUS
 10
-109.9548180831
 20
-48.6187833164
 40
1.3
100
AcDbArc
 50
192.6028875953
 51
264.9999994946
  0
ARC
  5
380
100
AcDbEntity
  8
RACCORDO
100
AcDbCircle
 62
7
  6
CONTINUOUS
 10
-107.911338677
 20
-8.3856814606
 40
0.2
100
AcDbArc
 50
180.0
 51
260.0
  0
ARC
  5
381
100
AcDbEntity
  8
0
100
AcDbCircle
 62
7
  6
CONTINUOUS
 10
53.7943747261
 20
9.1031386131
 40
165.12
100
AcDbArc
 50
169.8985839314
 51
177.1212676054
  0
ARC
  5
382
100
AcDbEntity
  8
0
100
AcDbCircle
 62
7
  6
CONTINUOUS
 10
12.2125228165
 20
11.1976760268
 40
126.4835431995
100
AcDbArc
 50
167.3971107323
 51
177.1206756724
  0
ARC
  5
383
100
AcDbEntity
  8
RACCORDO
100
AcDbCircle
 62
7
  6
CONTINUOUS
 10
-109.2117198716
 20
35.4875478759
 40
4.0200239337
100
AcDbArc
 50
39.5351282156
 51
80.000000026
  0
ARC
  5
384
100
AcDbEntity
  8
0
100
AcDbCircle
 62
7
  6
CONTINUOUS
 10
-109.9548180831
 20
38.5117805426
 40
1.3
100
AcDbArc
 50
95.0000005054
 51
167.3971124047
  0
ARC
  5
385
100
AcDbEntity
  8
RACCORDO
100
AcDbCircle
 62
7
  6
CONTINUOUS
 10
-107.911338677
 20
-1.7213213131
 40
0.2
100
AcDbArc
 50
100.0
 51
180.0
  0
ARC
  5
386
100
AcDbEntity
  8
0
100
AcDbCircle
 62
7
  6
CONTINUOUS
 10
335.3205497261
 20
-5.0535013869
 40
450.0
100
AcDbArc
 50
177.1206598848
 51
182.8793398743
  0
ARC
  5
387
100
AcDbEntity
  8
0
100
AcDbCircle
 62
7
  6
CONTINUOUS
 10
335.318661323
 20
-5.0535013869
 40
447.0
100
AcDbArc
 50
177.1212676054
 51
182.8787323946
  0
ENDSEC
  0
SECTION
  2
OBJECTS
  0
DICTIONARY
  5
C
100
AcDbDictionary
280
0
281
1
  3
ACAD_GROUP
350
D
  3
ACAD_MLINESTYLE
350
17
  3
ACAD_LAYOUT
350
1A
  3
ACAD_PLOTSETTINGS
350
19
  3
ACAD_PLOTSTYLENAME
350
E
  0
DICTIONARY
  5
D
102
{ACAD_REACTORS
330
C
102
}
100
AcDbDictionary
280
0
281
1
  0
ACDBDICTIONARYWDFLT
  5
E
102
{ACAD_REACTORS
330
C
102
}
100
AcDbDictionary
281
1
  3
Normal
350
F
100
AcDbDictionaryWithDefault
340
F
  0
DICTIONARY
  5
17
102
{ACAD_REACTORS
330
C
102
}
100
AcDbDictionary
280
0
281
1
  3
Standard
350
18
  0
DICTIONARY
  5
19
102
{ACAD_REACTORS
330
C
102
}
100
AcDbDictionary
281
1
  0
DICTIONARY
  5
1A
102
{ACAD_REACTORS
330
C
102
}
100
AcDbDictionary
281
1
  3
Model
350
388
  3
Layout1
350
389
  0
ACDBPLACEHOLDER
  5
F
102
{ACAD_REACTORS
330
E
102
}
  0
MLINESTYLE
  5
18
102
{ACAD_REACTORS
330
17
102
}
100
AcDbMlineStyle
  2
STANDARD
 70
0
  3

 62
256
 51
90.0
 52
90.0
 71
2
 49
0.5
 62
256
  6
BYLAYER
 49
-0.5
 62
256
  6
BYLAYER
  0
LAYOUT
  5
388
102
{ACAD_REACTORS
330
1A
102
}
100
AcDbPlotSettings
  1

  2
none_device
  4
ISO_A4_(297.00_x_210.00_MM)
  6

 40
0.0
 41
0.0
 42
0.0
 43
0.0
 44
297.0
 45
210.0
 46
0.0
 47
0.0
 48
0.0
 49
0.0
140
0.0
141
0.0
142
1.0
143
1.0
 70
1024
 72
1
 73
0
 74
0
  7

 75
0
147
1.0
148
0.0
149
0.0
100
AcDbLayout
  1
Model
 70
0
 71
0
 10
0.0
 20
0.0
 11
297.0
 21
210.0
 12
0.0
 22
0.0
 32
0.0
 14
0.0
 24
0.0
 34
0.0
 15
0.0
 25
0.0
 35
0.0
146
0.0
 13
0.0
 23
0.0
 33
0.0
 16
1.0
 26
0.0
 36
0.0
 17
0.0
 27
1.0
 37
0.0
 76
0
330
215
345
0
346
0
  0
LAYOUT
  5
389
102
{ACAD_REACTORS
330
1A
102
}
100
AcDbPlotSettings
  1

  2
none_device
  4
ISO_A4_(297.00_x_210.00_MM)
  6

 40
0.0
 41
0.0
 42
0.0
 43
0.0
 44
297.0
 45
210.0
 46
0.0
 47
0.0
 48
0.0
 49
0.0
140
0.0
141
0.0
142
1.0
143
1.0
 70
0
 72
1
 73
0
 74
0
  7

 75
0
147
1.0
148
0.0
149
0.0
100
AcDbLayout
  1
Layout1
 70
0
 71
1
 10
0.0
 20
0.0
 11
297.0
 21
210.0
 12
0.0
 22
0.0
 32
0.0
 14
0.0
 24
0.0
 34
0.0
 15
0.0
 25
0.0
 35
0.0
146
0.0
 13
0.0
 23
0.0
 33
0.0
 16
1.0
 26
0.0
 36
0.0
 17
0.0
 27
1.0
 37
0.0
 76
0
330
216
345
0
346
0
  0
ENDSEC
  0
EOF
