  0
SECTION
  2
HEADER
  9
$ACADVER
  1
AC1021
  9
$DWGCODEPAGE
  3
ANSI_1252
  9
$EXTMAX
 10
297.0
 20
210.0
 30
0.0
  9
$EXTMIN
 10
0.0
 20
0.0
 30
0.0
  9
$LIMMIN
 10
0.0
 20
0.0
  9
$LIMMAX
 10
297.0
 20
210.0
  9
$VIEWCTR
 10
148.5
 20
105.0
  9
$VIEWSIZE
 40
210.0
  9
$CLAYER
  8
0
  9
$LTSCALE
 40
16.335
  9
$CELTYPE
  6
BYLAYER
  9
$DIMSCALE
 40
1.0
  9
$DIMASZ
 40
3.0
  9
$DIMEXO
 40
1.85625
  9
$DIMDLI
 40
11.286
  9
$DIMEXE
 40
5.346
  9
$DIMCEN
 40
2.673
  9
$DIMLFAC
 40
1.0
  9
$DIMBLK
  1
_FILLED
  9
$DIMTXT
 40
3.0
  9
$DIMTOL
 70
1
  9
$DIMLIM
 70
0
  9
$DIMTFAC
 40
1.0
  9
$DIMTP
 40
0.01
  9
$DIMTM
 40
0.01
  9
$PDMODE
 70
3
  9
$PDSIZE
 40
3.0
  9
$HANDSEED
  5
41A
  9
$TILEMODE
 70
1
  9
$MEASUREMENT
 70
1
  9
$INSUNITS
 70
4
  0
ENDSEC
  0
SECTION
  2
CLASSES
  0
CLASS
  1
ACDBDICTIONARYWDFLT
  2
AcDbDictionaryWithDefault
  3
AutoCAD 2000
 90
0
 91
1
280
0
281
0
  0
CLASS
  1
ACDBPLACEHOLDER
  2
AcDbPlaceHolder
  3
AutoCAD 2000
 90
0
 91
1
280
0
281
0
  0
CLASS
  1
LAYOUT
  2
AcDbLayout
  3
AutoCAD 2000
 90
0
 91
0
280
0
281
0
  0
ENDSEC
  0
SECTION
  2
TABLES
  0
TABLE
  2
VPORT
  5
8
100
AcDbSymbolTable
 70
2
  0
VPORT
  5
1F4
100
AcDbSymbolTableRecord
100
AcDbViewportTableRecord
  2
*ACTIVE
 70
0
 10
0.0
 20
0.0
 11
1.0
 21
1.0
 12
148.5
 22
105.0
 13
0.0
 23
0.0
 14
1.0
 24
1.0
 15
0.0
 25
0.0
 16
0.0
 26
0.0
 36
1.0
 17
0.0
 27
0.0
 37
0.0
 40
210.0
 41
1.4142857143
 42
50.0
 43
0.0
 44
0.0
 50
0.0
 51
0.0
 71
0
 72
100
 73
1
 74
1
 75
0
 76
0
 77
0
 78
0
  0
ENDTAB
  0
TABLE
  2
LTYPE
  5
5
100
AcDbSymbolTable
 70
6
  0
LTYPE
  5
14
100
AcDbSymbolTableRecord
100
AcDbLinetypeTableRecord
  2
BYBLOCK
 70
0
  3

 72
65
 73
0
 40
0.0
  0
LTYPE
  5
15
100
AcDbSymbolTableRecord
100
AcDbLinetypeTableRecord
  2
BYLAYER
 70
0
  3

 72
65
 73
0
 40
0.0
  0
LTYPE
  5
16
100
AcDbSymbolTableRecord
100
AcDbLinetypeTableRecord
  2
CONTINUOUS
 70
64
  3
Solid line
 72
65
 73
0
 40
0.0
  0
LTYPE
  5
1F5
100
AcDbSymbolTableRecord
100
AcDbLinetypeTableRecord
  2
CENTER
 70
64
  3
____ _ ____ _ ____ _ ____ _ ____ _ ____ _ ____
 72
65
 73
4
 40
0.6
 49
0.375
 74
0
 49
-0.075
 74
0
 49
0.075
 74
0
 49
-0.075
 74
0
  0
LTYPE
  5
1F6
100
AcDbSymbolTableRecord
100
AcDbLinetypeTableRecord
  2
HIDDEN
 70
64
  3
- - - - - - - - - - - - - - - - - - - -
 72
65
 73
2
 40
0.2
 49
0.1
 74
0
 49
-0.1
 74
0
  0
LTYPE
  5
1F7
100
AcDbSymbolTableRecord
100
AcDbLinetypeTableRecord
  2
PHANTOM
 70
64
  3
_____ _ _ _____ _ _ _____ _ _ _____
 72
65
 73
6
 40
0.8
 49
0.45
 74
0
 49
-0.05
 74
0
 49
0.1
 74
0
 49
-0.05
 74
0
 49
0.1
 74
0
 49
-0.05
 74
0
  0
LTYPE
  5
1F8
100
AcDbSymbolTableRecord
100
AcDbLinetypeTableRecord
  2
DOT
 70
64
  3
. . . . . . . . . . . . . . . . . . . .
 72
65
 73
2
 40
0.2
 49
0.1
 74
0
 49
-0.1
 74
0
  0
LTYPE
  5
1F9
100
AcDbSymbolTableRecord
100
AcDbLinetypeTableRecord
  2
DASHED
 70
64
  3
- - - - - - - - - - - - - - - - - - - -
 72
65
 73
2
 40
0.2
 49
0.1
 74
0
 49
-0.1
 74
0
  0
ENDTAB
  0
TABLE
  2
LAYER
  5
2
100
AcDbSymbolTable
 70
36
  0
LAYER
  5
10
100
AcDbSymbolTableRecord
100
AcDbLayerTableRecord
  2
0
 70
0
 62
7
  6
CONTINUOUS
370
-3
390
F
  0
LAYER
  5
1FA
100
AcDbSymbolTableRecord
100
AcDbLayerTableRecord
  2
DEFAULT_1
 70
0
 62
7
  6
CENTER
370
-3
390
F
  0
LAYER
  5
1FB
100
AcDbSymbolTableRecord
100
AcDbLayerTableRecord
  2
DEFAULT_2
 70
0
 62
7
  6
HIDDEN
370
-3
390
F
  0
LAYER
  5
1FC
100
AcDbSymbolTableRecord
100
AcDbLayerTableRecord
  2
DEFAULT_3
 70
0
 62
7
  6
PHANTOM
370
-3
390
F
  0
LAYER
  5
1FD
100
AcDbSymbolTableRecord
100
AcDbLayerTableRecord
  2
ASSI
 70
0
 62
7
  6
CONTINUOUS
370
-3
390
F
  0
LAYER
  5
1FE
100
AcDbSymbolTableRecord
100
AcDbLayerTableRecord
  2
COORDINATE
 70
0
 62
7
  6
CONTINUOUS
370
-3
390
F
  0
LAYER
  5
1FF
100
AcDbSymbolTableRecord
100
AcDbLayerTableRecord
  2
COPY_PUBLISH
 70
0
 62
7
  6
CONTINUOUS
370
-3
390
F
  0
LAYER
  5
200
100
AcDbSymbolTableRecord
100
AcDbLayerTableRecord
  2
COSMETICI
 70
0
 62
7
  6
CONTINUOUS
370
-3
390
F
  0
LAYER
  5
201
100
AcDbSymbolTableRecord
100
AcDbLayerTableRecord
  2
COSTOLE_APPOGGIO
 70
0
 62
7
  6
CONTINUOUS
370
-3
390
F
  0
LAYER
  5
202
100
AcDbSymbolTableRecord
100
AcDbLayerTableRecord
  2
CURVE
 70
0
 62
7
  6
CONTINUOUS
370
-3
390
F
  0
LAYER
  5
203
100
AcDbSymbolTableRecord
100
AcDbLayerTableRecord
  2
DRAFT
 70
0
 62
7
  6
CONTINUOUS
370
-3
390
F
  0
LAYER
  5
204
100
AcDbSymbolTableRecord
100
AcDbLayerTableRecord
  2
IMPORT_IGES
 70
0
 62
7
  6
CONTINUOUS
370
-3
390
F
  0
LAYER
  5
205
100
AcDbSymbolTableRecord
100
AcDbLayerTableRecord
  2
INTF_1
 70
0
 62
7
  6
CONTINUOUS
370
-3
390
F
  0
LAYER
  5
206
100
AcDbSymbolTableRecord
100
AcDbLayerTableRecord
  2
NOTE
 70
0
 62
7
  6
CONTINUOUS
370
-3
390
F
  0
LAYER
  5
207
100
AcDbSymbolTableRecord
100
AcDbLayerTableRecord
  2
PIANI
 70
0
 62
7
  6
CONTINUOUS
370
-3
390
F
  0
LAYER
  5
208
100
AcDbSymbolTableRecord
100
AcDbLayerTableRecord
  2
PUNTI
 70
0
 62
7
  6
CONTINUOUS
370
-3
390
F
  0
LAYER
  5
209
100
AcDbSymbolTableRecord
100
AcDbLayerTableRecord
  2
RACCORDO
 70
0
 62
7
  6
CONTINUOUS
370
-3
390
F
  0
LAYER
  5
20A
100
AcDbSymbolTableRecord
100
AcDbLayerTableRecord
  2
SCRITTA
 70
0
 62
7
  6
CONTINUOUS
370
-3
390
F
  0
LAYER
  5
20B
100
AcDbSymbolTableRecord
100
AcDbLayerTableRecord
  2
SIMBOLI
 70
0
 62
7
  6
CONTINUOUS
370
-3
390
F
  0
LAYER
  5
20C
100
AcDbSymbolTableRecord
100
AcDbLayerTableRecord
  2
SMUSSO
 70
0
 62
7
  6
CONTINUOUS
370
-3
390
F
  0
LAYER
  5
20D
100
AcDbSymbolTableRecord
100
AcDbLayerTableRecord
  2
SNAPLINE
 70
0
 62
7
  6
CONTINUOUS
370
-3
390
F
  0
LAYER
  5
20E
100
AcDbSymbolTableRecord
100
AcDbLayerTableRecord
  2
SUPERFICI
 70
0
 62
7
  6
CONTINUOUS
370
-3
390
F
  0
LAYER
  5
20F
100
AcDbSymbolTableRecord
100
AcDbLayerTableRecord
  2
TRASH
 70
0
 62
7
  6
CONTINUOUS
370
-3
390
F
  0
ENDTAB
  0
TABLE
  2
STYLE
  5
3
100
AcDbSymbolTable
 70
1
  0
STYLE
  5
11
100
AcDbSymbolTableRecord
100
AcDbTextStyleTableRecord
  2
STANDARD
 70
0
 40
0.0
 41
0.8
 50
0.0
 71
0
 42
0.2
  3
txt
  4

  0
STYLE
  5
210
100
AcDbSymbolTableRecord
100
AcDbTextStyleTableRecord
  2
TEXTSTYLE_1
 70
0
 40
0.0
 41
0.8
 50
0.0
 71
0
 42
0.2
  3
gdt
  4

  0
ENDTAB
  0
TABLE
  2
VIEW
  5
6
100
AcDbSymbolTable
 70
0
  0
ENDTAB
  0
TABLE
  2
UCS
  5
7
100
AcDbSymbolTable
 70
0
  0
ENDTAB
  0
TABLE
  2
APPID
  5
9
100
AcDbSymbolTable
 70
1
  0
APPID
  5
211
100
AcDbSymbolTableRecord
100
AcDbRegAppTableRecord
  2
ACAD
 70
0
  0
ENDTAB
  0
TABLE
  2
BLOCK_RECORD
  5
1
100
AcDbSymbolTable
 70
0
  0
BLOCK_RECORD
  5
212
100
AcDbSymbolTableRecord
100
AcDbBlockTableRecord
  2
*Model_Space
  0
BLOCK_RECORD
  5
213
100
AcDbSymbolTableRecord
100
AcDbBlockTableRecord
  2
*Paper_Space
  0
BLOCK_RECORD
  5
214
100
AcDbSymbolTableRecord
100
AcDbBlockTableRecord
  2
_FILLED
  0
BLOCK_RECORD
  5
215
100
AcDbSymbolTableRecord
100
AcDbBlockTableRecord
  2
*D0
  0
BLOCK_RECORD
  5
216
100
AcDbSymbolTableRecord
100
AcDbBlockTableRecord
  2
*D1
  0
BLOCK_RECORD
  5
217
100
AcDbSymbolTableRecord
100
AcDbBlockTableRecord
  2
*D2
  0
ENDTAB
  0
TABLE
  2
DIMSTYLE
  5
A
100
AcDbSymbolTable
 70
1
100
AcDbDimStyleTable
 71
0
  0
DIMSTYLE
105
218
100
AcDbSymbolTableRecord
100
AcDbDimStyleTableRecord
  2
STANDARD
 70
0
  3

  4

 40
1.0
 41
3.0
 42
0.0625
 43
0.38
 44
0.18
 45
0.0
 46
0.0
 47
0.01
 48
0.01
140
3.0
141
0.09
142
0.0
143
25.4
144
1.0
145
0.0
146
1.0
147
0.09
 71
1.0
 72
0.0
 73
0
 74
0
 75
0
 76
0
 77
1
 78
8
170
0
171
2
172
0
173
0
174
0
175
0
176
0
177
0
178
0
270
2
271
2
272
2
273
2
274
2
275
0
280
0
281
0
282
0
283
1
284
8
285
0
286
0
287
3
288
0
340
11
341
214
342
214
343
214
344
214
  0
DIMSTYLE
105
219
100
AcDbSymbolTableRecord
100
AcDbDimStyleTableRecord
  2
DIMSTYLE_1
 70
0
  3

  4

 40
1.0
 41
3.0
 42
0.0625
 43
0.38
 44
0.18
 45
0.0
 46
0.0
 47
0.0
 48
0.0
140
3.0
141
0.09
142
0.0
143
25.4
144
1.0
145
0.0
146
1.0
147
0.09
 71
0.0
 72
0.0
 73
0
 74
0
 75
0
 76
0
 77
1
 78
8
170
0
171
2
172
0
173
0
174
0
175
0
176
0
177
0
178
0
270
2
271
2
272
2
273
2
274
2
275
0
280
0
281
0
282
0
283
1
284
8
285
0
286
0
287
3
288
0
340
11
341
214
342
214
343
214
344
214
  0
DIMSTYLE
105
21A
100
AcDbSymbolTableRecord
100
AcDbDimStyleTableRecord
  2
DIMSTYLE_2
 70
0
  3

  4

 40
1.0
 41
3.0
 42
0.0625
 43
0.38
 44
0.18
 45
0.0
 46
0.0
 47
0.0
 48
0.0
140
3.0
141
0.09
142
0.0
143
25.4
144
1.0
145
0.0
146
1.0
147
0.09
 71
0.0
 72
0.0
 73
0
 74
0
 75
0
 76
0
 77
1
 78
8
170
0
171
2
172
0
173
0
174
0
175
0
176
0
177
0
178
0
270
2
271
1
272
1
273
2
274
2
275
0
280
0
281
0
282
0
283
1
284
8
285
0
286
0
287
3
288
0
340
11
341
214
342
214
343
214
344
214
  0
ENDTAB
  0
ENDSEC
  0
SECTION
  2
BLOCKS
  0
BLOCK
  5
20
100
AcDbEntity
  8
0
100
AcDbBlockBegin
  2
*Model_Space
 70
0
 10
0.0
 20
0.0
 30
0.0
  3
*Model_Space
  1

  0
ENDBLK
  5
21
100
AcDbEntity
  8
0
100
AcDbBlockEnd
  0
BLOCK
  5
1C
100
AcDbEntity
  8
0
100
AcDbBlockBegin
  2
*Paper_Space
 70
0
 10
0.0
 20
0.0
 30
0.0
  3
*Paper_Space
  1

  0
ENDBLK
  5
1D
100
AcDbEntity
  8
0
100
AcDbBlockEnd
  0
BLOCK
  5
21B
100
AcDbEntity
  8
0
100
AcDbBlockBegin
  2
_FILLED
 70
64
 10
0.0
 20
0.0
  3
_FILLED
  1

  0
SOLID
  5
21C
100
AcDbEntity
  8
0
  6
BYBLOCK
 62
0
100
AcDbTrace
 10
0.0
 20
0.0
 11
-1.0
 21
0.3166666667
 12
-1.0
 22
-0.3166666667
 13
-1.0
 23
-0.3166666667
  0
ENDBLK
  5
21D
100
AcDbEntity
  8
0
  6
BYBLOCK
 62
0
100
AcDbBlockEnd
  0
BLOCK
  5
21E
100
AcDbEntity
  8
0
100
AcDbBlockBegin
 62
7
  6
CONTINUOUS
  2
*D0
 70
65
 10
0.0
 20
0.0
  3
*D0
  1

  0
LINE
  5
21F
100
AcDbEntity
  8
0
100
AcDbLine
 62
7
  6
CONTINUOUS
 10
232.7755317983
 20
121.1221528695
 11
249.5755317983
 21
121.1221528695
  0
LINE
  5
220
100
AcDbEntity
  8
0
100
AcDbLine
 62
7
  6
CONTINUOUS
 10
232.7755317983
 20
31.1221528695
 11
249.5755317983
 21
31.1221528695
  0
LINE
  5
221
100
AcDbEntity
  8
0
100
AcDbLine
 62
7
  6
CONTINUOUS
 10
248.0755317983
 20
121.1221528695
 11
248.0755317983
 21
76.1221528695
  0
LINE
  5
222
100
AcDbEntity
  8
0
100
AcDbLine
 62
7
  6
CONTINUOUS
 10
248.0755317983
 20
31.1221528695
 11
248.0755317983
 21
76.1221528695
  0
INSERT
  5
223
100
AcDbEntity
  8
0
100
AcDbBlockReference
 62
7
  6
CONTINUOUS
  2
_FILLED
 10
248.0755317983
 20
121.1221528695
 41
3.0
 42
3.0
 43
3.0
 50
90.0
  0
INSERT
  5
224
100
AcDbEntity
  8
0
100
AcDbBlockReference
 62
7
  6
CONTINUOUS
  2
_FILLED
 10
248.0755317983
 20
31.1221528695
 41
3.0
 42
3.0
 43
3.0
 50
270.0
  0
ENDBLK
  5
225
100
AcDbEntity
  8
0
  6
BYBLOCK
 62
0
100
AcDbBlockEnd
  0
BLOCK
  5
226
100
AcDbEntity
  8
0
100
AcDbBlockBegin
 62
7
  6
CONTINUOUS
  2
*D1
 70
65
 10
0.0
 20
0.0
  3
*D1
  1

  0
LINE
  5
227
100
AcDbEntity
  8
0
100
AcDbLine
 62
7
  6
CONTINUOUS
 10
233.0755317983
 20
120.8221528695
 11
233.0755317983
 21
140.6221528695
  0
LINE
  5
228
100
AcDbEntity
  8
0
100
AcDbLine
 62
7
  6
CONTINUOUS
 10
111.0755317983
 20
120.8221528695
 11
111.0755317983
 21
140.6221528695
  0
LINE
  5
229
100
AcDbEntity
  8
0
100
AcDbLine
 62
7
  6
CONTINUOUS
 10
233.0755317983
 20
139.1221528695
 11
172.0755317983
 21
139.1221528695
  0
LINE
  5
22A
100
AcDbEntity
  8
0
100
AcDbLine
 62
7
  6
CONTINUOUS
 10
111.0755317983
 20
139.1221528695
 11
172.0755317983
 21
139.1221528695
  0
INSERT
  5
22B
100
AcDbEntity
  8
0
100
AcDbBlockReference
 62
7
  6
CONTINUOUS
  2
_FILLED
 10
233.0755317983
 20
139.1221528695
 41
3.0
 42
3.0
 43
3.0
  0
INSERT
  5
22C
100
AcDbEntity
  8
0
100
AcDbBlockReference
 62
7
  6
CONTINUOUS
  2
_FILLED
 10
111.0755317983
 20
139.1221528695
 41
3.0
 42
3.0
 43
3.0
 50
180.0
  0
ENDBLK
  5
22D
100
AcDbEntity
  8
0
  6
BYBLOCK
 62
0
100
AcDbBlockEnd
  0
BLOCK
  5
22E
100
AcDbEntity
  8
0
100
AcDbBlockBegin
 62
7
  6
CONTINUOUS
  2
*D2
 70
65
 10
0.0
 20
0.0
  3
*D2
  1

  0
LINE
  5
22F
100
AcDbEntity
  8
0
100
AcDbLine
 62
7
  6
CONTINUOUS
 10
89.6757418693
 20
119.1846825591
 11
89.6757418693
 21
140.6221528695
  0
LINE
  5
230
100
AcDbEntity
  8
0
100
AcDbLine
 62
7
  6
CONTINUOUS
 10
81.1057418693
 20
76.6221528695
 11
81.1057418693
 21
140.6221528695
  0
LINE
  5
231
100
AcDbEntity
  8
0
100
AcDbLine
 62
7
  6
CONTINUOUS
 10
89.6757418693
 20
139.1221528695
 11
85.3907418693
 21
139.1221528695
  0
LINE
  5
232
100
AcDbEntity
  8
0
100
AcDbLine
 62
7
  6
CONTINUOUS
 10
81.1057418693
 20
139.1221528695
 11
85.3907418693
 21
139.1221528695
  0
LINE
  5
233
100
AcDbEntity
  8
0
100
AcDbLine
 62
7
  6
CONTINUOUS
 10
85.3907418693
 20
139.1221528695
 11
71.5036355666
 21
139.1221528695
  0
INSERT
  5
234
100
AcDbEntity
  8
0
100
AcDbBlockReference
 62
7
  6
CONTINUOUS
  2
_FILLED
 10
89.6757418693
 20
139.1221528695
 41
3.0
 42
3.0
 43
3.0
  0
INSERT
  5
235
100
AcDbEntity
  8
0
100
AcDbBlockReference
 62
7
  6
CONTINUOUS
  2
_FILLED
 10
81.1057418693
 20
139.1221528695
 41
3.0
 42
3.0
 43
3.0
 50
180.0
  0
ENDBLK
  5
236
100
AcDbEntity
  8
0
  6
BYBLOCK
 62
0
100
AcDbBlockEnd
  0
ENDSEC
  0
SECTION
  2
ENTITIES
  0
DIMENSION
  5
237
100
AcDbEntity
  8
0
100
AcDbDimension
 62
7
  6
CONTINUOUS
  2
*D0
 10
248.0755317983
 20
31.1221528695
 11
247.3255317983
 21
73.7650100123
 70
160
 71
2
 42
90.0
  3
DIMSTYLE_1
100
AcDbAlignedDimension
 13
232.7755317983
 23
121.1221528695
 14
232.7755317983
 24
31.1221528695
 50
270.0
100
AcDbRotatedDimension
  0
DIMENSION
  5
238
100
AcDbEntity
  8
0
100
AcDbDimension
 62
7
  6
CONTINUOUS
  2
*D1
 10
111.0755317983
 20
139.1221528695
 11
168.8612460841
 21
139.8721528695
 70
160
 71
2
 42
122.0
  3
DIMSTYLE_1
100
AcDbAlignedDimension
 13
233.0755317983
 23
120.8221528695
 14
111.0755317983
 24
120.8221528695
 50
180.0
100
AcDbRotatedDimension
  0
DIMENSION
  5
239
100
AcDbEntity
  8
0
100
AcDbDimension
 62
7
  6
CONTINUOUS
  2
*D2
 10
81.1057418693
 20
139.1221528695
 11
71.5036355666
 21
139.8721528695
 70
160
 71
3
 42
8.57
  3
DIMSTYLE_2
100
AcDbAlignedDimension
 13
89.6757418693
 23
119.1846825591
 14
81.1057418693
 24
76.6221528695
 50
180.0
100
AcDbRotatedDimension
  0
LWPOLYLINE
  5
23A
100
AcDbEntity
  8
RACCORDO
100
AcDbPolyline
 62
253
  6
CONTINUOUS
 90
19
 70
0
 10
111.1861914776
 20
120.2125097907
 10
111.1915216862
 20
120.2197952944
 10
111.2001902998
 20
120.2269774492
 10
111.2121385822
 20
120.2340075906
 10
111.2272855752
 20
120.2408380839
 10
111.245528647
 20
120.2474226473
 10
111.2667441878
 20
120.2537166655
 10
111.2907884471
 20
120.2596774917
 10
111.3174985076
 20
120.2652647367
 10
111.3466933895
 20
120.2704405427
 10
111.3781752766
 20
120.2751698398
 10
111.4117308564
 20
120.2794205834
 10
111.4471327658
 20
120.2831639715
 10
111.4841411314
 20
120.2863746399
 10
111.522505195
 20
120.289030834
 10
111.5619650124
 20
120.291114556
 10
111.6022532151
 20
120.2926116874
 10
111.6430968214
 20
120.293512084
 10
111.6842190868
 20
120.2938096451
  0
LWPOLYLINE
  5
23B
100
AcDbEntity
  8
ASSI
100
AcDbPolyline
 62
253
  6
CONTINUOUS
 90
19
 70
0
 10
111.1861914776
 20
120.2125097907
 10
111.1915216862
 20
120.2197952944
 10
111.2001902998
 20
120.2269774492
 10
111.2121385822
 20
120.2340075906
 10
111.2272855752
 20
120.2408380839
 10
111.245528647
 20
120.2474226473
 10
111.2667441878
 20
120.2537166655
 10
111.2907884471
 20
120.2596774917
 10
111.3174985076
 20
120.2652647367
 10
111.3466933895
 20
120.2704405427
 10
111.3781752766
 20
120.2751698398
 10
111.4117308564
 20
120.2794205834
 10
111.4471327658
 20
120.2831639715
 10
111.4841411314
 20
120.2863746399
 10
111.522505195
 20
120.289030834
 10
111.5619650124
 20
120.291114556
 10
111.6022532151
 20
120.2926116874
 10
111.6430968214
 20
120.293512084
 10
111.6842190868
 20
120.2938096451
  0
LWPOLYLINE
  5
23C
100
AcDbEntity
  8
RACCORDO
100
AcDbPolyline
 62
253
  6
CONTINUOUS
 90
19
 70
0
 10
111.1861849746
 20
32.0317958441
 10
111.1915152925
 20
32.0245103638
 10
111.2001840617
 20
32.0173282302
 10
111.2121325446
 20
32.0102981079
 10
111.227279781
 20
32.0034676315
 10
111.2455231364
 20
31.9968830826
 10
111.266738998
 20
31.9905890768
 10
111.2907836119
 20
31.9846282608
 10
111.317494057
 20
31.9790410238
 10
111.3466893493
 20
31.9738652237
 10
111.3781716681
 20
31.9691359305
 10
111.4117276962
 20
31.964885189
 10
111.4471300653
 20
31.961141801
 10
111.4841388968
 20
31.9579311311
 10
111.5225034272
 20
31.955274934
 10
111.561963707
 20
31.9531912075
 10
111.602252362
 20
31.9516940705
 10
111.6430964053
 20
31.9507936673
 10
111.6842190868
 20
31.9504960987
  0
LWPOLYLINE
  5
23D
100
AcDbEntity
  8
ASSI
100
AcDbPolyline
 62
253
  6
CONTINUOUS
 90
19
 70
0
 10
111.1861849746
 20
32.0317958441
 10
111.1915152925
 20
32.0245103638
 10
111.2001840617
 20
32.0173282302
 10
111.2121325446
 20
32.0102981079
 10
111.227279781
 20
32.0034676315
 10
111.2455231364
 20
31.9968830826
 10
111.266738998
 20
31.9905890768
 10
111.2907836119
 20
31.9846282608
 10
111.317494057
 20
31.9790410238
 10
111.3466893493
 20
31.9738652237
 10
111.3781716681
 20
31.9691359305
 10
111.4117276962
 20
31.964885189
 10
111.4471300653
 20
31.961141801
 10
111.4841388968
 20
31.9579311311
 10
111.5225034272
 20
31.955274934
 10
111.561963707
 20
31.9531912075
 10
111.602252362
 20
31.9516940705
 10
111.6430964053
 20
31.9507936673
 10
111.6842190868
 20
31.9504960987
  0
LINE
  5
23E
100
AcDbEntity
  8
RACCORDO
100
AcDbLine
 62
7
  6
CONTINUOUS
 10
111.0755317983
 20
31.9221528695
 11
111.0755317983
 21
53.6075306472
  0
LINE
  5
23F
100
AcDbEntity
  8
DRAFT
100
AcDbLine
 62
7
  6
CONTINUOUS
 10
111.0755317983
 20
53.6075306472
 11
111.0755317983
 21
98.6367750917
  0
LINE
  5
240
100
AcDbEntity
  8
RACCORDO
100
AcDbLine
 62
7
  6
CONTINUOUS
 10
111.0755317983
 20
98.6367750917
 11
111.0755317983
 21
120.3221528695
  0
LINE
  5
241
100
AcDbEntity
  8
ASSI
100
AcDbLine
 62
7
  6
CONTINUOUS
 10
111.0755317983
 20
31.9221528695
 11
111.0755317983
 21
120.3221528695
  0
LINE
  5
242
100
AcDbEntity
  8
RACCORDO
100
AcDbLine
 62
253
  6
CONTINUOUS
 10
111.1861849716
 20
32.0317958541
 11
111.1843543253
 21
68.614489818
  0
LINE
  5
243
100
AcDbEntity
  8
ASSI
100
AcDbLine
 62
253
  6
CONTINUOUS
 10
111.1861849716
 20
32.0317958541
 11
111.1843543253
 21
68.614489818
  0
LINE
  5
244
100
AcDbEntity
  8
RACCORDO
100
AcDbLine
 62
253
  6
CONTINUOUS
 10
111.6842190868
 20
31.9504960907
 11
111.6824511351
 21
68.6068681454
  0
LINE
  5
245
100
AcDbEntity
  8
ASSI
100
AcDbLine
 62
253
  6
CONTINUOUS
 10
111.6842190868
 20
31.9504960907
 11
111.6824511351
 21
68.6068681454
  0
LINE
  5
246
100
AcDbEntity
  8
RACCORDO
100
AcDbLine
 62
253
  6
CONTINUOUS
 10
111.978346978
 20
121.0014874967
 11
111.978346978
 21
120.5935482352
  0
LINE
  5
247
100
AcDbEntity
  8
ASSI
100
AcDbLine
 62
253
  6
CONTINUOUS
 10
111.978346978
 20
121.0014874967
 11
111.978346978
 21
120.5935482352
  0
LINE
  5
248
100
AcDbEntity
  8
RACCORDO
100
AcDbLine
 62
253
  6
CONTINUOUS
 10
111.978346978
 20
31.2428182423
 11
111.978346978
 21
31.6507575037
  0
LINE
  5
249
100
AcDbEntity
  8
ASSI
100
AcDbLine
 62
253
  6
CONTINUOUS
 10
111.978346978
 20
31.2428182423
 11
111.978346978
 21
31.6507575037
  0
LWPOLYLINE
  5
24A
100
AcDbEntity
  8
RACCORDO
100
AcDbPolyline
 62
253
  6
CONTINUOUS
 90
3
 70
0
 10
111.1843543253
 20
68.614489818
 10
111.1846862257
 20
103.5048006487
 10
111.1861849716
 20
120.2125098849
  0
LWPOLYLINE
  5
24B
100
AcDbEntity
  8
ASSI
100
AcDbPolyline
 62
253
  6
CONTINUOUS
 90
3
 70
0
 10
111.1843543253
 20
68.614489818
 10
111.1846862257
 20
103.5048006487
 10
111.1861849716
 20
120.2125098849
  0
LWPOLYLINE
  5
24C
100
AcDbEntity
  8
RACCORDO
100
AcDbPolyline
 62
253
  6
CONTINUOUS
 90
3
 70
0
 10
111.6824511351
 20
68.6068681454
 10
111.6827781983
 20
103.540764806
 10
111.6842190868
 20
120.2938096483
  0
LWPOLYLINE
  5
24D
100
AcDbEntity
  8
ASSI
100
AcDbPolyline
 62
253
  6
CONTINUOUS
 90
3
 70
0
 10
111.6824511351
 20
68.6068681454
 10
111.6827781983
 20
103.540764806
 10
111.6842190868
 20
120.2938096483
  0
LWPOLYLINE
  5
24E
100
AcDbEntity
  8
RACCORDO
100
AcDbPolyline
 62
253
  6
CONTINUOUS
 90
25
 70
0
 10
111.6842190868
 20
120.2938096483
 10
111.6848624016
 20
120.3136855165
 10
111.6867371512
 20
120.3333033887
 10
111.6898433355
 20
120.3526632812
 10
111.6942052369
 20
120.3718508715
 10
111.6997985731
 20
120.3907805107
 10
111.7065504966
 20
120.4091952415
 10
111.7144749014
 20
120.4270808141
 10
111.7235578935
 20
120.4444515401
 10
111.7336849443
 20
120.4610933313
 10
111.7448692658
 20
120.4769972504
 10
111.757097646
 20
120.4921723133
 10
111.7702159203
 20
120.506431381
 10
111.7842353801
 20
120.5197629534
 10
111.799144734
 20
120.5321786144
 10
111.8147559429
 20
120.5435258632
 10
111.8310765267
 20
120.5537904871
 10
111.8480989655
 20
120.5629867756
 10
111.8656126605
 20
120.5710049848
 10
111.8836304874
 20
120.5778310815
 10
111.9021395706
 20
120.5834791572
 10
111.9208906838
 20
120.5878816528
 10
111.9398007518
 20
120.5910160596
 10
111.9589528498
 20
120.5929049178
 10
111.978346978
 20
120.5935482352
  0
LWPOLYLINE
  5
24F
100
AcDbEntity
  8
ASSI
100
AcDbPolyline
 62
253
  6
CONTINUOUS
 90
25
 70
0
 10
111.6842190868
 20
120.2938096483
 10
111.6848624016
 20
120.3136855165
 10
111.6867371512
 20
120.3333033887
 10
111.6898433355
 20
120.3526632812
 10
111.6942052369
 20
120.3718508715
 10
111.6997985731
 20
120.3907805107
 10
111.7065504966
 20
120.4091952415
 10
111.7144749014
 20
120.4270808141
 10
111.7235578935
 20
120.4444515401
 10
111.7336849443
 20
120.4610933313
 10
111.7448692658
 20
120.4769972504
 10
111.757097646
 20
120.4921723133
 10
111.7702159203
 20
120.506431381
 10
111.7842353801
 20
120.5197629534
 10
111.799144734
 20
120.5321786144
 10
111.8147559429
 20
120.5435258632
 10
111.8310765267
 20
120.5537904871
 10
111.8480989655
 20
120.5629867756
 10
111.8656126605
 20
120.5710049848
 10
111.8836304874
 20
120.5778310815
 10
111.9021395706
 20
120.5834791572
 10
111.9208906838
 20
120.5878816528
 10
111.9398007518
 20
120.5910160596
 10
111.9589528498
 20
120.5929049178
 10
111.978346978
 20
120.5935482352
  0
LWPOLYLINE
  5
250
100
AcDbEntity
  8
RACCORDO
100
AcDbPolyline
 62
253
  6
CONTINUOUS
 90
25
 70
0
 10
111.1861849714
 20
120.212509885
 10
111.1886140097
 20
120.2644812918
 10
111.1943796598
 20
120.3161438935
 10
111.2034512916
 20
120.3672839207
 10
111.215782434
 20
120.4176896928
 10
111.2313172147
 20
120.4671541819
 10
111.2499919927
 20
120.5154754405
 10
111.2717257028
 20
120.5624573183
 10
111.2964220507
 20
120.6079043862
 10
111.3239766574
 20
120.651624355
 10
111.3542693415
 20
120.6934366834
 10
111.3871706764
 20
120.733173239
 10
111.4225461039
 20
120.7706722607
 10
111.4602450755
 20
120.8057801148
 10
111.5001087336
 20
120.8383554653
 10
111.5419776782
 20
120.8682683644
 10
111.5856791803
 20
120.8953974933
 10
111.6310287002
 20
120.9196313794
 10
111.6778391713
 20
120.9408707744
 10
111.7259109004
 20
120.9590270815
 10
111.7750491262
 20
120.9740295046
 10
111.825067818
 20
120.9858209861
 10
111.8757665045
 20
120.9943514308
 10
111.9269300194
 20
120.9995816339
 10
111.978346978
 20
121.0014874967
  0
LWPOLYLINE
  5
251
100
AcDbEntity
  8
ASSI
100
AcDbPolyline
 62
253
  6
CONTINUOUS
 90
25
 70
0
 10
111.1861849714
 20
120.212509885
 10
111.1886140097
 20
120.2644812918
 10
111.1943796598
 20
120.3161438935
 10
111.2034512916
 20
120.3672839207
 10
111.215782434
 20
120.4176896928
 10
111.2313172147
 20
120.4671541819
 10
111.2499919927
 20
120.5154754405
 10
111.2717257028
 20
120.5624573183
 10
111.2964220507
 20
120.6079043862
 10
111.3239766574
 20
120.651624355
 10
111.3542693415
 20
120.6934366834
 10
111.3871706764
 20
120.733173239
 10
111.4225461039
 20
120.7706722607
 10
111.4602450755
 20
120.8057801148
 10
111.5001087336
 20
120.8383554653
 10
111.5419776782
 20
120.8682683644
 10
111.5856791803
 20
120.8953974933
 10
111.6310287002
 20
120.9196313794
 10
111.6778391713
 20
120.9408707744
 10
111.7259109004
 20
120.9590270815
 10
111.7750491262
 20
120.9740295046
 10
111.825067818
 20
120.9858209861
 10
111.8757665045
 20
120.9943514308
 10
111.9269300194
 20
120.9995816339
 10
111.978346978
 20
121.0014874967
  0
LWPOLYLINE
  5
252
100
AcDbEntity
  8
0
100
AcDbPolyline
 62
7
  6
CONTINUOUS
 90
3
 70
0
 43
0.3500000006
 10
168.8612497559
 20
142.0150026855
 10
169.7183876953
 20
142.8721587524
 10
169.7183876953
 20
139.8721578369
  0
LWPOLYLINE
  5
253
100
AcDbEntity
  8
RACCORDO
100
AcDbPolyline
 62
253
  6
CONTINUOUS
 90
25
 70
0
 10
111.978346978
 20
31.6507575037
 10
111.9589487968
 20
31.6514016111
 10
111.9397941215
 20
31.6532910251
 10
111.9208829521
 20
31.6564257536
 10
111.9021326267
 20
31.6608284183
 10
111.8836258072
 20
31.6664764288
 10
111.8656104794
 20
31.6733019811
 10
111.8480992175
 20
31.6813190802
 10
111.8310794472
 20
31.6905137793
 10
111.8147614317
 20
31.7007763485
 10
111.7991530966
 20
31.7121203785
 10
111.7842465161
 20
31.7245323555
 10
111.7702281765
 20
31.7378618883
 10
111.7571081722
 20
31.7521217642
 10
111.7448764087
 20
31.7672992801
 10
111.7336890884
 20
31.7832057984
 10
111.7235600893
 20
31.7998499301
 10
111.7144755334
 20
31.8172231428
 10
111.7065499884
 20
31.8351110649
 10
111.6997974215
 20
31.8535283289
 10
111.6942038655
 20
31.872460364
 10
111.6898419873
 20
31.8916489669
 10
111.6867360093
 20
31.9110080733
 10
111.6848617091
 20
31.9306237758
 10
111.6842190868
 20
31.9504960907
  0
LWPOLYLINE
  5
254
100
AcDbEntity
  8
ASSI
100
AcDbPolyline
 62
253
  6
CONTINUOUS
 90
25
 70
0
 10
111.978346978
 20
31.6507575037
 10
111.9589487968
 20
31.6514016111
 10
111.9397941215
 20
31.6532910251
 10
111.9208829521
 20
31.6564257536
 10
111.9021326267
 20
31.6608284183
 10
111.8836258072
 20
31.6664764288
 10
111.8656104794
 20
31.6733019811
 10
111.8480992175
 20
31.6813190802
 10
111.8310794472
 20
31.6905137793
 10
111.8147614317
 20
31.7007763485
 10
111.7991530966
 20
31.7121203785
 10
111.7842465161
 20
31.7245323555
 10
111.7702281765
 20
31.7378618883
 10
111.7571081722
 20
31.7521217642
 10
111.7448764087
 20
31.7672992801
 10
111.7336890884
 20
31.7832057984
 10
111.7235600893
 20
31.7998499301
 10
111.7144755334
 20
31.8172231428
 10
111.7065499884
 20
31.8351110649
 10
111.6997974215
 20
31.8535283289
 10
111.6942038655
 20
31.872460364
 10
111.6898419873
 20
31.8916489669
 10
111.6867360093
 20
31.9110080733
 10
111.6848617091
 20
31.9306237758
 10
111.6842190868
 20
31.9504960907
  0
LWPOLYLINE
  5
255
100
AcDbEntity
  8
RACCORDO
100
AcDbPolyline
 62
253
  6
CONTINUOUS
 90
25
 70
0
 10
111.978346978
 20
31.2428182423
 10
111.9269304057
 20
31.2447240806
 10
111.8757670992
 20
31.2499542359
 10
111.8250684441
 20
31.2584846439
 10
111.775049516
 20
31.2702761654
 10
111.725910895
 20
31.2852787187
 10
111.677838901
 20
31.3034351438
 10
111.6310283936
 20
31.3246745566
 10
111.5856789457
 20
31.348908384
 10
111.5419775686
 20
31.3760373965
 10
111.5001087808
 20
31.4059501104
 10
111.4602453128
 20
31.4385251976
 10
111.4225465507
 20
31.4736327501
 10
111.3871713699
 20
31.5111314264
 10
111.3542702818
 20
31.5508675923
 10
111.3239777663
 20
31.5926795534
 10
111.2964232572
 20
31.6363991919
 10
111.2717269427
 20
31.6818459728
 10
111.2499931548
 20
31.728827679
 10
111.2313181952
 20
31.7771488979
 10
111.2157831769
 20
31.826613488
 10
111.2034517781
 20
31.8770195682
 10
111.1943799124
 20
31.9281601355
 10
111.1886140874
 20
31.979823489
 10
111.1861849714
 20
32.031795854
  0
LWPOLYLINE
  5
256
100
AcDbEntity
  8
ASSI
100
AcDbPolyline
 62
253
  6
CONTINUOUS
 90
25
 70
0
 10
111.978346978
 20
31.2428182423
 10
111.9269304057
 20
31.2447240806
 10
111.8757670992
 20
31.2499542359
 10
111.8250684441
 20
31.2584846439
 10
111.775049516
 20
31.2702761654
 10
111.725910895
 20
31.2852787187
 10
111.677838901
 20
31.3034351438
 10
111.6310283936
 20
31.3246745566
 10
111.5856789457
 20
31.348908384
 10
111.5419775686
 20
31.3760373965
 10
111.5001087808
 20
31.4059501104
 10
111.4602453128
 20
31.4385251976
 10
111.4225465507
 20
31.4736327501
 10
111.3871713699
 20
31.5111314264
 10
111.3542702818
 20
31.5508675923
 10
111.3239777663
 20
31.5926795534
 10
111.2964232572
 20
31.6363991919
 10
111.2717269427
 20
31.6818459728
 10
111.2499931548
 20
31.728827679
 10
111.2313181952
 20
31.7771488979
 10
111.2157831769
 20
31.826613488
 10
111.2034517781
 20
31.8770195682
 10
111.1943799124
 20
31.9281601355
 10
111.1886140874
 20
31.979823489
 10
111.1861849714
 20
32.031795854
  0
LWPOLYLINE
  5
257
100
AcDbEntity
  8
RACCORDO
100
AcDbPolyline
 62
253
  6
CONTINUOUS
 90
16
 70
0
 10
111.1844741264
 20
98.6992495267
 10
111.189756481
 20
98.7013011478
 10
111.19838399
 20
98.7033238565
 10
111.2102980905
 20
98.7053039228
 10
111.2254179108
 20
98.7072279063
 10
111.2436408185
 20
98.709082747
 10
111.2648431183
 20
98.7108558544
 10
111.2888808906
 20
98.712535193
 10
111.315590969
 20
98.7141093633
 10
111.3447920477
 20
98.7155676802
 10
111.3762859122
 20
98.7169002446
 10
111.4098587848
 20
98.7180980113
 10
111.4452827755
 20
98.7191528498
 10
111.4823174294
 20
98.7200576001
 10
111.5207113581
 20
98.7208061208
 10
111.5602039469
 20
98.7213933309
  0
LWPOLYLINE
  5
258
100
AcDbEntity
  8
ASSI
100
AcDbPolyline
 62
253
  6
CONTINUOUS
 90
16
 70
0
 10
111.1844741264
 20
98.6992495267
 10
111.189756481
 20
98.7013011478
 10
111.19838399
 20
98.7033238565
 10
111.2102980905
 20
98.7053039228
 10
111.2254179108
 20
98.7072279063
 10
111.2436408185
 20
98.709082747
 10
111.2648431183
 20
98.7108558544
 10
111.2888808906
 20
98.712535193
 10
111.315590969
 20
98.7141093633
 10
111.3447920477
 20
98.7155676802
 10
111.3762859122
 20
98.7169002446
 10
111.4098587848
 20
98.7180980113
 10
111.4452827755
 20
98.7191528498
 10
111.4823174294
 20
98.7200576001
 10
111.5207113581
 20
98.7208061208
 10
111.5602039469
 20
98.7213933309
  0
LWPOLYLINE
  5
259
100
AcDbEntity
  8
RACCORDO
100
AcDbPolyline
 62
253
  6
CONTINUOUS
 90
16
 70
0
 10
111.1844726403
 20
98.636777485
 10
111.1897549335
 20
98.6388235421
 10
111.1983823897
 20
98.6408408361
 10
111.2102964463
 20
98.6428156739
 10
111.2254162314
 20
98.6447346502
 10
111.243639113
 20
98.6465847393
 10
111.2648413953
 20
98.6483533829
 10
111.2888791588
 20
98.6500285755
 10
111.3155892367
 20
98.6515989461
 10
111.3447903228
 20
98.653053835
 10
111.376284202
 20
98.6543833666
 10
111.409857096
 20
98.6555785161
 10
111.4452811144
 20
98.656631171
 10
111.4823158012
 20
98.6575341858
 10
111.5207097675
 20
98.6582814309
 10
111.5602023976
 20
98.6588678342
  0
LWPOLYLINE
  5
25A
100
AcDbEntity
  8
ASSI
100
AcDbPolyline
 62
253
  6
CONTINUOUS
 90
16
 70
0
 10
111.1844726403
 20
98.636777485
 10
111.1897549335
 20
98.6388235421
 10
111.1983823897
 20
98.6408408361
 10
111.2102964463
 20
98.6428156739
 10
111.2254162314
 20
98.6447346502
 10
111.243639113
 20
98.6465847393
 10
111.2648413953
 20
98.6483533829
 10
111.2888791588
 20
98.6500285755
 10
111.3155892367
 20
98.6515989461
 10
111.3447903228
 20
98.653053835
 10
111.376284202
 20
98.6543833666
 10
111.409857096
 20
98.6555785161
 10
111.4452811144
 20
98.656631171
 10
111.4823158012
 20
98.6575341858
 10
111.5207097675
 20
98.6582814309
 10
111.5602023976
 20
98.6588678342
  0
LINE
  5
25B
100
AcDbEntity
  8
RACCORDO
100
AcDbLine
 62
7
  6
CONTINUOUS
 10
232.2755317983
 20
31.1221528695
 11
111.8755317983
 21
31.1221528695
  0
LINE
  5
25C
100
AcDbEntity
  8
ASSI
100
AcDbLine
 62
7
  6
CONTINUOUS
 10
232.2755317983
 20
31.1221528695
 11
111.8755317983
 21
31.1221528695
  0
LINE
  5
25D
100
AcDbEntity
  8
RACCORDO
100
AcDbLine
 62
253
  6
CONTINUOUS
 10
232.1727166186
 20
31.2428182423
 11
111.978346978
 21
31.2428182423
  0
LINE
  5
25E
100
AcDbEntity
  8
ASSI
100
AcDbLine
 62
253
  6
CONTINUOUS
 10
232.1727166186
 20
31.2428182423
 11
111.978346978
 21
31.2428182423
  0
LINE
  5
25F
100
AcDbEntity
  8
RACCORDO
100
AcDbLine
 62
253
  6
CONTINUOUS
 10
232.1727166187
 20
31.6507575037
 11
111.978346978
 21
31.6507575037
  0
LINE
  5
260
100
AcDbEntity
  8
ASSI
100
AcDbLine
 62
253
  6
CONTINUOUS
 10
232.1727166187
 20
31.6507575037
 11
111.978346978
 21
31.6507575037
  0
LWPOLYLINE
  5
261
100
AcDbEntity
  8
RACCORDO
100
AcDbPolyline
 62
253
  6
CONTINUOUS
 90
18
 70
0
 10
111.1844726408
 20
53.6075306472
 10
111.1897549344
 20
53.6054845904
 10
111.1983823909
 20
53.6034672966
 10
111.2102964478
 20
53.6014924591
 10
111.2254162331
 20
53.5995734829
 10
111.2436391149
 20
53.597723394
 10
111.2648413974
 20
53.5959547507
 10
111.2888791609
 20
53.5942795582
 10
111.3155892388
 20
53.5927091879
 10
111.3447903248
 20
53.5912542991
 10
111.3762842039
 20
53.5899247676
 10
111.4098570978
 20
53.5887296182
 10
111.445281116
 20
53.5876769635
 10
111.4823158026
 20
53.5867739488
 10
111.5207097687
 20
53.5860267037
 10
111.5602023985
 20
53.5854403005
 10
111.6005256188
 20
53.5850187196
 10
111.6825652057
 20
53.5846803332
  0
LWPOLYLINE
  5
262
100
AcDbEntity
  8
ASSI
100
AcDbPolyline
 62
253
  6
CONTINUOUS
 90
18
 70
0
 10
111.1844726408
 20
53.6075306472
 10
111.1897549344
 20
53.6054845904
 10
111.1983823909
 20
53.6034672966
 10
111.2102964478
 20
53.6014924591
 10
111.2254162331
 20
53.5995734829
 10
111.2436391149
 20
53.597723394
 10
111.2648413974
 20
53.5959547507
 10
111.2888791609
 20
53.5942795582
 10
111.3155892388
 20
53.5927091879
 10
111.3447903248
 20
53.5912542991
 10
111.3762842039
 20
53.5899247676
 10
111.4098570978
 20
53.5887296182
 10
111.445281116
 20
53.5876769635
 10
111.4823158026
 20
53.5867739488
 10
111.5207097687
 20
53.5860267037
 10
111.5602023985
 20
53.5854403005
 10
111.6005256188
 20
53.5850187196
 10
111.6825652057
 20
53.5846803332
  0
LWPOLYLINE
  5
263
100
AcDbEntity
  8
RACCORDO
100
AcDbPolyline
 62
253
  6
CONTINUOUS
 90
17
 70
0
 10
111.1844741246
 20
53.5450562123
 10
111.1897564773
 20
53.5430045911
 10
111.1983839847
 20
53.5409818823
 10
111.210298084
 20
53.5390018159
 10
111.2254179032
 20
53.5370778323
 10
111.2436408101
 20
53.5352229915
 10
111.2648431094
 20
53.533449884
 10
111.2888808814
 20
53.5317705454
 10
111.3155909597
 20
53.5301963749
 10
111.3447920386
 20
53.5287380579
 10
111.3762859035
 20
53.5274054934
 10
111.4098587767
 20
53.5262077267
 10
111.4452827683
 20
53.5251528881
 10
111.4823174231
 20
53.5242481377
 10
111.5207113529
 20
53.523499617
 10
111.5602039429
 20
53.5229124069
 10
111.6414071759
 20
53.5222367399
  0
LWPOLYLINE
  5
264
100
AcDbEntity
  8
ASSI
100
AcDbPolyline
 62
253
  6
CONTINUOUS
 90
17
 70
0
 10
111.1844741246
 20
53.5450562123
 10
111.1897564773
 20
53.5430045911
 10
111.1983839847
 20
53.5409818823
 10
111.210298084
 20
53.5390018159
 10
111.2254179032
 20
53.5370778323
 10
111.2436408101
 20
53.5352229915
 10
111.2648431094
 20
53.533449884
 10
111.2888808814
 20
53.5317705454
 10
111.3155909597
 20
53.5301963749
 10
111.3447920386
 20
53.5287380579
 10
111.3762859035
 20
53.5274054934
 10
111.4098587767
 20
53.5262077267
 10
111.4452827683
 20
53.5251528881
 10
111.4823174231
 20
53.5242481377
 10
111.5207113529
 20
53.523499617
 10
111.5602039429
 20
53.5229124069
 10
111.6414071759
 20
53.5222367399
  0
LWPOLYLINE
  5
265
100
AcDbEntity
  8
RACCORDO
100
AcDbPolyline
 62
7
  6
CONTINUOUS
 90
22
 70
0
 10
138.0255317905
 20
53.8215953352
 10
138.0266978342
 20
53.7915893695
 10
138.0300168974
 20
53.7620825295
 10
138.0354889799
 20
53.7330748105
 10
138.0431525588
 20
53.7044348125
 10
138.0529691571
 20
53.676293927
 10
138.0648233439
 20
53.6490463327
 10
138.0787485073
 20
53.622675489
 10
138.0947112592
 20
53.5971979207
 10
138.1124960041
 20
53.5730573971
 10
138.1321848447
 20
53.5502450323
 10
138.1536956784
 20
53.5287696913
 10
138.1765666024
 20
53.5091017633
 10
138.2008029515
 20
53.4913192118
 10
138.226399391
 20
53.4753440502
 10
138.2528780134
 20
53.4614127398
 10
138.2802011184
 20
53.4495694787
 10
138.3084064065
 20
53.4397700509
 10
138.3371290713
 20
53.4321182962
 10
138.366247511
 20
53.4266488246
 10
138.3958833274
 20
53.4233270165
 10
138.4260365208
 20
53.4221528695
  0
LWPOLYLINE
  5
266
100
AcDbEntity
  8
ASSI
100
AcDbPolyline
 62
7
  6
CONTINUOUS
 90
22
 70
0
 10
138.0255317905
 20
53.8215953352
 10
138.0266978342
 20
53.7915893695
 10
138.0300168974
 20
53.7620825295
 10
138.0354889799
 20
53.7330748105
 10
138.0431525588
 20
53.7044348125
 10
138.0529691571
 20
53.676293927
 10
138.0648233439
 20
53.6490463327
 10
138.0787485073
 20
53.622675489
 10
138.0947112592
 20
53.5971979207
 10
138.1124960041
 20
53.5730573971
 10
138.1321848447
 20
53.5502450323
 10
138.1536956784
 20
53.5287696913
 10
138.1765666024
 20
53.5091017633
 10
138.2008029515
 20
53.4913192118
 10
138.226399391
 20
53.4753440502
 10
138.2528780134
 20
53.4614127398
 10
138.2802011184
 20
53.4495694787
 10
138.3084064065
 20
53.4397700509
 10
138.3371290713
 20
53.4321182962
 10
138.366247511
 20
53.4266488246
 10
138.3958833274
 20
53.4233270165
 10
138.4260365208
 20
53.4221528695
  0
LINE
  5
267
100
AcDbEntity
  8
RACCORDO
100
AcDbLine
 62
253
  6
CONTINUOUS
 10
137.4723710669
 20
53.7443321095
 11
137.4723710669
 21
98.4999736294
  0
LINE
  5
268
100
AcDbEntity
  8
ASSI
100
AcDbLine
 62
253
  6
CONTINUOUS
 10
137.4723710669
 20
53.7443321095
 11
137.4723710669
 21
98.4999736294
  0
LWPOLYLINE
  5
269
100
AcDbEntity
  8
RACCORDO
100
AcDbPolyline
 62
253
  6
CONTINUOUS
 90
7
 70
0
 10
137.9716841332
 20
98.4764233671
 10
137.9720284596
 20
98.4930181388
 10
137.9730664156
 20
98.5095865566
 10
137.9747968238
 20
98.5260999695
 10
137.9772173149
 20
98.5425297716
 10
137.9803243293
 20
98.5588474516
 10
137.9841131208
 20
98.5750246427
  0
LWPOLYLINE
  5
26A
100
AcDbEntity
  8
ASSI
100
AcDbPolyline
 62
253
  6
CONTINUOUS
 90
7
 70
0
 10
137.9716841332
 20
98.4764233671
 10
137.9720284596
 20
98.4930181388
 10
137.9730664156
 20
98.5095865566
 10
137.9747968238
 20
98.5260999695
 10
137.9772173149
 20
98.5425297716
 10
137.9803243293
 20
98.5588474516
 10
137.9841131208
 20
98.5750246427
  0
LWPOLYLINE
  5
26B
100
AcDbEntity
  8
RACCORDO
100
AcDbPolyline
 62
253
  6
CONTINUOUS
 90
7
 70
0
 10
137.4723710669
 20
98.4999736294
 10
137.4731772308
 20
98.5376217757
 10
137.475521183
 20
98.575022609
 10
137.4794029236
 20
98.6121761323
 10
137.4848224525
 20
98.6490823483
 10
137.4917797697
 20
98.6857412597
 10
137.5002748753
 20
98.7221528695
  0
LWPOLYLINE
  5
26C
100
AcDbEntity
  8
ASSI
100
AcDbPolyline
 62
253
  6
CONTINUOUS
 90
7
 70
0
 10
137.4723710669
 20
98.4999736294
 10
137.4731772308
 20
98.5376217757
 10
137.475521183
 20
98.575022609
 10
137.4794029236
 20
98.6121761323
 10
137.4848224525
 20
98.6490823483
 10
137.4917797697
 20
98.6857412597
 10
137.5002748753
 20
98.7221528695
  0
LWPOLYLINE
  5
26D
100
AcDbEntity
  8
RACCORDO
100
AcDbPolyline
 62
253
  6
CONTINUOUS
 90
22
 70
0
 10
137.5002748753
 20
98.7221528695
 10
137.5160372115
 20
98.7767339335
 10
137.5350447824
 20
98.8298772121
 10
137.557297588
 20
98.8815827693
 10
137.5829151617
 20
98.9320672506
 10
137.6117779701
 20
98.9811141286
 10
137.6435274126
 20
99.0280737358
 10
137.6781922644
 20
99.072898963
 10
137.7157437503
 20
99.1156370922
 10
137.755736944
 20
99.155780087
 10
137.7982004502
 20
99.1932959188
 10
137.8431056641
 20
99.2282168032
 10
137.8899218456
 20
99.2601310967
 10
137.9386810165
 20
99.2890052132
 10
137.9893511548
 20
99.3148729121
 10
138.0413054545
 20
99.3374235771
 10
138.0945263406
 20
99.356610487
 10
138.1490313879
 20
99.3724804965
 10
138.2042465152
 20
99.3848633479
 10
138.259980362
 20
99.3937023138
 10
138.3164242887
 20
99.3990541937
 10
138.3735782953
 20
99.4009190057
  0
LWPOLYLINE
  5
26E
100
AcDbEntity
  8
ASSI
100
AcDbPolyline
 62
253
  6
CONTINUOUS
 90
22
 70
0
 10
137.5002748753
 20
98.7221528695
 10
137.5160372115
 20
98.7767339335
 10
137.5350447824
 20
98.8298772121
 10
137.557297588
 20
98.8815827693
 10
137.5829151617
 20
98.9320672506
 10
137.6117779701
 20
98.9811141286
 10
137.6435274126
 20
99.0280737358
 10
137.6781922644
 20
99.072898963
 10
137.7157437503
 20
99.1156370922
 10
137.755736944
 20
99.155780087
 10
137.7982004502
 20
99.1932959188
 10
137.8431056641
 20
99.2282168032
 10
137.8899218456
 20
99.2601310967
 10
137.9386810165
 20
99.2890052132
 10
137.9893511548
 20
99.3148729121
 10
138.0413054545
 20
99.3374235771
 10
138.0945263406
 20
99.356610487
 10
138.1490313879
 20
99.3724804965
 10
138.2042465152
 20
99.3848633479
 10
138.259980362
 20
99.3937023138
 10
138.3164242887
 20
99.3990541937
 10
138.3735782953
 20
99.4009190057
  0
LWPOLYLINE
  5
26F
100
AcDbEntity
  8
RACCORDO
100
AcDbPolyline
 62
253
  6
CONTINUOUS
 90
22
 70
0
 10
137.9841131208
 20
98.5750246427
 10
137.9911242896
 20
98.5991567413
 10
137.999650088
 20
98.6227958852
 10
138.0096567643
 20
98.6458483416
 10
138.0211050806
 20
98.6682222098
 10
138.0339494647
 20
98.6898292033
 10
138.048138248
 20
98.7105849681
 10
138.063616365
 20
98.7304078541
 10
138.0803220588
 20
98.7492182268
 10
138.0981856526
 20
98.7669406185
 10
138.1171345575
 20
98.7835033486
 10
138.1370954043
 20
98.7988428456
 10
138.1579910605
 20
98.8129024831
 10
138.1797435907
 20
98.8256283035
 10
138.2022636658
 20
98.8369667224
 10
138.2254516763
 20
98.8468705836
 10
138.2492025911
 20
98.8552975762
 10
138.2734352549
 20
98.8622214485
 10
138.2980835749
 20
98.8676238438
 10
138.3230616069
 20
98.8714807198
 10
138.3482620716
 20
98.8737688504
 10
138.3735860212
 20
98.8744744056
  0
LWPOLYLINE
  5
270
100
AcDbEntity
  8
ASSI
100
AcDbPolyline
 62
253
  6
CONTINUOUS
 90
22
 70
0
 10
137.9841131208
 20
98.5750246427
 10
137.9911242896
 20
98.5991567413
 10
137.999650088
 20
98.6227958852
 10
138.0096567643
 20
98.6458483416
 10
138.0211050806
 20
98.6682222098
 10
138.0339494647
 20
98.6898292033
 10
138.048138248
 20
98.7105849681
 10
138.063616365
 20
98.7304078541
 10
138.0803220588
 20
98.7492182268
 10
138.0981856526
 20
98.7669406185
 10
138.1171345575
 20
98.7835033486
 10
138.1370954043
 20
98.7988428456
 10
138.1579910605
 20
98.8129024831
 10
138.1797435907
 20
98.8256283035
 10
138.2022636658
 20
98.8369667224
 10
138.2254516763
 20
98.8468705836
 10
138.2492025911
 20
98.8552975762
 10
138.2734352549
 20
98.8622214485
 10
138.2980835749
 20
98.8676238438
 10
138.3230616069
 20
98.8714807198
 10
138.3482620716
 20
98.8737688504
 10
138.3735860212
 20
98.8744744056
  0
LWPOLYLINE
  5
271
100
AcDbEntity
  8
RACCORDO
100
AcDbPolyline
 62
253
  6
CONTINUOUS
 90
7
 70
0
 10
137.9841131208
 20
53.6692810963
 10
137.980337402
 20
53.6853964864
 10
137.9772340106
 20
53.7016768874
 10
137.9748108227
 20
53.7180947137
 10
137.9730745826
 20
53.7346219731
 10
137.9720308802
 20
53.7512303128
 10
137.9716841312
 20
53.7678910668
  0
LWPOLYLINE
  5
272
100
AcDbEntity
  8
ASSI
100
AcDbPolyline
 62
253
  6
CONTINUOUS
 90
7
 70
0
 10
137.9841131208
 20
53.6692810963
 10
137.980337402
 20
53.6853964864
 10
137.9772340106
 20
53.7016768874
 10
137.9748108227
 20
53.7180947137
 10
137.9730745826
 20
53.7346219731
 10
137.9720308802
 20
53.7512303128
 10
137.9716841312
 20
53.7678910668
  0
LWPOLYLINE
  5
273
100
AcDbEntity
  8
RACCORDO
100
AcDbPolyline
 62
253
  6
CONTINUOUS
 90
7
 70
0
 10
137.5002748753
 20
53.5221528695
 10
137.4918022402
 20
53.5583889237
 10
137.4848584053
 20
53.5949425007
 10
137.4794433705
 20
53.6318136041
 10
137.4755571358
 20
53.6690022376
 10
137.4731997013
 20
53.7065084048
 10
137.4723710669
 20
53.7443321095
  0
LWPOLYLINE
  5
274
100
AcDbEntity
  8
ASSI
100
AcDbPolyline
 62
253
  6
CONTINUOUS
 90
7
 70
0
 10
137.5002748753
 20
53.5221528695
 10
137.4918022402
 20
53.5583889237
 10
137.4848584053
 20
53.5949425007
 10
137.4794433705
 20
53.6318136041
 10
137.4755571358
 20
53.6690022376
 10
137.4731997013
 20
53.7065084048
 10
137.4723710669
 20
53.7443321095
  0
LINE
  5
275
100
AcDbEntity
  8
RACCORDO
100
AcDbLine
 62
253
  6
CONTINUOUS
 10
137.9716841317
 20
53.7678910673
 11
137.971684126
 21
98.4764233743
  0
LINE
  5
276
100
AcDbEntity
  8
ASSI
100
AcDbLine
 62
253
  6
CONTINUOUS
 10
137.9716841317
 20
53.7678910673
 11
137.971684126
 21
98.4764233743
  0
LINE
  5
277
100
AcDbEntity
  8
RACCORDO
100
AcDbLine
 62
7
  6
CONTINUOUS
 10
138.0255317905
 20
98.4227104037
 11
138.0255317905
 21
53.8215953352
  0
LINE
  5
278
100
AcDbEntity
  8
ASSI
100
AcDbLine
 62
7
  6
CONTINUOUS
 10
138.0255317905
 20
98.4227104037
 11
138.0255317905
 21
53.8215953352
  0
LINE
  5
279
100
AcDbEntity
  8
RACCORDO
100
AcDbLine
 62
253
  6
CONTINUOUS
 10
138.3735782953
 20
99.4009190057
 11
138.3735782953
 21
98.8744744318
  0
LINE
  5
27A
100
AcDbEntity
  8
ASSI
100
AcDbLine
 62
253
  6
CONTINUOUS
 10
138.3735782953
 20
99.4009190057
 11
138.3735782953
 21
98.8744744318
  0
LINE
  5
27B
100
AcDbEntity
  8
RACCORDO
100
AcDbLine
 62
253
  6
CONTINUOUS
 10
138.3735782953
 20
52.8433867332
 11
138.3735782953
 21
53.3698313071
  0
LINE
  5
27C
100
AcDbEntity
  8
ASSI
100
AcDbLine
 62
253
  6
CONTINUOUS
 10
138.3735782953
 20
52.8433867332
 11
138.3735782953
 21
53.3698313071
  0
LINE
  5
27D
100
AcDbEntity
  8
SCRITTA
100
AcDbLine
 62
253
  6
CONTINUOUS
 10
177.4346800103
 20
47.2443515151
 11
176.8725474202
 21
47.2443515151
  0
LINE
  5
27E
100
AcDbEntity
  8
SCRITTA
100
AcDbLine
 62
253
  6
CONTINUOUS
 10
175.9776071432
 20
47.2443515151
 11
175.3955506007
 21
47.2443515151
  0
LINE
  5
27F
100
AcDbEntity
  8
SCRITTA
100
AcDbLine
 62
253
  6
CONTINUOUS
 10
169.6756547983
 20
47.2443518695
 11
169.0912467983
 21
47.2443518695
  0
LINE
  5
280
100
AcDbEntity
  8
SCRITTA
100
AcDbLine
 62
253
  6
CONTINUOUS
 10
167.4594247983
 20
47.2443518695
 11
167.9744347983
 21
47.2443518695
  0
LINE
  5
281
100
AcDbEntity
  8
SCRITTA
100
AcDbLine
 62
253
  6
CONTINUOUS
 10
169.9902597983
 20
47.2443518695
 11
170.5493487983
 21
47.2443518695
  0
LINE
  5
282
100
AcDbEntity
  8
SCRITTA
100
AcDbLine
 62
253
  6
CONTINUOUS
 10
171.3610447983
 20
47.2443518695
 11
171.4430077983
 21
47.2443518695
  0
LINE
  5
283
100
AcDbEntity
  8
SCRITTA
100
AcDbLine
 62
253
  6
CONTINUOUS
 10
172.2579377983
 20
47.2443518695
 11
172.8296437983
 21
47.2443518695
  0
LINE
  5
284
100
AcDbEntity
  8
SCRITTA
100
AcDbLine
 62
253
  6
CONTINUOUS
 10
172.9214117983
 20
47.2443518695
 11
173.4994787983
 21
47.2443518695
  0
LINE
  5
285
100
AcDbEntity
  8
SCRITTA
100
AcDbLine
 62
253
  6
CONTINUOUS
 10
174.6079977983
 20
47.2443518695
 11
175.2239397983
 21
47.2443518695
  0
LWPOLYLINE
  5
286
100
AcDbEntity
  8
SCRITTA
100
AcDbPolyline
 62
253
  6
CONTINUOUS
 90
36
 70
0
 10
175.3955506007
 20
50.0113455285
 10
175.4393705393
 20
50.0176962542
 10
175.4825038214
 20
50.0237488529
 10
175.5249326301
 20
50.0294928416
 10
175.5666391487
 20
50.0349177372
 10
175.6076055606
 20
50.0400130567
 10
175.6478266147
 20
50.0447706734
 10
175.6873473226
 20
50.0491918862
 10
175.7262252615
 20
50.05328035
 10
175.7645180086
 20
50.05703972
 10
175.8022831413
 20
50.0604736512
 10
175.8488273335
 20
50.0643126003
 10
175.8947016614
 20
50.0676475904
 10
175.9399706941
 20
50.0704774498
 10
175.9846990007
 20
50.0728010064
 10
176.0289545284
 20
50.0746154348
 10
176.0728187377
 20
50.0759112958
 10
176.1163764676
 20
50.0766774968
 10
176.1597125569
 20
50.0769029449
 10
176.2172708487
 20
50.0763426603
 10
176.274636909
 20
50.0747717922
 10
176.3318617092
 20
50.0721608157
 10
176.3747137289
 20
50.0694954911
 10
176.4175092176
 20
50.0661754818
 10
176.460242432
 20
50.0621477719
 10
176.5029076283
 20
50.0573593455
 10
176.5369834634
 20
50.052941869
 10
176.5709882139
 20
50.0479561031
 10
176.604898003
 20
50.0423545471
 10
176.6386889534
 20
50.0360897001
 10
176.6723371882
 20
50.0291140616
 10
176.7058202566
 20
50.0213797909
 10
176.7391214136
 20
50.0128376885
 10
176.7722253403
 20
50.0034382149
 10
176.805116718
 20
49.9931318305
 10
176.8377802281
 20
49.981868996
  0
LWPOLYLINE
  5
287
100
AcDbEntity
  8
RACCORDO
100
AcDbPolyline
 62
7
  6
CONTINUOUS
 90
22
 70
0
 10
205.7250270759
 20
53.4221528695
 10
205.755158716
 20
53.423320713
 10
205.7847849693
 20
53.4266403502
 10
205.8139058359
 20
53.4321117835
 10
205.842653733
 20
53.4397746394
 10
205.8708962433
 20
53.449589301
 10
205.8982361151
 20
53.4614369073
 10
205.9246890816
 20
53.4753509093
 10
205.9502394095
 20
53.491297874
 10
205.9744426467
 20
53.509058615
 10
205.9973069019
 20
53.5287147509
 10
206.0188240665
 20
53.5501846864
 10
206.0385253623
 20
53.5730044126
 10
206.056332081
 20
53.5971782688
 10
206.072322931
 20
53.6227019369
 10
206.0862652587
 20
53.6490984152
 10
206.0981149629
 20
53.6763293476
 10
206.1079161449
 20
53.7044331055
 10
206.1155684552
 20
53.7330477714
 10
206.1210384439
 20
53.7620527076
 10
206.1243595609
 20
53.7915685606
 10
206.1255318062
 20
53.8215953352
  0
LWPOLYLINE
  5
288
100
AcDbEntity
  8
ASSI
100
AcDbPolyline
 62
7
  6
CONTINUOUS
 90
22
 70
0
 10
205.7250270759
 20
53.4221528695
 10
205.755158716
 20
53.423320713
 10
205.7847849693
 20
53.4266403502
 10
205.8139058359
 20
53.4321117835
 10
205.842653733
 20
53.4397746394
 10
205.8708962433
 20
53.449589301
 10
205.8982361151
 20
53.4614369073
 10
205.9246890816
 20
53.4753509093
 10
205.9502394095
 20
53.491297874
 10
205.9744426467
 20
53.509058615
 10
205.9973069019
 20
53.5287147509
 10
206.0188240665
 20
53.5501846864
 10
206.0385253623
 20
53.5730044126
 10
206.056332081
 20
53.5971782688
 10
206.072322931
 20
53.6227019369
 10
206.0862652587
 20
53.6490984152
 10
206.0981149629
 20
53.6763293476
 10
206.1079161449
 20
53.7044331055
 10
206.1155684552
 20
53.7330477714
 10
206.1210384439
 20
53.7620527076
 10
206.1243595609
 20
53.7915685606
 10
206.1255318062
 20
53.8215953352
  0
LWPOLYLINE
  5
289
100
AcDbEntity
  8
SCRITTA
100
AcDbPolyline
 62
253
  6
CONTINUOUS
 90
56
 70
0
 10
176.2922124415
 20
48.7985247829
 10
176.3084643867
 20
48.7990280975
 10
176.3248210475
 20
48.7998316039
 10
176.3413038763
 20
48.8009616139
 10
176.357934326
 20
48.8024444394
 10
176.3747192323
 20
48.8043062031
 10
176.391606963
 20
48.806572273
 10
176.4085312693
 20
48.8092678279
 10
176.4254259022
 20
48.8124180469
 10
176.4388746553
 20
48.8152806666
 10
176.4522216848
 20
48.8184522752
 10
176.4654266574
 20
48.8219347621
 10
176.4784492397
 20
48.8257300166
 10
176.4912490985
 20
48.8298399281
 10
176.5037901699
 20
48.8342660417
 10
176.5160534673
 20
48.8390085251
 10
176.5280242737
 20
48.8440672018
 10
176.539687872
 20
48.8494418951
 10
176.551029545
 20
48.8551324286
 10
176.560226294
 20
48.8601165492
 10
176.5691920717
 20
48.8653249988
 10
176.5779296863
 20
48.8707628954
 10
176.5864409912
 20
48.8764357405
 10
176.5947240206
 20
48.8823505675
 10
176.6027758542
 20
48.8885147931
 10
176.610594083
 20
48.8949339133
 10
176.6181783445
 20
48.9016057404
 10
176.6255287877
 20
48.9085261658
 10
176.6326461848
 20
48.9156898817
 10
176.6395338016
 20
48.9230867815
 10
176.6461955271
 20
48.9307055594
 10
176.6538972459
 20
48.9401283433
 10
176.6612880965
 20
48.9498545554
 10
176.6683768945
 20
48.9598844003
 10
176.6751724551
 20
48.9702180822
 10
176.6816835938
 20
48.9808558056
 10
176.6879169085
 20
48.9917966669
 10
176.6938701281
 20
49.0030353304
 10
176.6995387641
 20
49.014565352
 10
176.704918328
 20
49.026380288
 10
176.7100043312
 20
49.0384736945
 10
176.7147911583
 20
49.0508343733
 10
176.7192686862
 20
49.0634321085
 10
176.7234256644
 20
49.0762319298
 10
176.727250843
 20
49.089198867
 10
176.7307329716
 20
49.1022979497
 10
176.7338627282
 20
49.1154937379
 10
176.7366385038
 20
49.1287489118
 10
176.7390606173
 20
49.1420256817
 10
176.7411293878
 20
49.1552862579
 10
176.7428451344
 20
49.168492851
 10
176.7442085209
 20
49.1816160751
 10
176.7452215905
 20
49.1946601605
 10
176.7458867315
 20
49.2076377414
 10
176.7462063317
 20
49.2205614522
 10
176.7461827794
 20
49.2334439269
  0
LINE
  5
28A
100
AcDbEntity
  8
RACCORDO
100
AcDbLine
 62
253
  6
CONTINUOUS
 10
232.590859651
 20
53.5229124077
 11
232.5096564199
 21
53.5222367407
  0
LINE
  5
28B
100
AcDbEntity
  8
ASSI
100
AcDbLine
 62
253
  6
CONTINUOUS
 10
232.590859651
 20
53.5229124077
 11
232.5096564199
 21
53.5222367407
  0
LWPOLYLINE
  5
28C
100
AcDbEntity
  8
RACCORDO
100
AcDbPolyline
 62
253
  6
CONTINUOUS
 90
3
 70
0
 10
232.5908611991
 20
53.5854403002
 10
232.5096578787
 20
53.5847648224
 10
232.468498391
 20
53.5846803329
  0
LWPOLYLINE
  5
28D
100
AcDbEntity
  8
ASSI
100
AcDbPolyline
 62
253
  6
CONTINUOUS
 90
3
 70
0
 10
232.5908611991
 20
53.5854403002
 10
232.5096578787
 20
53.5847648224
 10
232.468498391
 20
53.5846803329
  0
LINE
  5
28E
100
AcDbEntity
  8
SCRITTA
100
AcDbLine
 62
253
  6
CONTINUOUS
 10
173.6607387983
 20
47.8032718695
 11
174.4566057983
 21
47.8032718695
  0
LINE
  5
28F
100
AcDbEntity
  8
SCRITTA
100
AcDbLine
 62
253
  6
CONTINUOUS
 10
174.3398117983
 20
48.2357618695
 11
173.7802827983
 21
48.2357618695
  0
LINE
  5
290
100
AcDbEntity
  8
SCRITTA
100
AcDbLine
 62
253
  6
CONTINUOUS
 10
176.2909527606
 20
48.3400009447
 11
175.9776071432
 21
48.3400009447
  0
LINE
  5
291
100
AcDbEntity
  8
SCRITTA
100
AcDbLine
 62
253
  6
CONTINUOUS
 10
175.9582290524
 20
48.7985247829
 11
176.2922124415
 21
48.7985247829
  0
LINE
  5
292
100
AcDbEntity
  8
SCRITTA
100
AcDbLine
 62
253
  6
CONTINUOUS
 10
174.3649217983
 20
50.0440548695
 11
173.7995767983
 21
50.0440548695
  0
LINE
  5
293
100
AcDbEntity
  8
SCRITTA
100
AcDbLine
 62
253
  6
CONTINUOUS
 10
172.5678397983
 20
50.0440548695
 11
171.9896257983
 21
50.0440548695
  0
LINE
  5
294
100
AcDbEntity
  8
SCRITTA
100
AcDbLine
 62
253
  6
CONTINUOUS
 10
170.8269817983
 20
50.0440548695
 11
170.2430567983
 21
50.0440548695
  0
LINE
  5
295
100
AcDbEntity
  8
SCRITTA
100
AcDbLine
 62
253
  6
CONTINUOUS
 10
168.8743717983
 20
50.0440548695
 11
168.2903627983
 21
50.0440548695
  0
LINE
  5
296
100
AcDbEntity
  8
SCRITTA
100
AcDbLine
 62
253
  6
CONTINUOUS
 10
167.2067117983
 20
50.0440548695
 11
166.5718637983
 21
50.0440548695
  0
LINE
  5
297
100
AcDbEntity
  8
SCRITTA
100
AcDbLine
 62
253
  6
CONTINUOUS
 10
169.0912467983
 20
50.0442228695
 11
169.6756547983
 21
50.0442228695
  0
LINE
  5
298
100
AcDbEntity
  8
RACCORDO
100
AcDbLine
 62
253
  6
CONTINUOUS
 10
205.7774853013
 20
52.8433867332
 11
138.3735782953
 21
52.8433867332
  0
LINE
  5
299
100
AcDbEntity
  8
ASSI
100
AcDbLine
 62
253
  6
CONTINUOUS
 10
205.7774853013
 20
52.8433867332
 11
138.3735782953
 21
52.8433867332
  0
LINE
  5
29A
100
AcDbEntity
  8
RACCORDO
100
AcDbLine
 62
253
  6
CONTINUOUS
 10
205.7774774911
 20
53.3698313071
 11
138.3735580625
 21
53.3698313071
  0
LINE
  5
29B
100
AcDbEntity
  8
ASSI
100
AcDbLine
 62
253
  6
CONTINUOUS
 10
205.7774774911
 20
53.3698313071
 11
138.3735580625
 21
53.3698313071
  0
LINE
  5
29C
100
AcDbEntity
  8
RACCORDO
100
AcDbLine
 62
7
  6
CONTINUOUS
 10
138.4260365208
 20
53.4221528695
 11
205.7250270759
 21
53.4221528695
  0
LINE
  5
29D
100
AcDbEntity
  8
ASSI
100
AcDbLine
 62
7
  6
CONTINUOUS
 10
138.4260365208
 20
53.4221528695
 11
205.7250270759
 21
53.4221528695
  0
LINE
  5
29E
100
AcDbEntity
  8
RACCORDO
100
AcDbLine
 62
253
  6
CONTINUOUS
 10
206.6507887214
 20
53.5221528695
 11
232.5096564199
 21
53.5222367407
  0
LINE
  5
29F
100
AcDbEntity
  8
ASSI
100
AcDbLine
 62
253
  6
CONTINUOUS
 10
206.6507887214
 20
53.5221528695
 11
232.5096564199
 21
53.5222367407
  0
LINE
  5
2A0
100
AcDbEntity
  8
RACCORDO
100
AcDbLine
 62
253
  6
CONTINUOUS
 10
111.6414071759
 20
53.5222367399
 11
137.5002748753
 21
53.5221528695
  0
LINE
  5
2A1
100
AcDbEntity
  8
ASSI
100
AcDbLine
 62
253
  6
CONTINUOUS
 10
111.6414071759
 20
53.5222367399
 11
137.5002748753
 21
53.5221528695
  0
LWPOLYLINE
  5
2A2
100
AcDbEntity
  8
RACCORDO
100
AcDbPolyline
 62
253
  6
CONTINUOUS
 90
22
 70
0
 10
138.3735579933
 20
53.3698312387
 10
138.3482254432
 20
53.370538982
 10
138.323008701
 20
53.3728313547
 10
138.2980070491
 20
53.376695983
 10
138.2733247048
 20
53.3821119482
 10
138.2490520137
 20
53.3890560965
 10
138.2252662858
 20
53.397507319
 10
138.2020513266
 20
53.4074375191
 10
138.1795097728
 20
53.4188044283
 10
138.1577439119
 20
53.4315584507
 10
138.1368519327
 20
53.445638093
 10
138.1169011532
 20
53.4609937981
 10
138.0979452818
 20
53.4775891382
 10
138.0800460885
 20
53.4953795239
 10
138.0632967886
 20
53.5142821111
 10
138.0477913178
 20
53.5341961394
 10
138.033579649
 20
53.5550574293
 10
138.0207289986
 20
53.5767663622
 10
138.0093304612
 20
53.5991500101
 10
137.9994234206
 20
53.6220816148
 10
137.991012905
 20
53.6454911343
 10
137.9841131208
 20
53.6692810963
  0
LWPOLYLINE
  5
2A3
100
AcDbEntity
  8
ASSI
100
AcDbPolyline
 62
253
  6
CONTINUOUS
 90
22
 70
0
 10
138.3735579933
 20
53.3698312387
 10
138.3482254432
 20
53.370538982
 10
138.323008701
 20
53.3728313547
 10
138.2980070491
 20
53.376695983
 10
138.2733247048
 20
53.3821119482
 10
138.2490520137
 20
53.3890560965
 10
138.2252662858
 20
53.397507319
 10
138.2020513266
 20
53.4074375191
 10
138.1795097728
 20
53.4188044283
 10
138.1577439119
 20
53.4315584507
 10
138.1368519327
 20
53.445638093
 10
138.1169011532
 20
53.4609937981
 10
138.0979452818
 20
53.4775891382
 10
138.0800460885
 20
53.4953795239
 10
138.0632967886
 20
53.5142821111
 10
138.0477913178
 20
53.5341961394
 10
138.033579649
 20
53.5550574293
 10
138.0207289986
 20
53.5767663622
 10
138.0093304612
 20
53.5991500101
 10
137.9994234206
 20
53.6220816148
 10
137.991012905
 20
53.6454911343
 10
137.9841131208
 20
53.6692810963
  0
LWPOLYLINE
  5
2A4
100
AcDbEntity
  8
RACCORDO
100
AcDbPolyline
 62
253
  6
CONTINUOUS
 90
22
 70
0
 10
138.3735782953
 20
52.8433867332
 10
138.3163480295
 20
52.8452530674
 10
138.2598259875
 20
52.8506187762
 10
138.2040121694
 20
52.8594838779
 10
138.1487077753
 20
52.8719089901
 10
138.0941116051
 20
52.8878335676
 10
138.0408200583
 20
52.9070758996
 10
137.988824108
 20
52.9296820062
 10
137.9381327813
 20
52.9556060009
 10
137.8893695585
 20
52.984528318
 10
137.8425826997
 20
53.0164610362
 10
137.797723945
 20
53.0513922493
 10
137.7552719946
 20
53.0889664063
 10
137.7152169767
 20
53.1292525666
 10
137.677568763
 20
53.1721818627
 10
137.6428356692
 20
53.2171918272
 10
137.6110536661
 20
53.2643791605
 10
137.5821867829
 20
53.3136473365
 10
137.5566354219
 20
53.3641439922
 10
137.5345330507
 20
53.4155850242
 10
137.5157462019
 20
53.4682546321
 10
137.5002748753
 20
53.5221528695
  0
LWPOLYLINE
  5
2A5
100
AcDbEntity
  8
ASSI
100
AcDbPolyline
 62
253
  6
CONTINUOUS
 90
22
 70
0
 10
138.3735782953
 20
52.8433867332
 10
138.3163480295
 20
52.8452530674
 10
138.2598259875
 20
52.8506187762
 10
138.2040121694
 20
52.8594838779
 10
138.1487077753
 20
52.8719089901
 10
138.0941116051
 20
52.8878335676
 10
138.0408200583
 20
52.9070758996
 10
137.988824108
 20
52.9296820062
 10
137.9381327813
 20
52.9556060009
 10
137.8893695585
 20
52.984528318
 10
137.8425826997
 20
53.0164610362
 10
137.797723945
 20
53.0513922493
 10
137.7552719946
 20
53.0889664063
 10
137.7152169767
 20
53.1292525666
 10
137.677568763
 20
53.1721818627
 10
137.6428356692
 20
53.2171918272
 10
137.6110536661
 20
53.2643791605
 10
137.5821867829
 20
53.3136473365
 10
137.5566354219
 20
53.3641439922
 10
137.5345330507
 20
53.4155850242
 10
137.5157462019
 20
53.4682546321
 10
137.5002748753
 20
53.5221528695
  0
LWPOLYLINE
  5
2A6
100
AcDbEntity
  8
SCRITTA
100
AcDbPolyline
 62
253
  6
CONTINUOUS
 90
24
 70
0
 10
176.4160402808
 20
49.5835811947
 10
176.3945388386
 20
49.5859177934
 10
176.3730127343
 20
49.5879403342
 10
176.3514654166
 20
49.5896495452
 10
176.329900334
 20
49.5910461547
 10
176.3083209351
 20
49.5921308909
 10
176.2867306685
 20
49.5929044822
 10
176.2651329827
 20
49.5933676568
 10
176.2462302116
 20
49.5935187903
 10
176.2273181846
 20
49.5934328387
 10
176.2083906855
 20
49.5931098221
 10
176.1894414986
 20
49.5925497606
 10
176.1704635642
 20
49.5917516347
 10
176.1514464487
 20
49.5907102663
 10
176.132378875
 20
49.5894194378
 10
176.1132495659
 20
49.5878729313
 10
176.0940508558
 20
49.5860673229
 10
176.0747895249
 20
49.5840103635
 10
176.0554759651
 20
49.5817125976
 10
176.0361205682
 20
49.5791845696
 10
176.0167296729
 20
49.5764386576
 10
175.9972934061
 20
49.5734945739
 10
175.9777978414
 20
49.5703738639
 10
175.9582290524
 20
49.5670980735
  0
LWPOLYLINE
  5
2A7
100
AcDbEntity
  8
SCRITTA
100
AcDbPolyline
 62
253
  6
CONTINUOUS
 90
86
 70
0
 10
176.8377802281
 20
49.981868996
 10
176.8533133757
 20
49.9759361628
 10
176.869058235
 20
49.9692543991
 10
176.8850402651
 20
49.9617932741
 10
176.901284925
 20
49.9535223574
 10
176.9178176738
 20
49.9444112181
 10
176.9346639706
 20
49.9344294258
 10
176.9518285363
 20
49.9235562549
 10
176.9692331393
 20
49.9118098002
 10
176.9867788101
 20
49.8992178621
 10
177.0043665791
 20
49.8858082404
 10
177.0218974765
 20
49.8716087353
 10
177.0392725327
 20
49.8566471468
 10
177.0564015154
 20
49.8409481495
 10
177.0732291412
 20
49.8245239146
 10
177.0897088637
 20
49.8073834881
 10
177.1057941368
 20
49.7895359156
 10
177.1214384143
 20
49.7709902431
 10
177.1365951501
 20
49.7517555162
 10
177.151217163
 20
49.7318529133
 10
177.1652547337
 20
49.711352143
 10
177.1786575076
 20
49.6903350464
 10
177.1913751306
 20
49.6688834646
 10
177.2033572482
 20
49.6470792388
 10
177.2145535062
 20
49.6250042099
 10
177.2249246417
 20
49.6027331756
 10
177.2344757576
 20
49.5803127592
 10
177.2432230483
 20
49.5577825404
 10
177.2511827081
 20
49.5351820989
 10
177.2583709316
 20
49.5125510144
 10
177.2648039131
 20
49.4899288667
 10
177.2715547004
 20
49.4628533334
 10
177.2773012071
 20
49.4359371729
 10
177.282103381
 20
49.4092698944
 10
177.2860211701
 20
49.382941007
 10
177.2891145222
 20
49.3570400198
 10
177.2914410235
 20
49.3316448481
 10
177.2930488124
 20
49.3067870319
 10
177.2939836656
 20
49.2824865172
 10
177.2942913599
 20
49.2587632503
 10
177.2940176718
 20
49.2356371771
 10
177.2932054124
 20
49.2131223274
 10
177.2918855298
 20
49.1912090647
 10
177.2900860063
 20
49.1698818359
 10
177.2878348244
 20
49.1491250882
 10
177.2851599663
 20
49.1289232686
 10
177.2812602501
 20
49.1044254165
 10
177.2767790439
 20
49.0807264541
 10
177.2717531293
 20
49.0577824975
 10
177.2662192878
 20
49.0355496629
 10
177.2602144455
 20
49.0139908292
 10
177.2537761063
 20
48.9930959269
 10
177.2469419189
 20
48.9728616492
 10
177.2397495319
 20
48.9532846894
 10
177.2322360312
 20
48.9343615132
 10
177.2244362516
 20
48.916087675
 10
177.2163844651
 20
48.8984585017
 10
177.2081149437
 20
48.8814693201
 10
177.1968028718
 20
48.8597985588
 10
177.1852063996
 20
48.8392102668
 10
177.173367283
 20
48.8196574581
 10
177.1613264949
 20
48.8010976181
 10
177.1491218776
 20
48.7835061179
 10
177.1367904902
 20
48.7668627999
 10
177.124370131
 20
48.7511402244
 10
177.1119015543
 20
48.736281824
 10
177.0994262531
 20
48.7222237492
 10
177.0869866806
 20
48.7089041072
 10
177.0746291309
 20
48.6962688328
 10
177.0624008578
 20
48.6842658175
 10
177.0503447664
 20
48.6728442841
 10
177.0384863649
 20
48.6619587815
 10
177.0268468128
 20
48.6515651902
 10
177.009828924
 20
48.6368015891
 10
176.9933560034
 20
48.622909811
 10
176.9774751414
 20
48.60981702
 10
176.9696974407
 20
48.6035921958
 10
176.9619153176
 20
48.5976142182
 10
176.954041908
 20
48.5919292538
 10
176.946098251
 20
48.5866472179
 10
176.9381269718
 20
48.5818834291
 10
176.9301491355
 20
48.5777110709
 10
176.9221722814
 20
48.5741861646
 10
176.9141714048
 20
48.5713382167
 10
176.9061221078
 20
48.5691910467
 10
176.8980349632
 20
48.5677722414
  0
LWPOLYLINE
  5
2A8
100
AcDbEntity
  8
SCRITTA
100
AcDbPolyline
 62
253
  6
CONTINUOUS
 90
41
 70
0
 10
176.8980349632
 20
48.5512284326
 10
176.9073282485
 20
48.547348549
 10
176.9165678466
 20
48.5431376622
 10
176.9257590361
 20
48.5385876095
 10
176.9349070953
 20
48.5336902283
 10
176.9440167767
 20
48.5284367511
 10
176.9530907294
 20
48.5228159917
 10
176.9621310765
 20
48.5168161589
 10
176.9711399413
 20
48.5104254618
 10
176.9801158564
 20
48.5036354616
 10
176.9890429934
 20
48.4964511295
 10
176.9979019331
 20
48.4888807892
 10
177.0066732567
 20
48.4809327641
 10
177.0153387115
 20
48.4726168322
 10
177.0238847098
 20
48.4639485894
 10
177.0322988304
 20
48.4549450856
 10
177.0405686521
 20
48.4456233712
 10
177.048685078
 20
48.4359968531
 10
177.0566523089
 20
48.426064367
 10
177.0644778704
 20
48.4158211052
 10
177.0721692877
 20
48.4052622604
 10
177.0797322549
 20
48.3943852684
 10
177.0871651403
 20
48.3831965385
 10
177.0944644811
 20
48.3717047237
 10
177.1016268143
 20
48.3599184767
 10
177.1096411417
 20
48.3460979038
 10
177.1174728901
 20
48.3319101031
 10
177.1251229525
 20
48.3173611097
 10
177.1325922215
 20
48.3024569587
 10
177.13988159
 20
48.287203685
 10
177.1469919509
 20
48.2716073239
 10
177.1539241968
 20
48.2556739103
 10
177.161787774
 20
48.2366678899
 10
177.16941085
 20
48.2172263468
 10
177.1767941423
 20
48.1973643096
 10
177.1839383687
 20
48.1770968069
 10
177.1908442468
 20
48.1564388674
 10
177.1975124943
 20
48.1354055197
 10
177.2039546576
 20
48.1140112795
 10
177.2102255984
 20
48.0922686099
 10
177.2163910071
 20
48.0701894612
  0
LWPOLYLINE
  5
2A9
100
AcDbEntity
  8
RACCORDO
100
AcDbPolyline
 62
253
  6
CONTINUOUS
 90
16
 70
0
 10
137.59755582
 20
53.7451232842
 10
137.6378959546
 20
53.7457331403
 10
137.67705898
 20
53.746509852
 10
137.7147663932
 20
53.7474478959
 10
137.7507500428
 20
53.7485406012
 10
137.7847540355
 20
53.7497801973
 10
137.8165365564
 20
53.751157869
 10
137.845871588
 20
53.752663819
 10
137.8725505179
 20
53.7542873381
 10
137.8963836224
 20
53.7560168808
 10
137.9172014154
 20
53.7578401477
 10
137.9348558536
 20
53.7597441728
 10
137.94922139
 20
53.7617154158
 10
137.9601958656
 20
53.7637398587
 10
137.9677012371
 20
53.7658031047
 10
137.9716841308
 20
53.7678904814
  0
LWPOLYLINE
  5
2AA
100
AcDbEntity
  8
ASSI
100
AcDbPolyline
 62
253
  6
CONTINUOUS
 90
16
 70
0
 10
137.59755582
 20
53.7451232842
 10
137.6378959546
 20
53.7457331403
 10
137.67705898
 20
53.746509852
 10
137.7147663932
 20
53.7474478959
 10
137.7507500428
 20
53.7485406012
 10
137.7847540355
 20
53.7497801973
 10
137.8165365564
 20
53.751157869
 10
137.845871588
 20
53.752663819
 10
137.8725505179
 20
53.7542873381
 10
137.8963836224
 20
53.7560168808
 10
137.9172014154
 20
53.7578401477
 10
137.9348558536
 20
53.7597441728
 10
137.94922139
 20
53.7617154158
 10
137.9601958656
 20
53.7637398587
 10
137.9677012371
 20
53.7658031047
 10
137.9716841308
 20
53.7678904814
  0
LWPOLYLINE
  5
2AB
100
AcDbEntity
  8
RACCORDO
100
AcDbPolyline
 62
253
  6
CONTINUOUS
 90
3
 70
0
 10
137.4723710669
 20
53.7443321101
 10
137.5144980487
 20
53.7444202694
 10
137.59755582
 20
53.7451232842
  0
LWPOLYLINE
  5
2AC
100
AcDbEntity
  8
ASSI
100
AcDbPolyline
 62
253
  6
CONTINUOUS
 90
3
 70
0
 10
137.4723710669
 20
53.7443321101
 10
137.5144980487
 20
53.7444202694
 10
137.59755582
 20
53.7451232842
  0
LINE
  5
2AD
100
AcDbEntity
  8
RACCORDO
100
AcDbLine
 62
253
  6
CONTINUOUS
 10
233.0755317983
 20
53.6075306472
 11
232.9665909564
 21
53.6075306472
  0
LINE
  5
2AE
100
AcDbEntity
  8
ASSI
100
AcDbLine
 62
253
  6
CONTINUOUS
 10
233.0755317983
 20
53.6075306472
 11
232.9665909564
 21
53.6075306472
  0
LINE
  5
2AF
100
AcDbEntity
  8
RACCORDO
100
AcDbLine
 62
253
  6
CONTINUOUS
 10
111.0755317983
 20
53.6075306472
 11
111.1844726403
 21
53.6075306472
  0
LINE
  5
2B0
100
AcDbEntity
  8
ASSI
100
AcDbLine
 62
253
  6
CONTINUOUS
 10
111.0755317983
 20
53.6075306472
 11
111.1844726403
 21
53.6075306472
  0
LWPOLYLINE
  5
2B1
100
AcDbEntity
  8
RACCORDO
100
AcDbPolyline
 62
253
  6
CONTINUOUS
 90
18
 70
0
 10
206.6786925298
 20
53.7443320709
 10
206.5947381669
 20
53.7446845885
 10
206.5535078134
 20
53.7451232553
 10
206.513167699
 20
53.7457331144
 10
206.4740046967
 20
53.7465098291
 10
206.4362973086
 20
53.7474478758
 10
206.4003136856
 20
53.7485405837
 10
206.3663097202
 20
53.7497801823
 10
206.3345272266
 20
53.7511578562
 10
206.3051922218
 20
53.7526638083
 10
206.2785133174
 20
53.7542873293
 10
206.2546802367
 20
53.7560168737
 10
206.2338624653
 20
53.7578401422
 10
206.2162080459
 20
53.7597441687
 10
206.2018425254
 20
53.7617154132
 10
206.1908680622
 20
53.7637398573
 10
206.1833626996
 20
53.7658031045
 10
206.1793798109
 20
53.7678904823
  0
LWPOLYLINE
  5
2B2
100
AcDbEntity
  8
ASSI
100
AcDbPolyline
 62
253
  6
CONTINUOUS
 90
18
 70
0
 10
206.6786925298
 20
53.7443320709
 10
206.5947381669
 20
53.7446845885
 10
206.5535078134
 20
53.7451232553
 10
206.513167699
 20
53.7457331144
 10
206.4740046967
 20
53.7465098291
 10
206.4362973086
 20
53.7474478758
 10
206.4003136856
 20
53.7485405837
 10
206.3663097202
 20
53.7497801823
 10
206.3345272266
 20
53.7511578562
 10
206.3051922218
 20
53.7526638083
 10
206.2785133174
 20
53.7542873293
 10
206.2546802367
 20
53.7560168737
 10
206.2338624653
 20
53.7578401422
 10
206.2162080459
 20
53.7597441687
 10
206.2018425254
 20
53.7617154132
 10
206.1908680622
 20
53.7637398573
 10
206.1833626996
 20
53.7658031045
 10
206.1793798109
 20
53.7678904823
  0
LINE
  5
2B3
100
AcDbEntity
  8
RACCORDO
100
AcDbLine
 62
253
  6
CONTINUOUS
 10
111.1861849716
 20
32.0317958541
 11
111.0755345202
 21
31.9192926528
  0
LINE
  5
2B4
100
AcDbEntity
  8
ASSI
100
AcDbLine
 62
253
  6
CONTINUOUS
 10
111.1861849716
 20
32.0317958541
 11
111.0755345202
 21
31.9192926528
  0
LINE
  5
2B5
100
AcDbEntity
  8
RACCORDO
100
AcDbLine
 62
253
  6
CONTINUOUS
 10
111.978346978
 20
31.2428182423
 11
111.8597690076
 21
31.1223081755
  0
LINE
  5
2B6
100
AcDbEntity
  8
ASSI
100
AcDbLine
 62
253
  6
CONTINUOUS
 10
111.978346978
 20
31.2428182423
 11
111.8597690076
 21
31.1223081755
  0
LWPOLYLINE
  5
2B7
100
AcDbEntity
  8
RACCORDO
100
AcDbPolyline
 62
253
  6
CONTINUOUS
 90
15
 70
0
 10
137.6607732643
 20
53.5644738675
 10
137.6987439869
 20
53.5749363768
 10
137.7353012999
 20
53.5852018221
 10
137.7701848474
 20
53.5951970944
 10
137.8031461936
 20
53.6048510086
 10
137.8339505925
 20
53.6140948111
 10
137.8623786595
 20
53.6228626689
 10
137.8882279341
 20
53.6310921384
 10
137.9113143213
 20
53.6387246107
 10
137.9314734031
 20
53.6457057283
 10
137.9485616095
 20
53.6519857728
 10
137.9624572406
 20
53.6575200185
 10
137.9730613338
 20
53.6622690515
 10
137.9802983681
 20
53.6661990498
 10
137.9841168025
 20
53.6692820245
  0
LWPOLYLINE
  5
2B8
100
AcDbEntity
  8
ASSI
100
AcDbPolyline
 62
253
  6
CONTINUOUS
 90
15
 70
0
 10
137.6607732643
 20
53.5644738675
 10
137.6987439869
 20
53.5749363768
 10
137.7353012999
 20
53.5852018221
 10
137.7701848474
 20
53.5951970944
 10
137.8031461936
 20
53.6048510086
 10
137.8339505925
 20
53.6140948111
 10
137.8623786595
 20
53.6228626689
 10
137.8882279341
 20
53.6310921384
 10
137.9113143213
 20
53.6387246107
 10
137.9314734031
 20
53.6457057283
 10
137.9485616095
 20
53.6519857728
 10
137.9624572406
 20
53.6575200185
 10
137.9730613338
 20
53.6622690515
 10
137.9802983681
 20
53.6661990498
 10
137.9841168025
 20
53.6692820245
  0
LINE
  5
2B9
100
AcDbEntity
  8
RACCORDO
100
AcDbLine
 62
253
  6
CONTINUOUS
 10
137.5816814188
 20
53.5432565794
 11
137.6607732643
 21
53.5644738675
  0
LINE
  5
2BA
100
AcDbEntity
  8
ASSI
100
AcDbLine
 62
253
  6
CONTINUOUS
 10
137.5816814188
 20
53.5432565794
 11
137.6607732643
 21
53.5644738675
  0
LINE
  5
2BB
100
AcDbEntity
  8
RACCORDO
100
AcDbLine
 62
253
  6
CONTINUOUS
 10
137.5002748756
 20
53.5221533077
 11
137.5816814188
 21
53.5432565794
  0
LINE
  5
2BC
100
AcDbEntity
  8
ASSI
100
AcDbLine
 62
253
  6
CONTINUOUS
 10
137.5002748756
 20
53.5221533077
 11
137.5816814188
 21
53.5432565794
  0
LINE
  5
2BD
100
AcDbEntity
  8
RACCORDO
100
AcDbLine
 62
253
  6
CONTINUOUS
 10
206.6507887213
 20
53.5221533876
 11
206.5693821415
 21
53.5432566585
  0
LINE
  5
2BE
100
AcDbEntity
  8
ASSI
100
AcDbLine
 62
253
  6
CONTINUOUS
 10
206.6507887213
 20
53.5221533876
 11
206.5693821415
 21
53.5432566585
  0
LWPOLYLINE
  5
2BF
100
AcDbEntity
  8
RACCORDO
100
AcDbPolyline
 62
253
  6
CONTINUOUS
 90
16
 70
0
 10
206.5693821415
 20
53.5432566585
 10
206.4902902199
 20
53.5644739556
 10
206.4523194481
 20
53.5749364722
 10
206.4157620806
 20
53.5852019263
 10
206.3808784749
 20
53.5951972083
 10
206.3479170682
 20
53.6048511331
 10
206.317112608
 20
53.6140949465
 10
206.2886844802
 20
53.6228628151
 10
206.2628351469
 20
53.6310922951
 10
206.2397487042
 20
53.6387247773
 10
206.2195895711
 20
53.6457059038
 10
206.2025013188
 20
53.6519859561
 10
206.1886056479
 20
53.6575202082
 10
206.1780015219
 20
53.6622692458
 10
206.1707644622
 20
53.666199247
 10
206.1669460104
 20
53.6692822227
  0
LWPOLYLINE
  5
2C0
100
AcDbEntity
  8
ASSI
100
AcDbPolyline
 62
253
  6
CONTINUOUS
 90
16
 70
0
 10
206.5693821415
 20
53.5432566585
 10
206.4902902199
 20
53.5644739556
 10
206.4523194481
 20
53.5749364722
 10
206.4157620806
 20
53.5852019263
 10
206.3808784749
 20
53.5951972083
 10
206.3479170682
 20
53.6048511331
 10
206.317112608
 20
53.6140949465
 10
206.2886844802
 20
53.6228628151
 10
206.2628351469
 20
53.6310922951
 10
206.2397487042
 20
53.6387247773
 10
206.2195895711
 20
53.6457059038
 10
206.2025013188
 20
53.6519859561
 10
206.1886056479
 20
53.6575202082
 10
206.1780015219
 20
53.6622692458
 10
206.1707644622
 20
53.666199247
 10
206.1669460104
 20
53.6692822227
  0
LINE
  5
2C1
100
AcDbEntity
  8
RACCORDO
100
AcDbLine
 62
253
  6
CONTINUOUS
 10
111.978346978
 20
121.0014874967
 11
111.8597690076
 21
121.1219975634
  0
LINE
  5
2C2
100
AcDbEntity
  8
ASSI
100
AcDbLine
 62
253
  6
CONTINUOUS
 10
111.978346978
 20
121.0014874967
 11
111.8597690076
 21
121.1219975634
  0
LINE
  5
2C3
100
AcDbEntity
  8
RACCORDO
100
AcDbLine
 62
253
  6
CONTINUOUS
 10
111.1861849716
 20
120.2125098849
 11
111.0755345202
 21
120.3250130861
  0
LINE
  5
2C4
100
AcDbEntity
  8
ASSI
100
AcDbLine
 62
253
  6
CONTINUOUS
 10
111.1861849716
 20
120.2125098849
 11
111.0755345202
 21
120.3250130861
  0
LINE
  5
2C5
100
AcDbEntity
  8
SCRITTA
100
AcDbLine
 62
253
  6
CONTINUOUS
 10
166.5718637983
 20
50.0440548695
 11
167.4594247983
 21
47.2443518695
  0
LINE
  5
2C6
100
AcDbEntity
  8
SCRITTA
100
AcDbLine
 62
253
  6
CONTINUOUS
 10
167.7403857983
 20
48.1169328695
 11
167.2067117983
 21
50.0440548695
  0
LINE
  5
2C7
100
AcDbEntity
  8
RACCORDO
100
AcDbLine
 62
253
  6
CONTINUOUS
 10
137.9716841317
 20
53.7678910673
 11
138.0255317905
 21
53.8215953352
  0
LINE
  5
2C8
100
AcDbEntity
  8
ASSI
100
AcDbLine
 62
253
  6
CONTINUOUS
 10
137.9716841317
 20
53.7678910673
 11
138.0255317905
 21
53.8215953352
  0
LINE
  5
2C9
100
AcDbEntity
  8
RACCORDO
100
AcDbLine
 62
253
  6
CONTINUOUS
 10
138.3735580625
 20
53.3698313071
 11
138.4260365208
 21
53.4221528695
  0
LINE
  5
2CA
100
AcDbEntity
  8
ASSI
100
AcDbLine
 62
253
  6
CONTINUOUS
 10
138.3735580625
 20
53.3698313071
 11
138.4260365208
 21
53.4221528695
  0
LINE
  5
2CB
100
AcDbEntity
  8
RACCORDO
100
AcDbLine
 62
253
  6
CONTINUOUS
 10
137.971684126
 20
98.4764233743
 11
138.0255317905
 21
98.4227104037
  0
LINE
  5
2CC
100
AcDbEntity
  8
ASSI
100
AcDbLine
 62
253
  6
CONTINUOUS
 10
137.971684126
 20
98.4764233743
 11
138.0255317905
 21
98.4227104037
  0
LINE
  5
2CD
100
AcDbEntity
  8
RACCORDO
100
AcDbLine
 62
253
  6
CONTINUOUS
 10
138.3735859949
 20
98.8744744318
 11
138.4260365208
 21
98.8221528695
  0
LINE
  5
2CE
100
AcDbEntity
  8
ASSI
100
AcDbLine
 62
253
  6
CONTINUOUS
 10
138.3735859949
 20
98.8744744318
 11
138.4260365208
 21
98.8221528695
  0
LWPOLYLINE
  5
2CF
100
AcDbEntity
  8
SCRITTA
100
AcDbPolyline
 62
253
  6
CONTINUOUS
 90
47
 70
0
 10
176.6169119147
 20
48.0935483792
 10
176.6129791773
 20
48.1036446669
 10
176.6088694095
 20
48.1134996673
 10
176.6045917068
 20
48.1231158344
 10
176.6001551646
 20
48.1324956225
 10
176.5955688784
 20
48.1416414855
 10
176.5908419437
 20
48.1505558776
 10
176.5859834559
 20
48.159241253
 10
176.5810025105
 20
48.1677000656
 10
176.5759082031
 20
48.1759347697
 10
176.570709629
 20
48.1839478194
 10
176.5648202009
 20
48.1925944174
 10
176.5588136989
 20
48.2009749026
 10
176.5526905444
 20
48.2090937799
 10
176.5464511588
 20
48.2169555542
 10
176.5400959635
 20
48.2245647305
 10
176.5336253798
 20
48.2319258135
 10
176.5270398292
 20
48.2390433084
 10
176.5203397331
 20
48.2459217199
 10
176.5135255128
 20
48.252565553
 10
176.5065978043
 20
48.2589779564
 10
176.4995581024
 20
48.2651566546
 10
176.4924081162
 20
48.2710980157
 10
176.4851495551
 20
48.2767984081
 10
176.4777841284
 20
48.2822541999
 10
176.4703135452
 20
48.2874617593
 10
176.4627395149
 20
48.2924174547
 10
176.4550637468
 20
48.2971176542
 10
176.4472879502
 20
48.3015587262
 10
176.4394136414
 20
48.3057383867
 10
176.4314415654
 20
48.3096597443
 10
176.4233722742
 20
48.313327255
 10
176.41520632
 20
48.3167453754
 10
176.4069442548
 20
48.3199185616
 10
176.3985866307
 20
48.32285127
 10
176.3901339997
 20
48.3255479569
 10
176.381586914
 20
48.3280130786
 10
176.3729459255
 20
48.3302510915
 10
176.3642114633
 20
48.3322652067
 10
176.355383464
 20
48.3340536552
 10
176.346461741
 20
48.335613423
 10
176.3374461078
 20
48.3369414959
 10
176.3283363778
 20
48.3380348599
 10
176.3191323647
 20
48.3388905009
 10
176.3098338818
 20
48.3395054047
 10
176.3004407426
 20
48.3398765574
 10
176.2909527606
 20
48.3400009447
  0
LINE
  5
2D0
100
AcDbEntity
  8
SCRITTA
100
AcDbLine
 62
253
  6
CONTINUOUS
 10
170.6754637983
 20
49.0725058695
 11
171.3610447983
 21
47.2443518695
  0
LINE
  5
2D1
100
AcDbEntity
  8
SCRITTA
100
AcDbLine
 62
253
  6
CONTINUOUS
 10
171.4052177983
 20
48.4896508695
 11
170.8269817983
 21
50.0440548695
  0
LINE
  5
2D2
100
AcDbEntity
  8
SCRITTA
100
AcDbLine
 62
253
  6
CONTINUOUS
 10
175.2239397983
 20
47.2443518695
 11
174.3649217983
 21
50.0440548695
  0
LINE
  5
2D3
100
AcDbEntity
  8
SCRITTA
100
AcDbLine
 62
253
  6
CONTINUOUS
 10
174.4566057983
 20
47.8032718695
 11
174.6079977983
 21
47.2443518695
  0
LINE
  5
2D4
100
AcDbEntity
  8
SCRITTA
100
AcDbLine
 62
253
  6
CONTINUOUS
 10
172.8296437983
 20
47.2443518695
 11
172.5678397983
 21
50.0440548695
  0
LINE
  5
2D5
100
AcDbEntity
  8
SCRITTA
100
AcDbLine
 62
253
  6
CONTINUOUS
 10
172.1378687983
 20
49.0648838695
 11
172.2579377983
 21
47.2443518695
  0
LINE
  5
2D6
100
AcDbEntity
  8
SCRITTA
100
AcDbLine
 62
253
  6
CONTINUOUS
 10
169.0912467983
 20
47.2443518695
 11
169.0912467983
 21
50.0442229438
  0
LINE
  5
2D7
100
AcDbEntity
  8
SCRITTA
100
AcDbLine
 62
253
  6
CONTINUOUS
 10
169.6756547983
 20
50.0442228695
 11
169.6756547983
 21
47.2443517953
  0
LINE
  5
2D8
100
AcDbEntity
  8
SCRITTA
100
AcDbLine
 62
253
  6
CONTINUOUS
 10
170.5493487983
 20
47.2443518695
 11
170.6754637983
 21
49.0725058695
  0
LINE
  5
2D9
100
AcDbEntity
  8
SCRITTA
100
AcDbLine
 62
253
  6
CONTINUOUS
 10
170.2430567983
 20
50.0440548695
 11
169.9902597983
 21
47.2443518695
  0
LWPOLYLINE
  5
2DA
100
AcDbEntity
  8
0
100
AcDbPolyline
 62
7
  6
CONTINUOUS
 90
13
 70
0
 43
0.3500000006
 10
246.468397522
 20
76.1221519775
 10
245.1826724854
 20
76.1221519775
 10
244.7541035156
 20
76.3364364624
 10
244.3255345459
 20
76.7650144958
 10
244.3255345459
 20
76.9792989807
 10
244.7541035156
 20
77.4078679504
 10
245.1826724854
 20
77.6221524353
 10
246.468397522
 20
77.6221524353
 10
246.8969664917
 20
77.4078679504
 10
247.3255354614
 20
76.9792989807
 10
247.3255354614
 20
76.7650144958
 10
246.8969664917
 20
76.3364364624
 10
246.468397522
 20
76.1221519775
  0
LWPOLYLINE
  5
2DB
100
AcDbEntity
  8
SCRITTA
100
AcDbPolyline
 62
253
  6
CONTINUOUS
 90
8
 70
0
 10
176.7030624332
 20
47.830364814
 10
176.6914841076
 20
47.8693826658
 10
176.6797365509
 20
47.9079506981
 10
176.6677767838
 20
47.9460514064
 10
176.6555618271
 20
47.9836672858
 10
176.6430487015
 20
48.0207808318
 10
176.6301944279
 20
48.0573745398
 10
176.616956027
 20
48.093430905
  0
LINE
  5
2DC
100
AcDbEntity
  8
SCRITTA
100
AcDbLine
 62
253
  6
CONTINUOUS
 10
176.8576295288
 20
47.2959528126
 11
176.784397288
 21
47.5461726285
  0
LINE
  5
2DD
100
AcDbEntity
  8
SCRITTA
100
AcDbLine
 62
253
  6
CONTINUOUS
 10
176.8725474202
 20
47.2443515151
 11
176.8576295288
 21
47.2959528126
  0
LWPOLYLINE
  5
2DE
100
AcDbEntity
  8
SCRITTA
100
AcDbPolyline
 62
253
  6
CONTINUOUS
 90
4
 70
0
 10
176.784397288
 20
47.5461726285
 10
176.74309616
 20
47.6905311116
 10
176.7297275413
 20
47.7376776376
 10
176.7030624332
 20
47.830364814
  0
LINE
  5
2DF
100
AcDbEntity
  8
SCRITTA
100
AcDbLine
 62
253
  6
CONTINUOUS
 10
177.2163910071
 20
48.0701894612
 11
177.2700118772
 21
47.8716708569
  0
LINE
  5
2E0
100
AcDbEntity
  8
SCRITTA
100
AcDbLine
 62
253
  6
CONTINUOUS
 10
177.402171414
 20
47.3663633065
 11
177.4346800103
 21
47.2443515151
  0
LINE
  5
2E1
100
AcDbEntity
  8
SCRITTA
100
AcDbLine
 62
253
  6
CONTINUOUS
 10
177.2700118772
 20
47.8716708569
 11
177.3372908434
 21
47.6157118739
  0
LINE
  5
2E2
100
AcDbEntity
  8
SCRITTA
100
AcDbLine
 62
253
  6
CONTINUOUS
 10
177.3372908434
 20
47.6157118739
 11
177.402171414
 21
47.3663633065
  0
LINE
  5
2E3
100
AcDbEntity
  8
SCRITTA
100
AcDbLine
 62
253
  6
CONTINUOUS
 10
174.0712687983
 20
49.2747678695
 11
174.3398117983
 21
48.2357618695
  0
LWPOLYLINE
  5
2E4
100
AcDbEntity
  8
SCRITTA
100
AcDbPolyline
 62
253
  6
CONTINUOUS
 90
49
 70
0
 10
176.7461850964
 20
49.2332902981
 10
176.7458694733
 20
49.2437895731
 10
176.7452344277
 20
49.2542310382
 10
176.7442830841
 20
49.2646185111
 10
176.7430185671
 20
49.2749558093
 10
176.741444001
 20
49.2852467504
 10
176.7395625105
 20
49.295495152
 10
176.7373772199
 20
49.3057048317
 10
176.7348912538
 20
49.3158796071
 10
176.7321072084
 20
49.3260207765
 10
176.7290255663
 20
49.3361195618
 10
176.7256462817
 20
49.3461646656
 10
176.7219693091
 20
49.3561447903
 10
176.7179946026
 20
49.3660486385
 10
176.7137221166
 20
49.3758649129
 10
176.7091518055
 20
49.3855823159
 10
176.7042836234
 20
49.3951895503
 10
176.6991175059
 20
49.404674817
 10
176.6936533136
 20
49.414024311
 10
176.6878908882
 20
49.423223726
 10
176.6818300715
 20
49.4322587554
 10
176.6754707051
 20
49.4411150928
 10
176.668812631
 20
49.4497784318
 10
176.6618556908
 20
49.4582344658
 10
176.6545997263
 20
49.4664688885
 10
176.6470465332
 20
49.4744688654
 10
176.6392057231
 20
49.4822274504
 10
176.6310888617
 20
49.4897391694
 10
176.6227075146
 20
49.4969985482
 10
176.6140732474
 20
49.5040001129
 10
176.6051976256
 20
49.5107383893
 10
176.5960922149
 20
49.5172079033
 10
176.5867685809
 20
49.5234031808
 10
176.5772383019
 20
49.5293194931
 10
176.5675130071
 20
49.5349550926
 10
176.5576043385
 20
49.540308977
 10
176.5475239378
 20
49.545380144
 10
176.5372834472
 20
49.5501675914
 10
176.5268945083
 20
49.5546703169
 10
176.5163687633
 20
49.5588873182
 10
176.505717854
 20
49.562817593
 10
176.4949507536
 20
49.566459679
 10
176.4840657608
 20
49.569810273
 10
176.4730585053
 20
49.572865612
 10
176.4619246171
 20
49.5756219327
 10
176.450659726
 20
49.5780754719
 10
176.4392594619
 20
49.5802224665
 10
176.4277194548
 20
49.5820591532
 10
176.4160353345
 20
49.5835817689
  0
LINE
  5
2E5
100
AcDbEntity
  8
SCRITTA
100
AcDbLine
 62
253
  6
CONTINUOUS
 10
175.3955506007
 20
47.2443515151
 11
175.3955506007
 21
50.011345405
  0
LINE
  5
2E6
100
AcDbEntity
  8
SCRITTA
100
AcDbLine
 62
253
  6
CONTINUOUS
 10
175.9582290524
 20
49.5670980735
 11
175.9582290524
 21
48.7985247552
  0
LINE
  5
2E7
100
AcDbEntity
  8
SCRITTA
100
AcDbLine
 62
253
  6
CONTINUOUS
 10
175.9776071432
 20
48.3400009447
 11
175.9776071432
 21
47.2443515272
  0
LINE
  5
2E8
100
AcDbEntity
  8
SCRITTA
100
AcDbLine
 62
253
  6
CONTINUOUS
 10
176.8980349632
 20
48.5677722414
 11
176.8980349632
 21
48.5512284322
  0
LINE
  5
2E9
100
AcDbEntity
  8
SCRITTA
100
AcDbLine
 62
253
  6
CONTINUOUS
 10
168.2903627983
 20
50.0440548695
 11
167.7403857983
 21
48.1169328695
  0
LINE
  5
2EA
100
AcDbEntity
  8
SCRITTA
100
AcDbLine
 62
253
  6
CONTINUOUS
 10
167.9744347983
 20
47.2443518695
 11
168.8743717983
 21
50.0440548695
  0
LINE
  5
2EB
100
AcDbEntity
  8
SCRITTA
100
AcDbLine
 62
253
  6
CONTINUOUS
 10
173.7802827983
 20
48.2357618695
 11
174.0712687983
 21
49.2747678695
  0
LINE
  5
2EC
100
AcDbEntity
  8
SCRITTA
100
AcDbLine
 62
253
  6
CONTINUOUS
 10
173.4994787983
 20
47.2443518695
 11
173.6607387983
 21
47.8032718695
  0
LINE
  5
2ED
100
AcDbEntity
  8
SCRITTA
100
AcDbLine
 62
253
  6
CONTINUOUS
 10
173.7995767983
 20
50.0440548695
 11
172.9214117983
 21
47.2443518695
  0
LINE
  5
2EE
100
AcDbEntity
  8
SCRITTA
100
AcDbLine
 62
253
  6
CONTINUOUS
 10
171.9896257983
 20
50.0440548695
 11
171.4052177983
 21
48.4896508695
  0
LINE
  5
2EF
100
AcDbEntity
  8
SCRITTA
100
AcDbLine
 62
253
  6
CONTINUOUS
 10
171.4430077983
 20
47.2443518695
 11
172.1378687983
 21
49.0648838695
  0
LINE
  5
2F0
100
AcDbEntity
  8
RACCORDO
100
AcDbLine
 62
253
  6
CONTINUOUS
 10
232.1727166186
 20
121.0014874967
 11
232.291294589
 21
121.1219975634
  0
LINE
  5
2F1
100
AcDbEntity
  8
ASSI
100
AcDbLine
 62
253
  6
CONTINUOUS
 10
232.1727166186
 20
121.0014874967
 11
232.291294589
 21
121.1219975634
  0
LINE
  5
2F2
100
AcDbEntity
  8
RACCORDO
100
AcDbLine
 62
253
  6
CONTINUOUS
 10
205.7250270759
 20
98.8221528695
 11
205.7774776139
 21
98.8744744318
  0
LINE
  5
2F3
100
AcDbEntity
  8
ASSI
100
AcDbLine
 62
253
  6
CONTINUOUS
 10
205.7250270759
 20
98.8221528695
 11
205.7774776139
 21
98.8744744318
  0
LINE
  5
2F4
100
AcDbEntity
  8
RACCORDO
100
AcDbLine
 62
253
  6
CONTINUOUS
 10
206.1255318062
 20
98.4227104037
 11
206.1793794708
 21
98.4764235196
  0
LINE
  5
2F5
100
AcDbEntity
  8
ASSI
100
AcDbLine
 62
253
  6
CONTINUOUS
 10
206.1255318062
 20
98.4227104037
 11
206.1793794708
 21
98.4764235196
  0
LINE
  5
2F6
100
AcDbEntity
  8
RACCORDO
100
AcDbLine
 62
253
  6
CONTINUOUS
 10
205.7774774911
 20
53.3698313071
 11
205.7250270759
 21
53.4221528695
  0
LINE
  5
2F7
100
AcDbEntity
  8
ASSI
100
AcDbLine
 62
253
  6
CONTINUOUS
 10
205.7774774911
 20
53.3698313071
 11
205.7250270759
 21
53.4221528695
  0
LINE
  5
2F8
100
AcDbEntity
  8
RACCORDO
100
AcDbLine
 62
253
  6
CONTINUOUS
 10
206.1793794698
 20
53.7678836912
 11
206.1255318062
 21
53.8215953352
  0
LINE
  5
2F9
100
AcDbEntity
  8
ASSI
100
AcDbLine
 62
253
  6
CONTINUOUS
 10
206.1793794698
 20
53.7678836912
 11
206.1255318062
 21
53.8215953352
  0
LINE
  5
2FA
100
AcDbEntity
  8
RACCORDO
100
AcDbLine
 62
253
  6
CONTINUOUS
 10
232.1727166186
 20
31.2428182423
 11
232.291294589
 21
31.1223081755
  0
LINE
  5
2FB
100
AcDbEntity
  8
ASSI
100
AcDbLine
 62
253
  6
CONTINUOUS
 10
232.1727166186
 20
31.2428182423
 11
232.291294589
 21
31.1223081755
  0
LINE
  5
2FC
100
AcDbEntity
  8
RACCORDO
100
AcDbLine
 62
253
  6
CONTINUOUS
 10
232.9648786251
 20
120.2125098848
 11
233.0755290765
 21
120.3250130861
  0
LINE
  5
2FD
100
AcDbEntity
  8
ASSI
100
AcDbLine
 62
253
  6
CONTINUOUS
 10
232.9648786251
 20
120.2125098848
 11
233.0755290765
 21
120.3250130861
  0
LWPOLYLINE
  5
2FE
100
AcDbEntity
  8
RACCORDO
100
AcDbPolyline
 62
253
  6
CONTINUOUS
 90
15
 70
0
 10
206.4902905459
 20
98.6798320258
 10
206.4523199087
 20
98.6693695277
 10
206.4157626887
 20
98.6591040962
 10
206.3808792394
 20
98.6491088394
 10
206.3479179937
 20
98.6394549418
 10
206.3171136954
 20
98.6302111565
 10
206.2886857265
 20
98.6214433158
 10
206.2628365455
 20
98.6132138627
 10
206.2397502452
 20
98.6055814057
 10
206.2195912418
 20
98.5986003015
 10
206.2025031037
 20
98.5923202684
 10
206.1886075294
 20
98.5867860314
 10
206.1780034803
 20
98.5820370042
 10
206.1707664765
 20
98.5781070086
 10
206.1669480585
 20
98.5750240331
  0
LWPOLYLINE
  5
2FF
100
AcDbEntity
  8
ASSI
100
AcDbPolyline
 62
253
  6
CONTINUOUS
 90
15
 70
0
 10
206.4902905459
 20
98.6798320258
 10
206.4523199087
 20
98.6693695277
 10
206.4157626887
 20
98.6591040962
 10
206.3808792394
 20
98.6491088394
 10
206.3479179937
 20
98.6394549418
 10
206.3171136954
 20
98.6302111565
 10
206.2886857265
 20
98.6214433158
 10
206.2628365455
 20
98.6132138627
 10
206.2397502452
 20
98.6055814057
 10
206.2195912418
 20
98.5986003015
 10
206.2025031037
 20
98.5923202684
 10
206.1886075294
 20
98.5867860314
 10
206.1780034803
 20
98.5820370042
 10
206.1707664765
 20
98.5781070086
 10
206.1669480585
 20
98.5750240331
  0
LINE
  5
300
100
AcDbEntity
  8
RACCORDO
100
AcDbLine
 62
253
  6
CONTINUOUS
 10
206.5693822538
 20
98.7010493012
 11
206.4902905459
 21
98.6798320258
  0
LINE
  5
301
100
AcDbEntity
  8
ASSI
100
AcDbLine
 62
253
  6
CONTINUOUS
 10
206.5693822538
 20
98.7010493012
 11
206.4902905459
 21
98.6798320258
  0
LINE
  5
302
100
AcDbEntity
  8
RACCORDO
100
AcDbLine
 62
253
  6
CONTINUOUS
 10
206.6507887213
 20
98.7221525774
 11
206.5693822538
 21
98.7010493012
  0
LINE
  5
303
100
AcDbEntity
  8
ASSI
100
AcDbLine
 62
253
  6
CONTINUOUS
 10
206.6507887213
 20
98.7221525774
 11
206.5693822538
 21
98.7010493012
  0
LINE
  5
304
100
AcDbEntity
  8
RACCORDO
100
AcDbLine
 62
253
  6
CONTINUOUS
 10
137.5002748753
 20
98.7221523859
 11
137.5816814395
 21
98.701049114
  0
LINE
  5
305
100
AcDbEntity
  8
ASSI
100
AcDbLine
 62
253
  6
CONTINUOUS
 10
137.5002748753
 20
98.7221523859
 11
137.5816814395
 21
98.701049114
  0
LWPOLYLINE
  5
306
100
AcDbEntity
  8
RACCORDO
100
AcDbPolyline
 62
253
  6
CONTINUOUS
 90
16
 70
0
 10
137.5816814395
 20
98.701049114
 10
137.6607733325
 20
98.6798318193
 10
137.6987440865
 20
98.6693693049
 10
137.7353014346
 20
98.6591038535
 10
137.7701850198
 20
98.6491085745
 10
137.8031464055
 20
98.6394546529
 10
137.8339508447
 20
98.6302108429
 10
137.8623789519
 20
98.6214429776
 10
137.8882282656
 20
98.6132135007
 10
137.9113146901
 20
98.6055810215
 10
137.9314738067
 20
98.5985998974
 10
137.9485620447
 20
98.5923198473
 10
137.9624577036
 20
98.5867855967
 10
137.9730618202
 20
98.58203656
 10
137.9802988734
 20
98.5781065591
 10
137.9841173217
 20
98.5750235829
  0
LWPOLYLINE
  5
307
100
AcDbEntity
  8
ASSI
100
AcDbPolyline
 62
253
  6
CONTINUOUS
 90
16
 70
0
 10
137.5816814395
 20
98.701049114
 10
137.6607733325
 20
98.6798318193
 10
137.6987440865
 20
98.6693693049
 10
137.7353014346
 20
98.6591038535
 10
137.7701850198
 20
98.6491085745
 10
137.8031464055
 20
98.6394546529
 10
137.8339508447
 20
98.6302108429
 10
137.8623789519
 20
98.6214429776
 10
137.8882282656
 20
98.6132135007
 10
137.9113146901
 20
98.6055810215
 10
137.9314738067
 20
98.5985998974
 10
137.9485620447
 20
98.5923198473
 10
137.9624577036
 20
98.5867855967
 10
137.9730618202
 20
98.58203656
 10
137.9802988734
 20
98.5781065591
 10
137.9841173217
 20
98.5750235829
  0
LINE
  5
308
100
AcDbEntity
  8
RACCORDO
100
AcDbLine
 62
253
  6
CONTINUOUS
 10
232.9648786251
 20
32.031795854
 11
233.0755290765
 21
31.9192926528
  0
LINE
  5
309
100
AcDbEntity
  8
ASSI
100
AcDbLine
 62
253
  6
CONTINUOUS
 10
232.9648786251
 20
32.031795854
 11
233.0755290765
 21
31.9192926528
  0
LWPOLYLINE
  5
30A
100
AcDbEntity
  8
RACCORDO
100
AcDbPolyline
 62
7
  6
CONTINUOUS
 90
22
 70
0
 10
138.4260365208
 20
98.8221528695
 10
138.3959048807
 20
98.8209850259
 10
138.3662786274
 20
98.8176653887
 10
138.3371577608
 20
98.8121939555
 10
138.3084098637
 20
98.8045310996
 10
138.2801673533
 20
98.794716438
 10
138.2528274816
 20
98.7828688316
 10
138.2263745151
 20
98.7689548296
 10
138.2008241872
 20
98.753007865
 10
138.17662095
 20
98.7352471239
 10
138.1537566947
 20
98.7155909881
 10
138.1322395302
 20
98.6941210525
 10
138.1125382344
 20
98.6713013264
 10
138.0947315157
 20
98.6471274702
 10
138.0787406657
 20
98.6216038021
 10
138.064798338
 20
98.5952073237
 10
138.0529486337
 20
98.5679763913
 10
138.0431474518
 20
98.5398726334
 10
138.0354951415
 20
98.5112579676
 10
138.0300251528
 20
98.4822530314
 10
138.0267040358
 20
98.4527371784
 10
138.0255317905
 20
98.4227104037
  0
LWPOLYLINE
  5
30B
100
AcDbEntity
  8
ASSI
100
AcDbPolyline
 62
7
  6
CONTINUOUS
 90
22
 70
0
 10
138.4260365208
 20
98.8221528695
 10
138.3959048807
 20
98.8209850259
 10
138.3662786274
 20
98.8176653887
 10
138.3371577608
 20
98.8121939555
 10
138.3084098637
 20
98.8045310996
 10
138.2801673533
 20
98.794716438
 10
138.2528274816
 20
98.7828688316
 10
138.2263745151
 20
98.7689548296
 10
138.2008241872
 20
98.753007865
 10
138.17662095
 20
98.7352471239
 10
138.1537566947
 20
98.7155909881
 10
138.1322395302
 20
98.6941210525
 10
138.1125382344
 20
98.6713013264
 10
138.0947315157
 20
98.6471274702
 10
138.0787406657
 20
98.6216038021
 10
138.064798338
 20
98.5952073237
 10
138.0529486337
 20
98.5679763913
 10
138.0431474518
 20
98.5398726334
 10
138.0354951415
 20
98.5112579676
 10
138.0300251528
 20
98.4822530314
 10
138.0267040358
 20
98.4527371784
 10
138.0255317905
 20
98.4227104037
  0
LWPOLYLINE
  5
30C
100
AcDbEntity
  8
RACCORDO
100
AcDbPolyline
 62
253
  6
CONTINUOUS
 90
16
 70
0
 10
206.5535077767
 20
98.4991824547
 10
206.5131676421
 20
98.4985725987
 10
206.4740046167
 20
98.497795887
 10
206.4362972035
 20
98.4968578431
 10
206.4003135539
 20
98.4957651377
 10
206.3663095612
 20
98.4945255416
 10
206.3345270403
 20
98.49314787
 10
206.3051920087
 20
98.4916419199
 10
206.2785130788
 20
98.4900184008
 10
206.2546799743
 20
98.4882888581
 10
206.2338621813
 20
98.4864655913
 10
206.216207743
 20
98.4845615662
 10
206.2018422067
 20
98.4825903231
 10
206.190867731
 20
98.4805658803
 10
206.1833623596
 20
98.4785026343
 10
206.1793794659
 20
98.4764152576
  0
LWPOLYLINE
  5
30D
100
AcDbEntity
  8
ASSI
100
AcDbPolyline
 62
253
  6
CONTINUOUS
 90
16
 70
0
 10
206.5535077767
 20
98.4991824547
 10
206.5131676421
 20
98.4985725987
 10
206.4740046167
 20
98.497795887
 10
206.4362972035
 20
98.4968578431
 10
206.4003135539
 20
98.4957651377
 10
206.3663095612
 20
98.4945255416
 10
206.3345270403
 20
98.49314787
 10
206.3051920087
 20
98.4916419199
 10
206.2785130788
 20
98.4900184008
 10
206.2546799743
 20
98.4882888581
 10
206.2338621813
 20
98.4864655913
 10
206.216207743
 20
98.4845615662
 10
206.2018422067
 20
98.4825903231
 10
206.190867731
 20
98.4805658803
 10
206.1833623596
 20
98.4785026343
 10
206.1793794659
 20
98.4764152576
  0
LWPOLYLINE
  5
30E
100
AcDbEntity
  8
RACCORDO
100
AcDbPolyline
 62
253
  6
CONTINUOUS
 90
3
 70
0
 10
111.5602023976
 20
98.6588678342
 10
111.6414057181
 20
98.659543312
 10
111.6825652057
 20
98.6596278015
  0
LWPOLYLINE
  5
30F
100
AcDbEntity
  8
ASSI
100
AcDbPolyline
 62
253
  6
CONTINUOUS
 90
3
 70
0
 10
111.5602023976
 20
98.6588678342
 10
111.6414057181
 20
98.659543312
 10
111.6825652057
 20
98.6596278015
  0
LINE
  5
310
100
AcDbEntity
  8
RACCORDO
100
AcDbLine
 62
253
  6
CONTINUOUS
 10
111.5602039469
 20
98.7213933309
 11
111.6414071772
 21
98.7220689978
  0
LINE
  5
311
100
AcDbEntity
  8
ASSI
100
AcDbLine
 62
253
  6
CONTINUOUS
 10
111.5602039469
 20
98.7213933309
 11
111.6414071772
 21
98.7220689978
  0
LWPOLYLINE
  5
312
100
AcDbEntity
  8
RACCORDO
100
AcDbPolyline
 62
253
  6
CONTINUOUS
 90
3
 70
0
 10
206.6786925298
 20
98.4999736289
 10
206.636565548
 20
98.4998854695
 10
206.5535077767
 20
98.4991824547
  0
LWPOLYLINE
  5
313
100
AcDbEntity
  8
ASSI
100
AcDbPolyline
 62
253
  6
CONTINUOUS
 90
3
 70
0
 10
206.6786925298
 20
98.4999736289
 10
206.636565548
 20
98.4998854695
 10
206.5535077767
 20
98.4991824547
  0
LINE
  5
314
100
AcDbEntity
  8
RACCORDO
100
AcDbLine
 62
253
  6
CONTINUOUS
 10
233.0755317983
 20
98.6367750917
 11
232.9665909564
 21
98.6367750917
  0
LINE
  5
315
100
AcDbEntity
  8
ASSI
100
AcDbLine
 62
253
  6
CONTINUOUS
 10
233.0755317983
 20
98.6367750917
 11
232.9665909564
 21
98.6367750917
  0
LINE
  5
316
100
AcDbEntity
  8
RACCORDO
100
AcDbLine
 62
253
  6
CONTINUOUS
 10
111.0755317983
 20
98.6367750917
 11
111.1844726403
 21
98.6367774849
  0
LINE
  5
317
100
AcDbEntity
  8
ASSI
100
AcDbLine
 62
253
  6
CONTINUOUS
 10
111.0755317983
 20
98.6367750917
 11
111.1844726403
 21
98.6367774849
  0
LINE
  5
318
100
AcDbEntity
  8
RACCORDO
100
AcDbLine
 62
253
  6
CONTINUOUS
 10
137.5002748753
 20
98.7221528695
 11
111.6414071772
 21
98.7220689978
  0
LINE
  5
319
100
AcDbEntity
  8
ASSI
100
AcDbLine
 62
253
  6
CONTINUOUS
 10
137.5002748753
 20
98.7221528695
 11
111.6414071772
 21
98.7220689978
  0
LINE
  5
31A
100
AcDbEntity
  8
RACCORDO
100
AcDbLine
 62
7
  6
CONTINUOUS
 10
205.7250270759
 20
98.8221528695
 11
138.4260365208
 21
98.8221528695
  0
LINE
  5
31B
100
AcDbEntity
  8
ASSI
100
AcDbLine
 62
7
  6
CONTINUOUS
 10
205.7250270759
 20
98.8221528695
 11
138.4260365208
 21
98.8221528695
  0
LINE
  5
31C
100
AcDbEntity
  8
RACCORDO
100
AcDbLine
 62
253
  6
CONTINUOUS
 10
138.3735859949
 20
98.8744744318
 11
205.7774776139
 21
98.8744744318
  0
LINE
  5
31D
100
AcDbEntity
  8
ASSI
100
AcDbLine
 62
253
  6
CONTINUOUS
 10
138.3735859949
 20
98.8744744318
 11
205.7774776139
 21
98.8744744318
  0
LINE
  5
31E
100
AcDbEntity
  8
RACCORDO
100
AcDbLine
 62
253
  6
CONTINUOUS
 10
138.3735782953
 20
99.4009190057
 11
205.7774853013
 21
99.4009190057
  0
LINE
  5
31F
100
AcDbEntity
  8
ASSI
100
AcDbLine
 62
253
  6
CONTINUOUS
 10
138.3735782953
 20
99.4009190057
 11
205.7774853013
 21
99.4009190057
  0
LINE
  5
320
100
AcDbEntity
  8
RACCORDO
100
AcDbLine
 62
253
  6
CONTINUOUS
 10
232.5096564208
 20
98.7220689991
 11
206.6507887214
 21
98.7221528695
  0
LINE
  5
321
100
AcDbEntity
  8
ASSI
100
AcDbLine
 62
253
  6
CONTINUOUS
 10
232.5096564208
 20
98.7220689991
 11
206.6507887214
 21
98.7221528695
  0
LWPOLYLINE
  5
322
100
AcDbEntity
  8
RACCORDO
100
AcDbPolyline
 62
253
  6
CONTINUOUS
 90
18
 70
0
 10
137.4723710669
 20
98.4999736659
 10
137.5563254312
 20
98.4996211486
 10
137.5975557857
 20
98.4991824821
 10
137.6378959015
 20
98.4985726231
 10
137.6770589053
 20
98.4977959086
 10
137.7147662949
 20
98.4968578621
 10
137.7507499196
 20
98.4957651543
 10
137.7847538868
 20
98.4945255559
 10
137.8165363821
 20
98.4931478821
 10
137.8458713886
 20
98.4916419301
 10
137.8725502946
 20
98.4900184092
 10
137.8963833768
 20
98.4882888649
 10
137.9172011495
 20
98.4864655965
 10
137.9348555701
 20
98.48456157
 10
137.9492210916
 20
98.4825903257
 10
137.9601955556
 20
98.4805658816
 10
137.9677009187
 20
98.4785026345
 10
137.9716838076
 20
98.4764152567
  0
LWPOLYLINE
  5
323
100
AcDbEntity
  8
ASSI
100
AcDbPolyline
 62
253
  6
CONTINUOUS
 90
18
 70
0
 10
137.4723710669
 20
98.4999736659
 10
137.5563254312
 20
98.4996211486
 10
137.5975557857
 20
98.4991824821
 10
137.6378959015
 20
98.4985726231
 10
137.6770589053
 20
98.4977959086
 10
137.7147662949
 20
98.4968578621
 10
137.7507499196
 20
98.4957651543
 10
137.7847538868
 20
98.4945255559
 10
137.8165363821
 20
98.4931478821
 10
137.8458713886
 20
98.4916419301
 10
137.8725502946
 20
98.4900184092
 10
137.8963833768
 20
98.4882888649
 10
137.9172011495
 20
98.4864655965
 10
137.9348555701
 20
98.48456157
 10
137.9492210916
 20
98.4825903257
 10
137.9601955556
 20
98.4805658816
 10
137.9677009187
 20
98.4785026345
 10
137.9716838076
 20
98.4764152567
  0
LWPOLYLINE
  5
324
100
AcDbEntity
  8
RACCORDO
100
AcDbPolyline
 62
253
  6
CONTINUOUS
 90
22
 70
0
 10
205.7774775877
 20
98.8744744056
 10
205.8028015218
 20
98.8737688506
 10
205.8280019756
 20
98.8714807214
 10
205.8529800014
 20
98.8676238475
 10
205.8776283214
 20
98.8622214535
 10
205.9018609895
 20
98.8552975813
 10
205.9256119082
 20
98.8468705884
 10
205.9487999202
 20
98.8369667274
 10
205.9713199963
 20
98.8256283087
 10
205.9930725276
 20
98.8129024885
 10
206.0139681851
 20
98.7988428508
 10
206.0339290332
 20
98.7835033535
 10
206.0528779392
 20
98.7669406231
 10
206.0707415339
 20
98.749218231
 10
206.0874472283
 20
98.7304078581
 10
206.1029253461
 20
98.7105849715
 10
206.1171141307
 20
98.6898292053
 10
206.1299585161
 20
98.6682222099
 10
206.1414068329
 20
98.6458483404
 10
206.1514135093
 20
98.6227958836
 10
206.1599393075
 20
98.5991567401
 10
206.1669504759
 20
98.5750246427
  0
LWPOLYLINE
  5
325
100
AcDbEntity
  8
ASSI
100
AcDbPolyline
 62
253
  6
CONTINUOUS
 90
22
 70
0
 10
205.7774775877
 20
98.8744744056
 10
205.8028015218
 20
98.8737688506
 10
205.8280019756
 20
98.8714807214
 10
205.8529800014
 20
98.8676238475
 10
205.8776283214
 20
98.8622214535
 10
205.9018609895
 20
98.8552975813
 10
205.9256119082
 20
98.8468705884
 10
205.9487999202
 20
98.8369667274
 10
205.9713199963
 20
98.8256283087
 10
205.9930725276
 20
98.8129024885
 10
206.0139681851
 20
98.7988428508
 10
206.0339290332
 20
98.7835033535
 10
206.0528779392
 20
98.7669406231
 10
206.0707415339
 20
98.749218231
 10
206.0874472283
 20
98.7304078581
 10
206.1029253461
 20
98.7105849715
 10
206.1171141307
 20
98.6898292053
 10
206.1299585161
 20
98.6682222099
 10
206.1414068329
 20
98.6458483404
 10
206.1514135093
 20
98.6227958836
 10
206.1599393075
 20
98.5991567401
 10
206.1669504759
 20
98.5750246427
  0
LWPOLYLINE
  5
326
100
AcDbEntity
  8
RACCORDO
100
AcDbPolyline
 62
253
  6
CONTINUOUS
 90
22
 70
0
 10
205.7774853013
 20
99.4009190057
 10
205.8346393041
 20
99.3990541926
 10
205.8910832278
 20
99.3937023123
 10
205.9468170723
 20
99.3848633469
 10
206.0020321983
 20
99.3724804971
 10
206.0565372452
 20
99.3566104901
 10
206.1097581309
 20
99.3374235823
 10
206.1617124299
 20
99.3148729186
 10
206.2123825677
 20
99.2890052206
 10
206.261141739
 20
99.2601311043
 10
206.3079579226
 20
99.22821681
 10
206.3528631397
 20
99.193295924
 10
206.3953266485
 20
99.1557800909
 10
206.4353198436
 20
99.1156370953
 10
206.4728713305
 20
99.0728989656
 10
206.5075361832
 20
99.0280737375
 10
206.5392856266
 20
98.9811141285
 10
206.5681484358
 20
98.9320672484
 10
206.5937660099
 20
98.8815827659
 10
206.6160188154
 20
98.8298772089
 10
206.6350263859
 20
98.7767339314
 10
206.6507887214
 20
98.7221528695
  0
LWPOLYLINE
  5
327
100
AcDbEntity
  8
ASSI
100
AcDbPolyline
 62
253
  6
CONTINUOUS
 90
22
 70
0
 10
205.7774853013
 20
99.4009190057
 10
205.8346393041
 20
99.3990541926
 10
205.8910832278
 20
99.3937023123
 10
205.9468170723
 20
99.3848633469
 10
206.0020321983
 20
99.3724804971
 10
206.0565372452
 20
99.3566104901
 10
206.1097581309
 20
99.3374235823
 10
206.1617124299
 20
99.3148729186
 10
206.2123825677
 20
99.2890052206
 10
206.261141739
 20
99.2601311043
 10
206.3079579226
 20
99.22821681
 10
206.3528631397
 20
99.193295924
 10
206.3953266485
 20
99.1557800909
 10
206.4353198436
 20
99.1156370953
 10
206.4728713305
 20
99.0728989656
 10
206.5075361832
 20
99.0280737375
 10
206.5392856266
 20
98.9811141285
 10
206.5681484358
 20
98.9320672484
 10
206.5937660099
 20
98.8815827659
 10
206.6160188154
 20
98.8298772089
 10
206.6350263859
 20
98.7767339314
 10
206.6507887214
 20
98.7221528695
  0
LWPOLYLINE
  5
328
100
AcDbEntity
  8
RACCORDO
100
AcDbPolyline
 62
7
  6
CONTINUOUS
 90
22
 70
0
 10
206.1255318062
 20
98.4227104037
 10
206.1243595634
 20
98.452737171
 10
206.121038447
 20
98.4822530214
 10
206.1155684569
 20
98.51125796
 10
206.1079161409
 20
98.5398726381
 10
206.0981149512
 20
98.5679764131
 10
206.0862652451
 20
98.5952073521
 10
206.0723229269
 20
98.6216038158
 10
206.0563320924
 20
98.6471274589
 10
206.0385253856
 20
98.6713012971
 10
206.0188240965
 20
98.6941210194
 10
205.9973069353
 20
98.715590958
 10
205.9744426763
 20
98.7352471005
 10
205.9502394205
 20
98.7530078536
 10
205.924689067
 20
98.7689548338
 10
205.8982360869
 20
98.7828688451
 10
205.8708962268
 20
98.7947164485
 10
205.8426537402
 20
98.8045311009
 10
205.8139058586
 20
98.8121939503
 10
205.7847849927
 20
98.8176653826
 10
205.7551587318
 20
98.8209850216
 10
205.7250270759
 20
98.8221528695
  0
LWPOLYLINE
  5
329
100
AcDbEntity
  8
ASSI
100
AcDbPolyline
 62
7
  6
CONTINUOUS
 90
22
 70
0
 10
206.1255318062
 20
98.4227104037
 10
206.1243595634
 20
98.452737171
 10
206.121038447
 20
98.4822530214
 10
206.1155684569
 20
98.51125796
 10
206.1079161409
 20
98.5398726381
 10
206.0981149512
 20
98.5679764131
 10
206.0862652451
 20
98.5952073521
 10
206.0723229269
 20
98.6216038158
 10
206.0563320924
 20
98.6471274589
 10
206.0385253856
 20
98.6713012971
 10
206.0188240965
 20
98.6941210194
 10
205.9973069353
 20
98.715590958
 10
205.9744426763
 20
98.7352471005
 10
205.9502394205
 20
98.7530078536
 10
205.924689067
 20
98.7689548338
 10
205.8982360869
 20
98.7828688451
 10
205.8708962268
 20
98.7947164485
 10
205.8426537402
 20
98.8045311009
 10
205.8139058586
 20
98.8121939503
 10
205.7847849927
 20
98.8176653826
 10
205.7551587318
 20
98.8209850216
 10
205.7250270759
 20
98.8221528695
  0
LINE
  5
32A
100
AcDbEntity
  8
RACCORDO
100
AcDbLine
 62
253
  6
CONTINUOUS
 10
205.7774853013
 20
99.4009190057
 11
205.7774853013
 21
98.8744744318
  0
LINE
  5
32B
100
AcDbEntity
  8
ASSI
100
AcDbLine
 62
253
  6
CONTINUOUS
 10
205.7774853013
 20
99.4009190057
 11
205.7774853013
 21
98.8744744318
  0
LINE
  5
32C
100
AcDbEntity
  8
RACCORDO
100
AcDbLine
 62
253
  6
CONTINUOUS
 10
205.7774853013
 20
52.8433867332
 11
205.7774853013
 21
53.3698313071
  0
LINE
  5
32D
100
AcDbEntity
  8
ASSI
100
AcDbLine
 62
253
  6
CONTINUOUS
 10
205.7774853013
 20
52.8433867332
 11
205.7774853013
 21
53.3698313071
  0
LINE
  5
32E
100
AcDbEntity
  8
RACCORDO
100
AcDbLine
 62
7
  6
CONTINUOUS
 10
206.1255318062
 20
53.8215953352
 11
206.1255318062
 21
98.4227104037
  0
LINE
  5
32F
100
AcDbEntity
  8
ASSI
100
AcDbLine
 62
7
  6
CONTINUOUS
 10
206.1255318062
 20
53.8215953352
 11
206.1255318062
 21
98.4227104037
  0
LINE
  5
330
100
AcDbEntity
  8
RACCORDO
100
AcDbLine
 62
253
  6
CONTINUOUS
 10
206.1793794708
 20
98.4764235196
 11
206.1793794698
 21
53.7678836912
  0
LINE
  5
331
100
AcDbEntity
  8
ASSI
100
AcDbLine
 62
253
  6
CONTINUOUS
 10
206.1793794708
 20
98.4764235196
 11
206.1793794698
 21
53.7678836912
  0
LINE
  5
332
100
AcDbEntity
  8
RACCORDO
100
AcDbLine
 62
253
  6
CONTINUOUS
 10
206.6786925298
 20
98.4999736294
 11
206.6786925298
 21
53.7443321095
  0
LINE
  5
333
100
AcDbEntity
  8
ASSI
100
AcDbLine
 62
253
  6
CONTINUOUS
 10
206.6786925298
 20
98.4999736294
 11
206.6786925298
 21
53.7443321095
  0
LWPOLYLINE
  5
334
100
AcDbEntity
  8
RACCORDO
100
AcDbPolyline
 62
253
  6
CONTINUOUS
 90
7
 70
0
 10
206.1793794638
 20
53.7678836971
 10
206.1790348961
 20
53.7512818989
 10
206.1779963431
 20
53.7347092023
 10
206.1762653229
 20
53.7181942605
 10
206.1738445443
 20
53.701765653
 10
206.170737903
 20
53.6854518366
 10
206.1669504759
 20
53.6692810963
  0
LWPOLYLINE
  5
335
100
AcDbEntity
  8
ASSI
100
AcDbPolyline
 62
253
  6
CONTINUOUS
 90
7
 70
0
 10
206.1793794638
 20
53.7678836971
 10
206.1790348961
 20
53.7512818989
 10
206.1779963431
 20
53.7347092023
 10
206.1762653229
 20
53.7181942605
 10
206.1738445443
 20
53.701765653
 10
206.170737903
 20
53.6854518366
 10
206.1669504759
 20
53.6692810963
  0
LWPOLYLINE
  5
336
100
AcDbEntity
  8
RACCORDO
100
AcDbPolyline
 62
253
  6
CONTINUOUS
 90
7
 70
0
 10
206.6786925298
 20
53.7443321095
 10
206.6778848325
 20
53.7066723135
 10
206.6755399603
 20
53.6692644904
 10
206.6716579131
 20
53.6321086373
 10
206.6662386908
 20
53.5952047513
 10
206.6592822936
 20
53.5585528297
 10
206.6507887214
 20
53.5221528695
  0
LWPOLYLINE
  5
337
100
AcDbEntity
  8
ASSI
100
AcDbPolyline
 62
253
  6
CONTINUOUS
 90
7
 70
0
 10
206.6786925298
 20
53.7443321095
 10
206.6778848325
 20
53.7066723135
 10
206.6755399603
 20
53.6692644904
 10
206.6716579131
 20
53.6321086373
 10
206.6662386908
 20
53.5952047513
 10
206.6592822936
 20
53.5585528297
 10
206.6507887214
 20
53.5221528695
  0
LWPOLYLINE
  5
338
100
AcDbEntity
  8
RACCORDO
100
AcDbPolyline
 62
253
  6
CONTINUOUS
 90
22
 70
0
 10
206.6507887214
 20
53.5221528695
 10
206.6350255871
 20
53.4675703207
 10
206.6160175609
 20
53.4144262455
 10
206.5937646427
 20
53.3627205801
 10
206.5681469592
 20
53.312236591
 10
206.5392843838
 20
53.2631908934
 10
206.5075365367
 20
53.2162334182
 10
206.47287562
 20
53.1714120977
 10
206.4353294316
 20
53.1286788268
 10
206.3953409856
 20
53.0885394357
 10
206.3528816753
 20
53.0510252436
 10
206.3079801073
 20
53.0161047444
 10
206.2611651163
 20
52.984189504
 10
206.2124029388
 20
52.95531235
 10
206.1617273382
 20
52.9294402817
 10
206.1097684393
 20
52.9068861134
 10
206.0565451997
 20
52.8876975029
 10
206.0020386619
 20
52.871826659
 10
205.9468220779
 20
52.8594432264
 10
205.8910865318
 20
52.8506037286
 10
205.8346409397
 20
52.8452515703
 10
205.7774853013
 20
52.8433867332
  0
LWPOLYLINE
  5
339
100
AcDbEntity
  8
ASSI
100
AcDbPolyline
 62
253
  6
CONTINUOUS
 90
22
 70
0
 10
206.6507887214
 20
53.5221528695
 10
206.6350255871
 20
53.4675703207
 10
206.6160175609
 20
53.4144262455
 10
206.5937646427
 20
53.3627205801
 10
206.5681469592
 20
53.312236591
 10
206.5392843838
 20
53.2631908934
 10
206.5075365367
 20
53.2162334182
 10
206.47287562
 20
53.1714120977
 10
206.4353294316
 20
53.1286788268
 10
206.3953409856
 20
53.0885394357
 10
206.3528816753
 20
53.0510252436
 10
206.3079801073
 20
53.0161047444
 10
206.2611651163
 20
52.984189504
 10
206.2124029388
 20
52.95531235
 10
206.1617273382
 20
52.9294402817
 10
206.1097684393
 20
52.9068861134
 10
206.0565451997
 20
52.8876975029
 10
206.0020386619
 20
52.871826659
 10
205.9468220779
 20
52.8594432264
 10
205.8910865318
 20
52.8506037286
 10
205.8346409397
 20
52.8452515703
 10
205.7774853013
 20
52.8433867332
  0
LWPOLYLINE
  5
33A
100
AcDbEntity
  8
RACCORDO
100
AcDbPolyline
 62
253
  6
CONTINUOUS
 90
22
 70
0
 10
206.1669504759
 20
53.6692810963
 10
206.1599393508
 20
53.6451491298
 10
206.1514135004
 20
53.6215098322
 10
206.1414066234
 20
53.598456957
 10
206.1299577479
 20
53.5760821452
 10
206.1171125235
 20
53.5544740252
 10
206.1029231639
 20
53.533717789
 10
206.0874452837
 20
53.5138955426
 10
206.0707403702
 20
53.4950862638
 10
206.0528774141
 20
53.4773646056
 10
206.0339285619
 20
53.460801973
 10
206.0139674788
 20
53.4454623499
 10
205.993071629
 20
53.4314026558
 10
205.9713190633
 20
53.4186768977
 10
205.9487990204
 20
53.4073385756
 10
205.925611188
 20
53.3974348584
 10
205.9018607689
 20
53.3890080821
 10
205.877628767
 20
53.3820843984
 10
205.8529808471
 20
53.376682053
 10
205.8280027931
 20
53.3728251219
 10
205.8028020168
 20
53.3705369206
 10
205.7774774645
 20
53.3698313338
  0
LWPOLYLINE
  5
33B
100
AcDbEntity
  8
ASSI
100
AcDbPolyline
 62
253
  6
CONTINUOUS
 90
22
 70
0
 10
206.1669504759
 20
53.6692810963
 10
206.1599393508
 20
53.6451491298
 10
206.1514135004
 20
53.6215098322
 10
206.1414066234
 20
53.598456957
 10
206.1299577479
 20
53.5760821452
 10
206.1171125235
 20
53.5544740252
 10
206.1029231639
 20
53.533717789
 10
206.0874452837
 20
53.5138955426
 10
206.0707403702
 20
53.4950862638
 10
206.0528774141
 20
53.4773646056
 10
206.0339285619
 20
53.460801973
 10
206.0139674788
 20
53.4454623499
 10
205.993071629
 20
53.4314026558
 10
205.9713190633
 20
53.4186768977
 10
205.9487990204
 20
53.4073385756
 10
205.925611188
 20
53.3974348584
 10
205.9018607689
 20
53.3890080821
 10
205.877628767
 20
53.3820843984
 10
205.8529808471
 20
53.376682053
 10
205.8280027931
 20
53.3728251219
 10
205.8028020168
 20
53.3705369206
 10
205.7774774645
 20
53.3698313338
  0
LWPOLYLINE
  5
33C
100
AcDbEntity
  8
RACCORDO
100
AcDbPolyline
 62
253
  6
CONTINUOUS
 90
7
 70
0
 10
206.1669504759
 20
98.5750246427
 10
206.1707327803
 20
98.5588781103
 10
206.1738379482
 20
98.5425792173
 10
206.1762597156
 20
98.526155948
 10
206.1779929793
 20
98.5096365585
 10
206.1790338102
 20
98.4930495284
 10
206.1793794634
 20
98.4764235123
  0
LWPOLYLINE
  5
33D
100
AcDbEntity
  8
ASSI
100
AcDbPolyline
 62
253
  6
CONTINUOUS
 90
7
 70
0
 10
206.1669504759
 20
98.5750246427
 10
206.1707327803
 20
98.5588781103
 10
206.1738379482
 20
98.5425792173
 10
206.1762597156
 20
98.526155948
 10
206.1779929793
 20
98.5096365585
 10
206.1790338102
 20
98.4930495284
 10
206.1793794634
 20
98.4764235123
  0
LWPOLYLINE
  5
33E
100
AcDbEntity
  8
RACCORDO
100
AcDbPolyline
 62
253
  6
CONTINUOUS
 90
7
 70
0
 10
206.6507887214
 20
98.7221528695
 10
206.6592751043
 20
98.6858104245
 10
206.6662271879
 20
98.6491930124
 10
206.6716449723
 20
98.6123006299
 10
206.6755284574
 20
98.5751332741
 10
206.6778776432
 20
98.5376909416
 10
206.6786925298
 20
98.4999736294
  0
LWPOLYLINE
  5
33F
100
AcDbEntity
  8
ASSI
100
AcDbPolyline
 62
253
  6
CONTINUOUS
 90
7
 70
0
 10
206.6507887214
 20
98.7221528695
 10
206.6592751043
 20
98.6858104245
 10
206.6662271879
 20
98.6491930124
 10
206.6716449723
 20
98.6123006299
 10
206.6755284574
 20
98.5751332741
 10
206.6778776432
 20
98.5376909416
 10
206.6786925298
 20
98.4999736294
  0
LWPOLYLINE
  5
340
100
AcDbEntity
  8
RACCORDO
100
AcDbPolyline
 62
253
  6
CONTINUOUS
 90
16
 70
0
 10
232.9665894709
 20
53.5450562123
 10
232.9613071168
 20
53.5430045912
 10
232.9526796084
 20
53.5409818824
 10
232.9407655082
 20
53.5390018161
 10
232.9256456883
 20
53.5370778326
 10
232.9074227808
 20
53.5352229918
 10
232.8862204812
 20
53.5334498843
 10
232.862182709
 20
53.5317705458
 10
232.8354726307
 20
53.5301963754
 10
232.8062715519
 20
53.5287380585
 10
232.7747776873
 20
53.5274054941
 10
232.7412048145
 20
53.5262077274
 10
232.7057808235
 20
53.5251528888
 10
232.6687461693
 20
53.5242481385
 10
232.6303522403
 20
53.5234996178
 10
232.590859651
 20
53.5229124077
  0
LWPOLYLINE
  5
341
100
AcDbEntity
  8
ASSI
100
AcDbPolyline
 62
253
  6
CONTINUOUS
 90
16
 70
0
 10
232.9665894709
 20
53.5450562123
 10
232.9613071168
 20
53.5430045912
 10
232.9526796084
 20
53.5409818824
 10
232.9407655082
 20
53.5390018161
 10
232.9256456883
 20
53.5370778326
 10
232.9074227808
 20
53.5352229918
 10
232.8862204812
 20
53.5334498843
 10
232.862182709
 20
53.5317705458
 10
232.8354726307
 20
53.5301963754
 10
232.8062715519
 20
53.5287380585
 10
232.7747776873
 20
53.5274054941
 10
232.7412048145
 20
53.5262077274
 10
232.7057808235
 20
53.5251528888
 10
232.6687461693
 20
53.5242481385
 10
232.6303522403
 20
53.5234996178
 10
232.590859651
 20
53.5229124077
  0
LWPOLYLINE
  5
342
100
AcDbEntity
  8
RACCORDO
100
AcDbPolyline
 62
253
  6
CONTINUOUS
 90
16
 70
0
 10
232.9665909564
 20
53.6075306472
 10
232.9613086632
 20
53.6054845904
 10
232.952681207
 20
53.6034672965
 10
232.9407671505
 20
53.601492459
 10
232.9256473653
 20
53.5995734829
 10
232.9074244837
 20
53.5977233939
 10
232.8862222014
 20
53.5959547505
 10
232.8621844379
 20
53.5942795581
 10
232.83547436
 20
53.5927091877
 10
232.806273274
 20
53.5912542989
 10
232.7747793947
 20
53.5899247674
 10
232.7412065007
 20
53.588729618
 10
232.7057824823
 20
53.5876769633
 10
232.6687477955
 20
53.5867739485
 10
232.6303538292
 20
53.5860267034
 10
232.5908611991
 20
53.5854403002
  0
LWPOLYLINE
  5
343
100
AcDbEntity
  8
ASSI
100
AcDbPolyline
 62
253
  6
CONTINUOUS
 90
16
 70
0
 10
232.9665909564
 20
53.6075306472
 10
232.9613086632
 20
53.6054845904
 10
232.952681207
 20
53.6034672965
 10
232.9407671505
 20
53.601492459
 10
232.9256473653
 20
53.5995734829
 10
232.9074244837
 20
53.5977233939
 10
232.8862222014
 20
53.5959547505
 10
232.8621844379
 20
53.5942795581
 10
232.83547436
 20
53.5927091877
 10
232.806273274
 20
53.5912542989
 10
232.7747793947
 20
53.5899247674
 10
232.7412065007
 20
53.588729618
 10
232.7057824823
 20
53.5876769633
 10
232.6687477955
 20
53.5867739485
 10
232.6303538292
 20
53.5860267034
 10
232.5908611991
 20
53.5854403002
  0
LINE
  5
344
100
AcDbEntity
  8
RACCORDO
100
AcDbLine
 62
253
  6
CONTINUOUS
 10
111.978346978
 20
120.5935482352
 11
232.1727166187
 21
120.5935482352
  0
LINE
  5
345
100
AcDbEntity
  8
ASSI
100
AcDbLine
 62
253
  6
CONTINUOUS
 10
111.978346978
 20
120.5935482352
 11
232.1727166187
 21
120.5935482352
  0
LINE
  5
346
100
AcDbEntity
  8
RACCORDO
100
AcDbLine
 62
253
  6
CONTINUOUS
 10
111.978346978
 20
121.0014874967
 11
232.1727166186
 21
121.0014874967
  0
LINE
  5
347
100
AcDbEntity
  8
ASSI
100
AcDbLine
 62
253
  6
CONTINUOUS
 10
111.978346978
 20
121.0014874967
 11
232.1727166186
 21
121.0014874967
  0
LINE
  5
348
100
AcDbEntity
  8
RACCORDO
100
AcDbLine
 62
7
  6
CONTINUOUS
 10
111.8755317983
 20
121.1221528695
 11
232.2755317983
 21
121.1221528695
  0
LINE
  5
349
100
AcDbEntity
  8
ASSI
100
AcDbLine
 62
7
  6
CONTINUOUS
 10
111.8755317983
 20
121.1221528695
 11
232.2755317983
 21
121.1221528695
  0
LWPOLYLINE
  5
34A
100
AcDbEntity
  8
RACCORDO
100
AcDbPolyline
 62
253
  6
CONTINUOUS
 90
25
 70
0
 10
232.1727166187
 20
120.5935482352
 10
232.1921147999
 20
120.5929041278
 10
232.2112694752
 20
120.5910147138
 10
232.2301806445
 20
120.5878799854
 10
232.24893097
 20
120.5834773207
 10
232.2674377895
 20
120.5778293101
 10
232.2854531173
 20
120.5710037579
 10
232.3029643792
 20
120.5629866587
 10
232.3199841495
 20
120.5537919597
 10
232.336302165
 20
120.5435293905
 10
232.3519105001
 20
120.5321853604
 10
232.3668170806
 20
120.5197733835
 10
232.3808354202
 20
120.5064438506
 10
232.3939554245
 20
120.4921839748
 10
232.406187188
 20
120.4770064589
 10
232.4173745083
 20
120.4610999405
 10
232.4275035074
 20
120.4444558088
 10
232.4365880633
 20
120.4270825961
 10
232.4445136082
 20
120.409194674
 10
232.4512661752
 20
120.3907774101
 10
232.4568597312
 20
120.371845375
 10
232.4612216094
 20
120.352656772
 10
232.4643275874
 20
120.3332976657
 10
232.4662018876
 20
120.3136819632
 10
232.4668445099
 20
120.2938096483
  0
LWPOLYLINE
  5
34B
100
AcDbEntity
  8
ASSI
100
AcDbPolyline
 62
253
  6
CONTINUOUS
 90
25
 70
0
 10
232.1727166187
 20
120.5935482352
 10
232.1921147999
 20
120.5929041278
 10
232.2112694752
 20
120.5910147138
 10
232.2301806445
 20
120.5878799854
 10
232.24893097
 20
120.5834773207
 10
232.2674377895
 20
120.5778293101
 10
232.2854531173
 20
120.5710037579
 10
232.3029643792
 20
120.5629866587
 10
232.3199841495
 20
120.5537919597
 10
232.336302165
 20
120.5435293905
 10
232.3519105001
 20
120.5321853604
 10
232.3668170806
 20
120.5197733835
 10
232.3808354202
 20
120.5064438506
 10
232.3939554245
 20
120.4921839748
 10
232.406187188
 20
120.4770064589
 10
232.4173745083
 20
120.4610999405
 10
232.4275035074
 20
120.4444558088
 10
232.4365880633
 20
120.4270825961
 10
232.4445136082
 20
120.409194674
 10
232.4512661752
 20
120.3907774101
 10
232.4568597312
 20
120.371845375
 10
232.4612216094
 20
120.352656772
 10
232.4643275874
 20
120.3332976657
 10
232.4662018876
 20
120.3136819632
 10
232.4668445099
 20
120.2938096483
  0
LWPOLYLINE
  5
34C
100
AcDbEntity
  8
RACCORDO
100
AcDbPolyline
 62
253
  6
CONTINUOUS
 90
25
 70
0
 10
232.1727166187
 20
121.0014874967
 10
232.224133191
 20
120.9995816584
 10
232.2752964974
 20
120.9943515031
 10
232.3259951526
 20
120.9858210951
 10
232.3760140807
 20
120.9740295736
 10
232.4251527017
 20
120.9590270203
 10
232.4732246957
 20
120.9408705952
 10
232.5200352031
 20
120.9196311823
 10
232.565384651
 20
120.895397355
 10
232.6090860281
 20
120.8682683424
 10
232.6509548159
 20
120.8383556286
 10
232.6908182839
 20
120.8057805414
 10
232.7285170459
 20
120.7706729889
 10
232.7638922268
 20
120.7331743126
 10
232.7967933149
 20
120.6934381467
 10
232.8270858304
 20
120.6516261855
 10
232.8546403395
 20
120.607906547
 10
232.879336654
 20
120.5624597661
 10
232.9010704419
 20
120.51547806
 10
232.9197454015
 20
120.467156841
 10
232.9352804198
 20
120.417692251
 10
232.9476118186
 20
120.3672861707
 10
232.9566836843
 20
120.3161456035
 10
232.9624495093
 20
120.26448225
 10
232.9648786252
 20
120.212509885
  0
LWPOLYLINE
  5
34D
100
AcDbEntity
  8
ASSI
100
AcDbPolyline
 62
253
  6
CONTINUOUS
 90
25
 70
0
 10
232.1727166187
 20
121.0014874967
 10
232.224133191
 20
120.9995816584
 10
232.2752964974
 20
120.9943515031
 10
232.3259951526
 20
120.9858210951
 10
232.3760140807
 20
120.9740295736
 10
232.4251527017
 20
120.9590270203
 10
232.4732246957
 20
120.9408705952
 10
232.5200352031
 20
120.9196311823
 10
232.565384651
 20
120.895397355
 10
232.6090860281
 20
120.8682683424
 10
232.6509548159
 20
120.8383556286
 10
232.6908182839
 20
120.8057805414
 10
232.7285170459
 20
120.7706729889
 10
232.7638922268
 20
120.7331743126
 10
232.7967933149
 20
120.6934381467
 10
232.8270858304
 20
120.6516261855
 10
232.8546403395
 20
120.607906547
 10
232.879336654
 20
120.5624597661
 10
232.9010704419
 20
120.51547806
 10
232.9197454015
 20
120.467156841
 10
232.9352804198
 20
120.417692251
 10
232.9476118186
 20
120.3672861707
 10
232.9566836843
 20
120.3161456035
 10
232.9624495093
 20
120.26448225
 10
232.9648786252
 20
120.212509885
  0
LWPOLYLINE
  5
34E
100
AcDbEntity
  8
RACCORDO
100
AcDbPolyline
 62
253
  6
CONTINUOUS
 90
18
 70
0
 10
232.9665909559
 20
98.6367750917
 10
232.9613086623
 20
98.6388211486
 10
232.9526812058
 20
98.6408384424
 10
232.9407671489
 20
98.6428132799
 10
232.9256473636
 20
98.644732256
 10
232.9074244818
 20
98.6465823449
 10
232.8862221993
 20
98.6483509883
 10
232.8621844358
 20
98.6500261807
 10
232.8354743579
 20
98.6515965511
 10
232.8062732719
 20
98.6530514399
 10
232.7747793928
 20
98.6543809713
 10
232.7412064988
 20
98.6555761207
 10
232.7057824807
 20
98.6566287755
 10
232.6687477941
 20
98.6575317902
 10
232.630353828
 20
98.6582790353
 10
232.5908611982
 20
98.6588654385
 10
232.5505379779
 20
98.6592870194
 10
232.468498391
 20
98.6596254058
  0
LWPOLYLINE
  5
34F
100
AcDbEntity
  8
ASSI
100
AcDbPolyline
 62
253
  6
CONTINUOUS
 90
18
 70
0
 10
232.9665909559
 20
98.6367750917
 10
232.9613086623
 20
98.6388211486
 10
232.9526812058
 20
98.6408384424
 10
232.9407671489
 20
98.6428132799
 10
232.9256473636
 20
98.644732256
 10
232.9074244818
 20
98.6465823449
 10
232.8862221993
 20
98.6483509883
 10
232.8621844358
 20
98.6500261807
 10
232.8354743579
 20
98.6515965511
 10
232.8062732719
 20
98.6530514399
 10
232.7747793928
 20
98.6543809713
 10
232.7412064988
 20
98.6555761207
 10
232.7057824807
 20
98.6566287755
 10
232.6687477941
 20
98.6575317902
 10
232.630353828
 20
98.6582790353
 10
232.5908611982
 20
98.6588654385
 10
232.5505379779
 20
98.6592870194
 10
232.468498391
 20
98.6596254058
  0
LWPOLYLINE
  5
350
100
AcDbEntity
  8
RACCORDO
100
AcDbPolyline
 62
253
  6
CONTINUOUS
 90
17
 70
0
 10
232.9665894721
 20
98.6992495267
 10
232.9613071194
 20
98.7013011478
 10
232.9526796119
 20
98.7033238566
 10
232.9407655127
 20
98.7053039231
 10
232.9256456935
 20
98.7072279066
 10
232.9074227866
 20
98.7090827474
 10
232.8862204873
 20
98.710855855
 10
232.8621827153
 20
98.7125351936
 10
232.835472637
 20
98.7141093641
 10
232.8062715581
 20
98.715567681
 10
232.7747776932
 20
98.7169002455
 10
232.74120482
 20
98.7180980123
 10
232.7057808284
 20
98.7191528509
 10
232.6687461736
 20
98.7200576012
 10
232.6303522438
 20
98.7208061219
 10
232.5908596538
 20
98.7213933321
 10
232.5096564208
 20
98.7220689991
  0
LWPOLYLINE
  5
351
100
AcDbEntity
  8
ASSI
100
AcDbPolyline
 62
253
  6
CONTINUOUS
 90
17
 70
0
 10
232.9665894721
 20
98.6992495267
 10
232.9613071194
 20
98.7013011478
 10
232.9526796119
 20
98.7033238566
 10
232.9407655127
 20
98.7053039231
 10
232.9256456935
 20
98.7072279066
 10
232.9074227866
 20
98.7090827474
 10
232.8862204873
 20
98.710855855
 10
232.8621827153
 20
98.7125351936
 10
232.835472637
 20
98.7141093641
 10
232.8062715581
 20
98.715567681
 10
232.7747776932
 20
98.7169002455
 10
232.74120482
 20
98.7180980123
 10
232.7057808284
 20
98.7191528509
 10
232.6687461736
 20
98.7200576012
 10
232.6303522438
 20
98.7208061219
 10
232.5908596538
 20
98.7213933321
 10
232.5096564208
 20
98.7220689991
  0
LWPOLYLINE
  5
352
100
AcDbEntity
  8
0
100
AcDbPolyline
 62
7
  6
CONTINUOUS
 90
10
 70
0
 43
0.3500000006
 10
247.3255354614
 20
74.19358255
 10
246.468397522
 20
75.0507204895
 10
245.6112414551
 20
75.2650140381
 10
244.7541035156
 20
75.2650140381
 10
244.3255345459
 20
74.8364360046
 10
244.3255345459
 20
74.19358255
 10
244.7541035156
 20
73.7650135803
 10
245.6112414551
 20
73.7650135803
 10
246.0398104248
 20
74.19358255
 10
246.0398104248
 20
75.1221516724
  0
LINE
  5
353
100
AcDbEntity
  8
RACCORDO
100
AcDbLine
 62
253
  6
CONTINUOUS
 10
232.1727166187
 20
121.0014874967
 11
232.1727166187
 21
120.5935482352
  0
LINE
  5
354
100
AcDbEntity
  8
ASSI
100
AcDbLine
 62
253
  6
CONTINUOUS
 10
232.1727166187
 20
121.0014874967
 11
232.1727166187
 21
120.5935482352
  0
LINE
  5
355
100
AcDbEntity
  8
RACCORDO
100
AcDbLine
 62
253
  6
CONTINUOUS
 10
232.1727166187
 20
31.2428182423
 11
232.1727166187
 21
31.6507575037
  0
LINE
  5
356
100
AcDbEntity
  8
ASSI
100
AcDbLine
 62
253
  6
CONTINUOUS
 10
232.1727166187
 20
31.2428182423
 11
232.1727166187
 21
31.6507575037
  0
LINE
  5
357
100
AcDbEntity
  8
RACCORDO
100
AcDbLine
 62
7
  6
CONTINUOUS
 10
233.0755317983
 20
120.3221528695
 11
233.0755317983
 21
98.6367750917
  0
LINE
  5
358
100
AcDbEntity
  8
DRAFT
100
AcDbLine
 62
7
  6
CONTINUOUS
 10
233.0755317983
 20
98.6367750917
 11
233.0755317983
 21
53.6075306472
  0
LINE
  5
359
100
AcDbEntity
  8
RACCORDO
100
AcDbLine
 62
7
  6
CONTINUOUS
 10
233.0755317983
 20
53.6075306472
 11
233.0755317983
 21
31.9221528695
  0
LINE
  5
35A
100
AcDbEntity
  8
ASSI
100
AcDbLine
 62
7
  6
CONTINUOUS
 10
233.0755317983
 20
120.3221528695
 11
233.0755317983
 21
31.9221528695
  0
LINE
  5
35B
100
AcDbEntity
  8
RACCORDO
100
AcDbLine
 62
253
  6
CONTINUOUS
 10
232.4668445099
 20
120.2938096483
 11
232.4668445099
 21
31.9504960907
  0
LINE
  5
35C
100
AcDbEntity
  8
ASSI
100
AcDbLine
 62
253
  6
CONTINUOUS
 10
232.4668445099
 20
120.2938096483
 11
232.4668445099
 21
31.9504960907
  0
LINE
  5
35D
100
AcDbEntity
  8
RACCORDO
100
AcDbLine
 62
253
  6
CONTINUOUS
 10
232.9648786251
 20
120.2125098848
 11
232.9648786251
 21
32.031795854
  0
LINE
  5
35E
100
AcDbEntity
  8
ASSI
100
AcDbLine
 62
253
  6
CONTINUOUS
 10
232.9648786251
 20
120.2125098848
 11
232.9648786251
 21
32.031795854
  0
LWPOLYLINE
  5
35F
100
AcDbEntity
  8
RACCORDO
100
AcDbPolyline
 62
253
  6
CONTINUOUS
 90
25
 70
0
 10
232.4668445099
 20
31.9504960907
 10
232.4662011951
 20
31.9306202225
 10
232.4643264455
 20
31.9110023503
 10
232.4612202612
 20
31.8916424578
 10
232.4568583598
 20
31.8724548675
 10
232.4512650236
 20
31.8535252282
 10
232.4445131
 20
31.8351104974
 10
232.4365886953
 20
31.8172249249
 10
232.4275057032
 20
31.7998541989
 10
232.4173786524
 20
31.7832124076
 10
232.4061943309
 20
31.7673084885
 10
232.3939659507
 20
31.7521334256
 10
232.3808476764
 20
31.7378743579
 10
232.3668282166
 20
31.7245427856
 10
232.3519188627
 20
31.7121271245
 10
232.3363076538
 20
31.7007798757
 10
232.31998707
 20
31.6905152518
 10
232.3029646312
 20
31.6813189633
 10
232.2854509362
 20
31.6733007541
 10
232.2674331093
 20
31.6664746575
 10
232.2489240261
 20
31.6608265818
 10
232.2301729129
 20
31.6564240862
 10
232.2112628449
 20
31.6532896793
 10
232.1921107468
 20
31.6514008211
 10
232.1727166187
 20
31.6507575037
  0
LWPOLYLINE
  5
360
100
AcDbEntity
  8
ASSI
100
AcDbPolyline
 62
253
  6
CONTINUOUS
 90
25
 70
0
 10
232.4668445099
 20
31.9504960907
 10
232.4662011951
 20
31.9306202225
 10
232.4643264455
 20
31.9110023503
 10
232.4612202612
 20
31.8916424578
 10
232.4568583598
 20
31.8724548675
 10
232.4512650236
 20
31.8535252282
 10
232.4445131
 20
31.8351104974
 10
232.4365886953
 20
31.8172249249
 10
232.4275057032
 20
31.7998541989
 10
232.4173786524
 20
31.7832124076
 10
232.4061943309
 20
31.7673084885
 10
232.3939659507
 20
31.7521334256
 10
232.3808476764
 20
31.7378743579
 10
232.3668282166
 20
31.7245427856
 10
232.3519188627
 20
31.7121271245
 10
232.3363076538
 20
31.7007798757
 10
232.31998707
 20
31.6905152518
 10
232.3029646312
 20
31.6813189633
 10
232.2854509362
 20
31.6733007541
 10
232.2674331093
 20
31.6664746575
 10
232.2489240261
 20
31.6608265818
 10
232.2301729129
 20
31.6564240862
 10
232.2112628449
 20
31.6532896793
 10
232.1921107468
 20
31.6514008211
 10
232.1727166187
 20
31.6507575037
  0
LWPOLYLINE
  5
361
100
AcDbEntity
  8
RACCORDO
100
AcDbPolyline
 62
253
  6
CONTINUOUS
 90
25
 70
0
 10
232.9648786252
 20
32.0317958539
 10
232.962449587
 20
31.9798244471
 10
232.9566839369
 20
31.9281618454
 10
232.947612305
 20
31.8770218182
 10
232.9352811627
 20
31.8266160461
 10
232.919746382
 20
31.777151557
 10
232.901071604
 20
31.7288302984
 10
232.8793378939
 20
31.6818484207
 10
232.854641546
 20
31.6364013528
 10
232.8270869393
 20
31.592681384
 10
232.7967942551
 20
31.5508690556
 10
232.7638929203
 20
31.5111325
 10
232.7285174928
 20
31.4736334782
 10
232.6908185212
 20
31.4385256242
 10
232.6509548631
 20
31.4059502737
 10
232.6090859185
 20
31.3760373746
 10
232.5653844164
 20
31.3489082456
 10
232.5200348965
 20
31.3246743596
 10
232.4732244254
 20
31.3034349646
 10
232.4251526963
 20
31.2852786574
 10
232.3760144705
 20
31.2702762344
 10
232.3259957787
 20
31.2584847529
 10
232.2752970922
 20
31.2499543081
 10
232.2241335772
 20
31.2447241051
 10
232.1727166187
 20
31.2428182423
  0
LWPOLYLINE
  5
362
100
AcDbEntity
  8
ASSI
100
AcDbPolyline
 62
253
  6
CONTINUOUS
 90
25
 70
0
 10
232.9648786252
 20
32.0317958539
 10
232.962449587
 20
31.9798244471
 10
232.9566839369
 20
31.9281618454
 10
232.947612305
 20
31.8770218182
 10
232.9352811627
 20
31.8266160461
 10
232.919746382
 20
31.777151557
 10
232.901071604
 20
31.7288302984
 10
232.8793378939
 20
31.6818484207
 10
232.854641546
 20
31.6364013528
 10
232.8270869393
 20
31.592681384
 10
232.7967942551
 20
31.5508690556
 10
232.7638929203
 20
31.5111325
 10
232.7285174928
 20
31.4736334782
 10
232.6908185212
 20
31.4385256242
 10
232.6509548631
 20
31.4059502737
 10
232.6090859185
 20
31.3760373746
 10
232.5653844164
 20
31.3489082456
 10
232.5200348965
 20
31.3246743596
 10
232.4732244254
 20
31.3034349646
 10
232.4251526963
 20
31.2852786574
 10
232.3760144705
 20
31.2702762344
 10
232.3259957787
 20
31.2584847529
 10
232.2752970922
 20
31.2499543081
 10
232.2241335772
 20
31.2447241051
 10
232.1727166187
 20
31.2428182423
  0
LWPOLYLINE
  5
363
100
AcDbEntity
  8
0
100
AcDbPolyline
 62
7
  6
CONTINUOUS
 90
7
 70
0
 43
0.3500000006
 10
174.4326826172
 20
139.8721578369
 10
172.9326730957
 20
139.8721578369
 10
174.4326826172
 20
142.0150026855
 10
174.4326826172
 20
142.4435897827
 10
174.00409552
 20
142.8721587524
 10
173.3612420654
 20
142.8721587524
 10
172.9326730957
 20
142.2292871704
  0
LWPOLYLINE
  5
364
100
AcDbEntity
  8
0
100
AcDbPolyline
 62
7
  6
CONTINUOUS
 90
7
 70
0
 43
0.3500000006
 10
172.0755351563
 20
139.8721578369
 10
170.5755256348
 20
139.8721578369
 10
172.0755351563
 20
142.0150026855
 10
172.0755351563
 20
142.4435897827
 10
171.6469661865
 20
142.8721587524
 10
171.0040946045
 20
142.8721587524
 10
170.5755256348
 20
142.2292871704
  0
LWPOLYLINE
  5
365
100
AcDbEntity
  8
RACCORDO
100
AcDbPolyline
 62
253
  6
CONTINUOUS
 90
19
 70
0
 10
232.9648721191
 20
32.0317959483
 10
232.9595419104
 20
32.0245104446
 10
232.9508732969
 20
32.0173282898
 10
232.9389250145
 20
32.0102981484
 10
232.9237780215
 20
32.0034676551
 10
232.9055349496
 20
31.9968830916
 10
232.8843194088
 20
31.9905890734
 10
232.8602751496
 20
31.9846282473
 10
232.8335650891
 20
31.9790410023
 10
232.8043702072
 20
31.9738651962
 10
232.7728883201
 20
31.9691358991
 10
232.7393327403
 20
31.9648851556
 10
232.7039308309
 20
31.9611417674
 10
232.6669224653
 20
31.957931099
 10
232.6285584017
 20
31.955274905
 10
232.5890985843
 20
31.9531911829
 10
232.5488103816
 20
31.9516940515
 10
232.5079667752
 20
31.9507936549
 10
232.4668445099
 20
31.9504960939
  0
LWPOLYLINE
  5
366
100
AcDbEntity
  8
ASSI
100
AcDbPolyline
 62
253
  6
CONTINUOUS
 90
19
 70
0
 10
232.9648721191
 20
32.0317959483
 10
232.9595419104
 20
32.0245104446
 10
232.9508732969
 20
32.0173282898
 10
232.9389250145
 20
32.0102981484
 10
232.9237780215
 20
32.0034676551
 10
232.9055349496
 20
31.9968830916
 10
232.8843194088
 20
31.9905890734
 10
232.8602751496
 20
31.9846282473
 10
232.8335650891
 20
31.9790410023
 10
232.8043702072
 20
31.9738651962
 10
232.7728883201
 20
31.9691358991
 10
232.7393327403
 20
31.9648851556
 10
232.7039308309
 20
31.9611417674
 10
232.6669224653
 20
31.957931099
 10
232.6285584017
 20
31.955274905
 10
232.5890985843
 20
31.9531911829
 10
232.5488103816
 20
31.9516940515
 10
232.5079667752
 20
31.9507936549
 10
232.4668445099
 20
31.9504960939
  0
LWPOLYLINE
  5
367
100
AcDbEntity
  8
RACCORDO
100
AcDbPolyline
 62
253
  6
CONTINUOUS
 90
19
 70
0
 10
232.9648786221
 20
120.2125098949
 10
232.9595483042
 20
120.2197953752
 10
232.9508795349
 20
120.2269775088
 10
232.938931052
 20
120.234007631
 10
232.9237838157
 20
120.2408381075
 10
232.9055404603
 20
120.2474226564
 10
232.8843245986
 20
120.2537166622
 10
232.8602799848
 20
120.2596774781
 10
232.8335695397
 20
120.2652647151
 10
232.8043742473
 20
120.2704405152
 10
232.7728919285
 20
120.2751698084
 10
232.7393359005
 20
120.27942055
 10
232.7039335314
 20
120.2831639379
 10
232.6669246998
 20
120.2863746078
 10
232.6285601694
 20
120.2890308049
 10
232.5890998897
 20
120.2911145314
 10
232.5488112347
 20
120.2926116684
 10
232.5079671913
 20
120.2935120717
 10
232.4668445099
 20
120.2938096403
  0
LWPOLYLINE
  5
368
100
AcDbEntity
  8
ASSI
100
AcDbPolyline
 62
253
  6
CONTINUOUS
 90
19
 70
0
 10
232.9648786221
 20
120.2125098949
 10
232.9595483042
 20
120.2197953752
 10
232.9508795349
 20
120.2269775088
 10
232.938931052
 20
120.234007631
 10
232.9237838157
 20
120.2408381075
 10
232.9055404603
 20
120.2474226564
 10
232.8843245986
 20
120.2537166622
 10
232.8602799848
 20
120.2596774781
 10
232.8335695397
 20
120.2652647151
 10
232.8043742473
 20
120.2704405152
 10
232.7728919285
 20
120.2751698084
 10
232.7393359005
 20
120.27942055
 10
232.7039335314
 20
120.2831639379
 10
232.6669246998
 20
120.2863746078
 10
232.6285601694
 20
120.2890308049
 10
232.5890998897
 20
120.2911145314
 10
232.5488112347
 20
120.2926116684
 10
232.5079671913
 20
120.2935120717
 10
232.4668445099
 20
120.2938096403
  0
LWPOLYLINE
  5
369
100
AcDbEntity
  8
0
100
AcDbPolyline
 62
7
  6
CONTINUOUS
 90
10
 70
0
 43
0.3500000006
 10
76.6464930725
 20
142.8721587524
 10
76.0036350861
 20
142.2292871704
 10
75.5750661163
 20
141.372149231
 10
75.5750661163
 20
140.3007268066
 10
76.0036350861
 20
139.8721578369
 10
76.6464930725
 20
139.8721578369
 10
77.0750620422
 20
140.3007268066
 10
77.0750620422
 20
141.1578647461
 10
76.6464930725
 20
141.5864337158
 10
75.7179194183
 20
141.5864337158
  0
LINE
  5
36A
100
AcDbEntity
  8
RACCORDO
100
AcDbLine
 62
7
  6
CONTINUOUS
 10
86.044598436
 20
31.1221528695
 11
86.8587723301
 21
31.1221528695
  0
LINE
  5
36B
100
AcDbEntity
  8
ASSI
100
AcDbLine
 62
7
  6
CONTINUOUS
 10
86.044598436
 20
31.1221528695
 11
86.8587723301
 21
31.1221528695
  0
LINE
  5
36C
100
AcDbEntity
  8
RACCORDO
100
AcDbLine
 62
253
  6
CONTINUOUS
 10
85.8957765806
 20
31.9221528695
 11
86.709171197
 21
31.9221528695
  0
LINE
  5
36D
100
AcDbEntity
  8
ASSI
100
AcDbLine
 62
253
  6
CONTINUOUS
 10
85.8957765806
 20
31.9221528695
 11
86.709171197
 21
31.9221528695
  0
LINE
  5
36E
100
AcDbEntity
  8
RACCORDO
100
AcDbLine
 62
7
  6
CONTINUOUS
 10
84.665386914
 20
31.2428182423
 11
86.0428232796
 21
31.1223081755
  0
LINE
  5
36F
100
AcDbEntity
  8
ASSI
100
AcDbLine
 62
7
  6
CONTINUOUS
 10
84.665386914
 20
31.2428182423
 11
86.0428232796
 21
31.1223081755
  0
LINE
  5
370
100
AcDbEntity
  8
RACCORDO
100
AcDbLine
 62
253
  6
CONTINUOUS
 10
84.6108873277
 20
32.031795854
 11
85.8962381858
 21
31.9192926528
  0
LINE
  5
371
100
AcDbEntity
  8
ASSI
100
AcDbLine
 62
253
  6
CONTINUOUS
 10
84.6108873277
 20
32.031795854
 11
85.8962381858
 21
31.9192926528
  0
LINE
  5
372
100
AcDbEntity
  8
RACCORDO
100
AcDbLine
 62
253
  6
CONTINUOUS
 10
84.6108878984
 20
32.0317959483
 11
84.1624927499
 21
31.9504960939
  0
LINE
  5
373
100
AcDbEntity
  8
ASSI
100
AcDbLine
 62
253
  6
CONTINUOUS
 10
84.6108878984
 20
32.0317959483
 11
84.1624927499
 21
31.9504960939
  0
LWPOLYLINE
  5
374
100
AcDbEntity
  8
RACCORDO
100
AcDbPolyline
 62
253
  6
CONTINUOUS
 90
16
 70
0
 10
87.127592611
 20
32.4129020114
 10
87.2512554378
 20
32.4312486231
 10
87.3749290315
 20
32.4524503482
 10
87.4985368657
 20
32.4765120573
 10
87.6219166956
 20
32.503356065
 10
87.745064001
 20
32.5330698643
 10
87.8681302443
 20
32.5659066952
 10
87.9910380121
 20
32.6018436066
 10
88.1136613371
 20
32.6409148388
 10
88.2360680286
 20
32.6834607155
 10
88.3582510459
 20
32.7294552053
 10
88.4799694068
 20
32.778937433
 10
88.6009473326
 20
32.8323469201
 10
88.721038593
 20
32.8898353331
 10
88.8401991614
 20
32.9512657219
 10
88.9583303644
 20
33.0166453458
  0
LINE
  5
375
100
AcDbEntity
  8
RACCORDO
100
AcDbLine
 62
253
  6
CONTINUOUS
 10
88.9583303644
 20
33.0166453458
 11
87.0210059075
 21
33.0049413572
  0
LINE
  5
376
100
AcDbEntity
  8
0
100
AcDbLine
 62
7
  6
CONTINUOUS
 10
87.1624079413
 20
32.2221528695
 11
86.6613698037
 21
32.2659880265
  0
LINE
  5
377
100
AcDbEntity
  8
0
100
AcDbLine
 62
253
  6
CONTINUOUS
 10
86.9830813815
 20
33.2186311591
 11
86.4828704247
 21
33.2624181632
  0
LWPOLYLINE
  5
378
100
AcDbEntity
  8
RACCORDO
100
AcDbPolyline
 62
253
  6
CONTINUOUS
 90
17
 70
0
 10
84.665386914
 20
121.0014874967
 10
84.6626258341
 20
120.9995816584
 10
84.6598189652
 20
120.9943515031
 10
84.6569823997
 20
120.9858210951
 10
84.6541313911
 20
120.9740295736
 10
84.6512786629
 20
120.9590270203
 10
84.648434767
 20
120.9408705952
 10
84.6456061676
 20
120.9196311823
 10
84.6428064056
 20
120.895397355
 10
84.6400547397
 20
120.8682683424
 10
84.6373527616
 20
120.8383556286
 10
84.6347092662
 20
120.8057805414
 10
84.6321520683
 20
120.7706729889
 10
84.6296785044
 20
120.7331743126
 10
84.6272920658
 20
120.6934381467
 10
84.6250275679
 20
120.6516261855
 10
84.6208404783
 20
120.5624597661
  0
LWPOLYLINE
  5
379
100
AcDbEntity
  8
ASSI
100
AcDbPolyline
 62
253
  6
CONTINUOUS
 90
17
 70
0
 10
84.665386914
 20
121.0014874967
 10
84.6626258341
 20
120.9995816584
 10
84.6598189652
 20
120.9943515031
 10
84.6569823997
 20
120.9858210951
 10
84.6541313911
 20
120.9740295736
 10
84.6512786629
 20
120.9590270203
 10
84.648434767
 20
120.9408705952
 10
84.6456061676
 20
120.9196311823
 10
84.6428064056
 20
120.895397355
 10
84.6400547397
 20
120.8682683424
 10
84.6373527616
 20
120.8383556286
 10
84.6347092662
 20
120.8057805414
 10
84.6321520683
 20
120.7706729889
 10
84.6296785044
 20
120.7331743126
 10
84.6272920658
 20
120.6934381467
 10
84.6250275679
 20
120.6516261855
 10
84.6208404783
 20
120.5624597661
  0
LINE
  5
37A
100
AcDbEntity
  8
DRAFT
100
AcDbLine
 62
7
  6
CONTINUOUS
 10
85.3583367529
 20
40.6067471185
 11
85.3468128614
 21
40.6069482688
  0
LWPOLYLINE
  5
37B
100
AcDbEntity
  8
0
100
AcDbPolyline
 62
7
  6
CONTINUOUS
 90
3
 70
0
 43
0.3500000006
 10
74.5750658112
 20
140.1578644409
 10
74.5036346283
 20
139.9435799561
 10
74.3607767944
 20
139.6578733521
  0
LINE
  5
37C
100
AcDbEntity
  8
DRAFT
100
AcDbLine
 62
7
  6
CONTINUOUS
 10
84.5994354623
 20
47.6243119492
 11
84.5876340731
 21
47.6241059552
  0
LINE
  5
37D
100
AcDbEntity
  8
DRAFT
100
AcDbLine
 62
7
  6
CONTINUOUS
 10
84.3645850914
 20
50.6240931183
 11
84.3526282925
 21
50.624301825
  0
LINE
  5
37E
100
AcDbEntity
  8
RACCORDO
100
AcDbLine
 62
253
  6
CONTINUOUS
 10
82.1294028742
 20
53.5450562123
 11
81.6736113039
 21
53.5221528703
  0
LINE
  5
37F
100
AcDbEntity
  8
ASSI
100
AcDbLine
 62
253
  6
CONTINUOUS
 10
82.1294028742
 20
53.5450562123
 11
81.6736113039
 21
53.5221528703
  0
LINE
  5
380
100
AcDbEntity
  8
RACCORDO
100
AcDbLine
 62
253
  6
CONTINUOUS
 10
82.1262664811
 20
53.6075306472
 11
81.6704714112
 21
53.5846803329
  0
LINE
  5
381
100
AcDbEntity
  8
ASSI
100
AcDbLine
 62
253
  6
CONTINUOUS
 10
82.1262664811
 20
53.6075306472
 11
81.6704714112
 21
53.5846803329
  0
LINE
  5
382
100
AcDbEntity
  8
0
100
AcDbLine
 62
253
  6
CONTINUOUS
 10
89.6757418693
 20
53.7535436769
 11
86.9443324985
 21
53.7081905748
  0
LINE
  5
383
100
AcDbEntity
  8
0
100
AcDbLine
 62
253
  6
CONTINUOUS
 10
86.9443324985
 20
53.7081905748
 11
84.6698254906
 21
53.6728195361
  0
LINE
  5
384
100
AcDbEntity
  8
RACCORDO
100
AcDbLine
 62
253
  6
CONTINUOUS
 10
83.3714660022
 20
53.6075306472
 11
82.1262664811
 21
53.6075306472
  0
LINE
  5
385
100
AcDbEntity
  8
ASSI
100
AcDbLine
 62
253
  6
CONTINUOUS
 10
83.3714660022
 20
53.6075306472
 11
82.1262664811
 21
53.6075306472
  0
LINE
  5
386
100
AcDbEntity
  8
0
100
AcDbLine
 62
253
  6
CONTINUOUS
 10
84.1842133456
 20
53.6728195361
 11
84.6698254906
 21
53.6728195361
  0
LINE
  5
387
100
AcDbEntity
  8
DRAFT
100
AcDbLine
 62
7
  6
CONTINUOUS
 10
84.0040639402
 20
57.6139197006
 11
83.9893992875
 21
57.6136637281
  0
LWPOLYLINE
  5
388
100
AcDbEntity
  8
0
100
AcDbPolyline
 62
7
  6
CONTINUOUS
 90
4
 70
0
 43
0.3500000006
 10
71.5036337128
 20
140.3007268066
 10
71.5036337128
 20
141.1578647461
 10
71.9322072144
 20
141.5864337158
 10
72.5750652008
 20
141.5864337158
  0
LWPOLYLINE
  5
389
100
AcDbEntity
  8
RACCORDO
100
AcDbPolyline
 62
253
  6
CONTINUOUS
 90
19
 70
0
 10
88.9583302157
 20
33.016645336
 10
88.9805003933
 20
32.9688305104
 10
89.0002876209
 20
32.9210945597
 10
89.0175975366
 20
32.8736651282
 10
89.0323475924
 20
32.8267683989
 10
89.044467448
 20
32.7806280137
 10
89.0538993059
 20
32.7354640074
 10
89.0605981871
 20
32.6914917594
 10
89.0645321457
 20
32.6489209658
 10
89.0656824211
 20
32.6079546389
 10
89.0640435277
 20
32.5687881401
 10
89.0596232806
 20
32.531608248
 10
89.0524427591
 20
32.4965922672
 10
89.0425362055
 20
32.4639071829
 10
89.0299508621
 20
32.4337088651
 10
89.0147467461
 20
32.4061413248
 10
88.9969963629
 20
32.3813360272
 10
88.9767843608
 20
32.3594112648
 10
88.9542071272
 20
32.3404715935
  0
LWPOLYLINE
  5
38A
100
AcDbEntity
  8
RACCORDO
100
AcDbPolyline
 62
253
  6
CONTINUOUS
 90
10
 70
0
 10
84.6108873276
 20
120.2125098848
 10
84.198015081
 20
117.8402840067
 10
83.8193876623
 20
115.4623626908
 10
83.4750054976
 20
113.0792471059
 10
83.1648128642
 20
110.6914485305
 10
82.8888663347
 20
108.2994577605
 10
82.6473347887
 20
105.9037449376
 10
82.4402748143
 20
103.5048004577
 10
82.2676306975
 20
101.1031351423
 10
82.1294028741
 20
98.6992495267
  0
LWPOLYLINE
  5
38B
100
AcDbEntity
  8
ASSI
100
AcDbPolyline
 62
253
  6
CONTINUOUS
 90
10
 70
0
 10
84.6108873276
 20
120.2125098848
 10
84.198015081
 20
117.8402840067
 10
83.8193876623
 20
115.4623626908
 10
83.4750054976
 20
113.0792471059
 10
83.1648128642
 20
110.6914485305
 10
82.8888663347
 20
108.2994577605
 10
82.6473347887
 20
105.9037449376
 10
82.4402748143
 20
103.5048004577
 10
82.2676306975
 20
101.1031351423
 10
82.1294028741
 20
98.6992495267
  0
LWPOLYLINE
  5
38C
100
AcDbEntity
  8
RACCORDO
100
AcDbPolyline
 62
7
  6
CONTINUOUS
 90
10
 70
0
 10
85.8957765806
 20
120.3221528695
 10
85.4750851688
 20
117.9319837973
 10
85.0893688321
 20
115.5363430318
 10
84.7386275706
 20
113.135230573
 10
84.4227573315
 20
110.7277899459
 10
84.1418621676
 20
108.3148776254
 10
83.8962542369
 20
105.8990630373
 10
83.6860375921
 20
103.4812026565
 10
83.5111081806
 20
101.060440008
 10
83.3714660022
 20
98.6367750917
  0
LWPOLYLINE
  5
38D
100
AcDbEntity
  8
ASSI
100
AcDbPolyline
 62
7
  6
CONTINUOUS
 90
10
 70
0
 10
85.8957765806
 20
120.3221528695
 10
85.4750851688
 20
117.9319837973
 10
85.0893688321
 20
115.5363430318
 10
84.7386275706
 20
113.135230573
 10
84.4227573315
 20
110.7277899459
 10
84.1418621676
 20
108.3148776254
 10
83.8962542369
 20
105.8990630373
 10
83.6860375921
 20
103.4812026565
 10
83.5111081806
 20
101.060440008
 10
83.3714660022
 20
98.6367750917
  0
LWPOLYLINE
  5
38E
100
AcDbEntity
  8
RACCORDO
100
AcDbPolyline
 62
7
  6
CONTINUOUS
 90
17
 70
0
 10
85.9377443438
 20
31.5259833373
 10
85.9421745556
 20
31.4817515831
 10
85.9467139877
 20
31.4391082874
 10
85.95133252
 20
31.3983818032
 10
85.9561520833
 20
31.3599309932
 10
85.961177743
 20
31.3239247114
 10
85.9664044337
 20
31.290501398
 10
85.9719388904
 20
31.2599020685
 10
85.9777542165
 20
31.2322901056
 10
85.9838773087
 20
31.2076608696
 10
85.9904955921
 20
31.1859912691
 10
85.9976032411
 20
31.1673041839
 10
86.0052060814
 20
31.1517685671
 10
86.0135090152
 20
31.1395286004
 10
86.0225803432
 20
31.1305817057
 10
86.0323517647
 20
31.1248579121
 10
86.0428232796
 20
31.1223081755
  0
LWPOLYLINE
  5
38F
100
AcDbEntity
  8
ASSI
100
AcDbPolyline
 62
7
  6
CONTINUOUS
 90
17
 70
0
 10
85.9377443438
 20
31.5259833373
 10
85.9421745556
 20
31.4817515831
 10
85.9467139877
 20
31.4391082874
 10
85.95133252
 20
31.3983818032
 10
85.9561520833
 20
31.3599309932
 10
85.961177743
 20
31.3239247114
 10
85.9664044337
 20
31.290501398
 10
85.9719388904
 20
31.2599020685
 10
85.9777542165
 20
31.2322901056
 10
85.9838773087
 20
31.2076608696
 10
85.9904955921
 20
31.1859912691
 10
85.9976032411
 20
31.1673041839
 10
86.0052060814
 20
31.1517685671
 10
86.0135090152
 20
31.1395286004
 10
86.0225803432
 20
31.1305817057
 10
86.0323517647
 20
31.1248579121
 10
86.0428232796
 20
31.1223081755
  0
LINE
  5
390
100
AcDbEntity
  8
RACCORDO
100
AcDbLine
 62
7
  6
CONTINUOUS
 10
85.9196242074
 20
31.717151088
 11
85.9377443438
 21
31.5259833373
  0
LINE
  5
391
100
AcDbEntity
  8
ASSI
100
AcDbLine
 62
7
  6
CONTINUOUS
 10
85.9196242074
 20
31.717151088
 11
85.9377443438
 21
31.5259833373
  0
LINE
  5
392
100
AcDbEntity
  8
SCRITTA
100
AcDbLine
 62
253
  6
CONTINUOUS
 10
82.1072130487
 20
47.2443515151
 11
82.0407771368
 21
48.0207808318
  0
LINE
  5
393
100
AcDbEntity
  8
SCRITTA
100
AcDbLine
 62
253
  6
CONTINUOUS
 10
81.98159024
 20
48.7511402244
 11
82.0423369194
 21
48.0020526414
  0
LINE
  5
394
100
AcDbEntity
  8
SCRITTA
100
AcDbLine
 62
253
  6
CONTINUOUS
 10
81.9249784998
 20
49.4899288667
 11
81.98159024
 21
48.7511402244
  0
LINE
  5
395
100
AcDbEntity
  8
SCRITTA
100
AcDbLine
 62
253
  6
CONTINUOUS
 10
81.9249784998
 20
49.4899288667
 11
81.8823337658
 21
50.0769029449
  0
LWPOLYLINE
  5
396
100
AcDbEntity
  8
RACCORDO
100
AcDbPolyline
 62
7
  6
CONTINUOUS
 90
10
 70
0
 10
83.3714660022
 20
53.6075306472
 10
83.5111081806
 20
51.183865731
 10
83.6860375921
 20
48.7631030825
 10
83.8962542369
 20
46.3452427017
 10
84.1418621676
 20
43.9294281135
 10
84.4227573315
 20
41.5165157931
 10
84.7386275706
 20
39.1090751659
 10
85.0893688321
 20
36.7079627072
 10
85.4750851688
 20
34.3123219417
 10
85.8957765806
 20
31.9221528695
  0
LWPOLYLINE
  5
397
100
AcDbEntity
  8
ASSI
100
AcDbPolyline
 62
7
  6
CONTINUOUS
 90
10
 70
0
 10
83.3714660022
 20
53.6075306472
 10
83.5111081806
 20
51.183865731
 10
83.6860375921
 20
48.7631030825
 10
83.8962542369
 20
46.3452427017
 10
84.1418621676
 20
43.9294281135
 10
84.4227573315
 20
41.5165157931
 10
84.7386275706
 20
39.1090751659
 10
85.0893688321
 20
36.7079627072
 10
85.4750851688
 20
34.3123219417
 10
85.8957765806
 20
31.9221528695
  0
LWPOLYLINE
  5
398
100
AcDbEntity
  8
RACCORDO
100
AcDbPolyline
 62
253
  6
CONTINUOUS
 90
10
 70
0
 10
82.1294028741
 20
53.5450562123
 10
82.2676306663
 20
51.1411710365
 10
82.4402747629
 20
48.7395059919
 10
82.6473347282
 20
46.3405616139
 10
82.8888662807
 20
43.944848647
 10
83.1648128279
 20
41.5528575659
 10
83.4750054769
 20
39.1650587452
 10
83.8193876506
 20
36.781943058
 10
84.1980150763
 20
34.4040217048
 10
84.6108873277
 20
32.031795854
  0
LWPOLYLINE
  5
399
100
AcDbEntity
  8
ASSI
100
AcDbPolyline
 62
253
  6
CONTINUOUS
 90
10
 70
0
 10
82.1294028741
 20
53.5450562123
 10
82.2676306663
 20
51.1411710365
 10
82.4402747629
 20
48.7395059919
 10
82.6473347282
 20
46.3405616139
 10
82.8888662807
 20
43.944848647
 10
83.1648128279
 20
41.5528575659
 10
83.4750054769
 20
39.1650587452
 10
83.8193876506
 20
36.781943058
 10
84.1980150763
 20
34.4040217048
 10
84.6108873277
 20
32.031795854
  0
LWPOLYLINE
  5
39A
100
AcDbEntity
  8
RACCORDO
100
AcDbPolyline
 62
253
  6
CONTINUOUS
 90
16
 70
0
 10
84.6250265876
 20
31.592681384
 10
84.62729073
 20
31.5508690556
 10
84.6296768811
 20
31.5111325
 10
84.6321503853
 20
31.4736334782
 10
84.6347078927
 20
31.4385256242
 10
84.6373519235
 20
31.4059502737
 10
84.6400543917
 20
31.3760373746
 10
84.6428064423
 20
31.3489082456
 10
84.6456065403
 20
31.3246743596
 10
84.6484353297
 20
31.3034349646
 10
84.6512791745
 20
31.2852786574
 10
84.654131698
 20
31.2702762344
 10
84.6569825305
 20
31.2584847529
 10
84.6598190143
 20
31.2499543081
 10
84.6626258386
 20
31.2447241051
 10
84.665386914
 20
31.2428182423
  0
LWPOLYLINE
  5
39B
100
AcDbEntity
  8
ASSI
100
AcDbPolyline
 62
253
  6
CONTINUOUS
 90
16
 70
0
 10
84.6250265876
 20
31.592681384
 10
84.62729073
 20
31.5508690556
 10
84.6296768811
 20
31.5111325
 10
84.6321503853
 20
31.4736334782
 10
84.6347078927
 20
31.4385256242
 10
84.6373519235
 20
31.4059502737
 10
84.6400543917
 20
31.3760373746
 10
84.6428064423
 20
31.3489082456
 10
84.6456065403
 20
31.3246743596
 10
84.6484353297
 20
31.3034349646
 10
84.6512791745
 20
31.2852786574
 10
84.654131698
 20
31.2702762344
 10
84.6569825305
 20
31.2584847529
 10
84.6598190143
 20
31.2499543081
 10
84.6626258386
 20
31.2447241051
 10
84.665386914
 20
31.2428182423
  0
LWPOLYLINE
  5
39C
100
AcDbEntity
  8
RACCORDO
100
AcDbPolyline
 62
253
  6
CONTINUOUS
 90
3
 70
0
 10
84.6189578474
 20
31.7288302984
 10
84.6208404534
 20
31.6818484207
 10
84.6250265876
 20
31.592681384
  0
LWPOLYLINE
  5
39D
100
AcDbEntity
  8
ASSI
100
AcDbPolyline
 62
253
  6
CONTINUOUS
 90
3
 70
0
 10
84.6189578474
 20
31.7288302984
 10
84.6208404534
 20
31.6818484207
 10
84.6250265876
 20
31.592681384
  0
LWPOLYLINE
  5
39E
100
AcDbEntity
  8
RACCORDO
100
AcDbPolyline
 62
253
  6
CONTINUOUS
 90
12
 70
0
 10
81.9539141152
 20
94.886738619
 10
81.8128958647
 20
91.135391015
 10
81.7032117286
 20
87.382995459
 10
81.62485843
 20
83.6298167099
 10
81.5778392438
 20
79.8761163611
 10
81.5621639979
 20
76.122152838
 10
81.5778392449
 20
72.3681893056
 10
81.6248584322
 20
68.6144889413
 10
81.7032117313
 20
64.8613101899
 10
81.8128958671
 20
61.1089146509
 10
81.9539141167
 20
57.357567077
 10
82.1294028741
 20
53.5450562123
  0
LWPOLYLINE
  5
39F
100
AcDbEntity
  8
ASSI
100
AcDbPolyline
 62
253
  6
CONTINUOUS
 90
12
 70
0
 10
81.9539141152
 20
94.886738619
 10
81.8128958647
 20
91.135391015
 10
81.7032117286
 20
87.382995459
 10
81.62485843
 20
83.6298167099
 10
81.5778392438
 20
79.8761163611
 10
81.5621639979
 20
76.122152838
 10
81.5778392449
 20
72.3681893056
 10
81.6248584322
 20
68.6144889413
 10
81.7032117313
 20
64.8613101899
 10
81.8128958671
 20
61.1089146509
 10
81.9539141167
 20
57.357567077
 10
82.1294028741
 20
53.5450562123
  0
LWPOLYLINE
  5
3A0
100
AcDbEntity
  8
RACCORDO
100
AcDbPolyline
 62
253
  6
CONTINUOUS
 90
3
 70
0
 10
84.6208404783
 20
120.5624597661
 10
84.6189575313
 20
120.51547806
 10
84.6156137433
 20
120.417692251
  0
LWPOLYLINE
  5
3A1
100
AcDbEntity
  8
ASSI
100
AcDbPolyline
 62
253
  6
CONTINUOUS
 90
3
 70
0
 10
84.6208404783
 20
120.5624597661
 10
84.6189575313
 20
120.51547806
 10
84.6156137433
 20
120.417692251
  0
LWPOLYLINE
  5
3A2
100
AcDbEntity
  8
DRAFT
100
AcDbPolyline
 62
7
  6
CONTINUOUS
 90
13
 70
0
 10
83.3714660022
 20
98.6367750917
 10
83.1986660538
 20
94.8872607741
 10
83.0572790768
 20
91.1365773687
 10
82.9473050713
 20
87.3847248756
 10
82.8687376805
 20
83.6313135987
 10
82.8215832611
 20
79.8767332341
 10
82.8058608835
 20
76.1221528695
 10
82.8215832611
 20
72.3675725049
 10
82.8687376805
 20
68.6129921402
 10
82.9473050713
 20
64.8595808634
 10
83.0572790768
 20
61.1077283702
 10
83.1986660538
 20
57.3570449648
 10
83.3714660022
 20
53.6075306472
  0
LWPOLYLINE
  5
3A3
100
AcDbEntity
  8
ASSI
100
AcDbPolyline
 62
7
  6
CONTINUOUS
 90
13
 70
0
 10
83.3714660022
 20
98.6367750917
 10
83.1986660538
 20
94.8872607741
 10
83.0572790768
 20
91.1365773687
 10
82.9473050713
 20
87.3847248756
 10
82.8687376805
 20
83.6313135987
 10
82.8215832611
 20
79.8767332341
 10
82.8058608835
 20
76.1221528695
 10
82.8215832611
 20
72.3675725049
 10
82.8687376805
 20
68.6129921402
 10
82.9473050713
 20
64.8595808634
 10
83.0572790768
 20
61.1077283702
 10
83.1986660538
 20
57.3570449648
 10
83.3714660022
 20
53.6075306472
  0
LINE
  5
3A4
100
AcDbEntity
  8
RACCORDO
100
AcDbLine
 62
253
  6
CONTINUOUS
 10
82.1294028741
 20
98.6992495267
 11
81.9539141152
 21
94.886738619
  0
LINE
  5
3A5
100
AcDbEntity
  8
ASSI
100
AcDbLine
 62
253
  6
CONTINUOUS
 10
82.1294028741
 20
98.6992495267
 11
81.9539141152
 21
94.886738619
  0
LWPOLYLINE
  5
3A6
100
AcDbEntity
  8
RACCORDO
100
AcDbPolyline
 62
7
  6
CONTINUOUS
 90
5
 70
0
 10
85.9196242075
 20
120.5271545982
 10
85.9144446335
 20
120.4766447396
 10
85.9086818779
 20
120.4255017994
 10
85.9024484395
 20
120.3739323566
 10
85.8957443184
 20
120.3221528695
  0
LWPOLYLINE
  5
3A7
100
AcDbEntity
  8
ASSI
100
AcDbPolyline
 62
7
  6
CONTINUOUS
 90
5
 70
0
 10
85.9196242075
 20
120.5271545982
 10
85.9144446335
 20
120.4766447396
 10
85.9086818779
 20
120.4255017994
 10
85.9024484395
 20
120.3739323566
 10
85.8957443184
 20
120.3221528695
  0
LWPOLYLINE
  5
3A8
100
AcDbEntity
  8
RACCORDO
100
AcDbPolyline
 62
7
  6
CONTINUOUS
 90
5
 70
0
 10
85.8957443184
 20
31.9221528695
 10
85.9024484021
 20
31.870373772
 10
85.9086818264
 20
31.818804463
 10
85.9144445914
 20
31.7676614037
 10
85.9196242074
 20
31.717151088
  0
LWPOLYLINE
  5
3A9
100
AcDbEntity
  8
ASSI
100
AcDbPolyline
 62
7
  6
CONTINUOUS
 90
5
 70
0
 10
85.8957443184
 20
31.9221528695
 10
85.9024484021
 20
31.870373772
 10
85.9086818264
 20
31.818804463
 10
85.9144445914
 20
31.7676614037
 10
85.9196242074
 20
31.717151088
  0
LINE
  5
3AA
100
AcDbEntity
  8
RACCORDO
100
AcDbLine
 62
253
  6
CONTINUOUS
 10
84.6156139279
 20
31.8266160461
 11
84.6189578474
 21
31.7288302984
  0
LINE
  5
3AB
100
AcDbEntity
  8
ASSI
100
AcDbLine
 62
253
  6
CONTINUOUS
 10
84.6156139279
 20
31.8266160461
 11
84.6189578474
 21
31.7288302984
  0
LINE
  5
3AC
100
AcDbEntity
  8
RACCORDO
100
AcDbLine
 62
253
  6
CONTINUOUS
 10
84.6129427259
 20
31.9281618454
 11
84.6156139279
 21
31.8266160461
  0
LINE
  5
3AD
100
AcDbEntity
  8
ASSI
100
AcDbLine
 62
253
  6
CONTINUOUS
 10
84.6129427259
 20
31.9281618454
 11
84.6156139279
 21
31.8266160461
  0
LINE
  5
3AE
100
AcDbEntity
  8
RACCORDO
100
AcDbLine
 62
253
  6
CONTINUOUS
 10
84.6108873291
 20
32.0317958539
 11
84.6129427259
 21
31.9281618454
  0
LINE
  5
3AF
100
AcDbEntity
  8
ASSI
100
AcDbLine
 62
253
  6
CONTINUOUS
 10
84.6108873291
 20
32.0317958539
 11
84.6129427259
 21
31.9281618454
  0
LINE
  5
3B0
100
AcDbEntity
  8
RACCORDO
100
AcDbLine
 62
253
  6
CONTINUOUS
 10
84.612942706
 20
120.3161456035
 11
84.6108873291
 21
120.212509885
  0
LINE
  5
3B1
100
AcDbEntity
  8
ASSI
100
AcDbLine
 62
253
  6
CONTINUOUS
 10
84.612942706
 20
120.3161456035
 11
84.6108873291
 21
120.212509885
  0
LINE
  5
3B2
100
AcDbEntity
  8
RACCORDO
100
AcDbLine
 62
253
  6
CONTINUOUS
 10
84.6156137433
 20
120.417692251
 11
84.612942706
 21
120.3161456035
  0
LINE
  5
3B3
100
AcDbEntity
  8
ASSI
100
AcDbLine
 62
253
  6
CONTINUOUS
 10
84.6156137433
 20
120.417692251
 11
84.612942706
 21
120.3161456035
  0
LINE
  5
3B4
100
AcDbEntity
  8
0
100
AcDbLine
 62
253
  6
CONTINUOUS
 10
87.6757418693
 20
76.1221528695
 11
84.1057418693
 21
76.1221528695
  0
LINE
  5
3B5
100
AcDbEntity
  8
RACCORDO
100
AcDbLine
 62
7
  6
CONTINUOUS
 10
89.6757418693
 20
72.2694989081
 11
87.8410122337
 21
72.5930112451
  0
LINE
  5
3B6
100
AcDbEntity
  8
RACCORDO
100
AcDbLine
 62
7
  6
CONTINUOUS
 10
87.6757418693
 20
72.7899727957
 11
87.6757418693
 21
79.4543329432
  0
LINE
  5
3B7
100
AcDbEntity
  8
RACCORDO
100
AcDbLine
 62
7
  6
CONTINUOUS
 10
89.6757418693
 20
33.0221523981
 11
89.6757418693
 21
53.7535436769
  0
LINE
  5
3B8
100
AcDbEntity
  8
DRAFT
100
AcDbLine
 62
7
  6
CONTINUOUS
 10
89.6757418693
 20
53.7535436769
 11
89.6757418693
 21
72.2694989081
  0
LINE
  5
3B9
100
AcDbEntity
  8
DRAFT
100
AcDbLine
 62
7
  6
CONTINUOUS
 10
89.6757418693
 20
79.9748068309
 11
89.6757418693
 21
98.490762062
  0
LINE
  5
3BA
100
AcDbEntity
  8
RACCORDO
100
AcDbLine
 62
7
  6
CONTINUOUS
 10
89.6757418693
 20
98.490762062
 11
89.6757418693
 21
119.2221533059
  0
LINE
  5
3BB
100
AcDbEntity
  8
RACCORDO
100
AcDbLine
 62
7
  6
CONTINUOUS
 10
87.8410122337
 20
79.6512944938
 11
89.6757418693
 21
79.9748068309
  0
LINE
  5
3BC
100
AcDbEntity
  8
DRAFT
100
AcDbLine
 62
7
  6
CONTINUOUS
 10
84.0040639402
 20
94.6303860384
 11
83.9893992971
 21
94.6306420107
  0
LWPOLYLINE
  5
3BD
100
AcDbEntity
  8
0
100
AcDbPolyline
 62
7
  6
CONTINUOUS
 90
10
 70
0
 43
0.3500000006
 10
74.5036346283
 20
140.3721489258
 10
74.5750658112
 20
140.2293046875
 10
74.5750658112
 20
140.1578644409
 10
74.4322079773
 20
140.0150020752
 10
74.3607767944
 20
140.0150020752
 10
74.2893501434
 20
140.0864423218
 10
74.2893501434
 20
140.1578644409
 10
74.3607767944
 20
140.3007268066
 10
74.4322079773
 20
140.3721489258
 10
74.5036346283
 20
140.3721489258
  0
LINE
  5
3BE
100
AcDbEntity
  8
0
100
AcDbLine
 62
253
  6
CONTINUOUS
 10
84.1842133456
 20
98.5714862029
 11
84.6698254906
 21
98.5714862029
  0
LINE
  5
3BF
100
AcDbEntity
  8
RACCORDO
100
AcDbLine
 62
253
  6
CONTINUOUS
 10
83.3714660022
 20
98.6367750917
 11
82.1262664811
 21
98.6367750917
  0
LINE
  5
3C0
100
AcDbEntity
  8
ASSI
100
AcDbLine
 62
253
  6
CONTINUOUS
 10
83.3714660022
 20
98.6367750917
 11
82.1262664811
 21
98.6367750917
  0
LINE
  5
3C1
100
AcDbEntity
  8
0
100
AcDbLine
 62
253
  6
CONTINUOUS
 10
89.6757418693
 20
98.490762062
 11
84.6698254906
 21
98.5714862029
  0
LINE
  5
3C2
100
AcDbEntity
  8
RACCORDO
100
AcDbLine
 62
253
  6
CONTINUOUS
 10
82.1262664812
 20
98.6367750917
 11
81.6704714169
 21
98.6596254058
  0
LINE
  5
3C3
100
AcDbEntity
  8
ASSI
100
AcDbLine
 62
253
  6
CONTINUOUS
 10
82.1262664812
 20
98.6367750917
 11
81.6704714169
 21
98.6596254058
  0
LINE
  5
3C4
100
AcDbEntity
  8
RACCORDO
100
AcDbLine
 62
253
  6
CONTINUOUS
 10
82.1294028741
 20
98.6992495267
 11
81.6736112867
 21
98.7221528695
  0
LINE
  5
3C5
100
AcDbEntity
  8
ASSI
100
AcDbLine
 62
253
  6
CONTINUOUS
 10
82.1294028741
 20
98.6992495267
 11
81.6736112867
 21
98.7221528695
  0
LINE
  5
3C6
100
AcDbEntity
  8
DRAFT
100
AcDbLine
 62
7
  6
CONTINUOUS
 10
84.364585091
 20
101.6202126207
 11
84.3528257558
 21
101.6200073607
  0
LINE
  5
3C7
100
AcDbEntity
  8
DRAFT
100
AcDbLine
 62
7
  6
CONTINUOUS
 10
84.5994354623
 20
104.6199937898
 11
84.585201446
 21
104.6202422455
  0
LINE
  5
3C8
100
AcDbEntity
  8
DRAFT
100
AcDbLine
 62
7
  6
CONTINUOUS
 10
85.358336753
 20
111.6375586205
 11
85.3458411853
 21
111.6373405095
  0
LWPOLYLINE
  5
3C9
100
AcDbEntity
  8
RACCORDO
100
AcDbPolyline
 62
253
  6
CONTINUOUS
 90
19
 70
0
 10
88.95420805
 20
119.9038354028
 10
88.9767852399
 20
119.8848956611
 10
88.9969971938
 20
119.8629708246
 10
89.0147475247
 20
119.83816545
 10
89.029951585
 20
119.8105978308
 10
89.0425368699
 20
119.780399433
 10
89.0524433628
 20
119.7477142684
 10
89.0596238221
 20
119.712698208
 10
89.0640440063
 20
119.6755182376
 10
89.0656828371
 20
119.6363516624
 10
89.0645324998
 20
119.5953852616
 10
89.0605984809
 20
119.5528143969
 10
89.0538995415
 20
119.5088420807
 10
89.0444676283
 20
119.4636780096
 10
89.0323477207
 20
119.4175375628
 10
89.0175976165
 20
119.3706407745
 10
89.0002876561
 20
119.3232112866
 10
88.9805003879
 20
119.2754752822
 10
88.9583301738
 20
119.2276604057
  0
LWPOLYLINE
  5
3CA
100
AcDbEntity
  8
RACCORDO
100
AcDbPolyline
 62
253
  6
CONTINUOUS
 90
10
 70
0
 10
88.9583303644
 20
33.0166453458
 10
89.0500833512
 20
33.0715531004
 10
89.1381070144
 20
33.1273749888
 10
89.2224914742
 20
33.1841099265
 10
89.3026191236
 20
33.2411664549
 10
89.3793198953
 20
33.2991328055
 10
89.4547713005
 20
33.3597812793
 10
89.5296678055
 20
33.4237061165
 10
89.6033200724
 20
33.4903191148
 10
89.6757418376
 20
33.5596227342
  0
LWPOLYLINE
  5
3CB
100
AcDbEntity
  8
RACCORDO
100
AcDbPolyline
 62
253
  6
CONTINUOUS
 90
10
 70
0
 10
88.9583303644
 20
119.2276603932
 10
89.0497463319
 20
119.1729981693
 10
89.1376917745
 20
119.117233344
 10
89.2222465007
 20
119.0603665448
 10
89.3029982563
 20
119.0028186097
 10
89.3805447052
 20
118.9441707987
 10
89.4564235091
 20
118.8831616753
 10
89.5311396979
 20
118.81936829
 10
89.6042349714
 20
118.753209299
 10
89.6757418353
 20
118.6846830069
  0
LWPOLYLINE
  5
3CC
100
AcDbEntity
  8
RACCORDO
100
AcDbPolyline
 62
7
  6
CONTINUOUS
 90
18
 70
0
 10
86.0428232796
 20
121.1219975634
 10
86.0323517139
 20
121.119447825
 10
86.0225801567
 20
121.1137239128
 10
86.0135086078
 20
121.1047766351
 10
86.0052053168
 20
121.0925357852
 10
85.9976020343
 20
121.0769986915
 10
85.9904940115
 20
121.0583097952
 10
85.9838754393
 20
121.0366380363
 10
85.9777521268
 20
121.0120064014
 10
85.9719367531
 20
120.9843926759
 10
85.9664025181
 20
120.9537931082
 10
85.9611762218
 20
120.9203708465
 10
85.9561509441
 20
120.88436609
 10
85.9513317124
 20
120.8459171749
 10
85.9467134992
 20
120.8051930477
 10
85.942174302
 20
120.7625516843
 10
85.9377441873
 20
120.7183207498
 10
85.9196242075
 20
120.5271545982
  0
LWPOLYLINE
  5
3CD
100
AcDbEntity
  8
ASSI
100
AcDbPolyline
 62
7
  6
CONTINUOUS
 90
18
 70
0
 10
86.0428232796
 20
121.1219975634
 10
86.0323517139
 20
121.119447825
 10
86.0225801567
 20
121.1137239128
 10
86.0135086078
 20
121.1047766351
 10
86.0052053168
 20
121.0925357852
 10
85.9976020343
 20
121.0769986915
 10
85.9904940115
 20
121.0583097952
 10
85.9838754393
 20
121.0366380363
 10
85.9777521268
 20
121.0120064014
 10
85.9719367531
 20
120.9843926759
 10
85.9664025181
 20
120.9537931082
 10
85.9611762218
 20
120.9203708465
 10
85.9561509441
 20
120.88436609
 10
85.9513317124
 20
120.8459171749
 10
85.9467134992
 20
120.8051930477
 10
85.942174302
 20
120.7625516843
 10
85.9377441873
 20
120.7183207498
 10
85.9196242075
 20
120.5271545982
  0
LINE
  5
3CE
100
AcDbEntity
  8
0
100
AcDbLine
 62
253
  6
CONTINUOUS
 10
86.4828704247
 20
118.9818875757
 11
86.9830813815
 21
119.0256745799
  0
LINE
  5
3CF
100
AcDbEntity
  8
0
100
AcDbLine
 62
7
  6
CONTINUOUS
 10
87.1624079413
 20
120.0221528695
 11
86.6613698037
 21
119.9783177124
  0
LINE
  5
3D0
100
AcDbEntity
  8
RACCORDO
100
AcDbLine
 62
253
  6
CONTINUOUS
 10
84.6108873276
 20
120.2125098848
 11
85.8962381858
 21
120.3250130861
  0
LINE
  5
3D1
100
AcDbEntity
  8
ASSI
100
AcDbLine
 62
253
  6
CONTINUOUS
 10
84.6108873276
 20
120.2125098848
 11
85.8962381858
 21
120.3250130861
  0
LINE
  5
3D2
100
AcDbEntity
  8
RACCORDO
100
AcDbLine
 62
253
  6
CONTINUOUS
 10
85.8957765806
 20
120.3221528695
 11
86.709171197
 21
120.3221528695
  0
LINE
  5
3D3
100
AcDbEntity
  8
ASSI
100
AcDbLine
 62
253
  6
CONTINUOUS
 10
85.8957765806
 20
120.3221528695
 11
86.709171197
 21
120.3221528695
  0
LINE
  5
3D4
100
AcDbEntity
  8
RACCORDO
100
AcDbLine
 62
253
  6
CONTINUOUS
 10
88.9583303644
 20
119.2276603932
 11
87.0210059075
 21
119.2393643818
  0
LWPOLYLINE
  5
3D5
100
AcDbEntity
  8
RACCORDO
100
AcDbPolyline
 62
253
  6
CONTINUOUS
 90
16
 70
0
 10
87.1275925719
 20
119.8314037343
 10
87.2492480806
 20
119.8134090541
 10
87.3712350189
 20
119.792553537
 10
87.4934761453
 20
119.7688322943
 10
87.6158218269
 20
119.7423371692
 10
87.7382487546
 20
119.7129664198
 10
87.8608603448
 20
119.680424091
 10
87.9835437832
 20
119.6447430062
 10
88.1061984499
 20
119.6058787302
 10
88.228934697
 20
119.563417884
 10
88.351773408
 20
119.5173748417
 10
88.4744229627
 20
119.4677213002
 10
88.5965323978
 20
119.4139781646
 10
88.7179233913
 20
119.3559802098
 10
88.838560188
 20
119.29387689
 10
88.9583303644
 20
119.2276603932
  0
LINE
  5
3D6
100
AcDbEntity
  8
RACCORDO
100
AcDbLine
 62
253
  6
CONTINUOUS
 10
84.6108873295
 20
120.2125098949
 11
84.1624927767
 21
120.2938096403
  0
LINE
  5
3D7
100
AcDbEntity
  8
ASSI
100
AcDbLine
 62
253
  6
CONTINUOUS
 10
84.6108873295
 20
120.2125098949
 11
84.1624927767
 21
120.2938096403
  0
LWPOLYLINE
  5
3D8
100
AcDbEntity
  8
0
100
AcDbPolyline
 62
7
  6
CONTINUOUS
 90
13
 70
0
 43
0.3500000006
 10
71.9322072144
 20
141.5864337158
 10
71.6464915466
 20
141.8007182007
 10
71.6464915466
 20
142.4435897827
 10
71.9322072144
 20
142.8721587524
 10
72.5750652008
 20
142.8721587524
 10
72.8607763367
 20
142.4435897827
 10
72.8607763367
 20
141.8007182007
 10
72.5750652008
 20
141.5864337158
 10
73.0036341705
 20
141.1578647461
 10
73.0036341705
 20
140.3007268066
 10
72.5750652008
 20
139.8721578369
 10
71.9322072144
 20
139.8721578369
 10
71.5036337128
 20
140.3007268066
  0
LINE
  5
3D9
100
AcDbEntity
  8
RACCORDO
100
AcDbLine
 62
7
  6
CONTINUOUS
 10
84.665386914
 20
121.0014874967
 11
86.044598436
 21
121.1221528695
  0
LINE
  5
3DA
100
AcDbEntity
  8
ASSI
100
AcDbLine
 62
7
  6
CONTINUOUS
 10
84.665386914
 20
121.0014874967
 11
86.044598436
 21
121.1221528695
  0
LINE
  5
3DB
100
AcDbEntity
  8
RACCORDO
100
AcDbLine
 62
7
  6
CONTINUOUS
 10
86.044598436
 20
121.1221528695
 11
86.8587723301
 21
121.1221528695
  0
LINE
  5
3DC
100
AcDbEntity
  8
ASSI
100
AcDbLine
 62
7
  6
CONTINUOUS
 10
86.044598436
 20
121.1221528695
 11
86.8587723301
 21
121.1221528695
  0
ARC
  5
3DD
100
AcDbEntity
  8
RACCORDO
100
AcDbCircle
 62
7
  6
CONTINUOUS
 10
232.2755317983
 20
31.9221528695
 40
0.8
100
AcDbArc
 50
270.0
 51
360.0
  0
ARC
  5
3DE
100
AcDbEntity
  8
RACCORDO
100
AcDbCircle
 62
7
  6
CONTINUOUS
 10
232.2755317983
 20
120.3221528695
 40
0.8
100
AcDbArc
 50
0.0
 51
90.0
  0
ARC
  5
3DF
100
AcDbEntity
  8
RACCORDO
100
AcDbCircle
 62
7
  6
CONTINUOUS
 10
111.8755317983
 20
31.9221528695
 40
0.8
100
AcDbArc
 50
180.0
 51
270.0
  0
ARC
  5
3E0
100
AcDbEntity
  8
RACCORDO
100
AcDbCircle
 62
7
  6
CONTINUOUS
 10
111.8755317983
 20
120.3221528695
 40
0.8
100
AcDbArc
 50
90.0
 51
180.0
  0
ARC
  5
3E1
100
AcDbEntity
  8
ASSI
100
AcDbCircle
 62
7
  6
CONTINUOUS
 10
232.2755317983
 20
31.9221528695
 40
0.8
100
AcDbArc
 50
270.0
 51
360.0
  0
ARC
  5
3E2
100
AcDbEntity
  8
ASSI
100
AcDbCircle
 62
7
  6
CONTINUOUS
 10
232.2755317983
 20
120.3221528695
 40
0.8
100
AcDbArc
 50
0.0
 51
90.0
  0
ARC
  5
3E3
100
AcDbEntity
  8
ASSI
100
AcDbCircle
 62
7
  6
CONTINUOUS
 10
111.8755317983
 20
31.9221528695
 40
0.8
100
AcDbArc
 50
180.0
 51
270.0
  0
ARC
  5
3E4
100
AcDbEntity
  8
ASSI
100
AcDbCircle
 62
7
  6
CONTINUOUS
 10
111.8755317983
 20
120.3221528695
 40
0.8
100
AcDbArc
 50
90.0
 51
180.0
  0
ARC
  5
3E5
100
AcDbEntity
  8
RACCORDO
100
AcDbCircle
 62
7
  6
CONTINUOUS
 10
86.5753606746
 20
35.5811036067
 40
4.0200239337
100
AcDbArc
 50
279.9999998059
 51
320.4648679848
  0
ARC
  5
3E6
100
AcDbEntity
  8
RACCORDO
100
AcDbCircle
 62
7
  6
CONTINUOUS
 10
84.7089639936
 20
31.7409198545
 40
0.5
100
AcDbArc
 50
190.3886735272
 51
265.0001329639
  0
ARC
  5
3E7
100
AcDbEntity
  8
ASSI
100
AcDbCircle
 62
7
  6
CONTINUOUS
 10
84.7089639936
 20
31.7409198545
 40
0.5
100
AcDbArc
 50
190.3886735272
 51
265.0001329639
  0
ARC
  5
3E8
100
AcDbEntity
  8
RACCORDO
100
AcDbCircle
 62
7
  6
CONTINUOUS
 10
87.8757418693
 20
72.7899727957
 40
0.2
100
AcDbArc
 50
180.0
 51
260.0
  0
ARC
  5
3E9
100
AcDbEntity
  8
RACCORDO
100
AcDbCircle
 62
7
  6
CONTINUOUS
 10
249.5814552723
 20
61.9655128695
 40
168.12
100
AcDbArc
 50
182.8787323946
 51
190.3881766496
  0
ARC
  5
3EA
100
AcDbEntity
  8
ASSI
100
AcDbCircle
 62
7
  6
CONTINUOUS
 10
249.5814552723
 20
61.9655128695
 40
168.12
100
AcDbArc
 50
182.8787323946
 51
190.3881766496
  0
ARC
  5
3EB
100
AcDbEntity
  8
SCRITTA
100
AcDbCircle
 62
253
  6
CONTINUOUS
 10
249.5814552723
 20
61.9655128695
 40
168.12
100
AcDbArc
 50
184.066222377
 51
185.0234474304
  0
ARC
  5
3EC
100
AcDbEntity
  8
RACCORDO
100
AcDbCircle
 62
7
  6
CONTINUOUS
 10
249.5814552723
 20
61.9655128695
 40
165.62
100
AcDbArc
 50
182.8787323946
 51
190.7328340038
  0
ARC
  5
3ED
100
AcDbEntity
  8
ASSI
100
AcDbCircle
 62
7
  6
CONTINUOUS
 10
249.5814552723
 20
61.9655128695
 40
165.62
100
AcDbArc
 50
182.8787323946
 51
190.7328340038
  0
ARC
  5
3EE
100
AcDbEntity
  8
0
100
AcDbCircle
 62
7
  6
CONTINUOUS
 10
249.5814552723
 20
61.9655128695
 40
165.605
100
AcDbArc
 50
182.8787323946
 51
190.3312923639
  0
ARC
  5
3EF
100
AcDbEntity
  8
0
100
AcDbCircle
 62
7
  6
CONTINUOUS
 10
249.5814552723
 20
61.9655128695
 40
165.12
100
AcDbArc
 50
182.8787323946
 51
190.1014160686
  0
ARC
  5
3F0
100
AcDbEntity
  8
RACCORDO
100
AcDbCircle
 62
7
  6
CONTINUOUS
 10
249.5814552723
 20
61.9655128695
 40
165.12
100
AcDbArc
 50
190.1014160686
 51
190.5891670949
  0
ARC
  5
3F1
100
AcDbEntity
  8
RACCORDO
100
AcDbCircle
 62
7
  6
CONTINUOUS
 10
87.8757418693
 20
79.4543329432
 40
0.2
100
AcDbArc
 50
100.0
 51
180.0
  0
ARC
  5
3F2
100
AcDbEntity
  8
RACCORDO
100
AcDbCircle
 62
7
  6
CONTINUOUS
 10
86.5753606746
 20
116.6632021323
 40
4.0200239337
100
AcDbArc
 50
39.5351313682
 51
80.0000000715
  0
ARC
  5
3F3
100
AcDbEntity
  8
RACCORDO
100
AcDbCircle
 62
7
  6
CONTINUOUS
 10
84.7089639936
 20
120.5033858845
 40
0.5
100
AcDbArc
 50
94.9998670361
 51
169.6113264728
  0
ARC
  5
3F4
100
AcDbEntity
  8
ASSI
100
AcDbCircle
 62
7
  6
CONTINUOUS
 10
84.7089639936
 20
120.5033858845
 40
0.5
100
AcDbArc
 50
94.9998670361
 51
169.6113264728
  0
ARC
  5
3F5
100
AcDbEntity
  8
RACCORDO
100
AcDbCircle
 62
7
  6
CONTINUOUS
 10
249.5814552723
 20
90.2787928695
 40
168.12
100
AcDbArc
 50
169.6120465221
 51
177.1212676054
  0
ARC
  5
3F6
100
AcDbEntity
  8
ASSI
100
AcDbCircle
 62
7
  6
CONTINUOUS
 10
249.5814552723
 20
90.2787928695
 40
168.12
100
AcDbArc
 50
169.6120465221
 51
177.1212676054
  0
ARC
  5
3F7
100
AcDbEntity
  8
RACCORDO
100
AcDbCircle
 62
7
  6
CONTINUOUS
 10
249.5814552723
 20
90.2787928695
 40
165.62
100
AcDbArc
 50
169.2676317374
 51
177.1212676054
  0
ARC
  5
3F8
100
AcDbEntity
  8
ASSI
100
AcDbCircle
 62
7
  6
CONTINUOUS
 10
249.5814552723
 20
90.2787928695
 40
165.62
100
AcDbArc
 50
169.2676317374
 51
177.1212676054
  0
ARC
  5
3F9
100
AcDbEntity
  8
0
100
AcDbCircle
 62
7
  6
CONTINUOUS
 10
249.5814552723
 20
90.2787928695
 40
165.605
100
AcDbArc
 50
169.6687076361
 51
177.1212676054
  0
ARC
  5
3FA
100
AcDbEntity
  8
0
100
AcDbCircle
 62
7
  6
CONTINUOUS
 10
249.5814552723
 20
90.2787928695
 40
165.12
100
AcDbArc
 50
169.8985839314
 51
177.1212676054
  0
ARC
  5
3FB
100
AcDbEntity
  8
RACCORDO
100
AcDbCircle
 62
7
  6
CONTINUOUS
 10
249.5814552723
 20
90.2787928695
 40
165.12
100
AcDbArc
 50
169.4108329051
 51
169.8985839314
  0
ARC
  5
3FC
100
AcDbEntity
  8
RACCORDO
100
AcDbCircle
 62
7
  6
CONTINUOUS
 10
531.1057418693
 20
76.1221528695
 40
450.0
100
AcDbArc
 50
177.1212731691
 51
182.8787274801
  0
ARC
  5
3FD
100
AcDbEntity
  8
ASSI
100
AcDbCircle
 62
7
  6
CONTINUOUS
 10
531.1057418693
 20
76.1221528695
 40
450.0
100
AcDbArc
 50
177.1212731691
 51
182.8787274801
  0
ARC
  5
3FE
100
AcDbEntity
  8
DRAFT
100
AcDbCircle
 62
7
  6
CONTINUOUS
 10
531.1057418693
 20
76.1221528695
 40
447.5
100
AcDbArc
 50
177.1212676054
 51
182.8787323946
  0
ARC
  5
3FF
100
AcDbEntity
  8
ASSI
100
AcDbCircle
 62
7
  6
CONTINUOUS
 10
531.1057418693
 20
76.1221528695
 40
447.5
100
AcDbArc
 50
177.1212676054
 51
182.8787323946
  0
ARC
  5
400
100
AcDbEntity
  8
0
100
AcDbCircle
 62
7
  6
CONTINUOUS
 10
531.1057418693
 20
76.1221528695
 40
447.485
100
AcDbArc
 50
177.1212676054
 51
182.8787323946
  0
ARC
  5
401
100
AcDbEntity
  8
0
100
AcDbCircle
 62
7
  6
CONTINUOUS
 10
531.1057418693
 20
76.1221528695
 40
447.0
100
AcDbArc
 50
177.1212676054
 51
182.8787323946
  0
ELLIPSE
  5
402
100
AcDbEntity
  8
SCRITTA
100
AcDbEllipse
 62
253
  6
CONTINUOUS
 10
249.5814552723
 20
61.9655128695
 30
0.0
 11
48.7185110775
 21
160.9063114933
 31
0.0
 40
1.0
 41
1.940355732
 42
1.9437605998
  0
ELLIPSE
  5
403
100
AcDbEntity
  8
SCRITTA
100
AcDbEllipse
 62
253
  6
CONTINUOUS
 10
249.5814552723
 20
61.9655128695
 30
0.0
 11
118.8787920531
 21
118.8787920531
 31
0.0
 40
1.0
 41
2.4351115039
 42
2.4352145106
  0
ELLIPSE
  5
404
100
AcDbEntity
  8
SCRITTA
100
AcDbEllipse
 62
253
  6
CONTINUOUS
 10
249.5814552723
 20
61.9655128695
 30
0.0
 11
75.1855496755
 21
150.3710993509
 31
0.0
 40
1.0
 41
2.1054139062
 42
2.1162013621
  0
ELLIPSE
  5
405
100
AcDbEntity
  8
SCRITTA
100
AcDbEllipse
 62
253
  6
CONTINUOUS
 10
249.5814552723
 20
61.9655128695
 30
0.0
 11
15.0981166845
 21
167.4406798618
 31
0.0
 40
1.0
 41
-4.5436728959
 42
-4.5433010605
  0
ELLIPSE
  5
406
100
AcDbEntity
  8
SCRITTA
100
AcDbEllipse
 62
253
  6
CONTINUOUS
 10
249.5814552723
 20
61.9655128695
 30
0.0
 11
143.0114139001
 21
88.3859145695
 31
0.0
 40
1.0
 41
2.6647829771
 42
2.6670383151
  0
ELLIPSE
  5
407
100
AcDbEntity
  8
SCRITTA
100
AcDbEllipse
 62
253
  6
CONTINUOUS
 10
249.5814552723
 20
61.9655128695
 30
0.0
 11
26.9298386943
 21
165.949143378
 31
0.0
 40
1.0
 41
-4.4725501965
 42
-4.4638380057
  0
ELLIPSE
  5
408
100
AcDbEntity
  8
SCRITTA
100
AcDbEllipse
 62
253
  6
CONTINUOUS
 10
249.5814552723
 20
61.9655128695
 30
0.0
 11
160.9063114933
 21
-48.7185110775
 31
0.0
 40
1.0
 41
-2.7686278451
 42
-2.7599156544
  0
ELLIPSE
  5
409
100
AcDbEntity
  8
SCRITTA
100
AcDbEllipse
 62
253
  6
CONTINUOUS
 10
249.5814552723
 20
61.9655128695
 30
0.0
 11
38.6260610024
 21
163.6226201093
 31
0.0
 40
1.0
 41
-4.3962263443
 42
-4.3928894784
  0
ELLIPSE
  5
40A
100
AcDbEntity
  8
SCRITTA
100
AcDbEllipse
 62
253
  6
CONTINUOUS
 10
249.5814552723
 20
61.9655128695
 30
0.0
 11
31.7927564566
 21
165.0865077373
 31
0.0
 40
1.0
 41
-4.4433464572
 42
-4.4429746218
  0
ELLIPSE
  5
40B
100
AcDbEntity
  8
SCRITTA
100
AcDbEllipse
 62
253
  6
CONTINUOUS
 10
249.5814552723
 20
61.9655128695
 30
0.0
 11
108.6685475374
 21
128.2789194533
 31
0.0
 40
1.0
 41
2.3525831227
 42
2.3612958489
  0
ELLIPSE
  5
40C
100
AcDbEntity
  8
SCRITTA
100
AcDbEllipse
 62
253
  6
CONTINUOUS
 10
249.5814552723
 20
61.9655128695
 30
0.0
 11
64.3367386492
 21
155.3226270058
 31
0.0
 40
1.0
 41
-4.2353510671
 42
-4.2320142012
  0
ELLIPSE
  5
40D
100
AcDbEntity
  8
SCRITTA
100
AcDbEllipse
 62
253
  6
CONTINUOUS
 10
249.5814552723
 20
61.9655128695
 30
0.0
 11
-20.5414502925
 21
166.8603704295
 31
0.0
 40
1.0
 41
1.5274681653
 42
1.5359826927
  0
ELLIPSE
  5
40E
100
AcDbEntity
  8
SCRITTA
100
AcDbEllipse
 62
253
  6
CONTINUOUS
 10
249.5814552723
 20
61.9655128695
 30
0.0
 11
-26.9298386943
 21
165.949143378
 31
0.0
 40
1.0
 41
7.7640763272
 42
7.7733486499
  0
ELLIPSE
  5
40F
100
AcDbEntity
  8
SCRITTA
100
AcDbEllipse
 62
253
  6
CONTINUOUS
 10
249.5814552723
 20
61.9655128695
 30
0.0
 11
-38.6260610024
 21
163.6226201093
 31
0.0
 40
1.0
 41
1.4099424927
 42
1.4181336923
  0
ELLIPSE
  5
410
100
AcDbEntity
  8
SCRITTA
100
AcDbEllipse
 62
253
  6
CONTINUOUS
 10
249.5814552723
 20
61.9655128695
 30
0.0
 11
168.12
 21
0.0
 31
0.0
 40
1.0
 41
-3.0706226832
 42
-3.0539169561
  0
ELLIPSE
  5
411
100
AcDbEntity
  8
SCRITTA
100
AcDbEllipse
 62
253
  6
CONTINUOUS
 10
249.5814552723
 20
61.9655128695
 30
0.0
 11
118.8787920531
 21
118.8787920531
 31
0.0
 40
1.0
 41
-3.847829647
 42
-3.8393151195
  0
ELLIPSE
  5
412
100
AcDbEntity
  8
SCRITTA
100
AcDbEllipse
 62
253
  6
CONTINUOUS
 10
249.5814552723
 20
61.9655128695
 30
0.0
 11
118.8787920531
 21
118.8787920531
 31
0.0
 40
1.0
 41
2.4352530152
 42
2.4386611166
  0
ELLIPSE
  5
413
100
AcDbEntity
  8
SCRITTA
100
AcDbEllipse
 62
253
  6
CONTINUOUS
 10
249.5814552723
 20
61.9655128695
 30
0.0
 11
88.3859145695
 21
143.0114139001
 31
0.0
 40
1.0
 41
2.1953406561
 42
2.2034292107
  0
ELLIPSE
  5
414
100
AcDbEntity
  8
SCRITTA
100
AcDbEllipse
 62
253
  6
CONTINUOUS
 10
249.5814552723
 20
61.9655128695
 30
0.0
 11
-118.8787920531
 21
118.8787920531
 31
0.0
 40
1.0
 41
0.8563681338
 42
0.864272986
  0
ELLIPSE
  5
415
100
AcDbEntity
  8
SCRITTA
100
AcDbEllipse
 62
253
  6
CONTINUOUS
 10
249.5814552723
 20
61.9655128695
 30
0.0
 11
26.9298386943
 21
165.949143378
 31
0.0
 40
1.0
 41
-4.4805437328
 42
-4.4726388806
  0
ELLIPSE
  5
416
100
AcDbEntity
  8
SCRITTA
100
AcDbEllipse
 62
253
  6
CONTINUOUS
 10
249.5814552723
 20
61.9655128695
 30
0.0
 11
-58.3286031692
 21
157.6772287058
 31
0.0
 40
1.0
 41
1.2953580133
 42
1.2955417157
  0
ELLIPSE
  5
417
100
AcDbEntity
  8
SCRITTA
100
AcDbEllipse
 62
253
  6
CONTINUOUS
 10
249.5814552723
 20
61.9655128695
 30
0.0
 11
64.3367386492
 21
155.3226270058
 31
0.0
 40
1.0
 41
-4.2406313737
 42
-4.2372232722
  0
ENDSEC
  0
SECTION
  2
OBJECTS
  0
DICTIONARY
  5
C
100
AcDbDictionary
280
0
281
1
  3
ACAD_GROUP
350
D
  3
ACAD_MLINESTYLE
350
17
  3
ACAD_LAYOUT
350
1A
  3
ACAD_PLOTSETTINGS
350
19
  3
ACAD_PLOTSTYLENAME
350
E
  0
DICTIONARY
  5
D
102
{ACAD_REACTORS
330
C
102
}
100
AcDbDictionary
280
0
281
1
  0
ACDBDICTIONARYWDFLT
  5
E
102
{ACAD_REACTORS
330
C
102
}
100
AcDbDictionary
281
1
  3
Normal
350
F
100
AcDbDictionaryWithDefault
340
F
  0
DICTIONARY
  5
17
102
{ACAD_REACTORS
330
C
102
}
100
AcDbDictionary
280
0
281
1
  3
Standard
350
18
  0
DICTIONARY
  5
19
102
{ACAD_REACTORS
330
C
102
}
100
AcDbDictionary
281
1
  0
DICTIONARY
  5
1A
102
{ACAD_REACTORS
330
C
102
}
100
AcDbDictionary
281
1
  3
Model
350
418
  3
Layout1
350
419
  0
ACDBPLACEHOLDER
  5
F
102
{ACAD_REACTORS
330
E
102
}
  0
MLINESTYLE
  5
18
102
{ACAD_REACTORS
330
17
102
}
100
AcDbMlineStyle
  2
STANDARD
 70
0
  3

 62
256
 51
90.0
 52
90.0
 71
2
 49
0.5
 62
256
  6
BYLAYER
 49
-0.5
 62
256
  6
BYLAYER
  0
LAYOUT
  5
418
102
{ACAD_REACTORS
330
1A
102
}
100
AcDbPlotSettings
  1

  2
none_device
  4
ISO_A4_(297.00_x_210.00_MM)
  6

 40
0.0
 41
0.0
 42
0.0
 43
0.0
 44
297.0
 45
210.0
 46
0.0
 47
0.0
 48
0.0
 49
0.0
140
0.0
141
0.0
142
1.0
143
1.0
 70
1024
 72
1
 73
0
 74
0
  7

 75
0
147
1.0
148
0.0
149
0.0
100
AcDbLayout
  1
Model
 70
0
 71
0
 10
0.0
 20
0.0
 11
297.0
 21
210.0
 12
0.0
 22
0.0
 32
0.0
 14
0.0
 24
0.0
 34
0.0
 15
0.0
 25
0.0
 35
0.0
146
0.0
 13
0.0
 23
0.0
 33
0.0
 16
1.0
 26
0.0
 36
0.0
 17
0.0
 27
1.0
 37
0.0
 76
0
330
212
345
0
346
0
  0
LAYOUT
  5
419
102
{ACAD_REACTORS
330
1A
102
}
100
AcDbPlotSettings
  1

  2
none_device
  4
ISO_A4_(297.00_x_210.00_MM)
  6

 40
0.0
 41
0.0
 42
0.0
 43
0.0
 44
297.0
 45
210.0
 46
0.0
 47
0.0
 48
0.0
 49
0.0
140
0.0
141
0.0
142
1.0
143
1.0
 70
0
 72
1
 73
0
 74
0
  7

 75
0
147
1.0
148
0.0
149
0.0
100
AcDbLayout
  1
Layout1
 70
0
 71
1
 10
0.0
 20
0.0
 11
297.0
 21
210.0
 12
0.0
 22
0.0
 32
0.0
 14
0.0
 24
0.0
 34
0.0
 15
0.0
 25
0.0
 35
0.0
146
0.0
 13
0.0
 23
0.0
 33
0.0
 16
1.0
 26
0.0
 36
0.0
 17
0.0
 27
1.0
 37
0.0
 76
0
330
213
345
0
346
0
  0
ENDSEC
  0
EOF
