  0
SECTION
  2
HEADER
  9
$ACADVER
  1
AC1021
  9
$DWGCODEPAGE
  3
ANSI_1252
  9
$EXTMAX
 10
297.0
 20
210.0
 30
0.0
  9
$EXTMIN
 10
0.0
 20
0.0
 30
0.0
  9
$LIMMIN
 10
0.0
 20
0.0
  9
$LIMMAX
 10
297.0
 20
210.0
  9
$VIEWCTR
 10
148.5
 20
105.0
  9
$VIEWSIZE
 40
210.0
  9
$CLAYER
  8
0
  9
$LTSCALE
 40
16.335
  9
$CELTYPE
  6
BYLAYER
  9
$DIMSCALE
 40
1.0
  9
$DIMASZ
 40
3.0
  9
$DIMEXO
 40
1.85625
  9
$DIMDLI
 40
11.286
  9
$DIMEXE
 40
5.346
  9
$DIMCEN
 40
2.673
  9
$DIMLFAC
 40
1.0
  9
$DIMBLK
  1
_FILLED
  9
$DIMTXT
 40
3.0
  9
$DIMTOL
 70
1
  9
$DIMLIM
 70
0
  9
$DIMTFAC
 40
1.0
  9
$DIMTP
 40
0.01
  9
$DIMTM
 40
0.01
  9
$PDMODE
 70
3
  9
$PDSIZE
 40
3.0
  9
$HANDSEED
  5
44C
  9
$TILEMODE
 70
1
  9
$MEASUREMENT
 70
1
  9
$INSUNITS
 70
4
  0
ENDSEC
  0
SECTION
  2
CLASSES
  0
CLASS
  1
ACDBDICTIONARYWDFLT
  2
AcDbDictionaryWithDefault
  3
AutoCAD 2000
 90
0
 91
1
280
0
281
0
  0
CLASS
  1
ACDBPLACEHOLDER
  2
AcDbPlaceHolder
  3
AutoCAD 2000
 90
0
 91
1
280
0
281
0
  0
CLASS
  1
LAYOUT
  2
AcDbLayout
  3
AutoCAD 2000
 90
0
 91
0
280
0
281
0
  0
ENDSEC
  0
SECTION
  2
TABLES
  0
TABLE
  2
VPORT
  5
8
100
AcDbSymbolTable
 70
2
  0
VPORT
  5
1F4
100
AcDbSymbolTableRecord
100
AcDbViewportTableRecord
  2
*ACTIVE
 70
0
 10
0.0
 20
0.0
 11
1.0
 21
1.0
 12
148.5
 22
105.0
 13
0.0
 23
0.0
 14
1.0
 24
1.0
 15
0.0
 25
0.0
 16
0.0
 26
0.0
 36
1.0
 17
0.0
 27
0.0
 37
0.0
 40
210.0
 41
1.4142857143
 42
50.0
 43
0.0
 44
0.0
 50
0.0
 51
0.0
 71
0
 72
100
 73
1
 74
1
 75
0
 76
0
 77
0
 78
0
  0
ENDTAB
  0
TABLE
  2
LTYPE
  5
5
100
AcDbSymbolTable
 70
6
  0
LTYPE
  5
14
100
AcDbSymbolTableRecord
100
AcDbLinetypeTableRecord
  2
BYBLOCK
 70
0
  3

 72
65
 73
0
 40
0.0
  0
LTYPE
  5
15
100
AcDbSymbolTableRecord
100
AcDbLinetypeTableRecord
  2
BYLAYER
 70
0
  3

 72
65
 73
0
 40
0.0
  0
LTYPE
  5
16
100
AcDbSymbolTableRecord
100
AcDbLinetypeTableRecord
  2
CONTINUOUS
 70
64
  3
Solid line
 72
65
 73
0
 40
0.0
  0
LTYPE
  5
1F5
100
AcDbSymbolTableRecord
100
AcDbLinetypeTableRecord
  2
CENTER
 70
64
  3
____ _ ____ _ ____ _ ____ _ ____ _ ____ _ ____
 72
65
 73
4
 40
0.6
 49
0.375
 74
0
 49
-0.075
 74
0
 49
0.075
 74
0
 49
-0.075
 74
0
  0
LTYPE
  5
1F6
100
AcDbSymbolTableRecord
100
AcDbLinetypeTableRecord
  2
HIDDEN
 70
64
  3
- - - - - - - - - - - - - - - - - - - -
 72
65
 73
2
 40
0.2
 49
0.1
 74
0
 49
-0.1
 74
0
  0
LTYPE
  5
1F7
100
AcDbSymbolTableRecord
100
AcDbLinetypeTableRecord
  2
PHANTOM
 70
64
  3
_____ _ _ _____ _ _ _____ _ _ _____
 72
65
 73
6
 40
0.8
 49
0.45
 74
0
 49
-0.05
 74
0
 49
0.1
 74
0
 49
-0.05
 74
0
 49
0.1
 74
0
 49
-0.05
 74
0
  0
LTYPE
  5
1F8
100
AcDbSymbolTableRecord
100
AcDbLinetypeTableRecord
  2
DOT
 70
64
  3
. . . . . . . . . . . . . . . . . . . .
 72
65
 73
2
 40
0.2
 49
0.1
 74
0
 49
-0.1
 74
0
  0
LTYPE
  5
1F9
100
AcDbSymbolTableRecord
100
AcDbLinetypeTableRecord
  2
DASHED
 70
64
  3
- - - - - - - - - - - - - - - - - - - -
 72
65
 73
2
 40
0.2
 49
0.1
 74
0
 49
-0.1
 74
0
  0
ENDTAB
  0
TABLE
  2
LAYER
  5
2
100
AcDbSymbolTable
 70
36
  0
LAYER
  5
10
100
AcDbSymbolTableRecord
100
AcDbLayerTableRecord
  2
0
 70
0
 62
7
  6
CONTINUOUS
370
-3
390
F
  0
LAYER
  5
1FA
100
AcDbSymbolTableRecord
100
AcDbLayerTableRecord
  2
DEFAULT_1
 70
0
 62
7
  6
CENTER
370
-3
390
F
  0
LAYER
  5
1FB
100
AcDbSymbolTableRecord
100
AcDbLayerTableRecord
  2
DEFAULT_2
 70
0
 62
7
  6
HIDDEN
370
-3
390
F
  0
LAYER
  5
1FC
100
AcDbSymbolTableRecord
100
AcDbLayerTableRecord
  2
DEFAULT_3
 70
0
 62
7
  6
PHANTOM
370
-3
390
F
  0
LAYER
  5
1FD
100
AcDbSymbolTableRecord
100
AcDbLayerTableRecord
  2
ASSI
 70
0
 62
7
  6
CONTINUOUS
370
-3
390
F
  0
LAYER
  5
1FE
100
AcDbSymbolTableRecord
100
AcDbLayerTableRecord
  2
COORDINATE
 70
0
 62
7
  6
CONTINUOUS
370
-3
390
F
  0
LAYER
  5
1FF
100
AcDbSymbolTableRecord
100
AcDbLayerTableRecord
  2
COPY_PUBLISH
 70
0
 62
7
  6
CONTINUOUS
370
-3
390
F
  0
LAYER
  5
200
100
AcDbSymbolTableRecord
100
AcDbLayerTableRecord
  2
COSMETICI
 70
0
 62
7
  6
CONTINUOUS
370
-3
390
F
  0
LAYER
  5
201
100
AcDbSymbolTableRecord
100
AcDbLayerTableRecord
  2
CURVE
 70
0
 62
7
  6
CONTINUOUS
370
-3
390
F
  0
LAYER
  5
202
100
AcDbSymbolTableRecord
100
AcDbLayerTableRecord
  2
DRAFT
 70
0
 62
7
  6
CONTINUOUS
370
-3
390
F
  0
LAYER
  5
203
100
AcDbSymbolTableRecord
100
AcDbLayerTableRecord
  2
IMPORT_IGES
 70
0
 62
7
  6
CONTINUOUS
370
-3
390
F
  0
LAYER
  5
204
100
AcDbSymbolTableRecord
100
AcDbLayerTableRecord
  2
INTF_1
 70
0
 62
7
  6
CONTINUOUS
370
-3
390
F
  0
LAYER
  5
205
100
AcDbSymbolTableRecord
100
AcDbLayerTableRecord
  2
NOTE
 70
0
 62
7
  6
CONTINUOUS
370
-3
390
F
  0
LAYER
  5
206
100
AcDbSymbolTableRecord
100
AcDbLayerTableRecord
  2
PIANI
 70
0
 62
7
  6
CONTINUOUS
370
-3
390
F
  0
LAYER
  5
207
100
AcDbSymbolTableRecord
100
AcDbLayerTableRecord
  2
PUNTI
 70
0
 62
7
  6
CONTINUOUS
370
-3
390
F
  0
LAYER
  5
208
100
AcDbSymbolTableRecord
100
AcDbLayerTableRecord
  2
RACCORDO
 70
0
 62
7
  6
CONTINUOUS
370
-3
390
F
  0
LAYER
  5
209
100
AcDbSymbolTableRecord
100
AcDbLayerTableRecord
  2
SCRITTE
 70
0
 62
7
  6
CONTINUOUS
370
-3
390
F
  0
LAYER
  5
20A
100
AcDbSymbolTableRecord
100
AcDbLayerTableRecord
  2
SIMBOLI
 70
0
 62
7
  6
CONTINUOUS
370
-3
390
F
  0
LAYER
  5
20B
100
AcDbSymbolTableRecord
100
AcDbLayerTableRecord
  2
SMUSSO
 70
0
 62
7
  6
CONTINUOUS
370
-3
390
F
  0
LAYER
  5
20C
100
AcDbSymbolTableRecord
100
AcDbLayerTableRecord
  2
SNAPLINE
 70
0
 62
7
  6
CONTINUOUS
370
-3
390
F
  0
LAYER
  5
20D
100
AcDbSymbolTableRecord
100
AcDbLayerTableRecord
  2
SUPERFICI
 70
0
 62
7
  6
CONTINUOUS
370
-3
390
F
  0
LAYER
  5
20E
100
AcDbSymbolTableRecord
100
AcDbLayerTableRecord
  2
TRASH
 70
0
 62
7
  6
CONTINUOUS
370
-3
390
F
  0
ENDTAB
  0
TABLE
  2
STYLE
  5
3
100
AcDbSymbolTable
 70
1
  0
STYLE
  5
11
100
AcDbSymbolTableRecord
100
AcDbTextStyleTableRecord
  2
STANDARD
 70
0
 40
0.0
 41
0.8
 50
0.0
 71
0
 42
0.2
  3
txt
  4

  0
STYLE
  5
20F
100
AcDbSymbolTableRecord
100
AcDbTextStyleTableRecord
  2
TEXTSTYLE_1
 70
0
 40
0.0
 41
0.8
 50
0.0
 71
0
 42
0.2
  3
gdt
  4

  0
ENDTAB
  0
TABLE
  2
VIEW
  5
6
100
AcDbSymbolTable
 70
0
  0
ENDTAB
  0
TABLE
  2
UCS
  5
7
100
AcDbSymbolTable
 70
0
  0
ENDTAB
  0
TABLE
  2
APPID
  5
9
100
AcDbSymbolTable
 70
1
  0
APPID
  5
210
100
AcDbSymbolTableRecord
100
AcDbRegAppTableRecord
  2
ACAD
 70
0
  0
ENDTAB
  0
TABLE
  2
BLOCK_RECORD
  5
1
100
AcDbSymbolTable
 70
0
  0
BLOCK_RECORD
  5
211
100
AcDbSymbolTableRecord
100
AcDbBlockTableRecord
  2
*Model_Space
  0
BLOCK_RECORD
  5
212
100
AcDbSymbolTableRecord
100
AcDbBlockTableRecord
  2
*Paper_Space
  0
BLOCK_RECORD
  5
213
100
AcDbSymbolTableRecord
100
AcDbBlockTableRecord
  2
_FILLED
  0
BLOCK_RECORD
  5
214
100
AcDbSymbolTableRecord
100
AcDbBlockTableRecord
  2
*D0
  0
BLOCK_RECORD
  5
215
100
AcDbSymbolTableRecord
100
AcDbBlockTableRecord
  2
*D1
  0
BLOCK_RECORD
  5
216
100
AcDbSymbolTableRecord
100
AcDbBlockTableRecord
  2
*D2
  0
BLOCK_RECORD
  5
217
100
AcDbSymbolTableRecord
100
AcDbBlockTableRecord
  2
*D3
  0
BLOCK_RECORD
  5
218
100
AcDbSymbolTableRecord
100
AcDbBlockTableRecord
  2
*D4
  0
ENDTAB
  0
TABLE
  2
DIMSTYLE
  5
A
100
AcDbSymbolTable
 70
1
100
AcDbDimStyleTable
 71
0
  0
DIMSTYLE
105
219
100
AcDbSymbolTableRecord
100
AcDbDimStyleTableRecord
  2
STANDARD
 70
0
  3

  4

 40
1.0
 41
3.0
 42
0.0625
 43
0.38
 44
0.18
 45
0.0
 46
0.0
 47
0.01
 48
0.01
140
3.0
141
0.09
142
0.0
143
25.4
144
1.0
145
0.0
146
1.0
147
0.09
 71
1.0
 72
0.0
 73
0
 74
0
 75
0
 76
0
 77
1
 78
8
170
0
171
2
172
0
173
0
174
0
175
0
176
0
177
0
178
0
270
2
271
2
272
2
273
2
274
2
275
0
280
0
281
0
282
0
283
1
284
8
285
0
286
0
287
3
288
0
340
11
341
213
342
213
343
213
344
213
  0
DIMSTYLE
105
21A
100
AcDbSymbolTableRecord
100
AcDbDimStyleTableRecord
  2
DIMSTYLE_1
 70
0
  3

  4

 40
1.0
 41
3.0
 42
0.0625
 43
0.38
 44
0.18
 45
0.0
 46
0.0
 47
0.0
 48
0.0
140
3.0
141
0.09
142
0.0
143
25.4
144
1.0
145
0.0
146
1.0
147
0.09
 71
0.0
 72
0.0
 73
0
 74
0
 75
0
 76
0
 77
1
 78
8
170
0
171
2
172
0
173
0
174
0
175
0
176
0
177
0
178
0
270
2
271
2
272
2
273
2
274
2
275
0
280
0
281
0
282
0
283
1
284
8
285
0
286
0
287
3
288
0
340
11
341
213
342
213
343
213
344
213
  0
DIMSTYLE
105
21B
100
AcDbSymbolTableRecord
100
AcDbDimStyleTableRecord
  2
DIMSTYLE_2
 70
0
  3

  4

 40
1.0
 41
3.0
 42
0.0625
 43
0.38
 44
0.18
 45
0.0
 46
0.0
 47
0.0
 48
0.0
140
3.0
141
0.09
142
0.0
143
25.4
144
1.0
145
0.0
146
1.0
147
0.09
 71
0.0
 72
0.0
 73
0
 74
0
 75
0
 76
0
 77
1
 78
8
170
0
171
2
172
0
173
0
174
0
175
0
176
0
177
0
178
0
270
2
271
1
272
1
273
2
274
2
275
0
280
0
281
0
282
0
283
1
284
8
285
0
286
0
287
3
288
0
340
11
341
213
342
213
343
213
344
213
  0
ENDTAB
  0
ENDSEC
  0
SECTION
  2
BLOCKS
  0
BLOCK
  5
20
100
AcDbEntity
  8
0
100
AcDbBlockBegin
  2
*Model_Space
 70
0
 10
0.0
 20
0.0
 30
0.0
  3
*Model_Space
  1

  0
ENDBLK
  5
21
100
AcDbEntity
  8
0
100
AcDbBlockEnd
  0
BLOCK
  5
1C
100
AcDbEntity
  8
0
100
AcDbBlockBegin
  2
*Paper_Space
 70
0
 10
0.0
 20
0.0
 30
0.0
  3
*Paper_Space
  1

  0
ENDBLK
  5
1D
100
AcDbEntity
  8
0
100
AcDbBlockEnd
  0
BLOCK
  5
21C
100
AcDbEntity
  8
0
100
AcDbBlockBegin
  2
_FILLED
 70
64
 10
0.0
 20
0.0
  3
_FILLED
  1

  0
SOLID
  5
21D
100
AcDbEntity
  8
0
  6
BYBLOCK
 62
0
100
AcDbTrace
 10
0.0
 20
0.0
 11
-1.0
 21
0.3166666667
 12
-1.0
 22
-0.3166666667
 13
-1.0
 23
-0.3166666667
  0
ENDBLK
  5
21E
100
AcDbEntity
  8
0
  6
BYBLOCK
 62
0
100
AcDbBlockEnd
  0
BLOCK
  5
21F
100
AcDbEntity
  8
0
100
AcDbBlockBegin
 62
7
  6
CONTINUOUS
  2
*D0
 70
65
 10
0.0
 20
0.0
  3
*D0
  1

  0
MTEXT
  5
220
100
AcDbEntity
  8
0
100
AcDbMText
 62
7
  6
CONTINUOUS
  7
STANDARD
 71
2
 72
1
 10
245.8754135338
 20
112.455583524
 30
0.0
 11
0.0
 21
1.0
 31
0.0
 44
0.9
  1
90
 40
3.0
 41
4.7142857143
  0
LINE
  5
221
100
AcDbEntity
  8
0
100
AcDbLine
 62
7
  6
CONTINUOUS
 10
224.1453326334
 20
157.455583524
 11
251.1254135338
 21
157.455583524
  0
LINE
  5
222
100
AcDbEntity
  8
0
100
AcDbLine
 62
7
  6
CONTINUOUS
 10
224.1453326334
 20
67.455583524
 11
251.1254135338
 21
67.455583524
  0
LINE
  5
223
100
AcDbEntity
  8
0
100
AcDbLine
 62
7
  6
CONTINUOUS
 10
249.6254135338
 20
157.455583524
 11
249.6254135338
 21
112.455583524
  0
LINE
  5
224
100
AcDbEntity
  8
0
100
AcDbLine
 62
7
  6
CONTINUOUS
 10
249.6254135338
 20
67.455583524
 11
249.6254135338
 21
112.455583524
  0
INSERT
  5
225
100
AcDbEntity
  8
0
100
AcDbBlockReference
 62
7
  6
CONTINUOUS
  2
_FILLED
 10
249.6254135338
 20
157.455583524
 41
3.0
 42
3.0
 43
3.0
 50
90.0
  0
INSERT
  5
226
100
AcDbEntity
  8
0
100
AcDbBlockReference
 62
7
  6
CONTINUOUS
  2
_FILLED
 10
249.6254135338
 20
67.455583524
 41
3.0
 42
3.0
 43
3.0
 50
270.0
  0
ENDBLK
  5
227
100
AcDbEntity
  8
0
  6
BYBLOCK
 62
0
100
AcDbBlockEnd
  0
BLOCK
  5
228
100
AcDbEntity
  8
0
100
AcDbBlockBegin
 62
7
  6
CONTINUOUS
  2
*D1
 70
65
 10
0.0
 20
0.0
  3
*D1
  1

  0
MTEXT
  5
229
100
AcDbEntity
  8
0
100
AcDbMText
 62
7
  6
CONTINUOUS
  7
STANDARD
 71
2
 72
1
 10
163.6254135339
 20
183.0112301574
 30
0.0
 11
1.0
 21
0.0
 31
0.0
 44
0.9
  1
122
 40
3.0
 41
6.4285714286
  0
LINE
  5
22A
100
AcDbEntity
  8
0
100
AcDbLine
 62
7
  6
CONTINUOUS
 10
102.6254243177
 20
156.9591046249
 11
102.6254243177
 21
180.7612301574
  0
LINE
  5
22B
100
AcDbEntity
  8
0
100
AcDbLine
 62
7
  6
CONTINUOUS
 10
224.62540275
 20
156.9591046249
 11
224.62540275
 21
180.7612301574
  0
LINE
  5
22C
100
AcDbEntity
  8
0
100
AcDbLine
 62
7
  6
CONTINUOUS
 10
102.6254243177
 20
179.2612301574
 11
163.6254135339
 21
179.2612301574
  0
LINE
  5
22D
100
AcDbEntity
  8
0
100
AcDbLine
 62
7
  6
CONTINUOUS
 10
224.62540275
 20
179.2612301574
 11
163.6254135339
 21
179.2612301574
  0
INSERT
  5
22E
100
AcDbEntity
  8
0
100
AcDbBlockReference
 62
7
  6
CONTINUOUS
  2
_FILLED
 10
102.6254243177
 20
179.2612301574
 41
3.0
 42
3.0
 43
3.0
 50
180.0
  0
INSERT
  5
22F
100
AcDbEntity
  8
0
100
AcDbBlockReference
 62
7
  6
CONTINUOUS
  2
_FILLED
 10
224.62540275
 20
179.2612301574
 41
3.0
 42
3.0
 43
3.0
  0
ENDBLK
  5
230
100
AcDbEntity
  8
0
  6
BYBLOCK
 62
0
100
AcDbBlockEnd
  0
BLOCK
  5
231
100
AcDbEntity
  8
0
100
AcDbBlockBegin
 62
7
  6
CONTINUOUS
  2
*D2
 70
65
 10
0.0
 20
0.0
  3
*D2
  1

  0
MTEXT
  5
232
100
AcDbEntity
  8
0
100
AcDbMText
 62
7
  6
CONTINUOUS
  7
STANDARD
 71
1
 72
1
 10
82.540665539
 20
173.0112301574
 30
0.0
 11
1.0
 21
0.0
 31
0.0
 44
0.9
  1
8,6
 40
3.0
 41
6.4285714286
  0
LINE
  5
233
100
AcDbEntity
  8
0
100
AcDbLine
 62
7
  6
CONTINUOUS
 10
78.6829457833
 20
155.5181132136
 11
78.6829457833
 21
170.7612301574
  0
LINE
  5
234
100
AcDbEntity
  8
0
100
AcDbLine
 62
7
  6
CONTINUOUS
 10
70.1148341864
 20
112.955583524
 11
70.1148341864
 21
170.7612301574
  0
LINE
  5
235
100
AcDbEntity
  8
0
100
AcDbLine
 62
7
  6
CONTINUOUS
 10
78.6829457833
 20
169.2612301574
 11
88.9692369676
 21
169.2612301574
  0
LINE
  5
236
100
AcDbEntity
  8
0
100
AcDbLine
 62
7
  6
CONTINUOUS
 10
88.9692369676
 20
169.2612301574
 11
74.3988899848
 21
169.2612301574
  0
LINE
  5
237
100
AcDbEntity
  8
0
100
AcDbLine
 62
7
  6
CONTINUOUS
 10
70.1148341864
 20
169.2612301574
 11
66.1148341864
 21
169.2612301574
  0
LINE
  5
238
100
AcDbEntity
  8
0
100
AcDbLine
 62
7
  6
CONTINUOUS
 10
66.1148341864
 20
169.2612301574
 11
74.3988899848
 21
169.2612301574
  0
INSERT
  5
239
100
AcDbEntity
  8
0
100
AcDbBlockReference
 62
7
  6
CONTINUOUS
  2
_FILLED
 10
78.6829457833
 20
169.2612301574
 41
3.0
 42
3.0
 43
3.0
 50
180.0
  0
INSERT
  5
23A
100
AcDbEntity
  8
0
100
AcDbBlockReference
 62
7
  6
CONTINUOUS
  2
_FILLED
 10
70.1148341864
 20
169.2612301574
 41
3.0
 42
3.0
 43
3.0
  0
ENDBLK
  5
23B
100
AcDbEntity
  8
0
  6
BYBLOCK
 62
0
100
AcDbBlockEnd
  0
BLOCK
  5
23C
100
AcDbEntity
  8
0
100
AcDbBlockBegin
 62
7
  6
CONTINUOUS
  2
*D3
 70
65
 10
0.0
 20
0.0
  3
*D3
  1

  0
MTEXT
  5
23D
100
AcDbEntity
  8
0
100
AcDbMText
 62
7
  6
CONTINUOUS
  7
STANDARD
 71
2
 72
1
 10
163.6254135338
 20
173.0112301574
 30
0.0
 11
1.0
 21
0.0
 31
0.0
 44
0.9
  1
67,8
 40
3.0
 41
8.7857142857
  0
LINE
  5
23E
100
AcDbEntity
  8
0
100
AcDbLine
 62
7
  6
CONTINUOUS
 10
197.5254180526
 20
134.7067176781
 11
197.5254180526
 21
170.7612301574
  0
LINE
  5
23F
100
AcDbEntity
  8
0
100
AcDbLine
 62
7
  6
CONTINUOUS
 10
129.725409015
 20
134.7067176781
 11
129.725409015
 21
170.7612301574
  0
LINE
  5
240
100
AcDbEntity
  8
0
100
AcDbLine
 62
7
  6
CONTINUOUS
 10
197.5254180526
 20
169.2612301574
 11
163.6254135338
 21
169.2612301574
  0
LINE
  5
241
100
AcDbEntity
  8
0
100
AcDbLine
 62
7
  6
CONTINUOUS
 10
129.725409015
 20
169.2612301574
 11
163.6254135338
 21
169.2612301574
  0
INSERT
  5
242
100
AcDbEntity
  8
0
100
AcDbBlockReference
 62
7
  6
CONTINUOUS
  2
_FILLED
 10
197.5254180526
 20
169.2612301574
 41
3.0
 42
3.0
 43
3.0
  0
INSERT
  5
243
100
AcDbEntity
  8
0
100
AcDbBlockReference
 62
7
  6
CONTINUOUS
  2
_FILLED
 10
129.725409015
 20
169.2612301574
 41
3.0
 42
3.0
 43
3.0
 50
180.0
  0
ENDBLK
  5
244
100
AcDbEntity
  8
0
  6
BYBLOCK
 62
0
100
AcDbBlockEnd
  0
BLOCK
  5
245
100
AcDbEntity
  8
0
100
AcDbBlockBegin
 62
7
  6
CONTINUOUS
  2
*D4
 70
65
 10
0.0
 20
0.0
  3
*D4
  1

  0
MTEXT
  5
246
100
AcDbEntity
  8
0
100
AcDbMText
 62
7
  6
CONTINUOUS
  7
STANDARD
 71
2
 72
1
 10
235.8754135338
 20
112.455583524
 30
0.0
 11
0.0
 21
1.0
 31
0.0
 44
0.9
  1
45,1
 40
3.0
 41
7.9285714286
  0
LINE
  5
247
100
AcDbEntity
  8
0
100
AcDbLine
 62
7
  6
CONTINUOUS
 10
197.224433178
 20
89.905583524
 11
241.1254135338
 21
89.905583524
  0
LINE
  5
248
100
AcDbEntity
  8
0
100
AcDbLine
 62
7
  6
CONTINUOUS
 10
197.224433178
 20
135.005583524
 11
241.1254135338
 21
135.005583524
  0
LINE
  5
249
100
AcDbEntity
  8
0
100
AcDbLine
 62
7
  6
CONTINUOUS
 10
239.6254135338
 20
89.905583524
 11
239.6254135338
 21
112.455583524
  0
LINE
  5
24A
100
AcDbEntity
  8
0
100
AcDbLine
 62
7
  6
CONTINUOUS
 10
239.6254135338
 20
135.005583524
 11
239.6254135338
 21
112.455583524
  0
INSERT
  5
24B
100
AcDbEntity
  8
0
100
AcDbBlockReference
 62
7
  6
CONTINUOUS
  2
_FILLED
 10
239.6254135338
 20
89.905583524
 41
3.0
 42
3.0
 43
3.0
 50
270.0
  0
INSERT
  5
24C
100
AcDbEntity
  8
0
100
AcDbBlockReference
 62
7
  6
CONTINUOUS
  2
_FILLED
 10
239.6254135338
 20
135.005583524
 41
3.0
 42
3.0
 43
3.0
 50
90.0
  0
ENDBLK
  5
24D
100
AcDbEntity
  8
0
  6
BYBLOCK
 62
0
100
AcDbBlockEnd
  0
ENDSEC
  0
SECTION
  2
ENTITIES
  0
DIMENSION
  5
24E
100
AcDbEntity
  8
0
100
AcDbDimension
 62
7
  6
CONTINUOUS
  2
*D0
 10
249.6254135338
 20
67.455583524
 11
248.4315870576
 21
110.3483056741
 70
160
 71
2
 42
90.0
  3
DIMSTYLE_1
100
AcDbAlignedDimension
 13
224.1453326334
 23
157.455583524
 14
224.1453326334
 24
67.455583524
 50
270.0
100
AcDbRotatedDimension
  0
DIMENSION
  5
24F
100
AcDbEntity
  8
0
100
AcDbDimension
 62
7
  6
CONTINUOUS
  2
*D1
 10
224.62540275
 20
179.2612301574
 11
160.4111278196
 21
181.5112301574
 70
160
 71
2
 42
121.9999784322
  3
DIMSTYLE_1
100
AcDbAlignedDimension
 13
102.6254243177
 23
156.9591046249
 14
224.62540275
 24
156.9591046249
100
AcDbRotatedDimension
  0
DIMENSION
  5
250
100
AcDbEntity
  8
0
100
AcDbDimension
 62
7
  6
CONTINUOUS
  2
*D2
 10
70.1148341864
 20
169.2612301574
 11
85.7549512533
 21
171.5112301574
 70
160
 71
1
 42
8.5681115969
  3
DIMSTYLE_2
100
AcDbAlignedDimension
 13
78.6829457833
 23
155.5181132136
 14
70.1148341864
 24
112.955583524
 50
180.0
100
AcDbRotatedDimension
  0
DIMENSION
  5
251
100
AcDbEntity
  8
0
100
AcDbDimension
 62
7
  6
CONTINUOUS
  2
*D3
 10
129.725409015
 20
169.2612301574
 11
159.232556391
 21
171.5112301574
 70
160
 71
2
 42
67.8000090376
  3
DIMSTYLE_1
100
AcDbAlignedDimension
 13
197.5254180526
 23
134.7067176781
 14
129.725409015
 24
134.7067176781
 50
180.0
100
AcDbRotatedDimension
  0
DIMENSION
  5
252
100
AcDbEntity
  8
0
100
AcDbDimension
 62
7
  6
CONTINUOUS
  2
*D4
 10
239.6254135338
 20
135.005583524
 11
239.1517053692
 21
108.9115253219
 70
160
 71
2
 42
45.1
  3
DIMSTYLE_1
100
AcDbAlignedDimension
 13
197.224433178
 23
89.905583524
 14
197.224433178
 24
135.005583524
 50
90.0
100
AcDbRotatedDimension
  0
LWPOLYLINE
  5
253
100
AcDbEntity
  8
RACCORDO
100
AcDbPolyline
 62
253
  6
CONTINUOUS
 90
28
 70
0
 10
102.8071680868
 20
68.6368711751
 10
102.8095078119
 20
68.5787636296
 10
102.8151659317
 20
68.5209806976
 10
102.8241110101
 20
68.4637111518
 10
102.8362939012
 20
68.4071599586
 10
102.851666673
 20
68.3514905114
 10
102.8701945547
 20
68.2968273545
 10
102.8918296687
 20
68.2433161922
 10
102.9164882747
 20
68.1911665928
 10
102.9440703003
 20
68.1405929
 10
102.9744672921
 20
68.0917722831
 10
103.007579467
 20
68.0448437563
 10
103.0433010134
 20
67.9999528028
 10
103.0815100357
 20
67.9572417277
 10
103.1220750696
 20
67.9168462608
 10
103.1648665528
 20
67.8788926613
 10
103.2097390947
 20
67.8435027406
 10
103.2565437932
 20
67.8107860816
 10
103.3051383997
 20
67.7808405779
 10
103.3553671399
 20
67.7537600808
 10
103.407060303
 20
67.7296330052
 10
103.4600485005
 20
67.7085369867
 10
103.5141500999
 20
67.6905416055
 10
103.5691954859
 20
67.6756998093
 10
103.6250293641
 20
67.6640533589
 10
103.681478586
 20
67.6556415548
 10
103.7383515193
 20
67.6504964676
 10
103.7954631569
 20
67.6486376203
  0
LWPOLYLINE
  5
254
100
AcDbEntity
  8
ASSI
100
AcDbPolyline
 62
253
  6
CONTINUOUS
 90
28
 70
0
 10
102.8071680868
 20
68.6368711751
 10
102.8095078119
 20
68.5787636296
 10
102.8151659317
 20
68.5209806976
 10
102.8241110101
 20
68.4637111518
 10
102.8362939012
 20
68.4071599586
 10
102.851666673
 20
68.3514905114
 10
102.8701945547
 20
68.2968273545
 10
102.8918296687
 20
68.2433161922
 10
102.9164882747
 20
68.1911665928
 10
102.9440703003
 20
68.1405929
 10
102.9744672921
 20
68.0917722831
 10
103.007579467
 20
68.0448437563
 10
103.0433010134
 20
67.9999528028
 10
103.0815100357
 20
67.9572417277
 10
103.1220750696
 20
67.9168462608
 10
103.1648665528
 20
67.8788926613
 10
103.2097390947
 20
67.8435027406
 10
103.2565437932
 20
67.8107860816
 10
103.3051383997
 20
67.7808405779
 10
103.3553671399
 20
67.7537600808
 10
103.407060303
 20
67.7296330052
 10
103.4600485005
 20
67.7085369867
 10
103.5141500999
 20
67.6905416055
 10
103.5691954859
 20
67.6756998093
 10
103.6250293641
 20
67.6640533589
 10
103.681478586
 20
67.6556415548
 10
103.7383515193
 20
67.6504964676
 10
103.7954631569
 20
67.6486376203
  0
LWPOLYLINE
  5
255
100
AcDbEntity
  8
RACCORDO
100
AcDbPolyline
 62
253
  6
CONTINUOUS
 90
28
 70
0
 10
103.3052027763
 20
68.5563546902
 10
103.3060638219
 20
68.5268072028
 10
103.3085550761
 20
68.4975946832
 10
103.312676539
 20
68.4687171004
 10
103.3184524291
 20
68.4400842073
 10
103.3258585279
 20
68.4117861956
 10
103.3348221798
 20
68.3840936678
 10
103.3453627503
 20
68.3570042773
 10
103.3574608739
 20
68.3305202637
 10
103.3709857982
 20
68.3049190613
 10
103.3859487862
 20
68.2802180511
 10
103.4023385748
 20
68.2563997065
 10
103.4199906225
 20
68.2336890622
 10
103.438916978
 20
68.2120959211
 10
103.4591055926
 20
68.1916103189
 10
103.4803557784
 20
68.1724276152
 10
103.5026774709
 20
68.1545604647
 10
103.5260607346
 20
68.1379960532
 10
103.5502750752
 20
68.1228915229
 10
103.5753281374
 20
68.1092612317
 10
103.6012122766
 20
68.0970906827
 10
103.6276740643
 20
68.0864937331
 10
103.6547255205
 20
68.0774853644
 10
103.6823546252
 20
68.0700504927
 10
103.71027189
 20
68.0642578834
 10
103.7383808189
 20
68.0601304394
 10
103.7667779078
 20
68.0576452036
 10
103.7954631569
 20
68.0568021623
  0
LWPOLYLINE
  5
256
100
AcDbEntity
  8
ASSI
100
AcDbPolyline
 62
253
  6
CONTINUOUS
 90
28
 70
0
 10
103.3052027763
 20
68.5563546902
 10
103.3060638219
 20
68.5268072028
 10
103.3085550761
 20
68.4975946832
 10
103.312676539
 20
68.4687171004
 10
103.3184524291
 20
68.4400842073
 10
103.3258585279
 20
68.4117861956
 10
103.3348221798
 20
68.3840936678
 10
103.3453627503
 20
68.3570042773
 10
103.3574608739
 20
68.3305202637
 10
103.3709857982
 20
68.3049190613
 10
103.3859487862
 20
68.2802180511
 10
103.4023385748
 20
68.2563997065
 10
103.4199906225
 20
68.2336890622
 10
103.438916978
 20
68.2120959211
 10
103.4591055926
 20
68.1916103189
 10
103.4803557784
 20
68.1724276152
 10
103.5026774709
 20
68.1545604647
 10
103.5260607346
 20
68.1379960532
 10
103.5502750752
 20
68.1228915229
 10
103.5753281374
 20
68.1092612317
 10
103.6012122766
 20
68.0970906827
 10
103.6276740643
 20
68.0864937331
 10
103.6547255205
 20
68.0774853644
 10
103.6823546252
 20
68.0700504927
 10
103.71027189
 20
68.0642578834
 10
103.7383808189
 20
68.0601304394
 10
103.7667779078
 20
68.0576452036
 10
103.7954631569
 20
68.0568021623
  0
LINE
  5
257
100
AcDbEntity
  8
RACCORDO
100
AcDbLine
 62
7
  6
CONTINUOUS
 10
102.6254139273
 20
68.4520624232
 11
102.6254135338
 21
89.9763502741
  0
LINE
  5
258
100
AcDbEntity
  8
DRAFT
100
AcDbLine
 62
7
  6
CONTINUOUS
 10
102.6254135338
 20
89.9763502741
 11
102.6254135338
 21
134.9348167739
  0
LINE
  5
259
100
AcDbEntity
  8
RACCORDO
100
AcDbLine
 62
7
  6
CONTINUOUS
 10
102.6254135338
 20
134.9348167739
 11
102.6254139273
 21
156.4591046249
  0
LINE
  5
25A
100
AcDbEntity
  8
ASSI
100
AcDbLine
 62
7
  6
CONTINUOUS
 10
102.6254139273
 20
68.4520624232
 11
102.6254139273
 21
156.4591046249
  0
LINE
  5
25B
100
AcDbEntity
  8
RACCORDO
100
AcDbLine
 62
253
  6
CONTINUOUS
 10
102.8042138333
 20
112.4555836558
 11
102.807168087
 21
68.6368711753
  0
LINE
  5
25C
100
AcDbEntity
  8
ASSI
100
AcDbLine
 62
253
  6
CONTINUOUS
 10
102.8042138333
 20
112.4555836558
 11
102.807168087
 21
68.6368711753
  0
LINE
  5
25D
100
AcDbEntity
  8
RACCORDO
100
AcDbLine
 62
253
  6
CONTINUOUS
 10
103.3023111823
 20
112.4555835272
 11
103.3052027763
 21
68.5563546902
  0
LINE
  5
25E
100
AcDbEntity
  8
ASSI
100
AcDbLine
 62
253
  6
CONTINUOUS
 10
103.3023111823
 20
112.4555835272
 11
103.3052027763
 21
68.5563546902
  0
LINE
  5
25F
100
AcDbEntity
  8
RACCORDO
100
AcDbLine
 62
253
  6
CONTINUOUS
 10
103.7954631569
 20
68.0568021623
 11
103.7954631569
 21
67.6486376203
  0
LINE
  5
260
100
AcDbEntity
  8
ASSI
100
AcDbLine
 62
253
  6
CONTINUOUS
 10
103.7954631569
 20
68.0568021623
 11
103.7954631569
 21
67.6486376203
  0
LINE
  5
261
100
AcDbEntity
  8
RACCORDO
100
AcDbLine
 62
253
  6
CONTINUOUS
 10
103.7954631569
 20
156.8543648858
 11
103.7954631566
 21
157.2625294277
  0
LINE
  5
262
100
AcDbEntity
  8
ASSI
100
AcDbLine
 62
253
  6
CONTINUOUS
 10
103.7954631569
 20
156.8543648858
 11
103.7954631566
 21
157.2625294277
  0
LWPOLYLINE
  5
263
100
AcDbEntity
  8
RACCORDO
100
AcDbPolyline
 62
253
  6
CONTINUOUS
 90
3
 70
0
 10
102.807168087
 20
156.2742958733
 10
102.8045838542
 20
137.4102299066
 10
102.8042138333
 20
112.4555836558
  0
LWPOLYLINE
  5
264
100
AcDbEntity
  8
ASSI
100
AcDbPolyline
 62
253
  6
CONTINUOUS
 90
3
 70
0
 10
102.807168087
 20
156.2742958733
 10
102.8045838542
 20
137.4102299066
 10
102.8042138333
 20
112.4555836558
  0
LWPOLYLINE
  5
265
100
AcDbEntity
  8
RACCORDO
100
AcDbPolyline
 62
253
  6
CONTINUOUS
 90
3
 70
0
 10
103.3052027763
 20
156.3548123579
 10
103.3026810468
 20
137.4395728483
 10
103.3023111823
 20
112.4555835272
  0
LWPOLYLINE
  5
266
100
AcDbEntity
  8
ASSI
100
AcDbPolyline
 62
253
  6
CONTINUOUS
 90
3
 70
0
 10
103.3052027763
 20
156.3548123579
 10
103.3026810468
 20
137.4395728483
 10
103.3023111823
 20
112.4555835272
  0
LWPOLYLINE
  5
267
100
AcDbEntity
  8
RACCORDO
100
AcDbPolyline
 62
7
  6
CONTINUOUS
 90
28
 70
0
 10
102.6254139273
 20
156.4591046249
 10
102.6271622572
 20
156.5188184025
 10
102.6322662769
 20
156.5778650449
 10
102.6407259865
 20
156.636244677
 10
102.6526331742
 20
156.6942262488
 10
102.6678960518
 20
156.751541022
 10
102.6862392546
 20
156.8073827435
 10
102.7076459633
 20
156.8615872535
 10
102.7321329972
 20
156.9143192721
 10
102.7594754503
 20
156.9652660708
 10
102.7896895445
 20
157.0144568631
 10
102.8227590579
 20
157.0618630355
 10
102.8584104189
 20
157.1070852256
 10
102.896780334
 20
157.1501893235
 10
102.9377320968
 20
157.191110091
 10
102.9805820162
 20
157.2292515999
 10
103.0252134443
 20
157.2644542415
 10
103.0717430291
 20
157.2968783405
 10
103.1198370226
 20
157.3264079269
 10
103.1695040416
 20
157.3530595292
 10
103.2207354694
 20
157.3768171815
 10
103.2731717083
 20
157.3975161568
 10
103.3269475796
 20
157.4151600025
 10
103.381928262
 20
157.4297455792
 10
103.4373496948
 20
157.4410981035
 10
103.492957191
 20
157.4491593909
 10
103.5490054374
 20
157.4539878462
 10
103.6054944342
 20
157.455583524
  0
LWPOLYLINE
  5
268
100
AcDbEntity
  8
ASSI
100
AcDbPolyline
 62
7
  6
CONTINUOUS
 90
28
 70
0
 10
102.6254139273
 20
156.4591046249
 10
102.6271622572
 20
156.5188184025
 10
102.6322662769
 20
156.5778650449
 10
102.6407259865
 20
156.636244677
 10
102.6526331742
 20
156.6942262488
 10
102.6678960518
 20
156.751541022
 10
102.6862392546
 20
156.8073827435
 10
102.7076459633
 20
156.8615872535
 10
102.7321329972
 20
156.9143192721
 10
102.7594754503
 20
156.9652660708
 10
102.7896895445
 20
157.0144568631
 10
102.8227590579
 20
157.0618630355
 10
102.8584104189
 20
157.1070852256
 10
102.896780334
 20
157.1501893235
 10
102.9377320968
 20
157.191110091
 10
102.9805820162
 20
157.2292515999
 10
103.0252134443
 20
157.2644542415
 10
103.0717430291
 20
157.2968783405
 10
103.1198370226
 20
157.3264079269
 10
103.1695040416
 20
157.3530595292
 10
103.2207354694
 20
157.3768171815
 10
103.2731717083
 20
157.3975161568
 10
103.3269475796
 20
157.4151600025
 10
103.381928262
 20
157.4297455792
 10
103.4373496948
 20
157.4410981035
 10
103.492957191
 20
157.4491593909
 10
103.5490054374
 20
157.4539878462
 10
103.6054944342
 20
157.455583524
  0
LWPOLYLINE
  5
269
100
AcDbEntity
  8
RACCORDO
100
AcDbPolyline
 62
253
  6
CONTINUOUS
 90
28
 70
0
 10
223.4553639107
 20
67.6486376203
 10
223.5124685379
 20
67.6504961149
 10
223.5693122321
 20
67.6556372887
 10
223.6257106017
 20
67.6640378196
 10
223.6814540415
 20
67.6756573734
 10
223.7363904576
 20
67.6904554698
 10
223.7904218029
 20
67.7084070197
 10
223.8434075546
 20
67.7294781899
 10
223.8951323962
 20
67.7535957998
 10
223.9453893093
 20
67.7806679544
 10
223.993996525
 20
67.8105977402
 10
224.0408115202
 20
67.8432972372
 10
224.0856949899
 20
67.8786702564
 10
224.1284987622
 20
67.9166078707
 10
224.1690766904
 20
67.9569876963
 10
224.2072995448
 20
67.999683882
 10
224.2430364546
 20
68.0445616459
 10
224.2761647435
 20
68.0914779298
 10
224.306577187
 20
68.1402848925
 10
224.3341681584
 20
68.1908310938
 10
224.3588371819
 20
68.2429507918
 10
224.3804980119
 20
68.2964657036
 10
224.3990706171
 20
68.3511991841
 10
224.4144881663
 20
68.4069773915
 10
224.4266989824
 20
68.463619406
 10
224.4356561135
 20
68.5209409571
 10
224.44131868
 20
68.5787547019
 10
224.4436589809
 20
68.6368711747
  0
LWPOLYLINE
  5
26A
100
AcDbEntity
  8
ASSI
100
AcDbPolyline
 62
253
  6
CONTINUOUS
 90
28
 70
0
 10
223.4553639107
 20
67.6486376203
 10
223.5124685379
 20
67.6504961149
 10
223.5693122321
 20
67.6556372887
 10
223.6257106017
 20
67.6640378196
 10
223.6814540415
 20
67.6756573734
 10
223.7363904576
 20
67.6904554698
 10
223.7904218029
 20
67.7084070197
 10
223.8434075546
 20
67.7294781899
 10
223.8951323962
 20
67.7535957998
 10
223.9453893093
 20
67.7806679544
 10
223.993996525
 20
67.8105977402
 10
224.0408115202
 20
67.8432972372
 10
224.0856949899
 20
67.8786702564
 10
224.1284987622
 20
67.9166078707
 10
224.1690766904
 20
67.9569876963
 10
224.2072995448
 20
67.999683882
 10
224.2430364546
 20
68.0445616459
 10
224.2761647435
 20
68.0914779298
 10
224.306577187
 20
68.1402848925
 10
224.3341681584
 20
68.1908310938
 10
224.3588371819
 20
68.2429507918
 10
224.3804980119
 20
68.2964657036
 10
224.3990706171
 20
68.3511991841
 10
224.4144881663
 20
68.4069773915
 10
224.4266989824
 20
68.463619406
 10
224.4356561135
 20
68.5209409571
 10
224.44131868
 20
68.5787547019
 10
224.4436589809
 20
68.6368711747
  0
LWPOLYLINE
  5
26B
100
AcDbEntity
  8
RACCORDO
100
AcDbPolyline
 62
253
  6
CONTINUOUS
 90
28
 70
0
 10
223.4553639107
 20
68.0568021623
 10
223.4840745402
 20
68.0576527482
 10
223.5124774164
 20
68.0601391417
 10
223.5405725393
 20
68.0642613562
 10
223.5684442379
 20
68.0700395161
 10
223.5960081832
 20
68.0774535509
 10
223.6230113887
 20
68.0864431936
 10
223.6494600927
 20
68.0970278477
 10
223.6753480569
 20
68.1091882121
 10
223.7004035796
 20
68.1228059694
 10
223.7246108346
 20
68.1378924337
 10
223.747985648
 20
68.1544364293
 10
223.7703037963
 20
68.1722859009
 10
223.7915580088
 20
68.1914545405
 10
223.8117555561
 20
68.2119288156
 10
223.8306940265
 20
68.2335158217
 10
223.8483625043
 20
68.2562283512
 10
223.8647719052
 20
68.2800537738
 10
223.8797525642
 20
68.3047610257
 10
223.8932901883
 20
68.3303596832
 10
223.9053990704
 20
68.356840315
 10
223.9159524248
 20
68.3839433095
 10
223.9249349748
 20
68.4116843566
 10
223.9323619971
 20
68.4400478774
 10
223.9381525355
 20
68.4687273075
 10
223.9422796047
 20
68.497620465
 10
223.9447701899
 20
68.5268295829
 10
223.9456242913
 20
68.5563546902
  0
LWPOLYLINE
  5
26C
100
AcDbEntity
  8
ASSI
100
AcDbPolyline
 62
253
  6
CONTINUOUS
 90
28
 70
0
 10
223.4553639107
 20
68.0568021623
 10
223.4840745402
 20
68.0576527482
 10
223.5124774164
 20
68.0601391417
 10
223.5405725393
 20
68.0642613562
 10
223.5684442379
 20
68.0700395161
 10
223.5960081832
 20
68.0774535509
 10
223.6230113887
 20
68.0864431936
 10
223.6494600927
 20
68.0970278477
 10
223.6753480569
 20
68.1091882121
 10
223.7004035796
 20
68.1228059694
 10
223.7246108346
 20
68.1378924337
 10
223.747985648
 20
68.1544364293
 10
223.7703037963
 20
68.1722859009
 10
223.7915580088
 20
68.1914545405
 10
223.8117555561
 20
68.2119288156
 10
223.8306940265
 20
68.2335158217
 10
223.8483625043
 20
68.2562283512
 10
223.8647719052
 20
68.2800537738
 10
223.8797525642
 20
68.3047610257
 10
223.8932901883
 20
68.3303596832
 10
223.9053990704
 20
68.356840315
 10
223.9159524248
 20
68.3839433095
 10
223.9249349748
 20
68.4116843566
 10
223.9323619971
 20
68.4400478774
 10
223.9381525355
 20
68.4687273075
 10
223.9422796047
 20
68.497620465
 10
223.9447701899
 20
68.5268295829
 10
223.9456242913
 20
68.5563546902
  0
LWPOLYLINE
  5
26D
100
AcDbEntity
  8
RACCORDO
100
AcDbPolyline
 62
7
  6
CONTINUOUS
 90
28
 70
0
 10
103.6054944342
 20
67.455583524
 10
103.548982045
 20
67.4571854818
 10
103.4929268382
 20
67.4620151477
 10
103.4373288137
 20
67.4700725759
 10
103.381942049
 20
67.4814145768
 10
103.3270124666
 20
67.49598456
 10
103.2732778343
 20
67.5136125252
 10
103.2208640839
 20
67.5342951224
 10
103.1696452836
 20
67.5580361094
 10
103.119981406
 20
67.5846761746
 10
103.0718771253
 20
67.6142032125
 10
103.0253277672
 20
67.6466298923
 10
102.9806792823
 20
67.6818340809
 10
102.9378194145
 20
67.7199744737
 10
102.8968604198
 20
67.7608930907
 10
102.8584850158
 20
67.8039927264
 10
102.8228309058
 20
67.8492056883
 10
102.7897603867
 20
67.8966003197
 10
102.7595430658
 20
67.9457833429
 10
102.7321936264
 20
67.996725384
 10
102.7076973853
 20
68.049456418
 10
102.686279901
 20
68.103672087
 10
102.6679225106
 20
68.1595482944
 10
102.6526438771
 20
68.2169097032
 10
102.6407255473
 20
68.2749248867
 10
102.6322613702
 20
68.3333167113
 10
102.6271574969
 20
68.392362516
 10
102.6254139273
 20
68.4520624232
  0
LWPOLYLINE
  5
26E
100
AcDbEntity
  8
ASSI
100
AcDbPolyline
 62
7
  6
CONTINUOUS
 90
28
 70
0
 10
103.6054944342
 20
67.455583524
 10
103.548982045
 20
67.4571854818
 10
103.4929268382
 20
67.4620151477
 10
103.4373288137
 20
67.4700725759
 10
103.381942049
 20
67.4814145768
 10
103.3270124666
 20
67.49598456
 10
103.2732778343
 20
67.5136125252
 10
103.2208640839
 20
67.5342951224
 10
103.1696452836
 20
67.5580361094
 10
103.119981406
 20
67.5846761746
 10
103.0718771253
 20
67.6142032125
 10
103.0253277672
 20
67.6466298923
 10
102.9806792823
 20
67.6818340809
 10
102.9378194145
 20
67.7199744737
 10
102.8968604198
 20
67.7608930907
 10
102.8584850158
 20
67.8039927264
 10
102.8228309058
 20
67.8492056883
 10
102.7897603867
 20
67.8966003197
 10
102.7595430658
 20
67.9457833429
 10
102.7321936264
 20
67.996725384
 10
102.7076973853
 20
68.049456418
 10
102.686279901
 20
68.103672087
 10
102.6679225106
 20
68.1595482944
 10
102.6526438771
 20
68.2169097032
 10
102.6407255473
 20
68.2749248867
 10
102.6322613702
 20
68.3333167113
 10
102.6271574969
 20
68.392362516
 10
102.6254139273
 20
68.4520624232
  0
LWPOLYLINE
  5
26F
100
AcDbEntity
  8
RACCORDO
100
AcDbPolyline
 62
253
  6
CONTINUOUS
 90
19
 70
0
 10
129.3629152426
 20
135.0603990826
 10
129.4040453369
 20
135.1168000167
 10
129.4479873569
 20
135.1707242717
 10
129.4947413026
 20
135.2221719632
 10
129.544464113
 20
135.2713083146
 10
129.596998849
 20
135.3179683165
 10
129.6518746939
 20
135.3616567494
 10
129.7091207539
 20
135.4023367456
 10
129.7687079229
 20
135.4400454018
 10
129.830078065
 20
135.4743984694
 10
129.8932842537
 20
135.5053594825
 10
129.9582734155
 20
135.5329651119
 10
130.0243281954
 20
135.5569408202
 10
130.0914700173
 20
135.5772224815
 10
130.1596774572
 20
135.5938743746
 10
130.2281688876
 20
135.6068145598
 10
130.2966837659
 20
135.6160157505
 10
130.3654826347
 20
135.621505312
 10
130.4345654939
 20
135.6232832639
  0
LWPOLYLINE
  5
270
100
AcDbEntity
  8
ASSI
100
AcDbPolyline
 62
253
  6
CONTINUOUS
 90
19
 70
0
 10
129.3629152426
 20
135.0603990826
 10
129.4040453369
 20
135.1168000167
 10
129.4479873569
 20
135.1707242717
 10
129.4947413026
 20
135.2221719632
 10
129.544464113
 20
135.2713083146
 10
129.596998849
 20
135.3179683165
 10
129.6518746939
 20
135.3616567494
 10
129.7091207539
 20
135.4023367456
 10
129.7687079229
 20
135.4400454018
 10
129.830078065
 20
135.4743984694
 10
129.8932842537
 20
135.5053594825
 10
129.9582734155
 20
135.5329651119
 10
130.0243281954
 20
135.5569408202
 10
130.0914700173
 20
135.5772224815
 10
130.1596774572
 20
135.5938743746
 10
130.2281688876
 20
135.6068145598
 10
130.2966837659
 20
135.6160157505
 10
130.3654826347
 20
135.621505312
 10
130.4345654939
 20
135.6232832639
  0
LWPOLYLINE
  5
271
100
AcDbEntity
  8
RACCORDO
100
AcDbPolyline
 62
253
  6
CONTINUOUS
 90
19
 70
0
 10
129.7739616385
 20
134.7529418066
 10
129.7992655858
 20
134.7874259216
 10
129.826430791
 20
134.8205591538
 10
129.8553877215
 20
134.8522394573
 10
129.8860645736
 20
134.882370468
 10
129.9183773579
 20
134.9108547552
 10
129.9522286414
 20
134.9375957613
 10
129.9875338161
 20
134.9625138421
 10
130.0241881342
 20
134.9855229802
 10
130.0620519839
 20
135.0065312582
 10
130.1010331901
 20
135.0254826166
 10
130.1410030654
 20
135.0423098473
 10
130.1817526128
 20
135.0569330184
 10
130.2231622792
 20
135.0693224916
 10
130.2651051346
 20
135.0794533345
 10
130.3073498414
 20
135.0872938735
 10
130.3497340881
 20
135.0928478826
 10
130.3921694763
 20
135.0961358563
 10
130.4345347305
 20
135.0971780407
  0
LWPOLYLINE
  5
272
100
AcDbEntity
  8
ASSI
100
AcDbPolyline
 62
253
  6
CONTINUOUS
 90
19
 70
0
 10
129.7739616385
 20
134.7529418066
 10
129.7992655858
 20
134.7874259216
 10
129.826430791
 20
134.8205591538
 10
129.8553877215
 20
134.8522394573
 10
129.8860645736
 20
134.882370468
 10
129.9183773579
 20
134.9108547552
 10
129.9522286414
 20
134.9375957613
 10
129.9875338161
 20
134.9625138421
 10
130.0241881342
 20
134.9855229802
 10
130.0620519839
 20
135.0065312582
 10
130.1010331901
 20
135.0254826166
 10
130.1410030654
 20
135.0423098473
 10
130.1817526128
 20
135.0569330184
 10
130.2231622792
 20
135.0693224916
 10
130.2651051346
 20
135.0794533345
 10
130.3073498414
 20
135.0872938735
 10
130.3497340881
 20
135.0928478826
 10
130.3921694763
 20
135.0961358563
 10
130.4345347305
 20
135.0971780407
  0
LWPOLYLINE
  5
273
100
AcDbEntity
  8
RACCORDO
100
AcDbPolyline
 62
253
  6
CONTINUOUS
 90
19
 70
0
 10
223.9456242913
 20
68.5563547037
 10
223.9867473332
 20
68.5566464041
 10
224.0275917297
 20
68.5575354365
 10
224.0678807232
 20
68.5590157768
 10
224.1073413198
 20
68.5610773946
 10
224.1457061386
 20
68.5637063203
 10
224.1827152234
 20
68.5668847408
 10
224.2181178045
 20
68.5705911193
 10
224.2516739978
 20
68.5748003418
 10
224.2831564298
 20
68.5794838872
 10
224.3123517789
 20
68.58461002
 10
224.3390622205
 20
68.5901440063
 10
224.3631067673
 20
68.5960483482
 10
224.3843224959
 20
68.6022830386
 10
224.4025656508
 20
68.6088058319
 10
224.4177126183
 20
68.6155725302
 10
224.429660764
 20
68.6225372831
 10
224.4383291286
 20
68.6296528983
 10
224.443658976
 20
68.6368711609
  0
LWPOLYLINE
  5
274
100
AcDbEntity
  8
ASSI
100
AcDbPolyline
 62
253
  6
CONTINUOUS
 90
19
 70
0
 10
223.9456242913
 20
68.5563547037
 10
223.9867473332
 20
68.5566464041
 10
224.0275917297
 20
68.5575354365
 10
224.0678807232
 20
68.5590157768
 10
224.1073413198
 20
68.5610773946
 10
224.1457061386
 20
68.5637063203
 10
224.1827152234
 20
68.5668847408
 10
224.2181178045
 20
68.5705911193
 10
224.2516739978
 20
68.5748003418
 10
224.2831564298
 20
68.5794838872
 10
224.3123517789
 20
68.58461002
 10
224.3390622205
 20
68.5901440063
 10
224.3631067673
 20
68.5960483482
 10
224.3843224959
 20
68.6022830386
 10
224.4025656508
 20
68.6088058319
 10
224.4177126183
 20
68.6155725302
 10
224.429660764
 20
68.6225372831
 10
224.4383291286
 20
68.6296528983
 10
224.443658976
 20
68.6368711609
  0
LINE
  5
275
100
AcDbEntity
  8
RACCORDO
100
AcDbLine
 62
7
  6
CONTINUOUS
 10
103.6054944342
 20
67.455583524
 11
223.6453326334
 21
67.455583524
  0
LINE
  5
276
100
AcDbEntity
  8
ASSI
100
AcDbLine
 62
7
  6
CONTINUOUS
 10
103.6054944342
 20
67.455583524
 11
223.6453326334
 21
67.455583524
  0
LINE
  5
277
100
AcDbEntity
  8
RACCORDO
100
AcDbLine
 62
253
  6
CONTINUOUS
 10
103.7954631569
 20
67.6486376203
 11
223.4553639107
 21
67.6486376203
  0
LINE
  5
278
100
AcDbEntity
  8
ASSI
100
AcDbLine
 62
253
  6
CONTINUOUS
 10
103.7954631569
 20
67.6486376203
 11
223.4553639107
 21
67.6486376203
  0
LINE
  5
279
100
AcDbEntity
  8
RACCORDO
100
AcDbLine
 62
253
  6
CONTINUOUS
 10
103.7954631569
 20
68.0568021623
 11
223.4553639107
 21
68.0568021623
  0
LINE
  5
27A
100
AcDbEntity
  8
ASSI
100
AcDbLine
 62
253
  6
CONTINUOUS
 10
103.7954631569
 20
68.0568021623
 11
223.4553639107
 21
68.0568021623
  0
LWPOLYLINE
  5
27B
100
AcDbEntity
  8
RACCORDO
100
AcDbPolyline
 62
253
  6
CONTINUOUS
 90
19
 70
0
 10
103.3052027763
 20
68.5563546955
 10
103.2640800751
 20
68.5566464228
 10
103.2232360409
 20
68.5575354789
 10
103.1829474263
 20
68.5590158398
 10
103.1434872203
 20
68.5610774748
 10
103.1051227987
 20
68.5637064148
 10
103.0681141126
 20
68.5668848465
 10
103.0327119267
 20
68.5705912334
 10
102.9991561203
 20
68.5748004616
 10
102.9676740622
 20
68.5794840101
 10
102.9384790694
 20
68.5846101439
 10
102.9117689626
 20
68.5901441291
 10
102.887724725
 20
68.5960484683
 10
102.8665092763
 20
68.6022831547
 10
102.8482663689
 20
68.6088059429
 10
102.8331196139
 20
68.6155726356
 10
102.821171643
 20
68.6225373827
 10
102.8125034139
 20
68.6296529921
 10
102.8071736609
 20
68.6368712495
  0
LWPOLYLINE
  5
27C
100
AcDbEntity
  8
ASSI
100
AcDbPolyline
 62
253
  6
CONTINUOUS
 90
19
 70
0
 10
103.3052027763
 20
68.5563546955
 10
103.2640800751
 20
68.5566464228
 10
103.2232360409
 20
68.5575354789
 10
103.1829474263
 20
68.5590158398
 10
103.1434872203
 20
68.5610774748
 10
103.1051227987
 20
68.5637064148
 10
103.0681141126
 20
68.5668848465
 10
103.0327119267
 20
68.5705912334
 10
102.9991561203
 20
68.5748004616
 10
102.9676740622
 20
68.5794840101
 10
102.9384790694
 20
68.5846101439
 10
102.9117689626
 20
68.5901441291
 10
102.887724725
 20
68.5960484683
 10
102.8665092763
 20
68.6022831547
 10
102.8482663689
 20
68.6088059429
 10
102.8331196139
 20
68.6155726356
 10
102.821171643
 20
68.6225373827
 10
102.8125034139
 20
68.6296529921
 10
102.8071736609
 20
68.6368712495
  0
LWPOLYLINE
  5
27D
100
AcDbEntity
  8
RACCORDO
100
AcDbPolyline
 62
253
  6
CONTINUOUS
 90
13
 70
0
 10
129.7739616385
 20
90.1582252414
 10
129.752017467
 20
90.1916398424
 10
129.7316937364
 20
90.2262678573
 10
129.7130650932
 20
90.262035384
 10
129.6961686129
 20
90.2989437987
 10
129.6811152939
 20
90.3368328044
 10
129.6680483662
 20
90.3753642899
 10
129.6569915072
 20
90.4144296425
 10
129.6479592589
 20
90.4539290782
 10
129.6409992641
 20
90.4935143348
 10
129.6360885841
 20
90.5329949943
 10
129.633174674
 20
90.5723478414
 10
129.6322163328
 20
90.6114734438
  0
LWPOLYLINE
  5
27E
100
AcDbEntity
  8
ASSI
100
AcDbPolyline
 62
253
  6
CONTINUOUS
 90
13
 70
0
 10
129.7739616385
 20
90.1582252414
 10
129.752017467
 20
90.1916398424
 10
129.7316937364
 20
90.2262678573
 10
129.7130650932
 20
90.262035384
 10
129.6961686129
 20
90.2989437987
 10
129.6811152939
 20
90.3368328044
 10
129.6680483662
 20
90.3753642899
 10
129.6569915072
 20
90.4144296425
 10
129.6479592589
 20
90.4539290782
 10
129.6409992641
 20
90.4935143348
 10
129.6360885841
 20
90.5329949943
 10
129.633174674
 20
90.5723478414
 10
129.6322163328
 20
90.6114734438
  0
LWPOLYLINE
  5
27F
100
AcDbEntity
  8
RACCORDO
100
AcDbPolyline
 62
253
  6
CONTINUOUS
 90
13
 70
0
 10
129.3629152426
 20
89.8507679655
 10
129.3271948072
 20
89.9052532713
 10
129.2943112484
 20
89.9614965314
 10
129.2642645664
 20
90.0194977778
 10
129.2369202872
 20
90.0795531721
 10
129.2124128849
 20
90.1413666238
 10
129.1911457806
 20
90.2040497701
 10
129.1732346729
 20
90.2676085798
 10
129.1585638634
 20
90.3320371181
 10
129.1471896779
 20
90.3964291294
 10
129.1391308916
 20
90.4604825188
 10
129.1343687293
 20
90.5244993728
 10
129.132903191
 20
90.5884796894
  0
LWPOLYLINE
  5
280
100
AcDbEntity
  8
ASSI
100
AcDbPolyline
 62
253
  6
CONTINUOUS
 90
13
 70
0
 10
129.3629152426
 20
89.8507679655
 10
129.3271948072
 20
89.9052532713
 10
129.2943112484
 20
89.9614965314
 10
129.2642645664
 20
90.0194977778
 10
129.2369202872
 20
90.0795531721
 10
129.2124128849
 20
90.1413666238
 10
129.1911457806
 20
90.2040497701
 10
129.1732346729
 20
90.2676085798
 10
129.1585638634
 20
90.3320371181
 10
129.1471896779
 20
90.3964291294
 10
129.1391308916
 20
90.4604825188
 10
129.1343687293
 20
90.5244993728
 10
129.132903191
 20
90.5884796894
  0
LWPOLYLINE
  5
281
100
AcDbEntity
  8
RACCORDO
100
AcDbPolyline
 62
7
  6
CONTINUOUS
 90
19
 70
0
 10
129.7254135076
 20
90.70444937
 10
129.7271280211
 20
90.6519708984
 10
129.7322591416
 20
90.6000110209
 10
129.7408068694
 20
90.5485697294
 10
129.7528576328
 20
90.4973454119
 10
129.7683250034
 20
90.4466396676
 10
129.7869496954
 20
90.39735729
 10
129.8086957892
 20
90.3496848306
 10
129.8335992043
 20
90.3034356912
 10
129.8615084138
 20
90.2589549218
 10
129.8925460047
 20
90.2161154888
 10
129.9265893898
 20
90.1750443764
 10
129.963119281
 20
90.1364676465
 10
130.0022310163
 20
90.1004438757
 10
130.0438292576
 20
90.0669144252
 10
130.087108702
 20
90.0364295213
 10
130.1318009155
 20
90.0091725503
 10
130.1781743322
 20
89.9849600659
 10
130.226228952
 20
89.9637920433
  0
LWPOLYLINE
  5
282
100
AcDbEntity
  8
ASSI
100
AcDbPolyline
 62
7
  6
CONTINUOUS
 90
19
 70
0
 10
129.7254135076
 20
90.70444937
 10
129.7271280211
 20
90.6519708984
 10
129.7322591416
 20
90.6000110209
 10
129.7408068694
 20
90.5485697294
 10
129.7528576328
 20
90.4973454119
 10
129.7683250034
 20
90.4466396676
 10
129.7869496954
 20
90.39735729
 10
129.8086957892
 20
90.3496848306
 10
129.8335992043
 20
90.3034356912
 10
129.8615084138
 20
90.2589549218
 10
129.8925460047
 20
90.2161154888
 10
129.9265893898
 20
90.1750443764
 10
129.963119281
 20
90.1364676465
 10
130.0022310163
 20
90.1004438757
 10
130.0438292576
 20
90.0669144252
 10
130.087108702
 20
90.0364295213
 10
130.1318009155
 20
90.0091725503
 10
130.1781743322
 20
89.9849600659
 10
130.226228952
 20
89.9637920433
  0
LINE
  5
283
100
AcDbEntity
  8
RACCORDO
100
AcDbLine
 62
253
  6
CONTINUOUS
 10
129.132903191
 20
90.5884796894
 11
129.132903191
 21
134.3226873586
  0
LINE
  5
284
100
AcDbEntity
  8
ASSI
100
AcDbLine
 62
253
  6
CONTINUOUS
 10
129.132903191
 20
90.5884796894
 11
129.132903191
 21
134.3226873586
  0
LWPOLYLINE
  5
285
100
AcDbEntity
  8
RACCORDO
100
AcDbPolyline
 62
253
  6
CONTINUOUS
 90
13
 70
0
 10
129.132903191
 20
134.3226873586
 10
129.1343141255
 20
134.3860482851
 10
129.139000053
 20
134.4495527854
 10
129.1469609734
 20
134.5132008553
 10
129.15819364
 20
134.5772822174
 10
129.1727012995
 20
134.6415071364
 10
129.1904936924
 20
134.7050064397
 10
129.2116974611
 20
134.7678099775
 10
129.236185963
 20
134.8298879269
 10
129.2635890109
 20
134.8902816438
 10
129.2937832089
 20
134.9486716102
 10
129.3268919528
 20
135.0053774128
 10
129.3629152426
 20
135.0603990826
  0
LWPOLYLINE
  5
286
100
AcDbEntity
  8
ASSI
100
AcDbPolyline
 62
253
  6
CONTINUOUS
 90
13
 70
0
 10
129.132903191
 20
134.3226873586
 10
129.1343141255
 20
134.3860482851
 10
129.139000053
 20
134.4495527854
 10
129.1469609734
 20
134.5132008553
 10
129.15819364
 20
134.5772822174
 10
129.1727012995
 20
134.6415071364
 10
129.1904936924
 20
134.7050064397
 10
129.2116974611
 20
134.7678099775
 10
129.236185963
 20
134.8298879269
 10
129.2635890109
 20
134.8902816438
 10
129.2937832089
 20
134.9486716102
 10
129.3268919528
 20
135.0053774128
 10
129.3629152426
 20
135.0603990826
  0
LWPOLYLINE
  5
287
100
AcDbEntity
  8
RACCORDO
100
AcDbPolyline
 62
253
  6
CONTINUOUS
 90
13
 70
0
 10
129.6322163299
 20
134.2996817293
 10
129.6331580356
 20
134.3384803377
 10
129.6360277716
 20
134.3775560948
 10
129.6408736024
 20
134.4168111457
 10
129.6477522697
 20
134.4562098114
 10
129.6566953765
 20
134.4955756095
 10
129.6676752393
 20
134.5345989857
 10
129.6806994058
 20
134.5732010504
 10
129.6957508119
 20
134.6112436313
 10
129.7126834425
 20
134.6483501808
 10
129.7313874172
 20
134.6843451359
 10
129.7518364541
 20
134.7192356127
 10
129.7739616385
 20
134.7529418066
  0
LWPOLYLINE
  5
288
100
AcDbEntity
  8
ASSI
100
AcDbPolyline
 62
253
  6
CONTINUOUS
 90
13
 70
0
 10
129.6322163299
 20
134.2996817293
 10
129.6331580356
 20
134.3384803377
 10
129.6360277716
 20
134.3775560948
 10
129.6408736024
 20
134.4168111457
 10
129.6477522697
 20
134.4562098114
 10
129.6566953765
 20
134.4955756095
 10
129.6676752393
 20
134.5345989857
 10
129.6806994058
 20
134.5732010504
 10
129.6957508119
 20
134.6112436313
 10
129.7126834425
 20
134.6483501808
 10
129.7313874172
 20
134.6843451359
 10
129.7518364541
 20
134.7192356127
 10
129.7739616385
 20
134.7529418066
  0
LINE
  5
289
100
AcDbEntity
  8
RACCORDO
100
AcDbLine
 62
253
  6
CONTINUOUS
 10
129.6322163109
 20
90.6114734223
 11
129.6322163186
 21
134.2996817405
  0
LINE
  5
28A
100
AcDbEntity
  8
ASSI
100
AcDbLine
 62
253
  6
CONTINUOUS
 10
129.6322163109
 20
90.6114734223
 11
129.6322163186
 21
134.2996817405
  0
LINE
  5
28B
100
AcDbEntity
  8
RACCORDO
100
AcDbLine
 62
7
  6
CONTINUOUS
 10
129.7254135076
 20
134.2067176781
 11
129.7254135076
 21
90.70444937
  0
LINE
  5
28C
100
AcDbEntity
  8
ASSI
100
AcDbLine
 62
7
  6
CONTINUOUS
 10
129.7254135076
 20
134.2067176781
 11
129.7254135076
 21
90.70444937
  0
LINE
  5
28D
100
AcDbEntity
  8
RACCORDO
100
AcDbLine
 62
253
  6
CONTINUOUS
 10
130.4345654939
 20
135.6232832639
 11
130.4345654939
 21
135.097177989
  0
LINE
  5
28E
100
AcDbEntity
  8
ASSI
100
AcDbLine
 62
253
  6
CONTINUOUS
 10
130.4345654939
 20
135.6232832639
 11
130.4345654939
 21
135.097177989
  0
LINE
  5
28F
100
AcDbEntity
  8
RACCORDO
100
AcDbLine
 62
253
  6
CONTINUOUS
 10
130.4345654939
 20
89.2878837842
 11
130.4345654939
 21
89.813989059
  0
LINE
  5
290
100
AcDbEntity
  8
ASSI
100
AcDbLine
 62
253
  6
CONTINUOUS
 10
130.4345654939
 20
89.2878837842
 11
130.4345654939
 21
89.813989059
  0
LWPOLYLINE
  5
291
100
AcDbEntity
  8
RACCORDO
100
AcDbPolyline
 62
7
  6
CONTINUOUS
 90
19
 70
0
 10
130.226228952
 20
134.9473750048
 10
130.1781844612
 20
134.9262132073
 10
130.1318178439
 20
134.9020051701
 10
130.0871290999
 20
134.8747508684
 10
130.0438489158
 20
134.8442668333
 10
130.0022466052
 20
134.8107364736
 10
129.9631301086
 20
134.7747100824
 10
129.9265956215
 20
134.7361298741
 10
129.8925469485
 20
134.695053572
 10
129.8615034431
 20
134.6522047464
 10
129.8335853373
 20
134.6077017519
 10
129.8086723992
 20
134.5614261843
 10
129.7869232865
 20
134.51374649
 10
129.7683083946
 20
134.4644965808
 10
129.7528573282
 20
134.4138424993
 10
129.740817559
 20
134.3626509068
 10
129.7322715779
 20
134.3112106912
 10
129.7271368941
 20
134.2592329511
 10
129.7254135076
 20
134.2067176781
  0
LWPOLYLINE
  5
292
100
AcDbEntity
  8
ASSI
100
AcDbPolyline
 62
7
  6
CONTINUOUS
 90
19
 70
0
 10
130.226228952
 20
134.9473750048
 10
130.1781844612
 20
134.9262132073
 10
130.1318178439
 20
134.9020051701
 10
130.0871290999
 20
134.8747508684
 10
130.0438489158
 20
134.8442668333
 10
130.0022466052
 20
134.8107364736
 10
129.9631301086
 20
134.7747100824
 10
129.9265956215
 20
134.7361298741
 10
129.8925469485
 20
134.695053572
 10
129.8615034431
 20
134.6522047464
 10
129.8335853373
 20
134.6077017519
 10
129.8086723992
 20
134.5614261843
 10
129.7869232865
 20
134.51374649
 10
129.7683083946
 20
134.4644965808
 10
129.7528573282
 20
134.4138424993
 10
129.740817559
 20
134.3626509068
 10
129.7322715779
 20
134.3112106912
 10
129.7271368941
 20
134.2592329511
 10
129.7254135076
 20
134.2067176781
  0
LINE
  5
293
100
AcDbEntity
  8
SCRITTE
100
AcDbLine
 62
253
  6
CONTINUOUS
 10
168.9845617458
 20
83.5777821697
 11
168.4224291557
 21
83.5777821697
  0
LINE
  5
294
100
AcDbEntity
  8
SCRITTE
100
AcDbLine
 62
253
  6
CONTINUOUS
 10
167.5274888787
 20
83.5777821697
 11
166.9454323361
 21
83.5777821697
  0
LINE
  5
295
100
AcDbEntity
  8
SCRITTE
100
AcDbLine
 62
253
  6
CONTINUOUS
 10
161.2255365338
 20
83.577782524
 11
160.6411285338
 21
83.577782524
  0
LINE
  5
296
100
AcDbEntity
  8
SCRITTE
100
AcDbLine
 62
253
  6
CONTINUOUS
 10
159.0093065338
 20
83.577782524
 11
159.5243165338
 21
83.577782524
  0
LINE
  5
297
100
AcDbEntity
  8
SCRITTE
100
AcDbLine
 62
253
  6
CONTINUOUS
 10
161.5401415338
 20
83.577782524
 11
162.0992305338
 21
83.577782524
  0
LINE
  5
298
100
AcDbEntity
  8
SCRITTE
100
AcDbLine
 62
253
  6
CONTINUOUS
 10
162.9109265338
 20
83.577782524
 11
162.9928895338
 21
83.577782524
  0
LINE
  5
299
100
AcDbEntity
  8
SCRITTE
100
AcDbLine
 62
253
  6
CONTINUOUS
 10
163.8078195338
 20
83.577782524
 11
164.3795255338
 21
83.577782524
  0
LINE
  5
29A
100
AcDbEntity
  8
SCRITTE
100
AcDbLine
 62
253
  6
CONTINUOUS
 10
164.4712935338
 20
83.577782524
 11
165.0493605338
 21
83.577782524
  0
LINE
  5
29B
100
AcDbEntity
  8
SCRITTE
100
AcDbLine
 62
253
  6
CONTINUOUS
 10
166.1578795338
 20
83.577782524
 11
166.7738215338
 21
83.577782524
  0
LWPOLYLINE
  5
29C
100
AcDbEntity
  8
RACCORDO
100
AcDbPolyline
 62
7
  6
CONTINUOUS
 90
7
 70
0
 10
130.226228952
 20
89.9637920433
 10
130.2749246421
 20
89.9460363551
 10
130.324153052
 20
89.9315024217
 10
130.3739141817
 20
89.9201902005
 10
130.4242080312
 20
89.9120996581
 10
130.4750346005
 20
89.9072307707
 10
130.5263938896
 20
89.905583524
  0
LWPOLYLINE
  5
29D
100
AcDbEntity
  8
ASSI
100
AcDbPolyline
 62
7
  6
CONTINUOUS
 90
7
 70
0
 10
130.226228952
 20
89.9637920433
 10
130.2749246421
 20
89.9460363551
 10
130.324153052
 20
89.9315024217
 10
130.3739141817
 20
89.9201902005
 10
130.4242080312
 20
89.9120996581
 10
130.4750346005
 20
89.9072307707
 10
130.5263938896
 20
89.905583524
  0
LWPOLYLINE
  5
29E
100
AcDbEntity
  8
SCRITTE
100
AcDbPolyline
 62
253
  6
CONTINUOUS
 90
36
 70
0
 10
166.9454323361
 20
86.344776183
 10
166.9891998547
 20
86.3511194468
 10
167.0322862029
 20
86.3571658525
 10
167.0746737629
 20
86.3629048893
 10
167.116344917
 20
86.3683260463
 10
167.1572820474
 20
86.3734188126
 10
167.1974799753
 20
86.3781750124
 10
167.2369832777
 20
86.3825958107
 10
167.2758489708
 20
86.3866847079
 10
167.3141340704
 20
86.390445204
 10
167.3518955927
 20
86.3938807992
 10
167.398440163
 20
86.3977223687
 10
167.4443196181
 20
86.4010603965
 10
167.4895978448
 20
86.4038935291
 10
167.53433873
 20
86.4062204134
 10
167.5786094967
 20
86.4080380611
 10
167.6224907118
 20
86.4093369432
 10
167.6660662787
 20
86.4101058959
 10
167.7094201003
 20
86.4103337554
 10
167.7670005241
 20
86.4097760869
 10
167.824386261
 20
86.408207257
 10
167.8816276765
 20
86.4055978946
 10
167.9244899135
 20
86.4029335898
 10
167.9672940775
 20
86.3996144826
 10
168.010034946
 20
86.3955875915
 10
168.0527072962
 20
86.3907999347
 10
168.0867888305
 20
86.386383043
 10
168.1207994785
 20
86.381397759
 10
168.1547155478
 20
86.3757964884
 10
168.1885133464
 20
86.3695316374
 10
168.222169182
 20
86.3625556117
 10
168.2556607407
 20
86.354820478
 10
168.2889712212
 20
86.3462769454
 10
168.3220852006
 20
86.3368753834
 10
168.3549872557
 20
86.3265661619
 10
168.3876619636
 20
86.3152996506
  0
LWPOLYLINE
  5
29F
100
AcDbEntity
  8
RACCORDO
100
AcDbPolyline
 62
7
  6
CONTINUOUS
 90
7
 70
0
 10
196.724433178
 20
89.905583524
 10
196.775767895
 20
89.9072260198
 10
196.826579721
 20
89.9120920567
 10
196.8768686561
 20
89.9201816488
 10
196.9266347002
 20
89.9314948202
 10
196.9758778534
 20
89.9460316041
 10
197.0245981156
 20
89.9637920433
  0
LWPOLYLINE
  5
2A0
100
AcDbEntity
  8
ASSI
100
AcDbPolyline
 62
7
  6
CONTINUOUS
 90
7
 70
0
 10
196.724433178
 20
89.905583524
 10
196.775767895
 20
89.9072260198
 10
196.826579721
 20
89.9120920567
 10
196.8768686561
 20
89.9201816488
 10
196.9266347002
 20
89.9314948202
 10
196.9758778534
 20
89.9460316041
 10
197.0245981156
 20
89.9637920433
  0
LWPOLYLINE
  5
2A1
100
AcDbEntity
  8
SCRITTE
100
AcDbPolyline
 62
253
  6
CONTINUOUS
 90
56
 70
0
 10
167.842094177
 20
85.1319554374
 10
167.8583410919
 20
85.1324585616
 10
167.8746920752
 20
85.1332616542
 10
167.8911684866
 20
85.1343909458
 10
167.9077916859
 20
85.135872667
 10
167.9245684785
 20
85.1377328655
 10
167.9414474528
 20
85.1399968571
 10
167.9583626423
 20
85.1426897747
 10
167.975248081
 20
85.1458367511
 10
167.9886896078
 20
85.148696317
 10
168.0020296552
 20
85.151864473
 10
168.0152280026
 20
85.1553431264
 10
168.0282444295
 20
85.1591341845
 10
168.0410387153
 20
85.1632395547
 10
168.0535749126
 20
85.1676608191
 10
168.0658341668
 20
85.1723982591
 10
168.0778018963
 20
85.1774518312
 10
168.0894635195
 20
85.1828214916
 10
168.1008044548
 20
85.1885071965
 10
168.1100015946
 20
85.1934875317
 10
168.1189685702
 20
85.1986924251
 10
168.1277080433
 20
85.2041269897
 10
168.1362217459
 20
85.2097967338
 10
168.14450769
 20
85.215708745
 10
168.1525629577
 20
85.2218705058
 10
168.1603851165
 20
85.2282875715
 10
168.1679736751
 20
85.2349577874
 10
168.1753286276
 20
85.2418770713
 10
168.1824506122
 20
85.2490401339
 10
168.189342844
 20
85.2564368579
 10
168.1960091823
 20
85.2640559188
 10
168.2037163896
 20
85.2734796081
 10
168.2111126194
 20
85.2832072458
 10
168.2182066233
 20
85.2932389227
 10
168.2250071532
 20
85.3035747294
 10
168.2315229608
 20
85.3142147568
 10
168.2377605973
 20
85.3251580103
 10
168.2437178106
 20
85.3363991554
 10
168.2493901482
 20
85.3479317724
 10
168.2547731574
 20
85.3597494416
 10
168.2598623854
 20
85.3718457435
 10
168.2646522457
 20
85.3842094966
 10
168.2691326152
 20
85.396810474
 10
168.2732922371
 20
85.4096136869
 10
168.2771198543
 20
85.4225841467
 10
168.2806042098
 20
85.4356868647
 10
168.2837359767
 20
85.4488863857
 10
168.2865135468
 20
85.4621453877
 10
168.2889372422
 20
85.4754260826
 10
168.2910073848
 20
85.488690682
 10
168.2927242964
 20
85.5019013973
 10
168.2940886418
 20
85.5150288441
 10
168.2951024572
 20
85.5280772522
 10
168.2957681218
 20
85.5410592553
 10
168.2960880147
 20
85.5539874872
 10
168.2960645149
 20
85.5668745814
  0
LWPOLYLINE
  5
2A2
100
AcDbEntity
  8
RACCORDO
100
AcDbPolyline
 62
253
  6
CONTINUOUS
 90
16
 70
0
 10
224.0706600679
 20
89.8515250383
 10
224.1101526307
 20
89.8521115255
 10
224.1485465357
 20
89.8528593808
 10
224.1855811687
 20
89.8537635281
 10
224.221005142
 20
89.8548178299
 10
224.254578001
 20
89.8560151299
 10
224.2860718561
 20
89.8573473008
 10
224.3152729301
 20
89.8588053001
 10
224.3419830088
 20
89.8603792308
 10
224.3660207866
 20
89.8620584094
 10
224.3872230972
 20
89.8638314377
 10
224.4054460215
 20
89.8656862806
 10
224.4205658638
 20
89.8676103476
 10
224.4324799921
 20
89.8695905783
 10
224.4411075343
 20
89.871613531
 10
224.4463899275
 20
89.8736654742
  0
LWPOLYLINE
  5
2A3
100
AcDbEntity
  8
ASSI
100
AcDbPolyline
 62
253
  6
CONTINUOUS
 90
16
 70
0
 10
224.0706600679
 20
89.8515250383
 10
224.1101526307
 20
89.8521115255
 10
224.1485465357
 20
89.8528593808
 10
224.1855811687
 20
89.8537635281
 10
224.221005142
 20
89.8548178299
 10
224.254578001
 20
89.8560151299
 10
224.2860718561
 20
89.8573473008
 10
224.3152729301
 20
89.8588053001
 10
224.3419830088
 20
89.8603792308
 10
224.3660207866
 20
89.8620584094
 10
224.3872230972
 20
89.8638314377
 10
224.4054460215
 20
89.8656862806
 10
224.4205658638
 20
89.8676103476
 10
224.4324799921
 20
89.8695905783
 10
224.4411075343
 20
89.871613531
 10
224.4463899275
 20
89.8736654742
  0
LWPOLYLINE
  5
2A4
100
AcDbEntity
  8
RACCORDO
100
AcDbPolyline
 62
253
  6
CONTINUOUS
 90
16
 70
0
 10
224.0706641158
 20
89.9542976051
 10
224.1101567445
 20
89.9548827763
 10
224.1485507095
 20
89.9556285452
 10
224.1855853953
 20
89.9565298495
 10
224.2210094127
 20
89.9575805712
 10
224.2545823061
 20
89.9587735781
 10
224.2860761848
 20
89.9601007721
 10
224.3152772706
 20
89.9615531444
 10
224.3419873485
 20
89.9631208363
 10
224.3660251123
 20
89.9647932065
 10
224.3872273952
 20
89.966558903
 10
224.4054502777
 20
89.9684059403
 10
224.4205700639
 20
89.970321781
 10
224.4324841219
 20
89.9722934204
 10
224.4411115799
 20
89.9743074752
 10
224.4463938751
 20
89.9763502741
  0
LWPOLYLINE
  5
2A5
100
AcDbEntity
  8
ASSI
100
AcDbPolyline
 62
253
  6
CONTINUOUS
 90
16
 70
0
 10
224.0706641158
 20
89.9542976051
 10
224.1101567445
 20
89.9548827763
 10
224.1485507095
 20
89.9556285452
 10
224.1855853953
 20
89.9565298495
 10
224.2210094127
 20
89.9575805712
 10
224.2545823061
 20
89.9587735781
 10
224.2860761848
 20
89.9601007721
 10
224.3152772706
 20
89.9615531444
 10
224.3419873485
 20
89.9631208363
 10
224.3660251123
 20
89.9647932065
 10
224.3872273952
 20
89.966558903
 10
224.4054502777
 20
89.9684059403
 10
224.4205700639
 20
89.970321781
 10
224.4324841219
 20
89.9722934204
 10
224.4411115799
 20
89.9743074752
 10
224.4463938751
 20
89.9763502741
  0
LINE
  5
2A6
100
AcDbEntity
  8
RACCORDO
100
AcDbLine
 62
253
  6
CONTINUOUS
 10
223.9894568946
 20
89.8508509706
 11
224.0706600679
 21
89.8515250383
  0
LINE
  5
2A7
100
AcDbEntity
  8
ASSI
100
AcDbLine
 62
253
  6
CONTINUOUS
 10
223.9894568946
 20
89.8508509706
 11
224.0706600679
 21
89.8515250383
  0
LWPOLYLINE
  5
2A8
100
AcDbEntity
  8
RACCORDO
100
AcDbPolyline
 62
253
  6
CONTINUOUS
 90
3
 70
0
 10
223.9483013122
 20
89.9535397935
 10
223.9894607983
 20
89.9536238269
 10
224.0706641158
 20
89.9542976051
  0
LWPOLYLINE
  5
2A9
100
AcDbEntity
  8
ASSI
100
AcDbPolyline
 62
253
  6
CONTINUOUS
 90
3
 70
0
 10
223.9483013122
 20
89.9535397935
 10
223.9894607983
 20
89.9536238269
 10
224.0706641158
 20
89.9542976051
  0
LINE
  5
2AA
100
AcDbEntity
  8
SCRITTE
100
AcDbLine
 62
253
  6
CONTINUOUS
 10
165.2106205338
 20
84.136702524
 11
166.0064875338
 21
84.136702524
  0
LINE
  5
2AB
100
AcDbEntity
  8
SCRITTE
100
AcDbLine
 62
253
  6
CONTINUOUS
 10
165.8896935338
 20
84.569192524
 11
165.3301645338
 21
84.569192524
  0
LINE
  5
2AC
100
AcDbEntity
  8
SCRITTE
100
AcDbLine
 62
253
  6
CONTINUOUS
 10
167.8408344961
 20
84.6734315993
 11
167.5274888787
 21
84.6734315993
  0
LINE
  5
2AD
100
AcDbEntity
  8
SCRITTE
100
AcDbLine
 62
253
  6
CONTINUOUS
 10
167.5081107879
 20
85.1319554374
 11
167.842094177
 21
85.1319554374
  0
LINE
  5
2AE
100
AcDbEntity
  8
SCRITTE
100
AcDbLine
 62
253
  6
CONTINUOUS
 10
165.9148035338
 20
86.377485524
 11
165.3494585338
 21
86.377485524
  0
LINE
  5
2AF
100
AcDbEntity
  8
SCRITTE
100
AcDbLine
 62
253
  6
CONTINUOUS
 10
164.1177215338
 20
86.377485524
 11
163.5395075338
 21
86.377485524
  0
LINE
  5
2B0
100
AcDbEntity
  8
SCRITTE
100
AcDbLine
 62
253
  6
CONTINUOUS
 10
162.3768635338
 20
86.377485524
 11
161.7929385338
 21
86.377485524
  0
LINE
  5
2B1
100
AcDbEntity
  8
SCRITTE
100
AcDbLine
 62
253
  6
CONTINUOUS
 10
160.4242535338
 20
86.377485524
 11
159.8402445338
 21
86.377485524
  0
LINE
  5
2B2
100
AcDbEntity
  8
SCRITTE
100
AcDbLine
 62
253
  6
CONTINUOUS
 10
158.7565935338
 20
86.377485524
 11
158.1217455338
 21
86.377485524
  0
LINE
  5
2B3
100
AcDbEntity
  8
SCRITTE
100
AcDbLine
 62
253
  6
CONTINUOUS
 10
160.6411285338
 20
86.377653524
 11
161.2255365338
 21
86.377653524
  0
LINE
  5
2B4
100
AcDbEntity
  8
RACCORDO
100
AcDbLine
 62
253
  6
CONTINUOUS
 10
196.8162615737
 20
89.2878837842
 11
130.4345654939
 21
89.2878837842
  0
LINE
  5
2B5
100
AcDbEntity
  8
ASSI
100
AcDbLine
 62
253
  6
CONTINUOUS
 10
196.8162615737
 20
89.2878837842
 11
130.4345654939
 21
89.2878837842
  0
LINE
  5
2B6
100
AcDbEntity
  8
RACCORDO
100
AcDbLine
 62
253
  6
CONTINUOUS
 10
196.8162927449
 20
89.813989059
 11
130.4345646037
 21
89.813989059
  0
LINE
  5
2B7
100
AcDbEntity
  8
ASSI
100
AcDbLine
 62
253
  6
CONTINUOUS
 10
196.8162927449
 20
89.813989059
 11
130.4345646037
 21
89.813989059
  0
LINE
  5
2B8
100
AcDbEntity
  8
RACCORDO
100
AcDbLine
 62
253
  6
CONTINUOUS
 10
197.887911825
 20
89.8507679655
 11
223.9894568946
 21
89.8508509706
  0
LINE
  5
2B9
100
AcDbEntity
  8
ASSI
100
AcDbLine
 62
253
  6
CONTINUOUS
 10
197.887911825
 20
89.8507679655
 11
223.9894568946
 21
89.8508509706
  0
LINE
  5
2BA
100
AcDbEntity
  8
RACCORDO
100
AcDbLine
 62
7
  6
CONTINUOUS
 10
130.5263938896
 20
89.905583524
 11
196.724433178
 21
89.905583524
  0
LINE
  5
2BB
100
AcDbEntity
  8
ASSI
100
AcDbLine
 62
7
  6
CONTINUOUS
 10
130.5263938896
 20
89.905583524
 11
196.724433178
 21
89.905583524
  0
LINE
  5
2BC
100
AcDbEntity
  8
RACCORDO
100
AcDbLine
 62
253
  6
CONTINUOUS
 10
129.3629152426
 20
89.8507679655
 11
103.2613701741
 21
89.8508509715
  0
LINE
  5
2BD
100
AcDbEntity
  8
ASSI
100
AcDbLine
 62
253
  6
CONTINUOUS
 10
129.3629152426
 20
89.8507679655
 11
103.2613701741
 21
89.8508509715
  0
LWPOLYLINE
  5
2BE
100
AcDbEntity
  8
RACCORDO
100
AcDbPolyline
 62
253
  6
CONTINUOUS
 90
18
 70
0
 10
103.3025257554
 20
89.9535397932
 10
103.2204861705
 20
89.9538770034
 10
103.180162951
 20
89.9542976048
 10
103.140670322
 20
89.9548827761
 10
103.1022763568
 20
89.955628545
 10
103.0652416708
 20
89.9565298493
 10
103.0298176532
 20
89.957580571
 10
102.9962447597
 20
89.9587735779
 10
102.9647508809
 20
89.9601007719
 10
102.935549795
 20
89.9615531442
 10
102.9088397172
 20
89.9631208362
 10
102.8848019535
 20
89.9647932064
 10
102.8635996706
 20
89.9665589029
 10
102.8453767883
 20
89.9684059403
 10
102.8302570023
 20
89.970321781
 10
102.8183429446
 20
89.9722934204
 10
102.809715487
 20
89.9743074752
 10
102.8044331921
 20
89.9763502741
  0
LWPOLYLINE
  5
2BF
100
AcDbEntity
  8
ASSI
100
AcDbPolyline
 62
253
  6
CONTINUOUS
 90
18
 70
0
 10
103.3025257554
 20
89.9535397932
 10
103.2204861705
 20
89.9538770034
 10
103.180162951
 20
89.9542976048
 10
103.140670322
 20
89.9548827761
 10
103.1022763568
 20
89.955628545
 10
103.0652416708
 20
89.9565298493
 10
103.0298176532
 20
89.957580571
 10
102.9962447597
 20
89.9587735779
 10
102.9647508809
 20
89.9601007719
 10
102.935549795
 20
89.9615531442
 10
102.9088397172
 20
89.9631208362
 10
102.8848019535
 20
89.9647932064
 10
102.8635996706
 20
89.9665589029
 10
102.8453767883
 20
89.9684059403
 10
102.8302570023
 20
89.970321781
 10
102.8183429446
 20
89.9722934204
 10
102.809715487
 20
89.9743074752
 10
102.8044331921
 20
89.9763502741
  0
LWPOLYLINE
  5
2C0
100
AcDbEntity
  8
RACCORDO
100
AcDbPolyline
 62
253
  6
CONTINUOUS
 90
17
 70
0
 10
103.2613701741
 20
89.8508509715
 10
103.1801670026
 20
89.8515250392
 10
103.1406744407
 20
89.8521115263
 10
103.1022805364
 20
89.8528593816
 10
103.0652459041
 20
89.8537635288
 10
103.0298219314
 20
89.8548178306
 10
102.9962490728
 20
89.8560151306
 10
102.964755218
 20
89.8573473014
 10
102.9355541441
 20
89.8588053006
 10
102.9088440654
 20
89.8603792313
 10
102.8848062874
 20
89.8620584098
 10
102.8636039764
 20
89.8638314381
 10
102.8453810516
 20
89.8656862809
 10
102.8302612085
 20
89.8676103478
 10
102.8183470793
 20
89.8695905784
 10
102.809719536
 20
89.8716135311
 10
102.8044371414
 20
89.8736654742
  0
LWPOLYLINE
  5
2C1
100
AcDbEntity
  8
ASSI
100
AcDbPolyline
 62
253
  6
CONTINUOUS
 90
17
 70
0
 10
103.2613701741
 20
89.8508509715
 10
103.1801670026
 20
89.8515250392
 10
103.1406744407
 20
89.8521115263
 10
103.1022805364
 20
89.8528593816
 10
103.0652459041
 20
89.8537635288
 10
103.0298219314
 20
89.8548178306
 10
102.9962490728
 20
89.8560151306
 10
102.964755218
 20
89.8573473014
 10
102.9355541441
 20
89.8588053006
 10
102.9088440654
 20
89.8603792313
 10
102.8848062874
 20
89.8620584098
 10
102.8636039764
 20
89.8638314381
 10
102.8453810516
 20
89.8656862809
 10
102.8302612085
 20
89.8676103478
 10
102.8183470793
 20
89.8695905784
 10
102.809719536
 20
89.8716135311
 10
102.8044371414
 20
89.8736654742
  0
LWPOLYLINE
  5
2C2
100
AcDbEntity
  8
RACCORDO
100
AcDbPolyline
 62
253
  6
CONTINUOUS
 90
19
 70
0
 10
130.4345646021
 20
89.8139890575
 10
130.3921245133
 20
89.8150335085
 10
130.349701379
 20
89.8183226061
 10
130.3074152778
 20
89.8238628631
 10
130.2654178688
 20
89.8316470909
 10
130.2237996854
 20
89.841672722
 10
130.1825937889
 20
89.8539581564
 10
130.1418328832
 20
89.8685346088
 10
130.1017440382
 20
89.8853628178
 10
130.0626440909
 20
89.9043282696
 10
130.0246914713
 20
89.9253470376
 10
129.9879490131
 20
89.9483768419
 10
129.9525674002
 20
89.9733183284
 10
129.918659852
 20
90.0000765475
 10
129.8863008772
 20
90.0285767128
 10
129.8555721211
 20
90.0587364961
 10
129.8265545761
 20
90.0904649848
 10
129.7993272421
 20
90.1236617056
 10
129.7739616385
 20
90.1582252414
  0
LWPOLYLINE
  5
2C3
100
AcDbEntity
  8
ASSI
100
AcDbPolyline
 62
253
  6
CONTINUOUS
 90
19
 70
0
 10
130.4345646021
 20
89.8139890575
 10
130.3921245133
 20
89.8150335085
 10
130.349701379
 20
89.8183226061
 10
130.3074152778
 20
89.8238628631
 10
130.2654178688
 20
89.8316470909
 10
130.2237996854
 20
89.841672722
 10
130.1825937889
 20
89.8539581564
 10
130.1418328832
 20
89.8685346088
 10
130.1017440382
 20
89.8853628178
 10
130.0626440909
 20
89.9043282696
 10
130.0246914713
 20
89.9253470376
 10
129.9879490131
 20
89.9483768419
 10
129.9525674002
 20
89.9733183284
 10
129.918659852
 20
90.0000765475
 10
129.8863008772
 20
90.0285767128
 10
129.8555721211
 20
90.0587364961
 10
129.8265545761
 20
90.0904649848
 10
129.7993272421
 20
90.1236617056
 10
129.7739616385
 20
90.1582252414
  0
LWPOLYLINE
  5
2C4
100
AcDbEntity
  8
RACCORDO
100
AcDbPolyline
 62
253
  6
CONTINUOUS
 90
19
 70
0
 10
130.4345654939
 20
89.2878837842
 10
130.3656130348
 20
89.2896747592
 10
130.2970116721
 20
89.2951326964
 10
130.2287614058
 20
89.3042576151
 10
130.160689865
 20
89.3170451807
 10
130.0929694206
 20
89.3334998044
 10
130.0261171857
 20
89.3536346433
 10
129.9600039163
 20
89.3775525482
 10
129.8947588563
 20
89.4051508232
 10
129.8312868503
 20
89.4361343157
 10
129.769688624
 20
89.470543051
 10
129.7098634518
 20
89.5083372108
 10
129.6524140006
 20
89.5491018693
 10
129.5973892162
 20
89.592864657
 10
129.5447401529
 20
89.6395981724
 10
129.4949226408
 20
89.6888049161
 10
129.4480886235
 20
89.7403191185
 10
129.4040861574
 20
89.7943067631
 10
129.3629152426
 20
89.8507679655
  0
LWPOLYLINE
  5
2C5
100
AcDbEntity
  8
ASSI
100
AcDbPolyline
 62
253
  6
CONTINUOUS
 90
19
 70
0
 10
130.4345654939
 20
89.2878837842
 10
130.3656130348
 20
89.2896747592
 10
130.2970116721
 20
89.2951326964
 10
130.2287614058
 20
89.3042576151
 10
130.160689865
 20
89.3170451807
 10
130.0929694206
 20
89.3334998044
 10
130.0261171857
 20
89.3536346433
 10
129.9600039163
 20
89.3775525482
 10
129.8947588563
 20
89.4051508232
 10
129.8312868503
 20
89.4361343157
 10
129.769688624
 20
89.470543051
 10
129.7098634518
 20
89.5083372108
 10
129.6524140006
 20
89.5491018693
 10
129.5973892162
 20
89.592864657
 10
129.5447401529
 20
89.6395981724
 10
129.4949226408
 20
89.6888049161
 10
129.4480886235
 20
89.7403191185
 10
129.4040861574
 20
89.7943067631
 10
129.3629152426
 20
89.8507679655
  0
LWPOLYLINE
  5
2C6
100
AcDbEntity
  8
SCRITTE
100
AcDbPolyline
 62
253
  6
CONTINUOUS
 90
24
 70
0
 10
167.9659220163
 20
85.9170118492
 10
167.9444186345
 20
85.9193486528
 10
167.9228906912
 20
85.9213713404
 10
167.9013415634
 20
85.9230806397
 10
167.8797746281
 20
85.9244772787
 10
167.8581932622
 20
85.925561985
 10
167.8366008427
 20
85.9263354866
 10
167.8150007466
 20
85.9267985112
 10
167.7960956301
 20
85.9269494632
 10
167.7771811452
 20
85.9268632798
 10
167.7582512152
 20
85.9265399771
 10
167.7392997635
 20
85.9259795715
 10
167.7203198763
 20
85.9251810469
 10
167.7013012898
 20
85.9241392581
 10
167.6822329031
 20
85.9228480276
 10
167.6631036151
 20
85.9213011779
 10
167.6439058868
 20
85.9194953222
 10
167.6246464275
 20
85.9174382365
 10
167.6053355083
 20
85.9151404872
 10
167.5859834007
 20
85.9126126411
 10
167.5665963489
 20
85.9098670944
 10
167.5471644897
 20
85.906923563
 10
167.5276739328
 20
85.9038035924
 10
167.5081107879
 20
85.9005287281
  0
LWPOLYLINE
  5
2C7
100
AcDbEntity
  8
SCRITTE
100
AcDbPolyline
 62
253
  6
CONTINUOUS
 90
86
 70
0
 10
168.3876619636
 20
86.3152996506
 10
168.4032797485
 20
86.3093328303
 10
168.4191040519
 20
86.3026123244
 10
168.4351608707
 20
86.2951079263
 10
168.4514762019
 20
86.2867894296
 10
168.4680760425
 20
86.277626628
 10
168.4849863894
 20
86.2675893151
 10
168.502212229
 20
86.2566570878
 10
168.5196745047
 20
86.2448487569
 10
168.5372731492
 20
86.2321929362
 10
168.5549080951
 20
86.2187182399
 10
168.5724792752
 20
86.204453282
 10
168.5898866223
 20
86.1894266765
 10
168.6070390628
 20
86.1736638986
 10
168.6238814989
 20
86.1571778681
 10
168.6403678266
 20
86.1399783662
 10
168.6564519419
 20
86.1220751739
 10
168.6720877407
 20
86.1034780723
 10
168.687229119
 20
86.0841968426
 10
168.701829372
 20
86.0642533675
 10
168.7158393909
 20
86.0437179381
 10
168.7292094666
 20
86.0226729467
 10
168.7418898894
 20
86.0012007862
 10
168.75383095
 20
85.9793838492
 10
168.7649829389
 20
85.9573045283
 10
168.7753072798
 20
85.935038077
 10
168.784809929
 20
85.9126311924
 10
168.793507976
 20
85.8901234323
 10
168.8014185102
 20
85.8675543546
 10
168.808558621
 20
85.8449635172
 10
168.8149453979
 20
85.822390478
 10
168.8216443645
 20
85.7953853442
 10
168.8273437082
 20
85.7685510933
 10
168.8321039985
 20
85.7419760154
 10
168.8359858046
 20
85.7157484007
 10
168.8390496959
 20
85.6899565393
 10
168.8413536828
 20
85.6646766497
 10
168.8429455411
 20
85.6399366633
 10
168.8438704878
 20
85.6157524397
 10
168.8441737397
 20
85.5921398386
 10
168.8439005137
 20
85.5691147198
 10
168.843093041
 20
85.5466879634
 10
168.8417816089
 20
85.5248505326
 10
168.8399935187
 20
85.5035884111
 10
168.8377560719
 20
85.4828875826
 10
168.8350965699
 20
85.4627340309
 10
168.8312174276
 20
85.4382877021
 10
168.8267577551
 20
85.4146313528
 10
168.8217538249
 20
85.3917217429
 10
168.8162419097
 20
85.3695156325
 10
168.8102585325
 20
85.3479766871
 10
168.8038412188
 20
85.3270961943
 10
168.7970277448
 20
85.3068723476
 10
168.7898558865
 20
85.2873033399
 10
168.7823627707
 20
85.2683867803
 10
168.7745829265
 20
85.25011794
 10
168.7665502338
 20
85.2324915058
 10
168.7582985725
 20
85.2155021646
 10
168.7470079391
 20
85.1938260752
 10
168.7354304179
 20
85.1732276468
 10
168.7236081683
 20
85.1536613763
 10
168.7115823917
 20
85.1350859091
 10
168.6993904587
 20
85.1174764852
 10
168.6870687822
 20
85.1008124933
 10
168.6746546016
 20
85.0850663054
 10
168.6621884607
 20
85.0701822254
 10
168.6497117298
 20
85.0560975408
 10
168.6372668976
 20
85.0427513708
 10
168.6249009267
 20
85.0300901631
 10
168.6126618978
 20
85.0180621977
 10
168.6005933894
 20
85.0066169667
 10
168.5887209702
 20
84.9957088108
 10
168.577065706
 20
84.9852932835
 10
168.5600209552
 20
84.9704973851
 10
168.5435173463
 20
84.9565734887
 10
168.5276028243
 20
84.9434476207
 10
168.5198080171
 20
84.937202976
 10
168.5120079653
 20
84.9312025646
 10
168.5041150055
 20
84.9254930893
 10
168.4961501332
 20
84.9201856675
 10
168.488156051
 20
84.915396926
 10
168.4801536288
 20
84.9112011142
 10
168.4721501011
 20
84.9076552442
 10
168.4641199911
 20
84.9047897558
 10
168.4560385559
 20
84.9026294189
 10
168.4479166987
 20
84.901202896
  0
LWPOLYLINE
  5
2C8
100
AcDbEntity
  8
SCRITTE
100
AcDbPolyline
 62
253
  6
CONTINUOUS
 90
41
 70
0
 10
168.4479166987
 20
84.8846590872
 10
168.4572336071
 20
84.8807688863
 10
168.4664951737
 20
84.8765466355
 10
168.4757066677
 20
84.8719843082
 10
168.484873358
 20
84.8670738782
 10
168.4940000037
 20
84.8618067036
 10
168.5030893251
 20
84.8561716808
 10
168.5121435323
 20
84.850157091
 10
168.5211648358
 20
84.8437512152
 10
168.5301518434
 20
84.8369456978
 10
168.5390887538
 20
84.8297456369
 10
168.5479561631
 20
84.822159494
 10
168.5567346676
 20
84.8141957305
 10
168.5654060291
 20
84.8058642722
 10
168.5739566713
 20
84.7971809011
 10
168.5823741837
 20
84.7881628637
 10
168.5906461557
 20
84.7788274064
 10
168.5987635197
 20
84.7691881007
 10
168.6067305804
 20
84.7592438183
 10
168.6145549854
 20
84.7489897563
 10
168.6222443824
 20
84.7384211115
 10
168.6298045772
 20
84.7275353331
 10
168.6372340082
 20
84.7163388787
 10
168.6445292717
 20
84.7048404578
 10
168.6516869642
 20
84.6930487803
 10
168.6596953679
 20
84.6792235083
 10
168.6675205856
 20
84.6650326719
 10
168.6751635614
 20
84.6504823597
 10
168.6826252395
 20
84.6355786605
 10
168.6899065638
 20
84.6203276631
 10
168.6970084784
 20
84.6047354561
 10
168.7039319275
 20
84.5888081284
 10
168.7117848769
 20
84.5698117098
 10
168.7193970585
 20
84.5503824883
 10
168.726769331
 20
84.53053551
 10
168.7339025531
 20
84.5102858212
 10
168.7407975835
 20
84.4896484679
 10
168.7474552809
 20
84.4686384964
 10
168.7538872776
 20
84.4472704299
 10
168.7601483009
 20
84.4255566993
 10
168.7663038518
 20
84.4035092127
  0
LWPOLYLINE
  5
2C9
100
AcDbEntity
  8
RACCORDO
100
AcDbPolyline
 62
253
  6
CONTINUOUS
 90
16
 70
0
 10
129.258088165
 20
90.5892522778
 10
129.2984283659
 20
90.589848046
 10
129.3375914511
 20
90.5906068674
 10
129.3752989166
 20
90.5915233457
 10
129.4112826093
 20
90.5925909634
 10
129.4452866349
 20
90.5938021284
 10
129.4770691772
 20
90.5951482274
 10
129.5064042179
 20
90.596619688
 10
129.5330831438
 20
90.5982060459
 10
129.5569162304
 20
90.5998960199
 10
129.5777339911
 20
90.6016775919
 10
129.5953883825
 20
90.6035380925
 10
129.6097538573
 20
90.6054642909
 10
129.6207282567
 20
90.6074424891
 10
129.6282335375
 20
90.6094586194
 10
129.6322163266
 20
90.6114983443
  0
LWPOLYLINE
  5
2CA
100
AcDbEntity
  8
ASSI
100
AcDbPolyline
 62
253
  6
CONTINUOUS
 90
16
 70
0
 10
129.258088165
 20
90.5892522778
 10
129.2984283659
 20
90.589848046
 10
129.3375914511
 20
90.5906068674
 10
129.3752989166
 20
90.5915233457
 10
129.4112826093
 20
90.5925909634
 10
129.4452866349
 20
90.5938021284
 10
129.4770691772
 20
90.5951482274
 10
129.5064042179
 20
90.596619688
 10
129.5330831438
 20
90.5982060459
 10
129.5569162304
 20
90.5998960199
 10
129.5777339911
 20
90.6016775919
 10
129.5953883825
 20
90.6035380925
 10
129.6097538573
 20
90.6054642909
 10
129.6207282567
 20
90.6074424891
 10
129.6282335375
 20
90.6094586194
 10
129.6322163266
 20
90.6114983443
  0
LWPOLYLINE
  5
2CB
100
AcDbEntity
  8
RACCORDO
100
AcDbPolyline
 62
253
  6
CONTINUOUS
 90
3
 70
0
 10
129.132903191
 20
90.5884796898
 10
129.1750302486
 20
90.5885656583
 10
129.258088165
 20
90.5892522778
  0
LWPOLYLINE
  5
2CC
100
AcDbEntity
  8
ASSI
100
AcDbPolyline
 62
253
  6
CONTINUOUS
 90
3
 70
0
 10
129.132903191
 20
90.5884796898
 10
129.1750302486
 20
90.5885656583
 10
129.258088165
 20
90.5892522778
  0
LINE
  5
2CD
100
AcDbEntity
  8
RACCORDO
100
AcDbLine
 62
253
  6
CONTINUOUS
 10
102.8044331921
 20
89.9763502741
 11
102.6254135338
 21
89.9763502741
  0
LINE
  5
2CE
100
AcDbEntity
  8
ASSI
100
AcDbLine
 62
253
  6
CONTINUOUS
 10
102.8044331921
 20
89.9763502741
 11
102.6254135338
 21
89.9763502741
  0
LINE
  5
2CF
100
AcDbEntity
  8
RACCORDO
100
AcDbLine
 62
253
  6
CONTINUOUS
 10
224.4463938756
 20
89.9763502741
 11
224.6254135338
 21
89.9763502741
  0
LINE
  5
2D0
100
AcDbEntity
  8
ASSI
100
AcDbLine
 62
253
  6
CONTINUOUS
 10
224.4463938756
 20
89.9763502741
 11
224.6254135338
 21
89.9763502741
  0
LWPOLYLINE
  5
2D1
100
AcDbEntity
  8
RACCORDO
100
AcDbPolyline
 62
253
  6
CONTINUOUS
 90
18
 70
0
 10
198.1179238767
 20
90.5884798015
 10
198.0339691648
 20
90.5888238847
 10
197.992738607
 20
90.5892523508
 10
197.9523982758
 20
90.5898481078
 10
197.9132350496
 20
90.5906069189
 10
197.8755274361
 20
90.5915233879
 10
197.8395435914
 20
90.5925909973
 10
197.8055394131
 20
90.5938021549
 10
197.7737567204
 20
90.5951482475
 10
197.7444215347
 20
90.5966197025
 10
197.7177424718
 20
90.5982060557
 10
197.6939092588
 20
90.5998960258
 10
197.6730913846
 20
90.6016775947
 10
197.6554368946
 20
90.6035380928
 10
197.6410713379
 20
90.6054642892
 10
197.6300968747
 20
90.6074424859
 10
197.6225915493
 20
90.6094586151
 10
197.6186087356
 20
90.6114983391
  0
LWPOLYLINE
  5
2D2
100
AcDbEntity
  8
ASSI
100
AcDbPolyline
 62
253
  6
CONTINUOUS
 90
18
 70
0
 10
198.1179238767
 20
90.5884798015
 10
198.0339691648
 20
90.5888238847
 10
197.992738607
 20
90.5892523508
 10
197.9523982758
 20
90.5898481078
 10
197.9132350496
 20
90.5906069189
 10
197.8755274361
 20
90.5915233879
 10
197.8395435914
 20
90.5925909973
 10
197.8055394131
 20
90.5938021549
 10
197.7737567204
 20
90.5951482475
 10
197.7444215347
 20
90.5966197025
 10
197.7177424718
 20
90.5982060557
 10
197.6939092588
 20
90.5998960258
 10
197.6730913846
 20
90.6016775947
 10
197.6554368946
 20
90.6035380928
 10
197.6410713379
 20
90.6054642892
 10
197.6300968747
 20
90.6074424859
 10
197.6225915493
 20
90.6094586151
 10
197.6186087356
 20
90.6114983391
  0
LINE
  5
2D3
100
AcDbEntity
  8
RACCORDO
100
AcDbLine
 62
253
  6
CONTINUOUS
 10
102.807168087
 20
68.6368711753
 11
102.6254139273
 21
68.4520624232
  0
LINE
  5
2D4
100
AcDbEntity
  8
ASSI
100
AcDbLine
 62
253
  6
CONTINUOUS
 10
102.807168087
 20
68.6368711753
 11
102.6254139273
 21
68.4520624232
  0
LINE
  5
2D5
100
AcDbEntity
  8
RACCORDO
100
AcDbLine
 62
253
  6
CONTINUOUS
 10
103.7954631569
 20
67.6486376203
 11
103.6054944342
 21
67.455583524
  0
LINE
  5
2D6
100
AcDbEntity
  8
ASSI
100
AcDbLine
 62
253
  6
CONTINUOUS
 10
103.7954631569
 20
67.6486376203
 11
103.6054944342
 21
67.455583524
  0
LINE
  5
2D7
100
AcDbEntity
  8
RACCORDO
100
AcDbLine
 62
253
  6
CONTINUOUS
 10
103.7954631569
 20
157.2625294277
 11
103.6054944342
 21
157.455583524
  0
LINE
  5
2D8
100
AcDbEntity
  8
ASSI
100
AcDbLine
 62
253
  6
CONTINUOUS
 10
103.7954631569
 20
157.2625294277
 11
103.6054944342
 21
157.455583524
  0
LINE
  5
2D9
100
AcDbEntity
  8
RACCORDO
100
AcDbLine
 62
253
  6
CONTINUOUS
 10
102.807168087
 20
156.2742958733
 11
102.6254139273
 21
156.4591046249
  0
LINE
  5
2DA
100
AcDbEntity
  8
ASSI
100
AcDbLine
 62
253
  6
CONTINUOUS
 10
102.807168087
 20
156.2742958733
 11
102.6254139273
 21
156.4591046249
  0
LINE
  5
2DB
100
AcDbEntity
  8
SCRITTE
100
AcDbLine
 62
253
  6
CONTINUOUS
 10
158.1217455338
 20
86.377485524
 11
159.0093065338
 21
83.577782524
  0
LINE
  5
2DC
100
AcDbEntity
  8
SCRITTE
100
AcDbLine
 62
253
  6
CONTINUOUS
 10
159.2902675338
 20
84.450363524
 11
158.7565935338
 21
86.377485524
  0
LINE
  5
2DD
100
AcDbEntity
  8
RACCORDO
100
AcDbLine
 62
253
  6
CONTINUOUS
 10
129.6322163109
 20
90.6114734223
 11
129.7254135076
 21
90.70444937
  0
LINE
  5
2DE
100
AcDbEntity
  8
ASSI
100
AcDbLine
 62
253
  6
CONTINUOUS
 10
129.6322163109
 20
90.6114734223
 11
129.7254135076
 21
90.70444937
  0
LINE
  5
2DF
100
AcDbEntity
  8
RACCORDO
100
AcDbLine
 62
253
  6
CONTINUOUS
 10
130.4345646037
 20
89.813989059
 11
130.5263938896
 21
89.905583524
  0
LINE
  5
2E0
100
AcDbEntity
  8
ASSI
100
AcDbLine
 62
253
  6
CONTINUOUS
 10
130.4345646037
 20
89.813989059
 11
130.5263938896
 21
89.905583524
  0
LINE
  5
2E1
100
AcDbEntity
  8
RACCORDO
100
AcDbLine
 62
253
  6
CONTINUOUS
 10
130.4345347829
 20
135.097177989
 11
130.5263938896
 21
135.005583524
  0
LINE
  5
2E2
100
AcDbEntity
  8
ASSI
100
AcDbLine
 62
253
  6
CONTINUOUS
 10
130.4345347829
 20
135.097177989
 11
130.5263938896
 21
135.005583524
  0
LINE
  5
2E3
100
AcDbEntity
  8
RACCORDO
100
AcDbLine
 62
253
  6
CONTINUOUS
 10
129.6322163186
 20
134.2996817405
 11
129.7254135076
 21
134.2067176781
  0
LINE
  5
2E4
100
AcDbEntity
  8
ASSI
100
AcDbLine
 62
253
  6
CONTINUOUS
 10
129.6322163186
 20
134.2996817405
 11
129.7254135076
 21
134.2067176781
  0
LWPOLYLINE
  5
2E5
100
AcDbEntity
  8
SCRITTE
100
AcDbPolyline
 62
253
  6
CONTINUOUS
 90
47
 70
0
 10
168.1667936502
 20
84.4269790337
 10
168.1628619162
 20
84.4370728114
 10
168.1587532759
 20
84.4469253077
 10
168.1544768376
 20
84.4565389682
 10
168.15004171
 20
84.4659162381
 10
168.1454570016
 20
84.4750595628
 10
168.140731821
 20
84.4839713878
 10
168.1358752767
 20
84.4926541584
 10
168.1308964772
 20
84.50111032
 10
168.1258045312
 20
84.5093423179
 10
168.1206085472
 20
84.5173525977
 10
168.114722275
 20
84.5259960429
 10
168.1087192085
 20
84.5343733359
 10
168.1025997507
 20
84.5424890318
 10
168.096364304
 20
84.5503476856
 10
168.0900132714
 20
84.5579538522
 10
168.0835470553
 20
84.5653120869
 10
168.0769660586
 20
84.5724269445
 10
168.070270684
 20
84.5793029801
 10
168.0634613341
 20
84.5859447488
 10
168.0565386164
 20
84.5923554437
 10
168.0495039573
 20
84.5985328101
 10
168.0423589879
 20
84.6044732314
 10
168.0351053393
 20
84.6101730911
 10
168.0277446427
 20
84.6156287725
 10
168.0202785292
 20
84.6208366591
 10
168.0127086298
 20
84.6257931343
 10
168.0050365758
 20
84.6304945815
 10
167.9972639982
 20
84.6349373841
 10
167.9893923371
 20
84.6391192602
 10
167.9814222685
 20
84.6430432667
 10
167.9733542772
 20
84.6467137952
 10
167.965188848
 20
84.6501352372
 10
167.9569264658
 20
84.6533119843
 10
167.9485676155
 20
84.656248428
 10
167.9401127819
 20
84.6589489599
 10
167.9315624499
 20
84.6614179716
 10
167.9229171043
 20
84.6636598547
 10
167.9141771218
 20
84.6656777537
 10
167.9053424462
 20
84.6674698255
 10
167.896412913
 20
84.66903298
 10
167.8873883578
 20
84.6703641272
 10
167.8782686161
 20
84.6714601769
 10
167.8690535236
 20
84.672318039
 10
167.8597429157
 20
84.6729346236
 10
167.850336628
 20
84.6733068403
 10
167.8408344961
 20
84.6734315993
  0
LINE
  5
2E6
100
AcDbEntity
  8
SCRITTE
100
AcDbLine
 62
253
  6
CONTINUOUS
 10
162.2253455338
 20
85.405936524
 11
162.9109265338
 21
83.577782524
  0
LINE
  5
2E7
100
AcDbEntity
  8
SCRITTE
100
AcDbLine
 62
253
  6
CONTINUOUS
 10
162.9550995338
 20
84.823081524
 11
162.3768635338
 21
86.377485524
  0
LINE
  5
2E8
100
AcDbEntity
  8
SCRITTE
100
AcDbLine
 62
253
  6
CONTINUOUS
 10
166.7738215338
 20
83.577782524
 11
165.9148035338
 21
86.377485524
  0
LINE
  5
2E9
100
AcDbEntity
  8
SCRITTE
100
AcDbLine
 62
253
  6
CONTINUOUS
 10
166.0064875338
 20
84.136702524
 11
166.1578795338
 21
83.577782524
  0
LINE
  5
2EA
100
AcDbEntity
  8
SCRITTE
100
AcDbLine
 62
253
  6
CONTINUOUS
 10
164.3795255338
 20
83.577782524
 11
164.1177215338
 21
86.377485524
  0
LINE
  5
2EB
100
AcDbEntity
  8
SCRITTE
100
AcDbLine
 62
253
  6
CONTINUOUS
 10
163.6877505338
 20
85.398314524
 11
163.8078195338
 21
83.577782524
  0
LINE
  5
2EC
100
AcDbEntity
  8
SCRITTE
100
AcDbLine
 62
253
  6
CONTINUOUS
 10
160.6411285338
 20
83.577782524
 11
160.6411285338
 21
86.3776534256
  0
LINE
  5
2ED
100
AcDbEntity
  8
SCRITTE
100
AcDbLine
 62
253
  6
CONTINUOUS
 10
161.2255365338
 20
86.377653524
 11
161.2255365338
 21
83.5777826224
  0
LINE
  5
2EE
100
AcDbEntity
  8
SCRITTE
100
AcDbLine
 62
253
  6
CONTINUOUS
 10
162.0992305338
 20
83.577782524
 11
162.2253455338
 21
85.405936524
  0
LINE
  5
2EF
100
AcDbEntity
  8
SCRITTE
100
AcDbLine
 62
253
  6
CONTINUOUS
 10
161.7929385338
 20
86.377485524
 11
161.5401415338
 21
83.577782524
  0
LWPOLYLINE
  5
2F0
100
AcDbEntity
  8
RACCORDO
100
AcDbPolyline
 62
253
  6
CONTINUOUS
 90
13
 70
0
 10
129.5633522083
 20
89.9921694529
 10
129.5930677155
 20
90.0137761854
 10
129.6211290765
 20
90.0343918682
 10
129.6473346057
 20
90.0538683301
 10
129.671495956
 20
90.0720655877
 10
129.6934394722
 20
90.0888528519
 10
129.7130074397
 20
90.1041094675
 10
129.7300592173
 20
90.1177257804
 10
129.7444722488
 20
90.129603926
 10
129.7561429432
 20
90.1396585326
 10
129.7649874197
 20
90.1478173345
 10
129.7709421103
 20
90.1540216919
 10
129.7739642169
 20
90.1582270123
  0
LWPOLYLINE
  5
2F1
100
AcDbEntity
  8
ASSI
100
AcDbPolyline
 62
253
  6
CONTINUOUS
 90
13
 70
0
 10
129.5633522083
 20
89.9921694529
 10
129.5930677155
 20
90.0137761854
 10
129.6211290765
 20
90.0343918682
 10
129.6473346057
 20
90.0538683301
 10
129.671495956
 20
90.0720655877
 10
129.6934394722
 20
90.0888528519
 10
129.7130074397
 20
90.1041094675
 10
129.7300592173
 20
90.1177257804
 10
129.7444722488
 20
90.129603926
 10
129.7561429432
 20
90.1396585326
 10
129.7649874197
 20
90.1478173345
 10
129.7709421103
 20
90.1540216919
 10
129.7739642169
 20
90.1582270123
  0
LINE
  5
2F2
100
AcDbEntity
  8
RACCORDO
100
AcDbLine
 62
253
  6
CONTINUOUS
 10
129.4998234072
 20
89.9466100225
 11
129.5633522083
 21
89.9921694529
  0
LINE
  5
2F3
100
AcDbEntity
  8
ASSI
100
AcDbLine
 62
253
  6
CONTINUOUS
 10
129.4998234072
 20
89.9466100225
 11
129.5633522083
 21
89.9921694529
  0
LINE
  5
2F4
100
AcDbEntity
  8
RACCORDO
100
AcDbLine
 62
253
  6
CONTINUOUS
 10
129.4323657955
 20
89.8990210218
 11
129.4998234072
 21
89.9466100225
  0
LINE
  5
2F5
100
AcDbEntity
  8
ASSI
100
AcDbLine
 62
253
  6
CONTINUOUS
 10
129.4323657955
 20
89.8990210218
 11
129.4998234072
 21
89.9466100225
  0
LINE
  5
2F6
100
AcDbEntity
  8
RACCORDO
100
AcDbLine
 62
253
  6
CONTINUOUS
 10
129.3629152427
 20
89.8507681394
 11
129.4323657955
 21
89.8990210218
  0
LINE
  5
2F7
100
AcDbEntity
  8
ASSI
100
AcDbLine
 62
253
  6
CONTINUOUS
 10
129.3629152427
 20
89.8507681394
 11
129.4323657955
 21
89.8990210218
  0
LINE
  5
2F8
100
AcDbEntity
  8
RACCORDO
100
AcDbLine
 62
253
  6
CONTINUOUS
 10
129.3629152426
 20
135.0603988899
 11
129.4323658135
 21
135.0121459925
  0
LINE
  5
2F9
100
AcDbEntity
  8
ASSI
100
AcDbLine
 62
253
  6
CONTINUOUS
 10
129.3629152426
 20
135.0603988899
 11
129.4323658135
 21
135.0121459925
  0
LINE
  5
2FA
100
AcDbEntity
  8
RACCORDO
100
AcDbLine
 62
253
  6
CONTINUOUS
 10
129.4323658135
 20
135.0121459925
 11
129.499823454
 21
134.964556971
  0
LINE
  5
2FB
100
AcDbEntity
  8
ASSI
100
AcDbLine
 62
253
  6
CONTINUOUS
 10
129.4323658135
 20
135.0121459925
 11
129.499823454
 21
134.964556971
  0
LWPOLYLINE
  5
2FC
100
AcDbEntity
  8
RACCORDO
100
AcDbPolyline
 62
253
  6
CONTINUOUS
 90
14
 70
0
 10
129.499823454
 20
134.964556971
 10
129.5633522912
 20
134.9189975162
 10
129.5930678181
 20
134.8973907709
 10
129.6211291993
 20
134.8767750752
 10
129.6473347489
 20
134.8572986005
 10
129.6714961192
 20
134.8391013306
 10
129.6934396549
 20
134.8223140548
 10
129.7130076407
 20
134.8070574285
 10
129.7300594354
 20
134.793441106
 10
129.7444724823
 20
134.781562952
 10
129.7561431902
 20
134.7715083385
 10
129.7649876781
 20
134.7633495311
 10
129.7709423778
 20
134.7571451698
 10
129.7739644909
 20
134.7529398472
  0
LWPOLYLINE
  5
2FD
100
AcDbEntity
  8
ASSI
100
AcDbPolyline
 62
253
  6
CONTINUOUS
 90
14
 70
0
 10
129.499823454
 20
134.964556971
 10
129.5633522912
 20
134.9189975162
 10
129.5930678181
 20
134.8973907709
 10
129.6211291993
 20
134.8767750752
 10
129.6473347489
 20
134.8572986005
 10
129.6714961192
 20
134.8391013306
 10
129.6934396549
 20
134.8223140548
 10
129.7130076407
 20
134.8070574285
 10
129.7300594354
 20
134.793441106
 10
129.7444724823
 20
134.781562952
 10
129.7561431902
 20
134.7715083385
 10
129.7649876781
 20
134.7633495311
 10
129.7709423778
 20
134.7571451698
 10
129.7739644909
 20
134.7529398472
  0
LWPOLYLINE
  5
2FE
100
AcDbEntity
  8
SCRITTE
100
AcDbPolyline
 62
253
  6
CONTINUOUS
 90
8
 70
0
 10
168.2529868769
 20
84.1636498936
 10
168.2414058851
 20
84.2026802005
 10
168.2296548118
 20
84.2412635473
 10
168.217690501
 20
84.2793823822
 10
168.2054697966
 20
84.3170191529
 10
168.1929495428
 20
84.3541563074
 10
168.1800865834
 20
84.3907762936
 10
168.1668377625
 20
84.4268615595
  0
LINE
  5
2FF
100
AcDbEntity
  8
SCRITTE
100
AcDbLine
 62
253
  6
CONTINUOUS
 10
168.4075215089
 20
83.6293481882
 11
168.3343221971
 21
83.8794546769
  0
LINE
  5
300
100
AcDbEntity
  8
SCRITTE
100
AcDbLine
 62
253
  6
CONTINUOUS
 10
168.4224291557
 20
83.5777821697
 11
168.4075215089
 21
83.6293481882
  0
LWPOLYLINE
  5
301
100
AcDbEntity
  8
SCRITTE
100
AcDbPolyline
 62
253
  6
CONTINUOUS
 90
4
 70
0
 10
168.3343221971
 20
83.8794546769
 10
168.29302482
 20
84.0237958536
 10
168.2796556043
 20
84.0709450572
 10
168.2529868769
 20
84.1636498936
  0
LINE
  5
302
100
AcDbEntity
  8
SCRITTE
100
AcDbLine
 62
253
  6
CONTINUOUS
 10
168.7663038518
 20
84.4035092127
 11
168.8198838687
 21
84.2051380428
  0
LINE
  5
303
100
AcDbEntity
  8
SCRITTE
100
AcDbLine
 62
253
  6
CONTINUOUS
 10
168.9520438797
 20
83.6998290188
 11
168.9845617458
 21
83.5777821697
  0
LINE
  5
304
100
AcDbEntity
  8
SCRITTE
100
AcDbLine
 62
253
  6
CONTINUOUS
 10
168.8198838687
 20
84.2051380428
 11
168.8871557957
 21
83.9492070463
  0
LINE
  5
305
100
AcDbEntity
  8
SCRITTE
100
AcDbLine
 62
253
  6
CONTINUOUS
 10
168.8871557957
 20
83.9492070463
 11
168.9520438797
 21
83.6998290188
  0
LINE
  5
306
100
AcDbEntity
  8
SCRITTE
100
AcDbLine
 62
253
  6
CONTINUOUS
 10
165.6211505338
 20
85.608198524
 11
165.8896935338
 21
84.569192524
  0
LWPOLYLINE
  5
307
100
AcDbEntity
  8
SCRITTE
100
AcDbPolyline
 62
253
  6
CONTINUOUS
 90
49
 70
0
 10
168.2960668319
 20
85.5667209527
 10
168.2957290534
 20
85.5776500724
 10
168.295042361
 20
85.5885116196
 10
168.2940129221
 20
85.5993096834
 10
168.2926469039
 20
85.6100483529
 10
168.2909504738
 20
85.6207317174
 10
168.2889297991
 20
85.6313638658
 10
168.2865905612
 20
85.6419462244
 10
168.2839364974
 20
85.6524695675
 10
168.280970859
 20
85.6629220062
 10
168.2776968973
 20
85.673291652
 10
168.2741178637
 20
85.6835666159
 10
168.2702370096
 20
85.6937350094
 10
168.2660575365
 20
85.7037851904
 10
168.2615824474
 20
85.7137065041
 10
168.2568146957
 20
85.7234885423
 10
168.2517572346
 20
85.733120897
 10
168.2464130173
 20
85.7425931599
 10
168.2407849973
 20
85.7518949229
 10
168.2348758324
 20
85.7610155667
 10
168.2286869992
 20
85.7699436266
 10
168.2222196791
 20
85.7786674267
 10
168.2154750534
 20
85.787175291
 10
168.2084543034
 20
85.7954555438
 10
168.2011586103
 20
85.8034965089
 10
168.1935908122
 20
85.811288045
 10
168.1857603732
 20
85.8188261478
 10
168.1776784146
 20
85.8261083475
 10
168.1693560572
 20
85.8331321744
 10
168.160804422
 20
85.8398951585
 10
168.1520346301
 20
85.8463948303
 10
168.1430573489
 20
85.8526290701
 10
168.133881432
 20
85.8585971605
 10
168.1245152795
 20
85.8642987343
 10
168.1149672915
 20
85.8697334243
 10
168.105245868
 20
85.8749008634
 10
168.0953594092
 20
85.8798006843
 10
168.0853159274
 20
85.8844322703
 10
168.0751218841
 20
85.8887940058
 10
168.064783353
 20
85.8928840256
 10
168.054306408
 20
85.8967004647
 10
168.0436971227
 20
85.9002414577
 10
168.032961571
 20
85.9035051395
 10
168.0221043463
 20
85.9064889653
 10
168.0111241215
 20
85.9091876711
 10
168.0000180889
 20
85.9115953134
 10
167.9887834411
 20
85.9137059486
 10
167.9774173707
 20
85.9155136331
 10
167.9659170701
 20
85.9170124234
  0
LINE
  5
308
100
AcDbEntity
  8
SCRITTE
100
AcDbLine
 62
253
  6
CONTINUOUS
 10
166.9454323361
 20
83.5777821697
 11
166.9454323361
 21
86.3447762913
  0
LINE
  5
309
100
AcDbEntity
  8
SCRITTE
100
AcDbLine
 62
253
  6
CONTINUOUS
 10
167.5081107879
 20
85.9005287281
 11
167.5081107879
 21
85.1319554211
  0
LINE
  5
30A
100
AcDbEntity
  8
SCRITTE
100
AcDbLine
 62
253
  6
CONTINUOUS
 10
167.5274888787
 20
84.6734315993
 11
167.5274888787
 21
83.5777821377
  0
LINE
  5
30B
100
AcDbEntity
  8
SCRITTE
100
AcDbLine
 62
253
  6
CONTINUOUS
 10
168.4479166987
 20
84.901202896
 11
168.4479166987
 21
84.8846590867
  0
LINE
  5
30C
100
AcDbEntity
  8
SCRITTE
100
AcDbLine
 62
253
  6
CONTINUOUS
 10
159.8402445338
 20
86.377485524
 11
159.2902675338
 21
84.450363524
  0
LINE
  5
30D
100
AcDbEntity
  8
SCRITTE
100
AcDbLine
 62
253
  6
CONTINUOUS
 10
159.5243165338
 20
83.577782524
 11
160.4242535338
 21
86.377485524
  0
LWPOLYLINE
  5
30E
100
AcDbEntity
  8
RACCORDO
100
AcDbPolyline
 62
253
  6
CONTINUOUS
 90
13
 70
0
 10
197.6874748051
 20
134.9189975523
 10
197.6577592864
 20
134.8973908127
 10
197.6296979138
 20
134.8767751227
 10
197.6034923732
 20
134.8572986536
 10
197.5793310119
 20
134.839101389
 10
197.5573874854
 20
134.8223141182
 10
197.5378195084
 20
134.8070574966
 10
197.5207677223
 20
134.7934411783
 10
197.5063546835
 20
134.7815630279
 10
197.494683983
 20
134.7715084175
 10
197.4858395018
 20
134.7633496127
 10
197.479884808
 20
134.7571452533
 10
197.4768626999
 20
134.752939932
  0
LWPOLYLINE
  5
30F
100
AcDbEntity
  8
ASSI
100
AcDbPolyline
 62
253
  6
CONTINUOUS
 90
13
 70
0
 10
197.6874748051
 20
134.9189975523
 10
197.6577592864
 20
134.8973908127
 10
197.6296979138
 20
134.8767751227
 10
197.6034923732
 20
134.8572986536
 10
197.5793310119
 20
134.839101389
 10
197.5573874854
 20
134.8223141182
 10
197.5378195084
 20
134.8070574966
 10
197.5207677223
 20
134.7934411783
 10
197.5063546835
 20
134.7815630279
 10
197.494683983
 20
134.7715084175
 10
197.4858395018
 20
134.7633496127
 10
197.479884808
 20
134.7571452533
 10
197.4768626999
 20
134.752939932
  0
LINE
  5
310
100
AcDbEntity
  8
RACCORDO
100
AcDbLine
 62
253
  6
CONTINUOUS
 10
197.7510036281
 20
134.964556996
 11
197.6874748051
 21
134.9189975523
  0
LINE
  5
311
100
AcDbEntity
  8
ASSI
100
AcDbLine
 62
253
  6
CONTINUOUS
 10
197.7510036281
 20
134.964556996
 11
197.6874748051
 21
134.9189975523
  0
LINE
  5
312
100
AcDbEntity
  8
RACCORDO
100
AcDbLine
 62
253
  6
CONTINUOUS
 10
197.8184612586
 20
135.0121460076
 11
197.7510036281
 21
134.964556996
  0
LINE
  5
313
100
AcDbEntity
  8
ASSI
100
AcDbLine
 62
253
  6
CONTINUOUS
 10
197.8184612586
 20
135.0121460076
 11
197.7510036281
 21
134.964556996
  0
LINE
  5
314
100
AcDbEntity
  8
RACCORDO
100
AcDbLine
 62
253
  6
CONTINUOUS
 10
197.887911825
 20
135.0603988971
 11
197.8184612586
 21
135.0121460076
  0
LINE
  5
315
100
AcDbEntity
  8
ASSI
100
AcDbLine
 62
253
  6
CONTINUOUS
 10
197.887911825
 20
135.0603988971
 11
197.8184612586
 21
135.0121460076
  0
LINE
  5
316
100
AcDbEntity
  8
RACCORDO
100
AcDbLine
 62
253
  6
CONTINUOUS
 10
197.887911825
 20
89.8507681719
 11
197.8184612387
 21
89.8990210777
  0
LINE
  5
317
100
AcDbEntity
  8
ASSI
100
AcDbLine
 62
253
  6
CONTINUOUS
 10
197.887911825
 20
89.8507681719
 11
197.8184612387
 21
89.8990210777
  0
LINE
  5
318
100
AcDbEntity
  8
RACCORDO
100
AcDbLine
 62
253
  6
CONTINUOUS
 10
197.8184612387
 20
89.8990210777
 11
197.7510035764
 21
89.946610112
  0
LINE
  5
319
100
AcDbEntity
  8
ASSI
100
AcDbLine
 62
253
  6
CONTINUOUS
 10
197.8184612387
 20
89.8990210777
 11
197.7510035764
 21
89.946610112
  0
LWPOLYLINE
  5
31A
100
AcDbEntity
  8
RACCORDO
100
AcDbPolyline
 62
253
  6
CONTINUOUS
 90
14
 70
0
 10
197.7510035764
 20
89.946610112
 10
197.6874747137
 20
89.9921695825
 10
197.6577591733
 20
90.0137763362
 10
197.6296977785
 20
90.0343920405
 10
197.6034922155
 20
90.0538685235
 10
197.5793308322
 20
90.0720658016
 10
197.5573872843
 20
90.0888530852
 10
197.5378192871
 20
90.1041097186
 10
197.5207674822
 20
90.1177260475
 10
197.5063544265
 20
90.1296042071
 10
197.4946837112
 20
90.1396588251
 10
197.4858392176
 20
90.147817636
 10
197.4798845138
 20
90.1540219996
 10
197.4768623984
 20
90.1582273233
  0
LWPOLYLINE
  5
31B
100
AcDbEntity
  8
ASSI
100
AcDbPolyline
 62
253
  6
CONTINUOUS
 90
14
 70
0
 10
197.7510035764
 20
89.946610112
 10
197.6874747137
 20
89.9921695825
 10
197.6577591733
 20
90.0137763362
 10
197.6296977785
 20
90.0343920405
 10
197.6034922155
 20
90.0538685235
 10
197.5793308322
 20
90.0720658016
 10
197.5573872843
 20
90.0888530852
 10
197.5378192871
 20
90.1041097186
 10
197.5207674822
 20
90.1177260475
 10
197.5063544265
 20
90.1296042071
 10
197.4946837112
 20
90.1396588251
 10
197.4858392176
 20
90.147817636
 10
197.4798845138
 20
90.1540219996
 10
197.4768623984
 20
90.1582273233
  0
LINE
  5
31C
100
AcDbEntity
  8
SCRITTE
100
AcDbLine
 62
253
  6
CONTINUOUS
 10
165.3301645338
 20
84.569192524
 11
165.6211505338
 21
85.608198524
  0
LINE
  5
31D
100
AcDbEntity
  8
SCRITTE
100
AcDbLine
 62
253
  6
CONTINUOUS
 10
165.0493605338
 20
83.577782524
 11
165.2106205338
 21
84.136702524
  0
LINE
  5
31E
100
AcDbEntity
  8
SCRITTE
100
AcDbLine
 62
253
  6
CONTINUOUS
 10
165.3494585338
 20
86.377485524
 11
164.4712935338
 21
83.577782524
  0
LINE
  5
31F
100
AcDbEntity
  8
SCRITTE
100
AcDbLine
 62
253
  6
CONTINUOUS
 10
163.5395075338
 20
86.377485524
 11
162.9550995338
 21
84.823081524
  0
LINE
  5
320
100
AcDbEntity
  8
SCRITTE
100
AcDbLine
 62
253
  6
CONTINUOUS
 10
162.9928895338
 20
83.577782524
 11
163.6877505338
 21
85.398314524
  0
LINE
  5
321
100
AcDbEntity
  8
RACCORDO
100
AcDbLine
 62
253
  6
CONTINUOUS
 10
223.4553639107
 20
157.2625294277
 11
223.6453326334
 21
157.455583524
  0
LINE
  5
322
100
AcDbEntity
  8
ASSI
100
AcDbLine
 62
253
  6
CONTINUOUS
 10
223.4553639107
 20
157.2625294277
 11
223.6453326334
 21
157.455583524
  0
LINE
  5
323
100
AcDbEntity
  8
RACCORDO
100
AcDbLine
 62
253
  6
CONTINUOUS
 10
197.6186107573
 20
134.299694485
 11
197.52541356
 21
134.2067176781
  0
LINE
  5
324
100
AcDbEntity
  8
ASSI
100
AcDbLine
 62
253
  6
CONTINUOUS
 10
197.6186107573
 20
134.299694485
 11
197.52541356
 21
134.2067176781
  0
LINE
  5
325
100
AcDbEntity
  8
RACCORDO
100
AcDbLine
 62
253
  6
CONTINUOUS
 10
196.8162630173
 20
135.097177989
 11
196.724433178
 21
135.005583524
  0
LINE
  5
326
100
AcDbEntity
  8
ASSI
100
AcDbLine
 62
253
  6
CONTINUOUS
 10
196.8162630173
 20
135.097177989
 11
196.724433178
 21
135.005583524
  0
LINE
  5
327
100
AcDbEntity
  8
RACCORDO
100
AcDbLine
 62
253
  6
CONTINUOUS
 10
196.8162927449
 20
89.813989059
 11
196.724433178
 21
89.905583524
  0
LINE
  5
328
100
AcDbEntity
  8
ASSI
100
AcDbLine
 62
253
  6
CONTINUOUS
 10
196.8162927449
 20
89.813989059
 11
196.724433178
 21
89.905583524
  0
LINE
  5
329
100
AcDbEntity
  8
RACCORDO
100
AcDbLine
 62
253
  6
CONTINUOUS
 10
197.6186107492
 20
90.6114851597
 11
197.52541356
 21
90.70444937
  0
LINE
  5
32A
100
AcDbEntity
  8
ASSI
100
AcDbLine
 62
253
  6
CONTINUOUS
 10
197.6186107492
 20
90.6114851597
 11
197.52541356
 21
90.70444937
  0
LINE
  5
32B
100
AcDbEntity
  8
RACCORDO
100
AcDbLine
 62
253
  6
CONTINUOUS
 10
223.4553639107
 20
67.6486376203
 11
223.6453326334
 21
67.455583524
  0
LINE
  5
32C
100
AcDbEntity
  8
ASSI
100
AcDbLine
 62
253
  6
CONTINUOUS
 10
223.4553639107
 20
67.6486376203
 11
223.6453326334
 21
67.455583524
  0
LINE
  5
32D
100
AcDbEntity
  8
RACCORDO
100
AcDbLine
 62
253
  6
CONTINUOUS
 10
224.4436589807
 20
156.2742958728
 11
224.6254131403
 21
156.4591046249
  0
LINE
  5
32E
100
AcDbEntity
  8
ASSI
100
AcDbLine
 62
253
  6
CONTINUOUS
 10
224.4436589807
 20
156.2742958728
 11
224.6254131403
 21
156.4591046249
  0
LINE
  5
32F
100
AcDbEntity
  8
RACCORDO
100
AcDbLine
 62
253
  6
CONTINUOUS
 10
224.4436589807
 20
68.6368711748
 11
224.6254131403
 21
68.4520624232
  0
LINE
  5
330
100
AcDbEntity
  8
ASSI
100
AcDbLine
 62
253
  6
CONTINUOUS
 10
224.4436589807
 20
68.6368711748
 11
224.6254131403
 21
68.4520624232
  0
LWPOLYLINE
  5
331
100
AcDbEntity
  8
RACCORDO
100
AcDbPolyline
 62
7
  6
CONTINUOUS
 90
7
 70
0
 10
130.5263938896
 20
135.005583524
 10
130.4750591727
 20
135.0039410282
 10
130.4242473467
 20
134.9990749914
 10
130.3739584116
 20
134.9909853992
 10
130.3241923675
 20
134.9796722279
 10
130.2749492143
 20
134.9651354439
 10
130.226228952
 20
134.9473750048
  0
LWPOLYLINE
  5
332
100
AcDbEntity
  8
ASSI
100
AcDbPolyline
 62
7
  6
CONTINUOUS
 90
7
 70
0
 10
130.5263938896
 20
135.005583524
 10
130.4750591727
 20
135.0039410282
 10
130.4242473467
 20
134.9990749914
 10
130.3739584116
 20
134.9909853992
 10
130.3241923675
 20
134.9796722279
 10
130.2749492143
 20
134.9651354439
 10
130.226228952
 20
134.9473750048
  0
LWPOLYLINE
  5
333
100
AcDbEntity
  8
RACCORDO
100
AcDbPolyline
 62
253
  6
CONTINUOUS
 90
16
 70
0
 10
103.1801629519
 20
134.9568694429
 10
103.1406703232
 20
134.9562842717
 10
103.1022763581
 20
134.9555385029
 10
103.0652416724
 20
134.9546371986
 10
103.029817655
 20
134.9535864769
 10
102.9962447616
 20
134.95239347
 10
102.9647508829
 20
134.9510662759
 10
102.9355497971
 20
134.9496139037
 10
102.9088397192
 20
134.9480462117
 10
102.8848019554
 20
134.9463738416
 10
102.8635996725
 20
134.9446081451
 10
102.84537679
 20
134.9427611077
 10
102.8302570037
 20
134.940845267
 10
102.8183429457
 20
134.9388736276
 10
102.8097154878
 20
134.9368595728
 10
102.8044331925
 20
134.9348167739
  0
LWPOLYLINE
  5
334
100
AcDbEntity
  8
ASSI
100
AcDbPolyline
 62
253
  6
CONTINUOUS
 90
16
 70
0
 10
103.1801629519
 20
134.9568694429
 10
103.1406703232
 20
134.9562842717
 10
103.1022763581
 20
134.9555385029
 10
103.0652416724
 20
134.9546371986
 10
103.029817655
 20
134.9535864769
 10
102.9962447616
 20
134.95239347
 10
102.9647508829
 20
134.9510662759
 10
102.9355497971
 20
134.9496139037
 10
102.9088397192
 20
134.9480462117
 10
102.8848019554
 20
134.9463738416
 10
102.8635996725
 20
134.9446081451
 10
102.84537679
 20
134.9427611077
 10
102.8302570037
 20
134.940845267
 10
102.8183429457
 20
134.9388736276
 10
102.8097154878
 20
134.9368595728
 10
102.8044331925
 20
134.9348167739
  0
LWPOLYLINE
  5
335
100
AcDbEntity
  8
RACCORDO
100
AcDbPolyline
 62
253
  6
CONTINUOUS
 90
16
 70
0
 10
103.1801669997
 20
135.0596420097
 10
103.140674437
 20
135.0590555226
 10
103.102280532
 20
135.0583076672
 10
103.065245899
 20
135.05740352
 10
103.0298219257
 20
135.0563492181
 10
102.9962490667
 20
135.0551519181
 10
102.9647552115
 20
135.0538197472
 10
102.9355541375
 20
135.052361748
 10
102.9088440589
 20
135.0507878172
 10
102.8848062811
 20
135.0491086386
 10
102.8636039704
 20
135.0473356103
 10
102.8453810462
 20
135.0454807674
 10
102.8302612039
 20
135.0435567004
 10
102.8183470756
 20
135.0415764698
 10
102.8097195334
 20
135.0395535171
 10
102.8044371401
 20
135.0375015739
  0
LWPOLYLINE
  5
336
100
AcDbEntity
  8
ASSI
100
AcDbPolyline
 62
253
  6
CONTINUOUS
 90
16
 70
0
 10
103.1801669997
 20
135.0596420097
 10
103.140674437
 20
135.0590555226
 10
103.102280532
 20
135.0583076672
 10
103.065245899
 20
135.05740352
 10
103.0298219257
 20
135.0563492181
 10
102.9962490667
 20
135.0551519181
 10
102.9647552115
 20
135.0538197472
 10
102.9355541375
 20
135.052361748
 10
102.9088440589
 20
135.0507878172
 10
102.8848062811
 20
135.0491086386
 10
102.8636039704
 20
135.0473356103
 10
102.8453810462
 20
135.0454807674
 10
102.8302612039
 20
135.0435567004
 10
102.8183470756
 20
135.0415764698
 10
102.8097195334
 20
135.0395535171
 10
102.8044371401
 20
135.0375015739
  0
LWPOLYLINE
  5
337
100
AcDbEntity
  8
RACCORDO
100
AcDbPolyline
 62
253
  6
CONTINUOUS
 90
16
 70
0
 10
197.9927389026
 20
134.3219147702
 10
197.9523987018
 20
134.321319002
 10
197.9132356165
 20
134.3205601806
 10
197.8755281511
 20
134.3196437024
 10
197.8395444584
 20
134.3185760846
 10
197.8055404328
 20
134.3173649197
 10
197.7737578905
 20
134.3160188206
 10
197.7444228498
 20
134.3145473601
 10
197.7177439239
 20
134.3129610022
 10
197.6939108373
 20
134.3112710282
 10
197.6730930766
 20
134.3094894562
 10
197.6554386851
 20
134.3076289556
 10
197.6410732104
 20
134.3057027572
 10
197.630098811
 20
134.303724559
 10
197.6225935302
 20
134.3017084287
 10
197.6186107411
 20
134.2996687038
  0
LWPOLYLINE
  5
338
100
AcDbEntity
  8
ASSI
100
AcDbPolyline
 62
253
  6
CONTINUOUS
 90
16
 70
0
 10
197.9927389026
 20
134.3219147702
 10
197.9523987018
 20
134.321319002
 10
197.9132356165
 20
134.3205601806
 10
197.8755281511
 20
134.3196437024
 10
197.8395444584
 20
134.3185760846
 10
197.8055404328
 20
134.3173649197
 10
197.7737578905
 20
134.3160188206
 10
197.7444228498
 20
134.3145473601
 10
197.7177439239
 20
134.3129610022
 10
197.6939108373
 20
134.3112710282
 10
197.6730930766
 20
134.3094894562
 10
197.6554386851
 20
134.3076289556
 10
197.6410732104
 20
134.3057027572
 10
197.630098811
 20
134.303724559
 10
197.6225935302
 20
134.3017084287
 10
197.6186107411
 20
134.2996687038
  0
LINE
  5
339
100
AcDbEntity
  8
RACCORDO
100
AcDbLine
 62
253
  6
CONTINUOUS
 10
103.2613701731
 20
135.0603160775
 11
103.1801669997
 21
135.0596420097
  0
LINE
  5
33A
100
AcDbEntity
  8
ASSI
100
AcDbLine
 62
253
  6
CONTINUOUS
 10
103.2613701731
 20
135.0603160775
 11
103.1801669997
 21
135.0596420097
  0
LWPOLYLINE
  5
33B
100
AcDbEntity
  8
RACCORDO
100
AcDbPolyline
 62
253
  6
CONTINUOUS
 90
3
 70
0
 10
198.1179238767
 20
134.3226873582
 10
198.0757968191
 20
134.3226013897
 10
197.9927389026
 20
134.3219147702
  0
LWPOLYLINE
  5
33C
100
AcDbEntity
  8
ASSI
100
AcDbPolyline
 62
253
  6
CONTINUOUS
 90
3
 70
0
 10
198.1179238767
 20
134.3226873582
 10
198.0757968191
 20
134.3226013897
 10
197.9927389026
 20
134.3219147702
  0
LWPOLYLINE
  5
33D
100
AcDbEntity
  8
RACCORDO
100
AcDbPolyline
 62
253
  6
CONTINUOUS
 90
3
 70
0
 10
103.3025257554
 20
134.9576272546
 10
103.2613662694
 20
134.9575432211
 10
103.1801629519
 20
134.9568694429
  0
LWPOLYLINE
  5
33E
100
AcDbEntity
  8
ASSI
100
AcDbPolyline
 62
253
  6
CONTINUOUS
 90
3
 70
0
 10
103.3025257554
 20
134.9576272546
 10
103.2613662694
 20
134.9575432211
 10
103.1801629519
 20
134.9568694429
  0
LINE
  5
33F
100
AcDbEntity
  8
RACCORDO
100
AcDbLine
 62
253
  6
CONTINUOUS
 10
102.8044331921
 20
134.9348167739
 11
102.6254135338
 21
134.9348167739
  0
LINE
  5
340
100
AcDbEntity
  8
ASSI
100
AcDbLine
 62
253
  6
CONTINUOUS
 10
102.8044331921
 20
134.9348167739
 11
102.6254135338
 21
134.9348167739
  0
LINE
  5
341
100
AcDbEntity
  8
RACCORDO
100
AcDbLine
 62
253
  6
CONTINUOUS
 10
224.4463938756
 20
134.9348167739
 11
224.6254135338
 21
134.9348167739
  0
LINE
  5
342
100
AcDbEntity
  8
ASSI
100
AcDbLine
 62
253
  6
CONTINUOUS
 10
224.4463938756
 20
134.9348167739
 11
224.6254135338
 21
134.9348167739
  0
LINE
  5
343
100
AcDbEntity
  8
RACCORDO
100
AcDbLine
 62
7
  6
CONTINUOUS
 10
196.724433178
 20
135.005583524
 11
130.5263938896
 21
135.005583524
  0
LINE
  5
344
100
AcDbEntity
  8
ASSI
100
AcDbLine
 62
7
  6
CONTINUOUS
 10
196.724433178
 20
135.005583524
 11
130.5263938896
 21
135.005583524
  0
LINE
  5
345
100
AcDbEntity
  8
RACCORDO
100
AcDbLine
 62
253
  6
CONTINUOUS
 10
129.3629152426
 20
135.0603990826
 11
103.2613701731
 21
135.0603160775
  0
LINE
  5
346
100
AcDbEntity
  8
ASSI
100
AcDbLine
 62
253
  6
CONTINUOUS
 10
129.3629152426
 20
135.0603990826
 11
103.2613701731
 21
135.0603160775
  0
LINE
  5
347
100
AcDbEntity
  8
RACCORDO
100
AcDbLine
 62
253
  6
CONTINUOUS
 10
130.4345347829
 20
135.097177989
 11
196.8162630173
 21
135.097177989
  0
LINE
  5
348
100
AcDbEntity
  8
ASSI
100
AcDbLine
 62
253
  6
CONTINUOUS
 10
130.4345347829
 20
135.097177989
 11
196.8162630173
 21
135.097177989
  0
LINE
  5
349
100
AcDbEntity
  8
RACCORDO
100
AcDbLine
 62
253
  6
CONTINUOUS
 10
130.4345654939
 20
135.6232832639
 11
196.8162615737
 21
135.6232832639
  0
LINE
  5
34A
100
AcDbEntity
  8
ASSI
100
AcDbLine
 62
253
  6
CONTINUOUS
 10
130.4345654939
 20
135.6232832639
 11
196.8162615737
 21
135.6232832639
  0
LINE
  5
34B
100
AcDbEntity
  8
RACCORDO
100
AcDbLine
 62
253
  6
CONTINUOUS
 10
197.887911825
 20
135.0603990826
 11
223.9894568937
 21
135.0603160767
  0
LINE
  5
34C
100
AcDbEntity
  8
ASSI
100
AcDbLine
 62
253
  6
CONTINUOUS
 10
197.887911825
 20
135.0603990826
 11
223.9894568937
 21
135.0603160767
  0
LWPOLYLINE
  5
34D
100
AcDbEntity
  8
RACCORDO
100
AcDbPolyline
 62
253
  6
CONTINUOUS
 90
18
 70
0
 10
129.132903191
 20
134.3226872414
 10
129.2168579112
 20
134.3223431594
 10
129.2580884743
 20
134.3219146938
 10
129.2984288116
 20
134.3213189374
 10
129.3375920443
 20
134.3205601267
 10
129.3752996647
 20
134.3196436582
 10
129.4112835164
 20
134.3185760492
 10
129.4452877019
 20
134.317364892
 10
129.4770704015
 20
134.3160187996
 10
129.506405594
 20
134.3145473449
 10
129.5330846632
 20
134.3129609919
 10
129.5569178821
 20
134.311271022
 10
129.5777357616
 20
134.3094894532
 10
129.5953902562
 20
134.3076289553
 10
129.6097558167
 20
134.3057027589
 10
129.6207302829
 20
134.3037245623
 10
129.6282356104
 20
134.3017084332
 10
129.6322184253
 20
134.2996687092
  0
LWPOLYLINE
  5
34E
100
AcDbEntity
  8
ASSI
100
AcDbPolyline
 62
253
  6
CONTINUOUS
 90
18
 70
0
 10
129.132903191
 20
134.3226872414
 10
129.2168579112
 20
134.3223431594
 10
129.2580884743
 20
134.3219146938
 10
129.2984288116
 20
134.3213189374
 10
129.3375920443
 20
134.3205601267
 10
129.3752996647
 20
134.3196436582
 10
129.4112835164
 20
134.3185760492
 10
129.4452877019
 20
134.317364892
 10
129.4770704015
 20
134.3160187996
 10
129.506405594
 20
134.3145473449
 10
129.5330846632
 20
134.3129609919
 10
129.5569178821
 20
134.311271022
 10
129.5777357616
 20
134.3094894532
 10
129.5953902562
 20
134.3076289553
 10
129.6097558167
 20
134.3057027589
 10
129.6207302829
 20
134.3037245623
 10
129.6282356104
 20
134.3017084332
 10
129.6322184253
 20
134.2996687092
  0
LWPOLYLINE
  5
34F
100
AcDbEntity
  8
RACCORDO
100
AcDbPolyline
 62
253
  6
CONTINUOUS
 90
18
 70
0
 10
223.9483013122
 20
134.9576272548
 10
224.0303408972
 20
134.9572900447
 10
224.0706641166
 20
134.9568694432
 10
224.1101567456
 20
134.956284272
 10
224.1485507109
 20
134.9555385031
 10
224.1855853968
 20
134.9546371988
 10
224.2210094144
 20
134.9535864771
 10
224.2545823079
 20
134.9523934702
 10
224.2860761868
 20
134.9510662761
 10
224.3152772726
 20
134.9496139038
 10
224.3419873505
 20
134.9480462119
 10
224.3660251142
 20
134.9463738417
 10
224.387227397
 20
134.9446081452
 10
224.4054502793
 20
134.9427611078
 10
224.4205700654
 20
134.9408452671
 10
224.4324841231
 20
134.9388736276
 10
224.4411115807
 20
134.9368595728
 10
224.4463938756
 20
134.9348167739
  0
LWPOLYLINE
  5
350
100
AcDbEntity
  8
ASSI
100
AcDbPolyline
 62
253
  6
CONTINUOUS
 90
18
 70
0
 10
223.9483013122
 20
134.9576272548
 10
224.0303408972
 20
134.9572900447
 10
224.0706641166
 20
134.9568694432
 10
224.1101567456
 20
134.956284272
 10
224.1485507109
 20
134.9555385031
 10
224.1855853968
 20
134.9546371988
 10
224.2210094144
 20
134.9535864771
 10
224.2545823079
 20
134.9523934702
 10
224.2860761868
 20
134.9510662761
 10
224.3152772726
 20
134.9496139038
 10
224.3419873505
 20
134.9480462119
 10
224.3660251142
 20
134.9463738417
 10
224.387227397
 20
134.9446081452
 10
224.4054502793
 20
134.9427611078
 10
224.4205700654
 20
134.9408452671
 10
224.4324841231
 20
134.9388736276
 10
224.4411115807
 20
134.9368595728
 10
224.4463938756
 20
134.9348167739
  0
LWPOLYLINE
  5
351
100
AcDbEntity
  8
RACCORDO
100
AcDbPolyline
 62
253
  6
CONTINUOUS
 90
17
 70
0
 10
223.9894568937
 20
135.0603160767
 10
224.0706600654
 20
135.0596420089
 10
224.1101526274
 20
135.0590555219
 10
224.1485465317
 20
135.0583076665
 10
224.1855811641
 20
135.0574035193
 10
224.2210051369
 20
135.0563492175
 10
224.2545779955
 20
135.0551519176
 10
224.2860718504
 20
135.0538197467
 10
224.3152729243
 20
135.0523617475
 10
224.341983003
 20
135.0507878168
 10
224.3660207809
 20
135.0491086383
 10
224.3872230919
 20
135.04733561
 10
224.4054460167
 20
135.0454807672
 10
224.4205658596
 20
135.0435567003
 10
224.4324799887
 20
135.0415764697
 10
224.441107532
 20
135.039553517
 10
224.4463899264
 20
135.0375015739
  0
LWPOLYLINE
  5
352
100
AcDbEntity
  8
ASSI
100
AcDbPolyline
 62
253
  6
CONTINUOUS
 90
17
 70
0
 10
223.9894568937
 20
135.0603160767
 10
224.0706600654
 20
135.0596420089
 10
224.1101526274
 20
135.0590555219
 10
224.1485465317
 20
135.0583076665
 10
224.1855811641
 20
135.0574035193
 10
224.2210051369
 20
135.0563492175
 10
224.2545779955
 20
135.0551519176
 10
224.2860718504
 20
135.0538197467
 10
224.3152729243
 20
135.0523617475
 10
224.341983003
 20
135.0507878168
 10
224.3660207809
 20
135.0491086383
 10
224.3872230919
 20
135.04733561
 10
224.4054460167
 20
135.0454807672
 10
224.4205658596
 20
135.0435567003
 10
224.4324799887
 20
135.0415764697
 10
224.441107532
 20
135.039553517
 10
224.4463899264
 20
135.0375015739
  0
LWPOLYLINE
  5
353
100
AcDbEntity
  8
RACCORDO
100
AcDbPolyline
 62
253
  6
CONTINUOUS
 90
19
 70
0
 10
196.8162630198
 20
135.0971779915
 10
196.8587013802
 20
135.0961336005
 10
196.9011260617
 20
135.0928444043
 10
196.9434169313
 20
135.0873033732
 10
196.9854242285
 20
135.0795167574
 10
197.0270551958
 20
135.0694868385
 10
197.0682706827
 20
135.0571966432
 10
197.1090356828
 20
135.0426163245
 10
197.1491256709
 20
135.0257849498
 10
197.1882252113
 20
135.0068168515
 10
197.2261766835
 20
134.9857957705
 10
197.2629166273
 20
134.962764538
 10
197.2982936483
 20
134.937823355
 10
197.3321934751
 20
134.911068598
 10
197.3645433496
 20
134.8825743767
 10
197.3952648237
 20
134.8524203162
 10
197.424277684
 20
134.8206960643
 10
197.4515017812
 20
134.7875028183
 10
197.4768654292
 20
134.7529418066
  0
LWPOLYLINE
  5
354
100
AcDbEntity
  8
ASSI
100
AcDbPolyline
 62
253
  6
CONTINUOUS
 90
19
 70
0
 10
196.8162630198
 20
135.0971779915
 10
196.8587013802
 20
135.0961336005
 10
196.9011260617
 20
135.0928444043
 10
196.9434169313
 20
135.0873033732
 10
196.9854242285
 20
135.0795167574
 10
197.0270551958
 20
135.0694868385
 10
197.0682706827
 20
135.0571966432
 10
197.1090356828
 20
135.0426163245
 10
197.1491256709
 20
135.0257849498
 10
197.1882252113
 20
135.0068168515
 10
197.2261766835
 20
134.9857957705
 10
197.2629166273
 20
134.962764538
 10
197.2982936483
 20
134.937823355
 10
197.3321934751
 20
134.911068598
 10
197.3645433496
 20
134.8825743767
 10
197.3952648237
 20
134.8524203162
 10
197.424277684
 20
134.8206960643
 10
197.4515017812
 20
134.7875028183
 10
197.4768654292
 20
134.7529418066
  0
LWPOLYLINE
  5
355
100
AcDbEntity
  8
RACCORDO
100
AcDbPolyline
 62
253
  6
CONTINUOUS
 90
19
 70
0
 10
196.8162615737
 20
135.6232832639
 10
196.8852175867
 20
135.6214929272
 10
196.9538253606
 20
135.6160339501
 10
197.0220848956
 20
135.6069063131
 10
197.0901715899
 20
135.5941133609
 10
197.1579100452
 20
135.5776516721
 10
197.2247740667
 20
135.5575110597
 10
197.2908881166
 20
135.5335897292
 10
197.3561277326
 20
135.5059893201
 10
197.4195933327
 20
135.4750047849
 10
197.4811859008
 20
135.4405958313
 10
197.5410044529
 20
135.4028025446
 10
197.5984464553
 20
135.3620404515
 10
197.6534619534
 20
135.3182831366
 10
197.7061009017
 20
135.2715567864
 10
197.75591063
 20
135.2223558553
 10
197.8027402484
 20
135.1708450979
 10
197.8467406467
 20
135.1168595455
 10
197.887911825
 20
135.0603990826
  0
LWPOLYLINE
  5
356
100
AcDbEntity
  8
ASSI
100
AcDbPolyline
 62
253
  6
CONTINUOUS
 90
19
 70
0
 10
196.8162615737
 20
135.6232832639
 10
196.8852175867
 20
135.6214929272
 10
196.9538253606
 20
135.6160339501
 10
197.0220848956
 20
135.6069063131
 10
197.0901715899
 20
135.5941133609
 10
197.1579100452
 20
135.5776516721
 10
197.2247740667
 20
135.5575110597
 10
197.2908881166
 20
135.5335897292
 10
197.3561277326
 20
135.5059893201
 10
197.4195933327
 20
135.4750047849
 10
197.4811859008
 20
135.4405958313
 10
197.5410044529
 20
135.4028025446
 10
197.5984464553
 20
135.3620404515
 10
197.6534619534
 20
135.3182831366
 10
197.7061009017
 20
135.2715567864
 10
197.75591063
 20
135.2223558553
 10
197.8027402484
 20
135.1708450979
 10
197.8467406467
 20
135.1168595455
 10
197.887911825
 20
135.0603990826
  0
LWPOLYLINE
  5
357
100
AcDbEntity
  8
RACCORDO
100
AcDbPolyline
 62
7
  6
CONTINUOUS
 90
19
 70
0
 10
197.52541356
 20
134.2067176781
 10
197.5236990466
 20
134.2591961496
 10
197.518567926
 20
134.3111560272
 10
197.5100201983
 20
134.3625973187
 10
197.4979694349
 20
134.4138216362
 10
197.4825020643
 20
134.4645273804
 10
197.4638773723
 20
134.513809758
 10
197.4421312785
 20
134.5614822175
 10
197.4172278634
 20
134.6077313568
 10
197.3893186539
 20
134.6522121263
 10
197.358281063
 20
134.6950515593
 10
197.3242376778
 20
134.7361226717
 10
197.2877077867
 20
134.7746994016
 10
197.2485960514
 20
134.8107231724
 10
197.2069978101
 20
134.8442526229
 10
197.1637183656
 20
134.8747375268
 10
197.1190261522
 20
134.9019944977
 10
197.0726527355
 20
134.9262069821
 10
197.0245981156
 20
134.9473750048
  0
LWPOLYLINE
  5
358
100
AcDbEntity
  8
ASSI
100
AcDbPolyline
 62
7
  6
CONTINUOUS
 90
19
 70
0
 10
197.52541356
 20
134.2067176781
 10
197.5236990466
 20
134.2591961496
 10
197.518567926
 20
134.3111560272
 10
197.5100201983
 20
134.3625973187
 10
197.4979694349
 20
134.4138216362
 10
197.4825020643
 20
134.4645273804
 10
197.4638773723
 20
134.513809758
 10
197.4421312785
 20
134.5614822175
 10
197.4172278634
 20
134.6077313568
 10
197.3893186539
 20
134.6522121263
 10
197.358281063
 20
134.6950515593
 10
197.3242376778
 20
134.7361226717
 10
197.2877077867
 20
134.7746994016
 10
197.2485960514
 20
134.8107231724
 10
197.2069978101
 20
134.8442526229
 10
197.1637183656
 20
134.8747375268
 10
197.1190261522
 20
134.9019944977
 10
197.0726527355
 20
134.9262069821
 10
197.0245981156
 20
134.9473750048
  0
LINE
  5
359
100
AcDbEntity
  8
RACCORDO
100
AcDbLine
 62
253
  6
CONTINUOUS
 10
196.8162615737
 20
135.6232832639
 11
196.8162615738
 21
135.097177989
  0
LINE
  5
35A
100
AcDbEntity
  8
ASSI
100
AcDbLine
 62
253
  6
CONTINUOUS
 10
196.8162615737
 20
135.6232832639
 11
196.8162615738
 21
135.097177989
  0
LINE
  5
35B
100
AcDbEntity
  8
RACCORDO
100
AcDbLine
 62
253
  6
CONTINUOUS
 10
196.8162615737
 20
89.2878837842
 11
196.8162615737
 21
89.813989059
  0
LINE
  5
35C
100
AcDbEntity
  8
ASSI
100
AcDbLine
 62
253
  6
CONTINUOUS
 10
196.8162615737
 20
89.2878837842
 11
196.8162615737
 21
89.813989059
  0
LINE
  5
35D
100
AcDbEntity
  8
RACCORDO
100
AcDbLine
 62
7
  6
CONTINUOUS
 10
197.52541356
 20
90.70444937
 11
197.52541356
 21
134.2067176781
  0
LINE
  5
35E
100
AcDbEntity
  8
ASSI
100
AcDbLine
 62
7
  6
CONTINUOUS
 10
197.52541356
 20
90.70444937
 11
197.52541356
 21
134.2067176781
  0
LINE
  5
35F
100
AcDbEntity
  8
RACCORDO
100
AcDbLine
 62
253
  6
CONTINUOUS
 10
197.6186107573
 20
134.299694485
 11
197.6186107492
 21
90.6114851597
  0
LINE
  5
360
100
AcDbEntity
  8
ASSI
100
AcDbLine
 62
253
  6
CONTINUOUS
 10
197.6186107573
 20
134.299694485
 11
197.6186107492
 21
90.6114851597
  0
LINE
  5
361
100
AcDbEntity
  8
RACCORDO
100
AcDbLine
 62
253
  6
CONTINUOUS
 10
198.1179238767
 20
134.3226873586
 11
198.1179238767
 21
90.5884796894
  0
LINE
  5
362
100
AcDbEntity
  8
ASSI
100
AcDbLine
 62
253
  6
CONTINUOUS
 10
198.1179238767
 20
134.3226873586
 11
198.1179238767
 21
90.5884796894
  0
LWPOLYLINE
  5
363
100
AcDbEntity
  8
RACCORDO
100
AcDbPolyline
 62
253
  6
CONTINUOUS
 90
13
 70
0
 10
198.1179238767
 20
90.5884796894
 10
198.1165131288
 20
90.5251108811
 10
198.1118257485
 20
90.4615965285
 10
198.1038617357
 20
90.3979366358
 10
198.0926233476
 20
90.3338385643
 10
198.0781083271
 20
90.2695949655
 10
198.0603099023
 20
90.2060837612
 10
198.0391014641
 20
90.1432784471
 10
198.0146096217
 20
90.0812054998
 10
197.9872074309
 20
90.0208222753
 10
197.9570192439
 20
89.962447862
 10
197.9239207086
 20
89.9057631024
 10
197.887911825
 20
89.8507679655
  0
LWPOLYLINE
  5
364
100
AcDbEntity
  8
ASSI
100
AcDbPolyline
 62
253
  6
CONTINUOUS
 90
13
 70
0
 10
198.1179238767
 20
90.5884796894
 10
198.1165131288
 20
90.5251108811
 10
198.1118257485
 20
90.4615965285
 10
198.1038617357
 20
90.3979366358
 10
198.0926233476
 20
90.3338385643
 10
198.0781083271
 20
90.2695949655
 10
198.0603099023
 20
90.2060837612
 10
198.0391014641
 20
90.1432784471
 10
198.0146096217
 20
90.0812054998
 10
197.9872074309
 20
90.0208222753
 10
197.9570192439
 20
89.962447862
 10
197.9239207086
 20
89.9057631024
 10
197.887911825
 20
89.8507679655
  0
LWPOLYLINE
  5
365
100
AcDbEntity
  8
RACCORDO
100
AcDbPolyline
 62
253
  6
CONTINUOUS
 90
13
 70
0
 10
197.6186107377
 20
90.6114851711
 10
197.6176689265
 20
90.5726844933
 10
197.6147986846
 20
90.5336047092
 10
197.6099516535
 20
90.4943437242
 10
197.6030703891
 20
90.4549352801
 10
197.5941232002
 20
90.4155580359
 10
197.5831393225
 20
90.376527607
 10
197.5701126814
 20
90.3379250872
 10
197.5550603537
 20
90.2998860669
 10
197.5381284431
 20
90.2627857397
 10
197.5194270397
 20
90.2267990808
 10
197.4989829487
 20
90.1919190808
 10
197.4768654292
 20
90.1582252414
  0
LWPOLYLINE
  5
366
100
AcDbEntity
  8
ASSI
100
AcDbPolyline
 62
253
  6
CONTINUOUS
 90
13
 70
0
 10
197.6186107377
 20
90.6114851711
 10
197.6176689265
 20
90.5726844933
 10
197.6147986846
 20
90.5336047092
 10
197.6099516535
 20
90.4943437242
 10
197.6030703891
 20
90.4549352801
 10
197.5941232002
 20
90.4155580359
 10
197.5831393225
 20
90.376527607
 10
197.5701126814
 20
90.3379250872
 10
197.5550603537
 20
90.2998860669
 10
197.5381284431
 20
90.2627857397
 10
197.5194270397
 20
90.2267990808
 10
197.4989829487
 20
90.1919190808
 10
197.4768654292
 20
90.1582252414
  0
LWPOLYLINE
  5
367
100
AcDbEntity
  8
RACCORDO
100
AcDbPolyline
 62
7
  6
CONTINUOUS
 90
19
 70
0
 10
197.0245981156
 20
89.9637920433
 10
197.0726426064
 20
89.9849538407
 10
197.1190092238
 20
90.0091618779
 10
197.1636979678
 20
90.0364161797
 10
197.2069781518
 20
90.0669002148
 10
197.2485804625
 20
90.1004305745
 10
197.2876969591
 20
90.1364569656
 10
197.3242314461
 20
90.175037174
 10
197.3582801192
 20
90.216113476
 10
197.3893236246
 20
90.2589623016
 10
197.4172417304
 20
90.3034652962
 10
197.4421546685
 20
90.3497408638
 10
197.4639037811
 20
90.3974205581
 10
197.482518673
 20
90.4466704672
 10
197.4979697395
 20
90.4973245487
 10
197.5100095086
 20
90.5485161412
 10
197.5185554898
 20
90.5999563568
 10
197.5236901736
 20
90.6519340969
 10
197.52541356
 20
90.70444937
  0
LWPOLYLINE
  5
368
100
AcDbEntity
  8
ASSI
100
AcDbPolyline
 62
7
  6
CONTINUOUS
 90
19
 70
0
 10
197.0245981156
 20
89.9637920433
 10
197.0726426064
 20
89.9849538407
 10
197.1190092238
 20
90.0091618779
 10
197.1636979678
 20
90.0364161797
 10
197.2069781518
 20
90.0669002148
 10
197.2485804625
 20
90.1004305745
 10
197.2876969591
 20
90.1364569656
 10
197.3242314461
 20
90.175037174
 10
197.3582801192
 20
90.216113476
 10
197.3893236246
 20
90.2589623016
 10
197.4172417304
 20
90.3034652962
 10
197.4421546685
 20
90.3497408638
 10
197.4639037811
 20
90.3974205581
 10
197.482518673
 20
90.4466704672
 10
197.4979697395
 20
90.4973245487
 10
197.5100095086
 20
90.5485161412
 10
197.5185554898
 20
90.5999563568
 10
197.5236901736
 20
90.6519340969
 10
197.52541356
 20
90.70444937
  0
LWPOLYLINE
  5
369
100
AcDbEntity
  8
RACCORDO
100
AcDbPolyline
 62
7
  6
CONTINUOUS
 90
7
 70
0
 10
197.0245981156
 20
134.9473750048
 10
196.9759024255
 20
134.965130693
 10
196.9266740156
 20
134.9796646264
 10
196.8769128859
 20
134.9909768476
 10
196.8266190364
 20
134.99906739
 10
196.7757924671
 20
135.0039362773
 10
196.724433178
 20
135.005583524
  0
LWPOLYLINE
  5
36A
100
AcDbEntity
  8
ASSI
100
AcDbPolyline
 62
7
  6
CONTINUOUS
 90
7
 70
0
 10
197.0245981156
 20
134.9473750048
 10
196.9759024255
 20
134.965130693
 10
196.9266740156
 20
134.9796646264
 10
196.8769128859
 20
134.9909768476
 10
196.8266190364
 20
134.99906739
 10
196.7757924671
 20
135.0039362773
 10
196.724433178
 20
135.005583524
  0
LWPOLYLINE
  5
36B
100
AcDbEntity
  8
RACCORDO
100
AcDbPolyline
 62
253
  6
CONTINUOUS
 90
19
 70
0
 10
197.887911825
 20
89.8507679655
 10
197.8467782558
 20
89.7943619723
 10
197.8028310843
 20
89.7404323951
 10
197.7560703104
 20
89.6889791181
 10
197.7063381263
 20
89.6398361979
 10
197.6537923398
 20
89.593169364
 10
197.5989063747
 20
89.5494759956
 10
197.5416513103
 20
89.5087937213
 10
197.4820560672
 20
89.4710846834
 10
197.420680831
 20
89.4367330067
 10
197.3574732407
 20
89.4057756714
 10
197.2924856572
 20
89.3781754924
 10
197.2264353488
 20
89.3542053405
 10
197.1593017469
 20
89.3339292064
 10
197.09110542
 20
89.3172829466
 10
197.0226253418
 20
89.3043472401
 10
196.9541211704
 20
89.2951489533
 10
196.8853332477
 20
89.2896611411
 10
196.8162615737
 20
89.2878837842
  0
LWPOLYLINE
  5
36C
100
AcDbEntity
  8
ASSI
100
AcDbPolyline
 62
253
  6
CONTINUOUS
 90
19
 70
0
 10
197.887911825
 20
89.8507679655
 10
197.8467782558
 20
89.7943619723
 10
197.8028310843
 20
89.7404323951
 10
197.7560703104
 20
89.6889791181
 10
197.7063381263
 20
89.6398361979
 10
197.6537923398
 20
89.593169364
 10
197.5989063747
 20
89.5494759956
 10
197.5416513103
 20
89.5087937213
 10
197.4820560672
 20
89.4710846834
 10
197.420680831
 20
89.4367330067
 10
197.3574732407
 20
89.4057756714
 10
197.2924856572
 20
89.3781754924
 10
197.2264353488
 20
89.3542053405
 10
197.1593017469
 20
89.3339292064
 10
197.09110542
 20
89.3172829466
 10
197.0226253418
 20
89.3043472401
 10
196.9541211704
 20
89.2951489533
 10
196.8853332477
 20
89.2896611411
 10
196.8162615737
 20
89.2878837842
  0
LWPOLYLINE
  5
36D
100
AcDbEntity
  8
RACCORDO
100
AcDbPolyline
 62
253
  6
CONTINUOUS
 90
19
 70
0
 10
197.4768654292
 20
90.1582252414
 10
197.4515604979
 20
90.1237398562
 10
197.4243931987
 20
90.0906043388
 10
197.3954328954
 20
90.0589209063
 10
197.3647506156
 20
90.0287855312
 10
197.3324307827
 20
90.0002965012
 10
197.2985727819
 20
89.9735521356
 10
197.2632618202
 20
89.9486322751
 10
197.2266023845
 20
89.9256224825
 10
197.1887350881
 20
89.9046149941
 10
197.1497526869
 20
89.8856657658
 10
197.1097836452
 20
89.8688414804
 10
197.0690367717
 20
89.8542216437
 10
197.0276322081
 20
89.8418357558
 10
196.9856964125
 20
89.8317082684
 10
196.9434588026
 20
89.8238702611
 10
196.9010809745
 20
89.8183179155
 10
196.8586519001
 20
89.815030902
 10
196.8162927981
 20
89.8139890066
  0
LWPOLYLINE
  5
36E
100
AcDbEntity
  8
ASSI
100
AcDbPolyline
 62
253
  6
CONTINUOUS
 90
19
 70
0
 10
197.4768654292
 20
90.1582252414
 10
197.4515604979
 20
90.1237398562
 10
197.4243931987
 20
90.0906043388
 10
197.3954328954
 20
90.0589209063
 10
197.3647506156
 20
90.0287855312
 10
197.3324307827
 20
90.0002965012
 10
197.2985727819
 20
89.9735521356
 10
197.2632618202
 20
89.9486322751
 10
197.2266023845
 20
89.9256224825
 10
197.1887350881
 20
89.9046149941
 10
197.1497526869
 20
89.8856657658
 10
197.1097836452
 20
89.8688414804
 10
197.0690367717
 20
89.8542216437
 10
197.0276322081
 20
89.8418357558
 10
196.9856964125
 20
89.8317082684
 10
196.9434588026
 20
89.8238702611
 10
196.9010809745
 20
89.8183179155
 10
196.8586519001
 20
89.815030902
 10
196.8162927981
 20
89.8139890066
  0
LWPOLYLINE
  5
36F
100
AcDbEntity
  8
RACCORDO
100
AcDbPolyline
 62
253
  6
CONTINUOUS
 90
13
 70
0
 10
197.4768654292
 20
134.7529418066
 10
197.4988176981
 20
134.719514165
 10
197.5191465735
 20
134.6848752582
 10
197.5377777926
 20
134.6490993174
 10
197.5546746007
 20
134.6121854623
 10
197.5697265621
 20
134.5742940413
 10
197.5827911429
 20
134.5357627256
 10
197.5938449579
 20
134.4967006472
 10
197.6028740066
 20
134.4572072856
 10
197.6098313475
 20
134.4176290616
 10
197.6147401013
 20
134.3781557238
 10
197.6176527943
 20
134.3388110646
 10
197.6186107347
 20
134.2996944628
  0
LWPOLYLINE
  5
370
100
AcDbEntity
  8
ASSI
100
AcDbPolyline
 62
253
  6
CONTINUOUS
 90
13
 70
0
 10
197.4768654292
 20
134.7529418066
 10
197.4988176981
 20
134.719514165
 10
197.5191465735
 20
134.6848752582
 10
197.5377777926
 20
134.6490993174
 10
197.5546746007
 20
134.6121854623
 10
197.5697265621
 20
134.5742940413
 10
197.5827911429
 20
134.5357627256
 10
197.5938449579
 20
134.4967006472
 10
197.6028740066
 20
134.4572072856
 10
197.6098313475
 20
134.4176290616
 10
197.6147401013
 20
134.3781557238
 10
197.6176527943
 20
134.3388110646
 10
197.6186107347
 20
134.2996944628
  0
LWPOLYLINE
  5
371
100
AcDbEntity
  8
RACCORDO
100
AcDbPolyline
 62
253
  6
CONTINUOUS
 90
13
 70
0
 10
197.887911825
 20
135.0603990826
 10
197.9236466079
 20
135.005887141
 10
197.9565402036
 20
134.9496232155
 10
197.9865926122
 20
134.8916072741
 10
198.0139371155
 20
134.8315437667
 10
198.0384404317
 20
134.7697281727
 10
198.0597027153
 20
134.7070470207
 10
198.0776088756
 20
134.6434946536
 10
198.0922740033
 20
134.579076695
 10
198.1036435246
 20
134.5146966317
 10
198.1116992484
 20
134.4506556361
 10
198.1164593657
 20
134.3866525444
 10
198.1179238767
 20
134.3226873586
  0
LWPOLYLINE
  5
372
100
AcDbEntity
  8
ASSI
100
AcDbPolyline
 62
253
  6
CONTINUOUS
 90
13
 70
0
 10
197.887911825
 20
135.0603990826
 10
197.9236466079
 20
135.005887141
 10
197.9565402036
 20
134.9496232155
 10
197.9865926122
 20
134.8916072741
 10
198.0139371155
 20
134.8315437667
 10
198.0384404317
 20
134.7697281727
 10
198.0597027153
 20
134.7070470207
 10
198.0776088756
 20
134.6434946536
 10
198.0922740033
 20
134.579076695
 10
198.1036435246
 20
134.5146966317
 10
198.1116992484
 20
134.4506556361
 10
198.1164593657
 20
134.3866525444
 10
198.1179238767
 20
134.3226873586
  0
LWPOLYLINE
  5
373
100
AcDbEntity
  8
RACCORDO
100
AcDbPolyline
 62
253
  6
CONTINUOUS
 90
28
 70
0
 10
103.7954631569
 20
157.2625294277
 10
103.7383585297
 20
157.2606709332
 10
103.6815148356
 20
157.2555297593
 10
103.6251164659
 20
157.2471292285
 10
103.5693730262
 20
157.2355096747
 10
103.5144366101
 20
157.2207115782
 10
103.4604052648
 20
157.2027600284
 10
103.407419513
 20
157.1816888582
 10
103.3556946714
 20
157.1575712482
 10
103.3054377584
 20
157.1304990937
 10
103.2568305427
 20
157.1005693079
 10
103.2100155474
 20
157.0678698109
 10
103.1651320778
 20
157.0324967917
 10
103.1223283055
 20
156.9945591774
 10
103.0817503773
 20
156.9541793518
 10
103.0435275229
 20
156.911483166
 10
103.0077906131
 20
156.8666054022
 10
102.9746623241
 20
156.8196891182
 10
102.9442498806
 20
156.7708821555
 10
102.9166589092
 20
156.7203359543
 10
102.8919898858
 20
156.6682162562
 10
102.8703290558
 20
156.6147013444
 10
102.8517564505
 20
156.5599678639
 10
102.8363389014
 20
156.5041896565
 10
102.8241280852
 20
156.4475476421
 10
102.8151709542
 20
156.390226091
 10
102.8095083876
 20
156.3324123462
 10
102.8071680868
 20
156.2742958734
  0
LWPOLYLINE
  5
374
100
AcDbEntity
  8
ASSI
100
AcDbPolyline
 62
253
  6
CONTINUOUS
 90
28
 70
0
 10
103.7954631569
 20
157.2625294277
 10
103.7383585297
 20
157.2606709332
 10
103.6815148356
 20
157.2555297593
 10
103.6251164659
 20
157.2471292285
 10
103.5693730262
 20
157.2355096747
 10
103.5144366101
 20
157.2207115782
 10
103.4604052648
 20
157.2027600284
 10
103.407419513
 20
157.1816888582
 10
103.3556946714
 20
157.1575712482
 10
103.3054377584
 20
157.1304990937
 10
103.2568305427
 20
157.1005693079
 10
103.2100155474
 20
157.0678698109
 10
103.1651320778
 20
157.0324967917
 10
103.1223283055
 20
156.9945591774
 10
103.0817503773
 20
156.9541793518
 10
103.0435275229
 20
156.911483166
 10
103.0077906131
 20
156.8666054022
 10
102.9746623241
 20
156.8196891182
 10
102.9442498806
 20
156.7708821555
 10
102.9166589092
 20
156.7203359543
 10
102.8919898858
 20
156.6682162562
 10
102.8703290558
 20
156.6147013444
 10
102.8517564505
 20
156.5599678639
 10
102.8363389014
 20
156.5041896565
 10
102.8241280852
 20
156.4475476421
 10
102.8151709542
 20
156.390226091
 10
102.8095083876
 20
156.3324123462
 10
102.8071680868
 20
156.2742958734
  0
LWPOLYLINE
  5
375
100
AcDbEntity
  8
RACCORDO
100
AcDbPolyline
 62
253
  6
CONTINUOUS
 90
28
 70
0
 10
103.7954631569
 20
156.8543648858
 10
103.7667525275
 20
156.8535142998
 10
103.7383496513
 20
156.8510279064
 10
103.7102545284
 20
156.8469056919
 10
103.6823828298
 20
156.841127532
 10
103.6548188845
 20
156.8337134971
 10
103.627815679
 20
156.8247238544
 10
103.601366975
 20
156.8141392004
 10
103.5754790107
 20
156.8019788359
 10
103.5504234881
 20
156.7883610787
 10
103.5262162331
 20
156.7732746144
 10
103.5028414197
 20
156.7567306187
 10
103.4805232714
 20
156.7388811471
 10
103.4592690589
 20
156.7197125076
 10
103.4390715116
 20
156.6992382324
 10
103.4201330412
 20
156.6776512263
 10
103.4024645633
 20
156.6549386969
 10
103.3860551624
 20
156.6311132743
 10
103.3710745034
 20
156.6064060223
 10
103.3575368794
 20
156.5808073649
 10
103.3454279973
 20
156.554326733
 10
103.3348746429
 20
156.5272237386
 10
103.3258920929
 20
156.4994826915
 10
103.3184650706
 20
156.4711191706
 10
103.3126745322
 20
156.4424397406
 10
103.308547463
 20
156.413546583
 10
103.3060568777
 20
156.3843374652
 10
103.3052027763
 20
156.3548123579
  0
LWPOLYLINE
  5
376
100
AcDbEntity
  8
ASSI
100
AcDbPolyline
 62
253
  6
CONTINUOUS
 90
28
 70
0
 10
103.7954631569
 20
156.8543648858
 10
103.7667525275
 20
156.8535142998
 10
103.7383496513
 20
156.8510279064
 10
103.7102545284
 20
156.8469056919
 10
103.6823828298
 20
156.841127532
 10
103.6548188845
 20
156.8337134971
 10
103.627815679
 20
156.8247238544
 10
103.601366975
 20
156.8141392004
 10
103.5754790107
 20
156.8019788359
 10
103.5504234881
 20
156.7883610787
 10
103.5262162331
 20
156.7732746144
 10
103.5028414197
 20
156.7567306187
 10
103.4805232714
 20
156.7388811471
 10
103.4592690589
 20
156.7197125076
 10
103.4390715116
 20
156.6992382324
 10
103.4201330412
 20
156.6776512263
 10
103.4024645633
 20
156.6549386969
 10
103.3860551624
 20
156.6311132743
 10
103.3710745034
 20
156.6064060223
 10
103.3575368794
 20
156.5808073649
 10
103.3454279973
 20
156.554326733
 10
103.3348746429
 20
156.5272237386
 10
103.3258920929
 20
156.4994826915
 10
103.3184650706
 20
156.4711191706
 10
103.3126745322
 20
156.4424397406
 10
103.308547463
 20
156.413546583
 10
103.3060568777
 20
156.3843374652
 10
103.3052027763
 20
156.3548123579
  0
LWPOLYLINE
  5
377
100
AcDbEntity
  8
RACCORDO
100
AcDbPolyline
 62
253
  6
CONTINUOUS
 90
19
 70
0
 10
103.3052027763
 20
156.3548123444
 10
103.2640797344
 20
156.354520644
 10
103.223235338
 20
156.3536316116
 10
103.1829463444
 20
156.3521512712
 10
103.1434857478
 20
156.3500896535
 10
103.1051209291
 20
156.3474607278
 10
103.0681118443
 20
156.3442823073
 10
103.0327092631
 20
156.3405759288
 10
102.9991530699
 20
156.3363667062
 10
102.9676706378
 20
156.3316831609
 10
102.9384752887
 20
156.3265570281
 10
102.9117648471
 20
156.3210230418
 10
102.8877203004
 20
156.3151186999
 10
102.8665045717
 20
156.3088840095
 10
102.8482614168
 20
156.3023612162
 10
102.8331144494
 20
156.2955945179
 10
102.8211663037
 20
156.2886297649
 10
102.8124979391
 20
156.2815141498
 10
102.8071680916
 20
156.2742958871
  0
LWPOLYLINE
  5
378
100
AcDbEntity
  8
ASSI
100
AcDbPolyline
 62
253
  6
CONTINUOUS
 90
19
 70
0
 10
103.3052027763
 20
156.3548123444
 10
103.2640797344
 20
156.354520644
 10
103.223235338
 20
156.3536316116
 10
103.1829463444
 20
156.3521512712
 10
103.1434857478
 20
156.3500896535
 10
103.1051209291
 20
156.3474607278
 10
103.0681118443
 20
156.3442823073
 10
103.0327092631
 20
156.3405759288
 10
102.9991530699
 20
156.3363667062
 10
102.9676706378
 20
156.3316831609
 10
102.9384752887
 20
156.3265570281
 10
102.9117648471
 20
156.3210230418
 10
102.8877203004
 20
156.3151186999
 10
102.8665045717
 20
156.3088840095
 10
102.8482614168
 20
156.3023612162
 10
102.8331144494
 20
156.2955945179
 10
102.8211663037
 20
156.2886297649
 10
102.8124979391
 20
156.2815141498
 10
102.8071680916
 20
156.2742958871
  0
LINE
  5
379
100
AcDbEntity
  8
RACCORDO
100
AcDbLine
 62
253
  6
CONTINUOUS
 10
223.4553639107
 20
156.8543648858
 11
103.7954631569
 21
156.8543648858
  0
LINE
  5
37A
100
AcDbEntity
  8
ASSI
100
AcDbLine
 62
253
  6
CONTINUOUS
 10
223.4553639107
 20
156.8543648858
 11
103.7954631569
 21
156.8543648858
  0
LINE
  5
37B
100
AcDbEntity
  8
RACCORDO
100
AcDbLine
 62
253
  6
CONTINUOUS
 10
223.4553639107
 20
157.2625294277
 11
103.7954631569
 21
157.2625294277
  0
LINE
  5
37C
100
AcDbEntity
  8
ASSI
100
AcDbLine
 62
253
  6
CONTINUOUS
 10
223.4553639107
 20
157.2625294277
 11
103.7954631569
 21
157.2625294277
  0
LINE
  5
37D
100
AcDbEntity
  8
RACCORDO
100
AcDbLine
 62
7
  6
CONTINUOUS
 10
223.6453326334
 20
157.455583524
 11
103.6054944342
 21
157.455583524
  0
LINE
  5
37E
100
AcDbEntity
  8
ASSI
100
AcDbLine
 62
7
  6
CONTINUOUS
 10
223.6453326334
 20
157.455583524
 11
103.6054944342
 21
157.455583524
  0
LWPOLYLINE
  5
37F
100
AcDbEntity
  8
RACCORDO
100
AcDbPolyline
 62
253
  6
CONTINUOUS
 90
19
 70
0
 10
223.9456242913
 20
156.3548123526
 10
223.9867469926
 20
156.3545206253
 10
224.0275910268
 20
156.3536315692
 10
224.0678796414
 20
156.3521512083
 10
224.1073398474
 20
156.3500895732
 10
224.1457042689
 20
156.3474606332
 10
224.1827129551
 20
156.3442822015
 10
224.218115141
 20
156.3405758147
 10
224.2516709473
 20
156.3363665865
 10
224.2831530055
 20
156.331683038
 10
224.3123479982
 20
156.3265569042
 10
224.3390581051
 20
156.321022919
 10
224.3631023427
 20
156.3151185797
 10
224.3843177914
 20
156.3088838934
 10
224.4025606987
 20
156.3023611052
 10
224.4177074538
 20
156.2955944125
 10
224.4296554246
 20
156.2886296654
 10
224.4383236538
 20
156.281514056
 10
224.4436534068
 20
156.2742957986
  0
LWPOLYLINE
  5
380
100
AcDbEntity
  8
ASSI
100
AcDbPolyline
 62
253
  6
CONTINUOUS
 90
19
 70
0
 10
223.9456242913
 20
156.3548123526
 10
223.9867469926
 20
156.3545206253
 10
224.0275910268
 20
156.3536315692
 10
224.0678796414
 20
156.3521512083
 10
224.1073398474
 20
156.3500895732
 10
224.1457042689
 20
156.3474606332
 10
224.1827129551
 20
156.3442822015
 10
224.218115141
 20
156.3405758147
 10
224.2516709473
 20
156.3363665865
 10
224.2831530055
 20
156.331683038
 10
224.3123479982
 20
156.3265569042
 10
224.3390581051
 20
156.321022919
 10
224.3631023427
 20
156.3151185797
 10
224.3843177914
 20
156.3088838934
 10
224.4025606987
 20
156.3023611052
 10
224.4177074538
 20
156.2955944125
 10
224.4296554246
 20
156.2886296654
 10
224.4383236538
 20
156.281514056
 10
224.4436534068
 20
156.2742957986
  0
LWPOLYLINE
  5
381
100
AcDbEntity
  8
RACCORDO
100
AcDbPolyline
 62
7
  6
CONTINUOUS
 90
28
 70
0
 10
223.6453326334
 20
157.455583524
 10
223.7018450226
 20
157.4539815662
 10
223.7579002295
 20
157.4491519004
 10
223.8134982539
 20
157.4410944721
 10
223.8688850187
 20
157.4297524713
 10
223.9238146011
 20
157.4151824881
 10
223.9775492333
 20
157.3975545228
 10
224.0299629838
 20
157.3768719257
 10
224.0811817841
 20
157.3531309387
 10
224.1308456617
 20
157.3264908735
 10
224.1789499424
 20
157.2969638356
 10
224.2254993004
 20
157.2645371557
 10
224.2701477854
 20
157.2293329671
 10
224.3130076532
 20
157.1911925744
 10
224.3539666479
 20
157.1502739573
 10
224.3923420519
 20
157.1071743217
 10
224.4279961618
 20
157.0619613597
 10
224.461066681
 20
157.0145667283
 10
224.4912840019
 20
156.9653837051
 10
224.5186334413
 20
156.9144416641
 10
224.5431296824
 20
156.86171063
 10
224.5645471667
 20
156.8074949611
 10
224.582904557
 20
156.7516187536
 10
224.5981831906
 20
156.6942573448
 10
224.6101015204
 20
156.6362421613
 10
224.6185656974
 20
156.5778503368
 10
224.6236695708
 20
156.518804532
 10
224.6254131403
 20
156.4591046249
  0
LWPOLYLINE
  5
382
100
AcDbEntity
  8
ASSI
100
AcDbPolyline
 62
7
  6
CONTINUOUS
 90
28
 70
0
 10
223.6453326334
 20
157.455583524
 10
223.7018450226
 20
157.4539815662
 10
223.7579002295
 20
157.4491519004
 10
223.8134982539
 20
157.4410944721
 10
223.8688850187
 20
157.4297524713
 10
223.9238146011
 20
157.4151824881
 10
223.9775492333
 20
157.3975545228
 10
224.0299629838
 20
157.3768719257
 10
224.0811817841
 20
157.3531309387
 10
224.1308456617
 20
157.3264908735
 10
224.1789499424
 20
157.2969638356
 10
224.2254993004
 20
157.2645371557
 10
224.2701477854
 20
157.2293329671
 10
224.3130076532
 20
157.1911925744
 10
224.3539666479
 20
157.1502739573
 10
224.3923420519
 20
157.1071743217
 10
224.4279961618
 20
157.0619613597
 10
224.461066681
 20
157.0145667283
 10
224.4912840019
 20
156.9653837051
 10
224.5186334413
 20
156.9144416641
 10
224.5431296824
 20
156.86171063
 10
224.5645471667
 20
156.8074949611
 10
224.582904557
 20
156.7516187536
 10
224.5981831906
 20
156.6942573448
 10
224.6101015204
 20
156.6362421613
 10
224.6185656974
 20
156.5778503368
 10
224.6236695708
 20
156.518804532
 10
224.6254131403
 20
156.4591046249
  0
LWPOLYLINE
  5
383
100
AcDbEntity
  8
RACCORDO
100
AcDbPolyline
 62
253
  6
CONTINUOUS
 90
28
 70
0
 10
224.4436589809
 20
156.274295873
 10
224.4413192558
 20
156.3324034185
 10
224.4356611359
 20
156.3901863505
 10
224.4267160575
 20
156.4474558962
 10
224.4145331665
 20
156.5040070894
 10
224.3991603947
 20
156.5596765366
 10
224.3806325129
 20
156.6143396936
 10
224.358997399
 20
156.6678508559
 10
224.334338793
 20
156.7200004553
 10
224.3067567674
 20
156.770574148
 10
224.2763597756
 20
156.8193947649
 10
224.2432476007
 20
156.8663232918
 10
224.2075260543
 20
156.9112142452
 10
224.169317032
 20
156.9539253204
 10
224.1287519981
 20
156.9943207873
 10
224.0859605148
 20
157.0322743868
 10
224.0410879729
 20
157.0676643074
 10
223.9942832744
 20
157.1003809665
 10
223.945688668
 20
157.1303264702
 10
223.8954599277
 20
157.1574069673
 10
223.8437667647
 20
157.1815340428
 10
223.7907785671
 20
157.2026300613
 10
223.7366769678
 20
157.2206254426
 10
223.6816315818
 20
157.2354672388
 10
223.6257977036
 20
157.2471136892
 10
223.5693484817
 20
157.2555254932
 10
223.5124755484
 20
157.2606705805
 10
223.4553639107
 20
157.2625294277
  0
LWPOLYLINE
  5
384
100
AcDbEntity
  8
ASSI
100
AcDbPolyline
 62
253
  6
CONTINUOUS
 90
28
 70
0
 10
224.4436589809
 20
156.274295873
 10
224.4413192558
 20
156.3324034185
 10
224.4356611359
 20
156.3901863505
 10
224.4267160575
 20
156.4474558962
 10
224.4145331665
 20
156.5040070894
 10
224.3991603947
 20
156.5596765366
 10
224.3806325129
 20
156.6143396936
 10
224.358997399
 20
156.6678508559
 10
224.334338793
 20
156.7200004553
 10
224.3067567674
 20
156.770574148
 10
224.2763597756
 20
156.8193947649
 10
224.2432476007
 20
156.8663232918
 10
224.2075260543
 20
156.9112142452
 10
224.169317032
 20
156.9539253204
 10
224.1287519981
 20
156.9943207873
 10
224.0859605148
 20
157.0322743868
 10
224.0410879729
 20
157.0676643074
 10
223.9942832744
 20
157.1003809665
 10
223.945688668
 20
157.1303264702
 10
223.8954599277
 20
157.1574069673
 10
223.8437667647
 20
157.1815340428
 10
223.7907785671
 20
157.2026300613
 10
223.7366769678
 20
157.2206254426
 10
223.6816315818
 20
157.2354672388
 10
223.6257977036
 20
157.2471136892
 10
223.5693484817
 20
157.2555254932
 10
223.5124755484
 20
157.2606705805
 10
223.4553639107
 20
157.2625294277
  0
LWPOLYLINE
  5
385
100
AcDbEntity
  8
RACCORDO
100
AcDbPolyline
 62
253
  6
CONTINUOUS
 90
28
 70
0
 10
223.9456242913
 20
156.3548123579
 10
223.9447632458
 20
156.3843598452
 10
223.9422719916
 20
156.4135723649
 10
223.9381505287
 20
156.4424499477
 10
223.9323746386
 20
156.4710828407
 10
223.9249685398
 20
156.4993808524
 10
223.9160048879
 20
156.5270733802
 10
223.9054643174
 20
156.5541627707
 10
223.8933661937
 20
156.5806467844
 10
223.8798412695
 20
156.6062479867
 10
223.8648782815
 20
156.6309489969
 10
223.8484884928
 20
156.6547673415
 10
223.8308364452
 20
156.6774779858
 10
223.8119100896
 20
156.699071127
 10
223.7917214751
 20
156.7195567291
 10
223.7704712893
 20
156.7387394328
 10
223.7481495968
 20
156.7566065833
 10
223.7247663331
 20
156.7731709948
 10
223.7005519925
 20
156.7882755251
 10
223.6754989302
 20
156.8019058163
 10
223.649614791
 20
156.8140763654
 10
223.6231530034
 20
156.8246733149
 10
223.5961015472
 20
156.8336816836
 10
223.5684724425
 20
156.8411165553
 10
223.5405551777
 20
156.8469091647
 10
223.5124462488
 20
156.8510366086
 10
223.4840491598
 20
156.8535218445
 10
223.4553639107
 20
156.8543648858
  0
LWPOLYLINE
  5
386
100
AcDbEntity
  8
ASSI
100
AcDbPolyline
 62
253
  6
CONTINUOUS
 90
28
 70
0
 10
223.9456242913
 20
156.3548123579
 10
223.9447632458
 20
156.3843598452
 10
223.9422719916
 20
156.4135723649
 10
223.9381505287
 20
156.4424499477
 10
223.9323746386
 20
156.4710828407
 10
223.9249685398
 20
156.4993808524
 10
223.9160048879
 20
156.5270733802
 10
223.9054643174
 20
156.5541627707
 10
223.8933661937
 20
156.5806467844
 10
223.8798412695
 20
156.6062479867
 10
223.8648782815
 20
156.6309489969
 10
223.8484884928
 20
156.6547673415
 10
223.8308364452
 20
156.6774779858
 10
223.8119100896
 20
156.699071127
 10
223.7917214751
 20
156.7195567291
 10
223.7704712893
 20
156.7387394328
 10
223.7481495968
 20
156.7566065833
 10
223.7247663331
 20
156.7731709948
 10
223.7005519925
 20
156.7882755251
 10
223.6754989302
 20
156.8019058163
 10
223.649614791
 20
156.8140763654
 10
223.6231530034
 20
156.8246733149
 10
223.5961015472
 20
156.8336816836
 10
223.5684724425
 20
156.8411165553
 10
223.5405551777
 20
156.8469091647
 10
223.5124462488
 20
156.8510366086
 10
223.4840491598
 20
156.8535218445
 10
223.4553639107
 20
156.8543648858
  0
LINE
  5
387
100
AcDbEntity
  8
RACCORDO
100
AcDbLine
 62
253
  6
CONTINUOUS
 10
223.4553639107
 20
68.0568021623
 11
223.4553639111
 21
67.6486376203
  0
LINE
  5
388
100
AcDbEntity
  8
ASSI
100
AcDbLine
 62
253
  6
CONTINUOUS
 10
223.4553639107
 20
68.0568021623
 11
223.4553639111
 21
67.6486376203
  0
LINE
  5
389
100
AcDbEntity
  8
RACCORDO
100
AcDbLine
 62
253
  6
CONTINUOUS
 10
223.4553639107
 20
156.8543648858
 11
223.4553639107
 21
157.2625294277
  0
LINE
  5
38A
100
AcDbEntity
  8
ASSI
100
AcDbLine
 62
253
  6
CONTINUOUS
 10
223.4553639107
 20
156.8543648858
 11
223.4553639107
 21
157.2625294277
  0
LINE
  5
38B
100
AcDbEntity
  8
RACCORDO
100
AcDbLine
 62
253
  6
CONTINUOUS
 10
223.9474741977
 20
144.5622123363
 11
223.9456242913
 21
156.3548123579
  0
LINE
  5
38C
100
AcDbEntity
  8
ASSI
100
AcDbLine
 62
253
  6
CONTINUOUS
 10
223.9474741977
 20
144.5622123363
 11
223.9456242913
 21
156.3548123579
  0
LINE
  5
38D
100
AcDbEntity
  8
RACCORDO
100
AcDbLine
 62
253
  6
CONTINUOUS
 10
224.4455475163
 20
144.5135695261
 11
224.4436589807
 21
156.2742958728
  0
LINE
  5
38E
100
AcDbEntity
  8
ASSI
100
AcDbLine
 62
253
  6
CONTINUOUS
 10
224.4455475163
 20
144.5135695261
 11
224.4436589807
 21
156.2742958728
  0
LINE
  5
38F
100
AcDbEntity
  8
RACCORDO
100
AcDbLine
 62
7
  6
CONTINUOUS
 10
224.6254131403
 20
156.4591046249
 11
224.6254135338
 21
134.9348167739
  0
LINE
  5
390
100
AcDbEntity
  8
DRAFT
100
AcDbLine
 62
7
  6
CONTINUOUS
 10
224.6254135338
 20
134.9348167739
 11
224.6254135338
 21
89.9763502741
  0
LINE
  5
391
100
AcDbEntity
  8
RACCORDO
100
AcDbLine
 62
7
  6
CONTINUOUS
 10
224.6254135338
 20
89.9763502741
 11
224.6254131403
 21
68.4520624232
  0
LINE
  5
392
100
AcDbEntity
  8
ASSI
100
AcDbLine
 62
7
  6
CONTINUOUS
 10
224.6254131403
 20
156.4591046249
 11
224.6254131403
 21
68.4520624232
  0
LINE
  5
393
100
AcDbEntity
  8
RACCORDO
100
AcDbLine
 62
253
  6
CONTINUOUS
 10
223.9456242913
 20
68.5563546902
 11
223.9474741977
 21
144.5622123363
  0
LINE
  5
394
100
AcDbEntity
  8
ASSI
100
AcDbLine
 62
253
  6
CONTINUOUS
 10
223.9456242913
 20
68.5563546902
 11
223.9474741977
 21
144.5622123363
  0
LINE
  5
395
100
AcDbEntity
  8
RACCORDO
100
AcDbLine
 62
253
  6
CONTINUOUS
 10
224.4436589807
 20
68.6368711748
 11
224.4455475163
 21
144.5135695261
  0
LINE
  5
396
100
AcDbEntity
  8
ASSI
100
AcDbLine
 62
253
  6
CONTINUOUS
 10
224.4436589807
 20
68.6368711748
 11
224.4455475163
 21
144.5135695261
  0
LWPOLYLINE
  5
397
100
AcDbEntity
  8
RACCORDO
100
AcDbPolyline
 62
7
  6
CONTINUOUS
 90
28
 70
0
 10
224.6254131403
 20
68.4520624232
 10
224.6236648105
 20
68.3923486456
 10
224.6185607908
 20
68.3333020031
 10
224.6101010812
 20
68.2749223711
 10
224.5981938935
 20
68.2169407992
 10
224.5829310159
 20
68.1596260261
 10
224.564587813
 20
68.1037843046
 10
224.5431811044
 20
68.0495797946
 10
224.5186940705
 20
67.9968477759
 10
224.4913516173
 20
67.9459009773
 10
224.4611375232
 20
67.896710185
 10
224.4280680098
 20
67.8493040126
 10
224.3924166488
 20
67.8040818224
 10
224.3540467336
 20
67.7609777245
 10
224.3130949709
 20
67.7200569571
 10
224.2702450515
 20
67.6819154482
 10
224.2256136233
 20
67.6467128065
 10
224.1790840386
 20
67.6142887076
 10
224.130990045
 20
67.5847591211
 10
224.0813230261
 20
67.5581075189
 10
224.0300915983
 20
67.5343498665
 10
223.9776553593
 20
67.5136508913
 10
223.9238794881
 20
67.4960070456
 10
223.8688988056
 20
67.4814214688
 10
223.8134773729
 20
67.4700689446
 10
223.7578698767
 20
67.4620076572
 10
223.7018216302
 20
67.4571792018
 10
223.6453326334
 20
67.455583524
  0
LWPOLYLINE
  5
398
100
AcDbEntity
  8
ASSI
100
AcDbPolyline
 62
7
  6
CONTINUOUS
 90
28
 70
0
 10
224.6254131403
 20
68.4520624232
 10
224.6236648105
 20
68.3923486456
 10
224.6185607908
 20
68.3333020031
 10
224.6101010812
 20
68.2749223711
 10
224.5981938935
 20
68.2169407992
 10
224.5829310159
 20
68.1596260261
 10
224.564587813
 20
68.1037843046
 10
224.5431811044
 20
68.0495797946
 10
224.5186940705
 20
67.9968477759
 10
224.4913516173
 20
67.9459009773
 10
224.4611375232
 20
67.896710185
 10
224.4280680098
 20
67.8493040126
 10
224.3924166488
 20
67.8040818224
 10
224.3540467336
 20
67.7609777245
 10
224.3130949709
 20
67.7200569571
 10
224.2702450515
 20
67.6819154482
 10
224.2256136233
 20
67.6467128065
 10
224.1790840386
 20
67.6142887076
 10
224.130990045
 20
67.5847591211
 10
224.0813230261
 20
67.5581075189
 10
224.0300915983
 20
67.5343498665
 10
223.9776553593
 20
67.5136508913
 10
223.9238794881
 20
67.4960070456
 10
223.8688988056
 20
67.4814214688
 10
223.8134773729
 20
67.4700689446
 10
223.7578698767
 20
67.4620076572
 10
223.7018216302
 20
67.4571792018
 10
223.6453326334
 20
67.455583524
  0
LINE
  5
399
100
AcDbEntity
  8
RACCORDO
100
AcDbLine
 62
7
  6
CONTINUOUS
 10
73.6608175257
 20
67.6486376203
 11
75.8674359435
 21
67.455583524
  0
LINE
  5
39A
100
AcDbEntity
  8
ASSI
100
AcDbLine
 62
7
  6
CONTINUOUS
 10
73.6608175257
 20
67.6486376203
 11
75.8674359435
 21
67.455583524
  0
LINE
  5
39B
100
AcDbEntity
  8
RACCORDO
100
AcDbLine
 62
253
  6
CONTINUOUS
 10
73.5705296257
 20
68.6368711748
 11
75.6817347704
 21
68.4520624232
  0
LINE
  5
39C
100
AcDbEntity
  8
ASSI
100
AcDbLine
 62
253
  6
CONTINUOUS
 10
73.5705296257
 20
68.6368711748
 11
75.6817347704
 21
68.4520624232
  0
LINE
  5
39D
100
AcDbEntity
  8
RACCORDO
100
AcDbLine
 62
253
  6
CONTINUOUS
 10
73.1219871586
 20
68.5563547037
 11
73.5705296283
 21
68.6368711609
  0
LINE
  5
39E
100
AcDbEntity
  8
ASSI
100
AcDbLine
 62
253
  6
CONTINUOUS
 10
73.1219871586
 20
68.5563547037
 11
73.5705296283
 21
68.6368711609
  0
LWPOLYLINE
  5
39F
100
AcDbEntity
  8
RACCORDO
100
AcDbPolyline
 62
253
  6
CONTINUOUS
 90
16
 70
0
 10
76.134796525
 20
68.7463326659
 10
76.2584593519
 20
68.7646792776
 10
76.3821329455
 20
68.7858810027
 10
76.5057407797
 20
68.8099427118
 10
76.6291206097
 20
68.8367867196
 10
76.7522679151
 20
68.8665005189
 10
76.8753341584
 20
68.8993373498
 10
76.9982419262
 20
68.9352742611
 10
77.1208652511
 20
68.9743454934
 10
77.2432719427
 20
69.01689137
 10
77.3654549599
 20
69.0628858598
 10
77.4871733209
 20
69.1123680875
 10
77.6081512466
 20
69.1657775746
 10
77.728242507
 20
69.2232659876
 10
77.8474030754
 20
69.2846963765
 10
77.9655342784
 20
69.3500760003
  0
LINE
  5
3A0
100
AcDbEntity
  8
RACCORDO
100
AcDbLine
 62
253
  6
CONTINUOUS
 10
77.9655342784
 20
69.3500760003
 11
76.0282098216
 21
69.3383720117
  0
LINE
  5
3A1
100
AcDbEntity
  8
RACCORDO
100
AcDbLine
 62
7
  6
CONTINUOUS
 10
75.6501977183
 20
70.0085203384
 11
75.91103711
 21
70.0039673699
  0
LWPOLYLINE
  5
3A2
100
AcDbEntity
  8
RACCORDO
100
AcDbPolyline
 62
253
  6
CONTINUOUS
 90
15
 70
0
 10
73.6608175257
 20
67.6486376203
 10
73.6583097539
 20
67.6504961149
 10
73.6556427772
 20
67.6556372887
 10
73.6528304301
 20
67.6640378196
 10
73.6498880735
 20
67.6756573734
 10
73.646824416
 20
67.6904554698
 10
73.643643171
 20
67.7084070197
 10
73.640349515
 20
67.7294781899
 10
73.6369595444
 20
67.7535957998
 10
73.633492394
 20
67.7806679544
 10
73.6299506578
 20
67.8105977402
 10
73.6263434905
 20
67.8432972372
 10
73.6226975507
 20
67.8786702564
 10
73.6190117462
 20
67.9166078707
 10
73.6152922714
 20
67.9569876963
  0
LWPOLYLINE
  5
3A3
100
AcDbEntity
  8
ASSI
100
AcDbPolyline
 62
253
  6
CONTINUOUS
 90
15
 70
0
 10
73.6608175257
 20
67.6486376203
 10
73.6583097539
 20
67.6504961149
 10
73.6556427772
 20
67.6556372887
 10
73.6528304301
 20
67.6640378196
 10
73.6498880735
 20
67.6756573734
 10
73.646824416
 20
67.6904554698
 10
73.643643171
 20
67.7084070197
 10
73.640349515
 20
67.7294781899
 10
73.6369595444
 20
67.7535957998
 10
73.633492394
 20
67.7806679544
 10
73.6299506578
 20
67.8105977402
 10
73.6263434905
 20
67.8432972372
 10
73.6226975507
 20
67.8786702564
 10
73.6190117462
 20
67.9166078707
 10
73.6152922714
 20
67.9569876963
  0
LINE
  5
3A4
100
AcDbEntity
  8
RACCORDO
100
AcDbLine
 62
7
  6
CONTINUOUS
 10
74.1158898662
 20
78.8883627991
 11
74.6119903977
 21
78.9013536487
  0
LINE
  5
3A5
100
AcDbEntity
  8
RACCORDO
100
AcDbLine
 62
7
  6
CONTINUOUS
 10
74.2168082399
 20
78.0201616083
 11
74.7202652229
 21
78.0069781232
  0
LWPOLYLINE
  5
3A6
100
AcDbEntity
  8
0
100
AcDbPolyline
 62
7
  6
CONTINUOUS
 90
18
 70
0
 10
75.1867718234
 20
74.5641845693
 10
75.1346198065
 20
74.5865799114
 10
75.0821326983
 20
74.6128301085
 10
75.031368671
 20
74.6420626634
 10
74.9823068309
 20
74.674346133
 10
74.9349680718
 20
74.7096119604
 10
74.8899507601
 20
74.7474357718
 10
74.8473113232
 20
74.7878433268
 10
74.8069933337
 20
74.8308088659
 10
74.7694258748
 20
74.8758307363
 10
74.7346671612
 20
74.9228808507
 10
74.7026589783
 20
74.9719872964
 10
74.673655765
 20
75.0227326828
 10
74.6476545382
 20
75.0751943352
 10
74.624658281
 20
75.1292949281
 10
74.6049303828
 20
75.1843850947
 10
74.5885586398
 20
75.2402483792
 10
74.5802947557
 20
75.2761036532
  0
LINE
  5
3A7
100
AcDbEntity
  8
RACCORDO
100
AcDbLine
 62
253
  6
CONTINUOUS
 10
73.3687801004
 20
86.8720629401
 11
73.374121477
 21
86.872519992
  0
LINE
  5
3A8
100
AcDbEntity
  8
RACCORDO
100
AcDbLine
 62
253
  6
CONTINUOUS
 10
73.374121477
 20
86.872519992
 11
73.4061981063
 21
86.8749982375
  0
LINE
  5
3A9
100
AcDbEntity
  8
RACCORDO
100
AcDbLine
 62
253
  6
CONTINUOUS
 10
73.4061981063
 20
86.8749982375
 11
73.8657014616
 21
86.9078246143
  0
LWPOLYLINE
  5
3AA
100
AcDbEntity
  8
RACCORDO
100
AcDbPolyline
 62
253
  6
CONTINUOUS
 90
3
 70
0
 10
73.1795612971
 20
89.9813029072
 10
73.1803560432
 20
89.981371401
 10
73.1884381653
 20
89.9818740605
  0
LINE
  5
3AB
100
AcDbEntity
  8
RACCORDO
100
AcDbLine
 62
253
  6
CONTINUOUS
 10
73.1884381653
 20
89.9818740605
 11
73.2733262113
 21
89.9865121502
  0
LINE
  5
3AC
100
AcDbEntity
  8
RACCORDO
100
AcDbLine
 62
253
  6
CONTINUOUS
 10
73.2733262113
 20
89.9865121502
 11
73.6769754152
 21
90.0073871037
  0
LINE
  5
3AD
100
AcDbEntity
  8
RACCORDO
100
AcDbLine
 62
253
  6
CONTINUOUS
 10
70.6829457833
 20
89.8507679655
 11
71.138737106
 21
89.8736654742
  0
LINE
  5
3AE
100
AcDbEntity
  8
ASSI
100
AcDbLine
 62
253
  6
CONTINUOUS
 10
70.6829457833
 20
89.8507679655
 11
71.138737106
 21
89.8736654742
  0
LINE
  5
3AF
100
AcDbEntity
  8
RACCORDO
100
AcDbLine
 62
253
  6
CONTINUOUS
 10
70.6777885135
 20
89.9535397935
 11
71.1335855508
 21
89.9763502741
  0
LINE
  5
3B0
100
AcDbEntity
  8
ASSI
100
AcDbLine
 62
253
  6
CONTINUOUS
 10
70.6777885135
 20
89.9535397935
 11
71.1335855508
 21
89.9763502741
  0
LINE
  5
3B1
100
AcDbEntity
  8
0
100
AcDbLine
 62
253
  6
CONTINUOUS
 10
78.6829457833
 20
90.0869743315
 11
75.9515364125
 21
90.0416212294
  0
LINE
  5
3B2
100
AcDbEntity
  8
0
100
AcDbLine
 62
253
  6
CONTINUOUS
 10
75.9515364125
 20
90.0416212294
 11
73.6770294046
 21
90.0062501907
  0
LINE
  5
3B3
100
AcDbEntity
  8
RACCORDO
100
AcDbLine
 62
253
  6
CONTINUOUS
 10
71.1335855507
 20
89.9763502741
 11
73.1797896078
 21
89.9763502741
  0
LINE
  5
3B4
100
AcDbEntity
  8
ASSI
100
AcDbLine
 62
253
  6
CONTINUOUS
 10
71.1335855507
 20
89.9763502741
 11
73.1797896078
 21
89.9763502741
  0
LWPOLYLINE
  5
3B5
100
AcDbEntity
  8
RACCORDO
100
AcDbPolyline
 62
7
  6
CONTINUOUS
 90
23
 70
0
 10
73.6397541196
 20
90.7911964363
 10
73.6241812406
 20
90.7870794616
 10
73.5958914688
 20
90.7816285143
 10
73.5690414594
 20
90.7784307018
 10
73.5437024616
 20
90.7774188531
 10
73.5200253446
 20
90.7784136418
 10
73.4979431819
 20
90.7812855262
 10
73.4772031375
 20
90.7860900203
 10
73.457840702
 20
90.7926785986
 10
73.4398787574
 20
90.8010027276
 10
73.4231067486
 20
90.8113442464
 10
73.4074202169
 20
90.8237865022
 10
73.3930374761
 20
90.8381301927
 10
73.3801981908
 20
90.8542293674
 10
73.3688938972
 20
90.8720416928
 10
73.3590298916
 20
90.8914201134
 10
73.3506096588
 20
90.9120275447
 10
73.3435820212
 20
90.9336883853
 10
73.3377966413
 20
90.9564200803
 10
73.3331153259
 20
90.9801880276
 10
73.3294681307
 20
91.0049527073
 10
73.3268094422
 20
91.0306601537
 10
73.3250742149
 20
91.0572700529
  0
LINE
  5
3B6
100
AcDbEntity
  8
RACCORDO
100
AcDbLine
 62
253
  6
CONTINUOUS
 10
73.293819437
 20
91.7201469267
 11
73.2953050841
 21
91.7202437977
  0
LINE
  5
3B7
100
AcDbEntity
  8
RACCORDO
100
AcDbLine
 62
253
  6
CONTINUOUS
 10
73.2953050841
 20
91.7202437977
 11
73.3304362039
 21
91.7219817031
  0
LINE
  5
3B8
100
AcDbEntity
  8
RACCORDO
100
AcDbLine
 62
253
  6
CONTINUOUS
 10
73.3304362039
 20
91.7219817031
 11
73.5949618627
 21
91.73443574
  0
LWPOLYLINE
  5
3B9
100
AcDbEntity
  8
RACCORDO
100
AcDbPolyline
 62
7
  6
CONTINUOUS
 90
7
 70
0
 10
73.1546223313
 20
91.5520807688
 10
73.1716702345
 20
91.5528742772
 10
73.1915860219
 20
91.5557919688
 10
73.2143711819
 20
91.5608184268
 10
73.2400271009
 20
91.5679336146
 10
73.2685550616
 20
91.5771129603
 10
73.2999562407
 20
91.5883274513
  0
LINE
  5
3BA
100
AcDbEntity
  8
0
100
AcDbLine
 62
7
  6
CONTINUOUS
 10
73.1546223313
 20
91.5520807688
 11
73.1071120186
 21
91.5529100644
  0
LINE
  5
3BB
100
AcDbEntity
  8
0
100
AcDbLine
 62
253
  6
CONTINUOUS
 10
73.0609830743
 20
92.5535629433
 11
73.5567318439
 21
92.5449096163
  0
LINE
  5
3BC
100
AcDbEntity
  8
RACCORDO
100
AcDbLine
 62
7
  6
CONTINUOUS
 10
72.9266164529
 20
95.8572205788
 11
73.4207433462
 21
95.8701597469
  0
LINE
  5
3BD
100
AcDbEntity
  8
RACCORDO
100
AcDbLine
 62
7
  6
CONTINUOUS
 10
72.9569365836
 20
95.0531525087
 11
73.4523322027
 21
95.0401801179
  0
LWPOLYLINE
  5
3BE
100
AcDbEntity
  8
RACCORDO
100
AcDbPolyline
 62
253
  6
CONTINUOUS
 90
19
 70
0
 10
77.9655341297
 20
69.3500759906
 10
77.9877043074
 20
69.302261165
 10
78.007491535
 20
69.2545252142
 10
78.0248014506
 20
69.2070957828
 10
78.0395515064
 20
69.1601990534
 10
78.051671362
 20
69.1140586682
 10
78.0611032199
 20
69.068894662
 10
78.0678021011
 20
69.024922414
 10
78.0717360597
 20
68.9823516203
 10
78.0728863352
 20
68.9413852934
 10
78.0712474417
 20
68.9022187947
 10
78.0668271947
 20
68.8650389026
 10
78.0596466732
 20
68.8300229217
 10
78.0497401195
 20
68.7973378374
 10
78.0371547762
 20
68.7671395197
 10
78.0219506601
 20
68.7395719794
 10
78.0042002769
 20
68.7147666818
 10
77.9839882748
 20
68.6928419194
 10
77.9614110413
 20
68.673902248
  0
LINE
  5
3BF
100
AcDbEntity
  8
RACCORDO
100
AcDbLine
 62
253
  6
CONTINUOUS
 10
73.0106323962
 20
99.1585407803
 11
73.0121201223
 21
99.1586029234
  0
LINE
  5
3C0
100
AcDbEntity
  8
RACCORDO
100
AcDbLine
 62
253
  6
CONTINUOUS
 10
73.0121201223
 20
99.1586029234
 11
73.3120229133
 21
99.1677053647
  0
LINE
  5
3C1
100
AcDbEntity
  8
0
100
AcDbLine
 62
253
  6
CONTINUOUS
 10
73.3367564243
 20
98.3624177465
 11
72.8351955691
 21
98.3536629692
  0
LINE
  5
3C2
100
AcDbEntity
  8
0
100
AcDbLine
 62
7
  6
CONTINUOUS
 10
72.858817241
 20
99.3539229822
 11
72.8106171653
 21
99.3530816467
  0
LINE
  5
3C3
100
AcDbEntity
  8
RACCORDO
100
AcDbLine
 62
7
  6
CONTINUOUS
 10
72.8106171653
 20
99.3530816467
 11
72.858817241
 21
99.3539229822
  0
LWPOLYLINE
  5
3C4
100
AcDbEntity
  8
RACCORDO
100
AcDbPolyline
 62
7
  6
CONTINUOUS
 90
7
 70
0
 10
73.0059056336
 20
99.3184358664
 10
72.9737969705
 20
99.3294817384
 10
72.9447279349
 20
99.3384880525
 10
72.9186970466
 20
99.3454416401
 10
72.895702742
 20
99.3503339154
 10
72.8757433791
 20
99.3531608574
 10
72.858817241
 20
99.3539229822
  0
LWPOLYLINE
  5
3C5
100
AcDbEntity
  8
0
100
AcDbPolyline
 62
7
  6
CONTINUOUS
 90
18
 70
0
 10
74.5802943623
 20
149.635061477
 10
74.5885588178
 20
149.6709192403
 10
74.6049305632
 20
149.7267825519
 10
74.6246584651
 20
149.7818727502
 10
74.6476547262
 20
149.8359733775
 10
74.6736559551
 20
149.8884350608
 10
74.7026591675
 20
149.9391804721
 10
74.7346673477
 20
149.9882869393
 10
74.7694260562
 20
150.0353370735
 10
74.8069935081
 20
150.0803589623
 10
74.8473114883
 20
150.123324518
 10
74.8899509126
 20
150.1637320881
 10
74.9349682074
 20
150.2015559124
 10
74.9823069463
 20
150.236821751
 10
75.0313687654
 20
150.2691052322
 10
75.0821327713
 20
150.2983378
 10
75.1346198575
 20
150.3245880104
 10
75.1867719544
 20
150.3469834094
  0
LINE
  5
3C6
100
AcDbEntity
  8
RACCORDO
100
AcDbLine
 62
7
  6
CONTINUOUS
 10
73.2892200062
 20
126.3377042179
 11
73.3322963137
 21
126.4035344995
  0
LWPOLYLINE
  5
3C7
100
AcDbEntity
  8
RACCORDO
100
AcDbPolyline
 62
7
  6
CONTINUOUS
 90
19
 70
0
 10
73.3322963129
 20
98.5076325709
 10
73.2892237141
 20
98.5734570947
 10
73.2584591175
 20
98.6210249392
 10
73.229410218
 20
98.6668630983
 10
73.2020801388
 20
98.710969637
 10
73.1764609416
 20
98.7532401442
 10
73.1526534367
 20
98.7937788626
 10
73.1306770994
 20
98.8325650444
 10
73.1105074925
 20
98.8695799082
 10
73.0921802483
 20
98.9049317198
 10
73.0756977997
 20
98.9386280488
 10
73.0610530593
 20
98.970662533
 10
73.0482679681
 20
99.0011195964
 10
73.0373370124
 20
99.0300554317
 10
73.0282614365
 20
99.0574408092
 10
73.0210733152
 20
99.0832408034
 10
73.0157816036
 20
99.1074717693
 10
73.0123724143
 20
99.1301933452
 10
73.0108433471
 20
99.1514489366
  0
LWPOLYLINE
  5
3C8
100
AcDbEntity
  8
RACCORDO
100
AcDbPolyline
 62
253
  6
CONTINUOUS
 90
10
 70
0
 10
73.5705296257
 20
68.6368711748
 10
73.1666947822
 20
70.9789783851
 10
72.7962277345
 20
73.3265944798
 10
72.4591288836
 20
75.6792324142
 10
72.1553450547
 20
78.0363904875
 10
71.8849302209
 20
80.3975967147
 10
71.6480455191
 20
82.7624090735
 10
71.4447449446
 20
85.1303561713
 10
71.2749753353
 20
87.5009369987
 10
71.138737106
 20
89.8736654742
  0
LWPOLYLINE
  5
3C9
100
AcDbEntity
  8
ASSI
100
AcDbPolyline
 62
253
  6
CONTINUOUS
 90
10
 70
0
 10
73.5705296257
 20
68.6368711748
 10
73.1666947822
 20
70.9789783851
 10
72.7962277345
 20
73.3265944798
 10
72.4591288836
 20
75.6792324142
 10
72.1553450547
 20
78.0363904875
 10
71.8849302209
 20
80.3975967147
 10
71.6480455191
 20
82.7624090735
 10
71.4447449446
 20
85.1303561713
 10
71.2749753353
 20
87.5009369987
 10
71.138737106
 20
89.8736654742
  0
LWPOLYLINE
  5
3CA
100
AcDbEntity
  8
RACCORDO
100
AcDbPolyline
 62
253
  6
CONTINUOUS
 90
17
 70
0
 10
73.3204591692
 20
91.1538488076
 10
73.3230172653
 20
91.1301206948
 10
73.3284032744
 20
91.1066973331
 10
73.3365788295
 20
91.083745577
 10
73.3474856928
 20
91.0614289215
 10
73.36104617
 20
91.0399063377
 10
73.3771636641
 20
91.0193311402
 10
73.3957233633
 20
90.9998498947
 10
73.4165930591
 20
90.9816013745
 10
73.4396240877
 20
90.9647155714
 10
73.4646523893
 20
90.9493127703
 10
73.4914996768
 20
90.9355026919
 10
73.5199747055
 20
90.9233837111
 10
73.5498746357
 20
90.9130421567
 10
73.5809864775
 20
90.9045516958
 10
73.6130886081
 20
90.8979728098
 10
73.6348287036
 20
90.8949162814
  0
LINE
  5
3CB
100
AcDbEntity
  8
RACCORDO
100
AcDbLine
 62
253
  6
CONTINUOUS
 10
73.6152922714
 20
67.9569876963
 11
73.6078564409
 21
68.0445616459
  0
LINE
  5
3CC
100
AcDbEntity
  8
ASSI
100
AcDbLine
 62
253
  6
CONTINUOUS
 10
73.6152922714
 20
67.9569876963
 11
73.6078564409
 21
68.0445616459
  0
LINE
  5
3CD
100
AcDbEntity
  8
RACCORDO
100
AcDbLine
 62
253
  6
CONTINUOUS
 10
73.6078564409
 20
68.0445616459
 11
73.6004625254
 21
68.1402848925
  0
LINE
  5
3CE
100
AcDbEntity
  8
ASSI
100
AcDbLine
 62
253
  6
CONTINUOUS
 10
73.6078564409
 20
68.0445616459
 11
73.6004625254
 21
68.1402848925
  0
LINE
  5
3CF
100
AcDbEntity
  8
RACCORDO
100
AcDbLine
 62
253
  6
CONTINUOUS
 10
73.6004625254
 20
68.1402848925
 11
73.5932168464
 21
68.2429507918
  0
LINE
  5
3D0
100
AcDbEntity
  8
ASSI
100
AcDbLine
 62
253
  6
CONTINUOUS
 10
73.6004625254
 20
68.1402848925
 11
73.5932168464
 21
68.2429507918
  0
LINE
  5
3D1
100
AcDbEntity
  8
RACCORDO
100
AcDbLine
 62
253
  6
CONTINUOUS
 10
73.5932168464
 20
68.2429507918
 11
73.586251528
 21
68.3511991841
  0
LINE
  5
3D2
100
AcDbEntity
  8
ASSI
100
AcDbLine
 62
253
  6
CONTINUOUS
 10
73.5932168464
 20
68.2429507918
 11
73.586251528
 21
68.3511991841
  0
LINE
  5
3D3
100
AcDbEntity
  8
RACCORDO
100
AcDbLine
 62
253
  6
CONTINUOUS
 10
73.586251528
 20
68.3511991841
 11
73.5796191983
 21
68.463619406
  0
LINE
  5
3D4
100
AcDbEntity
  8
ASSI
100
AcDbLine
 62
253
  6
CONTINUOUS
 10
73.586251528
 20
68.3511991841
 11
73.5796191983
 21
68.463619406
  0
LINE
  5
3D5
100
AcDbEntity
  8
RACCORDO
100
AcDbLine
 62
253
  6
CONTINUOUS
 10
73.5796191983
 20
68.463619406
 11
73.5705296273
 21
68.6368711747
  0
LINE
  5
3D6
100
AcDbEntity
  8
ASSI
100
AcDbLine
 62
253
  6
CONTINUOUS
 10
73.5796191983
 20
68.463619406
 11
73.5705296273
 21
68.6368711747
  0
LWPOLYLINE
  5
3D7
100
AcDbEntity
  8
RACCORDO
100
AcDbPolyline
 62
253
  6
CONTINUOUS
 90
12
 70
0
 10
71.138737106
 20
89.8736654742
 10
70.961774935
 20
93.7204982672
 10
70.8211999517
 20
97.4659531091
 10
70.7118605995
 20
101.212451919
 10
70.6337536211
 20
104.9597293161
 10
70.5868822706
 20
108.7075249282
 10
70.571256315
 20
112.4555833943
 10
70.5868822658
 20
116.2036418172
 10
70.6337536115
 20
119.9514373571
 10
70.7118605877
 20
123.6987147397
 10
70.8211999412
 20
127.4452136217
 10
70.9617749284
 20
131.1906685935
  0
LWPOLYLINE
  5
3D8
100
AcDbEntity
  8
ASSI
100
AcDbPolyline
 62
253
  6
CONTINUOUS
 90
12
 70
0
 10
71.138737106
 20
89.8736654742
 10
70.961774935
 20
93.7204982672
 10
70.8211999517
 20
97.4659531091
 10
70.7118605995
 20
101.212451919
 10
70.6337536211
 20
104.9597293161
 10
70.5868822706
 20
108.7075249282
 10
70.571256315
 20
112.4555833943
 10
70.5868822658
 20
116.2036418172
 10
70.6337536115
 20
119.9514373571
 10
70.7118605877
 20
123.6987147397
 10
70.8211999412
 20
127.4452136217
 10
70.9617749284
 20
131.1906685935
  0
LINE
  5
3D9
100
AcDbEntity
  8
RACCORDO
100
AcDbLine
 62
253
  6
CONTINUOUS
 10
70.9617749284
 20
131.1906685935
 11
71.138737106
 21
135.0375015739
  0
LINE
  5
3DA
100
AcDbEntity
  8
ASSI
100
AcDbLine
 62
253
  6
CONTINUOUS
 10
70.9617749284
 20
131.1906685935
 11
71.138737106
 21
135.0375015739
  0
LINE
  5
3DB
100
AcDbEntity
  8
RACCORDO
100
AcDbLine
 62
253
  6
CONTINUOUS
 10
73.5705296273
 20
156.274295873
 11
73.5796144177
 21
156.4474558962
  0
LINE
  5
3DC
100
AcDbEntity
  8
ASSI
100
AcDbLine
 62
253
  6
CONTINUOUS
 10
73.5705296273
 20
156.274295873
 11
73.5796144177
 21
156.4474558962
  0
LWPOLYLINE
  5
3DD
100
AcDbEntity
  8
RACCORDO
100
AcDbPolyline
 62
253
  6
CONTINUOUS
 90
10
 70
0
 10
71.138737106
 20
135.0375015739
 10
71.2749753215
 20
137.4102297751
 10
71.4447449138
 20
139.7808103803
 10
71.6480454681
 20
142.148757308
 10
71.8849301377
 20
144.5135695261
 10
72.1553449361
 20
146.8747756645
 10
72.4591287529
 20
149.2319337681
 10
72.796227624
 20
151.5845718738
 10
73.1666947152
 20
153.9321882573
 10
73.5705296256
 20
156.2742958728
  0
LWPOLYLINE
  5
3DE
100
AcDbEntity
  8
ASSI
100
AcDbPolyline
 62
253
  6
CONTINUOUS
 90
10
 70
0
 10
71.138737106
 20
135.0375015739
 10
71.2749753215
 20
137.4102297751
 10
71.4447449138
 20
139.7808103803
 10
71.6480454681
 20
142.148757308
 10
71.8849301377
 20
144.5135695261
 10
72.1553449361
 20
146.8747756645
 10
72.4591287529
 20
149.2319337681
 10
72.796227624
 20
151.5845718738
 10
73.1666947152
 20
153.9321882573
 10
73.5705296256
 20
156.2742958728
  0
LINE
  5
3DF
100
AcDbEntity
  8
RACCORDO
100
AcDbLine
 62
253
  6
CONTINUOUS
 10
73.5796144177
 20
156.4474558962
 11
73.5862354534
 21
156.5596765366
  0
LINE
  5
3E0
100
AcDbEntity
  8
ASSI
100
AcDbLine
 62
253
  6
CONTINUOUS
 10
73.5796144177
 20
156.4474558962
 11
73.5862354534
 21
156.5596765366
  0
LINE
  5
3E1
100
AcDbEntity
  8
RACCORDO
100
AcDbLine
 62
253
  6
CONTINUOUS
 10
73.5862354534
 20
156.5596765366
 11
73.5931924959
 21
156.6678508559
  0
LINE
  5
3E2
100
AcDbEntity
  8
ASSI
100
AcDbLine
 62
253
  6
CONTINUOUS
 10
73.5862354534
 20
156.5596765366
 11
73.5931924959
 21
156.6678508559
  0
LWPOLYLINE
  5
3E3
100
AcDbEntity
  8
RACCORDO
100
AcDbPolyline
 62
7
  6
CONTINUOUS
 90
23
 70
0
 10
73.3250742184
 20
133.8538970669
 10
73.3268973459
 20
133.8815325545
 10
73.3297016918
 20
133.9080518727
 10
73.3335370937
 20
133.9334124937
 10
73.3384597908
 20
133.9576259159
 10
73.3445082619
 20
133.9805834123
 10
73.3516870993
 20
134.0020594309
 10
73.3599786784
 20
134.0218763007
 10
73.3694316649
 20
134.0401050673
 10
73.3801588516
 20
134.0568823418
 10
73.3921975272
 20
134.0721408822
 10
73.4055771828
 20
134.0857973843
 10
73.4204463081
 20
134.097932776
 10
73.4369098834
 20
134.108466851
 10
73.4549409704
 20
134.1172595542
 10
73.4744881423
 20
134.1242869023
 10
73.4954935142
 20
134.1294128899
 10
73.517972735
 20
134.1325500908
 10
73.5419579818
 20
134.133742273
 10
73.567312026
 20
134.1328897347
 10
73.5940411767
 20
134.1298396784
 10
73.6223997623
 20
134.124491734
 10
73.6397537856
 20
134.1199635841
  0
LINE
  5
3E4
100
AcDbEntity
  8
RACCORDO
100
AcDbLine
 62
253
  6
CONTINUOUS
 10
73.5931924959
 20
156.6678508559
 11
73.6004385985
 21
156.770574148
  0
LINE
  5
3E5
100
AcDbEntity
  8
ASSI
100
AcDbLine
 62
253
  6
CONTINUOUS
 10
73.5931924959
 20
156.6678508559
 11
73.6004385985
 21
156.770574148
  0
LINE
  5
3E6
100
AcDbEntity
  8
RACCORDO
100
AcDbLine
 62
253
  6
CONTINUOUS
 10
73.6004385985
 20
156.770574148
 11
73.6078307958
 21
156.8663232918
  0
LINE
  5
3E7
100
AcDbEntity
  8
ASSI
100
AcDbLine
 62
253
  6
CONTINUOUS
 10
73.6004385985
 20
156.770574148
 11
73.6078307958
 21
156.8663232918
  0
LWPOLYLINE
  5
3E8
100
AcDbEntity
  8
RACCORDO
100
AcDbPolyline
 62
253
  6
CONTINUOUS
 90
16
 70
0
 10
73.6078307958
 20
156.8663232918
 10
73.6152663672
 20
156.9539253204
 10
73.6189865165
 20
156.9943207873
 10
73.6226731915
 20
157.0322743868
 10
73.6263202304
 20
157.0676643074
 10
73.6299287027
 20
157.1003809665
 10
73.6334715301
 20
157.1303264702
 10
73.6369390418
 20
157.1574069673
 10
73.6403288327
 20
157.1815340428
 10
73.6436231281
 20
157.2026300613
 10
73.6468081103
 20
157.2206254426
 10
73.6498780767
 20
157.2354672388
 10
73.6528261303
 20
157.2471136892
 10
73.6556417424
 20
157.2555254932
 10
73.6583102809
 20
157.2606705805
 10
73.6608175257
 20
157.2625294277
  0
LWPOLYLINE
  5
3E9
100
AcDbEntity
  8
ASSI
100
AcDbPolyline
 62
253
  6
CONTINUOUS
 90
16
 70
0
 10
73.6078307958
 20
156.8663232918
 10
73.6152663672
 20
156.9539253204
 10
73.6189865165
 20
156.9943207873
 10
73.6226731915
 20
157.0322743868
 10
73.6263202304
 20
157.0676643074
 10
73.6299287027
 20
157.1003809665
 10
73.6334715301
 20
157.1303264702
 10
73.6369390418
 20
157.1574069673
 10
73.6403288327
 20
157.1815340428
 10
73.6436231281
 20
157.2026300613
 10
73.6468081103
 20
157.2206254426
 10
73.6498780767
 20
157.2354672388
 10
73.6528261303
 20
157.2471136892
 10
73.6556417424
 20
157.2555254932
 10
73.6583102809
 20
157.2606705805
 10
73.6608175257
 20
157.2625294277
  0
LWPOLYLINE
  5
3EA
100
AcDbEntity
  8
RACCORDO
100
AcDbPolyline
 62
253
  6
CONTINUOUS
 90
17
 70
0
 10
73.3204591656
 20
133.7573182406
 10
73.3230167995
 20
133.7810467487
 10
73.328402403
 20
133.8044705276
 10
73.3365776114
 20
133.8274227169
 10
73.3474841883
 20
133.8497398152
 10
73.3610444399
 20
133.8712628455
 10
73.3771617691
 20
133.8918384873
 10
73.3957213632
 20
133.911320169
 10
73.4165910119
 20
133.9295691116
 10
73.4396220492
 20
133.9464553178
 10
73.4646504121
 20
133.9618584979
 10
73.4914978098
 20
133.9756689263
 10
73.5199729933
 20
133.9877882238
 10
73.5498731181
 20
133.9981300579
 10
73.580985189
 20
134.0066207579
 10
73.6130875775
 20
134.0131998399
 10
73.6348289815
 20
134.0162566257
  0
LWPOLYLINE
  5
3EB
100
AcDbEntity
  8
RACCORDO
100
AcDbPolyline
 62
253
  6
CONTINUOUS
 90
3
 70
0
 10
74.4059992731
 20
146.0152074668
 10
74.4945064079
 20
146.7499667023
 10
74.512832085
 20
146.8987570969
  0
LWPOLYLINE
  5
3EC
100
AcDbEntity
  8
RACCORDO
100
AcDbPolyline
 62
7
  6
CONTINUOUS
 90
17
 70
0
 10
73.012372194
 20
125.7809723735
 10
73.0157810627
 20
125.8036926565
 10
73.0210723541
 20
125.8279223853
 10
73.0282598964
 20
125.8537211788
 10
73.0373347943
 20
125.8811054475
 10
73.0482651529
 20
125.9100404098
 10
73.0610498033
 20
125.9404970016
 10
73.0756941861
 20
125.9725313215
 10
73.0921763165
 20
126.006227534
 10
73.1105032682
 20
126.0415791907
 10
73.1306726221
 20
126.0785939509
 10
73.1526487429
 20
126.1173800592
 10
73.1764559768
 20
126.1579186024
 10
73.2020749392
 20
126.2001889637
 10
73.2294050897
 20
126.2442957783
 10
73.2584545446
 20
126.2901349242
 10
73.2892200062
 20
126.3377042179
  0
LWPOLYLINE
  5
3ED
100
AcDbEntity
  8
RACCORDO
100
AcDbPolyline
 62
253
  6
CONTINUOUS
 90
3
 70
0
 10
74.512832085
 20
78.0124099511
 10
74.4236166883
 20
78.7474853837
 10
74.4059992731
 20
78.8959595813
  0
LINE
  5
3EE
100
AcDbEntity
  8
RACCORDO
100
AcDbLine
 62
7
  6
CONTINUOUS
 10
73.2938194367
 20
91.7201469267
 11
73.2922124865
 21
91.7548034403
  0
LINE
  5
3EF
100
AcDbEntity
  8
RACCORDO
100
AcDbLine
 62
253
  6
CONTINUOUS
 10
73.2467347952
 20
95.0455638755
 11
73.2155693012
 21
95.8647870754
  0
LWPOLYLINE
  5
3F0
100
AcDbEntity
  8
RACCORDO
100
AcDbPolyline
 62
253
  6
CONTINUOUS
 90
17
 70
0
 10
72.9941582098
 20
125.1866398679
 10
72.9949824809
 20
125.1619098352
 10
72.9988537838
 20
125.1372817444
 10
73.0057425555
 20
125.1129436657
 10
73.0155961907
 20
125.0890814544
 10
73.0283394429
 20
125.0658773322
 10
73.0438749995
 20
125.0435084952
 10
73.0620842246
 20
125.0221457609
 10
73.0828280652
 20
125.0019522638
 10
73.105948113
 20
124.9830822098
 10
73.1312678137
 20
124.9656796982
 10
73.1585938159
 20
124.9498776216
 10
73.1877174472
 20
124.9357966512
 10
73.2184163075
 20
124.923544315
 10
73.2504559679
 20
124.9132141769
 10
73.2835917606
 20
124.9048851219
 10
73.286400149
 20
124.9043673657
  0
LINE
  5
3F1
100
AcDbEntity
  8
RACCORDO
100
AcDbLine
 62
7
  6
CONTINUOUS
 10
73.0108433471
 20
99.1514489367
 11
73.0106323759
 21
99.1585407797
  0
LWPOLYLINE
  5
3F2
100
AcDbEntity
  8
RACCORDO
100
AcDbPolyline
 62
7
  6
CONTINUOUS
 90
25
 70
0
 10
72.9913381169
 20
99.8239582204
 10
72.991039316
 20
99.8495608538
 10
72.9916441506
 20
99.8743213059
 10
72.9931988069
 20
99.8982093126
 10
72.9957560185
 20
99.9212749028
 10
72.9993560279
 20
99.9433971336
 10
73.0039994486
 20
99.9642873983
 10
73.0096748038
 20
99.9837759056
 10
73.0164100471
 20
100.0019552289
 10
73.0242503537
 20
100.0189278399
 10
73.0331947492
 20
100.0346224637
 10
73.0432727808
 20
100.0490158316
 10
73.0546142229
 20
100.0622642446
 10
73.0672966709
 20
100.074341255
 10
73.0813133986
 20
100.0851307219
 10
73.0966902011
 20
100.0946352638
 10
73.11346785
 20
100.102767363
 10
73.131628766
 20
100.1094440526
 10
73.1510870797
 20
100.1146769705
 10
73.1717130981
 20
100.1183736666
 10
73.1935659614
 20
100.1204678928
 10
73.2168426069
 20
100.1209866557
 10
73.2415373815
 20
100.1198333143
 10
73.2675677583
 20
100.1168592508
 10
73.2837071105
 20
100.1139768128
  0
LWPOLYLINE
  5
3F3
100
AcDbEntity
  8
RACCORDO
100
AcDbPolyline
 62
7
  6
CONTINUOUS
 90
18
 70
0
 10
73.2922124864
 20
91.7548034418
 10
73.292108092
 20
91.7758936553
 10
73.2937575523
 20
91.7984688685
 10
73.2971633787
 20
91.822576627
 10
73.3023296228
 20
91.8482737348
 10
73.3092573933
 20
91.8755872379
 10
73.317944673
 20
91.9045090055
 10
73.3283947471
 20
91.935023182
 10
73.3406090847
 20
91.9671853429
 10
73.3545830498
 20
92.0010878895
 10
73.3703317487
 20
92.0367385257
 10
73.3878452804
 20
92.0741412986
 10
73.4070820225
 20
92.1133837151
 10
73.428091369
 20
92.1544815251
 10
73.4508293349
 20
92.197383153
 10
73.475114405
 20
92.2420641884
 10
73.5010083457
 20
92.2884871757
 10
73.5284538394
 20
92.3365718864
  0
LINE
  5
3F4
100
AcDbEntity
  8
RACCORDO
100
AcDbLine
 62
253
  6
CONTINUOUS
 10
72.9078899794
 20
112.0544368392
 11
72.9078899794
 21
112.8567302088
  0
LINE
  5
3F5
100
AcDbEntity
  8
RACCORDO
100
AcDbLine
 62
7
  6
CONTINUOUS
 10
73.0106323759
 20
125.7526262684
 11
73.0108433471
 21
125.7597181114
  0
LWPOLYLINE
  5
3F6
100
AcDbEntity
  8
RACCORDO
100
AcDbPolyline
 62
253
  6
CONTINUOUS
 90
17
 70
0
 10
72.9941582063
 20
99.7245271801
 10
72.9949819733
 20
99.7492575926
 10
72.9988528331
 20
99.7738860908
 10
73.0057412257
 20
99.7982245976
 10
73.0155945474
 20
99.822087251
 10
73.028337553
 20
99.8452918223
 10
73.0438729296
 20
99.8676611088
 10
73.0620820407
 20
99.8890242861
 10
73.0828258314
 20
99.9092182133
 10
73.1059458907
 20
99.9280886784
 10
73.1312656609
 20
99.9454915761
 10
73.1585917864
 20
99.9612940081
 10
73.1877155897
 20
99.9753752985
 10
73.2184146654
 20
99.9876279147
 10
73.2504545784
 20
99.997958289
 10
73.2835906542
 20
100.0062875328
 10
73.2864000002
 20
100.0068054723
  0
LINE
  5
3F7
100
AcDbEntity
  8
RACCORDO
100
AcDbLine
 62
253
  6
CONTINUOUS
 10
73.2155693012
 20
129.0463799726
 11
73.2467347952
 21
129.8656031726
  0
LINE
  5
3F8
100
AcDbEntity
  8
RACCORDO
100
AcDbLine
 62
7
  6
CONTINUOUS
 10
73.2922124864
 20
133.1563636063
 11
73.2938194367
 21
133.19102012
  0
LINE
  5
3F9
100
AcDbEntity
  8
RACCORDO
100
AcDbLine
 62
7
  6
CONTINUOUS
 10
73.0108433471
 20
125.7597181115
 11
73.012372194
 21
125.7809723735
  0
LINE
  5
3FA
100
AcDbEntity
  8
RACCORDO
100
AcDbLine
 62
7
  6
CONTINUOUS
 10
72.6164821775
 20
112.849099427
 11
73.1131306373
 21
112.8621046246
  0
LINE
  5
3FB
100
AcDbEntity
  8
0
100
AcDbLine
 62
253
  6
CONTINUOUS
 10
76.6829457833
 20
112.455583524
 11
73.1129457833
 21
112.455583524
  0
LINE
  5
3FC
100
AcDbEntity
  8
RACCORDO
100
AcDbLine
 62
7
  6
CONTINUOUS
 10
73.1131306373
 20
112.0490624235
 11
72.6164821775
 21
112.0620676211
  0
LINE
  5
3FD
100
AcDbEntity
  8
RACCORDO
100
AcDbLine
 62
7
  6
CONTINUOUS
 10
78.6829457833
 20
108.6029295626
 11
76.8482161478
 21
108.9264418997
  0
LINE
  5
3FE
100
AcDbEntity
  8
RACCORDO
100
AcDbLine
 62
7
  6
CONTINUOUS
 10
76.6829457833
 20
109.1234034503
 11
76.6829457833
 21
115.7877635978
  0
LINE
  5
3FF
100
AcDbEntity
  8
RACCORDO
100
AcDbLine
 62
7
  6
CONTINUOUS
 10
78.6829457833
 20
69.3555830526
 11
78.6829457833
 21
90.0869743315
  0
LINE
  5
400
100
AcDbEntity
  8
DRAFT
100
AcDbLine
 62
7
  6
CONTINUOUS
 10
78.6829457833
 20
90.0869743315
 11
78.6829457833
 21
108.6029295626
  0
LINE
  5
401
100
AcDbEntity
  8
DRAFT
100
AcDbLine
 62
7
  6
CONTINUOUS
 10
78.6829457833
 20
116.3082374854
 11
78.6829457833
 21
134.8241927166
  0
LINE
  5
402
100
AcDbEntity
  8
RACCORDO
100
AcDbLine
 62
7
  6
CONTINUOUS
 10
78.6829457833
 20
134.8241927166
 11
78.6829457833
 21
155.5555839604
  0
LINE
  5
403
100
AcDbEntity
  8
RACCORDO
100
AcDbLine
 62
7
  6
CONTINUOUS
 10
76.8482161478
 20
115.9847251484
 11
78.6829457833
 21
116.3082374854
  0
LINE
  5
404
100
AcDbEntity
  8
RACCORDO
100
AcDbLine
 62
7
  6
CONTINUOUS
 10
73.5284538394
 20
92.3365718864
 11
73.5634884422
 21
92.3972058104
  0
LWPOLYLINE
  5
405
100
AcDbEntity
  8
RACCORDO
100
AcDbPolyline
 62
7
  6
CONTINUOUS
 90
19
 70
0
 10
73.5634884423
 20
132.5139612576
 10
73.5284585113
 20
132.5745870236
 10
73.501013204
 20
132.6226712459
 10
73.4751192779
 20
132.6690940256
 10
73.4508340605
 20
132.713775125
 10
73.4280957774
 20
132.7566770738
 10
73.407086114
 20
132.7977751716
 10
73.3878491259
 20
132.8370177176
 10
73.3703353481
 20
132.8744205942
 10
73.3545863611
 20
132.9100714137
 10
73.3406120532
 20
132.9439741804
 10
73.3283973312
 20
132.9761366296
 10
73.3179468288
 20
133.0066513535
 10
73.3092590294
 20
133.0355740004
 10
73.3023306975
 20
133.0628885797
 10
73.2971639944
 20
133.0885868318
 10
73.2937578595
 20
133.112695754
 10
73.2921081939
 20
133.1352721687
 10
73.2922124864
 20
133.1563636062
  0
LWPOLYLINE
  5
406
100
AcDbEntity
  8
RACCORDO
100
AcDbPolyline
 62
7
  6
CONTINUOUS
 90
25
 70
0
 10
73.2837071091
 20
124.7971900595
 10
73.2675677686
 20
124.7943076158
 10
73.2415373992
 20
124.7913335391
 10
73.2168426315
 20
124.7901801831
 10
73.193565992
 20
124.7906989297
 10
73.1717131341
 20
124.7927931384
 10
73.1510871199
 20
124.7964898154
 10
73.1316288094
 20
124.8017227125
 10
73.1134678954
 20
124.8083993799
 10
73.0966902468
 20
124.8165314562
 10
73.0813134433
 20
124.8260359744
 10
73.0672967133
 20
124.8368254173
 10
73.0546142614
 20
124.8489024043
 10
73.0432728144
 20
124.8621507952
 10
73.0331947769
 20
124.8765441418
 10
73.024250375
 20
124.8922387463
 10
73.0164100619
 20
124.9092113402
 10
73.0096748121
 20
124.9273906484
 10
73.0039994509
 20
124.9468791436
 10
72.9993560247
 20
124.9677693996
 10
72.9957560107
 20
124.9898916246
 10
72.9931987958
 20
125.0129572108
 10
72.9916441373
 20
125.0368452146
 10
72.9910393014
 20
125.0616056654
 10
72.991338102
 20
125.0872082991
  0
LWPOLYLINE
  5
407
100
AcDbEntity
  8
RACCORDO
100
AcDbPolyline
 62
7
  6
CONTINUOUS
 90
7
 70
0
 10
72.8588177697
 20
125.5572440567
 10
72.875743987
 20
125.5580061855
 10
72.8957033621
 20
125.5608331347
 10
72.9186976116
 20
125.5657254072
 10
72.9447283775
 20
125.5726789687
 10
72.9737972229
 20
125.5816852205
 10
73.0059056277
 20
125.5927309813
  0
LINE
  5
408
100
AcDbEntity
  8
0
100
AcDbLine
 62
7
  6
CONTINUOUS
 10
72.8588177697
 20
125.5572440567
 11
72.8106171653
 21
125.5580854013
  0
LINE
  5
409
100
AcDbEntity
  8
0
100
AcDbLine
 62
253
  6
CONTINUOUS
 10
72.8351955691
 20
126.5575040789
 11
73.3367564247
 21
126.5487493016
  0
LWPOLYLINE
  5
40A
100
AcDbEntity
  8
RACCORDO
100
AcDbPolyline
 62
253
  6
CONTINUOUS
 90
3
 70
0
 10
73.0106323761
 20
125.7526262684
 10
73.0121197058
 20
125.7525641372
 10
73.3120229117
 20
125.7434616804
  0
LINE
  5
40B
100
AcDbEntity
  8
RACCORDO
100
AcDbLine
 62
7
  6
CONTINUOUS
 10
72.9569365836
 20
129.8580145394
 11
73.4523322027
 21
129.8709869302
  0
LINE
  5
40C
100
AcDbEntity
  8
RACCORDO
100
AcDbLine
 62
7
  6
CONTINUOUS
 10
72.9266164529
 20
129.0539464693
 11
73.4207433462
 21
129.0410073012
  0
LINE
  5
40D
100
AcDbEntity
  8
0
100
AcDbLine
 62
253
  6
CONTINUOUS
 10
73.5567318448
 20
132.3662574317
 11
73.0609830743
 21
132.3576041048
  0
LINE
  5
40E
100
AcDbEntity
  8
0
100
AcDbLine
 62
7
  6
CONTINUOUS
 10
73.1546224246
 20
133.3590862809
 11
73.1071120186
 21
133.3582569836
  0
LINE
  5
40F
100
AcDbEntity
  8
RACCORDO
100
AcDbLine
 62
253
  6
CONTINUOUS
 10
71.1335855507
 20
134.9348167739
 11
73.1797896078
 21
134.9348167739
  0
LINE
  5
410
100
AcDbEntity
  8
ASSI
100
AcDbLine
 62
253
  6
CONTINUOUS
 10
71.1335855507
 20
134.9348167739
 11
73.1797896078
 21
134.9348167739
  0
LINE
  5
411
100
AcDbEntity
  8
0
100
AcDbLine
 62
253
  6
CONTINUOUS
 10
78.6829457833
 20
134.8241927166
 11
73.6770294046
 21
134.9049168574
  0
LINE
  5
412
100
AcDbEntity
  8
RACCORDO
100
AcDbLine
 62
253
  6
CONTINUOUS
 10
70.6777885082
 20
134.9576272548
 11
71.1335855507
 21
134.9348167739
  0
LINE
  5
413
100
AcDbEntity
  8
ASSI
100
AcDbLine
 62
253
  6
CONTINUOUS
 10
70.6777885082
 20
134.9576272548
 11
71.1335855507
 21
134.9348167739
  0
LINE
  5
414
100
AcDbEntity
  8
RACCORDO
100
AcDbLine
 62
253
  6
CONTINUOUS
 10
70.6829457992
 20
135.0603990818
 11
71.1387371061
 21
135.0375015739
  0
LINE
  5
415
100
AcDbEntity
  8
ASSI
100
AcDbLine
 62
253
  6
CONTINUOUS
 10
70.6829457992
 20
135.0603990818
 11
71.1387371061
 21
135.0375015739
  0
LWPOLYLINE
  5
416
100
AcDbEntity
  8
RACCORDO
100
AcDbPolyline
 62
253
  6
CONTINUOUS
 90
4
 70
0
 10
73.293819457
 20
133.1910201204
 10
73.2953054992
 20
133.190923233
 10
73.2997543165
 20
133.1906890604
 10
73.5949618625
 20
133.1767313172
  0
LWPOLYLINE
  5
417
100
AcDbEntity
  8
RACCORDO
100
AcDbPolyline
 62
253
  6
CONTINUOUS
 90
5
 70
0
 10
73.1795612971
 20
134.9298641405
 10
73.1803560349
 20
134.9297956474
 10
73.1884381571
 20
134.9292929879
 10
73.2018630304
 20
134.9285227084
 10
73.6769754152
 20
134.9037799443
  0
LWPOLYLINE
  5
418
100
AcDbEntity
  8
RACCORDO
100
AcDbPolyline
 62
7
  6
CONTINUOUS
 90
7
 70
0
 10
73.2999562424
 20
133.3228396327
 10
73.2685549123
 20
133.3340541875
 10
73.2400268677
 20
133.3432335449
 10
73.2143709313
 20
133.35034871
 10
73.1915858202
 20
133.3553751297
 10
73.1716701475
 20
133.358292786
 10
73.1546224246
 20
133.3590862809
  0
LINE
  5
419
100
AcDbEntity
  8
RACCORDO
100
AcDbLine
 62
253
  6
CONTINUOUS
 10
73.4061982824
 20
138.0361686961
 11
73.8657014508
 21
138.0033422896
  0
LWPOLYLINE
  5
41A
100
AcDbEntity
  8
RACCORDO
100
AcDbPolyline
 62
253
  6
CONTINUOUS
 90
3
 70
0
 10
73.368780135
 20
138.0391040685
 10
73.3741216006
 20
138.0386469914
 10
73.4061982824
 20
138.0361686961
  0
LINE
  5
41B
100
AcDbEntity
  8
RACCORDO
100
AcDbLine
 62
7
  6
CONTINUOUS
 10
74.2168082872
 20
146.891005441
 11
74.7202652229
 21
146.9041889248
  0
LINE
  5
41C
100
AcDbEntity
  8
RACCORDO
100
AcDbLine
 62
7
  6
CONTINUOUS
 10
74.115889941
 20
146.022804247
 11
74.6119903977
 21
146.0098133993
  0
LWPOLYLINE
  5
41D
100
AcDbEntity
  8
RACCORDO
100
AcDbPolyline
 62
253
  6
CONTINUOUS
 90
19
 70
0
 10
77.9614119641
 20
156.2372660574
 10
77.983989154
 20
156.2183263156
 10
78.0042011078
 20
156.1964014791
 10
78.0219514387
 20
156.1715961046
 10
78.0371554991
 20
156.1440284854
 10
78.0497407839
 20
156.1138300875
 10
78.0596472768
 20
156.081144923
 10
78.0668277362
 20
156.0461288625
 10
78.0712479204
 20
156.0089488922
 10
78.0728867511
 20
155.969782317
 10
78.0717364139
 20
155.9288159161
 10
78.0678023949
 20
155.8862450515
 10
78.0611034556
 20
155.8422727353
 10
78.0516715424
 20
155.7971086641
 10
78.0395516348
 20
155.7509682173
 10
78.0248015305
 20
155.7040714291
 10
78.0074915701
 20
155.6566419412
 10
77.9877043019
 20
155.6089059368
 10
77.9655340879
 20
155.5610910602
  0
LWPOLYLINE
  5
41E
100
AcDbEntity
  8
RACCORDO
100
AcDbPolyline
 62
253
  6
CONTINUOUS
 90
10
 70
0
 10
77.9655342784
 20
69.3500760003
 10
78.0572872653
 20
69.4049837549
 10
78.1453109285
 20
69.4608056433
 10
78.2296953883
 20
69.517540581
 10
78.3098230377
 20
69.5745971095
 10
78.3865238094
 20
69.6325634601
 10
78.4619752146
 20
69.6932119339
 10
78.5368717196
 20
69.7571367711
 10
78.6105239864
 20
69.8237497694
 10
78.6829457516
 20
69.8930533888
  0
LWPOLYLINE
  5
41F
100
AcDbEntity
  8
RACCORDO
100
AcDbPolyline
 62
253
  6
CONTINUOUS
 90
10
 70
0
 10
77.9655342784
 20
155.5610910477
 10
78.0569502459
 20
155.5064288239
 10
78.1448956885
 20
155.4506639985
 10
78.2294504148
 20
155.3937971993
 10
78.3102021704
 20
155.3362492642
 10
78.3877486192
 20
155.2776014532
 10
78.4636274232
 20
155.2165923299
 10
78.5383436119
 20
155.1527989445
 10
78.6114388854
 20
155.0866399535
 10
78.6829457494
 20
155.0181136614
  0
LINE
  5
420
100
AcDbEntity
  8
RACCORDO
100
AcDbLine
 62
253
  6
CONTINUOUS
 10
73.5705296256
 20
156.2742958728
 11
75.6817347704
 21
156.4591046249
  0
LINE
  5
421
100
AcDbEntity
  8
ASSI
100
AcDbLine
 62
253
  6
CONTINUOUS
 10
73.5705296256
 20
156.2742958728
 11
75.6817347704
 21
156.4591046249
  0
LINE
  5
422
100
AcDbEntity
  8
RACCORDO
100
AcDbLine
 62
7
  6
CONTINUOUS
 10
75.6501977183
 20
154.9026467096
 11
75.91103711
 21
154.9071996782
  0
LINE
  5
423
100
AcDbEntity
  8
RACCORDO
100
AcDbLine
 62
253
  6
CONTINUOUS
 10
77.9655342784
 20
155.5610910477
 11
76.0282098216
 21
155.5727950363
  0
LWPOLYLINE
  5
424
100
AcDbEntity
  8
RACCORDO
100
AcDbPolyline
 62
253
  6
CONTINUOUS
 90
16
 70
0
 10
76.134796486
 20
156.1648343889
 10
76.2564519947
 20
156.1468397087
 10
76.3784389329
 20
156.1259841915
 10
76.5006800593
 20
156.1022629488
 10
76.6230257409
 20
156.0757678237
 10
76.7454526687
 20
156.0463970744
 10
76.8680642588
 20
156.0138547456
 10
76.9907476972
 20
155.9781736607
 10
77.1134023639
 20
155.9393093847
 10
77.236138611
 20
155.8968485385
 10
77.358977322
 20
155.8508054962
 10
77.4816268767
 20
155.8011519548
 10
77.6037363118
 20
155.7474088191
 10
77.7251273054
 20
155.6894108643
 10
77.845764102
 20
155.6273075446
 10
77.9655342784
 20
155.5610910477
  0
LINE
  5
425
100
AcDbEntity
  8
RACCORDO
100
AcDbLine
 62
253
  6
CONTINUOUS
 10
73.121987113
 20
156.3548123526
 11
73.1631145731
 21
156.3474606332
  0
LINE
  5
426
100
AcDbEntity
  8
ASSI
100
AcDbLine
 62
253
  6
CONTINUOUS
 10
73.121987113
 20
156.3548123526
 11
73.1631145731
 21
156.3474606332
  0
LINE
  5
427
100
AcDbEntity
  8
RACCORDO
100
AcDbLine
 62
253
  6
CONTINUOUS
 10
73.1631145731
 20
156.3474606332
 11
73.5705301156
 21
156.2742957986
  0
LINE
  5
428
100
AcDbEntity
  8
ASSI
100
AcDbLine
 62
253
  6
CONTINUOUS
 10
73.1631145731
 20
156.3474606332
 11
73.5705301156
 21
156.2742957986
  0
LINE
  5
429
100
AcDbEntity
  8
RACCORDO
100
AcDbLine
 62
7
  6
CONTINUOUS
 10
73.6608175257
 20
157.2625294277
 11
75.8674359435
 21
157.455583524
  0
LINE
  5
42A
100
AcDbEntity
  8
ASSI
100
AcDbLine
 62
7
  6
CONTINUOUS
 10
73.6608175257
 20
157.2625294277
 11
75.8674359435
 21
157.455583524
  0
ARC
  5
42B
100
AcDbEntity
  8
RACCORDO
100
AcDbCircle
 62
7
  6
CONTINUOUS
 10
238.5916072554
 20
98.2959727255
 40
168.1209091124
100
AcDbArc
 50
182.8793331648
 51
190.3616376217
  0
ARC
  5
42C
100
AcDbEntity
  8
ASSI
100
AcDbCircle
 62
7
  6
CONTINUOUS
 10
238.5916072554
 20
98.2959727255
 40
168.1209091124
100
AcDbArc
 50
182.8793331648
 51
190.3616376217
  0
ARC
  5
42D
100
AcDbEntity
  8
RACCORDO
100
AcDbCircle
 62
7
  6
CONTINUOUS
 10
238.5916072554
 20
98.2959727255
 40
165.6209091124
100
AcDbArc
 50
182.8793463054
 51
190.7317283603
  0
ARC
  5
42E
100
AcDbEntity
  8
ASSI
100
AcDbCircle
 62
7
  6
CONTINUOUS
 10
238.5916072554
 20
98.2959727255
 40
165.6209091124
100
AcDbArc
 50
182.8793463054
 51
190.7317283603
  0
ARC
  5
42F
100
AcDbEntity
  8
0
100
AcDbCircle
 62
7
  6
CONTINUOUS
 10
238.5886591864
 20
98.298943524
 40
165.12
100
AcDbArc
 50
182.8787323946
 51
190.1014160686
  0
ARC
  5
430
100
AcDbEntity
  8
RACCORDO
100
AcDbCircle
 62
7
  6
CONTINUOUS
 10
238.5886591864
 20
98.298943524
 40
165.12
100
AcDbArc
 50
190.1014160686
 51
190.5891670949
  0
ARC
  5
431
100
AcDbEntity
  8
RACCORDO
100
AcDbCircle
 62
7
  6
CONTINUOUS
 10
75.5825645887
 20
71.9145342612
 40
4.0200239337
100
AcDbArc
 50
279.9999998059
 51
320.4648679848
  0
ARC
  5
432
100
AcDbEntity
  8
RACCORDO
100
AcDbCircle
 62
7
  6
CONTINUOUS
 10
73.7043953971
 20
68.1467349694
 40
0.5
100
AcDbArc
 50
190.3619323081
 51
265.0
  0
ARC
  5
433
100
AcDbEntity
  8
ASSI
100
AcDbCircle
 62
7
  6
CONTINUOUS
 10
73.7043953971
 20
68.1467349694
 40
0.5
100
AcDbArc
 50
190.3619323081
 51
265.0
  0
ARC
  5
434
100
AcDbEntity
  8
RACCORDO
100
AcDbCircle
 62
7
  6
CONTINUOUS
 10
75.6554334402
 20
70.308474647
 40
0.3
100
AcDbArc
 50
199.9821465486
 51
269.0
  0
ARC
  5
435
100
AcDbEntity
  8
RACCORDO
100
AcDbCircle
 62
7
  6
CONTINUOUS
 10
76.8829457833
 20
109.1234034503
 40
0.2
100
AcDbArc
 50
180.0
 51
260.0
  0
ARC
  5
436
100
AcDbEntity
  8
RACCORDO
100
AcDbCircle
 62
7
  6
CONTINUOUS
 10
76.8829457833
 20
115.7877635978
 40
0.2
100
AcDbArc
 50
100.0
 51
180.0
  0
ARC
  5
437
100
AcDbEntity
  8
RACCORDO
100
AcDbCircle
 62
7
  6
CONTINUOUS
 10
75.5825645887
 20
152.9966327868
 40
4.0200239337
100
AcDbArc
 50
39.5351313682
 51
80.0000000715
  0
ARC
  5
438
100
AcDbEntity
  8
RACCORDO
100
AcDbCircle
 62
7
  6
CONTINUOUS
 10
73.7043945661
 20
156.7644276272
 40
0.5
100
AcDbArc
 50
94.9998606877
 51
169.637548776
  0
ARC
  5
439
100
AcDbEntity
  8
ASSI
100
AcDbCircle
 62
7
  6
CONTINUOUS
 10
73.7043945661
 20
156.7644276272
 40
0.5
100
AcDbArc
 50
94.9998606877
 51
169.637548776
  0
ARC
  5
43A
100
AcDbEntity
  8
RACCORDO
100
AcDbCircle
 62
7
  6
CONTINUOUS
 10
75.6554334402
 20
154.6026924011
 40
0.3
100
AcDbArc
 50
91.0
 51
160.017968937
  0
ARC
  5
43B
100
AcDbEntity
  8
RACCORDO
100
AcDbCircle
 62
7
  6
CONTINUOUS
 10
238.5916072554
 20
126.6151943225
 40
168.1209091124
100
AcDbArc
 50
169.6380676919
 51
177.1206536946
  0
ARC
  5
43C
100
AcDbEntity
  8
ASSI
100
AcDbCircle
 62
7
  6
CONTINUOUS
 10
238.5916072554
 20
126.6151943225
 40
168.1209091124
100
AcDbArc
 50
169.6380676919
 51
177.1206536946
  0
ARC
  5
43D
100
AcDbEntity
  8
RACCORDO
100
AcDbCircle
 62
7
  6
CONTINUOUS
 10
238.5916072554
 20
126.6151943225
 40
165.6209091124
100
AcDbArc
 50
169.2682716397
 51
177.1206536946
  0
ARC
  5
43E
100
AcDbEntity
  8
ASSI
100
AcDbCircle
 62
7
  6
CONTINUOUS
 10
238.5916072554
 20
126.6151943225
 40
165.6209091124
100
AcDbArc
 50
169.2682716397
 51
177.1206536946
  0
ARC
  5
43F
100
AcDbEntity
  8
0
100
AcDbCircle
 62
7
  6
CONTINUOUS
 10
238.5886591864
 20
126.6122235241
 40
165.12
100
AcDbArc
 50
169.8985839314
 51
177.1212676054
  0
ARC
  5
440
100
AcDbEntity
  8
RACCORDO
100
AcDbCircle
 62
7
  6
CONTINUOUS
 10
238.5886591864
 20
126.6122235241
 40
165.12
100
AcDbArc
 50
169.4108329051
 51
169.8985839314
  0
ARC
  5
441
100
AcDbEntity
  8
RACCORDO
100
AcDbCircle
 62
7
  6
CONTINUOUS
 10
520.1148341864
 20
112.455583524
 40
450.0
100
AcDbArc
 50
177.1206584177
 51
182.8793414056
  0
ARC
  5
442
100
AcDbEntity
  8
ASSI
100
AcDbCircle
 62
7
  6
CONTINUOUS
 10
520.1148341864
 20
112.455583524
 40
450.0
100
AcDbArc
 50
177.1206584177
 51
182.8793414056
  0
ARC
  5
443
100
AcDbEntity
  8
DRAFT
100
AcDbCircle
 62
7
  6
CONTINUOUS
 10
520.1148341864
 20
112.455583524
 40
447.5
100
AcDbArc
 50
177.1206536946
 51
182.8793463054
  0
ARC
  5
444
100
AcDbEntity
  8
ASSI
100
AcDbCircle
 62
7
  6
CONTINUOUS
 10
520.1148341864
 20
112.455583524
 40
447.5
100
AcDbArc
 50
177.1206536946
 51
182.8793463054
  0
ARC
  5
445
100
AcDbEntity
  8
RACCORDO
100
AcDbCircle
 62
7
  6
CONTINUOUS
 10
520.1129457833
 20
112.455583524
 40
447.3
100
AcDbArc
 50
178.2964974608
 51
178.3817683495
  0
ARC
  5
446
100
AcDbEntity
  8
RACCORDO
100
AcDbCircle
 62
7
  6
CONTINUOUS
 10
520.1129457833
 20
112.455583524
 40
447.3
100
AcDbArc
 50
181.6182317182
 51
181.7035025392
  0
ARC
  5
447
100
AcDbEntity
  8
RACCORDO
100
AcDbCircle
 62
7
  6
CONTINUOUS
 10
520.1129457833
 20
112.455583524
 40
447.3
100
AcDbArc
 50
182.6570063239
 51
182.7420102246
  0
ARC
  5
448
100
AcDbEntity
  8
RACCORDO
100
AcDbCircle
 62
7
  6
CONTINUOUS
 10
520.1129457833
 20
112.455583524
 40
447.3
100
AcDbArc
 50
177.2579897662
 51
177.3429936761
  0
ARC
  5
449
100
AcDbEntity
  8
0
100
AcDbCircle
 62
7
  6
CONTINUOUS
 10
520.1129457833
 20
112.455583524
 40
447.0
100
AcDbArc
 50
177.1212676054
 51
182.8787323946
  0
ENDSEC
  0
SECTION
  2
OBJECTS
  0
DICTIONARY
  5
C
100
AcDbDictionary
280
0
281
1
  3
ACAD_GROUP
350
D
  3
ACAD_MLINESTYLE
350
17
  3
ACAD_LAYOUT
350
1A
  3
ACAD_PLOTSETTINGS
350
19
  3
ACAD_PLOTSTYLENAME
350
E
  0
DICTIONARY
  5
D
102
{ACAD_REACTORS
330
C
102
}
100
AcDbDictionary
280
0
281
1
  0
ACDBDICTIONARYWDFLT
  5
E
102
{ACAD_REACTORS
330
C
102
}
100
AcDbDictionary
281
1
  3
Normal
350
F
100
AcDbDictionaryWithDefault
340
F
  0
DICTIONARY
  5
17
102
{ACAD_REACTORS
330
C
102
}
100
AcDbDictionary
280
0
281
1
  3
Standard
350
18
  0
DICTIONARY
  5
19
102
{ACAD_REACTORS
330
C
102
}
100
AcDbDictionary
281
1
  0
DICTIONARY
  5
1A
102
{ACAD_REACTORS
330
C
102
}
100
AcDbDictionary
281
1
  3
Model
350
44A
  3
Layout1
350
44B
  0
ACDBPLACEHOLDER
  5
F
102
{ACAD_REACTORS
330
E
102
}
  0
MLINESTYLE
  5
18
102
{ACAD_REACTORS
330
17
102
}
100
AcDbMlineStyle
  2
STANDARD
 70
0
  3

 62
256
 51
90.0
 52
90.0
 71
2
 49
0.5
 62
256
  6
BYLAYER
 49
-0.5
 62
256
  6
BYLAYER
  0
LAYOUT
  5
44A
102
{ACAD_REACTORS
330
1A
102
}
100
AcDbPlotSettings
  1

  2
none_device
  4
ISO_A4_(297.00_x_210.00_MM)
  6

 40
0.0
 41
0.0
 42
0.0
 43
0.0
 44
297.0
 45
210.0
 46
0.0
 47
0.0
 48
0.0
 49
0.0
140
0.0
141
0.0
142
1.0
143
1.0
 70
1024
 72
1
 73
0
 74
0
  7

 75
0
147
1.0
148
0.0
149
0.0
100
AcDbLayout
  1
Model
 70
0
 71
0
 10
0.0
 20
0.0
 11
297.0
 21
210.0
 12
0.0
 22
0.0
 32
0.0
 14
0.0
 24
0.0
 34
0.0
 15
0.0
 25
0.0
 35
0.0
146
0.0
 13
0.0
 23
0.0
 33
0.0
 16
1.0
 26
0.0
 36
0.0
 17
0.0
 27
1.0
 37
0.0
 76
0
330
211
345
0
346
0
  0
LAYOUT
  5
44B
102
{ACAD_REACTORS
330
1A
102
}
100
AcDbPlotSettings
  1

  2
none_device
  4
ISO_A4_(297.00_x_210.00_MM)
  6

 40
0.0
 41
0.0
 42
0.0
 43
0.0
 44
297.0
 45
210.0
 46
0.0
 47
0.0
 48
0.0
 49
0.0
140
0.0
141
0.0
142
1.0
143
1.0
 70
0
 72
1
 73
0
 74
0
  7

 75
0
147
1.0
148
0.0
149
0.0
100
AcDbLayout
  1
Layout1
 70
0
 71
1
 10
0.0
 20
0.0
 11
297.0
 21
210.0
 12
0.0
 22
0.0
 32
0.0
 14
0.0
 24
0.0
 34
0.0
 15
0.0
 25
0.0
 35
0.0
146
0.0
 13
0.0
 23
0.0
 33
0.0
 16
1.0
 26
0.0
 36
0.0
 17
0.0
 27
1.0
 37
0.0
 76
0
330
212
345
0
346
0
  0
ENDSEC
  0
EOF
