  0
SECTION
  2
HEADER
  9
$ACADVER
  1
AC1024
  9
$DWGCODEPAGE
  3
ANSI_1252
  9
$EXTMAX
 10
297.0
 20
210.0
 30
0.0
  9
$EXTMIN
 10
0.0
 20
0.0
 30
0.0
  9
$LIMMIN
 10
0.0
 20
0.0
  9
$LIMMAX
 10
297.0
 20
210.0
  9
$VIEWCTR
 10
148.5
 20
105.0
  9
$VIEWSIZE
 40
210.0
  9
$CLAYER
  8
0
  9
$LTSCALE
 40
16.335
  9
$CELTYPE
  6
BYLAYER
  9
$DIMSCALE
 40
1.0
  9
$DIMASZ
 40
3.0
  9
$DIMEXO
 40
0.5
  9
$DIMDLI
 40
11.286
  9
$DIMEXE
 40
1.5
  9
$DIMCEN
 40
2.673
  9
$DIMLFAC
 40
1.0
  9
$DIMBLK
  1
_FILLED
  9
$DIMALT
 70
0
  9
$DIMALTF
 40
0.0393700787
  9
$DIMTXT
 40
3.0
  9
$DIMTOL
 70
1
  9
$DIMLIM
 70
0
  9
$DIMTFAC
 40
1.0
  9
$DIMTP
 40
0.01
  9
$DIMTM
 40
0.01
  9
$DIMGAP
 40
0.625
  9
$DIMDSEP
 70
44
  9
$AUNITS
 70
0
  9
$PDMODE
 70
3
  9
$PDSIZE
 40
3.0
  9
$HANDSEED
  5
541
  9
$TILEMODE
 70
1
  9
$MEASUREMENT
 70
1
  9
$INSUNITS
 70
4
  0
ENDSEC
  0
SECTION
  2
CLASSES
  0
CLASS
  1
ACDBDICTIONARYWDFLT
  2
AcDbDictionaryWithDefault
  3
AutoCAD 2000
 90
0
 91
1
280
0
281
0
  0
CLASS
  1
ACDBPLACEHOLDER
  2
AcDbPlaceHolder
  3
AutoCAD 2000
 90
0
 91
1
280
0
281
0
  0
CLASS
  1
LAYOUT
  2
AcDbLayout
  3
AutoCAD 2000
 90
0
 91
0
280
0
281
0
  0
ENDSEC
  0
SECTION
  2
TABLES
  0
TABLE
  2
VPORT
  5
8
100
AcDbSymbolTable
 70
2
  0
VPORT
  5
1F4
100
AcDbSymbolTableRecord
100
AcDbViewportTableRecord
  2
*ACTIVE
 70
0
 10
0.0
 20
0.0
 11
1.0
 21
1.0
 12
148.5
 22
105.0
 13
0.0
 23
0.0
 14
1.0
 24
1.0
 15
0.0
 25
0.0
 16
0.0
 26
0.0
 36
1.0
 17
0.0
 27
0.0
 37
0.0
 40
210.0
 41
1.4142857143
 42
50.0
 43
0.0
 44
0.0
 50
0.0
 51
0.0
 71
0
 72
100
 73
1
 74
1
 75
0
 76
0
 77
0
 78
0
  0
ENDTAB
  0
TABLE
  2
LTYPE
  5
5
100
AcDbSymbolTable
 70
6
  0
LTYPE
  5
14
100
AcDbSymbolTableRecord
100
AcDbLinetypeTableRecord
  2
BYBLOCK
 70
0
  3

 72
65
 73
0
 40
0.0
  0
LTYPE
  5
15
100
AcDbSymbolTableRecord
100
AcDbLinetypeTableRecord
  2
BYLAYER
 70
0
  3

 72
65
 73
0
 40
0.0
  0
LTYPE
  5
16
100
AcDbSymbolTableRecord
100
AcDbLinetypeTableRecord
  2
CONTINUOUS
 70
64
  3
Solid line
 72
65
 73
0
 40
0.0
  0
LTYPE
  5
1F5
100
AcDbSymbolTableRecord
100
AcDbLinetypeTableRecord
  2
CENTER
 70
64
  3
____ _ ____ _ ____ _ ____ _ ____ _ ____ _ ____
 72
65
 73
4
 40
0.6
 49
0.375
 74
0
 49
-0.075
 74
0
 49
0.075
 74
0
 49
-0.075
 74
0
  0
LTYPE
  5
1F6
100
AcDbSymbolTableRecord
100
AcDbLinetypeTableRecord
  2
HIDDEN
 70
64
  3
- - - - - - - - - - - - - - - - - - - -
 72
65
 73
2
 40
0.2
 49
0.1
 74
0
 49
-0.1
 74
0
  0
LTYPE
  5
1F7
100
AcDbSymbolTableRecord
100
AcDbLinetypeTableRecord
  2
PHANTOM
 70
64
  3
_____ _ _ _____ _ _ _____ _ _ _____
 72
65
 73
6
 40
0.8
 49
0.45
 74
0
 49
-0.05
 74
0
 49
0.1
 74
0
 49
-0.05
 74
0
 49
0.1
 74
0
 49
-0.05
 74
0
  0
LTYPE
  5
1F8
100
AcDbSymbolTableRecord
100
AcDbLinetypeTableRecord
  2
DOT
 70
64
  3
. . . . . . . . . . . . . . . . . . . .
 72
65
 73
2
 40
0.2
 49
0.1
 74
0
 49
-0.1
 74
0
  0
LTYPE
  5
1F9
100
AcDbSymbolTableRecord
100
AcDbLinetypeTableRecord
  2
DASHED
 70
64
  3
- - - - - - - - - - - - - - - - - - - -
 72
65
 73
2
 40
0.2
 49
0.1
 74
0
 49
-0.1
 74
0
  0
ENDTAB
  0
TABLE
  2
LAYER
  5
2
100
AcDbSymbolTable
 70
36
  0
LAYER
  5
10
100
AcDbSymbolTableRecord
100
AcDbLayerTableRecord
  2
0
 70
0
 62
7
  6
CONTINUOUS
370
-3
390
F
  0
LAYER
  5
1FA
100
AcDbSymbolTableRecord
100
AcDbLayerTableRecord
  2
DEFAULT_1
 70
0
 62
7
  6
CENTER
370
-3
390
F
  0
LAYER
  5
1FB
100
AcDbSymbolTableRecord
100
AcDbLayerTableRecord
  2
DEFAULT_2
 70
0
 62
7
  6
HIDDEN
370
-3
390
F
  0
LAYER
  5
1FC
100
AcDbSymbolTableRecord
100
AcDbLayerTableRecord
  2
DEFAULT_3
 70
0
 62
7
  6
PHANTOM
370
-3
390
F
  0
LAYER
  5
1FD
100
AcDbSymbolTableRecord
100
AcDbLayerTableRecord
  2
ASSI
 70
0
 62
7
  6
CONTINUOUS
370
-3
390
F
  0
LAYER
  5
1FE
100
AcDbSymbolTableRecord
100
AcDbLayerTableRecord
  2
COORDINATE
 70
0
 62
7
  6
CONTINUOUS
370
-3
390
F
  0
LAYER
  5
1FF
100
AcDbSymbolTableRecord
100
AcDbLayerTableRecord
  2
COPY_PUBLISH
 70
0
 62
7
  6
CONTINUOUS
370
-3
390
F
  0
LAYER
  5
200
100
AcDbSymbolTableRecord
100
AcDbLayerTableRecord
  2
COSMETIC
 70
0
 62
7
  6
CONTINUOUS
370
-3
390
F
  0
LAYER
  5
201
100
AcDbSymbolTableRecord
100
AcDbLayerTableRecord
  2
COSMETICI
 70
0
 62
7
  6
CONTINUOUS
370
-3
390
F
  0
LAYER
  5
202
100
AcDbSymbolTableRecord
100
AcDbLayerTableRecord
  2
CURVE
 70
0
 62
7
  6
CONTINUOUS
370
-3
390
F
  0
LAYER
  5
203
100
AcDbSymbolTableRecord
100
AcDbLayerTableRecord
  2
CURVE_VERNICIATURA
 70
0
 62
7
  6
CONTINUOUS
370
-3
390
F
  0
LAYER
  5
204
100
AcDbSymbolTableRecord
100
AcDbLayerTableRecord
  2
DRAFT
 70
0
 62
7
  6
CONTINUOUS
370
-3
390
F
  0
LAYER
  5
205
100
AcDbSymbolTableRecord
100
AcDbLayerTableRecord
  2
IMPORT_IGES
 70
0
 62
7
  6
CONTINUOUS
370
-3
390
F
  0
LAYER
  5
206
100
AcDbSymbolTableRecord
100
AcDbLayerTableRecord
  2
INTFCLR_1
 70
0
 62
7
  6
CONTINUOUS
370
-3
390
F
  0
LAYER
  5
207
100
AcDbSymbolTableRecord
100
AcDbLayerTableRecord
  2
INTF_1
 70
0
 62
7
  6
CONTINUOUS
370
-3
390
F
  0
LAYER
  5
208
100
AcDbSymbolTableRecord
100
AcDbLayerTableRecord
  2
NOTE
 70
0
 62
7
  6
CONTINUOUS
370
-3
390
F
  0
LAYER
  5
209
100
AcDbSymbolTableRecord
100
AcDbLayerTableRecord
  2
PIANI
 70
0
 62
7
  6
CONTINUOUS
370
-3
390
F
  0
LAYER
  5
20A
100
AcDbSymbolTableRecord
100
AcDbLayerTableRecord
  2
PUNTI
 70
0
 62
7
  6
CONTINUOUS
370
-3
390
F
  0
LAYER
  5
20B
100
AcDbSymbolTableRecord
100
AcDbLayerTableRecord
  2
RACCORDO
 70
0
 62
7
  6
CONTINUOUS
370
-3
390
F
  0
LAYER
  5
20C
100
AcDbSymbolTableRecord
100
AcDbLayerTableRecord
  2
RGB____0____0____0__
 70
0
 62
7
  6
CONTINUOUS
370
-3
390
F
  0
LAYER
  5
20D
100
AcDbSymbolTableRecord
100
AcDbLayerTableRecord
  2
SIMBOLI
 70
0
 62
7
  6
CONTINUOUS
370
-3
390
F
  0
LAYER
  5
20E
100
AcDbSymbolTableRecord
100
AcDbLayerTableRecord
  2
SMUSSO
 70
0
 62
7
  6
CONTINUOUS
370
-3
390
F
  0
LAYER
  5
20F
100
AcDbSymbolTableRecord
100
AcDbLayerTableRecord
  2
SNAPLINE
 70
0
 62
7
  6
CONTINUOUS
370
-3
390
F
  0
LAYER
  5
210
100
AcDbSymbolTableRecord
100
AcDbLayerTableRecord
  2
SUPERFICI
 70
0
 62
7
  6
CONTINUOUS
370
-3
390
F
  0
LAYER
  5
211
100
AcDbSymbolTableRecord
100
AcDbLayerTableRecord
  2
TRASH
 70
0
 62
7
  6
CONTINUOUS
370
-3
390
F
  0
LAYER
  5
212
100
AcDbSymbolTableRecord
100
AcDbLayerTableRecord
  2
XSEC_DATUMS
 70
0
 62
7
  6
CONTINUOUS
370
-3
390
F
  0
ENDTAB
  0
TABLE
  2
STYLE
  5
3
100
AcDbSymbolTable
 70
1
  0
STYLE
  5
11
100
AcDbSymbolTableRecord
100
AcDbTextStyleTableRecord
  2
STANDARD
 70
0
 40
0.0
 41
0.8
 50
0.0
 71
0
 42
0.2
  3
txt
  4

  0
STYLE
  5
213
100
AcDbSymbolTableRecord
100
AcDbTextStyleTableRecord
  2
TEXTSTYLE_1
 70
0
 40
0.0
 41
0.8
 50
0.0
 71
0
 42
0.2
  3
gdt
  4

  0
ENDTAB
  0
TABLE
  2
VIEW
  5
6
100
AcDbSymbolTable
 70
0
  0
ENDTAB
  0
TABLE
  2
UCS
  5
7
100
AcDbSymbolTable
 70
0
  0
ENDTAB
  0
TABLE
  2
APPID
  5
9
100
AcDbSymbolTable
 70
1
  0
APPID
  5
214
100
AcDbSymbolTableRecord
100
AcDbRegAppTableRecord
  2
ACAD
 70
0
  0
ENDTAB
  0
TABLE
  2
BLOCK_RECORD
  5
1
100
AcDbSymbolTable
 70
0
  0
BLOCK_RECORD
  5
215
100
AcDbSymbolTableRecord
100
AcDbBlockTableRecord
  2
*Model_Space
  0
BLOCK_RECORD
  5
216
100
AcDbSymbolTableRecord
100
AcDbBlockTableRecord
  2
*Paper_Space
  0
BLOCK_RECORD
  5
217
100
AcDbSymbolTableRecord
100
AcDbBlockTableRecord
  2
_FILLED
  0
BLOCK_RECORD
  5
218
100
AcDbSymbolTableRecord
100
AcDbBlockTableRecord
  2
*D0
  0
BLOCK_RECORD
  5
219
100
AcDbSymbolTableRecord
100
AcDbBlockTableRecord
  2
*D1
  0
BLOCK_RECORD
  5
21A
100
AcDbSymbolTableRecord
100
AcDbBlockTableRecord
  2
*D2
  0
ENDTAB
  0
TABLE
  2
DIMSTYLE
  5
A
100
AcDbSymbolTable
 70
1
100
AcDbDimStyleTable
 71
0
  0
DIMSTYLE
105
21B
100
AcDbSymbolTableRecord
100
AcDbDimStyleTableRecord
  2
STANDARD
 70
0
  3

  4

 40
1.0
 41
3.0
 42
0.5
 43
0.38
 44
1.5
 45
0.0
 46
0.0
 47
0.01
 48
0.01
140
3.0
141
0.09
142
0.0
143
25.4
144
1.0
145
0.0
146
1.0
147
0.625
 71
1
 72
0
 73
0
 74
0
 75
0
 76
0
 77
1
 78
8
 79
2
170
0
171
1
172
0
173
0
174
0
175
0
176
0
177
0
178
0
270
2
179
2
271
2
272
2
273
2
274
2
275
0
280
0
281
0
282
0
283
1
284
8
285
0
286
0
287
3
288
0
340
11
278
44
341
217
342
217
343
217
344
217
  0
DIMSTYLE
105
21C
100
AcDbSymbolTableRecord
100
AcDbDimStyleTableRecord
  2
DIMSTYLE_1
 70
0
  3

  4

 40
1.0
 41
3.0
 42
0.5
 43
0.38
 44
1.5
 45
0.0
 46
0.0
 47
0.0
 48
0.0
140
3.0
141
0.09
142
0.0
143
25.4
144
1.0
145
0.0
146
1.0
147
0.75
 71
0
 72
0
 73
0
 74
0
 75
0
 76
0
 77
1
 78
8
 79
2
170
0
171
1
172
0
173
0
174
0
175
0
176
0
177
0
178
0
270
2
179
2
271
2
272
2
273
2
274
2
275
0
280
0
281
0
282
0
283
1
284
8
285
0
286
0
287
3
288
0
340
11
278
44
341
217
342
217
343
217
344
217
  0
DIMSTYLE
105
21D
100
AcDbSymbolTableRecord
100
AcDbDimStyleTableRecord
  2
DIMSTYLE_2
 70
0
  3

  4

 40
1.0
 41
3.0
 42
0.5
 43
0.38
 44
1.5
 45
0.0
 46
0.0
 47
0.0
 48
0.0
140
3.0
141
0.09
142
0.0
143
25.4
144
1.0
145
0.0
146
1.0
147
0.75
 71
0
 72
0
 73
0
 74
0
 75
0
 76
0
 77
1
 78
8
 79
2
170
0
171
1
172
0
173
0
174
0
175
0
176
0
177
0
178
0
270
2
179
2
271
1
272
2
273
2
274
2
275
0
280
0
281
0
282
0
283
1
284
8
285
0
286
0
287
3
288
0
340
11
278
44
341
217
342
217
343
217
344
217
  0
ENDTAB
  0
ENDSEC
  0
SECTION
  2
BLOCKS
  0
BLOCK
  5
20
100
AcDbEntity
  8
0
100
AcDbBlockBegin
  2
*Model_Space
 70
0
 10
0.0
 20
0.0
 30
0.0
  3
*Model_Space
  1

  0
ENDBLK
  5
21
100
AcDbEntity
  8
0
100
AcDbBlockEnd
  0
BLOCK
  5
1C
100
AcDbEntity
  8
0
100
AcDbBlockBegin
  2
*Paper_Space
 70
0
 10
0.0
 20
0.0
 30
0.0
  3
*Paper_Space
  1

  0
ENDBLK
  5
1D
100
AcDbEntity
  8
0
100
AcDbBlockEnd
  0
BLOCK
  5
21E
100
AcDbEntity
  8
0
100
AcDbBlockBegin
  2
_FILLED
 70
64
 10
0.0
 20
0.0
  3
_FILLED
  1

  0
SOLID
  5
21F
100
AcDbEntity
  8
0
  6
BYBLOCK
 62
0
100
AcDbTrace
 10
0.0
 20
0.0
 11
-1.0
 21
0.3166666667
 12
-1.0
 22
-0.3166666667
 13
-1.0
 23
-0.3166666667
  0
ENDBLK
  5
220
100
AcDbEntity
  8
0
  6
BYBLOCK
 62
0
100
AcDbBlockEnd
  0
BLOCK
  5
221
100
AcDbEntity
  8
0
100
AcDbBlockBegin
 62
7
  6
CONTINUOUS
  2
*D0
 70
65
 10
0.0
 20
0.0
  3
*D0
  1

  0
LINE
  5
222
100
AcDbEntity
  8
0
100
AcDbLine
 62
7
  6
CONTINUOUS
 10
-61.0
 20
44.5013704652
 11
-61.0
 21
59.5
  0
LINE
  5
223
100
AcDbEntity
  8
0
100
AcDbLine
 62
7
  6
CONTINUOUS
 10
61.0
 20
44.5013704652
 11
61.0
 21
59.5
  0
LINE
  5
224
100
AcDbEntity
  8
0
100
AcDbLine
 62
7
  6
CONTINUOUS
 10
-61.0
 20
58.0
 11
0.0
 21
58.0
  0
LINE
  5
225
100
AcDbEntity
  8
0
100
AcDbLine
 62
7
  6
CONTINUOUS
 10
61.0
 20
58.0
 11
0.0
 21
58.0
  0
INSERT
  5
226
100
AcDbEntity
  8
0
100
AcDbBlockReference
 62
7
  6
CONTINUOUS
  2
_FILLED
 10
-61.0
 20
58.0
 41
3.0
 42
3.0
 43
3.0
 50
180.0
  0
INSERT
  5
227
100
AcDbEntity
  8
0
100
AcDbBlockReference
 62
7
  6
CONTINUOUS
  2
_FILLED
 10
61.0
 20
58.0
 41
3.0
 42
3.0
 43
3.0
  0
ENDBLK
  5
228
100
AcDbEntity
  8
0
  6
BYBLOCK
 62
0
100
AcDbBlockEnd
  0
BLOCK
  5
229
100
AcDbEntity
  8
0
100
AcDbBlockBegin
 62
7
  6
CONTINUOUS
  2
*D1
 70
65
 10
0.0
 20
0.0
  3
*D1
  1

  0
LINE
  5
22A
100
AcDbEntity
  8
0
100
AcDbLine
 62
7
  6
CONTINUOUS
 10
60.5013704652
 20
45.0
 11
89.5
 21
45.0
  0
LINE
  5
22B
100
AcDbEntity
  8
0
100
AcDbLine
 62
7
  6
CONTINUOUS
 10
60.5013704652
 20
-45.0
 11
89.5
 21
-45.0
  0
LINE
  5
22C
100
AcDbEntity
  8
0
100
AcDbLine
 62
7
  6
CONTINUOUS
 10
88.0
 20
45.0
 11
88.0
 21
0.0
  0
LINE
  5
22D
100
AcDbEntity
  8
0
100
AcDbLine
 62
7
  6
CONTINUOUS
 10
88.0
 20
-45.0
 11
88.0
 21
0.0
  0
INSERT
  5
22E
100
AcDbEntity
  8
0
100
AcDbBlockReference
 62
7
  6
CONTINUOUS
  2
_FILLED
 10
88.0
 20
45.0
 41
3.0
 42
3.0
 43
3.0
 50
90.0
  0
INSERT
  5
22F
100
AcDbEntity
  8
0
100
AcDbBlockReference
 62
7
  6
CONTINUOUS
  2
_FILLED
 10
88.0
 20
-45.0
 41
3.0
 42
3.0
 43
3.0
 50
270.0
  0
ENDBLK
  5
230
100
AcDbEntity
  8
0
  6
BYBLOCK
 62
0
100
AcDbBlockEnd
  0
BLOCK
  5
231
100
AcDbEntity
  8
0
100
AcDbBlockBegin
 62
7
  6
CONTINUOUS
  2
*D2
 70
65
 10
0.0
 20
0.0
  3
*D2
  1

  0
LINE
  5
232
100
AcDbEntity
  8
0
100
AcDbLine
 62
7
  6
CONTINUOUS
 10
-86.2778724973
 20
43.597075387
 11
-86.2778725051
 21
59.5000000021
  0
LINE
  5
233
100
AcDbEntity
  8
0
100
AcDbLine
 62
7
  6
CONTINUOUS
 10
-94.8491515948
 20
0.4999997802
 11
-94.8491516236
 21
59.4999999979
  0
LINE
  5
234
100
AcDbEntity
  8
0
100
AcDbLine
 62
7
  6
CONTINUOUS
 10
-86.2778725043
 20
58.0000000021
 11
-82.2778725043
 21
58.000000004
  0
LINE
  5
235
100
AcDbEntity
  8
0
100
AcDbLine
 62
7
  6
CONTINUOUS
 10
-82.2778725043
 20
58.000000004
 11
-90.5635120636
 21
58.0
  0
LINE
  5
236
100
AcDbEntity
  8
0
100
AcDbLine
 62
7
  6
CONTINUOUS
 10
-94.8491516229
 20
57.9999999979
 11
-98.8491516229
 21
57.999999996
  0
LINE
  5
237
100
AcDbEntity
  8
0
100
AcDbLine
 62
7
  6
CONTINUOUS
 10
-98.8491516229
 20
57.999999996
 11
-90.5635120636
 21
58.0
  0
INSERT
  5
238
100
AcDbEntity
  8
0
100
AcDbBlockReference
 62
7
  6
CONTINUOUS
  2
_FILLED
 10
-86.2778725043
 20
58.0000000021
 41
3.0
 42
3.0
 43
3.0
 50
180.000000028
  0
INSERT
  5
239
100
AcDbEntity
  8
0
100
AcDbBlockReference
 62
7
  6
CONTINUOUS
  2
_FILLED
 10
-94.8491516229
 20
57.9999999979
 41
3.0
 42
3.0
 43
3.0
 50
0.000000028
  0
ENDBLK
  5
23A
100
AcDbEntity
  8
0
  6
BYBLOCK
 62
0
100
AcDbBlockEnd
  0
ENDSEC
  0
SECTION
  2
ENTITIES
  0
DIMENSION
  5
23B
100
AcDbEntity
  8
0
100
AcDbDimension
 62
7
  6
CONTINUOUS
  2
*D0
 10
61.0
 20
58.0
 11
-3.2142857143
 21
58.0
 70
160
 71
2
 72
2
 41
0.9
 42
122.0
  3
DIMSTYLE_1
100
AcDbAlignedDimension
 13
-61.0
 23
44.0013704652
 14
61.0
 24
44.0013704652
100
AcDbRotatedDimension
  0
DIMENSION
  5
23C
100
AcDbEntity
  8
0
100
AcDbDimension
 62
7
  6
CONTINUOUS
  2
*D1
 10
88.0
 20
-45.0
 11
88.0
 21
-2.3571428571
 70
160
 71
2
 72
2
 41
0.9
 42
90.0
  3
DIMSTYLE_1
100
AcDbAlignedDimension
 13
60.0013704652
 23
45.0
 14
60.0013704652
 24
-45.0
 50
270.0
100
AcDbRotatedDimension
  0
DIMENSION
  5
23D
100
AcDbEntity
  8
0
100
AcDbDimension
 62
7
  6
CONTINUOUS
  2
*D2
 10
-94.8491516229
 20
57.9999999979
 11
-93.7777977786
 21
57.9999999984
 70
160
 71
2
 72
2
 41
0.9
 42
8.5712791185
  3
DIMSTYLE_2
100
AcDbAlignedDimension
 13
-86.2778724971
 23
43.097075387
 14
-94.8491515945
 24
-0.0000002198
 50
180.000000028
100
AcDbRotatedDimension
  0
LWPOLYLINE
  5
23E
100
AcDbEntity
  8
RACCORDO
100
AcDbPolyline
 62
250
  6
CONTINUOUS
 90
28
 70
0
 10
-60.8700585586
 20
-43.8714290238
 10
-60.8686844686
 20
-43.9304743766
 10
-60.8638791753
 20
-43.9892336337
 10
-60.855673708
 20
-44.0475080222
 10
-60.8441178827
 20
-44.1050781734
 10
-60.8292609004
 20
-44.1617759443
 10
-60.8111367022
 20
-44.2174811733
 10
-60.7897893175
 20
-44.2720490404
 10
-60.7653059647
 20
-44.3252495663
 10
-60.7377989693
 20
-44.3768420397
 10
-60.7073859689
 20
-44.4266363763
 10
-60.6741696803
 20
-44.474493136
 10
-60.6382628328
 20
-44.5202616709
 10
-60.5997942217
 20
-44.5637943459
 10
-60.5589019354
 20
-44.6049511246
 10
-60.5157222969
 20
-44.6436030133
 10
-60.4704085578
 20
-44.6796246207
 10
-60.4231162995
 20
-44.7129042432
 10
-60.3739924813
 20
-44.7433438558
 10
-60.3231994415
 20
-44.7708483634
 10
-60.2709145997
 20
-44.7953277337
 10
-60.2173134256
 20
-44.8167039603
 10
-60.1625837314
 20
-44.8349078545
 10
-60.1069030317
 20
-44.849886574
 10
-60.0504351778
 20
-44.8615986049
 10
-59.9933606624
 20
-44.8700064094
 10
-59.9358771298
 20
-44.8750808273
 10
-59.8781758769
 20
-44.8768054117
  0
LWPOLYLINE
  5
23F
100
AcDbEntity
  8
ASSI
100
AcDbPolyline
 62
250
  6
CONTINUOUS
 90
28
 70
0
 10
-60.8700585586
 20
-43.8714290238
 10
-60.8686844686
 20
-43.9304743766
 10
-60.8638791753
 20
-43.9892336337
 10
-60.855673708
 20
-44.0475080222
 10
-60.8441178827
 20
-44.1050781734
 10
-60.8292609004
 20
-44.1617759443
 10
-60.8111367022
 20
-44.2174811733
 10
-60.7897893175
 20
-44.2720490404
 10
-60.7653059647
 20
-44.3252495663
 10
-60.7377989693
 20
-44.3768420397
 10
-60.7073859689
 20
-44.4266363763
 10
-60.6741696803
 20
-44.474493136
 10
-60.6382628328
 20
-44.5202616709
 10
-60.5997942217
 20
-44.5637943459
 10
-60.5589019354
 20
-44.6049511246
 10
-60.5157222969
 20
-44.6436030133
 10
-60.4704085578
 20
-44.6796246207
 10
-60.4231162995
 20
-44.7129042432
 10
-60.3739924813
 20
-44.7433438558
 10
-60.3231994415
 20
-44.7708483634
 10
-60.2709145997
 20
-44.7953277337
 10
-60.2173134256
 20
-44.8167039603
 10
-60.1625837314
 20
-44.8349078545
 10
-60.1069030317
 20
-44.849886574
 10
-60.0504351778
 20
-44.8615986049
 10
-59.9933606624
 20
-44.8700064094
 10
-59.9358771298
 20
-44.8750808273
 10
-59.8781758769
 20
-44.8768054117
  0
LWPOLYLINE
  5
240
100
AcDbEntity
  8
RACCORDO
100
AcDbPolyline
 62
250
  6
CONTINUOUS
 90
28
 70
0
 10
-60.5704696982
 20
-43.9246281065
 10
-60.5696252612
 20
-43.96629429
 10
-60.5664307296
 20
-44.0075145745
 10
-60.5608861034
 20
-44.0482890176
 10
-60.5529569095
 20
-44.0887456584
 10
-60.5426776209
 20
-44.1287565602
 10
-60.5301516566
 20
-44.1679378676
 10
-60.5153473063
 20
-44.2063007183
 10
-60.4982962802
 20
-44.2438341817
 10
-60.4791971275
 20
-44.2801213992
 10
-60.4580341378
 20
-44.3151318114
 10
-60.4348230214
 20
-44.3488962717
 10
-60.4098094588
 20
-44.3810901221
 10
-60.3829763229
 20
-44.4116984623
 10
-60.3543407408
 20
-44.4407365201
 10
-60.324199774
 20
-44.4679248808
 10
-60.2925403022
 20
-44.4932444941
 10
-60.2593754457
 20
-44.5167147349
 10
-60.2250416268
 20
-44.5381138549
 10
-60.1895275462
 20
-44.5574215069
 10
-60.1528445032
 20
-44.5746583208
 10
-60.1153628175
 20
-44.5896640194
 10
-60.0770676316
 20
-44.6024166075
 10
-60.0379738031
 20
-44.6129382887
 10
-59.9984962242
 20
-44.621135071
 10
-59.9587731922
 20
-44.6269756618
 10
-59.9186664098
 20
-44.6304914639
 10
-59.8781758769
 20
-44.6316825048
  0
LWPOLYLINE
  5
241
100
AcDbEntity
  8
ASSI
100
AcDbPolyline
 62
250
  6
CONTINUOUS
 90
28
 70
0
 10
-60.5704696982
 20
-43.9246281065
 10
-60.5696252612
 20
-43.96629429
 10
-60.5664307296
 20
-44.0075145745
 10
-60.5608861034
 20
-44.0482890176
 10
-60.5529569095
 20
-44.0887456584
 10
-60.5426776209
 20
-44.1287565602
 10
-60.5301516566
 20
-44.1679378676
 10
-60.5153473063
 20
-44.2063007183
 10
-60.4982962802
 20
-44.2438341817
 10
-60.4791971275
 20
-44.2801213992
 10
-60.4580341378
 20
-44.3151318114
 10
-60.4348230214
 20
-44.3488962717
 10
-60.4098094588
 20
-44.3810901221
 10
-60.3829763229
 20
-44.4116984623
 10
-60.3543407408
 20
-44.4407365201
 10
-60.324199774
 20
-44.4679248808
 10
-60.2925403022
 20
-44.4932444941
 10
-60.2593754457
 20
-44.5167147349
 10
-60.2250416268
 20
-44.5381138549
 10
-60.1895275462
 20
-44.5574215069
 10
-60.1528445032
 20
-44.5746583208
 10
-60.1153628175
 20
-44.5896640194
 10
-60.0770676316
 20
-44.6024166075
 10
-60.0379738031
 20
-44.6129382887
 10
-59.9984962242
 20
-44.621135071
 10
-59.9587731922
 20
-44.6269756618
 10
-59.9186664098
 20
-44.6304914639
 10
-59.8781758769
 20
-44.6316825048
  0
LWPOLYLINE
  5
242
100
AcDbEntity
  8
RACCORDO
100
AcDbPolyline
 62
250
  6
CONTINUOUS
 90
9
 70
0
 10
-60.8700585586
 20
43.8714290238
 10
-60.8488539353
 20
41.530635219
 10
-60.8294010733
 20
39.1852651697
 10
-60.8116999728
 20
36.8353188758
 10
-60.7957477181
 20
34.4803128887
 10
-60.7815472247
 20
32.1207306571
 10
-60.7691072395
 20
29.7580225269
 10
-60.7584306778
 20
27.3926719467
 10
-60.7495146241
 20
25.0241954679
  0
LWPOLYLINE
  5
243
100
AcDbEntity
  8
ASSI
100
AcDbPolyline
 62
250
  6
CONTINUOUS
 90
9
 70
0
 10
-60.8700585586
 20
43.8714290238
 10
-60.8488539353
 20
41.530635219
 10
-60.8294010733
 20
39.1852651697
 10
-60.8116999728
 20
36.8353188758
 10
-60.7957477181
 20
34.4803128887
 10
-60.7815472247
 20
32.1207306571
 10
-60.7691072395
 20
29.7580225269
 10
-60.7584306778
 20
27.3926719467
 10
-60.7495146241
 20
25.0241954679
  0
LWPOLYLINE
  5
244
100
AcDbEntity
  8
RACCORDO
100
AcDbPolyline
 62
250
  6
CONTINUOUS
 90
9
 70
0
 10
-60.5704696982
 20
43.9246281065
 10
-60.5492646814
 20
41.5803705021
 10
-60.5298115775
 20
39.2305985388
 10
-60.5121103866
 20
36.8757866537
 10
-60.4961582719
 20
34.5164144648
 10
-60.4819580701
 20
32.1529541779
 10
-60.4695182913
 20
29.7858704217
 10
-60.4588417721
 20
27.4156368628
 10
-60.4499256757
 20
25.0427361763
  0
LWPOLYLINE
  5
245
100
AcDbEntity
  8
ASSI
100
AcDbPolyline
 62
250
  6
CONTINUOUS
 90
9
 70
0
 10
-60.5704696982
 20
43.9246281065
 10
-60.5492646814
 20
41.5803705021
 10
-60.5298115775
 20
39.2305985388
 10
-60.5121103866
 20
36.8757866537
 10
-60.4961582719
 20
34.5164144648
 10
-60.4819580701
 20
32.1529541779
 10
-60.4695182913
 20
29.7858704217
 10
-60.4588417721
 20
27.4156368628
 10
-60.4499256757
 20
25.0427361763
  0
LINE
  5
246
100
AcDbEntity
  8
RACCORDO
100
AcDbLine
 62
250
  6
CONTINUOUS
 10
-60.7495146241
 20
25.0241954679
 11
-60.7332181219
 21
18.8795044447
  0
LINE
  5
247
100
AcDbEntity
  8
ASSI
100
AcDbLine
 62
250
  6
CONTINUOUS
 10
-60.7495146241
 20
25.0241954679
 11
-60.7332181219
 21
18.8795044447
  0
LINE
  5
248
100
AcDbEntity
  8
RACCORDO
100
AcDbLine
 62
250
  6
CONTINUOUS
 10
-60.4499256757
 20
25.0427361763
 11
-60.4336291884
 21
18.8925039473
  0
LINE
  5
249
100
AcDbEntity
  8
ASSI
100
AcDbLine
 62
250
  6
CONTINUOUS
 10
-60.4499256757
 20
25.0427361763
 11
-60.4336291884
 21
18.8925039473
  0
LINE
  5
24A
100
AcDbEntity
  8
RACCORDO
100
AcDbLine
 62
250
  6
CONTINUOUS
 10
-60.7332181219
 20
18.8795044447
 11
-60.7199214545
 21
11.3305150114
  0
LINE
  5
24B
100
AcDbEntity
  8
ASSI
100
AcDbLine
 62
250
  6
CONTINUOUS
 10
-60.7332181219
 20
18.8795044447
 11
-60.7199214545
 21
11.3305150114
  0
LINE
  5
24C
100
AcDbEntity
  8
RACCORDO
100
AcDbLine
 62
250
  6
CONTINUOUS
 10
-60.4336291884
 20
18.8925039473
 11
-60.4203325766
 21
11.3380604683
  0
LINE
  5
24D
100
AcDbEntity
  8
ASSI
100
AcDbLine
 62
250
  6
CONTINUOUS
 10
-60.4336291884
 20
18.8925039473
 11
-60.4203325766
 21
11.3380604683
  0
LINE
  5
24E
100
AcDbEntity
  8
RACCORDO
100
AcDbLine
 62
250
  6
CONTINUOUS
 10
-60.7199214545
 20
11.3305150114
 11
-60.7132711867
 21
3.77715111
  0
LINE
  5
24F
100
AcDbEntity
  8
ASSI
100
AcDbLine
 62
250
  6
CONTINUOUS
 10
-60.7199214545
 20
11.3305150114
 11
-60.7132711867
 21
3.77715111
  0
LINE
  5
250
100
AcDbEntity
  8
RACCORDO
100
AcDbLine
 62
250
  6
CONTINUOUS
 10
-60.4203325766
 20
11.3380604683
 11
-60.4136823257
 21
3.7797559319
  0
LINE
  5
251
100
AcDbEntity
  8
ASSI
100
AcDbLine
 62
250
  6
CONTINUOUS
 10
-60.4203325766
 20
11.3380604683
 11
-60.4136823257
 21
3.7797559319
  0
LINE
  5
252
100
AcDbEntity
  8
RACCORDO
100
AcDbLine
 62
7
  6
CONTINUOUS
 10
-61.0
 20
-44.0013704652
 11
-61.0
 21
44.0013704652
  0
LINE
  5
253
100
AcDbEntity
  8
ASSI
100
AcDbLine
 62
7
  6
CONTINUOUS
 10
-61.0
 20
-44.0013704652
 11
-61.0
 21
44.0013704652
  0
LINE
  5
254
100
AcDbEntity
  8
RACCORDO
100
AcDbLine
 62
250
  6
CONTINUOUS
 10
-59.8781758769
 20
-44.6316825048
 11
-59.8781758769
 21
-44.8768054117
  0
LINE
  5
255
100
AcDbEntity
  8
ASSI
100
AcDbLine
 62
250
  6
CONTINUOUS
 10
-59.8781758769
 20
-44.6316825048
 11
-59.8781758769
 21
-44.8768054117
  0
LINE
  5
256
100
AcDbEntity
  8
RACCORDO
100
AcDbLine
 62
250
  6
CONTINUOUS
 10
-59.8781758769
 20
44.6316825048
 11
-59.8781758772
 21
44.8768054117
  0
LINE
  5
257
100
AcDbEntity
  8
ASSI
100
AcDbLine
 62
250
  6
CONTINUOUS
 10
-59.8781758769
 20
44.6316825048
 11
-59.8781758772
 21
44.8768054117
  0
LINE
  5
258
100
AcDbEntity
  8
RACCORDO
100
AcDbLine
 62
250
  6
CONTINUOUS
 10
-60.7132711867
 20
3.77715111
 11
-60.713271186
 21
-3.7771499691
  0
LINE
  5
259
100
AcDbEntity
  8
ASSI
100
AcDbLine
 62
250
  6
CONTINUOUS
 10
-60.7132711867
 20
3.77715111
 11
-60.713271186
 21
-3.7771499691
  0
LINE
  5
25A
100
AcDbEntity
  8
RACCORDO
100
AcDbLine
 62
250
  6
CONTINUOUS
 10
-60.4136823257
 20
3.7797559319
 11
-60.4136823261
 21
-3.7797569659
  0
LINE
  5
25B
100
AcDbEntity
  8
ASSI
100
AcDbLine
 62
250
  6
CONTINUOUS
 10
-60.4136823257
 20
3.7797559319
 11
-60.4136823261
 21
-3.7797569659
  0
LINE
  5
25C
100
AcDbEntity
  8
RACCORDO
100
AcDbLine
 62
250
  6
CONTINUOUS
 10
-60.713271186
 20
-3.7771499691
 11
-60.7199214528
 21
-11.3305136537
  0
LINE
  5
25D
100
AcDbEntity
  8
ASSI
100
AcDbLine
 62
250
  6
CONTINUOUS
 10
-60.713271186
 20
-3.7771499691
 11
-60.7199214528
 21
-11.3305136537
  0
LINE
  5
25E
100
AcDbEntity
  8
RACCORDO
100
AcDbLine
 62
250
  6
CONTINUOUS
 10
-60.4136823261
 20
-3.7797569659
 11
-60.4203325776
 21
-11.3380611962
  0
LINE
  5
25F
100
AcDbEntity
  8
ASSI
100
AcDbLine
 62
250
  6
CONTINUOUS
 10
-60.4136823261
 20
-3.7797569659
 11
-60.4203325776
 21
-11.3380611962
  0
LINE
  5
260
100
AcDbEntity
  8
RACCORDO
100
AcDbLine
 62
250
  6
CONTINUOUS
 10
-60.7199214528
 20
-11.3305136537
 11
-60.7332181209
 21
-18.8795038031
  0
LINE
  5
261
100
AcDbEntity
  8
ASSI
100
AcDbLine
 62
250
  6
CONTINUOUS
 10
-60.7199214528
 20
-11.3305136537
 11
-60.7332181209
 21
-18.8795038031
  0
LINE
  5
262
100
AcDbEntity
  8
RACCORDO
100
AcDbLine
 62
250
  6
CONTINUOUS
 10
-60.4203325776
 20
-11.3380611962
 11
-60.433629189
 21
-18.892504222
  0
LINE
  5
263
100
AcDbEntity
  8
ASSI
100
AcDbLine
 62
250
  6
CONTINUOUS
 10
-60.4203325776
 20
-11.3380611962
 11
-60.433629189
 21
-18.892504222
  0
LWPOLYLINE
  5
264
100
AcDbEntity
  8
RACCORDO
100
AcDbPolyline
 62
250
  6
CONTINUOUS
 90
10
 70
0
 10
-60.433629189
 20
-18.892504222
 10
-60.449925677
 20
-25.0427362954
 10
-60.4588417737
 20
-27.4156370147
 10
-60.4695182923
 20
-29.7858705046
 10
-60.4819580688
 20
-32.1529539987
 10
-60.4961582673
 20
-34.516413923
 10
-60.5121103802
 20
-36.8757859222
 10
-60.5298115717
 20
-39.2305978808
 10
-60.5492646777
 20
-41.5803700883
 10
-60.5704696982
 20
-43.9246281065
  0
LWPOLYLINE
  5
265
100
AcDbEntity
  8
ASSI
100
AcDbPolyline
 62
250
  6
CONTINUOUS
 90
10
 70
0
 10
-60.433629189
 20
-18.892504222
 10
-60.449925677
 20
-25.0427362954
 10
-60.4588417737
 20
-27.4156370147
 10
-60.4695182923
 20
-29.7858705046
 10
-60.4819580688
 20
-32.1529539987
 10
-60.4961582673
 20
-34.516413923
 10
-60.5121103802
 20
-36.8757859222
 10
-60.5298115717
 20
-39.2305978808
 10
-60.5492646777
 20
-41.5803700883
 10
-60.5704696982
 20
-43.9246281065
  0
LWPOLYLINE
  5
266
100
AcDbEntity
  8
RACCORDO
100
AcDbPolyline
 62
250
  6
CONTINUOUS
 90
10
 70
0
 10
-60.7332181209
 20
-18.8795038031
 10
-60.7495146367
 20
-25.0241988665
 10
-60.7584307064
 20
-27.3926785798
 10
-60.7691072875
 20
-29.7580322302
 10
-60.7815473045
 20
-32.1207441804
 10
-60.7957478329
 20
-34.4803300678
 10
-60.8117000999
 20
-36.8353368046
 10
-60.829401181
 20
-39.1852800282
 10
-60.8488540005
 20
-41.5306441013
 10
-60.8700585586
 20
-43.8714290238
  0
LWPOLYLINE
  5
267
100
AcDbEntity
  8
ASSI
100
AcDbPolyline
 62
250
  6
CONTINUOUS
 90
10
 70
0
 10
-60.7332181209
 20
-18.8795038031
 10
-60.7495146367
 20
-25.0241988665
 10
-60.7584307064
 20
-27.3926785798
 10
-60.7691072875
 20
-29.7580322302
 10
-60.7815473045
 20
-32.1207441804
 10
-60.7957478329
 20
-34.4803300678
 10
-60.8117000999
 20
-36.8353368046
 10
-60.829401181
 20
-39.1852800282
 10
-60.8488540005
 20
-41.5306441013
 10
-60.8700585586
 20
-43.8714290238
  0
LWPOLYLINE
  5
268
100
AcDbEntity
  8
0
100
AcDbPolyline
 62
7
  6
CONTINUOUS
 90
3
 70
0
 43
0.3500000006
 10
-3.2142856836
 20
60.8928533936
 10
-2.3571427875
 20
61.7500003967
 10
-2.3571427875
 20
58.7499994812
  0
LWPOLYLINE
  5
269
100
AcDbEntity
  8
RACCORDO
100
AcDbPolyline
 62
250
  6
CONTINUOUS
 90
28
 70
0
 10
59.8781758769
 20
-44.8768054117
 10
59.9358790912
 20
-44.8750806058
 10
59.9933273885
 20
-44.8700102287
 10
60.0503303845
 20
-44.8616171492
 10
60.1066620052
 20
-44.8499439897
 10
60.1621751202
 20
-44.8350306373
 10
60.2167964506
 20
-44.8168925971
 10
60.270393801
 20
-44.7955529004
 10
60.3227268303
 20
-44.771086409
 10
60.3735626186
 20
-44.743592966
 10
60.4227052357
 20
-44.713175756
 10
60.4700127188
 20
-44.6799207097
 10
60.5153430184
 20
-44.6439229412
 10
60.558541784
 20
-44.6052929096
 10
60.5994543358
 20
-44.5641569719
 10
60.6379446408
 20
-44.5206436514
 10
60.6738754279
 20
-44.4748915901
 10
60.7071166854
 20
-44.4270494968
 10
60.7375534477
 20
-44.3772716237
 10
60.7650750393
 20
-44.3257147992
 10
60.789574811
 20
-44.2725531665
 10
60.8109589176
 20
-44.2179774542
 10
60.8291446967
 20
-44.1621714079
 10
60.8440619639
 20
-44.105319636
 10
60.8556541505
 20
-44.047622577
 10
60.8638742693
 20
-43.9892780405
 10
60.8686841964
 20
-43.9304802998
 10
60.8700585586
 20
-43.8714290238
  0
LWPOLYLINE
  5
26A
100
AcDbEntity
  8
ASSI
100
AcDbPolyline
 62
250
  6
CONTINUOUS
 90
28
 70
0
 10
59.8781758769
 20
-44.8768054117
 10
59.9358790912
 20
-44.8750806058
 10
59.9933273885
 20
-44.8700102287
 10
60.0503303845
 20
-44.8616171492
 10
60.1066620052
 20
-44.8499439897
 10
60.1621751202
 20
-44.8350306373
 10
60.2167964506
 20
-44.8168925971
 10
60.270393801
 20
-44.7955529004
 10
60.3227268303
 20
-44.771086409
 10
60.3735626186
 20
-44.743592966
 10
60.4227052357
 20
-44.713175756
 10
60.4700127188
 20
-44.6799207097
 10
60.5153430184
 20
-44.6439229412
 10
60.558541784
 20
-44.6052929096
 10
60.5994543358
 20
-44.5641569719
 10
60.6379446408
 20
-44.5206436514
 10
60.6738754279
 20
-44.4748915901
 10
60.7071166854
 20
-44.4270494968
 10
60.7375534477
 20
-44.3772716237
 10
60.7650750393
 20
-44.3257147992
 10
60.789574811
 20
-44.2725531665
 10
60.8109589176
 20
-44.2179774542
 10
60.8291446967
 20
-44.1621714079
 10
60.8440619639
 20
-44.105319636
 10
60.8556541505
 20
-44.047622577
 10
60.8638742693
 20
-43.9892780405
 10
60.8686841964
 20
-43.9304802998
 10
60.8700585586
 20
-43.8714290238
  0
LWPOLYLINE
  5
26B
100
AcDbEntity
  8
RACCORDO
100
AcDbPolyline
 62
250
  6
CONTINUOUS
 90
28
 70
0
 10
59.8781758769
 20
-44.6316825048
 10
59.9187038743
 20
-44.6304780836
 10
59.9588119933
 20
-44.626961863
 10
59.9985002339
 20
-44.6211338159
 10
60.037882471
 20
-44.6129688545
 10
60.0768448297
 20
-44.6024919575
 10
60.1150456852
 20
-44.5897781721
 10
60.1525079896
 20
-44.5747958048
 10
60.1892087907
 20
-44.5575763404
 10
60.2247376072
 20
-44.538289581
 10
60.2590663946
 20
-44.5169205958
 10
60.2922231974
 20
-44.4934840338
 10
60.3238816675
 20
-44.4681940731
 10
60.3540327652
 20
-44.4410301138
 10
60.3826855302
 20
-44.4120124308
 10
60.4095407336
 20
-44.3814165412
 10
60.4345831099
 20
-44.3492228294
 10
60.4578279245
 20
-44.3154505818
 10
60.479021745
 20
-44.2804337214
 10
60.4981438556
 20
-44.2441561065
 10
60.5152149721
 20
-44.2066335864
 10
60.5300438091
 20
-44.1682481484
 10
60.5426064825
 20
-44.1289768997
 10
60.5529268766
 20
-44.0888425141
 10
60.5608853584
 20
-44.0482954332
 10
60.5664420505
 20
-44.0074857957
 10
60.5696368304
 20
-43.9662633712
 10
60.5704696982
 20
-43.9246281065
  0
LWPOLYLINE
  5
26C
100
AcDbEntity
  8
ASSI
100
AcDbPolyline
 62
250
  6
CONTINUOUS
 90
28
 70
0
 10
59.8781758769
 20
-44.6316825048
 10
59.9187038743
 20
-44.6304780836
 10
59.9588119933
 20
-44.626961863
 10
59.9985002339
 20
-44.6211338159
 10
60.037882471
 20
-44.6129688545
 10
60.0768448297
 20
-44.6024919575
 10
60.1150456852
 20
-44.5897781721
 10
60.1525079896
 20
-44.5747958048
 10
60.1892087907
 20
-44.5575763404
 10
60.2247376072
 20
-44.538289581
 10
60.2590663946
 20
-44.5169205958
 10
60.2922231974
 20
-44.4934840338
 10
60.3238816675
 20
-44.4681940731
 10
60.3540327652
 20
-44.4410301138
 10
60.3826855302
 20
-44.4120124308
 10
60.4095407336
 20
-44.3814165412
 10
60.4345831099
 20
-44.3492228294
 10
60.4578279245
 20
-44.3154505818
 10
60.479021745
 20
-44.2804337214
 10
60.4981438556
 20
-44.2441561065
 10
60.5152149721
 20
-44.2066335864
 10
60.5300438091
 20
-44.1682481484
 10
60.5426064825
 20
-44.1289768997
 10
60.5529268766
 20
-44.0888425141
 10
60.5608853584
 20
-44.0482954332
 10
60.5664420505
 20
-44.0074857957
 10
60.5696368304
 20
-43.9662633712
 10
60.5704696982
 20
-43.9246281065
  0
LWPOLYLINE
  5
26D
100
AcDbEntity
  8
RACCORDO
100
AcDbPolyline
 62
250
  6
CONTINUOUS
 90
19
 70
0
 10
60.5704696982
 20
-43.9246280943
 10
60.5957596656
 20
-43.924207405
 10
60.6208695746
 20
-43.9234109463
 10
60.6456206487
 20
-43.9222443888
 10
60.6698366663
 20
-43.9207160381
 10
60.6933452151
 20
-43.9188367757
 10
60.7159789199
 20
-43.9166199815
 10
60.7375766343
 20
-43.9140814385
 10
60.7579845877
 20
-43.9112392206
 10
60.7770574805
 20
-43.9081135635
 10
60.7946595182
 20
-43.9047267214
 10
60.8106653787
 20
-43.9011028076
 10
60.824961104
 20
-43.8972676235
 10
60.837444912
 20
-43.8932484748
 10
60.8480279211
 20
-43.8890739767
 10
60.8566347828
 20
-43.8847738508
 10
60.8632042183
 20
-43.8803787129
 10
60.8676894548
 20
-43.8759198552
 10
60.8700585586
 20
-43.8714290238
  0
LWPOLYLINE
  5
26E
100
AcDbEntity
  8
ASSI
100
AcDbPolyline
 62
250
  6
CONTINUOUS
 90
19
 70
0
 10
60.5704696982
 20
-43.9246280943
 10
60.5957596656
 20
-43.924207405
 10
60.6208695746
 20
-43.9234109463
 10
60.6456206487
 20
-43.9222443888
 10
60.6698366663
 20
-43.9207160381
 10
60.6933452151
 20
-43.9188367757
 10
60.7159789199
 20
-43.9166199815
 10
60.7375766343
 20
-43.9140814385
 10
60.7579845877
 20
-43.9112392206
 10
60.7770574805
 20
-43.9081135635
 10
60.7946595182
 20
-43.9047267214
 10
60.8106653787
 20
-43.9011028076
 10
60.824961104
 20
-43.8972676235
 10
60.837444912
 20
-43.8932484748
 10
60.8480279211
 20
-43.8890739767
 10
60.8566347828
 20
-43.8847738508
 10
60.8632042183
 20
-43.8803787129
 10
60.8676894548
 20
-43.8759198552
 10
60.8700585586
 20
-43.8714290238
  0
LINE
  5
26F
100
AcDbEntity
  8
RACCORDO
100
AcDbLine
 62
7
  6
CONTINUOUS
 10
-60.0013704652
 20
-45.0
 11
60.0013704652
 21
-45.0
  0
LINE
  5
270
100
AcDbEntity
  8
ASSI
100
AcDbLine
 62
7
  6
CONTINUOUS
 10
-60.0013704652
 20
-45.0
 11
60.0013704652
 21
-45.0
  0
LINE
  5
271
100
AcDbEntity
  8
RACCORDO
100
AcDbLine
 62
250
  6
CONTINUOUS
 10
-59.8781758769
 20
-44.8768054117
 11
59.8781758769
 21
-44.8768054117
  0
LINE
  5
272
100
AcDbEntity
  8
ASSI
100
AcDbLine
 62
250
  6
CONTINUOUS
 10
-59.8781758769
 20
-44.8768054117
 11
59.8781758769
 21
-44.8768054117
  0
LINE
  5
273
100
AcDbEntity
  8
RACCORDO
100
AcDbLine
 62
250
  6
CONTINUOUS
 10
-59.8781758769
 20
-44.6316825048
 11
59.8781758769
 21
-44.6316825048
  0
LINE
  5
274
100
AcDbEntity
  8
ASSI
100
AcDbLine
 62
250
  6
CONTINUOUS
 10
-59.8781758769
 20
-44.6316825048
 11
59.8781758769
 21
-44.6316825048
  0
LWPOLYLINE
  5
275
100
AcDbEntity
  8
RACCORDO
100
AcDbPolyline
 62
250
  6
CONTINUOUS
 90
19
 70
0
 10
-60.5704696982
 20
-43.9246280955
 10
-60.595759238
 20
-43.9242073328
 10
-60.6208686854
 20
-43.9234108103
 10
-60.6456192716
 20
-43.9222441987
 10
-60.6698347824
 20
-43.9207158039
 10
-60.6933428136
 20
-43.9188365074
 10
-60.7159759974
 20
-43.9166196889
 10
-60.7375731949
 20
-43.9140811314
 10
-60.7579806431
 20
-43.9112389082
 10
-60.7770530492
 20
-43.9081132548
 10
-60.7946546255
 20
-43.9047264246
 10
-60.8106600561
 20
-43.9011025304
 10
-60.8249553888
 20
-43.8972673728
 10
-60.8374388469
 20
-43.8932482565
 10
-60.8480215531
 20
-43.889073796
 10
-60.856628163
 20
-43.8847737118
 10
-60.863197401
 20
-43.8803786186
 10
-60.8676824969
 20
-43.8759198077
 10
-60.8700515186
 20
-43.871429024
  0
LWPOLYLINE
  5
276
100
AcDbEntity
  8
ASSI
100
AcDbPolyline
 62
250
  6
CONTINUOUS
 90
19
 70
0
 10
-60.5704696982
 20
-43.9246280955
 10
-60.595759238
 20
-43.9242073328
 10
-60.6208686854
 20
-43.9234108103
 10
-60.6456192716
 20
-43.9222441987
 10
-60.6698347824
 20
-43.9207158039
 10
-60.6933428136
 20
-43.9188365074
 10
-60.7159759974
 20
-43.9166196889
 10
-60.7375731949
 20
-43.9140811314
 10
-60.7579806431
 20
-43.9112389082
 10
-60.7770530492
 20
-43.9081132548
 10
-60.7946546255
 20
-43.9047264246
 10
-60.8106600561
 20
-43.9011025304
 10
-60.8249553888
 20
-43.8972673728
 10
-60.8374388469
 20
-43.8932482565
 10
-60.8480215531
 20
-43.889073796
 10
-60.856628163
 20
-43.8847737118
 10
-60.863197401
 20
-43.8803786186
 10
-60.8676824969
 20
-43.8759198077
 10
-60.8700515186
 20
-43.871429024
  0
LINE
  5
277
100
AcDbEntity
  8
0
100
AcDbLine
 62
250
  6
CONTINUOUS
 10
-30.703263
 20
28.698798
 11
-31.502576
 21
25.901202
  0
LWPOLYLINE
  5
278
100
AcDbEntity
  8
RACCORDO
100
AcDbPolyline
 62
250
  6
CONTINUOUS
 90
16
 70
0
 10
-34.2179615936
 20
22.6677048937
 10
-34.1676363365
 20
22.7282260377
 10
-34.1140214126
 20
22.7853193983
 10
-34.0571168218
 20
22.8389851477
 10
-33.9966845071
 20
22.8894314127
 10
-33.9329625256
 20
22.936450379
 10
-33.8666650489
 20
22.9794183208
 10
-33.7977053311
 20
23.0182859396
 10
-33.7261701182
 20
23.0531028412
 10
-33.6530338202
 20
23.0833936784
 10
-33.5782470336
 20
23.1090594703
 10
-33.5018591619
 20
23.1301994383
 10
-33.4249928251
 20
23.1466355292
 10
-33.34802223
 20
23.1583084353
 10
-33.2705731699
 20
23.1652775911
 10
-33.1926456448
 20
23.1675430277
  0
LWPOLYLINE
  5
279
100
AcDbEntity
  8
ASSI
100
AcDbPolyline
 62
250
  6
CONTINUOUS
 90
16
 70
0
 10
-34.2179615936
 20
22.6677048937
 10
-34.1676363365
 20
22.7282260377
 10
-34.1140214126
 20
22.7853193983
 10
-34.0571168218
 20
22.8389851477
 10
-33.9966845071
 20
22.8894314127
 10
-33.9329625256
 20
22.936450379
 10
-33.8666650489
 20
22.9794183208
 10
-33.7977053311
 20
23.0182859396
 10
-33.7261701182
 20
23.0531028412
 10
-33.6530338202
 20
23.0833936784
 10
-33.5782470336
 20
23.1090594703
 10
-33.5018591619
 20
23.1301994383
 10
-33.4249928251
 20
23.1466355292
 10
-33.34802223
 20
23.1583084353
 10
-33.2705731699
 20
23.1652775911
 10
-33.1926456448
 20
23.1675430277
  0
LWPOLYLINE
  5
27A
100
AcDbEntity
  8
RACCORDO
100
AcDbPolyline
 62
250
  6
CONTINUOUS
 90
16
 70
0
 10
-33.8246817863
 20
22.3359476087
 10
-33.7937618923
 20
22.3729022731
 10
-33.7606074445
 20
22.4079839709
 10
-33.7253289471
 20
22.4410553377
 10
-33.6880428765
 20
22.4719860679
 10
-33.6488791706
 20
22.5006510469
 10
-33.6079817087
 20
22.5269320676
 10
-33.5654571622
 20
22.5507405148
 10
-33.5214905275
 20
22.5719537109
 10
-33.4763647211
 20
22.5904376773
 10
-33.4302422154
 20
22.6061366446
 10
-33.3833044135
 20
22.6189995156
 10
-33.3358844933
 20
22.6289643234
 10
-33.2882162373
 20
22.6360279061
 10
-33.2404248799
 20
22.6402149606
 10
-33.1926840957
 20
22.6415493366
  0
LWPOLYLINE
  5
27B
100
AcDbEntity
  8
ASSI
100
AcDbPolyline
 62
250
  6
CONTINUOUS
 90
16
 70
0
 10
-33.8246817863
 20
22.3359476087
 10
-33.7937618923
 20
22.3729022731
 10
-33.7606074445
 20
22.4079839709
 10
-33.7253289471
 20
22.4410553377
 10
-33.6880428765
 20
22.4719860679
 10
-33.6488791706
 20
22.5006510469
 10
-33.6079817087
 20
22.5269320676
 10
-33.5654571622
 20
22.5507405148
 10
-33.5214905275
 20
22.5719537109
 10
-33.4763647211
 20
22.5904376773
 10
-33.4302422154
 20
22.6061366446
 10
-33.3833044135
 20
22.6189995156
 10
-33.3358844933
 20
22.6289643234
 10
-33.2882162373
 20
22.6360279061
 10
-33.2404248799
 20
22.6402149606
 10
-33.1926840957
 20
22.6415493366
  0
LWPOLYLINE
  5
27C
100
AcDbEntity
  8
RACCORDO
100
AcDbPolyline
 62
250
  6
CONTINUOUS
 90
13
 70
0
 10
-33.8246817863
 20
-22.3359476087
 10
-33.8506557687
 20
-22.3010009824
 10
-33.8748203413
 20
-22.264462247
 10
-33.8970659179
 20
-22.2264169859
 10
-33.9173353876
 20
-22.1868568238
 10
-33.9354657963
 20
-22.1459797892
 10
-33.9512467764
 20
-22.1042156145
 10
-33.9646370571
 20
-22.0617066033
 10
-33.9756095632
 20
-22.0185810825
 10
-33.9840895554
 20
-21.9752853469
 10
-33.9901016143
 20
-21.9320674269
 10
-33.9937126284
 20
-21.8889625714
 10
-33.9949737014
 20
-21.8461021237
  0
LWPOLYLINE
  5
27D
100
AcDbEntity
  8
ASSI
100
AcDbPolyline
 62
250
  6
CONTINUOUS
 90
13
 70
0
 10
-33.8246817863
 20
-22.3359476087
 10
-33.8506557687
 20
-22.3010009824
 10
-33.8748203413
 20
-22.264462247
 10
-33.8970659179
 20
-22.2264169859
 10
-33.9173353876
 20
-22.1868568238
 10
-33.9354657963
 20
-22.1459797892
 10
-33.9512467764
 20
-22.1042156145
 10
-33.9646370571
 20
-22.0617066033
 10
-33.9756095632
 20
-22.0185810825
 10
-33.9840895554
 20
-21.9752853469
 10
-33.9901016143
 20
-21.9320674269
 10
-33.9937126284
 20
-21.8889625714
 10
-33.9949737014
 20
-21.8461021237
  0
LWPOLYLINE
  5
27E
100
AcDbEntity
  8
RACCORDO
100
AcDbPolyline
 62
250
  6
CONTINUOUS
 90
13
 70
0
 10
-34.2179615936
 20
-22.6677048937
 10
-34.2603004273
 20
-22.6106822652
 10
-34.2993880176
 20
-22.5513301182
 10
-34.3352243643
 20
-22.4896484074
 10
-34.3680084775
 20
-22.4252653073
 10
-34.3975413472
 20
-22.3585525425
 10
-34.4232259432
 20
-22.2906254159
 10
-34.4449016682
 20
-22.2214638456
 10
-34.4627291194
 20
-22.1510878612
 10
-34.476593058
 20
-22.0806729838
 10
-34.486455071
 20
-22.0106110663
 10
-34.4923535715
 20
-21.9405102634
 10
-34.4942885593
 20
-21.8703705759
  0
LWPOLYLINE
  5
27F
100
AcDbEntity
  8
ASSI
100
AcDbPolyline
 62
250
  6
CONTINUOUS
 90
13
 70
0
 10
-34.2179615936
 20
-22.6677048937
 10
-34.2603004273
 20
-22.6106822652
 10
-34.2993880176
 20
-22.5513301182
 10
-34.3352243643
 20
-22.4896484074
 10
-34.3680084775
 20
-22.4252653073
 10
-34.3975413472
 20
-22.3585525425
 10
-34.4232259432
 20
-22.2906254159
 10
-34.4449016682
 20
-22.2214638456
 10
-34.4627291194
 20
-22.1510878612
 10
-34.476593058
 20
-22.0806729838
 10
-34.486455071
 20
-22.0106110663
 10
-34.4923535715
 20
-21.9405102634
 10
-34.4942885593
 20
-21.8703705759
  0
LINE
  5
280
100
AcDbEntity
  8
RACCORDO
100
AcDbLine
 62
250
  6
CONTINUOUS
 10
-34.4942885593
 20
-21.8703705759
 11
-34.5097532489
 21
-14.5834397175
  0
LINE
  5
281
100
AcDbEntity
  8
ASSI
100
AcDbLine
 62
250
  6
CONTINUOUS
 10
-34.4942885593
 20
-21.8703705759
 11
-34.5097532489
 21
-14.5834397175
  0
LINE
  5
282
100
AcDbEntity
  8
RACCORDO
100
AcDbLine
 62
250
  6
CONTINUOUS
 10
-33.9949737308
 20
-21.8461021525
 11
-34.0104384536
 21
-14.5669359818
  0
LINE
  5
283
100
AcDbEntity
  8
ASSI
100
AcDbLine
 62
250
  6
CONTINUOUS
 10
-33.9949737308
 20
-21.8461021525
 11
-34.0104384536
 21
-14.5669359818
  0
LINE
  5
284
100
AcDbEntity
  8
RACCORDO
100
AcDbLine
 62
250
  6
CONTINUOUS
 10
-34.5097532489
 20
-14.5834397175
 11
-34.5190327639
 21
-7.2926778504
  0
LINE
  5
285
100
AcDbEntity
  8
ASSI
100
AcDbLine
 62
250
  6
CONTINUOUS
 10
-34.5097532489
 20
-14.5834397175
 11
-34.5190327639
 21
-7.2926778504
  0
LINE
  5
286
100
AcDbEntity
  8
RACCORDO
100
AcDbLine
 62
250
  6
CONTINUOUS
 10
-34.0104384536
 20
-14.5669359818
 11
-34.0197179895
 21
-7.2846612491
  0
LINE
  5
287
100
AcDbEntity
  8
ASSI
100
AcDbLine
 62
250
  6
CONTINUOUS
 10
-34.0104384536
 20
-14.5669359818
 11
-34.0197179895
 21
-7.2846612491
  0
LINE
  5
288
100
AcDbEntity
  8
RACCORDO
100
AcDbLine
 62
250
  6
CONTINUOUS
 10
-34.5190327639
 20
-7.2926778504
 11
-34.5221266469
 21
-0.0000000449
  0
LINE
  5
289
100
AcDbEntity
  8
ASSI
100
AcDbLine
 62
250
  6
CONTINUOUS
 10
-34.5190327639
 20
-7.2926778504
 11
-34.5221266469
 21
-0.0000000449
  0
LINE
  5
28A
100
AcDbEntity
  8
RACCORDO
100
AcDbLine
 62
250
  6
CONTINUOUS
 10
-34.0197179895
 20
-7.2846612491
 11
-34.0228118795
 21
0.0000046778
  0
LINE
  5
28B
100
AcDbEntity
  8
ASSI
100
AcDbLine
 62
250
  6
CONTINUOUS
 10
-34.0197179895
 20
-7.2846612491
 11
-34.0228118795
 21
0.0000046778
  0
LINE
  5
28C
100
AcDbEntity
  8
0
100
AcDbLine
 62
250
  6
CONTINUOUS
 10
-36.498283
 20
28.14927
 11
-36.498283
 21
26.4507299861
  0
LINE
  5
28D
100
AcDbEntity
  8
0
100
AcDbLine
 62
250
  6
CONTINUOUS
 10
-36.398369
 20
28.049356
 11
-36.398369
 21
26.5506439811
  0
LINE
  5
28E
100
AcDbEntity
  8
0
100
AcDbLine
 62
250
  6
CONTINUOUS
 10
-36.298454
 20
27.949442
 11
-36.298454
 21
26.6505579787
  0
LINE
  5
28F
100
AcDbEntity
  8
0
100
AcDbLine
 62
250
  6
CONTINUOUS
 10
-35.34927
 20
29.298283
 11
-35.34927
 21
28.1492700125
  0
LINE
  5
290
100
AcDbEntity
  8
0
100
AcDbLine
 62
250
  6
CONTINUOUS
 10
-35.34927
 20
26.45073
 11
-35.34927
 21
25.3017170125
  0
LINE
  5
291
100
AcDbEntity
  8
0
100
AcDbLine
 62
250
  6
CONTINUOUS
 10
-35.249356
 20
29.198369
 11
-35.249356
 21
28.0493560119
  0
LINE
  5
292
100
AcDbEntity
  8
0
100
AcDbLine
 62
250
  6
CONTINUOUS
 10
-35.249356
 20
26.550644
 11
-35.249356
 21
25.4016309866
  0
LINE
  5
293
100
AcDbEntity
  8
0
100
AcDbLine
 62
250
  6
CONTINUOUS
 10
-35.149442
 20
29.098454
 11
-35.149442
 21
27.9494419761
  0
LINE
  5
294
100
AcDbEntity
  8
0
100
AcDbLine
 62
250
  6
CONTINUOUS
 10
-35.149442
 20
26.650558
 11
-35.149442
 21
25.5015460004
  0
LINE
  5
295
100
AcDbEntity
  8
0
100
AcDbLine
 62
250
  6
CONTINUOUS
 10
-33.850558
 20
25.501546
 11
-33.850558
 21
26.6505579996
  0
LINE
  5
296
100
AcDbEntity
  8
0
100
AcDbLine
 62
250
  6
CONTINUOUS
 10
-33.850558
 20
27.949442
 11
-33.850558
 21
29.0984540239
  0
LINE
  5
297
100
AcDbEntity
  8
0
100
AcDbLine
 62
7
  6
CONTINUOUS
 10
-33.85
 20
-21.7010963722
 11
-33.85
 21
21.7010963722
  0
LINE
  5
298
100
AcDbEntity
  8
ASSI
100
AcDbLine
 62
7
  6
CONTINUOUS
 10
-33.85
 20
-21.7010963722
 11
-33.85
 21
21.7010963722
  0
LINE
  5
299
100
AcDbEntity
  8
0
100
AcDbLine
 62
250
  6
CONTINUOUS
 10
-33.750644
 20
25.401631
 11
-33.750644
 21
26.5506440134
  0
LINE
  5
29A
100
AcDbEntity
  8
0
100
AcDbLine
 62
250
  6
CONTINUOUS
 10
-33.750644
 20
28.049356
 11
-33.750644
 21
29.1983689882
  0
LINE
  5
29B
100
AcDbEntity
  8
0
100
AcDbLine
 62
250
  6
CONTINUOUS
 10
-33.65073
 20
25.301717
 11
-33.65073
 21
26.4507299876
  0
LINE
  5
29C
100
AcDbEntity
  8
0
100
AcDbLine
 62
250
  6
CONTINUOUS
 10
-33.65073
 20
28.14927
 11
-33.65073
 21
29.2982829875
  0
LINE
  5
29D
100
AcDbEntity
  8
RACCORDO
100
AcDbLine
 62
250
  6
CONTINUOUS
 10
-33.1926456448
 20
23.1675430277
 11
-33.1926456448
 21
22.6415492726
  0
LINE
  5
29E
100
AcDbEntity
  8
ASSI
100
AcDbLine
 62
250
  6
CONTINUOUS
 10
-33.1926456448
 20
23.1675430277
 11
-33.1926456448
 21
22.6415492726
  0
LINE
  5
29F
100
AcDbEntity
  8
RACCORDO
100
AcDbLine
 62
250
  6
CONTINUOUS
 10
-33.1926456448
 20
-23.1675430277
 11
-33.1926456448
 21
-22.6415492726
  0
LINE
  5
2A0
100
AcDbEntity
  8
ASSI
100
AcDbLine
 62
250
  6
CONTINUOUS
 10
-33.1926456448
 20
-23.1675430277
 11
-33.1926456448
 21
-22.6415492726
  0
LINE
  5
2A1
100
AcDbEntity
  8
0
100
AcDbLine
 62
250
  6
CONTINUOUS
 10
-32.701546
 20
26.650558
 11
-32.701546
 21
27.9494420213
  0
LINE
  5
2A2
100
AcDbEntity
  8
0
100
AcDbLine
 62
250
  6
CONTINUOUS
 10
-32.601631
 20
26.550644
 11
-32.601631
 21
28.0493560189
  0
LINE
  5
2A3
100
AcDbEntity
  8
0
100
AcDbLine
 62
250
  6
CONTINUOUS
 10
-32.501717
 20
26.45073
 11
-32.501717
 21
28.1492700139
  0
LINE
  5
2A4
100
AcDbEntity
  8
RACCORDO
100
AcDbLine
 62
250
  6
CONTINUOUS
 10
-34.5221266469
 20
-0.0000000449
 11
-34.5190327641
 21
7.2926777695
  0
LINE
  5
2A5
100
AcDbEntity
  8
ASSI
100
AcDbLine
 62
250
  6
CONTINUOUS
 10
-34.5221266469
 20
-0.0000000449
 11
-34.5190327641
 21
7.2926777695
  0
LINE
  5
2A6
100
AcDbEntity
  8
RACCORDO
100
AcDbLine
 62
250
  6
CONTINUOUS
 10
-34.0228118795
 20
0.0000046778
 11
-34.019717977
 21
7.2846728244
  0
LINE
  5
2A7
100
AcDbEntity
  8
ASSI
100
AcDbLine
 62
250
  6
CONTINUOUS
 10
-34.0228118795
 20
0.0000046778
 11
-34.019717977
 21
7.2846728244
  0
LINE
  5
2A8
100
AcDbEntity
  8
RACCORDO
100
AcDbLine
 62
250
  6
CONTINUOUS
 10
-34.5190327641
 20
7.2926777695
 11
-34.5097532492
 21
14.5834396663
  0
LINE
  5
2A9
100
AcDbEntity
  8
ASSI
100
AcDbLine
 62
250
  6
CONTINUOUS
 10
-34.5190327641
 20
7.2926777695
 11
-34.5097532492
 21
14.5834396663
  0
LINE
  5
2AA
100
AcDbEntity
  8
RACCORDO
100
AcDbLine
 62
250
  6
CONTINUOUS
 10
-34.019717977
 20
7.2846728244
 11
-34.0104384523
 21
14.5669384586
  0
LINE
  5
2AB
100
AcDbEntity
  8
ASSI
100
AcDbLine
 62
250
  6
CONTINUOUS
 10
-34.019717977
 20
7.2846728244
 11
-34.0104384523
 21
14.5669384586
  0
LINE
  5
2AC
100
AcDbEntity
  8
RACCORDO
100
AcDbLine
 62
250
  6
CONTINUOUS
 10
-34.5097532492
 20
14.5834396663
 11
-34.4942885593
 21
21.8703705759
  0
LINE
  5
2AD
100
AcDbEntity
  8
ASSI
100
AcDbLine
 62
250
  6
CONTINUOUS
 10
-34.5097532492
 20
14.5834396663
 11
-34.4942885593
 21
21.8703705759
  0
LINE
  5
2AE
100
AcDbEntity
  8
RACCORDO
100
AcDbLine
 62
250
  6
CONTINUOUS
 10
-34.0104384523
 20
14.5669384586
 11
-33.9949737716
 21
21.8460808361
  0
LINE
  5
2AF
100
AcDbEntity
  8
ASSI
100
AcDbLine
 62
250
  6
CONTINUOUS
 10
-34.0104384523
 20
14.5669384586
 11
-33.9949737716
 21
21.8460808361
  0
LWPOLYLINE
  5
2B0
100
AcDbEntity
  8
RACCORDO
100
AcDbPolyline
 62
250
  6
CONTINUOUS
 90
13
 70
0
 10
-34.4942885593
 20
21.8703705759
 10
-34.4924155439
 20
21.9398583102
 10
-34.4866078772
 20
22.0094119758
 10
-34.4768655593
 20
22.0790315696
 10
-34.46317883
 20
22.1490872379
 10
-34.4455574495
 20
22.2192088224
 10
-34.4240306982
 20
22.2882858881
 10
-34.3984214608
 20
22.3563516252
 10
-34.3689068525
 20
22.4233728872
 10
-34.3360474991
 20
22.4881397869
 10
-34.3000302758
 20
22.5502490714
 10
-34.2606683073
 20
22.6101040923
 10
-34.2179615936
 20
22.6677048937
  0
LWPOLYLINE
  5
2B1
100
AcDbEntity
  8
ASSI
100
AcDbPolyline
 62
250
  6
CONTINUOUS
 90
13
 70
0
 10
-34.4942885593
 20
21.8703705759
 10
-34.4924155439
 20
21.9398583102
 10
-34.4866078772
 20
22.0094119758
 10
-34.4768655593
 20
22.0790315696
 10
-34.46317883
 20
22.1490872379
 10
-34.4455574495
 20
22.2192088224
 10
-34.4240306982
 20
22.2882858881
 10
-34.3984214608
 20
22.3563516252
 10
-34.3689068525
 20
22.4233728872
 10
-34.3360474991
 20
22.4881397869
 10
-34.3000302758
 20
22.5502490714
 10
-34.2606683073
 20
22.6101040923
 10
-34.2179615936
 20
22.6677048937
  0
LWPOLYLINE
  5
2B2
100
AcDbEntity
  8
RACCORDO
100
AcDbPolyline
 62
250
  6
CONTINUOUS
 90
13
 70
0
 10
-33.9949737619
 20
21.8460808265
 10
-33.9937328644
 20
21.8886036479
 10
-33.9901738482
 20
21.9314160131
 10
-33.9842389437
 20
21.9743886709
 10
-33.9758591596
 20
22.0174673069
 10
-33.9650003536
 20
22.0604256281
 10
-33.9517087855
 20
22.1028768865
 10
-33.9359804906
 20
22.144722119
 10
-33.9178500493
 20
22.1857771256
 10
-33.8975336802
 20
22.2255624421
 10
-33.8751945359
 20
22.2638604283
 10
-33.8508761538
 20
22.3006865786
 10
-33.8246817863
 20
22.3359476087
  0
LWPOLYLINE
  5
2B3
100
AcDbEntity
  8
ASSI
100
AcDbPolyline
 62
250
  6
CONTINUOUS
 90
13
 70
0
 10
-33.9949737619
 20
21.8460808265
 10
-33.9937328644
 20
21.8886036479
 10
-33.9901738482
 20
21.9314160131
 10
-33.9842389437
 20
21.9743886709
 10
-33.9758591596
 20
22.0174673069
 10
-33.9650003536
 20
22.0604256281
 10
-33.9517087855
 20
22.1028768865
 10
-33.9359804906
 20
22.144722119
 10
-33.9178500493
 20
22.1857771256
 10
-33.8975336802
 20
22.2255624421
 10
-33.8751945359
 20
22.2638604283
 10
-33.8508761538
 20
22.3006865786
 10
-33.8246817863
 20
22.3359476087
  0
LINE
  5
2B4
100
AcDbEntity
  8
0
100
AcDbLine
 62
250
  6
CONTINUOUS
 10
-20.956337
 20
27.389285
 11
-20.760657
 21
27.627378
  0
LINE
  5
2B5
100
AcDbEntity
  8
0
100
AcDbLine
 62
250
  6
CONTINUOUS
 10
-21.065697
 20
26.139295
 11
-20.870017
 21
26.377389
  0
LINE
  5
2B6
100
AcDbEntity
  8
0
100
AcDbLine
 62
250
  6
CONTINUOUS
 10
-21.105148
 20
27.686902
 11
-21.23213
 21
27.567855
  0
LINE
  5
2B7
100
AcDbEntity
  8
0
100
AcDbLine
 62
250
  6
CONTINUOUS
 10
-21.34149
 20
26.317865
 11
-21.214508
 21
26.436912
  0
LINE
  5
2B8
100
AcDbEntity
  8
0
100
AcDbLine
 62
250
  6
CONTINUOUS
 10
-16.952415
 20
28.520228
 11
-17.206378
 21
28.282135
  0
LINE
  5
2B9
100
AcDbEntity
  8
0
100
AcDbLine
 62
250
  6
CONTINUOUS
 10
-21.314453
 20
25.960725
 11
-21.065697
 21
26.139295
  0
LINE
  5
2BA
100
AcDbEntity
  8
0
100
AcDbLine
 62
250
  6
CONTINUOUS
 10
-16.867094
 20
28.163088
 11
-16.681829
 21
28.282135
  0
LINE
  5
2BB
100
AcDbEntity
  8
0
100
AcDbLine
 62
250
  6
CONTINUOUS
 10
-15.6776
 20
26.436912
 11
-15.862865
 21
26.317865
  0
LINE
  5
2BC
100
AcDbEntity
  8
0
100
AcDbLine
 62
250
  6
CONTINUOUS
 10
-21.078111
 20
27.329762
 11
-20.956337
 21
27.389285
  0
LINE
  5
2BD
100
AcDbEntity
  8
0
100
AcDbLine
 62
250
  6
CONTINUOUS
 10
-16.708866
 20
28.639275
 11
-16.952415
 21
28.520228
  0
LINE
  5
2BE
100
AcDbEntity
  8
0
100
AcDbLine
 62
250
  6
CONTINUOUS
 10
-21.23213
 20
27.567855
 11
-21.412188
 21
27.508332
  0
LINE
  5
2BF
100
AcDbEntity
  8
0
100
AcDbLine
 62
250
  6
CONTINUOUS
 10
-21.521548
 20
26.258342
 11
-21.34149
 21
26.317865
  0
LINE
  5
2C0
100
AcDbEntity
  8
0
100
AcDbLine
 62
250
  6
CONTINUOUS
 10
-29.104637
 20
28.698798
 11
-29.104637
 21
25.9012020459
  0
LINE
  5
2C1
100
AcDbEntity
  8
0
100
AcDbLine
 62
250
  6
CONTINUOUS
 10
-27.705839
 20
28.698798
 11
-27.705839
 21
25.9012020459
  0
LINE
  5
2C2
100
AcDbEntity
  8
0
100
AcDbLine
 62
250
  6
CONTINUOUS
 10
-26.107212
 20
28.698798
 11
-26.107212
 21
25.9012020459
  0
LINE
  5
2C3
100
AcDbEntity
  8
0
100
AcDbLine
 62
250
  6
CONTINUOUS
 10
-22.765116
 20
28.698798
 11
-23.009874
 21
25.901202
  0
LINE
  5
2C4
100
AcDbEntity
  8
0
100
AcDbLine
 62
250
  6
CONTINUOUS
 10
-22.550815
 20
27.151192
 11
-22.628929
 21
26.258342
  0
LINE
  5
2C5
100
AcDbEntity
  8
0
100
AcDbLine
 62
250
  6
CONTINUOUS
 10
-22.519569
 20
27.508332
 11
-22.446663
 21
28.341658
  0
LINE
  5
2C6
100
AcDbEntity
  8
0
100
AcDbLine
 62
250
  6
CONTINUOUS
 10
-17.343775
 20
28.044042
 11
-17.428096
 21
27.746425
  0
LINE
  5
2C7
100
AcDbEntity
  8
0
100
AcDbLine
 62
250
  6
CONTINUOUS
 10
-17.078397
 20
27.746425
 11
-16.999283
 21
27.984518
  0
LINE
  5
2C8
100
AcDbEntity
  8
0
100
AcDbLine
 62
250
  6
CONTINUOUS
 10
-21.031242
 20
27.865471
 11
-21.105148
 21
27.686902
  0
LINE
  5
2C9
100
AcDbEntity
  8
0
100
AcDbLine
 62
250
  6
CONTINUOUS
 10
-20.760657
 20
27.627378
 11
-20.686751
 21
27.805948
  0
LINE
  5
2CA
100
AcDbEntity
  8
0
100
AcDbLine
 62
250
  6
CONTINUOUS
 10
-21.214508
 20
26.436912
 11
-21.140602
 21
26.615482
  0
LINE
  5
2CB
100
AcDbEntity
  8
0
100
AcDbLine
 62
250
  6
CONTINUOUS
 10
-20.870017
 20
26.377389
 11
-20.79611
 21
26.555959
  0
LINE
  5
2CC
100
AcDbEntity
  8
0
100
AcDbLine
 62
250
  6
CONTINUOUS
 10
-18.997536
 20
28.460705
 11
-19.662691
 21
26.853575
  0
LINE
  5
2CD
100
AcDbEntity
  8
0
100
AcDbLine
 62
250
  6
CONTINUOUS
 10
-20.037429
 20
25.901202
 11
-19.741804
 21
26.615482
  0
LINE
  5
2CE
100
AcDbEntity
  8
0
100
AcDbLine
 62
250
  6
CONTINUOUS
 10
-15.603694
 20
26.615482
 11
-15.6776
 21
26.436912
  0
LINE
  5
2CF
100
AcDbEntity
  8
0
100
AcDbLine
 62
250
  6
CONTINUOUS
 10
-19.209838
 20
28.698798
 11
-20.387128
 21
25.901202
  0
LINE
  5
2D0
100
AcDbEntity
  8
0
100
AcDbLine
 62
250
  6
CONTINUOUS
 10
-17.206378
 20
28.282135
 11
-17.343775
 21
28.044042
  0
LINE
  5
2D1
100
AcDbEntity
  8
0
100
AcDbLine
 62
250
  6
CONTINUOUS
 10
-16.999283
 20
27.984518
 11
-16.867094
 21
28.163088
  0
LINE
  5
2D2
100
AcDbEntity
  8
0
100
AcDbLine
 62
250
  6
CONTINUOUS
 10
-15.592279
 20
26.079772
 11
-15.338316
 21
26.317865
  0
LINE
  5
2D3
100
AcDbEntity
  8
0
100
AcDbLine
 62
250
  6
CONTINUOUS
 10
-7.700002
 20
27.686902
 11
-7.826984
 21
27.567855
  0
LINE
  5
2D4
100
AcDbEntity
  8
0
100
AcDbLine
 62
250
  6
CONTINUOUS
 10
-15.835827
 20
25.960725
 11
-15.592279
 21
26.079772
  0
LINE
  5
2D5
100
AcDbEntity
  8
0
100
AcDbLine
 62
250
  6
CONTINUOUS
 10
-7.551191
 20
27.389285
 11
-7.794738
 21
27.270238
  0
LINE
  5
2D6
100
AcDbEntity
  8
0
100
AcDbLine
 62
250
  6
CONTINUOUS
 10
-7.826984
 20
27.567855
 11
-8.007041
 21
27.508332
  0
LWPOLYLINE
  5
2D7
100
AcDbEntity
  8
0
100
AcDbPolyline
 62
7
  6
CONTINUOUS
 90
25
 70
0
 10
3.6000188023
 20
-26.110807341
 10
3.6597713465
 20
-26.102102619
 10
3.7194846998
 20
-26.0939040544
 10
3.7791588624
 20
-26.0862116526
 10
3.8387555631
 20
-26.0789737829
 10
3.898313073
 20
-26.0722420853
 10
3.9579462052
 20
-26.0661714717
 10
4.0176671288
 20
-26.0607553438
 10
4.0774636747
 20
-26.0560003095
 10
4.1374141488
 20
-26.0520810916
 10
4.1975301686
 20
-26.0489904041
 10
4.2578001166
 20
-26.0467355404
 10
4.3182674465
 20
-26.045513093
 10
4.3789942067
 20
-26.0453205369
 10
4.4399183488
 20
-26.0461603989
 10
4.5008971818
 20
-26.0482368478
 10
4.5619375304
 20
-26.0514818054
 10
4.6230325699
 20
-26.0559633418
 10
4.6840191347
 20
-26.062089842
 10
4.7450311991
 20
-26.0697724172
 10
4.8059347887
 20
-26.0790999279
 10
4.8661648155
 20
-26.090747367
 10
4.9255329165
 20
-26.1049397028
 10
4.9842274546
 20
-26.121451888
 10
5.0422484297
 20
-26.1402838735
  0
LWPOLYLINE
  5
2D8
100
AcDbEntity
  8
ASSI
100
AcDbPolyline
 62
7
  6
CONTINUOUS
 90
25
 70
0
 10
3.6000188023
 20
-26.110807341
 10
3.6597713465
 20
-26.102102619
 10
3.7194846998
 20
-26.0939040544
 10
3.7791588624
 20
-26.0862116526
 10
3.8387555631
 20
-26.0789737829
 10
3.898313073
 20
-26.0722420853
 10
3.9579462052
 20
-26.0661714717
 10
4.0176671288
 20
-26.0607553438
 10
4.0774636747
 20
-26.0560003095
 10
4.1374141488
 20
-26.0520810916
 10
4.1975301686
 20
-26.0489904041
 10
4.2578001166
 20
-26.0467355404
 10
4.3182674465
 20
-26.045513093
 10
4.3789942067
 20
-26.0453205369
 10
4.4399183488
 20
-26.0461603989
 10
4.5008971818
 20
-26.0482368478
 10
4.5619375304
 20
-26.0514818054
 10
4.6230325699
 20
-26.0559633418
 10
4.6840191347
 20
-26.062089842
 10
4.7450311991
 20
-26.0697724172
 10
4.8059347887
 20
-26.0790999279
 10
4.8661648155
 20
-26.090747367
 10
4.9255329165
 20
-26.1049397028
 10
4.9842274546
 20
-26.121451888
 10
5.0422484297
 20
-26.1402838735
  0
LWPOLYLINE
  5
2D9
100
AcDbEntity
  8
0
100
AcDbPolyline
 62
7
  6
CONTINUOUS
 90
31
 70
0
 10
4.4966806432
 20
-27.3236280866
 10
4.5211194037
 20
-27.3228429412
 10
4.5454156013
 20
-27.321287225
 10
4.5695692361
 20
-27.3189609364
 10
4.5936555547
 20
-27.3159153063
 10
4.6175993105
 20
-27.312099098
 10
4.6411747636
 20
-27.3073586067
 10
4.6643782324
 20
-27.3017048521
 10
4.6872133986
 20
-27.2951268009
 10
4.709465567
 20
-27.2874376641
 10
4.7311733264
 20
-27.2786271815
 10
4.7522980879
 20
-27.2687055874
 10
4.7725093904
 20
-27.2575168276
 10
4.7917693391
 20
-27.2450067412
 10
4.8101158287
 20
-27.2312294465
 10
4.8273320822
 20
-27.2161913026
 10
4.8433426921
 20
-27.1997972325
 10
4.8582230659
 20
-27.1821422567
 10
4.8719826491
 20
-27.1635178852
 10
4.8846145714
 20
-27.1439295865
 10
4.896125703
 20
-27.123371841
 10
4.9065461003
 20
-27.1021196892
 10
4.9158866569
 20
-27.0801913729
 10
4.9241364793
 20
-27.0575686098
 10
4.9312929427
 20
-27.0344716675
 10
4.9373779049
 20
-27.0108845703
 10
4.942369508
 20
-26.9868232639
 10
4.9461995534
 20
-26.9625559145
 10
4.9488453081
 20
-26.9381719102
 10
4.950329505
 20
-26.913581852
 10
4.9506521441
 20
-26.8887857336
  0
LWPOLYLINE
  5
2DA
100
AcDbEntity
  8
ASSI
100
AcDbPolyline
 62
7
  6
CONTINUOUS
 90
31
 70
0
 10
4.4966806432
 20
-27.3236280866
 10
4.5211194037
 20
-27.3228429412
 10
4.5454156013
 20
-27.321287225
 10
4.5695692361
 20
-27.3189609364
 10
4.5936555547
 20
-27.3159153063
 10
4.6175993105
 20
-27.312099098
 10
4.6411747636
 20
-27.3073586067
 10
4.6643782324
 20
-27.3017048521
 10
4.6872133986
 20
-27.2951268009
 10
4.709465567
 20
-27.2874376641
 10
4.7311733264
 20
-27.2786271815
 10
4.7522980879
 20
-27.2687055874
 10
4.7725093904
 20
-27.2575168276
 10
4.7917693391
 20
-27.2450067412
 10
4.8101158287
 20
-27.2312294465
 10
4.8273320822
 20
-27.2161913026
 10
4.8433426921
 20
-27.1997972325
 10
4.8582230659
 20
-27.1821422567
 10
4.8719826491
 20
-27.1635178852
 10
4.8846145714
 20
-27.1439295865
 10
4.896125703
 20
-27.123371841
 10
4.9065461003
 20
-27.1021196892
 10
4.9158866569
 20
-27.0801913729
 10
4.9241364793
 20
-27.0575686098
 10
4.9312929427
 20
-27.0344716675
 10
4.9373779049
 20
-27.0108845703
 10
4.942369508
 20
-26.9868232639
 10
4.9461995534
 20
-26.9625559145
 10
4.9488453081
 20
-26.9381719102
 10
4.950329505
 20
-26.913581852
 10
4.9506521441
 20
-26.8887857336
  0
LINE
  5
2DB
100
AcDbEntity
  8
0
100
AcDbLine
 62
7
  6
CONTINUOUS
 10
5.6391482119
 20
-28.8778013544
 11
5.0770156219
 21
-28.8778013544
  0
LINE
  5
2DC
100
AcDbEntity
  8
ASSI
100
AcDbLine
 62
7
  6
CONTINUOUS
 10
5.6391482119
 20
-28.8778013544
 11
5.0770156219
 21
-28.8778013544
  0
LINE
  5
2DD
100
AcDbEntity
  8
0
100
AcDbLine
 62
7
  6
CONTINUOUS
 10
4.1820753449
 20
-28.8778013544
 11
3.6000188023
 21
-28.8778013544
  0
LINE
  5
2DE
100
AcDbEntity
  8
ASSI
100
AcDbLine
 62
7
  6
CONTINUOUS
 10
4.1820753449
 20
-28.8778013544
 11
3.6000188023
 21
-28.8778013544
  0
LINE
  5
2DF
100
AcDbEntity
  8
0
100
AcDbLine
 62
7
  6
CONTINUOUS
 10
3.298408
 20
-28.877801
 11
2.682466
 21
-28.877801
  0
LINE
  5
2E0
100
AcDbEntity
  8
ASSI
100
AcDbLine
 62
7
  6
CONTINUOUS
 10
3.298408
 20
-28.877801
 11
2.682466
 21
-28.877801
  0
LINE
  5
2E1
100
AcDbEntity
  8
0
100
AcDbLine
 62
7
  6
CONTINUOUS
 10
1.573947
 20
-28.877801
 11
0.99588
 21
-28.877801
  0
LINE
  5
2E2
100
AcDbEntity
  8
ASSI
100
AcDbLine
 62
7
  6
CONTINUOUS
 10
1.573947
 20
-28.877801
 11
0.99588
 21
-28.877801
  0
LINE
  5
2E3
100
AcDbEntity
  8
0
100
AcDbLine
 62
7
  6
CONTINUOUS
 10
0.694112
 20
-28.877801
 11
0.122406
 21
-28.877801
  0
LINE
  5
2E4
100
AcDbEntity
  8
ASSI
100
AcDbLine
 62
7
  6
CONTINUOUS
 10
0.694112
 20
-28.877801
 11
0.122406
 21
-28.877801
  0
LINE
  5
2E5
100
AcDbEntity
  8
0
100
AcDbLine
 62
7
  6
CONTINUOUS
 10
-0.692524
 20
-28.877801
 11
-0.774487
 21
-28.877801
  0
LINE
  5
2E6
100
AcDbEntity
  8
ASSI
100
AcDbLine
 62
7
  6
CONTINUOUS
 10
-0.692524
 20
-28.877801
 11
-0.774487
 21
-28.877801
  0
LINE
  5
2E7
100
AcDbEntity
  8
0
100
AcDbLine
 62
7
  6
CONTINUOUS
 10
-1.586183
 20
-28.877801
 11
-2.145272
 21
-28.877801
  0
LINE
  5
2E8
100
AcDbEntity
  8
ASSI
100
AcDbLine
 62
7
  6
CONTINUOUS
 10
-1.586183
 20
-28.877801
 11
-2.145272
 21
-28.877801
  0
LINE
  5
2E9
100
AcDbEntity
  8
0
100
AcDbLine
 62
7
  6
CONTINUOUS
 10
-2.449877
 20
-28.877801
 11
-3.034285
 21
-28.877801
  0
LINE
  5
2EA
100
AcDbEntity
  8
ASSI
100
AcDbLine
 62
7
  6
CONTINUOUS
 10
-2.449877
 20
-28.877801
 11
-3.034285
 21
-28.877801
  0
LINE
  5
2EB
100
AcDbEntity
  8
0
100
AcDbLine
 62
7
  6
CONTINUOUS
 10
-4.231097
 20
-28.877801
 11
-4.746107
 21
-28.877801
  0
LINE
  5
2EC
100
AcDbEntity
  8
ASSI
100
AcDbLine
 62
7
  6
CONTINUOUS
 10
-4.231097
 20
-28.877801
 11
-4.746107
 21
-28.877801
  0
LINE
  5
2ED
100
AcDbEntity
  8
0
100
AcDbLine
 62
7
  6
CONTINUOUS
 10
2.531074
 20
-28.318881
 11
1.735207
 21
-28.318881
  0
LINE
  5
2EE
100
AcDbEntity
  8
ASSI
100
AcDbLine
 62
7
  6
CONTINUOUS
 10
2.531074
 20
-28.318881
 11
1.735207
 21
-28.318881
  0
LINE
  5
2EF
100
AcDbEntity
  8
0
100
AcDbLine
 62
7
  6
CONTINUOUS
 10
2.41428
 20
-27.886391
 11
1.854751
 21
-27.886391
  0
LINE
  5
2F0
100
AcDbEntity
  8
ASSI
100
AcDbLine
 62
7
  6
CONTINUOUS
 10
2.41428
 20
-27.886391
 11
1.854751
 21
-27.886391
  0
LINE
  5
2F1
100
AcDbEntity
  8
0
100
AcDbLine
 62
7
  6
CONTINUOUS
 10
4.4954209623
 20
-27.7821519248
 11
4.1820753449
 21
-27.7821519248
  0
LINE
  5
2F2
100
AcDbEntity
  8
ASSI
100
AcDbLine
 62
7
  6
CONTINUOUS
 10
4.4954209623
 20
-27.7821519248
 11
4.1820753449
 21
-27.7821519248
  0
LINE
  5
2F3
100
AcDbEntity
  8
0
100
AcDbLine
 62
7
  6
CONTINUOUS
 10
4.4966806432
 20
-27.3236280866
 11
4.1626972541
 21
-27.3236280866
  0
LINE
  5
2F4
100
AcDbEntity
  8
ASSI
100
AcDbLine
 62
7
  6
CONTINUOUS
 10
4.4966806432
 20
-27.3236280866
 11
4.1626972541
 21
-27.3236280866
  0
LINE
  5
2F5
100
AcDbEntity
  8
0
100
AcDbLine
 62
7
  6
CONTINUOUS
 10
2.43939
 20
-26.078098
 11
1.874045
 21
-26.078098
  0
LINE
  5
2F6
100
AcDbEntity
  8
ASSI
100
AcDbLine
 62
7
  6
CONTINUOUS
 10
2.43939
 20
-26.078098
 11
1.874045
 21
-26.078098
  0
LINE
  5
2F7
100
AcDbEntity
  8
0
100
AcDbLine
 62
7
  6
CONTINUOUS
 10
0.432308
 20
-26.078098
 11
-0.145906
 21
-26.078098
  0
LINE
  5
2F8
100
AcDbEntity
  8
ASSI
100
AcDbLine
 62
7
  6
CONTINUOUS
 10
0.432308
 20
-26.078098
 11
-0.145906
 21
-26.078098
  0
LINE
  5
2F9
100
AcDbEntity
  8
0
100
AcDbLine
 62
7
  6
CONTINUOUS
 10
-1.30855
 20
-26.078098
 11
-1.892475
 21
-26.078098
  0
LINE
  5
2FA
100
AcDbEntity
  8
ASSI
100
AcDbLine
 62
7
  6
CONTINUOUS
 10
-1.30855
 20
-26.078098
 11
-1.892475
 21
-26.078098
  0
LINE
  5
2FB
100
AcDbEntity
  8
0
100
AcDbLine
 62
7
  6
CONTINUOUS
 10
-3.33116
 20
-26.078098
 11
-3.915169
 21
-26.078098
  0
LINE
  5
2FC
100
AcDbEntity
  8
ASSI
100
AcDbLine
 62
7
  6
CONTINUOUS
 10
-3.33116
 20
-26.078098
 11
-3.915169
 21
-26.078098
  0
LINE
  5
2FD
100
AcDbEntity
  8
0
100
AcDbLine
 62
7
  6
CONTINUOUS
 10
-4.99882
 20
-26.078098
 11
-5.633668
 21
-26.078098
  0
LINE
  5
2FE
100
AcDbEntity
  8
ASSI
100
AcDbLine
 62
7
  6
CONTINUOUS
 10
-4.99882
 20
-26.078098
 11
-5.633668
 21
-26.078098
  0
LINE
  5
2FF
100
AcDbEntity
  8
0
100
AcDbLine
 62
7
  6
CONTINUOUS
 10
-2.449877
 20
-26.07793
 11
-3.034285
 21
-26.07793
  0
LINE
  5
300
100
AcDbEntity
  8
ASSI
100
AcDbLine
 62
7
  6
CONTINUOUS
 10
-2.449877
 20
-26.07793
 11
-3.034285
 21
-26.07793
  0
LWPOLYLINE
  5
301
100
AcDbEntity
  8
0
100
AcDbPolyline
 62
7
  6
CONTINUOUS
 90
10
 70
0
 10
4.62051343
 20
-26.5385722489
 10
4.5718458172
 20
-26.5336539599
 10
4.5225684534
 20
-26.5304073579
 10
4.4726813388
 20
-26.5288324502
 10
4.422105089
 20
-26.5289082667
 10
4.3709190884
 20
-26.5306557807
 10
4.3193614893
 20
-26.5341379087
 10
4.267511676
 20
-26.5393756159
 10
4.2152902643
 20
-26.546347917
 10
4.1626972541
 20
-26.5550547959
  0
LWPOLYLINE
  5
302
100
AcDbEntity
  8
ASSI
100
AcDbPolyline
 62
7
  6
CONTINUOUS
 90
10
 70
0
 10
4.62051343
 20
-26.5385722489
 10
4.5718458172
 20
-26.5336539599
 10
4.5225684534
 20
-26.5304073579
 10
4.4726813388
 20
-26.5288324502
 10
4.422105089
 20
-26.5289082667
 10
4.3709190884
 20
-26.5306557807
 10
4.3193614893
 20
-26.5341379087
 10
4.267511676
 20
-26.5393756159
 10
4.2152902643
 20
-26.546347917
 10
4.1626972541
 20
-26.5550547959
  0
LINE
  5
303
100
AcDbEntity
  8
0
100
AcDbLine
 62
250
  6
CONTINUOUS
 10
-23.975711
 20
28.698798
 11
-23.975711
 21
25.9012020459
  0
LINE
  5
304
100
AcDbEntity
  8
0
100
AcDbLine
 62
250
  6
CONTINUOUS
 10
-21.020827
 20
27.984518
 11
-21.031242
 21
27.865471
  0
LINE
  5
305
100
AcDbEntity
  8
0
100
AcDbLine
 62
250
  6
CONTINUOUS
 10
-21.140602
 20
26.615482
 11
-21.12498
 21
26.794052
  0
LINE
  5
306
100
AcDbEntity
  8
0
100
AcDbLine
 62
250
  6
CONTINUOUS
 10
-20.686751
 20
27.805948
 11
-20.66592
 21
28.044042
  0
LINE
  5
307
100
AcDbEntity
  8
0
100
AcDbLine
 62
250
  6
CONTINUOUS
 10
-20.79611
 20
26.555959
 11
-20.770072
 21
26.853575
  0
LINE
  5
308
100
AcDbEntity
  8
0
100
AcDbLine
 62
250
  6
CONTINUOUS
 10
-17.428096
 20
27.746425
 11
-17.506211
 21
26.853575
  0
LINE
  5
309
100
AcDbEntity
  8
0
100
AcDbLine
 62
250
  6
CONTINUOUS
 10
-17.156511
 20
26.853575
 11
-17.078397
 21
27.746425
  0
LINE
  5
30A
100
AcDbEntity
  8
0
100
AcDbLine
 62
250
  6
CONTINUOUS
 10
-15.338316
 20
26.317865
 11
-15.253994
 21
26.615482
  0
LINE
  5
30B
100
AcDbEntity
  8
0
100
AcDbLine
 62
250
  6
CONTINUOUS
 10
-7.35551
 20
27.627378
 11
-7.551191
 21
27.389285
  0
LWPOLYLINE
  5
30C
100
AcDbEntity
  8
RACCORDO
100
AcDbPolyline
 62
250
  6
CONTINUOUS
 90
16
 70
0
 10
-34.369093969
 20
-21.8692779856
 10
-34.3287508969
 20
-21.8685789918
 10
-34.2895852216
 20
-21.8677199025
 10
-34.2518755116
 20
-21.8667068282
 10
-34.2158899793
 20
-21.8655469743
 10
-34.1818845742
 20
-21.8642485904
 10
-34.1501011618
 20
-21.8628209112
 10
-34.1207658036
 20
-21.8612740914
 10
-34.094087149
 20
-21.8596191327
 10
-34.0702549518
 20
-21.8578678061
 10
-34.0494387199
 20
-21.856032568
 10
-34.03178651
 20
-21.8541264717
 10
-34.0174238746
 20
-21.8521630745
 10
-34.0064529687
 20
-21.850156341
 10
-33.9989518238
 20
-21.8481205443
 10
-33.994973792
 20
-21.8460701642
  0
LWPOLYLINE
  5
30D
100
AcDbEntity
  8
ASSI
100
AcDbPolyline
 62
250
  6
CONTINUOUS
 90
16
 70
0
 10
-34.369093969
 20
-21.8692779856
 10
-34.3287508969
 20
-21.8685789918
 10
-34.2895852216
 20
-21.8677199025
 10
-34.2518755116
 20
-21.8667068282
 10
-34.2158899793
 20
-21.8655469743
 10
-34.1818845742
 20
-21.8642485904
 10
-34.1501011618
 20
-21.8628209112
 10
-34.1207658036
 20
-21.8612740914
 10
-34.094087149
 20
-21.8596191327
 10
-34.0702549518
 20
-21.8578678061
 10
-34.0494387199
 20
-21.856032568
 10
-34.03178651
 20
-21.8541264717
 10
-34.0174238746
 20
-21.8521630745
 10
-34.0064529687
 20
-21.850156341
 10
-33.9989518238
 20
-21.8481205443
 10
-33.994973792
 20
-21.8460701642
  0
LWPOLYLINE
  5
30E
100
AcDbEntity
  8
RACCORDO
100
AcDbPolyline
 62
250
  6
CONTINUOUS
 90
17
 70
0
 10
60.4931469953
 20
-22.667357485
 10
60.5178871765
 20
-22.6670254536
 10
60.5420930806
 20
-22.6665907705
 10
60.5655925403
 20
-22.6660565275
 10
60.5882184134
 20
-22.6654265243
 10
60.6098097709
 20
-22.664705242
 10
60.6302130421
 20
-22.6638978107
 10
60.6492831066
 20
-22.6630099734
 10
60.6668843265
 20
-22.6620480449
 10
60.6828915112
 20
-22.6610188671
 10
60.6971908081
 20
-22.6599297601
 10
60.7096805118
 20
-22.6587884702
 10
60.7202717881
 20
-22.657603115
 10
60.7288893053
 20
-22.6563821255
 10
60.7354717705
 20
-22.6551341861
 10
60.7399723652
 20
-22.6538681728
 10
60.7423590785
 20
-22.6525930904
  0
LWPOLYLINE
  5
30F
100
AcDbEntity
  8
ASSI
100
AcDbPolyline
 62
250
  6
CONTINUOUS
 90
17
 70
0
 10
60.4931469953
 20
-22.667357485
 10
60.5178871765
 20
-22.6670254536
 10
60.5420930806
 20
-22.6665907705
 10
60.5655925403
 20
-22.6660565275
 10
60.5882184134
 20
-22.6654265243
 10
60.6098097709
 20
-22.664705242
 10
60.6302130421
 20
-22.6638978107
 10
60.6492831066
 20
-22.6630099734
 10
60.6668843265
 20
-22.6620480449
 10
60.6828915112
 20
-22.6610188671
 10
60.6971908081
 20
-22.6599297601
 10
60.7096805118
 20
-22.6587884702
 10
60.7202717881
 20
-22.657603115
 10
60.7288893053
 20
-22.6563821255
 10
60.7354717705
 20
-22.6551341861
 10
60.7399723652
 20
-22.6538681728
 10
60.7423590785
 20
-22.6525930904
  0
LINE
  5
310
100
AcDbEntity
  8
RACCORDO
100
AcDbLine
 62
250
  6
CONTINUOUS
 10
60.4427702181
 20
-22.6677048932
 11
60.4931469953
 21
-22.667357485
  0
LINE
  5
311
100
AcDbEntity
  8
ASSI
100
AcDbLine
 62
250
  6
CONTINUOUS
 10
60.4427702181
 20
-22.6677048932
 11
60.4931469953
 21
-22.667357485
  0
LWPOLYLINE
  5
312
100
AcDbEntity
  8
RACCORDO
100
AcDbPolyline
 62
250
  6
CONTINUOUS
 90
3
 70
0
 10
-34.4942885593
 20
-21.8703705753
 10
-34.4521581999
 20
-21.8701769744
 10
-34.369093969
 20
-21.8692779856
  0
LWPOLYLINE
  5
313
100
AcDbEntity
  8
ASSI
100
AcDbPolyline
 62
250
  6
CONTINUOUS
 90
3
 70
0
 10
-34.4942885593
 20
-21.8703705753
 10
-34.4521581999
 20
-21.8701769744
 10
-34.369093969
 20
-21.8692779856
  0
LINE
  5
314
100
AcDbEntity
  8
RACCORDO
100
AcDbLine
 62
250
  6
CONTINUOUS
 10
33.1926456448
 20
-23.1675430277
 11
-33.1926456448
 21
-23.1675430277
  0
LINE
  5
315
100
AcDbEntity
  8
ASSI
100
AcDbLine
 62
250
  6
CONTINUOUS
 10
33.1926456448
 20
-23.1675430277
 11
-33.1926456448
 21
-23.1675430277
  0
LINE
  5
316
100
AcDbEntity
  8
RACCORDO
100
AcDbLine
 62
250
  6
CONTINUOUS
 10
-34.2179615936
 20
-22.6677048937
 11
-60.4427701041
 21
-22.6676473889
  0
LINE
  5
317
100
AcDbEntity
  8
ASSI
100
AcDbLine
 62
250
  6
CONTINUOUS
 10
-34.2179615936
 20
-22.6677048937
 11
-60.4427701041
 21
-22.6676473889
  0
LINE
  5
318
100
AcDbEntity
  8
RACCORDO
100
AcDbLine
 62
250
  6
CONTINUOUS
 10
60.4427701044
 20
-22.6676475367
 11
34.2179615936
 21
-22.6677048937
  0
LINE
  5
319
100
AcDbEntity
  8
ASSI
100
AcDbLine
 62
250
  6
CONTINUOUS
 10
60.4427701044
 20
-22.6676475367
 11
34.2179615936
 21
-22.6677048937
  0
LINE
  5
31A
100
AcDbEntity
  8
RACCORDO
100
AcDbLine
 62
250
  6
CONTINUOUS
 10
33.1926840308
 20
-22.6415492726
 11
-33.1926540141
 21
-22.6415492726
  0
LINE
  5
31B
100
AcDbEntity
  8
ASSI
100
AcDbLine
 62
250
  6
CONTINUOUS
 10
33.1926840308
 20
-22.6415492726
 11
-33.1926540141
 21
-22.6415492726
  0
LINE
  5
31C
100
AcDbEntity
  8
0
100
AcDbLine
 62
7
  6
CONTINUOUS
 10
-33.0510963722
 20
-22.5
 11
33.0510963722
 21
-22.5
  0
LINE
  5
31D
100
AcDbEntity
  8
ASSI
100
AcDbLine
 62
7
  6
CONTINUOUS
 10
-33.0510963722
 20
-22.5
 11
33.0510963722
 21
-22.5
  0
LWPOLYLINE
  5
31E
100
AcDbEntity
  8
RACCORDO
100
AcDbPolyline
 62
250
  6
CONTINUOUS
 90
18
 70
0
 10
34.4942885593
 20
-21.8703704105
 10
34.4103272302
 20
-21.8698117862
 10
34.3690935311
 20
-21.8692778769
 10
34.3287502659
 20
-21.8685788992
 10
34.2895843821
 20
-21.8677198246
 10
34.2518744527
 20
-21.8667067634
 10
34.2158886954
 20
-21.8655469213
 10
34.1818830641
 20
-21.8642485476
 10
34.1500994291
 20
-21.8628208775
 10
34.120763856
 20
-21.8612740652
 10
34.0940849987
 20
-21.8596191129
 10
34.0702526143
 20
-21.8578677915
 10
34.0494362143
 20
-21.8560325576
 10
34.0317838585
 20
-21.8541264646
 10
34.0174211019
 20
-21.8521630699
 10
34.0064501016
 20
-21.8501563383
 10
33.9989488906
 20
-21.8481205432
 10
33.9949708223
 20
-21.8460701642
  0
LWPOLYLINE
  5
31F
100
AcDbEntity
  8
ASSI
100
AcDbPolyline
 62
250
  6
CONTINUOUS
 90
18
 70
0
 10
34.4942885593
 20
-21.8703704105
 10
34.4103272302
 20
-21.8698117862
 10
34.3690935311
 20
-21.8692778769
 10
34.3287502659
 20
-21.8685788992
 10
34.2895843821
 20
-21.8677198246
 10
34.2518744527
 20
-21.8667067634
 10
34.2158886954
 20
-21.8655469213
 10
34.1818830641
 20
-21.8642485476
 10
34.1500994291
 20
-21.8628208775
 10
34.120763856
 20
-21.8612740652
 10
34.0940849987
 20
-21.8596191129
 10
34.0702526143
 20
-21.8578677915
 10
34.0494362143
 20
-21.8560325576
 10
34.0317838585
 20
-21.8541264646
 10
34.0174211019
 20
-21.8521630699
 10
34.0064501016
 20
-21.8501563383
 10
33.9989488906
 20
-21.8481205432
 10
33.9949708223
 20
-21.8460701642
  0
LWPOLYLINE
  5
320
100
AcDbEntity
  8
RACCORDO
100
AcDbPolyline
 62
250
  6
CONTINUOUS
 90
18
 70
0
 10
-60.4427702181
 20
-22.6677048929
 10
-60.4931469947
 20
-22.6673574847
 10
-60.5178871757
 20
-22.6670254534
 10
-60.5420930795
 20
-22.6665907703
 10
-60.565592539
 20
-22.6660565272
 10
-60.5882184119
 20
-22.6654265241
 10
-60.6098097693
 20
-22.6647052418
 10
-60.6302130404
 20
-22.6638978105
 10
-60.6492831048
 20
-22.6630099732
 10
-60.6668843246
 20
-22.6620480448
 10
-60.6828915094
 20
-22.661018867
 10
-60.6971908064
 20
-22.65992976
 10
-60.7096805103
 20
-22.6587884701
 10
-60.7202717867
 20
-22.6576031149
 10
-60.7288893042
 20
-22.6563821254
 10
-60.7354717697
 20
-22.655134186
 10
-60.7399723648
 20
-22.6538681728
 10
-60.7423590785
 20
-22.6525930904
  0
LWPOLYLINE
  5
321
100
AcDbEntity
  8
ASSI
100
AcDbPolyline
 62
250
  6
CONTINUOUS
 90
18
 70
0
 10
-60.4427702181
 20
-22.6677048929
 10
-60.4931469947
 20
-22.6673574847
 10
-60.5178871757
 20
-22.6670254534
 10
-60.5420930795
 20
-22.6665907703
 10
-60.565592539
 20
-22.6660565272
 10
-60.5882184119
 20
-22.6654265241
 10
-60.6098097693
 20
-22.6647052418
 10
-60.6302130404
 20
-22.6638978105
 10
-60.6492831048
 20
-22.6630099732
 10
-60.6668843246
 20
-22.6620480448
 10
-60.6828915094
 20
-22.661018867
 10
-60.6971908064
 20
-22.65992976
 10
-60.7096805103
 20
-22.6587884701
 10
-60.7202717867
 20
-22.6576031149
 10
-60.7288893042
 20
-22.6563821254
 10
-60.7354717697
 20
-22.655134186
 10
-60.7399723648
 20
-22.6538681728
 10
-60.7423590785
 20
-22.6525930904
  0
LWPOLYLINE
  5
322
100
AcDbEntity
  8
RACCORDO
100
AcDbPolyline
 62
250
  6
CONTINUOUS
 90
31
 70
0
 10
-33.1926540284
 20
-22.6415492868
 10
-33.2185715428
 20
-22.6411766217
 10
-33.2441483086
 20
-22.6399902412
 10
-33.2693598364
 20
-22.6380213654
 10
-33.2941575594
 20
-22.6353048929
 10
-33.3185469879
 20
-22.6318708052
 10
-33.3425865257
 20
-22.6277361186
 10
-33.3662571518
 20
-22.622925904
 10
-33.3895423219
 20
-22.6174652554
 10
-33.4125035
 20
-22.6113574038
 10
-33.4351237762
 20
-22.6046211375
 10
-33.4573879565
 20
-22.5972752906
 10
-33.479357538
 20
-22.5893098196
 10
-33.501016237
 20
-22.5807374936
 10
-33.5223480612
 20
-22.5715715339
 10
-33.5434106964
 20
-22.5617899132
 10
-33.5641866017
 20
-22.5514000849
 10
-33.5846576616
 20
-22.5404103505
 10
-33.6048749003
 20
-22.5287881763
 10
-33.6248176077
 20
-22.5165367289
 10
-33.6444645253
 20
-22.5036600554
 10
-33.6638585502
 20
-22.490116087
 10
-33.6829740103
 20
-22.4759048756
 10
-33.7017853866
 20
-22.4610268761
 10
-33.7203268441
 20
-22.4454305803
 10
-33.7385650162
 20
-22.4291150656
 10
-33.7564697137
 20
-22.4120770846
 10
-33.7740685995
 20
-22.3942519821
 10
-33.7913414542
 20
-22.3756131463
 10
-33.8082265124
 20
-22.3561786662
 10
-33.8246817863
 20
-22.3359476087
  0
LWPOLYLINE
  5
323
100
AcDbEntity
  8
ASSI
100
AcDbPolyline
 62
250
  6
CONTINUOUS
 90
31
 70
0
 10
-33.1926540284
 20
-22.6415492868
 10
-33.2185715428
 20
-22.6411766217
 10
-33.2441483086
 20
-22.6399902412
 10
-33.2693598364
 20
-22.6380213654
 10
-33.2941575594
 20
-22.6353048929
 10
-33.3185469879
 20
-22.6318708052
 10
-33.3425865257
 20
-22.6277361186
 10
-33.3662571518
 20
-22.622925904
 10
-33.3895423219
 20
-22.6174652554
 10
-33.4125035
 20
-22.6113574038
 10
-33.4351237762
 20
-22.6046211375
 10
-33.4573879565
 20
-22.5972752906
 10
-33.479357538
 20
-22.5893098196
 10
-33.501016237
 20
-22.5807374936
 10
-33.5223480612
 20
-22.5715715339
 10
-33.5434106964
 20
-22.5617899132
 10
-33.5641866017
 20
-22.5514000849
 10
-33.5846576616
 20
-22.5404103505
 10
-33.6048749003
 20
-22.5287881763
 10
-33.6248176077
 20
-22.5165367289
 10
-33.6444645253
 20
-22.5036600554
 10
-33.6638585502
 20
-22.490116087
 10
-33.6829740103
 20
-22.4759048756
 10
-33.7017853866
 20
-22.4610268761
 10
-33.7203268441
 20
-22.4454305803
 10
-33.7385650162
 20
-22.4291150656
 10
-33.7564697137
 20
-22.4120770846
 10
-33.7740685995
 20
-22.3942519821
 10
-33.7913414542
 20
-22.3756131463
 10
-33.8082265124
 20
-22.3561786662
 10
-33.8246817863
 20
-22.3359476087
  0
LWPOLYLINE
  5
324
100
AcDbEntity
  8
RACCORDO
100
AcDbPolyline
 62
250
  6
CONTINUOUS
 90
31
 70
0
 10
-33.1926456448
 20
-23.1675430277
 10
-33.234757785
 20
-23.1667780232
 10
-33.2762417124
 20
-23.1647901401
 10
-33.3170974269
 20
-23.1615793761
 10
-33.3573144577
 20
-23.1571056169
 10
-33.3969032756
 20
-23.1514089677
 10
-33.4358952933
 20
-23.1446097537
 10
-33.4742861162
 20
-23.1367224701
 10
-33.5120801389
 20
-23.1277326063
 10
-33.5493219574
 20
-23.1177169786
 10
-33.5860106709
 20
-23.1066893212
 10
-33.6221471802
 20
-23.0946358794
 10
-33.6577787838
 20
-23.0815922361
 10
-33.6929085046
 20
-23.067570822
 10
-33.7275333197
 20
-23.0525591811
 10
-33.7616914586
 20
-23.0365555655
 10
-33.7953891411
 20
-23.0195707419
 10
-33.8286201473
 20
-23.0015939131
 10
-33.8614040483
 20
-22.9825909838
 10
-33.893749458
 20
-22.9625712578
 10
-33.9256477623
 20
-22.9415253944
 10
-33.9570926897
 20
-22.9193913273
 10
-33.9880948056
 20
-22.8961772198
 10
-34.0186435446
 20
-22.8718748636
 10
-34.0487009393
 20
-22.8463976308
 10
-34.0782798725
 20
-22.8197529995
 10
-34.1073674613
 20
-22.7919334365
 10
-34.1358870895
 20
-22.7628297909
 10
-34.1638132182
 20
-22.7324056551
 10
-34.1911713862
 20
-22.700697368
 10
-34.2179615936
 20
-22.6677048937
  0
LWPOLYLINE
  5
325
100
AcDbEntity
  8
ASSI
100
AcDbPolyline
 62
250
  6
CONTINUOUS
 90
31
 70
0
 10
-33.1926456448
 20
-23.1675430277
 10
-33.234757785
 20
-23.1667780232
 10
-33.2762417124
 20
-23.1647901401
 10
-33.3170974269
 20
-23.1615793761
 10
-33.3573144577
 20
-23.1571056169
 10
-33.3969032756
 20
-23.1514089677
 10
-33.4358952933
 20
-23.1446097537
 10
-33.4742861162
 20
-23.1367224701
 10
-33.5120801389
 20
-23.1277326063
 10
-33.5493219574
 20
-23.1177169786
 10
-33.5860106709
 20
-23.1066893212
 10
-33.6221471802
 20
-23.0946358794
 10
-33.6577787838
 20
-23.0815922361
 10
-33.6929085046
 20
-23.067570822
 10
-33.7275333197
 20
-23.0525591811
 10
-33.7616914586
 20
-23.0365555655
 10
-33.7953891411
 20
-23.0195707419
 10
-33.8286201473
 20
-23.0015939131
 10
-33.8614040483
 20
-22.9825909838
 10
-33.893749458
 20
-22.9625712578
 10
-33.9256477623
 20
-22.9415253944
 10
-33.9570926897
 20
-22.9193913273
 10
-33.9880948056
 20
-22.8961772198
 10
-34.0186435446
 20
-22.8718748636
 10
-34.0487009393
 20
-22.8463976308
 10
-34.0782798725
 20
-22.8197529995
 10
-34.1073674613
 20
-22.7919334365
 10
-34.1358870895
 20
-22.7628297909
 10
-34.1638132182
 20
-22.7324056551
 10
-34.1911713862
 20
-22.700697368
 10
-34.2179615936
 20
-22.6677048937
  0
LWPOLYLINE
  5
326
100
AcDbEntity
  8
0
100
AcDbPolyline
 62
7
  6
CONTINUOUS
 90
48
 70
0
 10
5.0422484297
 20
-26.1402838735
 10
5.0734658434
 20
-26.152912668
 10
5.1048882984
 20
-26.1681932871
 10
5.1365157946
 20
-26.1861256786
 10
5.1684884347
 20
-26.2066036921
 10
5.2006661161
 20
-26.2297333482
 10
5.2326285308
 20
-26.2558328282
 10
5.264618646
 20
-26.2849611717
 10
5.2963934946
 20
-26.317059124
 10
5.3268038676
 20
-26.3522673917
 10
5.3559516431
 20
-26.3910552965
 10
5.3837349429
 20
-26.4329531976
 10
5.4086989235
 20
-26.4766934015
 10
5.4304950261
 20
-26.5225358039
 10
5.4494718094
 20
-26.5702202749
 10
5.4652201052
 20
-26.6176992713
 10
5.4773271806
 20
-26.6646896875
 10
5.4862057685
 20
-26.7114746593
 10
5.4926848997
 20
-26.7568562094
 10
5.496801688
 20
-26.8004989944
 10
5.4985190195
 20
-26.842738533
 10
5.4985545843
 20
-26.8833832239
 10
5.4970093114
 20
-26.9223354449
 10
5.4937822718
 20
-26.9596929899
 10
5.4892883684
 20
-26.9955573828
 10
5.4835462973
 20
-27.0299396705
 10
5.4765373624
 20
-27.0628289468
 10
5.4686203787
 20
-27.0942937937
 10
5.4598097781
 20
-27.1243224394
 10
5.4500911286
 20
-27.1529267753
 10
5.4397799496
 20
-27.180210867
 10
5.4289087224
 20
-27.2061631845
 10
5.4174449657
 20
-27.2307953547
 10
5.4056067547
 20
-27.2542461662
 10
5.3934149182
 20
-27.2765264212
 10
5.3808486274
 20
-27.2976253922
 10
5.3680634707
 20
-27.3176495633
 10
5.3550648074
 20
-27.3365952232
 10
5.3418472782
 20
-27.3544661417
 10
5.3285503931
 20
-27.3713800164
 10
5.3151655413
 20
-27.3873093579
 10
5.3017013337
 20
-27.4022817
 10
5.2883231118
 20
-27.4164972661
 10
5.2750432403
 20
-27.4299647319
 10
5.2618493547
 20
-27.4426754511
 10
5.2488697029
 20
-27.4548036544
 10
5.2361326351
 20
-27.4663586435
 10
5.2236098012
 20
-27.4773311362
  0
LWPOLYLINE
  5
327
100
AcDbEntity
  8
ASSI
100
AcDbPolyline
 62
7
  6
CONTINUOUS
 90
48
 70
0
 10
5.0422484297
 20
-26.1402838735
 10
5.0734658434
 20
-26.152912668
 10
5.1048882984
 20
-26.1681932871
 10
5.1365157946
 20
-26.1861256786
 10
5.1684884347
 20
-26.2066036921
 10
5.2006661161
 20
-26.2297333482
 10
5.2326285308
 20
-26.2558328282
 10
5.264618646
 20
-26.2849611717
 10
5.2963934946
 20
-26.317059124
 10
5.3268038676
 20
-26.3522673917
 10
5.3559516431
 20
-26.3910552965
 10
5.3837349429
 20
-26.4329531976
 10
5.4086989235
 20
-26.4766934015
 10
5.4304950261
 20
-26.5225358039
 10
5.4494718094
 20
-26.5702202749
 10
5.4652201052
 20
-26.6176992713
 10
5.4773271806
 20
-26.6646896875
 10
5.4862057685
 20
-26.7114746593
 10
5.4926848997
 20
-26.7568562094
 10
5.496801688
 20
-26.8004989944
 10
5.4985190195
 20
-26.842738533
 10
5.4985545843
 20
-26.8833832239
 10
5.4970093114
 20
-26.9223354449
 10
5.4937822718
 20
-26.9596929899
 10
5.4892883684
 20
-26.9955573828
 10
5.4835462973
 20
-27.0299396705
 10
5.4765373624
 20
-27.0628289468
 10
5.4686203787
 20
-27.0942937937
 10
5.4598097781
 20
-27.1243224394
 10
5.4500911286
 20
-27.1529267753
 10
5.4397799496
 20
-27.180210867
 10
5.4289087224
 20
-27.2061631845
 10
5.4174449657
 20
-27.2307953547
 10
5.4056067547
 20
-27.2542461662
 10
5.3934149182
 20
-27.2765264212
 10
5.3808486274
 20
-27.2976253922
 10
5.3680634707
 20
-27.3176495633
 10
5.3550648074
 20
-27.3365952232
 10
5.3418472782
 20
-27.3544661417
 10
5.3285503931
 20
-27.3713800164
 10
5.3151655413
 20
-27.3873093579
 10
5.3017013337
 20
-27.4022817
 10
5.2883231118
 20
-27.4164972661
 10
5.2750432403
 20
-27.4299647319
 10
5.2618493547
 20
-27.4426754511
 10
5.2488697029
 20
-27.4548036544
 10
5.2361326351
 20
-27.4663586435
 10
5.2236098012
 20
-27.4773311362
  0
LINE
  5
328
100
AcDbEntity
  8
0
100
AcDbLine
 62
7
  6
CONTINUOUS
 10
5.1025031649
 20
-27.5709244369
 11
5.1300949033
 21
-27.5841404591
  0
LINE
  5
329
100
AcDbEntity
  8
ASSI
100
AcDbLine
 62
7
  6
CONTINUOUS
 10
5.1025031649
 20
-27.5709244369
 11
5.1300949033
 21
-27.5841404591
  0
LINE
  5
32A
100
AcDbEntity
  8
0
100
AcDbLine
 62
7
  6
CONTINUOUS
 10
5.1300949033
 20
-27.5841404591
 11
5.1558676008
 21
-27.5987855481
  0
LINE
  5
32B
100
AcDbEntity
  8
ASSI
100
AcDbLine
 62
7
  6
CONTINUOUS
 10
5.1300949033
 20
-27.5841404591
 11
5.1558676008
 21
-27.5987855481
  0
LWPOLYLINE
  5
32C
100
AcDbEntity
  8
0
100
AcDbPolyline
 62
7
  6
CONTINUOUS
 90
22
 70
0
 10
5.1558676008
 20
-27.5987855481
 10
5.1798212577
 20
-27.6148596736
 10
5.2018398765
 20
-27.6326285686
 10
5.2220394546
 20
-27.6518264257
 10
5.2407679834
 20
-27.6716559212
 10
5.2580008845
 20
-27.6919627743
 10
5.2737627364
 20
-27.7129012315
 10
5.288475266
 20
-27.734136791
 10
5.3021964653
 20
-27.7556342364
 10
5.3148683423
 20
-27.7774287658
 10
5.3267386486
 20
-27.7992915157
 10
5.3378346996
 20
-27.8212024885
 10
5.34812918
 20
-27.8431816772
 10
5.3577878946
 20
-27.8650602165
 10
5.366816336
 20
-27.8867941937
 10
5.3752090118
 20
-27.908427528
 10
5.3831152493
 20
-27.9299231091
 10
5.3905275344
 20
-27.9512414273
 10
5.3974533813
 20
-27.9724220009
 10
5.4040646597
 20
-27.9935462597
 10
5.4103479541
 20
-28.0146106705
 10
5.4163166799
 20
-28.0356187694
  0
LWPOLYLINE
  5
32D
100
AcDbEntity
  8
ASSI
100
AcDbPolyline
 62
7
  6
CONTINUOUS
 90
22
 70
0
 10
5.1558676008
 20
-27.5987855481
 10
5.1798212577
 20
-27.6148596736
 10
5.2018398765
 20
-27.6326285686
 10
5.2220394546
 20
-27.6518264257
 10
5.2407679834
 20
-27.6716559212
 10
5.2580008845
 20
-27.6919627743
 10
5.2737627364
 20
-27.7129012315
 10
5.288475266
 20
-27.734136791
 10
5.3021964653
 20
-27.7556342364
 10
5.3148683423
 20
-27.7774287658
 10
5.3267386486
 20
-27.7992915157
 10
5.3378346996
 20
-27.8212024885
 10
5.34812918
 20
-27.8431816772
 10
5.3577878946
 20
-27.8650602165
 10
5.366816336
 20
-27.8867941937
 10
5.3752090118
 20
-27.908427528
 10
5.3831152493
 20
-27.9299231091
 10
5.3905275344
 20
-27.9512414273
 10
5.3974533813
 20
-27.9724220009
 10
5.4040646597
 20
-27.9935462597
 10
5.4103479541
 20
-28.0146106705
 10
5.4163166799
 20
-28.0356187694
  0
LINE
  5
32E
100
AcDbEntity
  8
0
100
AcDbLine
 62
250
  6
CONTINUOUS
 10
-29.90395
 20
25.901202
 11
-30.703263
 21
28.698798
  0
LINE
  5
32F
100
AcDbEntity
  8
0
100
AcDbLine
 62
250
  6
CONTINUOUS
 10
-17.506211
 20
26.853575
 11
-17.473965
 21
26.555959
  0
LINE
  5
330
100
AcDbEntity
  8
0
100
AcDbLine
 62
250
  6
CONTINUOUS
 10
-15.134219
 20
27.984518
 11
-15.166464
 21
28.282135
  0
LINE
  5
331
100
AcDbEntity
  8
0
100
AcDbLine
 62
250
  6
CONTINUOUS
 10
-14.605462
 20
28.698798
 11
-14.6315
 21
28.401181
  0
LINE
  5
332
100
AcDbEntity
  8
0
100
AcDbLine
 62
250
  6
CONTINUOUS
 10
-13.698968
 20
28.401181
 11
-13.917688
 21
25.901202
  0
LINE
  5
333
100
AcDbEntity
  8
0
100
AcDbLine
 62
250
  6
CONTINUOUS
 10
-13.567988
 20
25.901202
 11
-13.349269
 21
28.401181
  0
LINE
  5
334
100
AcDbEntity
  8
0
100
AcDbLine
 62
250
  6
CONTINUOUS
 10
-12.416737
 20
28.401181
 11
-12.390699
 21
28.698798
  0
LINE
  5
335
100
AcDbEntity
  8
0
100
AcDbLine
 62
250
  6
CONTINUOUS
 10
-11.924433
 20
28.698798
 11
-12.169191
 21
25.901202
  0
LINE
  5
336
100
AcDbEntity
  8
0
100
AcDbLine
 62
250
  6
CONTINUOUS
 10
-11.673678
 20
27.567855
 11
-11.605979
 21
28.341658
  0
LINE
  5
337
100
AcDbEntity
  8
0
100
AcDbLine
 62
250
  6
CONTINUOUS
 10
-11.788245
 20
26.258342
 11
-11.704924
 21
27.210715
  0
LINE
  5
338
100
AcDbEntity
  8
0
100
AcDbLine
 62
250
  6
CONTINUOUS
 10
-10.18956
 20
27.210715
 11
-10.158314
 21
27.567855
  0
LINE
  5
339
100
AcDbEntity
  8
0
100
AcDbLine
 62
250
  6
CONTINUOUS
 10
-10.070994
 20
25.901202
 11
-10.039748
 21
26.258342
  0
LINE
  5
33A
100
AcDbEntity
  8
0
100
AcDbLine
 62
250
  6
CONTINUOUS
 10
-9.857481
 20
28.341658
 11
-9.826236
 21
28.698798
  0
LINE
  5
33B
100
AcDbEntity
  8
0
100
AcDbLine
 62
250
  6
CONTINUOUS
 10
-9.604728
 20
25.901202
 11
-9.35997
 21
28.698798
  0
LINE
  5
33C
100
AcDbEntity
  8
0
100
AcDbLine
 62
250
  6
CONTINUOUS
 10
-7.626096
 20
27.865471
 11
-7.700002
 21
27.686902
  0
LINE
  5
33D
100
AcDbEntity
  8
0
100
AcDbLine
 62
250
  6
CONTINUOUS
 10
-7.281604
 20
27.805948
 11
-7.35551
 21
27.627378
  0
LINE
  5
33E
100
AcDbEntity
  8
0
100
AcDbLine
 62
250
  6
CONTINUOUS
 10
-4.71814
 20
28.460705
 11
-5.383295
 21
26.853575
  0
LINE
  5
33F
100
AcDbEntity
  8
0
100
AcDbLine
 62
250
  6
CONTINUOUS
 10
-5.758034
 20
25.901202
 11
-5.462409
 21
26.615482
  0
LINE
  5
340
100
AcDbEntity
  8
0
100
AcDbLine
 62
250
  6
CONTINUOUS
 10
-4.930443
 20
28.698798
 11
-6.107733
 21
25.901202
  0
LINE
  5
341
100
AcDbEntity
  8
RACCORDO
100
AcDbLine
 62
250
  6
CONTINUOUS
 10
-60.8700585586
 20
-43.8714290238
 11
-61.0
 21
-44.0013704652
  0
LINE
  5
342
100
AcDbEntity
  8
ASSI
100
AcDbLine
 62
250
  6
CONTINUOUS
 10
-60.8700585586
 20
-43.8714290238
 11
-61.0
 21
-44.0013704652
  0
LINE
  5
343
100
AcDbEntity
  8
RACCORDO
100
AcDbLine
 62
250
  6
CONTINUOUS
 10
-60.8700585586
 20
43.8714290238
 11
-61.0
 21
44.0013704652
  0
LINE
  5
344
100
AcDbEntity
  8
ASSI
100
AcDbLine
 62
250
  6
CONTINUOUS
 10
-60.8700585586
 20
43.8714290238
 11
-61.0
 21
44.0013704652
  0
LINE
  5
345
100
AcDbEntity
  8
0
100
AcDbLine
 62
250
  6
CONTINUOUS
 10
-27.705839
 20
25.901202
 11
-29.104637
 21
28.698798
  0
LINE
  5
346
100
AcDbEntity
  8
0
100
AcDbLine
 62
7
  6
CONTINUOUS
 10
-4.746107
 20
-28.877801
 11
-5.633668
 21
-26.078098
  0
LINE
  5
347
100
AcDbEntity
  8
ASSI
100
AcDbLine
 62
7
  6
CONTINUOUS
 10
-4.746107
 20
-28.877801
 11
-5.633668
 21
-26.078098
  0
LINE
  5
348
100
AcDbEntity
  8
0
100
AcDbLine
 62
7
  6
CONTINUOUS
 10
-4.465146
 20
-28.00522
 11
-4.99882
 21
-26.078098
  0
LINE
  5
349
100
AcDbEntity
  8
ASSI
100
AcDbLine
 62
7
  6
CONTINUOUS
 10
-4.465146
 20
-28.00522
 11
-4.99882
 21
-26.078098
  0
LINE
  5
34A
100
AcDbEntity
  8
0
100
AcDbLine
 62
250
  6
CONTINUOUS
 10
-21.12498
 20
26.794052
 11
-21.16764
 21
26.972622
  0
LINE
  5
34B
100
AcDbEntity
  8
0
100
AcDbLine
 62
250
  6
CONTINUOUS
 10
-20.770072
 20
26.853575
 11
-20.812733
 21
27.032145
  0
LINE
  5
34C
100
AcDbEntity
  8
0
100
AcDbLine
 62
250
  6
CONTINUOUS
 10
-21.063488
 20
28.163088
 11
-21.020827
 21
27.984518
  0
LINE
  5
34D
100
AcDbEntity
  8
0
100
AcDbLine
 62
250
  6
CONTINUOUS
 10
-20.66592
 20
28.044042
 11
-20.70858
 21
28.222611
  0
LINE
  5
34E
100
AcDbEntity
  8
0
100
AcDbLine
 62
250
  6
CONTINUOUS
 10
-18.576139
 20
26.615482
 11
-18.405498
 21
25.901202
  0
LINE
  5
34F
100
AcDbEntity
  8
0
100
AcDbLine
 62
250
  6
CONTINUOUS
 10
-18.613592
 20
26.853575
 11
-18.997536
 21
28.460705
  0
LINE
  5
350
100
AcDbEntity
  8
0
100
AcDbLine
 62
250
  6
CONTINUOUS
 10
-17.119059
 20
26.615482
 11
-17.156511
 21
26.853575
  0
LINE
  5
351
100
AcDbEntity
  8
0
100
AcDbLine
 62
250
  6
CONTINUOUS
 10
-9.145669
 20
27.151192
 11
-9.255029
 21
25.901202
  0
LINE
  5
352
100
AcDbEntity
  8
0
100
AcDbLine
 62
250
  6
CONTINUOUS
 10
-9.114423
 20
27.508332
 11
-9.036309
 21
28.401181
  0
LINE
  5
353
100
AcDbEntity
  8
0
100
AcDbLine
 62
250
  6
CONTINUOUS
 10
-7.610473
 20
28.044042
 11
-7.626096
 21
27.865471
  0
LINE
  5
354
100
AcDbEntity
  8
0
100
AcDbLine
 62
250
  6
CONTINUOUS
 10
-7.260773
 20
28.044042
 11
-7.281604
 21
27.805948
  0
LINE
  5
355
100
AcDbEntity
  8
0
100
AcDbLine
 62
250
  6
CONTINUOUS
 10
-6.67894
 20
28.698798
 11
-6.923698
 21
25.901202
  0
LINE
  5
356
100
AcDbEntity
  8
0
100
AcDbLine
 62
250
  6
CONTINUOUS
 10
-6.573999
 20
25.901202
 11
-6.329241
 21
28.698798
  0
LINE
  5
357
100
AcDbEntity
  8
0
100
AcDbLine
 62
250
  6
CONTINUOUS
 10
-3.06538
 20
28.698798
 11
-3.310138
 21
25.901202
  0
LINE
  5
358
100
AcDbEntity
  8
RACCORDO
100
AcDbLine
 62
250
  6
CONTINUOUS
 10
-59.8781758769
 20
-44.8768054117
 11
-60.0013704652
 21
-45.0
  0
LINE
  5
359
100
AcDbEntity
  8
ASSI
100
AcDbLine
 62
250
  6
CONTINUOUS
 10
-59.8781758769
 20
-44.8768054117
 11
-60.0013704652
 21
-45.0
  0
LINE
  5
35A
100
AcDbEntity
  8
0
100
AcDbLine
 62
250
  6
CONTINUOUS
 10
-33.9949737308
 20
-21.8461021525
 11
-33.85
 21
-21.7010963722
  0
LINE
  5
35B
100
AcDbEntity
  8
ASSI
100
AcDbLine
 62
250
  6
CONTINUOUS
 10
-33.9949737308
 20
-21.8461021525
 11
-33.85
 21
-21.7010963722
  0
LINE
  5
35C
100
AcDbEntity
  8
0
100
AcDbLine
 62
250
  6
CONTINUOUS
 10
-33.1926540141
 20
-22.6415492726
 11
-33.0510963722
 21
-22.5
  0
LINE
  5
35D
100
AcDbEntity
  8
ASSI
100
AcDbLine
 62
250
  6
CONTINUOUS
 10
-33.1926540141
 20
-22.6415492726
 11
-33.0510963722
 21
-22.5
  0
LINE
  5
35E
100
AcDbEntity
  8
0
100
AcDbLine
 62
250
  6
CONTINUOUS
 10
-33.1926840308
 20
22.6415492726
 11
-33.0510963722
 21
22.5
  0
LINE
  5
35F
100
AcDbEntity
  8
ASSI
100
AcDbLine
 62
250
  6
CONTINUOUS
 10
-33.1926840308
 20
22.6415492726
 11
-33.0510963722
 21
22.5
  0
LINE
  5
360
100
AcDbEntity
  8
RACCORDO
100
AcDbLine
 62
250
  6
CONTINUOUS
 10
-59.8781758769
 20
44.8768054117
 11
-60.0013704652
 21
45.0
  0
LINE
  5
361
100
AcDbEntity
  8
ASSI
100
AcDbLine
 62
250
  6
CONTINUOUS
 10
-59.8781758769
 20
44.8768054117
 11
-60.0013704652
 21
45.0
  0
LINE
  5
362
100
AcDbEntity
  8
0
100
AcDbLine
 62
250
  6
CONTINUOUS
 10
-33.9949737716
 20
21.8460808361
 11
-33.85
 21
21.7010963722
  0
LINE
  5
363
100
AcDbEntity
  8
ASSI
100
AcDbLine
 62
250
  6
CONTINUOUS
 10
-33.9949737716
 20
21.8460808361
 11
-33.85
 21
21.7010963722
  0
LWPOLYLINE
  5
364
100
AcDbEntity
  8
0
100
AcDbPolyline
 62
7
  6
CONTINUOUS
 90
19
 70
0
 10
4.8214020604
 20
-28.0286629486
 10
4.8119785471
 20
-28.0055536093
 10
4.8013904692
 20
-27.9831746941
 10
4.7896378267
 20
-27.9615262278
 10
4.7766906567
 20
-27.9404990878
 10
4.7625789221
 20
-27.9202024411
 10
4.7473925114
 20
-27.9009637552
 10
4.7311446892
 20
-27.8827680881
 10
4.7138221909
 20
-27.8656304402
 10
4.6954751106
 20
-27.8499232091
 10
4.6760277929
 20
-27.835661063
 10
4.6555558933
 20
-27.8228293971
 10
4.634336472
 20
-27.8117567103
 10
4.6123305914
 20
-27.8025808726
 10
4.5895771891
 20
-27.7951640676
 10
4.5664701378
 20
-27.7894212634
 10
4.5431407283
 20
-27.7853241238
 10
4.5194576698
 20
-27.7829010089
 10
4.4954209623
 20
-27.7821519248
  0
LWPOLYLINE
  5
365
100
AcDbEntity
  8
ASSI
100
AcDbPolyline
 62
7
  6
CONTINUOUS
 90
19
 70
0
 10
4.8214020604
 20
-28.0286629486
 10
4.8119785471
 20
-28.0055536093
 10
4.8013904692
 20
-27.9831746941
 10
4.7896378267
 20
-27.9615262278
 10
4.7766906567
 20
-27.9404990878
 10
4.7625789221
 20
-27.9202024411
 10
4.7473925114
 20
-27.9009637552
 10
4.7311446892
 20
-27.8827680881
 10
4.7138221909
 20
-27.8656304402
 10
4.6954751106
 20
-27.8499232091
 10
4.6760277929
 20
-27.835661063
 10
4.6555558933
 20
-27.8228293971
 10
4.634336472
 20
-27.8117567103
 10
4.6123305914
 20
-27.8025808726
 10
4.5895771891
 20
-27.7951640676
 10
4.5664701378
 20
-27.7894212634
 10
4.5431407283
 20
-27.7853241238
 10
4.5194576698
 20
-27.7829010089
 10
4.4954209623
 20
-27.7821519248
  0
LINE
  5
366
100
AcDbEntity
  8
0
100
AcDbLine
 62
250
  6
CONTINUOUS
 10
-17.473965
 20
26.555959
 11
-17.378229
 21
26.317865
  0
LINE
  5
367
100
AcDbEntity
  8
0
100
AcDbLine
 62
7
  6
CONTINUOUS
 10
-0.774487
 20
-28.877801
 11
-1.460068
 21
-27.049647
  0
LINE
  5
368
100
AcDbEntity
  8
ASSI
100
AcDbLine
 62
7
  6
CONTINUOUS
 10
-0.774487
 20
-28.877801
 11
-1.460068
 21
-27.049647
  0
LINE
  5
369
100
AcDbEntity
  8
0
100
AcDbLine
 62
7
  6
CONTINUOUS
 10
-0.730314
 20
-27.632502
 11
-1.30855
 21
-26.078098
  0
LINE
  5
36A
100
AcDbEntity
  8
ASSI
100
AcDbLine
 62
7
  6
CONTINUOUS
 10
-0.730314
 20
-27.632502
 11
-1.30855
 21
-26.078098
  0
LINE
  5
36B
100
AcDbEntity
  8
0
100
AcDbLine
 62
250
  6
CONTINUOUS
 10
-18.055798
 20
25.901202
 11
-18.743572
 21
28.698798
  0
LINE
  5
36C
100
AcDbEntity
  8
0
100
AcDbLine
 62
250
  6
CONTINUOUS
 10
-15.526579
 20
28.163088
 11
-15.483919
 21
27.984518
  0
LINE
  5
36D
100
AcDbEntity
  8
0
100
AcDbLine
 62
7
  6
CONTINUOUS
 10
0.694112
 20
-28.877801
 11
0.432308
 21
-26.078098
  0
LINE
  5
36E
100
AcDbEntity
  8
ASSI
100
AcDbLine
 62
7
  6
CONTINUOUS
 10
0.694112
 20
-28.877801
 11
0.432308
 21
-26.078098
  0
LINE
  5
36F
100
AcDbEntity
  8
0
100
AcDbLine
 62
7
  6
CONTINUOUS
 10
0.122406
 20
-28.877801
 11
0.002337
 21
-27.057269
  0
LINE
  5
370
100
AcDbEntity
  8
ASSI
100
AcDbLine
 62
7
  6
CONTINUOUS
 10
0.122406
 20
-28.877801
 11
0.002337
 21
-27.057269
  0
LINE
  5
371
100
AcDbEntity
  8
0
100
AcDbLine
 62
7
  6
CONTINUOUS
 10
-3.034285
 20
-28.877801
 11
-3.034285
 21
-26.07793
  0
LINE
  5
372
100
AcDbEntity
  8
ASSI
100
AcDbLine
 62
7
  6
CONTINUOUS
 10
-3.034285
 20
-28.877801
 11
-3.034285
 21
-26.07793
  0
LINE
  5
373
100
AcDbEntity
  8
0
100
AcDbLine
 62
7
  6
CONTINUOUS
 10
-2.449877
 20
-28.877801
 11
-2.449877
 21
-26.07793
  0
LINE
  5
374
100
AcDbEntity
  8
ASSI
100
AcDbLine
 62
7
  6
CONTINUOUS
 10
-2.449877
 20
-28.877801
 11
-2.449877
 21
-26.07793
  0
LINE
  5
375
100
AcDbEntity
  8
0
100
AcDbLine
 62
7
  6
CONTINUOUS
 10
-1.586183
 20
-28.877801
 11
-1.460068
 21
-27.049647
  0
LINE
  5
376
100
AcDbEntity
  8
ASSI
100
AcDbLine
 62
7
  6
CONTINUOUS
 10
-1.586183
 20
-28.877801
 11
-1.460068
 21
-27.049647
  0
LINE
  5
377
100
AcDbEntity
  8
0
100
AcDbLine
 62
250
  6
CONTINUOUS
 10
-2.929192
 20
26.258342
 11
-2.71568
 21
28.698798
  0
LINE
  5
378
100
AcDbEntity
  8
0
100
AcDbLine
 62
250
  6
CONTINUOUS
 10
-1.211941
 20
25.901202
 11
-1.180695
 21
26.258342
  0
LINE
  5
379
100
AcDbEntity
  8
0
100
AcDbLine
 62
7
  6
CONTINUOUS
 10
-2.145272
 20
-28.877801
 11
-1.892475
 21
-26.078098
  0
LINE
  5
37A
100
AcDbEntity
  8
ASSI
100
AcDbLine
 62
7
  6
CONTINUOUS
 10
-2.145272
 20
-28.877801
 11
-1.892475
 21
-26.078098
  0
LWPOLYLINE
  5
37B
100
AcDbEntity
  8
RACCORDO
100
AcDbPolyline
 62
250
  6
CONTINUOUS
 90
12
 70
0
 10
-33.9975272282
 20
-22.4909531968
 10
-33.9706627899
 20
-22.4686674846
 10
-33.9455802882
 20
-22.4476344712
 10
-33.9224604615
 20
-22.4280057154
 10
-33.9014699056
 20
-22.409922657
 10
-33.8827598731
 20
-22.3935155981
 10
-33.866465184
 20
-22.3789027639
 10
-33.8527032538
 20
-22.3661894508
 10
-33.8415732475
 20
-22.3554672678
 10
-33.8331553653
 20
-22.3468134762
 10
-33.8275102643
 20
-22.3402904331
 10
-33.8246786217
 20
-22.335945142
  0
LWPOLYLINE
  5
37C
100
AcDbEntity
  8
ASSI
100
AcDbPolyline
 62
250
  6
CONTINUOUS
 90
12
 70
0
 10
-33.9975272282
 20
-22.4909531968
 10
-33.9706627899
 20
-22.4686674846
 10
-33.9455802882
 20
-22.4476344712
 10
-33.9224604615
 20
-22.4280057154
 10
-33.9014699056
 20
-22.409922657
 10
-33.8827598731
 20
-22.3935155981
 10
-33.866465184
 20
-22.3789027639
 10
-33.8527032538
 20
-22.3661894508
 10
-33.8415732475
 20
-22.3554672678
 10
-33.8331553653
 20
-22.3468134762
 10
-33.8275102643
 20
-22.3402904331
 10
-33.8246786217
 20
-22.335945142
  0
LINE
  5
37D
100
AcDbEntity
  8
RACCORDO
100
AcDbLine
 62
250
  6
CONTINUOUS
 10
-34.0558161556
 20
-22.5386325071
 11
-33.9975272282
 21
-22.4909531968
  0
LINE
  5
37E
100
AcDbEntity
  8
ASSI
100
AcDbLine
 62
250
  6
CONTINUOUS
 10
-34.0558161556
 20
-22.5386325071
 11
-33.9975272282
 21
-22.4909531968
  0
LINE
  5
37F
100
AcDbEntity
  8
RACCORDO
100
AcDbLine
 62
250
  6
CONTINUOUS
 10
-34.1187700344
 20
-22.5893006167
 11
-34.0558161556
 21
-22.5386325071
  0
LINE
  5
380
100
AcDbEntity
  8
ASSI
100
AcDbLine
 62
250
  6
CONTINUOUS
 10
-34.1187700344
 20
-22.5893006167
 11
-34.0558161556
 21
-22.5386325071
  0
LWPOLYLINE
  5
381
100
AcDbEntity
  8
RACCORDO
100
AcDbPolyline
 62
250
  6
CONTINUOUS
 90
3
 70
0
 10
-34.2179615935
 20
-22.6677046708
 10
-34.1845776132
 20
-22.6414997491
 10
-34.1187700344
 20
-22.5893006167
  0
LWPOLYLINE
  5
382
100
AcDbEntity
  8
ASSI
100
AcDbPolyline
 62
250
  6
CONTINUOUS
 90
3
 70
0
 10
-34.2179615935
 20
-22.6677046708
 10
-34.1845776132
 20
-22.6414997491
 10
-34.1187700344
 20
-22.5893006167
  0
LWPOLYLINE
  5
383
100
AcDbEntity
  8
0
100
AcDbPolyline
 62
7
  6
CONTINUOUS
 90
13
 70
0
 43
0.3500000006
 10
86.3928569641
 20
-0.0000003204
 10
85.1071409912
 20
-0.0000003204
 10
84.6785720215
 20
0.2142864304
 10
84.2500030518
 20
0.642857666
 10
84.2500030518
 20
0.8571421509
 10
84.6785720215
 20
1.2857133865
 10
85.1071409912
 20
1.5000001373
 10
86.3928569641
 20
1.5000001373
 10
86.8214259338
 20
1.2857133865
 10
87.2500039673
 20
0.8571421509
 10
87.2500039673
 20
0.642857666
 10
86.8214259338
 20
0.2142864304
 10
86.3928569641
 20
-0.0000003204
  0
LINE
  5
384
100
AcDbEntity
  8
RACCORDO
100
AcDbLine
 62
250
  6
CONTINUOUS
 10
-34.2179615937
 20
22.6677046126
 11
-34.1514340853
 21
22.6153020317
  0
LINE
  5
385
100
AcDbEntity
  8
ASSI
100
AcDbLine
 62
250
  6
CONTINUOUS
 10
-34.2179615937
 20
22.6677046126
 11
-34.1514340853
 21
22.6153020317
  0
LINE
  5
386
100
AcDbEntity
  8
RACCORDO
100
AcDbLine
 62
250
  6
CONTINUOUS
 10
-34.1514340853
 20
22.6153020317
 11
-34.0868204632
 21
22.5636823587
  0
LINE
  5
387
100
AcDbEntity
  8
ASSI
100
AcDbLine
 62
250
  6
CONTINUOUS
 10
-34.1514340853
 20
22.6153020317
 11
-34.0868204632
 21
22.5636823587
  0
LWPOLYLINE
  5
388
100
AcDbEntity
  8
RACCORDO
100
AcDbPolyline
 62
250
  6
CONTINUOUS
 90
14
 70
0
 10
-34.0868204632
 20
22.5636823587
 10
-34.0259797398
 20
22.5143307538
 10
-33.9975268796
 20
22.4909528815
 10
-33.9706623767
 20
22.4686671222
 10
-33.9455798109
 20
22.4476340624
 10
-33.9224599217
 20
22.4280052615
 10
-33.9014693062
 20
22.4099221605
 10
-33.8827592182
 20
22.3935150623
 10
-33.8664644786
 20
22.3789021927
 10
-33.8527025038
 20
22.3661888489
 10
-33.8415724596
 20
22.3554666405
 10
-33.8331545469
 20
22.3468128293
 10
-33.8275094232
 20
22.3402897727
 10
-33.8246777662
 20
22.3359444745
  0
LWPOLYLINE
  5
389
100
AcDbEntity
  8
ASSI
100
AcDbPolyline
 62
250
  6
CONTINUOUS
 90
14
 70
0
 10
-34.0868204632
 20
22.5636823587
 10
-34.0259797398
 20
22.5143307538
 10
-33.9975268796
 20
22.4909528815
 10
-33.9706623767
 20
22.4686671222
 10
-33.9455798109
 20
22.4476340624
 10
-33.9224599217
 20
22.4280052615
 10
-33.9014693062
 20
22.4099221605
 10
-33.8827592182
 20
22.3935150623
 10
-33.8664644786
 20
22.3789021927
 10
-33.8527025038
 20
22.3661888489
 10
-33.8415724596
 20
22.3554666405
 10
-33.8331545469
 20
22.3468128293
 10
-33.8275094232
 20
22.3402897727
 10
-33.8246777662
 20
22.3359444745
  0
LINE
  5
38A
100
AcDbEntity
  8
0
100
AcDbLine
 62
250
  6
CONTINUOUS
 10
-20.812733
 20
27.032145
 11
-20.966752
 21
27.270238
  0
LINE
  5
38B
100
AcDbEntity
  8
0
100
AcDbLine
 62
250
  6
CONTINUOUS
 10
-20.70858
 20
28.222611
 11
-20.8626
 21
28.460705
  0
LINE
  5
38C
100
AcDbEntity
  8
0
100
AcDbLine
 62
250
  6
CONTINUOUS
 10
-17.018115
 20
26.436912
 11
-17.119059
 21
26.615482
  0
LINE
  5
38D
100
AcDbEntity
  8
0
100
AcDbLine
 62
7
  6
CONTINUOUS
 10
3.298408
 20
-28.877801
 11
2.43939
 21
-26.078098
  0
LINE
  5
38E
100
AcDbEntity
  8
ASSI
100
AcDbLine
 62
7
  6
CONTINUOUS
 10
3.298408
 20
-28.877801
 11
2.43939
 21
-26.078098
  0
LINE
  5
38F
100
AcDbEntity
  8
0
100
AcDbLine
 62
250
  6
CONTINUOUS
 10
-7.794738
 20
27.270238
 11
-7.389964
 21
25.901202
  0
LWPOLYLINE
  5
390
100
AcDbEntity
  8
0
100
AcDbPolyline
 62
7
  6
CONTINUOUS
 90
8
 70
0
 10
4.9109609453
 20
-28.3034369205
 10
4.8992767201
 20
-28.2638731596
 10
4.8873360749
 20
-28.224417375
 10
4.8751387829
 20
-28.1850746147
 10
4.8624683817
 20
-28.1458293389
 10
4.8492527171
 20
-28.1066763727
 10
4.8355639434
 20
-28.0676209066
 10
4.8214020604
 20
-28.0286629486
  0
LWPOLYLINE
  5
391
100
AcDbEntity
  8
ASSI
100
AcDbPolyline
 62
7
  6
CONTINUOUS
 90
8
 70
0
 10
4.9109609453
 20
-28.3034369205
 10
4.8992767201
 20
-28.2638731596
 10
4.8873360749
 20
-28.224417375
 10
4.8751387829
 20
-28.1850746147
 10
4.8624683817
 20
-28.1458293389
 10
4.8492527171
 20
-28.1066763727
 10
4.8355639434
 20
-28.0676209066
 10
4.8214020604
 20
-28.0286629486
  0
LINE
  5
392
100
AcDbEntity
  8
0
100
AcDbLine
 62
7
  6
CONTINUOUS
 10
5.0770156219
 20
-28.8778013544
 11
4.9795527772
 21
-28.54374368
  0
LINE
  5
393
100
AcDbEntity
  8
ASSI
100
AcDbLine
 62
7
  6
CONTINUOUS
 10
5.0770156219
 20
-28.8778013544
 11
4.9795527772
 21
-28.54374368
  0
LINE
  5
394
100
AcDbEntity
  8
0
100
AcDbLine
 62
250
  6
CONTINUOUS
 10
-7.797947
 20
25.901202
 11
-8.154853
 21
27.151192
  0
LWPOLYLINE
  5
395
100
AcDbEntity
  8
0
100
AcDbPolyline
 62
7
  6
CONTINUOUS
 90
4
 70
0
 10
4.9795527772
 20
-28.54374368
 10
4.9564529782
 20
-28.4629991496
 10
4.9451345402
 20
-28.4228948134
 10
4.9109609453
 20
-28.3034369205
  0
LWPOLYLINE
  5
396
100
AcDbEntity
  8
ASSI
100
AcDbPolyline
 62
7
  6
CONTINUOUS
 90
4
 70
0
 10
4.9795527772
 20
-28.54374368
 10
4.9564529782
 20
-28.4629991496
 10
4.9451345402
 20
-28.4228948134
 10
4.9109609453
 20
-28.3034369205
  0
LWPOLYLINE
  5
397
100
AcDbEntity
  8
0
100
AcDbPolyline
 62
7
  6
CONTINUOUS
 90
3
 70
0
 10
5.4163166799
 20
-28.0356187694
 10
5.4280174788
 20
-28.077772787
 10
5.4337495519
 20
-28.0989187023
  0
LWPOLYLINE
  5
398
100
AcDbEntity
  8
ASSI
100
AcDbPolyline
 62
7
  6
CONTINUOUS
 90
3
 70
0
 10
5.4163166799
 20
-28.0356187694
 10
5.4280174788
 20
-28.077772787
 10
5.4337495519
 20
-28.0989187023
  0
LINE
  5
399
100
AcDbEntity
  8
0
100
AcDbLine
 62
7
  6
CONTINUOUS
 10
2.682466
 20
-28.877801
 11
2.531074
 21
-28.318881
  0
LINE
  5
39A
100
AcDbEntity
  8
ASSI
100
AcDbLine
 62
7
  6
CONTINUOUS
 10
2.682466
 20
-28.877801
 11
2.531074
 21
-28.318881
  0
LINE
  5
39B
100
AcDbEntity
  8
0
100
AcDbLine
 62
7
  6
CONTINUOUS
 10
5.4337495519
 20
-28.0989187023
 11
5.5089493546
 21
-28.3809296672
  0
LINE
  5
39C
100
AcDbEntity
  8
ASSI
100
AcDbLine
 62
7
  6
CONTINUOUS
 10
5.4337495519
 20
-28.0989187023
 11
5.5089493546
 21
-28.3809296672
  0
LINE
  5
39D
100
AcDbEntity
  8
0
100
AcDbLine
 62
7
  6
CONTINUOUS
 10
5.5089493546
 20
-28.3809296672
 11
5.6391482119
 21
-28.8778013544
  0
LINE
  5
39E
100
AcDbEntity
  8
ASSI
100
AcDbLine
 62
7
  6
CONTINUOUS
 10
5.5089493546
 20
-28.3809296672
 11
5.6391482119
 21
-28.8778013544
  0
LINE
  5
39F
100
AcDbEntity
  8
0
100
AcDbLine
 62
7
  6
CONTINUOUS
 10
2.41428
 20
-27.886391
 11
2.145737
 21
-26.847385
  0
LINE
  5
3A0
100
AcDbEntity
  8
ASSI
100
AcDbLine
 62
7
  6
CONTINUOUS
 10
2.41428
 20
-27.886391
 11
2.145737
 21
-26.847385
  0
LINE
  5
3A1
100
AcDbEntity
  8
0
100
AcDbLine
 62
250
  6
CONTINUOUS
 10
-7.653134
 20
28.222611
 11
-7.610473
 21
28.044042
  0
LINE
  5
3A2
100
AcDbEntity
  8
0
100
AcDbLine
 62
250
  6
CONTINUOUS
 10
-7.303434
 20
28.222611
 11
-7.260773
 21
28.044042
  0
LWPOLYLINE
  5
3A3
100
AcDbEntity
  8
0
100
AcDbPolyline
 62
7
  6
CONTINUOUS
 90
19
 70
0
 10
4.9506521441
 20
-26.8887857336
 10
4.9491853585
 20
-26.8617065256
 10
4.9455687136
 20
-26.8347794202
 10
4.9398022094
 20
-26.8080044237
 10
4.9319440224
 20
-26.7812150231
 10
4.921935976
 20
-26.7545777399
 10
4.9096035409
 20
-26.7285921502
 10
4.894818864
 20
-26.7030715526
 10
4.8777097982
 20
-26.6782026907
 10
4.8584853734
 20
-26.6550453595
 10
4.8369200757
 20
-26.6338011652
 10
4.8132394188
 20
-26.614268608
 10
4.7883289744
 20
-26.596902865
 10
4.7622727654
 20
-26.5818761394
 10
4.7349867688
 20
-26.5690163241
 10
4.7071044868
 20
-26.5582621328
 10
4.6788370867
 20
-26.549593154
 10
4.6499734011
 20
-26.5430298533
 10
4.62051343
 20
-26.5385722489
  0
LWPOLYLINE
  5
3A4
100
AcDbEntity
  8
ASSI
100
AcDbPolyline
 62
7
  6
CONTINUOUS
 90
19
 70
0
 10
4.9506521441
 20
-26.8887857336
 10
4.9491853585
 20
-26.8617065256
 10
4.9455687136
 20
-26.8347794202
 10
4.9398022094
 20
-26.8080044237
 10
4.9319440224
 20
-26.7812150231
 10
4.921935976
 20
-26.7545777399
 10
4.9096035409
 20
-26.7285921502
 10
4.894818864
 20
-26.7030715526
 10
4.8777097982
 20
-26.6782026907
 10
4.8584853734
 20
-26.6550453595
 10
4.8369200757
 20
-26.6338011652
 10
4.8132394188
 20
-26.614268608
 10
4.7883289744
 20
-26.596902865
 10
4.7622727654
 20
-26.5818761394
 10
4.7349867688
 20
-26.5690163241
 10
4.7071044868
 20
-26.5582621328
 10
4.6788370867
 20
-26.549593154
 10
4.6499734011
 20
-26.5430298533
 10
4.62051343
 20
-26.5385722489
  0
LINE
  5
3A5
100
AcDbEntity
  8
0
100
AcDbLine
 62
7
  6
CONTINUOUS
 10
3.6000188023
 20
-28.8778013544
 11
3.6000188023
 21
-26.110807341
  0
LINE
  5
3A6
100
AcDbEntity
  8
ASSI
100
AcDbLine
 62
7
  6
CONTINUOUS
 10
3.6000188023
 20
-28.8778013544
 11
3.6000188023
 21
-26.110807341
  0
LINE
  5
3A7
100
AcDbEntity
  8
0
100
AcDbLine
 62
7
  6
CONTINUOUS
 10
4.1626972541
 20
-27.3236280866
 11
4.1626972541
 21
-26.5550547959
  0
LINE
  5
3A8
100
AcDbEntity
  8
ASSI
100
AcDbLine
 62
7
  6
CONTINUOUS
 10
4.1626972541
 20
-27.3236280866
 11
4.1626972541
 21
-26.5550547959
  0
LINE
  5
3A9
100
AcDbEntity
  8
0
100
AcDbLine
 62
7
  6
CONTINUOUS
 10
4.1820753449
 20
-28.8778013544
 11
4.1820753449
 21
-27.7821519248
  0
LINE
  5
3AA
100
AcDbEntity
  8
ASSI
100
AcDbLine
 62
7
  6
CONTINUOUS
 10
4.1820753449
 20
-28.8778013544
 11
4.1820753449
 21
-27.7821519248
  0
LINE
  5
3AB
100
AcDbEntity
  8
0
100
AcDbLine
 62
7
  6
CONTINUOUS
 10
5.1025031649
 20
-27.5709244369
 11
5.1025031649
 21
-27.554380628
  0
LINE
  5
3AC
100
AcDbEntity
  8
ASSI
100
AcDbLine
 62
7
  6
CONTINUOUS
 10
5.1025031649
 20
-27.5709244369
 11
5.1025031649
 21
-27.554380628
  0
LINE
  5
3AD
100
AcDbEntity
  8
0
100
AcDbLine
 62
7
  6
CONTINUOUS
 10
-4.465146
 20
-28.00522
 11
-3.915169
 21
-26.078098
  0
LINE
  5
3AE
100
AcDbEntity
  8
ASSI
100
AcDbLine
 62
7
  6
CONTINUOUS
 10
-4.465146
 20
-28.00522
 11
-3.915169
 21
-26.078098
  0
LINE
  5
3AF
100
AcDbEntity
  8
0
100
AcDbLine
 62
7
  6
CONTINUOUS
 10
-4.231097
 20
-28.877801
 11
-3.33116
 21
-26.078098
  0
LINE
  5
3B0
100
AcDbEntity
  8
ASSI
100
AcDbLine
 62
7
  6
CONTINUOUS
 10
-4.231097
 20
-28.877801
 11
-3.33116
 21
-26.078098
  0
LWPOLYLINE
  5
3B1
100
AcDbEntity
  8
RACCORDO
100
AcDbPolyline
 62
250
  6
CONTINUOUS
 90
12
 70
0
 10
33.9975271439
 20
22.4909531247
 10
33.9706626907
 20
22.4686674018
 10
33.9455801744
 20
22.4476343779
 10
33.9224603337
 20
22.4280056119
 10
33.9014697646
 20
22.4099225439
 10
33.8827597199
 20
22.3935154762
 10
33.86646502
 20
22.378902634
 10
33.8527030804
 20
22.366189314
 10
33.8415730664
 20
22.3554671254
 10
33.8331551782
 20
22.3468133296
 10
33.8275100732
 20
22.3402902837
 10
33.8246784285
 20
22.3359449913
  0
LWPOLYLINE
  5
3B2
100
AcDbEntity
  8
ASSI
100
AcDbPolyline
 62
250
  6
CONTINUOUS
 90
12
 70
0
 10
33.9975271439
 20
22.4909531247
 10
33.9706626907
 20
22.4686674018
 10
33.9455801744
 20
22.4476343779
 10
33.9224603337
 20
22.4280056119
 10
33.9014697646
 20
22.4099225439
 10
33.8827597199
 20
22.3935154762
 10
33.86646502
 20
22.378902634
 10
33.8527030804
 20
22.366189314
 10
33.8415730664
 20
22.3554671254
 10
33.8331551782
 20
22.3468133296
 10
33.8275100732
 20
22.3402902837
 10
33.8246784285
 20
22.3359449913
  0
LINE
  5
3B3
100
AcDbEntity
  8
RACCORDO
100
AcDbLine
 62
250
  6
CONTINUOUS
 10
34.0558161004
 20
22.5386324556
 11
33.9975271439
 21
22.4909531247
  0
LINE
  5
3B4
100
AcDbEntity
  8
ASSI
100
AcDbLine
 62
250
  6
CONTINUOUS
 10
34.0558161004
 20
22.5386324556
 11
33.9975271439
 21
22.4909531247
  0
LINE
  5
3B5
100
AcDbEntity
  8
RACCORDO
100
AcDbLine
 62
250
  6
CONTINUOUS
 10
34.1187700057
 20
22.5893005832
 11
34.0558161004
 21
22.5386324556
  0
LINE
  5
3B6
100
AcDbEntity
  8
ASSI
100
AcDbLine
 62
250
  6
CONTINUOUS
 10
34.1187700057
 20
22.5893005832
 11
34.0558161004
 21
22.5386324556
  0
LWPOLYLINE
  5
3B7
100
AcDbEntity
  8
RACCORDO
100
AcDbPolyline
 62
250
  6
CONTINUOUS
 90
3
 70
0
 10
34.2179615935
 20
22.6677046554
 10
34.1845776055
 20
22.6414997293
 10
34.1187700057
 20
22.5893005832
  0
LWPOLYLINE
  5
3B8
100
AcDbEntity
  8
ASSI
100
AcDbPolyline
 62
250
  6
CONTINUOUS
 90
3
 70
0
 10
34.2179615935
 20
22.6677046554
 10
34.1845776055
 20
22.6414997293
 10
34.1187700057
 20
22.5893005832
  0
LINE
  5
3B9
100
AcDbEntity
  8
RACCORDO
100
AcDbLine
 62
250
  6
CONTINUOUS
 10
34.2179615937
 20
-22.6677046126
 11
34.1514340853
 21
-22.6153020317
  0
LINE
  5
3BA
100
AcDbEntity
  8
ASSI
100
AcDbLine
 62
250
  6
CONTINUOUS
 10
34.2179615937
 20
-22.6677046126
 11
34.1514340853
 21
-22.6153020317
  0
LINE
  5
3BB
100
AcDbEntity
  8
RACCORDO
100
AcDbLine
 62
250
  6
CONTINUOUS
 10
34.1514340853
 20
-22.6153020317
 11
34.0868204632
 21
-22.5636823587
  0
LINE
  5
3BC
100
AcDbEntity
  8
ASSI
100
AcDbLine
 62
250
  6
CONTINUOUS
 10
34.1514340853
 20
-22.6153020317
 11
34.0868204632
 21
-22.5636823587
  0
LWPOLYLINE
  5
3BD
100
AcDbEntity
  8
RACCORDO
100
AcDbPolyline
 62
250
  6
CONTINUOUS
 90
14
 70
0
 10
34.0868204632
 20
-22.5636823587
 10
34.0259797398
 20
-22.5143307538
 10
33.9975268797
 20
-22.4909528815
 10
33.9706623767
 20
-22.4686671222
 10
33.9455798109
 20
-22.4476340624
 10
33.9224599217
 20
-22.4280052615
 10
33.9014693062
 20
-22.4099221605
 10
33.8827592182
 20
-22.3935150623
 10
33.8664644786
 20
-22.3789021927
 10
33.8527025038
 20
-22.3661888489
 10
33.8415724596
 20
-22.3554666405
 10
33.8331545469
 20
-22.3468128293
 10
33.8275094232
 20
-22.3402897727
 10
33.8246777662
 20
-22.3359444745
  0
LWPOLYLINE
  5
3BE
100
AcDbEntity
  8
ASSI
100
AcDbPolyline
 62
250
  6
CONTINUOUS
 90
14
 70
0
 10
34.0868204632
 20
-22.5636823587
 10
34.0259797398
 20
-22.5143307538
 10
33.9975268797
 20
-22.4909528815
 10
33.9706623767
 20
-22.4686671222
 10
33.9455798109
 20
-22.4476340624
 10
33.9224599217
 20
-22.4280052615
 10
33.9014693062
 20
-22.4099221605
 10
33.8827592182
 20
-22.3935150623
 10
33.8664644786
 20
-22.3789021927
 10
33.8527025038
 20
-22.3661888489
 10
33.8415724596
 20
-22.3554666405
 10
33.8331545469
 20
-22.3468128293
 10
33.8275094232
 20
-22.3402897727
 10
33.8246777662
 20
-22.3359444745
  0
LINE
  5
3BF
100
AcDbEntity
  8
0
100
AcDbLine
 62
250
  6
CONTINUOUS
 10
-21.16764
 20
26.972622
 11
-21.273791
 21
27.091668
  0
LINE
  5
3C0
100
AcDbEntity
  8
0
100
AcDbLine
 62
250
  6
CONTINUOUS
 10
-21.169639
 20
28.282135
 11
-21.063488
 21
28.163088
  0
LINE
  5
3C1
100
AcDbEntity
  8
0
100
AcDbLine
 62
250
  6
CONTINUOUS
 10
-17.378229
 20
26.317865
 11
-17.165927
 21
26.079772
  0
LINE
  5
3C2
100
AcDbEntity
  8
0
100
AcDbLine
 62
250
  6
CONTINUOUS
 10
-3.776403
 20
25.901202
 11
-4.464178
 21
28.698798
  0
LINE
  5
3C3
100
AcDbEntity
  8
0
100
AcDbLine
 62
250
  6
CONTINUOUS
 10
-4.296745
 20
26.615482
 11
-4.126103
 21
25.901202
  0
LINE
  5
3C4
100
AcDbEntity
  8
0
100
AcDbLine
 62
250
  6
CONTINUOUS
 10
-4.334197
 20
26.853575
 11
-4.71814
 21
28.460705
  0
LINE
  5
3C5
100
AcDbEntity
  8
0
100
AcDbLine
 62
7
  6
CONTINUOUS
 10
1.854751
 20
-27.886391
 11
2.145737
 21
-26.847385
  0
LINE
  5
3C6
100
AcDbEntity
  8
ASSI
100
AcDbLine
 62
7
  6
CONTINUOUS
 10
1.854751
 20
-27.886391
 11
2.145737
 21
-26.847385
  0
LINE
  5
3C7
100
AcDbEntity
  8
0
100
AcDbLine
 62
7
  6
CONTINUOUS
 10
1.573947
 20
-28.877801
 11
1.735207
 21
-28.318881
  0
LINE
  5
3C8
100
AcDbEntity
  8
ASSI
100
AcDbLine
 62
7
  6
CONTINUOUS
 10
1.573947
 20
-28.877801
 11
1.735207
 21
-28.318881
  0
LINE
  5
3C9
100
AcDbEntity
  8
0
100
AcDbLine
 62
7
  6
CONTINUOUS
 10
0.99588
 20
-28.877801
 11
1.874045
 21
-26.078098
  0
LINE
  5
3CA
100
AcDbEntity
  8
ASSI
100
AcDbLine
 62
7
  6
CONTINUOUS
 10
0.99588
 20
-28.877801
 11
1.874045
 21
-26.078098
  0
LINE
  5
3CB
100
AcDbEntity
  8
0
100
AcDbLine
 62
7
  6
CONTINUOUS
 10
-0.730314
 20
-27.632502
 11
-0.145906
 21
-26.078098
  0
LINE
  5
3CC
100
AcDbEntity
  8
ASSI
100
AcDbLine
 62
7
  6
CONTINUOUS
 10
-0.730314
 20
-27.632502
 11
-0.145906
 21
-26.078098
  0
LINE
  5
3CD
100
AcDbEntity
  8
0
100
AcDbLine
 62
7
  6
CONTINUOUS
 10
-0.692524
 20
-28.877801
 11
0.002337
 21
-27.057269
  0
LINE
  5
3CE
100
AcDbEntity
  8
ASSI
100
AcDbLine
 62
7
  6
CONTINUOUS
 10
-0.692524
 20
-28.877801
 11
0.002337
 21
-27.057269
  0
LINE
  5
3CF
100
AcDbEntity
  8
0
100
AcDbLine
 62
250
  6
CONTINUOUS
 10
33.1926540141
 20
22.6415492726
 11
33.0510963722
 21
22.5
  0
LINE
  5
3D0
100
AcDbEntity
  8
ASSI
100
AcDbLine
 62
250
  6
CONTINUOUS
 10
33.1926540141
 20
22.6415492726
 11
33.0510963722
 21
22.5
  0
LINE
  5
3D1
100
AcDbEntity
  8
0
100
AcDbLine
 62
250
  6
CONTINUOUS
 10
33.9949737296
 20
21.8461028089
 11
33.85
 21
21.7010963722
  0
LINE
  5
3D2
100
AcDbEntity
  8
ASSI
100
AcDbLine
 62
250
  6
CONTINUOUS
 10
33.9949737296
 20
21.8461028089
 11
33.85
 21
21.7010963722
  0
LINE
  5
3D3
100
AcDbEntity
  8
RACCORDO
100
AcDbLine
 62
250
  6
CONTINUOUS
 10
59.8781758769
 20
44.8768054117
 11
60.0013704652
 21
45.0
  0
LINE
  5
3D4
100
AcDbEntity
  8
ASSI
100
AcDbLine
 62
250
  6
CONTINUOUS
 10
59.8781758769
 20
44.8768054117
 11
60.0013704652
 21
45.0
  0
LINE
  5
3D5
100
AcDbEntity
  8
RACCORDO
100
AcDbLine
 62
250
  6
CONTINUOUS
 10
60.8700585586
 20
43.8714290238
 11
61.0
 21
44.0013704652
  0
LINE
  5
3D6
100
AcDbEntity
  8
ASSI
100
AcDbLine
 62
250
  6
CONTINUOUS
 10
60.8700585586
 20
43.8714290238
 11
61.0
 21
44.0013704652
  0
LINE
  5
3D7
100
AcDbEntity
  8
0
100
AcDbLine
 62
250
  6
CONTINUOUS
 10
-16.85368
 20
26.317865
 11
-17.018115
 21
26.436912
  0
LINE
  5
3D8
100
AcDbEntity
  8
0
100
AcDbLine
 62
250
  6
CONTINUOUS
 10
-20.8626
 20
28.460705
 11
-21.08011
 21
28.639275
  0
LINE
  5
3D9
100
AcDbEntity
  8
0
100
AcDbLine
 62
250
  6
CONTINUOUS
 10
33.1926840308
 20
-22.6415492726
 11
33.0510963722
 21
-22.5
  0
LINE
  5
3DA
100
AcDbEntity
  8
ASSI
100
AcDbLine
 62
250
  6
CONTINUOUS
 10
33.1926840308
 20
-22.6415492726
 11
33.0510963722
 21
-22.5
  0
LINE
  5
3DB
100
AcDbEntity
  8
0
100
AcDbLine
 62
250
  6
CONTINUOUS
 10
33.9949737709
 20
-21.8460811902
 11
33.85
 21
-21.7010963722
  0
LINE
  5
3DC
100
AcDbEntity
  8
ASSI
100
AcDbLine
 62
250
  6
CONTINUOUS
 10
33.9949737709
 20
-21.8460811902
 11
33.85
 21
-21.7010963722
  0
LINE
  5
3DD
100
AcDbEntity
  8
RACCORDO
100
AcDbLine
 62
250
  6
CONTINUOUS
 10
59.8781758769
 20
-44.8768054117
 11
60.0013704652
 21
-45.0
  0
LINE
  5
3DE
100
AcDbEntity
  8
ASSI
100
AcDbLine
 62
250
  6
CONTINUOUS
 10
59.8781758769
 20
-44.8768054117
 11
60.0013704652
 21
-45.0
  0
LINE
  5
3DF
100
AcDbEntity
  8
RACCORDO
100
AcDbLine
 62
250
  6
CONTINUOUS
 10
60.8700585586
 20
-43.8714290238
 11
61.0
 21
-44.0013704652
  0
LINE
  5
3E0
100
AcDbEntity
  8
ASSI
100
AcDbLine
 62
250
  6
CONTINUOUS
 10
60.8700585586
 20
-43.8714290238
 11
61.0
 21
-44.0013704652
  0
LINE
  5
3E1
100
AcDbEntity
  8
0
100
AcDbLine
 62
250
  6
CONTINUOUS
 10
-15.166464
 20
28.282135
 11
-15.378767
 21
28.520228
  0
LINE
  5
3E2
100
AcDbEntity
  8
0
100
AcDbLine
 62
250
  6
CONTINUOUS
 10
-7.759285
 20
28.341658
 11
-7.653134
 21
28.222611
  0
LINE
  5
3E3
100
AcDbEntity
  8
0
100
AcDbLine
 62
250
  6
CONTINUOUS
 10
-7.457454
 20
28.460705
 11
-7.303434
 21
28.222611
  0
LINE
  5
3E4
100
AcDbEntity
  8
0
100
AcDbLine
 62
250
  6
CONTINUOUS
 10
-21.273791
 20
27.091668
 11
-21.443433
 21
27.151192
  0
LINE
  5
3E5
100
AcDbEntity
  8
0
100
AcDbLine
 62
250
  6
CONTINUOUS
 10
-21.339281
 20
28.341658
 11
-21.169639
 21
28.282135
  0
LINE
  5
3E6
100
AcDbEntity
  8
0
100
AcDbLine
 62
250
  6
CONTINUOUS
 10
-20.966752
 20
27.270238
 11
-21.078111
 21
27.329762
  0
LINE
  5
3E7
100
AcDbEntity
  8
0
100
AcDbLine
 62
250
  6
CONTINUOUS
 10
-17.165927
 20
26.079772
 11
-16.943209
 21
25.960725
  0
LINE
  5
3E8
100
AcDbEntity
  8
0
100
AcDbLine
 62
250
  6
CONTINUOUS
 10
-15.378767
 20
28.520228
 11
-15.601485
 21
28.639275
  0
LINE
  5
3E9
100
AcDbEntity
  8
0
100
AcDbLine
 62
250
  6
CONTINUOUS
 10
-15.691013
 20
28.282135
 11
-15.526579
 21
28.163088
  0
LINE
  5
3EA
100
AcDbEntity
  8
0
100
AcDbLine
 62
250
  6
CONTINUOUS
 10
-7.674963
 20
28.639275
 11
-7.457454
 21
28.460705
  0
LWPOLYLINE
  5
3EB
100
AcDbEntity
  8
0
100
AcDbPolyline
 62
7
  6
CONTINUOUS
 90
10
 70
0
 10
5.2236098012
 20
-27.4773311362
 10
5.1994216065
 20
-27.4980626823
 10
5.1877562458
 20
-27.5078217475
 10
5.1761359803
 20
-27.5170060414
 10
5.1646542369
 20
-27.5257687709
 10
5.1532175888
 20
-27.5339567424
 10
5.1413334193
 20
-27.5409717263
 10
5.1288375226
 20
-27.5466143228
 10
5.1158941045
 20
-27.5510839543
 10
5.1025031649
 20
-27.554380628
  0
LWPOLYLINE
  5
3EC
100
AcDbEntity
  8
ASSI
100
AcDbPolyline
 62
7
  6
CONTINUOUS
 90
10
 70
0
 10
5.2236098012
 20
-27.4773311362
 10
5.1994216065
 20
-27.4980626823
 10
5.1877562458
 20
-27.5078217475
 10
5.1761359803
 20
-27.5170060414
 10
5.1646542369
 20
-27.5257687709
 10
5.1532175888
 20
-27.5339567424
 10
5.1413334193
 20
-27.5409717263
 10
5.1288375226
 20
-27.5466143228
 10
5.1158941045
 20
-27.5510839543
 10
5.1025031649
 20
-27.554380628
  0
LWPOLYLINE
  5
3ED
100
AcDbEntity
  8
RACCORDO
100
AcDbPolyline
 62
250
  6
CONTINUOUS
 90
16
 70
0
 10
34.369093969
 20
21.8692779856
 10
34.3287508969
 20
21.8685789918
 10
34.2895852216
 20
21.8677199025
 10
34.2518755116
 20
21.8667068282
 10
34.2158899793
 20
21.8655469743
 10
34.1818845742
 20
21.8642485904
 10
34.1501011618
 20
21.8628209112
 10
34.1207658036
 20
21.8612740914
 10
34.094087149
 20
21.8596191327
 10
34.0702549518
 20
21.8578678061
 10
34.0494387199
 20
21.856032568
 10
34.03178651
 20
21.8541264717
 10
34.0174238746
 20
21.8521630745
 10
34.0064529687
 20
21.850156341
 10
33.9989518238
 20
21.8481205443
 10
33.994973792
 20
21.8460701642
  0
LWPOLYLINE
  5
3EE
100
AcDbEntity
  8
ASSI
100
AcDbPolyline
 62
250
  6
CONTINUOUS
 90
16
 70
0
 10
34.369093969
 20
21.8692779856
 10
34.3287508969
 20
21.8685789918
 10
34.2895852216
 20
21.8677199025
 10
34.2518755116
 20
21.8667068282
 10
34.2158899793
 20
21.8655469743
 10
34.1818845742
 20
21.8642485904
 10
34.1501011618
 20
21.8628209112
 10
34.1207658036
 20
21.8612740914
 10
34.094087149
 20
21.8596191327
 10
34.0702549518
 20
21.8578678061
 10
34.0494387199
 20
21.856032568
 10
34.03178651
 20
21.8541264717
 10
34.0174238746
 20
21.8521630745
 10
34.0064529687
 20
21.850156341
 10
33.9989518238
 20
21.8481205443
 10
33.994973792
 20
21.8460701642
  0
LWPOLYLINE
  5
3EF
100
AcDbEntity
  8
RACCORDO
100
AcDbPolyline
 62
250
  6
CONTINUOUS
 90
17
 70
0
 10
-60.4931469952
 20
22.667357485
 10
-60.5178871764
 20
22.6670254536
 10
-60.5420930804
 20
22.6665907705
 10
-60.5655925401
 20
22.6660565274
 10
-60.5882184131
 20
22.6654265242
 10
-60.6098097706
 20
22.6647052419
 10
-60.6302130418
 20
22.6638978107
 10
-60.6492831063
 20
22.6630099734
 10
-60.6668843261
 20
22.6620480449
 10
-60.6828915109
 20
22.6610188671
 10
-60.6971908078
 20
22.65992976
 10
-60.7096805115
 20
22.6587884702
 10
-60.7202717878
 20
22.657603115
 10
-60.7288893051
 20
22.6563821255
 10
-60.7354717704
 20
22.6551341861
 10
-60.7399723652
 20
22.6538681728
 10
-60.7423590785
 20
22.6525930904
  0
LWPOLYLINE
  5
3F0
100
AcDbEntity
  8
ASSI
100
AcDbPolyline
 62
250
  6
CONTINUOUS
 90
17
 70
0
 10
-60.4931469952
 20
22.667357485
 10
-60.5178871764
 20
22.6670254536
 10
-60.5420930804
 20
22.6665907705
 10
-60.5655925401
 20
22.6660565274
 10
-60.5882184131
 20
22.6654265242
 10
-60.6098097706
 20
22.6647052419
 10
-60.6302130418
 20
22.6638978107
 10
-60.6492831063
 20
22.6630099734
 10
-60.6668843261
 20
22.6620480449
 10
-60.6828915109
 20
22.6610188671
 10
-60.6971908078
 20
22.65992976
 10
-60.7096805115
 20
22.6587884702
 10
-60.7202717878
 20
22.657603115
 10
-60.7288893051
 20
22.6563821255
 10
-60.7354717704
 20
22.6551341861
 10
-60.7399723652
 20
22.6538681728
 10
-60.7423590785
 20
22.6525930904
  0
LINE
  5
3F1
100
AcDbEntity
  8
RACCORDO
100
AcDbLine
 62
250
  6
CONTINUOUS
 10
-60.4427702181
 20
22.6677048931
 11
-60.4931469952
 21
22.667357485
  0
LINE
  5
3F2
100
AcDbEntity
  8
ASSI
100
AcDbLine
 62
250
  6
CONTINUOUS
 10
-60.4427702181
 20
22.6677048931
 11
-60.4931469952
 21
22.667357485
  0
LWPOLYLINE
  5
3F3
100
AcDbEntity
  8
RACCORDO
100
AcDbPolyline
 62
250
  6
CONTINUOUS
 90
3
 70
0
 10
34.4942885593
 20
21.8703705753
 10
34.4521581999
 20
21.8701769744
 10
34.369093969
 20
21.8692779856
  0
LWPOLYLINE
  5
3F4
100
AcDbEntity
  8
ASSI
100
AcDbPolyline
 62
250
  6
CONTINUOUS
 90
3
 70
0
 10
34.4942885593
 20
21.8703705753
 10
34.4521581999
 20
21.8701769744
 10
34.369093969
 20
21.8692779856
  0
LINE
  5
3F5
100
AcDbEntity
  8
0
100
AcDbLine
 62
7
  6
CONTINUOUS
 10
33.0510963722
 20
22.5
 11
-33.0510963722
 21
22.5
  0
LINE
  5
3F6
100
AcDbEntity
  8
ASSI
100
AcDbLine
 62
7
  6
CONTINUOUS
 10
33.0510963722
 20
22.5
 11
-33.0510963722
 21
22.5
  0
LINE
  5
3F7
100
AcDbEntity
  8
RACCORDO
100
AcDbLine
 62
250
  6
CONTINUOUS
 10
-33.1926840308
 20
22.6415492726
 11
33.1926540141
 21
22.6415492726
  0
LINE
  5
3F8
100
AcDbEntity
  8
ASSI
100
AcDbLine
 62
250
  6
CONTINUOUS
 10
-33.1926840308
 20
22.6415492726
 11
33.1926540141
 21
22.6415492726
  0
LINE
  5
3F9
100
AcDbEntity
  8
RACCORDO
100
AcDbLine
 62
250
  6
CONTINUOUS
 10
-60.4427701042
 20
22.6676474049
 11
-34.2179615936
 21
22.6677048937
  0
LINE
  5
3FA
100
AcDbEntity
  8
ASSI
100
AcDbLine
 62
250
  6
CONTINUOUS
 10
-60.4427701042
 20
22.6676474049
 11
-34.2179615936
 21
22.6677048937
  0
LINE
  5
3FB
100
AcDbEntity
  8
RACCORDO
100
AcDbLine
 62
250
  6
CONTINUOUS
 10
34.2179615936
 20
22.6677048937
 11
60.4427701039
 21
22.667647257
  0
LINE
  5
3FC
100
AcDbEntity
  8
ASSI
100
AcDbLine
 62
250
  6
CONTINUOUS
 10
34.2179615936
 20
22.6677048937
 11
60.4427701039
 21
22.667647257
  0
LINE
  5
3FD
100
AcDbEntity
  8
RACCORDO
100
AcDbLine
 62
250
  6
CONTINUOUS
 10
-33.1926456448
 20
23.1675430277
 11
33.1926456448
 21
23.1675430277
  0
LINE
  5
3FE
100
AcDbEntity
  8
ASSI
100
AcDbLine
 62
250
  6
CONTINUOUS
 10
-33.1926456448
 20
23.1675430277
 11
33.1926456448
 21
23.1675430277
  0
LINE
  5
3FF
100
AcDbEntity
  8
0
100
AcDbLine
 62
250
  6
CONTINUOUS
 10
-35.34927
 20
25.301717
 11
-33.65073
 21
25.301717
  0
LINE
  5
400
100
AcDbEntity
  8
0
100
AcDbLine
 62
250
  6
CONTINUOUS
 10
-35.249356
 20
25.401631
 11
-33.750644
 21
25.401631
  0
LINE
  5
401
100
AcDbEntity
  8
0
100
AcDbLine
 62
250
  6
CONTINUOUS
 10
-35.149442
 20
25.501546
 11
-33.850558
 21
25.501546
  0
LINE
  5
402
100
AcDbEntity
  8
0
100
AcDbLine
 62
250
  6
CONTINUOUS
 10
-23.009874
 20
25.901202
 11
-21.611076
 21
25.901202
  0
LINE
  5
403
100
AcDbEntity
  8
0
100
AcDbLine
 62
250
  6
CONTINUOUS
 10
-20.387128
 20
25.901202
 11
-20.037429
 21
25.901202
  0
LINE
  5
404
100
AcDbEntity
  8
0
100
AcDbLine
 62
250
  6
CONTINUOUS
 10
-18.405498
 20
25.901202
 11
-18.055798
 21
25.901202
  0
LINE
  5
405
100
AcDbEntity
  8
0
100
AcDbLine
 62
250
  6
CONTINUOUS
 10
-16.657001
 20
25.901202
 11
-16.132451
 21
25.901202
  0
LINE
  5
406
100
AcDbEntity
  8
0
100
AcDbLine
 62
250
  6
CONTINUOUS
 10
-13.917688
 20
25.901202
 11
-13.567988
 21
25.901202
  0
LINE
  5
407
100
AcDbEntity
  8
0
100
AcDbLine
 62
250
  6
CONTINUOUS
 10
-12.169191
 20
25.901202
 11
-10.070994
 21
25.901202
  0
LINE
  5
408
100
AcDbEntity
  8
0
100
AcDbLine
 62
250
  6
CONTINUOUS
 10
-6.923698
 20
25.901202
 11
-6.573999
 21
25.901202
  0
LINE
  5
409
100
AcDbEntity
  8
0
100
AcDbLine
 62
250
  6
CONTINUOUS
 10
-6.107733
 20
25.901202
 11
-5.758034
 21
25.901202
  0
LINE
  5
40A
100
AcDbEntity
  8
0
100
AcDbLine
 62
250
  6
CONTINUOUS
 10
-4.126103
 20
25.901202
 11
-3.776403
 21
25.901202
  0
LINE
  5
40B
100
AcDbEntity
  8
0
100
AcDbLine
 62
250
  6
CONTINUOUS
 10
-3.310138
 20
25.901202
 11
-1.211941
 21
25.901202
  0
LINE
  5
40C
100
AcDbEntity
  8
0
100
AcDbLine
 62
250
  6
CONTINUOUS
 10
-7.389964
 20
25.901202
 11
-7.797947
 21
25.901202
  0
LINE
  5
40D
100
AcDbEntity
  8
0
100
AcDbLine
 62
250
  6
CONTINUOUS
 10
-9.255029
 20
25.901202
 11
-9.604728
 21
25.901202
  0
LWPOLYLINE
  5
40E
100
AcDbEntity
  8
RACCORDO
100
AcDbPolyline
 62
250
  6
CONTINUOUS
 90
18
 70
0
 10
-34.4942885593
 20
21.8703704037
 10
-34.4103272194
 20
21.869811781
 10
-34.3690935132
 20
21.8692778725
 10
-34.3287502401
 20
21.8685788954
 10
-34.2895843477
 20
21.8677198214
 10
-34.2518744094
 20
21.8667067608
 10
-34.2158886428
 20
21.8655469191
 10
-34.1818830023
 20
21.8642485459
 10
-34.1500993581
 20
21.8628208761
 10
-34.1207637762
 20
21.8612740642
 10
-34.0940849105
 20
21.8596191121
 10
-34.0702525184
 20
21.8578677909
 10
-34.0494361115
 20
21.8560325572
 10
-34.0317837497
 20
21.8541264643
 10
-34.017420988
 20
21.8521630697
 10
-34.0064499838
 20
21.8501563382
 10
-33.99894877
 20
21.8481205431
 10
-33.9949707002
 20
21.8460701642
  0
LWPOLYLINE
  5
40F
100
AcDbEntity
  8
ASSI
100
AcDbPolyline
 62
250
  6
CONTINUOUS
 90
18
 70
0
 10
-34.4942885593
 20
21.8703704037
 10
-34.4103272194
 20
21.869811781
 10
-34.3690935132
 20
21.8692778725
 10
-34.3287502401
 20
21.8685788954
 10
-34.2895843477
 20
21.8677198214
 10
-34.2518744094
 20
21.8667067608
 10
-34.2158886428
 20
21.8655469191
 10
-34.1818830023
 20
21.8642485459
 10
-34.1500993581
 20
21.8628208761
 10
-34.1207637762
 20
21.8612740642
 10
-34.0940849105
 20
21.8596191121
 10
-34.0702525184
 20
21.8578677909
 10
-34.0494361115
 20
21.8560325572
 10
-34.0317837497
 20
21.8541264643
 10
-34.017420988
 20
21.8521630697
 10
-34.0064499838
 20
21.8501563382
 10
-33.99894877
 20
21.8481205431
 10
-33.9949707002
 20
21.8460701642
  0
LWPOLYLINE
  5
410
100
AcDbEntity
  8
RACCORDO
100
AcDbPolyline
 62
250
  6
CONTINUOUS
 90
18
 70
0
 10
60.4427702181
 20
22.6677048929
 10
60.4931469947
 20
22.6673574847
 10
60.5178871757
 20
22.6670254534
 10
60.5420930795
 20
22.6665907703
 10
60.565592539
 20
22.6660565272
 10
60.5882184119
 20
22.6654265241
 10
60.6098097693
 20
22.6647052418
 10
60.6302130404
 20
22.6638978105
 10
60.6492831048
 20
22.6630099732
 10
60.6668843246
 20
22.6620480448
 10
60.6828915094
 20
22.661018867
 10
60.6971908064
 20
22.65992976
 10
60.7096805103
 20
22.6587884701
 10
60.7202717867
 20
22.6576031149
 10
60.7288893042
 20
22.6563821254
 10
60.7354717697
 20
22.655134186
 10
60.7399723648
 20
22.6538681728
 10
60.7423590785
 20
22.6525930904
  0
LWPOLYLINE
  5
411
100
AcDbEntity
  8
ASSI
100
AcDbPolyline
 62
250
  6
CONTINUOUS
 90
18
 70
0
 10
60.4427702181
 20
22.6677048929
 10
60.4931469947
 20
22.6673574847
 10
60.5178871757
 20
22.6670254534
 10
60.5420930795
 20
22.6665907703
 10
60.565592539
 20
22.6660565272
 10
60.5882184119
 20
22.6654265241
 10
60.6098097693
 20
22.6647052418
 10
60.6302130404
 20
22.6638978105
 10
60.6492831048
 20
22.6630099732
 10
60.6668843246
 20
22.6620480448
 10
60.6828915094
 20
22.661018867
 10
60.6971908064
 20
22.65992976
 10
60.7096805103
 20
22.6587884701
 10
60.7202717867
 20
22.6576031149
 10
60.7288893042
 20
22.6563821254
 10
60.7354717697
 20
22.655134186
 10
60.7399723648
 20
22.6538681728
 10
60.7423590785
 20
22.6525930904
  0
LWPOLYLINE
  5
412
100
AcDbEntity
  8
RACCORDO
100
AcDbPolyline
 62
250
  6
CONTINUOUS
 90
31
 70
0
 10
33.1926540284
 20
22.6415492868
 10
33.2185715426
 20
22.6411766217
 10
33.2441483083
 20
22.6399902412
 10
33.2693598359
 20
22.6380213654
 10
33.2941575588
 20
22.635304893
 10
33.3185469873
 20
22.6318708053
 10
33.3425865249
 20
22.6277361188
 10
33.3662571509
 20
22.6229259042
 10
33.389542321
 20
22.6174652557
 10
33.412503499
 20
22.6113574041
 10
33.4351237751
 20
22.6046211378
 10
33.4573879553
 20
22.597275291
 10
33.4793575368
 20
22.5893098201
 10
33.5010162357
 20
22.5807374941
 10
33.5223480598
 20
22.5715715346
 10
33.5434106948
 20
22.561789914
 10
33.5641866
 20
22.5514000857
 10
33.5846576598
 20
22.5404103515
 10
33.6048748984
 20
22.5287881774
 10
33.6248176058
 20
22.5165367301
 10
33.6444645233
 20
22.5036600567
 10
33.6638585482
 20
22.4901160884
 10
33.6829740083
 20
22.4759048771
 10
33.7017853847
 20
22.4610268776
 10
33.7203268424
 20
22.4454305818
 10
33.7385650147
 20
22.429115067
 10
33.7564697124
 20
22.4120770859
 10
33.7740685984
 20
22.3942519832
 10
33.7913414535
 20
22.3756131471
 10
33.808226512
 20
22.3561786666
 10
33.8246817863
 20
22.3359476087
  0
LWPOLYLINE
  5
413
100
AcDbEntity
  8
ASSI
100
AcDbPolyline
 62
250
  6
CONTINUOUS
 90
31
 70
0
 10
33.1926540284
 20
22.6415492868
 10
33.2185715426
 20
22.6411766217
 10
33.2441483083
 20
22.6399902412
 10
33.2693598359
 20
22.6380213654
 10
33.2941575588
 20
22.635304893
 10
33.3185469873
 20
22.6318708053
 10
33.3425865249
 20
22.6277361188
 10
33.3662571509
 20
22.6229259042
 10
33.389542321
 20
22.6174652557
 10
33.412503499
 20
22.6113574041
 10
33.4351237751
 20
22.6046211378
 10
33.4573879553
 20
22.597275291
 10
33.4793575368
 20
22.5893098201
 10
33.5010162357
 20
22.5807374941
 10
33.5223480598
 20
22.5715715346
 10
33.5434106948
 20
22.561789914
 10
33.5641866
 20
22.5514000857
 10
33.5846576598
 20
22.5404103515
 10
33.6048748984
 20
22.5287881774
 10
33.6248176058
 20
22.5165367301
 10
33.6444645233
 20
22.5036600567
 10
33.6638585482
 20
22.4901160884
 10
33.6829740083
 20
22.4759048771
 10
33.7017853847
 20
22.4610268776
 10
33.7203268424
 20
22.4454305818
 10
33.7385650147
 20
22.429115067
 10
33.7564697124
 20
22.4120770859
 10
33.7740685984
 20
22.3942519832
 10
33.7913414535
 20
22.3756131471
 10
33.808226512
 20
22.3561786666
 10
33.8246817863
 20
22.3359476087
  0
LWPOLYLINE
  5
414
100
AcDbEntity
  8
RACCORDO
100
AcDbPolyline
 62
250
  6
CONTINUOUS
 90
31
 70
0
 10
33.1926456448
 20
23.1675430277
 10
33.2347577847
 20
23.1667780232
 10
33.2762417119
 20
23.1647901402
 10
33.3170974262
 20
23.1615793762
 10
33.3573144567
 20
23.1571056171
 10
33.3969032745
 20
23.1514089679
 10
33.435895292
 20
23.144609754
 10
33.4742861148
 20
23.1367224704
 10
33.5120801373
 20
23.1277326067
 10
33.5493219557
 20
23.1177169791
 10
33.586010669
 20
23.1066893218
 10
33.6221471782
 20
23.0946358801
 10
33.6577787816
 20
23.0815922369
 10
33.6929085023
 20
23.0675708229
 10
33.7275333172
 20
23.0525591822
 10
33.761691456
 20
23.0365555668
 10
33.7953891382
 20
23.0195707434
 10
33.8286201443
 20
23.0015939148
 10
33.8614040451
 20
22.9825909856
 10
33.8937494547
 20
22.9625712599
 10
33.925647759
 20
22.9415253967
 10
33.9570926864
 20
22.9193913297
 10
33.9880948023
 20
22.8961772223
 10
34.0186435414
 20
22.8718748662
 10
34.0487009363
 20
22.8463976334
 10
34.0782798698
 20
22.819753002
 10
34.107367459
 20
22.7919334388
 10
34.1358870876
 20
22.7628297929
 10
34.1638132169
 20
22.7324056566
 10
34.1911713855
 20
22.7006973688
 10
34.2179615936
 20
22.6677048937
  0
LWPOLYLINE
  5
415
100
AcDbEntity
  8
ASSI
100
AcDbPolyline
 62
250
  6
CONTINUOUS
 90
31
 70
0
 10
33.1926456448
 20
23.1675430277
 10
33.2347577847
 20
23.1667780232
 10
33.2762417119
 20
23.1647901402
 10
33.3170974262
 20
23.1615793762
 10
33.3573144567
 20
23.1571056171
 10
33.3969032745
 20
23.1514089679
 10
33.435895292
 20
23.144609754
 10
33.4742861148
 20
23.1367224704
 10
33.5120801373
 20
23.1277326067
 10
33.5493219557
 20
23.1177169791
 10
33.586010669
 20
23.1066893218
 10
33.6221471782
 20
23.0946358801
 10
33.6577787816
 20
23.0815922369
 10
33.6929085023
 20
23.0675708229
 10
33.7275333172
 20
23.0525591822
 10
33.761691456
 20
23.0365555668
 10
33.7953891382
 20
23.0195707434
 10
33.8286201443
 20
23.0015939148
 10
33.8614040451
 20
22.9825909856
 10
33.8937494547
 20
22.9625712599
 10
33.925647759
 20
22.9415253967
 10
33.9570926864
 20
22.9193913297
 10
33.9880948023
 20
22.8961772223
 10
34.0186435414
 20
22.8718748662
 10
34.0487009363
 20
22.8463976334
 10
34.0782798698
 20
22.819753002
 10
34.107367459
 20
22.7919334388
 10
34.1358870876
 20
22.7628297929
 10
34.1638132169
 20
22.7324056566
 10
34.1911713855
 20
22.7006973688
 10
34.2179615936
 20
22.6677048937
  0
LINE
  5
416
100
AcDbEntity
  8
0
100
AcDbLine
 62
250
  6
CONTINUOUS
 10
-16.943209
 20
25.960725
 11
-16.657001
 21
25.901202
  0
LINE
  5
417
100
AcDbEntity
  8
0
100
AcDbLine
 62
250
  6
CONTINUOUS
 10
-21.08011
 20
28.639275
 11
-21.366318
 21
28.698798
  0
LINE
  5
418
100
AcDbEntity
  8
0
100
AcDbLine
 62
250
  6
CONTINUOUS
 10
-15.601485
 20
28.639275
 11
-15.887694
 21
28.698798
  0
LINE
  5
419
100
AcDbEntity
  8
0
100
AcDbLine
 62
250
  6
CONTINUOUS
 10
-16.625755
 20
26.258342
 11
-16.85368
 21
26.317865
  0
LINE
  5
41A
100
AcDbEntity
  8
0
100
AcDbLine
 62
250
  6
CONTINUOUS
 10
-15.918939
 20
28.341658
 11
-15.691013
 21
28.282135
  0
LINE
  5
41B
100
AcDbEntity
  8
0
100
AcDbLine
 62
250
  6
CONTINUOUS
 10
-7.928927
 20
28.401181
 11
-7.759285
 21
28.341658
  0
LINE
  5
41C
100
AcDbEntity
  8
0
100
AcDbLine
 62
250
  6
CONTINUOUS
 10
-15.862865
 20
26.317865
 11
-16.101206
 21
26.258342
  0
LINE
  5
41D
100
AcDbEntity
  8
0
100
AcDbLine
 62
250
  6
CONTINUOUS
 10
-16.681829
 20
28.282135
 11
-16.443488
 21
28.341658
  0
LINE
  5
41E
100
AcDbEntity
  8
0
100
AcDbLine
 62
250
  6
CONTINUOUS
 10
-16.132451
 20
25.901202
 11
-15.835827
 21
25.960725
  0
LINE
  5
41F
100
AcDbEntity
  8
0
100
AcDbLine
 62
250
  6
CONTINUOUS
 10
-21.611076
 20
25.901202
 11
-21.314453
 21
25.960725
  0
LINE
  5
420
100
AcDbEntity
  8
0
100
AcDbLine
 62
250
  6
CONTINUOUS
 10
-16.412243
 20
28.698798
 11
-16.708866
 21
28.639275
  0
LINE
  5
421
100
AcDbEntity
  8
0
100
AcDbLine
 62
250
  6
CONTINUOUS
 10
-22.628929
 20
26.258342
 11
-21.521548
 21
26.258342
  0
LINE
  5
422
100
AcDbEntity
  8
0
100
AcDbLine
 62
250
  6
CONTINUOUS
 10
-1.180695
 20
26.258342
 11
-2.929192
 21
26.258342
  0
LINE
  5
423
100
AcDbEntity
  8
0
100
AcDbLine
 62
250
  6
CONTINUOUS
 10
-10.039748
 20
26.258342
 11
-11.788245
 21
26.258342
  0
LINE
  5
424
100
AcDbEntity
  8
0
100
AcDbLine
 62
250
  6
CONTINUOUS
 10
-16.101206
 20
26.258342
 11
-16.625755
 21
26.258342
  0
LINE
  5
425
100
AcDbEntity
  8
0
100
AcDbLine
 62
250
  6
CONTINUOUS
 10
-36.498283
 20
26.45073
 11
-35.34927
 21
26.45073
  0
LINE
  5
426
100
AcDbEntity
  8
0
100
AcDbLine
 62
250
  6
CONTINUOUS
 10
-33.65073
 20
26.45073
 11
-32.501717
 21
26.45073
  0
LINE
  5
427
100
AcDbEntity
  8
0
100
AcDbLine
 62
250
  6
CONTINUOUS
 10
-36.398369
 20
26.550644
 11
-35.249356
 21
26.550644
  0
LINE
  5
428
100
AcDbEntity
  8
0
100
AcDbLine
 62
250
  6
CONTINUOUS
 10
-33.750644
 20
26.550644
 11
-32.601631
 21
26.550644
  0
LINE
  5
429
100
AcDbEntity
  8
0
100
AcDbLine
 62
250
  6
CONTINUOUS
 10
-19.741804
 20
26.615482
 11
-18.576139
 21
26.615482
  0
LINE
  5
42A
100
AcDbEntity
  8
0
100
AcDbLine
 62
250
  6
CONTINUOUS
 10
-5.462409
 20
26.615482
 11
-4.296745
 21
26.615482
  0
LINE
  5
42B
100
AcDbEntity
  8
0
100
AcDbLine
 62
250
  6
CONTINUOUS
 10
-15.253994
 20
26.615482
 11
-15.603694
 21
26.615482
  0
LINE
  5
42C
100
AcDbEntity
  8
0
100
AcDbLine
 62
250
  6
CONTINUOUS
 10
-36.298454
 20
26.650558
 11
-35.149442
 21
26.650558
  0
LINE
  5
42D
100
AcDbEntity
  8
0
100
AcDbLine
 62
250
  6
CONTINUOUS
 10
-33.850558
 20
26.650558
 11
-32.701546
 21
26.650558
  0
LINE
  5
42E
100
AcDbEntity
  8
0
100
AcDbLine
 62
250
  6
CONTINUOUS
 10
-30.170387
 20
26.700515
 11
-31.236138
 21
26.700515
  0
LINE
  5
42F
100
AcDbEntity
  8
0
100
AcDbLine
 62
250
  6
CONTINUOUS
 10
-19.662691
 20
26.853575
 11
-18.613592
 21
26.853575
  0
LINE
  5
430
100
AcDbEntity
  8
0
100
AcDbLine
 62
250
  6
CONTINUOUS
 10
-5.383295
 20
26.853575
 11
-4.334197
 21
26.853575
  0
LINE
  5
431
100
AcDbEntity
  8
0
100
AcDbLine
 62
250
  6
CONTINUOUS
 10
-8.154853
 20
27.151192
 11
-9.145669
 21
27.151192
  0
LINE
  5
432
100
AcDbEntity
  8
0
100
AcDbLine
 62
250
  6
CONTINUOUS
 10
-21.443433
 20
27.151192
 11
-22.550815
 21
27.151192
  0
LINE
  5
433
100
AcDbEntity
  8
0
100
AcDbLine
 62
250
  6
CONTINUOUS
 10
-11.704924
 20
27.210715
 11
-10.18956
 21
27.210715
  0
LINE
  5
434
100
AcDbEntity
  8
0
100
AcDbLine
 62
250
  6
CONTINUOUS
 10
-8.007041
 20
27.508332
 11
-9.114423
 21
27.508332
  0
LINE
  5
435
100
AcDbEntity
  8
0
100
AcDbLine
 62
250
  6
CONTINUOUS
 10
-21.412188
 20
27.508332
 11
-22.519569
 21
27.508332
  0
LINE
  5
436
100
AcDbEntity
  8
0
100
AcDbLine
 62
250
  6
CONTINUOUS
 10
-10.158314
 20
27.567855
 11
-11.673678
 21
27.567855
  0
LINE
  5
437
100
AcDbEntity
  8
0
100
AcDbLine
 62
250
  6
CONTINUOUS
 10
-32.701546
 20
27.949442
 11
-33.850558
 21
27.949442
  0
LINE
  5
438
100
AcDbEntity
  8
0
100
AcDbLine
 62
250
  6
CONTINUOUS
 10
-35.149442
 20
27.949442
 11
-36.298454
 21
27.949442
  0
LINE
  5
439
100
AcDbEntity
  8
0
100
AcDbLine
 62
250
  6
CONTINUOUS
 10
-15.483919
 20
27.984518
 11
-15.134219
 21
27.984518
  0
LINE
  5
43A
100
AcDbEntity
  8
0
100
AcDbLine
 62
250
  6
CONTINUOUS
 10
-32.601631
 20
28.049356
 11
-33.750644
 21
28.049356
  0
LINE
  5
43B
100
AcDbEntity
  8
0
100
AcDbLine
 62
250
  6
CONTINUOUS
 10
-35.249356
 20
28.049356
 11
-36.398369
 21
28.049356
  0
LINE
  5
43C
100
AcDbEntity
  8
0
100
AcDbLine
 62
250
  6
CONTINUOUS
 10
-32.501717
 20
28.14927
 11
-33.65073
 21
28.14927
  0
LINE
  5
43D
100
AcDbEntity
  8
0
100
AcDbLine
 62
250
  6
CONTINUOUS
 10
-35.34927
 20
28.14927
 11
-36.498283
 21
28.14927
  0
LINE
  5
43E
100
AcDbEntity
  8
0
100
AcDbLine
 62
250
  6
CONTINUOUS
 10
-22.446663
 20
28.341658
 11
-21.339281
 21
28.341658
  0
LINE
  5
43F
100
AcDbEntity
  8
0
100
AcDbLine
 62
250
  6
CONTINUOUS
 10
-16.443488
 20
28.341658
 11
-15.918939
 21
28.341658
  0
LINE
  5
440
100
AcDbEntity
  8
0
100
AcDbLine
 62
250
  6
CONTINUOUS
 10
-11.605979
 20
28.341658
 11
-9.857481
 21
28.341658
  0
LINE
  5
441
100
AcDbEntity
  8
0
100
AcDbLine
 62
250
  6
CONTINUOUS
 10
-14.6315
 20
28.401181
 11
-13.698968
 21
28.401181
  0
LINE
  5
442
100
AcDbEntity
  8
0
100
AcDbLine
 62
250
  6
CONTINUOUS
 10
-13.349269
 20
28.401181
 11
-12.416737
 21
28.401181
  0
LINE
  5
443
100
AcDbEntity
  8
0
100
AcDbLine
 62
250
  6
CONTINUOUS
 10
-9.036309
 20
28.401181
 11
-7.928927
 21
28.401181
  0
LINE
  5
444
100
AcDbEntity
  8
0
100
AcDbLine
 62
250
  6
CONTINUOUS
 10
-9.35997
 20
28.698798
 11
-7.961172
 21
28.698798
  0
LINE
  5
445
100
AcDbEntity
  8
0
100
AcDbLine
 62
250
  6
CONTINUOUS
 10
-2.71568
 20
28.698798
 11
-3.06538
 21
28.698798
  0
LINE
  5
446
100
AcDbEntity
  8
0
100
AcDbLine
 62
250
  6
CONTINUOUS
 10
-4.464178
 20
28.698798
 11
-4.930443
 21
28.698798
  0
LINE
  5
447
100
AcDbEntity
  8
0
100
AcDbLine
 62
250
  6
CONTINUOUS
 10
-6.329241
 20
28.698798
 11
-6.67894
 21
28.698798
  0
LINE
  5
448
100
AcDbEntity
  8
0
100
AcDbLine
 62
250
  6
CONTINUOUS
 10
-9.826236
 20
28.698798
 11
-11.924433
 21
28.698798
  0
LINE
  5
449
100
AcDbEntity
  8
0
100
AcDbLine
 62
250
  6
CONTINUOUS
 10
-12.390699
 20
28.698798
 11
-14.605462
 21
28.698798
  0
LINE
  5
44A
100
AcDbEntity
  8
0
100
AcDbLine
 62
250
  6
CONTINUOUS
 10
-15.887694
 20
28.698798
 11
-16.412243
 21
28.698798
  0
LINE
  5
44B
100
AcDbEntity
  8
0
100
AcDbLine
 62
250
  6
CONTINUOUS
 10
-18.743572
 20
28.698798
 11
-19.209838
 21
28.698798
  0
LINE
  5
44C
100
AcDbEntity
  8
0
100
AcDbLine
 62
250
  6
CONTINUOUS
 10
-21.366318
 20
28.698798
 11
-22.765116
 21
28.698798
  0
LINE
  5
44D
100
AcDbEntity
  8
0
100
AcDbLine
 62
250
  6
CONTINUOUS
 10
-25.3079
 20
28.698798
 11
-26.906525
 21
28.698798
  0
LINE
  5
44E
100
AcDbEntity
  8
0
100
AcDbLine
 62
250
  6
CONTINUOUS
 10
-33.850558
 20
29.098454
 11
-35.149442
 21
29.098454
  0
LINE
  5
44F
100
AcDbEntity
  8
0
100
AcDbLine
 62
250
  6
CONTINUOUS
 10
-33.750644
 20
29.198369
 11
-35.249356
 21
29.198369
  0
LINE
  5
450
100
AcDbEntity
  8
0
100
AcDbLine
 62
250
  6
CONTINUOUS
 10
-33.65073
 20
29.298283
 11
-35.34927
 21
29.298283
  0
LINE
  5
451
100
AcDbEntity
  8
0
100
AcDbLine
 62
250
  6
CONTINUOUS
 10
-7.961172
 20
28.698798
 11
-7.674963
 21
28.639275
  0
LINE
  5
452
100
AcDbEntity
  8
RACCORDO
100
AcDbLine
 62
250
  6
CONTINUOUS
 10
33.9949737296
 20
21.8461028089
 11
34.0104384533
 21
14.5669361326
  0
LINE
  5
453
100
AcDbEntity
  8
ASSI
100
AcDbLine
 62
250
  6
CONTINUOUS
 10
33.9949737296
 20
21.8461028089
 11
34.0104384533
 21
14.5669361326
  0
LINE
  5
454
100
AcDbEntity
  8
RACCORDO
100
AcDbLine
 62
250
  6
CONTINUOUS
 10
34.4942885593
 20
21.8703705759
 11
34.5097532489
 21
14.5834397224
  0
LINE
  5
455
100
AcDbEntity
  8
ASSI
100
AcDbLine
 62
250
  6
CONTINUOUS
 10
34.4942885593
 20
21.8703705759
 11
34.5097532489
 21
14.5834397224
  0
LINE
  5
456
100
AcDbEntity
  8
RACCORDO
100
AcDbLine
 62
250
  6
CONTINUOUS
 10
34.0104384533
 20
14.5669361326
 11
34.0197179896
 21
7.284661208
  0
LINE
  5
457
100
AcDbEntity
  8
ASSI
100
AcDbLine
 62
250
  6
CONTINUOUS
 10
34.0104384533
 20
14.5669361326
 11
34.0197179896
 21
7.284661208
  0
LINE
  5
458
100
AcDbEntity
  8
RACCORDO
100
AcDbLine
 62
250
  6
CONTINUOUS
 10
34.5097532489
 20
14.5834397224
 11
34.5190327639
 21
7.2926778579
  0
LINE
  5
459
100
AcDbEntity
  8
ASSI
100
AcDbLine
 62
250
  6
CONTINUOUS
 10
34.5097532489
 20
14.5834397224
 11
34.5190327639
 21
7.2926778579
  0
LINE
  5
45A
100
AcDbEntity
  8
RACCORDO
100
AcDbLine
 62
250
  6
CONTINUOUS
 10
34.0197179896
 20
7.284661208
 11
34.0228118795
 21
-0.0000046698
  0
LINE
  5
45B
100
AcDbEntity
  8
ASSI
100
AcDbLine
 62
250
  6
CONTINUOUS
 10
34.0197179896
 20
7.284661208
 11
34.0228118795
 21
-0.0000046698
  0
LINE
  5
45C
100
AcDbEntity
  8
RACCORDO
100
AcDbLine
 62
250
  6
CONTINUOUS
 10
34.5190327639
 20
7.2926778579
 11
34.5221266469
 21
0.0000000529
  0
LINE
  5
45D
100
AcDbEntity
  8
ASSI
100
AcDbLine
 62
250
  6
CONTINUOUS
 10
34.5190327639
 20
7.2926778579
 11
34.5221266469
 21
0.0000000529
  0
LINE
  5
45E
100
AcDbEntity
  8
RACCORDO
100
AcDbLine
 62
250
  6
CONTINUOUS
 10
33.1926456448
 20
23.1675430277
 11
33.1926456448
 21
22.6415492726
  0
LINE
  5
45F
100
AcDbEntity
  8
ASSI
100
AcDbLine
 62
250
  6
CONTINUOUS
 10
33.1926456448
 20
23.1675430277
 11
33.1926456448
 21
22.6415492726
  0
LINE
  5
460
100
AcDbEntity
  8
RACCORDO
100
AcDbLine
 62
250
  6
CONTINUOUS
 10
33.1926456448
 20
-23.1675430277
 11
33.1926456448
 21
-22.6415492726
  0
LINE
  5
461
100
AcDbEntity
  8
ASSI
100
AcDbLine
 62
250
  6
CONTINUOUS
 10
33.1926456448
 20
-23.1675430277
 11
33.1926456448
 21
-22.6415492726
  0
LINE
  5
462
100
AcDbEntity
  8
0
100
AcDbLine
 62
7
  6
CONTINUOUS
 10
33.85
 20
-21.7010963722
 11
33.85
 21
21.7010963722
  0
LINE
  5
463
100
AcDbEntity
  8
ASSI
100
AcDbLine
 62
7
  6
CONTINUOUS
 10
33.85
 20
-21.7010963722
 11
33.85
 21
21.7010963722
  0
LINE
  5
464
100
AcDbEntity
  8
RACCORDO
100
AcDbLine
 62
250
  6
CONTINUOUS
 10
34.0228118795
 20
-0.0000046698
 11
34.0197179771
 21
-7.2846727906
  0
LINE
  5
465
100
AcDbEntity
  8
ASSI
100
AcDbLine
 62
250
  6
CONTINUOUS
 10
34.0228118795
 20
-0.0000046698
 11
34.0197179771
 21
-7.2846727906
  0
LINE
  5
466
100
AcDbEntity
  8
RACCORDO
100
AcDbLine
 62
250
  6
CONTINUOUS
 10
34.5221266469
 20
0.0000000529
 11
34.5190327641
 21
-7.292677762
  0
LINE
  5
467
100
AcDbEntity
  8
ASSI
100
AcDbLine
 62
250
  6
CONTINUOUS
 10
34.5221266469
 20
0.0000000529
 11
34.5190327641
 21
-7.292677762
  0
LINE
  5
468
100
AcDbEntity
  8
RACCORDO
100
AcDbLine
 62
250
  6
CONTINUOUS
 10
34.0197179771
 20
-7.2846727906
 11
34.0104384522
 21
-14.5669385324
  0
LINE
  5
469
100
AcDbEntity
  8
ASSI
100
AcDbLine
 62
250
  6
CONTINUOUS
 10
34.0197179771
 20
-7.2846727906
 11
34.0104384522
 21
-14.5669385324
  0
LINE
  5
46A
100
AcDbEntity
  8
RACCORDO
100
AcDbLine
 62
250
  6
CONTINUOUS
 10
34.5190327641
 20
-7.292677762
 11
34.5097532492
 21
-14.5834396614
  0
LINE
  5
46B
100
AcDbEntity
  8
ASSI
100
AcDbLine
 62
250
  6
CONTINUOUS
 10
34.5190327641
 20
-7.292677762
 11
34.5097532492
 21
-14.5834396614
  0
LINE
  5
46C
100
AcDbEntity
  8
RACCORDO
100
AcDbLine
 62
250
  6
CONTINUOUS
 10
34.0104384522
 20
-14.5669385324
 11
33.9949737709
 21
-21.8460811902
  0
LINE
  5
46D
100
AcDbEntity
  8
ASSI
100
AcDbLine
 62
250
  6
CONTINUOUS
 10
34.0104384522
 20
-14.5669385324
 11
33.9949737709
 21
-21.8460811902
  0
LINE
  5
46E
100
AcDbEntity
  8
RACCORDO
100
AcDbLine
 62
250
  6
CONTINUOUS
 10
34.5097532492
 20
-14.5834396614
 11
34.4942885593
 21
-21.8703705759
  0
LINE
  5
46F
100
AcDbEntity
  8
ASSI
100
AcDbLine
 62
250
  6
CONTINUOUS
 10
34.5097532492
 20
-14.5834396614
 11
34.4942885593
 21
-21.8703705759
  0
LWPOLYLINE
  5
470
100
AcDbEntity
  8
RACCORDO
100
AcDbPolyline
 62
250
  6
CONTINUOUS
 90
13
 70
0
 10
34.4942885593
 20
-21.8703705759
 10
34.492416098
 20
-21.9398660133
 10
34.4866066457
 20
-22.0094305253
 10
34.4768602025
 20
-22.0790641089
 10
34.4631656193
 20
-22.1491408256
 10
34.4455340452
 20
-22.2192866015
 10
34.4239989273
 20
-22.2883792558
 10
34.3983832336
 20
-22.3564474246
 10
34.3688639962
 20
-22.423462516
 10
34.3360057591
 20
-22.4882165587
 10
34.2999967036
 20
-22.5503069386
 10
34.2606486485
 20
-22.6101363689
 10
34.2179615936
 20
-22.6677048937
  0
LWPOLYLINE
  5
471
100
AcDbEntity
  8
ASSI
100
AcDbPolyline
 62
250
  6
CONTINUOUS
 90
13
 70
0
 10
34.4942885593
 20
-21.8703705759
 10
34.492416098
 20
-21.9398660133
 10
34.4866066457
 20
-22.0094305253
 10
34.4768602025
 20
-22.0790641089
 10
34.4631656193
 20
-22.1491408256
 10
34.4455340452
 20
-22.2192866015
 10
34.4239989273
 20
-22.2883792558
 10
34.3983832336
 20
-22.3564474246
 10
34.3688639962
 20
-22.423462516
 10
34.3360057591
 20
-22.4882165587
 10
34.2999967036
 20
-22.5503069386
 10
34.2606486485
 20
-22.6101363689
 10
34.2179615936
 20
-22.6677048937
  0
LWPOLYLINE
  5
472
100
AcDbEntity
  8
RACCORDO
100
AcDbPolyline
 62
250
  6
CONTINUOUS
 90
13
 70
0
 10
33.9949737609
 20
-21.8460811803
 10
33.9937327786
 20
-21.8886052515
 10
33.9901732154
 20
-21.9314217759
 10
33.9842368259
 20
-21.9744014273
 10
33.9758535437
 20
-22.0174924277
 10
33.9649890592
 20
-22.0604655599
 10
33.9516918617
 20
-22.1029260611
 10
33.9359600455
 20
-22.1447721932
 10
33.917828174
 20
-22.1858230987
 10
33.8975126767
 20
-22.2256008643
 10
33.875177045
 20
-22.2638885872
 10
33.8508655087
 20
-22.3007017748
 10
33.8246817863
 20
-22.3359476087
  0
LWPOLYLINE
  5
473
100
AcDbEntity
  8
ASSI
100
AcDbPolyline
 62
250
  6
CONTINUOUS
 90
13
 70
0
 10
33.9949737609
 20
-21.8460811803
 10
33.9937327786
 20
-21.8886052515
 10
33.9901732154
 20
-21.9314217759
 10
33.9842368259
 20
-21.9744014273
 10
33.9758535437
 20
-22.0174924277
 10
33.9649890592
 20
-22.0604655599
 10
33.9516918617
 20
-22.1029260611
 10
33.9359600455
 20
-22.1447721932
 10
33.917828174
 20
-22.1858230987
 10
33.8975126767
 20
-22.2256008643
 10
33.875177045
 20
-22.2638885872
 10
33.8508655087
 20
-22.3007017748
 10
33.8246817863
 20
-22.3359476087
  0
LWPOLYLINE
  5
474
100
AcDbEntity
  8
RACCORDO
100
AcDbPolyline
 62
250
  6
CONTINUOUS
 90
16
 70
0
 10
34.2179615936
 20
-22.6677048937
 10
34.1676363366
 20
-22.7282260376
 10
34.1140214129
 20
-22.785319398
 10
34.0571168224
 20
-22.8389851472
 10
33.996684508
 20
-22.889431412
 10
33.9329625268
 20
-22.9364503781
 10
33.8666650505
 20
-22.9794183199
 10
33.7977053328
 20
-23.0182859387
 10
33.72617012
 20
-23.0531028405
 10
33.6530338219
 20
-23.0833936777
 10
33.5782470351
 20
-23.1090594699
 10
33.5018591631
 20
-23.130199438
 10
33.424992826
 20
-23.146635529
 10
33.3480222306
 20
-23.1583084353
 10
33.2705731702
 20
-23.165277591
 10
33.1926456448
 20
-23.1675430277
  0
LWPOLYLINE
  5
475
100
AcDbEntity
  8
ASSI
100
AcDbPolyline
 62
250
  6
CONTINUOUS
 90
16
 70
0
 10
34.2179615936
 20
-22.6677048937
 10
34.1676363366
 20
-22.7282260376
 10
34.1140214129
 20
-22.785319398
 10
34.0571168224
 20
-22.8389851472
 10
33.996684508
 20
-22.889431412
 10
33.9329625268
 20
-22.9364503781
 10
33.8666650505
 20
-22.9794183199
 10
33.7977053328
 20
-23.0182859387
 10
33.72617012
 20
-23.0531028405
 10
33.6530338219
 20
-23.0833936777
 10
33.5782470351
 20
-23.1090594699
 10
33.5018591631
 20
-23.130199438
 10
33.424992826
 20
-23.146635529
 10
33.3480222306
 20
-23.1583084353
 10
33.2705731702
 20
-23.165277591
 10
33.1926456448
 20
-23.1675430277
  0
LWPOLYLINE
  5
476
100
AcDbEntity
  8
RACCORDO
100
AcDbPolyline
 62
250
  6
CONTINUOUS
 90
16
 70
0
 10
33.8246817863
 20
-22.3359476087
 10
33.7937618924
 20
-22.372902273
 10
33.7606074447
 20
-22.4079839707
 10
33.7253289474
 20
-22.4410553374
 10
33.6880428771
 20
-22.4719860675
 10
33.6488791713
 20
-22.5006510464
 10
33.6079817096
 20
-22.526932067
 10
33.5654571632
 20
-22.5507405142
 10
33.5214905285
 20
-22.5719537104
 10
33.4763647221
 20
-22.5904376769
 10
33.4302422163
 20
-22.6061366443
 10
33.3833044142
 20
-22.6189995155
 10
33.3358844938
 20
-22.6289643233
 10
33.2882162375
 20
-22.636027906
 10
33.24042488
 20
-22.6402149606
 10
33.1926840957
 20
-22.6415493366
  0
LWPOLYLINE
  5
477
100
AcDbEntity
  8
ASSI
100
AcDbPolyline
 62
250
  6
CONTINUOUS
 90
16
 70
0
 10
33.8246817863
 20
-22.3359476087
 10
33.7937618924
 20
-22.372902273
 10
33.7606074447
 20
-22.4079839707
 10
33.7253289474
 20
-22.4410553374
 10
33.6880428771
 20
-22.4719860675
 10
33.6488791713
 20
-22.5006510464
 10
33.6079817096
 20
-22.526932067
 10
33.5654571632
 20
-22.5507405142
 10
33.5214905285
 20
-22.5719537104
 10
33.4763647221
 20
-22.5904376769
 10
33.4302422163
 20
-22.6061366443
 10
33.3833044142
 20
-22.6189995155
 10
33.3358844938
 20
-22.6289643233
 10
33.2882162375
 20
-22.636027906
 10
33.24042488
 20
-22.6402149606
 10
33.1926840957
 20
-22.6415493366
  0
LINE
  5
478
100
AcDbEntity
  8
RACCORDO
100
AcDbLine
 62
250
  6
CONTINUOUS
 10
59.8781758769
 20
44.6316825048
 11
-59.8781758769
 21
44.6316825048
  0
LINE
  5
479
100
AcDbEntity
  8
ASSI
100
AcDbLine
 62
250
  6
CONTINUOUS
 10
59.8781758769
 20
44.6316825048
 11
-59.8781758769
 21
44.6316825048
  0
LWPOLYLINE
  5
47A
100
AcDbEntity
  8
RACCORDO
100
AcDbPolyline
 62
250
  6
CONTINUOUS
 90
13
 70
0
 10
33.8246817863
 20
22.3359476087
 10
33.8506671573
 20
22.3009847399
 10
33.8748390157
 20
22.2644322383
 10
33.8970882814
 20
22.2263761875
 10
33.9173583313
 20
22.1868087836
 10
33.9354869097
 20
22.1459283201
 10
33.9512644829
 20
22.1041644472
 10
33.9646500926
 20
22.0616607816
 10
33.975617737
 20
22.0185447306
 10
33.9840939832
 20
21.9752588584
 10
33.9901035717
 20
21.9320498242
 10
33.9937131093
 20
21.888954044
 10
33.9949736995
 20
21.8461027795
  0
LWPOLYLINE
  5
47B
100
AcDbEntity
  8
ASSI
100
AcDbPolyline
 62
250
  6
CONTINUOUS
 90
13
 70
0
 10
33.8246817863
 20
22.3359476087
 10
33.8506671573
 20
22.3009847399
 10
33.8748390157
 20
22.2644322383
 10
33.8970882814
 20
22.2263761875
 10
33.9173583313
 20
22.1868087836
 10
33.9354869097
 20
22.1459283201
 10
33.9512644829
 20
22.1041644472
 10
33.9646500926
 20
22.0616607816
 10
33.975617737
 20
22.0185447306
 10
33.9840939832
 20
21.9752588584
 10
33.9901035717
 20
21.9320498242
 10
33.9937131093
 20
21.888954044
 10
33.9949736995
 20
21.8461027795
  0
LWPOLYLINE
  5
47C
100
AcDbEntity
  8
RACCORDO
100
AcDbPolyline
 62
250
  6
CONTINUOUS
 90
13
 70
0
 10
34.2179615936
 20
22.6677048937
 10
34.2603205644
 20
22.6106490843
 10
34.2994223064
 20
22.5512709454
 10
34.3352668194
 20
22.4895704319
 10
34.3680515472
 20
22.4251760457
 10
34.397579046
 20
22.3584591843
 10
34.4232569848
 20
22.2905341686
 10
34.4449253505
 20
22.2213824348
 10
34.4627441561
 20
22.1510224948
 10
34.476601109
 20
22.0806243342
 10
34.4864587784
 20
22.0105779607
 10
34.4923545952
 20
21.9404933744
 10
34.4942885593
 20
21.8703705759
  0
LWPOLYLINE
  5
47D
100
AcDbEntity
  8
ASSI
100
AcDbPolyline
 62
250
  6
CONTINUOUS
 90
13
 70
0
 10
34.2179615936
 20
22.6677048937
 10
34.2603205644
 20
22.6106490843
 10
34.2994223064
 20
22.5512709454
 10
34.3352668194
 20
22.4895704319
 10
34.3680515472
 20
22.4251760457
 10
34.397579046
 20
22.3584591843
 10
34.4232569848
 20
22.2905341686
 10
34.4449253505
 20
22.2213824348
 10
34.4627441561
 20
22.1510224948
 10
34.476601109
 20
22.0806243342
 10
34.4864587784
 20
22.0105779607
 10
34.4923545952
 20
21.9404933744
 10
34.4942885593
 20
21.8703705759
  0
LWPOLYLINE
  5
47E
100
AcDbEntity
  8
RACCORDO
100
AcDbPolyline
 62
250
  6
CONTINUOUS
 90
28
 70
0
 10
-59.8781758769
 20
44.8768054117
 10
-59.9358790912
 20
44.8750806058
 10
-59.9933273885
 20
44.8700102287
 10
-60.0503303845
 20
44.8616171492
 10
-60.1066620052
 20
44.8499439897
 10
-60.1621751202
 20
44.8350306373
 10
-60.2167964506
 20
44.8168925971
 10
-60.270393801
 20
44.7955529004
 10
-60.3227268303
 20
44.771086409
 10
-60.3735626186
 20
44.743592966
 10
-60.4227052357
 20
44.713175756
 10
-60.4700127188
 20
44.6799207097
 10
-60.5153430184
 20
44.6439229412
 10
-60.558541784
 20
44.6052929096
 10
-60.5994543358
 20
44.5641569719
 10
-60.6379446408
 20
44.5206436514
 10
-60.6738754279
 20
44.4748915901
 10
-60.7071166854
 20
44.4270494968
 10
-60.7375534477
 20
44.3772716237
 10
-60.7650750393
 20
44.3257147992
 10
-60.789574811
 20
44.2725531665
 10
-60.8109589176
 20
44.2179774542
 10
-60.8291446967
 20
44.1621714079
 10
-60.8440619639
 20
44.105319636
 10
-60.8556541505
 20
44.047622577
 10
-60.8638742693
 20
43.9892780405
 10
-60.8686841964
 20
43.9304802998
 10
-60.8700585586
 20
43.8714290238
  0
LWPOLYLINE
  5
47F
100
AcDbEntity
  8
ASSI
100
AcDbPolyline
 62
250
  6
CONTINUOUS
 90
28
 70
0
 10
-59.8781758769
 20
44.8768054117
 10
-59.9358790912
 20
44.8750806058
 10
-59.9933273885
 20
44.8700102287
 10
-60.0503303845
 20
44.8616171492
 10
-60.1066620052
 20
44.8499439897
 10
-60.1621751202
 20
44.8350306373
 10
-60.2167964506
 20
44.8168925971
 10
-60.270393801
 20
44.7955529004
 10
-60.3227268303
 20
44.771086409
 10
-60.3735626186
 20
44.743592966
 10
-60.4227052357
 20
44.713175756
 10
-60.4700127188
 20
44.6799207097
 10
-60.5153430184
 20
44.6439229412
 10
-60.558541784
 20
44.6052929096
 10
-60.5994543358
 20
44.5641569719
 10
-60.6379446408
 20
44.5206436514
 10
-60.6738754279
 20
44.4748915901
 10
-60.7071166854
 20
44.4270494968
 10
-60.7375534477
 20
44.3772716237
 10
-60.7650750393
 20
44.3257147992
 10
-60.789574811
 20
44.2725531665
 10
-60.8109589176
 20
44.2179774542
 10
-60.8291446967
 20
44.1621714079
 10
-60.8440619639
 20
44.105319636
 10
-60.8556541505
 20
44.047622577
 10
-60.8638742693
 20
43.9892780405
 10
-60.8686841964
 20
43.9304802998
 10
-60.8700585586
 20
43.8714290238
  0
LWPOLYLINE
  5
480
100
AcDbEntity
  8
RACCORDO
100
AcDbPolyline
 62
250
  6
CONTINUOUS
 90
28
 70
0
 10
-59.8781758769
 20
44.6316825048
 10
-59.9187038743
 20
44.6304780836
 10
-59.9588119933
 20
44.626961863
 10
-59.9985002339
 20
44.6211338159
 10
-60.037882471
 20
44.6129688545
 10
-60.0768448297
 20
44.6024919575
 10
-60.1150456852
 20
44.5897781721
 10
-60.1525079896
 20
44.5747958048
 10
-60.1892087907
 20
44.5575763404
 10
-60.2247376072
 20
44.538289581
 10
-60.2590663946
 20
44.5169205958
 10
-60.2922231974
 20
44.4934840338
 10
-60.3238816675
 20
44.4681940731
 10
-60.3540327652
 20
44.4410301138
 10
-60.3826855302
 20
44.4120124308
 10
-60.4095407336
 20
44.3814165412
 10
-60.4345831099
 20
44.3492228294
 10
-60.4578279245
 20
44.3154505818
 10
-60.479021745
 20
44.2804337214
 10
-60.4981438556
 20
44.2441561065
 10
-60.5152149721
 20
44.2066335864
 10
-60.5300438091
 20
44.1682481484
 10
-60.5426064825
 20
44.1289768997
 10
-60.5529268766
 20
44.0888425141
 10
-60.5608853584
 20
44.0482954332
 10
-60.5664420505
 20
44.0074857957
 10
-60.5696368304
 20
43.9662633712
 10
-60.5704696982
 20
43.9246281065
  0
LWPOLYLINE
  5
481
100
AcDbEntity
  8
ASSI
100
AcDbPolyline
 62
250
  6
CONTINUOUS
 90
28
 70
0
 10
-59.8781758769
 20
44.6316825048
 10
-59.9187038743
 20
44.6304780836
 10
-59.9588119933
 20
44.626961863
 10
-59.9985002339
 20
44.6211338159
 10
-60.037882471
 20
44.6129688545
 10
-60.0768448297
 20
44.6024919575
 10
-60.1150456852
 20
44.5897781721
 10
-60.1525079896
 20
44.5747958048
 10
-60.1892087907
 20
44.5575763404
 10
-60.2247376072
 20
44.538289581
 10
-60.2590663946
 20
44.5169205958
 10
-60.2922231974
 20
44.4934840338
 10
-60.3238816675
 20
44.4681940731
 10
-60.3540327652
 20
44.4410301138
 10
-60.3826855302
 20
44.4120124308
 10
-60.4095407336
 20
44.3814165412
 10
-60.4345831099
 20
44.3492228294
 10
-60.4578279245
 20
44.3154505818
 10
-60.479021745
 20
44.2804337214
 10
-60.4981438556
 20
44.2441561065
 10
-60.5152149721
 20
44.2066335864
 10
-60.5300438091
 20
44.1682481484
 10
-60.5426064825
 20
44.1289768997
 10
-60.5529268766
 20
44.0888425141
 10
-60.5608853584
 20
44.0482954332
 10
-60.5664420505
 20
44.0074857957
 10
-60.5696368304
 20
43.9662633712
 10
-60.5704696982
 20
43.9246281065
  0
LWPOLYLINE
  5
482
100
AcDbEntity
  8
RACCORDO
100
AcDbPolyline
 62
250
  6
CONTINUOUS
 90
19
 70
0
 10
-60.5704696982
 20
43.9246280943
 10
-60.5957596656
 20
43.924207405
 10
-60.6208695746
 20
43.9234109463
 10
-60.6456206487
 20
43.9222443888
 10
-60.6698366663
 20
43.9207160381
 10
-60.6933452151
 20
43.9188367757
 10
-60.7159789199
 20
43.9166199815
 10
-60.7375766343
 20
43.9140814385
 10
-60.7579845877
 20
43.9112392206
 10
-60.7770574805
 20
43.9081135635
 10
-60.7946595182
 20
43.9047267214
 10
-60.8106653787
 20
43.9011028076
 10
-60.824961104
 20
43.8972676235
 10
-60.837444912
 20
43.8932484748
 10
-60.8480279211
 20
43.8890739767
 10
-60.8566347828
 20
43.8847738508
 10
-60.8632042183
 20
43.8803787129
 10
-60.8676894548
 20
43.8759198552
 10
-60.8700585586
 20
43.8714290238
  0
LWPOLYLINE
  5
483
100
AcDbEntity
  8
ASSI
100
AcDbPolyline
 62
250
  6
CONTINUOUS
 90
19
 70
0
 10
-60.5704696982
 20
43.9246280943
 10
-60.5957596656
 20
43.924207405
 10
-60.6208695746
 20
43.9234109463
 10
-60.6456206487
 20
43.9222443888
 10
-60.6698366663
 20
43.9207160381
 10
-60.6933452151
 20
43.9188367757
 10
-60.7159789199
 20
43.9166199815
 10
-60.7375766343
 20
43.9140814385
 10
-60.7579845877
 20
43.9112392206
 10
-60.7770574805
 20
43.9081135635
 10
-60.7946595182
 20
43.9047267214
 10
-60.8106653787
 20
43.9011028076
 10
-60.824961104
 20
43.8972676235
 10
-60.837444912
 20
43.8932484748
 10
-60.8480279211
 20
43.8890739767
 10
-60.8566347828
 20
43.8847738508
 10
-60.8632042183
 20
43.8803787129
 10
-60.8676894548
 20
43.8759198552
 10
-60.8700585586
 20
43.8714290238
  0
LINE
  5
484
100
AcDbEntity
  8
RACCORDO
100
AcDbLine
 62
250
  6
CONTINUOUS
 10
59.8781758769
 20
44.8768054117
 11
-59.8781758769
 21
44.8768054117
  0
LINE
  5
485
100
AcDbEntity
  8
ASSI
100
AcDbLine
 62
250
  6
CONTINUOUS
 10
59.8781758769
 20
44.8768054117
 11
-59.8781758769
 21
44.8768054117
  0
LINE
  5
486
100
AcDbEntity
  8
RACCORDO
100
AcDbLine
 62
7
  6
CONTINUOUS
 10
-60.0013704652
 20
45.0
 11
60.0013704652
 21
45.0
  0
LINE
  5
487
100
AcDbEntity
  8
ASSI
100
AcDbLine
 62
7
  6
CONTINUOUS
 10
-60.0013704652
 20
45.0
 11
60.0013704652
 21
45.0
  0
LWPOLYLINE
  5
488
100
AcDbEntity
  8
RACCORDO
100
AcDbPolyline
 62
250
  6
CONTINUOUS
 90
19
 70
0
 10
60.5704696982
 20
43.9246280955
 10
60.595759238
 20
43.9242073328
 10
60.6208686854
 20
43.9234108103
 10
60.6456192716
 20
43.9222441987
 10
60.6698347824
 20
43.9207158039
 10
60.6933428136
 20
43.9188365074
 10
60.7159759974
 20
43.9166196889
 10
60.7375731949
 20
43.9140811314
 10
60.7579806431
 20
43.9112389082
 10
60.7770530492
 20
43.9081132548
 10
60.7946546255
 20
43.9047264246
 10
60.8106600561
 20
43.9011025304
 10
60.8249553888
 20
43.8972673728
 10
60.8374388469
 20
43.8932482565
 10
60.8480215531
 20
43.889073796
 10
60.856628163
 20
43.8847737118
 10
60.863197401
 20
43.8803786186
 10
60.8676824969
 20
43.8759198077
 10
60.8700515186
 20
43.871429024
  0
LWPOLYLINE
  5
489
100
AcDbEntity
  8
ASSI
100
AcDbPolyline
 62
250
  6
CONTINUOUS
 90
19
 70
0
 10
60.5704696982
 20
43.9246280955
 10
60.595759238
 20
43.9242073328
 10
60.6208686854
 20
43.9234108103
 10
60.6456192716
 20
43.9222441987
 10
60.6698347824
 20
43.9207158039
 10
60.6933428136
 20
43.9188365074
 10
60.7159759974
 20
43.9166196889
 10
60.7375731949
 20
43.9140811314
 10
60.7579806431
 20
43.9112389082
 10
60.7770530492
 20
43.9081132548
 10
60.7946546255
 20
43.9047264246
 10
60.8106600561
 20
43.9011025304
 10
60.8249553888
 20
43.8972673728
 10
60.8374388469
 20
43.8932482565
 10
60.8480215531
 20
43.889073796
 10
60.856628163
 20
43.8847737118
 10
60.863197401
 20
43.8803786186
 10
60.8676824969
 20
43.8759198077
 10
60.8700515186
 20
43.871429024
  0
LWPOLYLINE
  5
48A
100
AcDbEntity
  8
RACCORDO
100
AcDbPolyline
 62
250
  6
CONTINUOUS
 90
28
 70
0
 10
60.8700585586
 20
43.8714290238
 10
60.8686844686
 20
43.9304743766
 10
60.8638791753
 20
43.9892336337
 10
60.855673708
 20
44.0475080222
 10
60.8441178827
 20
44.1050781734
 10
60.8292609004
 20
44.1617759443
 10
60.8111367022
 20
44.2174811733
 10
60.7897893175
 20
44.2720490404
 10
60.7653059647
 20
44.3252495663
 10
60.7377989693
 20
44.3768420397
 10
60.7073859689
 20
44.4266363763
 10
60.6741696803
 20
44.474493136
 10
60.6382628328
 20
44.5202616709
 10
60.5997942217
 20
44.5637943459
 10
60.5589019354
 20
44.6049511246
 10
60.5157222969
 20
44.6436030133
 10
60.4704085578
 20
44.6796246207
 10
60.4231162995
 20
44.7129042432
 10
60.3739924813
 20
44.7433438558
 10
60.3231994415
 20
44.7708483634
 10
60.2709145997
 20
44.7953277337
 10
60.2173134256
 20
44.8167039603
 10
60.1625837314
 20
44.8349078545
 10
60.1069030317
 20
44.849886574
 10
60.0504351778
 20
44.8615986049
 10
59.9933606624
 20
44.8700064094
 10
59.9358771298
 20
44.8750808273
 10
59.8781758769
 20
44.8768054117
  0
LWPOLYLINE
  5
48B
100
AcDbEntity
  8
ASSI
100
AcDbPolyline
 62
250
  6
CONTINUOUS
 90
28
 70
0
 10
60.8700585586
 20
43.8714290238
 10
60.8686844686
 20
43.9304743766
 10
60.8638791753
 20
43.9892336337
 10
60.855673708
 20
44.0475080222
 10
60.8441178827
 20
44.1050781734
 10
60.8292609004
 20
44.1617759443
 10
60.8111367022
 20
44.2174811733
 10
60.7897893175
 20
44.2720490404
 10
60.7653059647
 20
44.3252495663
 10
60.7377989693
 20
44.3768420397
 10
60.7073859689
 20
44.4266363763
 10
60.6741696803
 20
44.474493136
 10
60.6382628328
 20
44.5202616709
 10
60.5997942217
 20
44.5637943459
 10
60.5589019354
 20
44.6049511246
 10
60.5157222969
 20
44.6436030133
 10
60.4704085578
 20
44.6796246207
 10
60.4231162995
 20
44.7129042432
 10
60.3739924813
 20
44.7433438558
 10
60.3231994415
 20
44.7708483634
 10
60.2709145997
 20
44.7953277337
 10
60.2173134256
 20
44.8167039603
 10
60.1625837314
 20
44.8349078545
 10
60.1069030317
 20
44.849886574
 10
60.0504351778
 20
44.8615986049
 10
59.9933606624
 20
44.8700064094
 10
59.9358771298
 20
44.8750808273
 10
59.8781758769
 20
44.8768054117
  0
LWPOLYLINE
  5
48C
100
AcDbEntity
  8
RACCORDO
100
AcDbPolyline
 62
250
  6
CONTINUOUS
 90
28
 70
0
 10
60.5704696982
 20
43.9246281065
 10
60.5696252612
 20
43.96629429
 10
60.5664307296
 20
44.0075145745
 10
60.5608861034
 20
44.0482890176
 10
60.5529569095
 20
44.0887456584
 10
60.5426776209
 20
44.1287565602
 10
60.5301516566
 20
44.1679378676
 10
60.5153473063
 20
44.2063007183
 10
60.4982962802
 20
44.2438341817
 10
60.4791971275
 20
44.2801213992
 10
60.4580341378
 20
44.3151318114
 10
60.4348230214
 20
44.3488962717
 10
60.4098094588
 20
44.3810901221
 10
60.3829763229
 20
44.4116984623
 10
60.3543407408
 20
44.4407365201
 10
60.324199774
 20
44.4679248808
 10
60.2925403022
 20
44.4932444941
 10
60.2593754457
 20
44.5167147349
 10
60.2250416268
 20
44.5381138549
 10
60.1895275462
 20
44.5574215069
 10
60.1528445032
 20
44.5746583208
 10
60.1153628175
 20
44.5896640194
 10
60.0770676316
 20
44.6024166075
 10
60.0379738031
 20
44.6129382887
 10
59.9984962242
 20
44.621135071
 10
59.9587731922
 20
44.6269756618
 10
59.9186664098
 20
44.6304914639
 10
59.8781758769
 20
44.6316825048
  0
LWPOLYLINE
  5
48D
100
AcDbEntity
  8
ASSI
100
AcDbPolyline
 62
250
  6
CONTINUOUS
 90
28
 70
0
 10
60.5704696982
 20
43.9246281065
 10
60.5696252612
 20
43.96629429
 10
60.5664307296
 20
44.0075145745
 10
60.5608861034
 20
44.0482890176
 10
60.5529569095
 20
44.0887456584
 10
60.5426776209
 20
44.1287565602
 10
60.5301516566
 20
44.1679378676
 10
60.5153473063
 20
44.2063007183
 10
60.4982962802
 20
44.2438341817
 10
60.4791971275
 20
44.2801213992
 10
60.4580341378
 20
44.3151318114
 10
60.4348230214
 20
44.3488962717
 10
60.4098094588
 20
44.3810901221
 10
60.3829763229
 20
44.4116984623
 10
60.3543407408
 20
44.4407365201
 10
60.324199774
 20
44.4679248808
 10
60.2925403022
 20
44.4932444941
 10
60.2593754457
 20
44.5167147349
 10
60.2250416268
 20
44.5381138549
 10
60.1895275462
 20
44.5574215069
 10
60.1528445032
 20
44.5746583208
 10
60.1153628175
 20
44.5896640194
 10
60.0770676316
 20
44.6024166075
 10
60.0379738031
 20
44.6129382887
 10
59.9984962242
 20
44.621135071
 10
59.9587731922
 20
44.6269756618
 10
59.9186664098
 20
44.6304914639
 10
59.8781758769
 20
44.6316825048
  0
LWPOLYLINE
  5
48E
100
AcDbEntity
  8
RACCORDO
100
AcDbPolyline
 62
250
  6
CONTINUOUS
 90
9
 70
0
 10
60.5704696982
 20
-43.9246281065
 10
60.5492646814
 20
-41.5803705021
 10
60.5298115775
 20
-39.2305985388
 10
60.5121103866
 20
-36.8757866537
 10
60.4961582719
 20
-34.51641446
 10
60.4819580701
 20
-32.1529541681
 10
60.4695182913
 20
-29.7858704217
 10
60.4588417722
 20
-27.415636892
 10
60.449925676
 20
-25.0427362495
  0
LWPOLYLINE
  5
48F
100
AcDbEntity
  8
ASSI
100
AcDbPolyline
 62
250
  6
CONTINUOUS
 90
9
 70
0
 10
60.5704696982
 20
-43.9246281065
 10
60.5492646814
 20
-41.5803705021
 10
60.5298115775
 20
-39.2305985388
 10
60.5121103866
 20
-36.8757866537
 10
60.4961582719
 20
-34.51641446
 10
60.4819580701
 20
-32.1529541681
 10
60.4695182913
 20
-29.7858704217
 10
60.4588417722
 20
-27.415636892
 10
60.449925676
 20
-25.0427362495
  0
LWPOLYLINE
  5
490
100
AcDbEntity
  8
RACCORDO
100
AcDbPolyline
 62
250
  6
CONTINUOUS
 90
9
 70
0
 10
60.8700585586
 20
-43.8714290238
 10
60.8488539353
 20
-41.530635219
 10
60.8294010733
 20
-39.1852651697
 10
60.8116999728
 20
-36.8353188758
 10
60.7957477181
 20
-34.4803128887
 10
60.7815472247
 20
-32.1207306571
 10
60.7691072395
 20
-29.7580225269
 10
60.7584306778
 20
-27.3926719467
 10
60.7495146241
 20
-25.0241954679
  0
LWPOLYLINE
  5
491
100
AcDbEntity
  8
ASSI
100
AcDbPolyline
 62
250
  6
CONTINUOUS
 90
9
 70
0
 10
60.8700585586
 20
-43.8714290238
 10
60.8488539353
 20
-41.530635219
 10
60.8294010733
 20
-39.1852651697
 10
60.8116999728
 20
-36.8353188758
 10
60.7957477181
 20
-34.4803128887
 10
60.7815472247
 20
-32.1207306571
 10
60.7691072395
 20
-29.7580225269
 10
60.7584306778
 20
-27.3926719467
 10
60.7495146241
 20
-25.0241954679
  0
LINE
  5
492
100
AcDbEntity
  8
RACCORDO
100
AcDbLine
 62
250
  6
CONTINUOUS
 10
60.449925676
 20
-25.0427362495
 11
60.4336291891
 21
-18.8925043042
  0
LINE
  5
493
100
AcDbEntity
  8
ASSI
100
AcDbLine
 62
250
  6
CONTINUOUS
 10
60.449925676
 20
-25.0427362495
 11
60.4336291891
 21
-18.8925043042
  0
LINE
  5
494
100
AcDbEntity
  8
RACCORDO
100
AcDbLine
 62
250
  6
CONTINUOUS
 10
60.7495146241
 20
-25.0241954679
 11
60.7332181209
 21
-18.8795038031
  0
LINE
  5
495
100
AcDbEntity
  8
ASSI
100
AcDbLine
 62
250
  6
CONTINUOUS
 10
60.7495146241
 20
-25.0241954679
 11
60.7332181209
 21
-18.8795038031
  0
LINE
  5
496
100
AcDbEntity
  8
RACCORDO
100
AcDbLine
 62
250
  6
CONTINUOUS
 10
60.4336291891
 20
-18.8925043042
 11
60.4203325776
 21
-11.3380611962
  0
LINE
  5
497
100
AcDbEntity
  8
ASSI
100
AcDbLine
 62
250
  6
CONTINUOUS
 10
60.4336291891
 20
-18.8925043042
 11
60.4203325776
 21
-11.3380611962
  0
LINE
  5
498
100
AcDbEntity
  8
RACCORDO
100
AcDbLine
 62
250
  6
CONTINUOUS
 10
60.7332181209
 20
-18.8795038031
 11
60.7199214528
 21
-11.3305136537
  0
LINE
  5
499
100
AcDbEntity
  8
ASSI
100
AcDbLine
 62
250
  6
CONTINUOUS
 10
60.7332181209
 20
-18.8795038031
 11
60.7199214528
 21
-11.3305136537
  0
LINE
  5
49A
100
AcDbEntity
  8
RACCORDO
100
AcDbLine
 62
250
  6
CONTINUOUS
 10
60.4203325776
 20
-11.3380611962
 11
60.4136823261
 21
-3.7797569604
  0
LINE
  5
49B
100
AcDbEntity
  8
ASSI
100
AcDbLine
 62
250
  6
CONTINUOUS
 10
60.4203325776
 20
-11.3380611962
 11
60.4136823261
 21
-3.7797569604
  0
LINE
  5
49C
100
AcDbEntity
  8
RACCORDO
100
AcDbLine
 62
250
  6
CONTINUOUS
 10
60.7199214528
 20
-11.3305136537
 11
60.713271186
 21
-3.7771499691
  0
LINE
  5
49D
100
AcDbEntity
  8
ASSI
100
AcDbLine
 62
250
  6
CONTINUOUS
 10
60.7199214528
 20
-11.3305136537
 11
60.713271186
 21
-3.7771499691
  0
LINE
  5
49E
100
AcDbEntity
  8
RACCORDO
100
AcDbLine
 62
250
  6
CONTINUOUS
 10
59.8781758769
 20
-44.6316825048
 11
59.8781758772
 21
-44.8768054117
  0
LINE
  5
49F
100
AcDbEntity
  8
ASSI
100
AcDbLine
 62
250
  6
CONTINUOUS
 10
59.8781758769
 20
-44.6316825048
 11
59.8781758772
 21
-44.8768054117
  0
LINE
  5
4A0
100
AcDbEntity
  8
RACCORDO
100
AcDbLine
 62
250
  6
CONTINUOUS
 10
59.8781758769
 20
44.6316825048
 11
59.8781758769
 21
44.8768054117
  0
LINE
  5
4A1
100
AcDbEntity
  8
ASSI
100
AcDbLine
 62
250
  6
CONTINUOUS
 10
59.8781758769
 20
44.6316825048
 11
59.8781758769
 21
44.8768054117
  0
LINE
  5
4A2
100
AcDbEntity
  8
RACCORDO
100
AcDbLine
 62
7
  6
CONTINUOUS
 10
61.0
 20
-44.0013704652
 11
61.0
 21
44.0013704652
  0
LINE
  5
4A3
100
AcDbEntity
  8
ASSI
100
AcDbLine
 62
7
  6
CONTINUOUS
 10
61.0
 20
-44.0013704652
 11
61.0
 21
44.0013704652
  0
LINE
  5
4A4
100
AcDbEntity
  8
RACCORDO
100
AcDbLine
 62
250
  6
CONTINUOUS
 10
60.4136823261
 20
-3.7797569604
 11
60.4136823257
 21
3.7797559374
  0
LINE
  5
4A5
100
AcDbEntity
  8
ASSI
100
AcDbLine
 62
250
  6
CONTINUOUS
 10
60.4136823261
 20
-3.7797569604
 11
60.4136823257
 21
3.7797559374
  0
LINE
  5
4A6
100
AcDbEntity
  8
RACCORDO
100
AcDbLine
 62
250
  6
CONTINUOUS
 10
60.713271186
 20
-3.7771499691
 11
60.7132711867
 21
3.77715111
  0
LINE
  5
4A7
100
AcDbEntity
  8
ASSI
100
AcDbLine
 62
250
  6
CONTINUOUS
 10
60.713271186
 20
-3.7771499691
 11
60.7132711867
 21
3.77715111
  0
LINE
  5
4A8
100
AcDbEntity
  8
RACCORDO
100
AcDbLine
 62
250
  6
CONTINUOUS
 10
60.4136823257
 20
3.7797559374
 11
60.4203325766
 21
11.3380604683
  0
LINE
  5
4A9
100
AcDbEntity
  8
ASSI
100
AcDbLine
 62
250
  6
CONTINUOUS
 10
60.4136823257
 20
3.7797559374
 11
60.4203325766
 21
11.3380604683
  0
LINE
  5
4AA
100
AcDbEntity
  8
RACCORDO
100
AcDbLine
 62
250
  6
CONTINUOUS
 10
60.7132711867
 20
3.77715111
 11
60.7199214545
 21
11.3305150114
  0
LINE
  5
4AB
100
AcDbEntity
  8
ASSI
100
AcDbLine
 62
250
  6
CONTINUOUS
 10
60.7132711867
 20
3.77715111
 11
60.7199214545
 21
11.3305150114
  0
LINE
  5
4AC
100
AcDbEntity
  8
RACCORDO
100
AcDbLine
 62
250
  6
CONTINUOUS
 10
60.4203325766
 20
11.3380604683
 11
60.4336291883
 21
18.8925038652
  0
LINE
  5
4AD
100
AcDbEntity
  8
ASSI
100
AcDbLine
 62
250
  6
CONTINUOUS
 10
60.4203325766
 20
11.3380604683
 11
60.4336291883
 21
18.8925038652
  0
LINE
  5
4AE
100
AcDbEntity
  8
RACCORDO
100
AcDbLine
 62
250
  6
CONTINUOUS
 10
60.7199214545
 20
11.3305150114
 11
60.7332181219
 21
18.8795044447
  0
LINE
  5
4AF
100
AcDbEntity
  8
ASSI
100
AcDbLine
 62
250
  6
CONTINUOUS
 10
60.7199214545
 20
11.3305150114
 11
60.7332181219
 21
18.8795044447
  0
LWPOLYLINE
  5
4B0
100
AcDbEntity
  8
RACCORDO
100
AcDbPolyline
 62
250
  6
CONTINUOUS
 90
10
 70
0
 10
60.4336291883
 20
18.8925038652
 10
60.4499256767
 20
25.0427362222
 10
60.4588417736
 20
27.4156369854
 10
60.4695182923
 20
29.7858705046
 10
60.4819580689
 20
32.1529540084
 10
60.4961582673
 20
34.5164139278
 10
60.5121103802
 20
36.8757859222
 10
60.5298115717
 20
39.2305978808
 10
60.5492646777
 20
41.5803700883
 10
60.5704696982
 20
43.9246281065
  0
LWPOLYLINE
  5
4B1
100
AcDbEntity
  8
ASSI
100
AcDbPolyline
 62
250
  6
CONTINUOUS
 90
10
 70
0
 10
60.4336291883
 20
18.8925038652
 10
60.4499256767
 20
25.0427362222
 10
60.4588417736
 20
27.4156369854
 10
60.4695182923
 20
29.7858705046
 10
60.4819580689
 20
32.1529540084
 10
60.4961582673
 20
34.5164139278
 10
60.5121103802
 20
36.8757859222
 10
60.5298115717
 20
39.2305978808
 10
60.5492646777
 20
41.5803700883
 10
60.5704696982
 20
43.9246281065
  0
LWPOLYLINE
  5
4B2
100
AcDbEntity
  8
RACCORDO
100
AcDbPolyline
 62
250
  6
CONTINUOUS
 90
10
 70
0
 10
60.7332181219
 20
18.8795044447
 10
60.7495146367
 20
25.0241988665
 10
60.7584307064
 20
27.3926785798
 10
60.7691072875
 20
29.7580322302
 10
60.7815473045
 20
32.1207441804
 10
60.7957478329
 20
34.4803300678
 10
60.8117000999
 20
36.8353368046
 10
60.829401181
 20
39.1852800282
 10
60.8488540005
 20
41.5306441013
 10
60.8700585586
 20
43.8714290238
  0
LWPOLYLINE
  5
4B3
100
AcDbEntity
  8
ASSI
100
AcDbPolyline
 62
250
  6
CONTINUOUS
 90
10
 70
0
 10
60.7332181219
 20
18.8795044447
 10
60.7495146367
 20
25.0241988665
 10
60.7584307064
 20
27.3926785798
 10
60.7691072875
 20
29.7580322302
 10
60.7815473045
 20
32.1207441804
 10
60.7957478329
 20
34.4803300678
 10
60.8117000999
 20
36.8353368046
 10
60.829401181
 20
39.1852800282
 10
60.8488540005
 20
41.5306441013
 10
60.8700585586
 20
43.8714290238
  0
LWPOLYLINE
  5
4B4
100
AcDbEntity
  8
0
100
AcDbPolyline
 62
7
  6
CONTINUOUS
 90
7
 70
0
 43
0.3500000006
 10
2.3571427875
 20
58.7499994812
 10
0.8571428254
 20
58.7499994812
 10
2.3571427875
 20
60.8928533936
 10
2.3571427875
 20
61.321431427
 10
1.9285714102
 20
61.7500003967
 10
1.2857142735
 20
61.7500003967
 10
0.8571428254
 20
61.1071469421
  0
LWPOLYLINE
  5
4B5
100
AcDbEntity
  8
0
100
AcDbPolyline
 62
7
  6
CONTINUOUS
 90
7
 70
0
 43
0.3500000006
 10
0.0
 20
58.7499994812
 10
-1.5000000329
 20
58.7499994812
 10
0.0
 20
60.8928533936
 10
0.0
 20
61.321431427
 10
-0.4285714127
 20
61.7500003967
 10
-1.0714285848
 20
61.7500003967
 10
-1.5000000329
 20
61.1071469421
  0
LWPOLYLINE
  5
4B6
100
AcDbEntity
  8
0
100
AcDbPolyline
 62
7
  6
CONTINUOUS
 90
10
 70
0
 43
0.3500000006
 10
87.2500039673
 20
-1.9285708809
 10
86.3928569641
 20
-1.0714295425
 10
85.5357099609
 20
-0.8571427917
 10
84.6785720215
 20
-0.8571427917
 10
84.2500030518
 20
-1.2857140274
 10
84.2500030518
 20
-1.9285708809
 10
84.6785720215
 20
-2.3571432495
 10
85.5357099609
 20
-2.3571432495
 10
85.9642879944
 20
-1.9285708809
 10
85.9642879944
 20
-1.0000006256
  0
LINE
  5
4B7
100
AcDbEntity
  8
RACCORDO
100
AcDbLine
 62
7
  6
CONTINUOUS
 10
-91.4285652571
 20
-44.8768054117
 11
-89.0778724779
 21
-45.0
  0
LINE
  5
4B8
100
AcDbEntity
  8
ASSI
100
AcDbLine
 62
7
  6
CONTINUOUS
 10
-91.4285652571
 20
-44.8768054117
 11
-89.0778724779
 21
-45.0
  0
LINE
  5
4B9
100
AcDbEntity
  8
RACCORDO
100
AcDbLine
 62
250
  6
CONTINUOUS
 10
-91.5573028827
 20
-43.8714290238
 11
-89.0778724779
 21
-44.0013704652
  0
LINE
  5
4BA
100
AcDbEntity
  8
ASSI
100
AcDbLine
 62
250
  6
CONTINUOUS
 10
-91.5573028827
 20
-43.8714290238
 11
-89.0778724779
 21
-44.0013704652
  0
LWPOLYLINE
  5
4BB
100
AcDbEntity
  8
0
100
AcDbPolyline
 62
7
  6
CONTINUOUS
 90
10
 70
0
 43
0.3500000006
 10
-88.6349404907
 20
61.7500003967
 10
-89.2777939453
 20
61.1071469421
 10
-89.7063719788
 20
60.249999939
 10
-89.7063719788
 20
59.1785684509
 10
-89.2777939453
 20
58.7499994812
 10
-88.6349404907
 20
58.7499994812
 10
-88.206371521
 20
59.1785684509
 10
-88.206371521
 20
60.0357154541
 10
-88.6349404907
 20
60.4642844238
 10
-89.563509613
 20
60.4642844238
  0
LINE
  5
4BC
100
AcDbEntity
  8
RACCORDO
100
AcDbLine
 62
250
  6
CONTINUOUS
 10
-91.8111462955
 20
-43.9188367757
 11
-91.7870730926
 21
-43.9140814385
  0
LINE
  5
4BD
100
AcDbEntity
  8
ASSI
100
AcDbLine
 62
250
  6
CONTINUOUS
 10
-91.8111462955
 20
-43.9188367757
 11
-91.7870730926
 21
-43.9140814385
  0
LINE
  5
4BE
100
AcDbEntity
  8
RACCORDO
100
AcDbLine
 62
250
  6
CONTINUOUS
 10
-91.7870730926
 20
-43.9140814385
 11
-91.7381476683
 21
-43.9047267214
  0
LINE
  5
4BF
100
AcDbEntity
  8
ASSI
100
AcDbLine
 62
250
  6
CONTINUOUS
 10
-91.7870730926
 20
-43.9140814385
 11
-91.7381476683
 21
-43.9047267214
  0
LINE
  5
4C0
100
AcDbEntity
  8
RACCORDO
100
AcDbLine
 62
250
  6
CONTINUOUS
 10
-91.7381476683
 20
-43.9047267214
 11
-91.6306607818
 21
-43.8847738508
  0
LINE
  5
4C1
100
AcDbEntity
  8
ASSI
100
AcDbLine
 62
250
  6
CONTINUOUS
 10
-91.7381476683
 20
-43.9047267214
 11
-91.6306607818
 21
-43.8847738508
  0
LINE
  5
4C2
100
AcDbEntity
  8
RACCORDO
100
AcDbLine
 62
250
  6
CONTINUOUS
 10
-91.6306607818
 20
-43.8847738508
 11
-91.5573028827
 21
-43.8714290238
  0
LINE
  5
4C3
100
AcDbEntity
  8
ASSI
100
AcDbLine
 62
250
  6
CONTINUOUS
 10
-91.6306607818
 20
-43.8847738508
 11
-91.5573028827
 21
-43.8714290238
  0
LWPOLYLINE
  5
4C4
100
AcDbEntity
  8
RACCORDO
100
AcDbPolyline
 62
250
  6
CONTINUOUS
 90
9
 70
0
 10
-91.4285652571
 20
-44.8768054117
 10
-91.4296584094
 20
-44.8750806058
 10
-91.4311326304
 20
-44.8700102287
 10
-91.4329791408
 20
-44.8616171492
 10
-91.4351893176
 20
-44.8499439897
 10
-91.4377565493
 20
-44.8350306373
 10
-91.4406748341
 20
-44.8168925971
 10
-91.4439443993
 20
-44.7955529004
 10
-91.4475506242
 20
-44.771086409
  0
LWPOLYLINE
  5
4C5
100
AcDbEntity
  8
ASSI
100
AcDbPolyline
 62
250
  6
CONTINUOUS
 90
9
 70
0
 10
-91.4285652571
 20
-44.8768054117
 10
-91.4296584094
 20
-44.8750806058
 10
-91.4311326304
 20
-44.8700102287
 10
-91.4329791408
 20
-44.8616171492
 10
-91.4351893176
 20
-44.8499439897
 10
-91.4377565493
 20
-44.8350306373
 10
-91.4406748341
 20
-44.8168925971
 10
-91.4439443993
 20
-44.7955529004
 10
-91.4475506242
 20
-44.771086409
  0
LWPOLYLINE
  5
4C6
100
AcDbEntity
  8
RACCORDO
100
AcDbPolyline
 62
250
  6
CONTINUOUS
 90
3
 70
0
 10
-94.2778724671
 20
-22.6677048932
 10
-94.2768102924
 20
-22.6675845031
 10
-94.2736245998
 20
-22.667357485
  0
LWPOLYLINE
  5
4C7
100
AcDbEntity
  8
ASSI
100
AcDbPolyline
 62
250
  6
CONTINUOUS
 90
3
 70
0
 10
-94.2778724671
 20
-22.6677048932
 10
-94.2768102924
 20
-22.6675845031
 10
-94.2736245998
 20
-22.667357485
  0
LINE
  5
4C8
100
AcDbEntity
  8
RACCORDO
100
AcDbLine
 62
250
  6
CONTINUOUS
 10
-94.2736245998
 20
-22.667357485
 11
-94.2609882382
 21
-22.6665907705
  0
LINE
  5
4C9
100
AcDbEntity
  8
ASSI
100
AcDbLine
 62
250
  6
CONTINUOUS
 10
-94.2736245998
 20
-22.667357485
 11
-94.2609882382
 21
-22.6665907705
  0
LINE
  5
4CA
100
AcDbEntity
  8
RACCORDO
100
AcDbLine
 62
250
  6
CONTINUOUS
 10
-94.2609882382
 20
-22.6665907705
 11
-94.1774604244
 21
-22.6620480449
  0
LINE
  5
4CB
100
AcDbEntity
  8
ASSI
100
AcDbLine
 62
250
  6
CONTINUOUS
 10
-94.2609882382
 20
-22.6665907705
 11
-94.1774604244
 21
-22.6620480449
  0
LINE
  5
4CC
100
AcDbEntity
  8
RACCORDO
100
AcDbLine
 62
250
  6
CONTINUOUS
 10
-94.1774604244
 20
-22.6620480449
 11
-93.9939541175
 21
-22.6525930904
  0
LINE
  5
4CD
100
AcDbEntity
  8
ASSI
100
AcDbLine
 62
250
  6
CONTINUOUS
 10
-94.1774604244
 20
-22.6620480449
 11
-93.9939541175
 21
-22.6525930904
  0
LWPOLYLINE
  5
4CE
100
AcDbEntity
  8
0
100
AcDbPolyline
 62
7
  6
CONTINUOUS
 90
3
 70
0
 43
0.3500000006
 10
-90.7063722839
 20
59.0357151489
 10
-90.7777944031
 20
58.8214306641
 10
-90.9206567688
 20
58.5357149963
  0
LINE
  5
4CF
100
AcDbEntity
  8
RACCORDO
100
AcDbLine
 62
250
  6
CONTINUOUS
 10
-91.4986789158
 20
44.3768420397
 11
-91.4809335821
 21
44.5202616709
  0
LINE
  5
4D0
100
AcDbEntity
  8
ASSI
100
AcDbLine
 62
250
  6
CONTINUOUS
 10
-91.4986789158
 20
44.3768420397
 11
-91.4809335821
 21
44.5202616709
  0
LINE
  5
4D1
100
AcDbEntity
  8
RACCORDO
100
AcDbLine
 62
250
  6
CONTINUOUS
 10
-91.4809335821
 20
44.5202616709
 11
-91.4650457369
 21
44.6436030133
  0
LINE
  5
4D2
100
AcDbEntity
  8
ASSI
100
AcDbLine
 62
250
  6
CONTINUOUS
 10
-91.4809335821
 20
44.5202616709
 11
-91.4650457369
 21
44.6436030133
  0
LINE
  5
4D3
100
AcDbEntity
  8
RACCORDO
100
AcDbLine
 62
250
  6
CONTINUOUS
 10
-91.4650457369
 20
44.6436030133
 11
-91.4557273664
 21
44.7129042432
  0
LINE
  5
4D4
100
AcDbEntity
  8
ASSI
100
AcDbLine
 62
250
  6
CONTINUOUS
 10
-91.4650457369
 20
44.6436030133
 11
-91.4557273664
 21
44.7129042432
  0
LWPOLYLINE
  5
4D5
100
AcDbEntity
  8
RACCORDO
100
AcDbPolyline
 62
250
  6
CONTINUOUS
 90
10
 70
0
 10
-91.4557273664
 20
44.7129042432
 10
-91.4475834098
 20
44.7708483634
 10
-91.4439757133
 20
44.7953277337
 10
-91.4407033579
 20
44.8167039603
 10
-91.4377781006
 20
44.8349078545
 10
-91.435200935
 20
44.849886574
 10
-91.432982577
 20
44.8615986049
 10
-91.4311319532
 20
44.8700064094
 10
-91.4296564587
 20
44.8750808273
 10
-91.4285652571
 20
44.8768054117
  0
LWPOLYLINE
  5
4D6
100
AcDbEntity
  8
ASSI
100
AcDbPolyline
 62
250
  6
CONTINUOUS
 90
10
 70
0
 10
-91.4557273664
 20
44.7129042432
 10
-91.4475834098
 20
44.7708483634
 10
-91.4439757133
 20
44.7953277337
 10
-91.4407033579
 20
44.8167039603
 10
-91.4377781006
 20
44.8349078545
 10
-91.435200935
 20
44.849886574
 10
-91.432982577
 20
44.8615986049
 10
-91.4311319532
 20
44.8700064094
 10
-91.4296564587
 20
44.8750808273
 10
-91.4285652571
 20
44.8768054117
  0
LWPOLYLINE
  5
4D7
100
AcDbEntity
  8
RACCORDO
100
AcDbPolyline
 62
250
  6
CONTINUOUS
 90
10
 70
0
 10
-91.5573028827
 20
-43.8714290238
 10
-91.9619111988
 20
-41.530635219
 10
-92.3330939164
 20
-39.1852651697
 10
-92.6708510356
 20
-36.8353188758
 10
-92.9752381882
 20
-34.4803128887
 10
-93.2461997424
 20
-32.1207306571
 10
-93.483568802
 20
-29.7580225269
 10
-93.687289735
 20
-27.3926719467
 10
-93.8574181735
 20
-25.0241954679
 10
-93.9939541175
 20
-22.6525930904
  0
LWPOLYLINE
  5
4D8
100
AcDbEntity
  8
ASSI
100
AcDbPolyline
 62
250
  6
CONTINUOUS
 90
10
 70
0
 10
-91.5573028827
 20
-43.8714290238
 10
-91.9619111988
 20
-41.530635219
 10
-92.3330939164
 20
-39.1852651697
 10
-92.6708510356
 20
-36.8353188758
 10
-92.9752381882
 20
-34.4803128887
 10
-93.2461997424
 20
-32.1207306571
 10
-93.483568802
 20
-29.7580225269
 10
-93.687289735
 20
-27.3926719467
 10
-93.8574181735
 20
-25.0241954679
 10
-93.9939541175
 20
-22.6525930904
  0
LINE
  5
4D9
100
AcDbEntity
  8
RACCORDO
100
AcDbLine
 62
250
  6
CONTINUOUS
 10
-91.4475506242
 20
-44.771086409
 11
-91.4556899981
 21
-44.713175756
  0
LINE
  5
4DA
100
AcDbEntity
  8
ASSI
100
AcDbLine
 62
250
  6
CONTINUOUS
 10
-91.4475506242
 20
-44.771086409
 11
-91.4556899981
 21
-44.713175756
  0
LINE
  5
4DB
100
AcDbEntity
  8
RACCORDO
100
AcDbLine
 62
250
  6
CONTINUOUS
 10
-91.4556899981
 20
-44.713175756
 11
-91.4650029467
 21
-44.6439229412
  0
LINE
  5
4DC
100
AcDbEntity
  8
ASSI
100
AcDbLine
 62
250
  6
CONTINUOUS
 10
-91.4556899981
 20
-44.713175756
 11
-91.4650029467
 21
-44.6439229412
  0
LINE
  5
4DD
100
AcDbEntity
  8
RACCORDO
100
AcDbLine
 62
250
  6
CONTINUOUS
 10
-91.4650029467
 20
-44.6439229412
 11
-91.480884191
 21
-44.5206436514
  0
LINE
  5
4DE
100
AcDbEntity
  8
ASSI
100
AcDbLine
 62
250
  6
CONTINUOUS
 10
-91.4650029467
 20
-44.6439229412
 11
-91.480884191
 21
-44.5206436514
  0
LINE
  5
4DF
100
AcDbEntity
  8
RACCORDO
100
AcDbLine
 62
250
  6
CONTINUOUS
 10
-91.480884191
 20
-44.5206436514
 11
-91.4986260697
 21
-44.3772716237
  0
LINE
  5
4E0
100
AcDbEntity
  8
ASSI
100
AcDbLine
 62
250
  6
CONTINUOUS
 10
-91.480884191
 20
-44.5206436514
 11
-91.4986260697
 21
-44.3772716237
  0
LINE
  5
4E1
100
AcDbEntity
  8
0
100
AcDbLine
 62
7
  6
CONTINUOUS
 10
-93.9700956476
 20
-27.423487196
 11
-93.9712580892
 21
-27.4087686351
  0
LINE
  5
4E2
100
AcDbEntity
  8
ASSI
100
AcDbLine
 62
7
  6
CONTINUOUS
 10
-93.9700956476
 20
-27.423487196
 11
-93.9712580892
 21
-27.4087686351
  0
LWPOLYLINE
  5
4E3
100
AcDbEntity
  8
RACCORDO
100
AcDbPolyline
 62
250
  6
CONTINUOUS
 90
13
 70
0
 10
-93.9939541175
 20
-22.6525930904
 10
-94.1683739791
 20
-18.8795038031
 10
-94.3110857803
 20
-15.1054773242
 10
-94.4220895211
 20
-11.3305136537
 10
-94.501390876
 20
-7.5543004072
 10
-94.5489841706
 20
-3.7771499691
 10
-94.5648523814
 20
0.0000005072
 10
-94.548984157
 20
3.77715111
 10
-94.5013908489
 20
7.554301751
 10
-94.4220894878
 20
11.3305150114
 10
-94.3110857506
 20
15.1054784183
 10
-94.1683739606
 20
18.8795044447
 10
-93.9939541175
 20
22.6525930904
  0
LWPOLYLINE
  5
4E4
100
AcDbEntity
  8
ASSI
100
AcDbPolyline
 62
250
  6
CONTINUOUS
 90
13
 70
0
 10
-93.9939541175
 20
-22.6525930904
 10
-94.1683739791
 20
-18.8795038031
 10
-94.3110857803
 20
-15.1054773242
 10
-94.4220895211
 20
-11.3305136537
 10
-94.501390876
 20
-7.5543004072
 10
-94.5489841706
 20
-3.7771499691
 10
-94.5648523814
 20
0.0000005072
 10
-94.548984157
 20
3.77715111
 10
-94.5013908489
 20
7.554301751
 10
-94.4220894878
 20
11.3305150114
 10
-94.3110857506
 20
15.1054784183
 10
-94.1683739606
 20
18.8795044447
 10
-93.9939541175
 20
22.6525930904
  0
LWPOLYLINE
  5
4E5
100
AcDbEntity
  8
0
100
AcDbPolyline
 62
7
  6
CONTINUOUS
 90
4
 70
0
 43
0.3500000006
 10
-93.7777953186
 20
59.1785684509
 10
-93.7777953186
 20
60.0357154541
 10
-93.3492263489
 20
60.4642844238
 10
-92.7063728943
 20
60.4642844238
  0
LWPOLYLINE
  5
4E6
100
AcDbEntity
  8
RACCORDO
100
AcDbPolyline
 62
250
  6
CONTINUOUS
 90
10
 70
0
 10
-93.9939541175
 20
22.6525930904
 10
-93.8574179332
 20
25.0241988665
 10
-93.6872891888
 20
27.3926785798
 10
-93.4835678844
 20
29.7580322302
 10
-93.2461982204
 20
32.1207441804
 10
-92.9752359963
 20
34.4803300678
 10
-92.6708486106
 20
36.8353368046
 10
-92.3330918629
 20
39.1852800282
 10
-91.9619099536
 20
41.5306441013
 10
-91.5573028827
 20
43.8714290238
  0
LWPOLYLINE
  5
4E7
100
AcDbEntity
  8
ASSI
100
AcDbPolyline
 62
250
  6
CONTINUOUS
 90
10
 70
0
 10
-93.9939541175
 20
22.6525930904
 10
-93.8574179332
 20
25.0241988665
 10
-93.6872891888
 20
27.3926785798
 10
-93.4835678844
 20
29.7580322302
 10
-93.2461982204
 20
32.1207441804
 10
-92.9752359963
 20
34.4803300678
 10
-92.6708486106
 20
36.8353368046
 10
-92.3330918629
 20
39.1852800282
 10
-91.9619099536
 20
41.5306441013
 10
-91.5573028827
 20
43.8714290238
  0
LINE
  5
4E8
100
AcDbEntity
  8
0
100
AcDbLine
 62
250
  6
CONTINUOUS
 10
-93.970431061
 20
27.4192419681
 11
-93.9709060185
 21
27.4132282182
  0
LINE
  5
4E9
100
AcDbEntity
  8
RACCORDO
100
AcDbLine
 62
250
  6
CONTINUOUS
 10
-91.5573028827
 20
43.8714290238
 11
-91.5242606445
 21
44.1617759443
  0
LINE
  5
4EA
100
AcDbEntity
  8
ASSI
100
AcDbLine
 62
250
  6
CONTINUOUS
 10
-91.5573028827
 20
43.8714290238
 11
-91.5242606445
 21
44.1617759443
  0
LINE
  5
4EB
100
AcDbEntity
  8
RACCORDO
100
AcDbLine
 62
250
  6
CONTINUOUS
 10
-91.5242606445
 20
44.1617759443
 11
-91.4986789158
 21
44.3768420397
  0
LINE
  5
4EC
100
AcDbEntity
  8
ASSI
100
AcDbLine
 62
250
  6
CONTINUOUS
 10
-91.5242606445
 20
44.1617759443
 11
-91.4986789158
 21
44.3768420397
  0
LINE
  5
4ED
100
AcDbEntity
  8
DRAFT
100
AcDbLine
 62
7
  6
CONTINUOUS
 10
-86.2778724779
 20
-3.8526539614
 11
-88.2778724779
 21
-3.5
  0
LINE
  5
4EE
100
AcDbEntity
  8
ASSI
100
AcDbLine
 62
7
  6
CONTINUOUS
 10
-86.2778724779
 20
-3.8526539614
 11
-88.2778724779
 21
-3.5
  0
LINE
  5
4EF
100
AcDbEntity
  8
RACCORDO
100
AcDbLine
 62
250
  6
CONTINUOUS
 10
-91.4986260697
 20
-44.3772716237
 11
-91.5242156649
 21
-44.1621714079
  0
LINE
  5
4F0
100
AcDbEntity
  8
ASSI
100
AcDbLine
 62
250
  6
CONTINUOUS
 10
-91.4986260697
 20
-44.3772716237
 11
-91.5242156649
 21
-44.1621714079
  0
LINE
  5
4F1
100
AcDbEntity
  8
RACCORDO
100
AcDbLine
 62
250
  6
CONTINUOUS
 10
-91.5242156649
 20
-44.1621714079
 11
-91.5573028827
 21
-43.8714290238
  0
LINE
  5
4F2
100
AcDbEntity
  8
ASSI
100
AcDbLine
 62
250
  6
CONTINUOUS
 10
-91.5242156649
 20
-44.1621714079
 11
-91.5573028827
 21
-43.8714290238
  0
LINE
  5
4F3
100
AcDbEntity
  8
RACCORDO
100
AcDbLine
 62
7
  6
CONTINUOUS
 10
-89.0778724779
 20
-45.0
 11
-89.0778724779
 21
45.0
  0
LINE
  5
4F4
100
AcDbEntity
  8
ASSI
100
AcDbLine
 62
7
  6
CONTINUOUS
 10
-89.0778724779
 20
-45.0
 11
-89.0778724779
 21
45.0
  0
LINE
  5
4F5
100
AcDbEntity
  8
DRAFT
100
AcDbLine
 62
7
  6
CONTINUOUS
 10
-88.2778724779
 20
3.5
 11
-88.2778724779
 21
-3.5
  0
LINE
  5
4F6
100
AcDbEntity
  8
ASSI
100
AcDbLine
 62
7
  6
CONTINUOUS
 10
-88.2778724779
 20
3.5
 11
-88.2778724779
 21
-3.5
  0
LINE
  5
4F7
100
AcDbEntity
  8
DRAFT
100
AcDbLine
 62
7
  6
CONTINUOUS
 10
-86.2778724779
 20
3.8526539614
 11
-88.2778724779
 21
3.5
  0
LINE
  5
4F8
100
AcDbEntity
  8
ASSI
100
AcDbLine
 62
7
  6
CONTINUOUS
 10
-86.2778724779
 20
3.8526539614
 11
-88.2778724779
 21
3.5
  0
LINE
  5
4F9
100
AcDbEntity
  8
RACCORDO
100
AcDbLine
 62
7
  6
CONTINUOUS
 10
-86.2778724779
 20
43.5000000005
 11
-86.2778724779
 21
43.0970752324
  0
LINE
  5
4FA
100
AcDbEntity
  8
DRAFT
100
AcDbLine
 62
7
  6
CONTINUOUS
 10
-86.2778724779
 20
43.0970752324
 11
-86.2778724779
 21
3.8526539614
  0
LINE
  5
4FB
100
AcDbEntity
  8
ASSI
100
AcDbLine
 62
7
  6
CONTINUOUS
 10
-86.2778724779
 20
43.5000000005
 11
-86.2778724779
 21
3.8526539614
  0
LINE
  5
4FC
100
AcDbEntity
  8
DRAFT
100
AcDbLine
 62
7
  6
CONTINUOUS
 10
-86.2778724779
 20
-3.8526539614
 11
-86.2778724779
 21
-43.0970750476
  0
LINE
  5
4FD
100
AcDbEntity
  8
RACCORDO
100
AcDbLine
 62
7
  6
CONTINUOUS
 10
-86.2778724779
 20
-43.0970750476
 11
-86.2778724779
 21
-43.4986610712
  0
LINE
  5
4FE
100
AcDbEntity
  8
ASSI
100
AcDbLine
 62
7
  6
CONTINUOUS
 10
-86.2778724779
 20
-3.8526539614
 11
-86.2778724779
 21
-43.4986610712
  0
LINE
  5
4FF
100
AcDbEntity
  8
RACCORDO
100
AcDbLine
 62
250
  6
CONTINUOUS
 10
-94.2403222484
 20
22.6654265241
 11
-93.9939541175
 21
22.6525930904
  0
LINE
  5
500
100
AcDbEntity
  8
ASSI
100
AcDbLine
 62
250
  6
CONTINUOUS
 10
-94.2403222484
 20
22.6654265241
 11
-93.9939541175
 21
22.6525930904
  0
LWPOLYLINE
  5
501
100
AcDbEntity
  8
RACCORDO
100
AcDbPolyline
 62
250
  6
CONTINUOUS
 90
5
 70
0
 10
-94.2778724617
 20
22.6677048929
 10
-94.276810287
 20
22.6675845028
 10
-94.2736245945
 20
22.6673574847
 10
-94.2683380429
 20
22.6670254534
 10
-94.2403222484
 20
22.6654265241
  0
LWPOLYLINE
  5
502
100
AcDbEntity
  8
ASSI
100
AcDbPolyline
 62
250
  6
CONTINUOUS
 90
5
 70
0
 10
-94.2778724617
 20
22.6677048929
 10
-94.276810287
 20
22.6675845028
 10
-94.2736245945
 20
22.6673574847
 10
-94.2683380429
 20
22.6670254534
 10
-94.2403222484
 20
22.6654265241
  0
LWPOLYLINE
  5
503
100
AcDbEntity
  8
0
100
AcDbPolyline
 62
7
  6
CONTINUOUS
 90
10
 70
0
 43
0.3500000006
 10
-90.7777944031
 20
59.2499996338
 10
-90.7063722839
 20
59.1071463318
 10
-90.7063722839
 20
59.0357151489
 10
-90.8492255859
 20
58.8928527832
 10
-90.9206567688
 20
58.8928527832
 10
-90.9920879517
 20
58.9642839661
 10
-90.9920879517
 20
59.0357151489
 10
-90.9206567688
 20
59.1785684509
 10
-90.8492255859
 20
59.2499996338
 10
-90.7777944031
 20
59.2499996338
  0
LWPOLYLINE
  5
504
100
AcDbEntity
  8
RACCORDO
100
AcDbPolyline
 62
250
  6
CONTINUOUS
 90
13
 70
0
 10
-86.2778725219
 20
-43.0970754028
 10
-86.3641275008
 20
-43.1536176709
 10
-86.4559684906
 20
-43.2106011035
 10
-86.5535437229
 20
-43.2680257005
 10
-86.6572887607
 20
-43.3263497253
 10
-86.7670578127
 20
-43.3851149145
 10
-86.8820792314
 20
-43.4429464782
 10
-87.0029463802
 20
-43.499968976
 10
-87.129231369
 20
-43.5560578483
 10
-87.2584778725
 20
-43.6094646259
 10
-87.3897908322
 20
-43.6596064858
 10
-87.5239451358
 20
-43.707066251
 10
-87.6608814157
 20
-43.7518439215
  0
LWPOLYLINE
  5
505
100
AcDbEntity
  8
ASSI
100
AcDbPolyline
 62
250
  6
CONTINUOUS
 90
13
 70
0
 10
-86.2778725219
 20
-43.0970754028
 10
-86.3641275008
 20
-43.1536176709
 10
-86.4559684906
 20
-43.2106011035
 10
-86.5535437229
 20
-43.2680257005
 10
-86.6572887607
 20
-43.3263497253
 10
-86.7670578127
 20
-43.3851149145
 10
-86.8820792314
 20
-43.4429464782
 10
-87.0029463802
 20
-43.499968976
 10
-87.129231369
 20
-43.5560578483
 10
-87.2584778725
 20
-43.6094646259
 10
-87.3897908322
 20
-43.6596064858
 10
-87.5239451358
 20
-43.707066251
 10
-87.6608814157
 20
-43.7518439215
  0
LWPOLYLINE
  5
506
100
AcDbEntity
  8
RACCORDO
100
AcDbPolyline
 62
250
  6
CONTINUOUS
 90
6
 70
0
 10
-91.8368474473
 20
-43.9246280943
 10
-91.8358380879
 20
-43.924207405
 10
-91.8327338388
 20
-43.9234109463
 10
-91.8275568017
 20
-43.9222443888
 10
-91.8203438357
 20
-43.9207160381
 10
-91.8111462955
 20
-43.9188367757
  0
LWPOLYLINE
  5
507
100
AcDbEntity
  8
ASSI
100
AcDbPolyline
 62
250
  6
CONTINUOUS
 90
6
 70
0
 10
-91.8368474473
 20
-43.9246280943
 10
-91.8358380879
 20
-43.924207405
 10
-91.8327338388
 20
-43.9234109463
 10
-91.8275568017
 20
-43.9222443888
 10
-91.8203438357
 20
-43.9207160381
 10
-91.8111462955
 20
-43.9188367757
  0
LWPOLYLINE
  5
508
100
AcDbEntity
  8
RACCORDO
100
AcDbPolyline
 62
250
  6
CONTINUOUS
 90
7
 70
0
 10
-91.8368474541
 20
43.9246280955
 10
-91.8358376375
 20
43.9242073328
 10
-91.8327329844
 20
43.9234108103
 10
-91.8275555986
 20
43.9222441987
 10
-91.820342341
 20
43.9207158039
 10
-91.8111445669
 20
43.9188365074
 10
-91.7870710699
 20
43.9140811314
  0
LWPOLYLINE
  5
509
100
AcDbEntity
  8
ASSI
100
AcDbPolyline
 62
250
  6
CONTINUOUS
 90
7
 70
0
 10
-91.8368474541
 20
43.9246280955
 10
-91.8358376375
 20
43.9242073328
 10
-91.8327329844
 20
43.9234108103
 10
-91.8275555986
 20
43.9222441987
 10
-91.820342341
 20
43.9207158039
 10
-91.8111445669
 20
43.9188365074
 10
-91.7870710699
 20
43.9140811314
  0
LWPOLYLINE
  5
50A
100
AcDbEntity
  8
RACCORDO
100
AcDbPolyline
 62
250
  6
CONTINUOUS
 90
10
 70
0
 10
-87.6608814157
 20
-43.7518439215
 10
-87.8132661343
 20
-43.796886223
 10
-87.9667655315
 20
-43.8375523284
 10
-88.1212241123
 20
-43.8738422377
 10
-88.2758214832
 20
-43.9057187784
 10
-88.4310615711
 20
-43.933219123
 10
-88.5888126791
 20
-43.9564547889
 10
-88.7496258563
 20
-43.9754629486
 10
-88.9126947688
 20
-43.9902064297
 10
-89.0778724718
 20
-44.0006852321
  0
LWPOLYLINE
  5
50B
100
AcDbEntity
  8
ASSI
100
AcDbPolyline
 62
250
  6
CONTINUOUS
 90
10
 70
0
 10
-87.6608814157
 20
-43.7518439215
 10
-87.8132661343
 20
-43.796886223
 10
-87.9667655315
 20
-43.8375523284
 10
-88.1212241123
 20
-43.8738422377
 10
-88.2758214832
 20
-43.9057187784
 10
-88.4310615711
 20
-43.933219123
 10
-88.5888126791
 20
-43.9564547889
 10
-88.7496258563
 20
-43.9754629486
 10
-88.9126947688
 20
-43.9902064297
 10
-89.0778724718
 20
-44.0006852321
  0
LINE
  5
50C
100
AcDbEntity
  8
RACCORDO
100
AcDbLine
 62
250
  6
CONTINUOUS
 10
-91.5573028827
 20
43.8714290238
 11
-89.0778724779
 21
44.0013704652
  0
LINE
  5
50D
100
AcDbEntity
  8
ASSI
100
AcDbLine
 62
250
  6
CONTINUOUS
 10
-91.5573028827
 20
43.8714290238
 11
-89.0778724779
 21
44.0013704652
  0
LWPOLYLINE
  5
50E
100
AcDbEntity
  8
RACCORDO
100
AcDbPolyline
 62
250
  6
CONTINUOUS
 90
13
 70
0
 10
-89.0778724541
 20
44.0006852308
 10
-88.9598792581
 20
43.993887186
 10
-88.8418999938
 20
43.9846325241
 10
-88.7239972717
 20
43.9729212452
 10
-88.6064118835
 20
43.9587976303
 10
-88.4890283152
 20
43.9422173983
 10
-88.3713810766
 20
43.9230477058
 10
-88.2534511458
 20
43.9013015824
 10
-88.1354033746
 20
43.8769659986
 10
-88.0170609929
 20
43.8498690226
 10
-87.898423096
 20
43.8199533439
 10
-87.7796601143
 20
43.787276273
 10
-87.6608607531
 20
43.75183781
  0
LWPOLYLINE
  5
50F
100
AcDbEntity
  8
ASSI
100
AcDbPolyline
 62
250
  6
CONTINUOUS
 90
13
 70
0
 10
-89.0778724541
 20
44.0006852308
 10
-88.9598792581
 20
43.993887186
 10
-88.8418999938
 20
43.9846325241
 10
-88.7239972717
 20
43.9729212452
 10
-88.6064118835
 20
43.9587976303
 10
-88.4890283152
 20
43.9422173983
 10
-88.3713810766
 20
43.9230477058
 10
-88.2534511458
 20
43.9013015824
 10
-88.1354033746
 20
43.8769659986
 10
-88.0170609929
 20
43.8498690226
 10
-87.898423096
 20
43.8199533439
 10
-87.7796601143
 20
43.787276273
 10
-87.6608607531
 20
43.75183781
  0
LINE
  5
510
100
AcDbEntity
  8
RACCORDO
100
AcDbLine
 62
250
  6
CONTINUOUS
 10
-91.676686084
 20
43.8932482565
 11
-91.5573025138
 21
43.871429024
  0
LINE
  5
511
100
AcDbEntity
  8
ASSI
100
AcDbLine
 62
250
  6
CONTINUOUS
 10
-91.676686084
 20
43.8932482565
 11
-91.5573025138
 21
43.871429024
  0
LINE
  5
512
100
AcDbEntity
  8
RACCORDO
100
AcDbLine
 62
250
  6
CONTINUOUS
 10
-91.756019461
 20
43.9081132548
 11
-91.676686084
 21
43.8932482565
  0
LINE
  5
513
100
AcDbEntity
  8
ASSI
100
AcDbLine
 62
250
  6
CONTINUOUS
 10
-91.756019461
 20
43.9081132548
 11
-91.676686084
 21
43.8932482565
  0
LINE
  5
514
100
AcDbEntity
  8
RACCORDO
100
AcDbLine
 62
250
  6
CONTINUOUS
 10
-91.7870710699
 20
43.9140811314
 11
-91.756019461
 21
43.9081132548
  0
LINE
  5
515
100
AcDbEntity
  8
ASSI
100
AcDbLine
 62
250
  6
CONTINUOUS
 10
-91.7870710699
 20
43.9140811314
 11
-91.756019461
 21
43.9081132548
  0
LWPOLYLINE
  5
516
100
AcDbEntity
  8
RACCORDO
100
AcDbPolyline
 62
250
  6
CONTINUOUS
 90
13
 70
0
 10
-87.6608607531
 20
43.75183781
 10
-87.5109912928
 20
43.7022200255
 10
-87.3673648989
 20
43.6509469091
 10
-87.2299486573
 20
43.5980184606
 10
-87.0982801215
 20
43.5428516549
 10
-86.9727106853
 20
43.4860295171
 10
-86.8543528673
 20
43.4293011233
 10
-86.7438916516
 20
43.373150319
 10
-86.6403118706
 20
43.3170932586
 10
-86.542164423
 20
43.2614274813
 10
-86.4489088754
 20
43.2062521668
 10
-86.3608542887
 20
43.1514681353
 10
-86.2778724971
 20
43.097075387
  0
LWPOLYLINE
  5
517
100
AcDbEntity
  8
ASSI
100
AcDbPolyline
 62
250
  6
CONTINUOUS
 90
13
 70
0
 10
-87.6608607531
 20
43.75183781
 10
-87.5109912928
 20
43.7022200255
 10
-87.3673648989
 20
43.6509469091
 10
-87.2299486573
 20
43.5980184606
 10
-87.0982801215
 20
43.5428516549
 10
-86.9727106853
 20
43.4860295171
 10
-86.8543528673
 20
43.4293011233
 10
-86.7438916516
 20
43.373150319
 10
-86.6403118706
 20
43.3170932586
 10
-86.542164423
 20
43.2614274813
 10
-86.4489088754
 20
43.2062521668
 10
-86.3608542887
 20
43.1514681353
 10
-86.2778724971
 20
43.097075387
  0
LINE
  5
518
100
AcDbEntity
  8
RACCORDO
100
AcDbLine
 62
7
  6
CONTINUOUS
 10
-91.4285652571
 20
44.8768054117
 11
-89.0778724779
 21
45.0
  0
LINE
  5
519
100
AcDbEntity
  8
ASSI
100
AcDbLine
 62
7
  6
CONTINUOUS
 10
-91.4285652571
 20
44.8768054117
 11
-89.0778724779
 21
45.0
  0
LWPOLYLINE
  5
51A
100
AcDbEntity
  8
0
100
AcDbPolyline
 62
7
  6
CONTINUOUS
 90
13
 70
0
 43
0.3500000006
 10
-93.3492263489
 20
60.4642844238
 10
-93.6349420166
 20
60.6785689087
 10
-93.6349420166
 20
61.321431427
 10
-93.3492263489
 20
61.7500003967
 10
-92.7063728943
 20
61.7500003967
 10
-92.4206572266
 20
61.321431427
 10
-92.4206572266
 20
60.6785689087
 10
-92.7063728943
 20
60.4642844238
 10
-92.2777948608
 20
60.0357154541
 10
-92.2777948608
 20
59.1785684509
 10
-92.7063728943
 20
58.7499994812
 10
-93.3492263489
 20
58.7499994812
 10
-93.7777953186
 20
59.1785684509
  0
ARC
  5
51B
100
AcDbEntity
  8
RACCORDO
100
AcDbCircle
 62
7
  6
CONTINUOUS
 10
-89.3493522944
 20
-39.3198565139
 40
5.1872524353
100
AcDbArc
 50
273.0000000399
 51
306.3076478614
  0
ARC
  5
51C
100
AcDbEntity
  8
ASSI
100
AcDbCircle
 62
7
  6
CONTINUOUS
 10
-89.3493522944
 20
-39.3198565139
 40
5.1872524353
100
AcDbArc
 50
273.0000000399
 51
306.3076478614
  0
ARC
  5
51D
100
AcDbEntity
  8
RACCORDO
100
AcDbCircle
 62
7
  6
CONTINUOUS
 10
-91.4128657202
 20
-44.577209968
 40
0.3000000001
100
AcDbArc
 50
190.4615209044
 51
267.0003041861
  0
ARC
  5
51E
100
AcDbEntity
  8
ASSI
100
AcDbCircle
 62
7
  6
CONTINUOUS
 10
-91.4128657202
 20
-44.577209968
 40
0.3000000001
100
AcDbArc
 50
190.4615209044
 51
267.0003041861
  0
ARC
  5
51F
100
AcDbEntity
  8
RACCORDO
100
AcDbCircle
 62
7
  6
CONTINUOUS
 10
72.9428192897
 20
-14.2336437913
 40
167.4332498099
100
AcDbArc
 50
182.8873441217
 51
190.4598220317
  0
ARC
  5
520
100
AcDbEntity
  8
0
100
AcDbCircle
 62
7
  6
CONTINUOUS
 10
72.9428192897
 20
-14.2336437913
 40
167.4332498099
100
AcDbArc
 50
184.2117534685
 51
184.4831743507
  0
ARC
  5
521
100
AcDbEntity
  8
0
100
AcDbCircle
 62
7
  6
CONTINUOUS
 10
72.9428192897
 20
-14.2336437913
 40
167.4332498099
100
AcDbArc
 50
184.4839778236
 51
184.5132030469
  0
ARC
  5
522
100
AcDbEntity
  8
0
100
AcDbCircle
 62
7
  6
CONTINUOUS
 10
72.9428192897
 20
-14.2336437913
 40
167.4332498099
100
AcDbArc
 50
184.0677903884
 51
184.211155512
  0
ARC
  5
523
100
AcDbEntity
  8
0
100
AcDbCircle
 62
7
  6
CONTINUOUS
 10
72.9428192897
 20
-14.2336437913
 40
167.4332498099
100
AcDbArc
 50
184.5182554331
 51
185.0176525292
  0
ARC
  5
524
100
AcDbEntity
  8
ASSI
100
AcDbCircle
 62
7
  6
CONTINUOUS
 10
72.9428192897
 20
-14.2336437913
 40
167.4332498099
100
AcDbArc
 50
182.8873441217
 51
190.4598220317
  0
ARC
  5
525
100
AcDbEntity
  8
RACCORDO
100
AcDbCircle
 62
7
  6
CONTINUOUS
 10
-89.3493522944
 20
39.3198565139
 40
5.1872524353
100
AcDbArc
 50
53.692351894
 51
86.9999997364
  0
ARC
  5
526
100
AcDbEntity
  8
ASSI
100
AcDbCircle
 62
7
  6
CONTINUOUS
 10
-89.3493522944
 20
39.3198565139
 40
5.1872524353
100
AcDbArc
 50
53.692351894
 51
86.9999997364
  0
ARC
  5
527
100
AcDbEntity
  8
RACCORDO
100
AcDbCircle
 62
7
  6
CONTINUOUS
 10
-91.4128644702
 20
44.5772165512
 40
0.3
100
AcDbArc
 50
93.0
 51
169.5397588495
  0
ARC
  5
528
100
AcDbEntity
  8
ASSI
100
AcDbCircle
 62
7
  6
CONTINUOUS
 10
-91.4128644702
 20
44.5772165512
 40
0.3
100
AcDbArc
 50
93.0
 51
169.5397588495
  0
ARC
  5
529
100
AcDbEntity
  8
RACCORDO
100
AcDbCircle
 62
7
  6
CONTINUOUS
 10
72.9428192897
 20
14.2336437913
 40
167.4332498099
100
AcDbArc
 50
169.5397588495
 51
177.1126559741
  0
ARC
  5
52A
100
AcDbEntity
  8
ASSI
100
AcDbCircle
 62
7
  6
CONTINUOUS
 10
72.9428192897
 20
14.2336437913
 40
167.4332498099
100
AcDbArc
 50
169.5397588495
 51
177.1126559741
  0
ARC
  5
52B
100
AcDbEntity
  8
0
100
AcDbCircle
 62
250
  6
CONTINUOUS
 10
72.9428192897
 20
14.2336437913
 40
167.4332498099
100
AcDbArc
 50
174.8378886711
 51
176.2097334504
  0
ARC
  5
52C
100
AcDbEntity
  8
RACCORDO
100
AcDbCircle
 62
7
  6
CONTINUOUS
 10
355.1508484055
 20
-0.0
 40
450.0
100
AcDbArc
 50
177.1126435736
 51
182.8873564621
  0
ARC
  5
52D
100
AcDbEntity
  8
ASSI
100
AcDbCircle
 62
7
  6
CONTINUOUS
 10
355.1508484055
 20
-0.0
 40
450.0
100
AcDbArc
 50
177.1126435736
 51
182.8873564621
  0
ELLIPSE
  5
52E
100
AcDbEntity
  8
RACCORDO
100
AcDbEllipse
 62
7
  6
CONTINUOUS
 10
-59.998627654
 20
-43.998627654
 30
0.0
 11
0.7090462434
 21
0.7090462434
 31
0.0
 40
0.9972646886
 41
-3.9256212891
 42
-2.3575640181
  0
ELLIPSE
  5
52F
100
AcDbEntity
  8
RACCORDO
100
AcDbEllipse
 62
7
  6
CONTINUOUS
 10
59.998627654
 20
-43.998627654
 30
0.0
 11
-0.7090462434
 21
0.7090462434
 31
0.0
 40
0.9972646886
 41
-3.9256212891
 42
-2.3575640181
  0
ELLIPSE
  5
530
100
AcDbEntity
  8
RACCORDO
100
AcDbEllipse
 62
7
  6
CONTINUOUS
 10
59.998627654
 20
43.998627654
 30
0.0
 11
0.7090462434
 21
0.7090462434
 31
0.0
 40
0.9972646886
 41
-0.7840286355
 42
0.7840286355
  0
ELLIPSE
  5
531
100
AcDbEntity
  8
RACCORDO
100
AcDbEllipse
 62
7
  6
CONTINUOUS
 10
-59.998627654
 20
43.998627654
 30
0.0
 11
-0.7090462434
 21
0.7090462434
 31
0.0
 40
0.9972646886
 41
-0.7840286355
 42
0.7840286355
  0
ELLIPSE
  5
532
100
AcDbEntity
  8
0
100
AcDbEllipse
 62
7
  6
CONTINUOUS
 10
33.0489021232
 20
-21.6989021232
 30
0.0
 11
0.5672369947
 21
-0.5672369947
 31
0.0
 40
0.9972646886
 41
-0.7840286355
 42
0.7840286355
  0
ELLIPSE
  5
533
100
AcDbEntity
  8
0
100
AcDbEllipse
 62
7
  6
CONTINUOUS
 10
33.0489021232
 20
21.6989021232
 30
0.0
 11
0.5672369947
 21
0.5672369947
 31
0.0
 40
0.9972646886
 41
-0.7840286355
 42
0.7840286355
  0
ELLIPSE
  5
534
100
AcDbEntity
  8
0
100
AcDbEllipse
 62
7
  6
CONTINUOUS
 10
-33.0489021232
 20
21.6989021232
 30
0.0
 11
0.5672369947
 21
-0.5672369947
 31
0.0
 40
0.9972646886
 41
2.3575640181
 42
3.9256212891
  0
ELLIPSE
  5
535
100
AcDbEntity
  8
0
100
AcDbEllipse
 62
7
  6
CONTINUOUS
 10
-33.0489021232
 20
-21.6989021232
 30
0.0
 11
0.5672369947
 21
0.5672369947
 31
0.0
 40
0.9972646886
 41
-3.9256212891
 42
-2.3575640181
  0
ELLIPSE
  5
536
100
AcDbEntity
  8
ASSI
100
AcDbEllipse
 62
7
  6
CONTINUOUS
 10
-59.998627654
 20
-43.998627654
 30
0.0
 11
0.7090462434
 21
0.7090462434
 31
0.0
 40
0.9972646886
 41
-3.9256212891
 42
-2.3575640181
  0
ELLIPSE
  5
537
100
AcDbEntity
  8
ASSI
100
AcDbEllipse
 62
7
  6
CONTINUOUS
 10
59.998627654
 20
-43.998627654
 30
0.0
 11
-0.7090462434
 21
0.7090462434
 31
0.0
 40
0.9972646886
 41
-3.9256212891
 42
-2.3575640181
  0
ELLIPSE
  5
538
100
AcDbEntity
  8
ASSI
100
AcDbEllipse
 62
7
  6
CONTINUOUS
 10
59.998627654
 20
43.998627654
 30
0.0
 11
0.7090462434
 21
0.7090462434
 31
0.0
 40
0.9972646886
 41
-0.7840286355
 42
0.7840286355
  0
ELLIPSE
  5
539
100
AcDbEntity
  8
ASSI
100
AcDbEllipse
 62
7
  6
CONTINUOUS
 10
-59.998627654
 20
43.998627654
 30
0.0
 11
-0.7090462434
 21
0.7090462434
 31
0.0
 40
0.9972646886
 41
-0.7840286355
 42
0.7840286355
  0
ELLIPSE
  5
53A
100
AcDbEntity
  8
ASSI
100
AcDbEllipse
 62
7
  6
CONTINUOUS
 10
33.0489021232
 20
-21.6989021232
 30
0.0
 11
0.5672369947
 21
-0.5672369947
 31
0.0
 40
0.9972646886
 41
-0.7840286355
 42
0.7840286355
  0
ELLIPSE
  5
53B
100
AcDbEntity
  8
ASSI
100
AcDbEllipse
 62
7
  6
CONTINUOUS
 10
33.0489021232
 20
21.6989021232
 30
0.0
 11
0.5672369947
 21
0.5672369947
 31
0.0
 40
0.9972646886
 41
-0.7840286355
 42
0.7840286355
  0
ELLIPSE
  5
53C
100
AcDbEntity
  8
ASSI
100
AcDbEllipse
 62
7
  6
CONTINUOUS
 10
-33.0489021232
 20
21.6989021232
 30
0.0
 11
0.5672369947
 21
-0.5672369947
 31
0.0
 40
0.9972646886
 41
2.3575640181
 42
3.9256212891
  0
ELLIPSE
  5
53D
100
AcDbEntity
  8
ASSI
100
AcDbEllipse
 62
7
  6
CONTINUOUS
 10
-33.0489021232
 20
-21.6989021232
 30
0.0
 11
0.5672369947
 21
0.5672369947
 31
0.0
 40
0.9972646886
 41
-3.9256212891
 42
-2.3575640181
  0
ELLIPSE
  5
53E
100
AcDbEntity
  8
0
100
AcDbEllipse
 62
250
  6
CONTINUOUS
 10
72.9428192897
 20
14.2336437913
 30
0.0
 11
0.0
 21
167.4332498099
 31
0.0
 40
1.0
 41
1.4842949347
 42
1.5010549713
  0
ENDSEC
  0
SECTION
  2
OBJECTS
  0
DICTIONARY
  5
C
100
AcDbDictionary
280
0
281
1
  3
ACAD_GROUP
350
D
  3
ACAD_MLINESTYLE
350
17
  3
ACAD_LAYOUT
350
1A
  3
ACAD_PLOTSETTINGS
350
19
  3
ACAD_PLOTSTYLENAME
350
E
  0
DICTIONARY
  5
D
102
{ACAD_REACTORS
330
C
102
}
100
AcDbDictionary
280
0
281
1
  0
ACDBDICTIONARYWDFLT
  5
E
102
{ACAD_REACTORS
330
C
102
}
100
AcDbDictionary
281
1
  3
Normal
350
F
100
AcDbDictionaryWithDefault
340
F
  0
DICTIONARY
  5
17
102
{ACAD_REACTORS
330
C
102
}
100
AcDbDictionary
280
0
281
1
  3
Standard
350
18
  0
DICTIONARY
  5
19
102
{ACAD_REACTORS
330
C
102
}
100
AcDbDictionary
281
1
  0
DICTIONARY
  5
1A
102
{ACAD_REACTORS
330
C
102
}
100
AcDbDictionary
281
1
  3
Model
350
53F
  3
Layout1
350
540
  0
ACDBPLACEHOLDER
  5
F
102
{ACAD_REACTORS
330
E
102
}
  0
MLINESTYLE
  5
18
102
{ACAD_REACTORS
330
17
102
}
100
AcDbMlineStyle
  2
STANDARD
 70
0
  3

 62
256
 51
90.0
 52
90.0
 71
2
 49
0.5
 62
256
  6
BYLAYER
 49
-0.5
 62
256
  6
BYLAYER
  0
LAYOUT
  5
53F
102
{ACAD_REACTORS
330
1A
102
}
100
AcDbPlotSettings
  1

  2
none_device
  4
ISO_A4_(297.00_x_210.00_MM)
  6

 40
0.0
 41
0.0
 42
0.0
 43
0.0
 44
297.0
 45
210.0
 46
0.0
 47
0.0
 48
0.0
 49
0.0
140
0.0
141
0.0
142
1.0
143
1.0
 70
1024
 72
1
 73
0
 74
0
  7

 75
0
147
1.0
148
0.0
149
0.0
100
AcDbLayout
  1
Model
 70
0
 71
0
 10
0.0
 20
0.0
 11
297.0
 21
210.0
 12
0.0
 22
0.0
 32
0.0
 14
0.0
 24
0.0
 34
0.0
 15
0.0
 25
0.0
 35
0.0
146
0.0
 13
0.0
 23
0.0
 33
0.0
 16
1.0
 26
0.0
 36
0.0
 17
0.0
 27
1.0
 37
0.0
 76
0
330
215
345
0
346
0
  0
LAYOUT
  5
540
102
{ACAD_REACTORS
330
1A
102
}
100
AcDbPlotSettings
  1

  2
none_device
  4
ISO_A4_(297.00_x_210.00_MM)
  6

 40
0.0
 41
0.0
 42
0.0
 43
0.0
 44
297.0
 45
210.0
 46
0.0
 47
0.0
 48
0.0
 49
0.0
140
0.0
141
0.0
142
1.0
143
1.0
 70
0
 72
1
 73
0
 74
0
  7

 75
0
147
1.0
148
0.0
149
0.0
100
AcDbLayout
  1
Layout1
 70
0
 71
1
 10
0.0
 20
0.0
 11
297.0
 21
210.0
 12
0.0
 22
0.0
 32
0.0
 14
0.0
 24
0.0
 34
0.0
 15
0.0
 25
0.0
 35
0.0
146
0.0
 13
0.0
 23
0.0
 33
0.0
 16
1.0
 26
0.0
 36
0.0
 17
0.0
 27
1.0
 37
0.0
 76
0
330
216
345
0
346
0
  0
ENDSEC
  0
EOF
