  0
SECTION
  2
HEADER
  9
$ACADVER
  1
AC1021
  9
$DWGCODEPAGE
  3
ANSI_1252
  9
$EXTMAX
 10
297.0
 20
210.0
 30
0.0
  9
$EXTMIN
 10
0.0
 20
0.0
 30
0.0
  9
$LIMMIN
 10
0.0
 20
0.0
  9
$LIMMAX
 10
297.0
 20
210.0
  9
$VIEWCTR
 10
148.5
 20
105.0
  9
$VIEWSIZE
 40
210.0
  9
$CLAYER
  8
0
  9
$LTSCALE
 40
16.335
  9
$CELTYPE
  6
BYLAYER
  9
$DIMSCALE
 40
1.0
  9
$DIMASZ
 40
3.0
  9
$DIMEXO
 40
1.85625
  9
$DIMDLI
 40
11.286
  9
$DIMEXE
 40
5.346
  9
$DIMCEN
 40
2.673
  9
$DIMLFAC
 40
1.0
  9
$DIMBLK
  1
_FILLED
  9
$DIMTXT
 40
3.0
  9
$DIMTOL
 70
1
  9
$DIMLIM
 70
0
  9
$DIMTFAC
 40
1.0
  9
$DIMTP
 40
0.01
  9
$DIMTM
 40
0.01
  9
$PDMODE
 70
3
  9
$PDSIZE
 40
3.0
  9
$HANDSEED
  5
355
  9
$TILEMODE
 70
1
  9
$MEASUREMENT
 70
1
  9
$INSUNITS
 70
4
  0
ENDSEC
  0
SECTION
  2
CLASSES
  0
CLASS
  1
ACDBDICTIONARYWDFLT
  2
AcDbDictionaryWithDefault
  3
AutoCAD 2000
 90
0
 91
1
280
0
281
0
  0
CLASS
  1
ACDBPLACEHOLDER
  2
AcDbPlaceHolder
  3
AutoCAD 2000
 90
0
 91
1
280
0
281
0
  0
CLASS
  1
LAYOUT
  2
AcDbLayout
  3
AutoCAD 2000
 90
0
 91
0
280
0
281
0
  0
ENDSEC
  0
SECTION
  2
TABLES
  0
TABLE
  2
VPORT
  5
8
100
AcDbSymbolTable
 70
2
  0
VPORT
  5
1F4
100
AcDbSymbolTableRecord
100
AcDbViewportTableRecord
  2
*ACTIVE
 70
0
 10
0.0
 20
0.0
 11
1.0
 21
1.0
 12
148.5
 22
105.0
 13
0.0
 23
0.0
 14
1.0
 24
1.0
 15
0.0
 25
0.0
 16
0.0
 26
0.0
 36
1.0
 17
0.0
 27
0.0
 37
0.0
 40
210.0
 41
1.4142857143
 42
50.0
 43
0.0
 44
0.0
 50
0.0
 51
0.0
 71
0
 72
100
 73
1
 74
1
 75
0
 76
0
 77
0
 78
0
  0
ENDTAB
  0
TABLE
  2
LTYPE
  5
5
100
AcDbSymbolTable
 70
6
  0
LTYPE
  5
14
100
AcDbSymbolTableRecord
100
AcDbLinetypeTableRecord
  2
BYBLOCK
 70
0
  3

 72
65
 73
0
 40
0.0
  0
LTYPE
  5
15
100
AcDbSymbolTableRecord
100
AcDbLinetypeTableRecord
  2
BYLAYER
 70
0
  3

 72
65
 73
0
 40
0.0
  0
LTYPE
  5
16
100
AcDbSymbolTableRecord
100
AcDbLinetypeTableRecord
  2
CONTINUOUS
 70
64
  3
Solid line
 72
65
 73
0
 40
0.0
  0
LTYPE
  5
1F5
100
AcDbSymbolTableRecord
100
AcDbLinetypeTableRecord
  2
CENTER
 70
64
  3
____ _ ____ _ ____ _ ____ _ ____ _ ____ _ ____
 72
65
 73
4
 40
0.6
 49
0.375
 74
0
 49
-0.075
 74
0
 49
0.075
 74
0
 49
-0.075
 74
0
  0
LTYPE
  5
1F6
100
AcDbSymbolTableRecord
100
AcDbLinetypeTableRecord
  2
HIDDEN
 70
64
  3
- - - - - - - - - - - - - - - - - - - -
 72
65
 73
2
 40
0.2
 49
0.1
 74
0
 49
-0.1
 74
0
  0
LTYPE
  5
1F7
100
AcDbSymbolTableRecord
100
AcDbLinetypeTableRecord
  2
PHANTOM
 70
64
  3
_____ _ _ _____ _ _ _____ _ _ _____
 72
65
 73
6
 40
0.8
 49
0.45
 74
0
 49
-0.05
 74
0
 49
0.1
 74
0
 49
-0.05
 74
0
 49
0.1
 74
0
 49
-0.05
 74
0
  0
LTYPE
  5
1F8
100
AcDbSymbolTableRecord
100
AcDbLinetypeTableRecord
  2
DOT
 70
64
  3
. . . . . . . . . . . . . . . . . . . .
 72
65
 73
2
 40
0.2
 49
0.1
 74
0
 49
-0.1
 74
0
  0
LTYPE
  5
1F9
100
AcDbSymbolTableRecord
100
AcDbLinetypeTableRecord
  2
DASHED
 70
64
  3
- - - - - - - - - - - - - - - - - - - -
 72
65
 73
2
 40
0.2
 49
0.1
 74
0
 49
-0.1
 74
0
  0
ENDTAB
  0
TABLE
  2
LAYER
  5
2
100
AcDbSymbolTable
 70
36
  0
LAYER
  5
10
100
AcDbSymbolTableRecord
100
AcDbLayerTableRecord
  2
0
 70
0
 62
7
  6
CONTINUOUS
370
-3
390
F
  0
LAYER
  5
1FA
100
AcDbSymbolTableRecord
100
AcDbLayerTableRecord
  2
DEFAULT_1
 70
0
 62
7
  6
CENTER
370
-3
390
F
  0
LAYER
  5
1FB
100
AcDbSymbolTableRecord
100
AcDbLayerTableRecord
  2
DEFAULT_2
 70
0
 62
7
  6
HIDDEN
370
-3
390
F
  0
LAYER
  5
1FC
100
AcDbSymbolTableRecord
100
AcDbLayerTableRecord
  2
DEFAULT_3
 70
0
 62
7
  6
PHANTOM
370
-3
390
F
  0
LAYER
  5
1FD
100
AcDbSymbolTableRecord
100
AcDbLayerTableRecord
  2
ASSI
 70
0
 62
7
  6
CONTINUOUS
370
-3
390
F
  0
LAYER
  5
1FE
100
AcDbSymbolTableRecord
100
AcDbLayerTableRecord
  2
COORDINATE
 70
0
 62
7
  6
CONTINUOUS
370
-3
390
F
  0
LAYER
  5
1FF
100
AcDbSymbolTableRecord
100
AcDbLayerTableRecord
  2
COPY_PUBLISH
 70
0
 62
7
  6
CONTINUOUS
370
-3
390
F
  0
LAYER
  5
200
100
AcDbSymbolTableRecord
100
AcDbLayerTableRecord
  2
COSMETIC
 70
0
 62
7
  6
CONTINUOUS
370
-3
390
F
  0
LAYER
  5
201
100
AcDbSymbolTableRecord
100
AcDbLayerTableRecord
  2
COSMETICI
 70
0
 62
7
  6
CONTINUOUS
370
-3
390
F
  0
LAYER
  5
202
100
AcDbSymbolTableRecord
100
AcDbLayerTableRecord
  2
CURVE
 70
0
 62
7
  6
CONTINUOUS
370
-3
390
F
  0
LAYER
  5
203
100
AcDbSymbolTableRecord
100
AcDbLayerTableRecord
  2
DRAFT
 70
0
 62
7
  6
CONTINUOUS
370
-3
390
F
  0
LAYER
  5
204
100
AcDbSymbolTableRecord
100
AcDbLayerTableRecord
  2
IMPORT_IGES
 70
0
 62
7
  6
CONTINUOUS
370
-3
390
F
  0
LAYER
  5
205
100
AcDbSymbolTableRecord
100
AcDbLayerTableRecord
  2
INTFCLR_1
 70
0
 62
7
  6
CONTINUOUS
370
-3
390
F
  0
LAYER
  5
206
100
AcDbSymbolTableRecord
100
AcDbLayerTableRecord
  2
NOTE
 70
0
 62
7
  6
CONTINUOUS
370
-3
390
F
  0
LAYER
  5
207
100
AcDbSymbolTableRecord
100
AcDbLayerTableRecord
  2
PIANI
 70
0
 62
7
  6
CONTINUOUS
370
-3
390
F
  0
LAYER
  5
208
100
AcDbSymbolTableRecord
100
AcDbLayerTableRecord
  2
PUNTI
 70
0
 62
7
  6
CONTINUOUS
370
-3
390
F
  0
LAYER
  5
209
100
AcDbSymbolTableRecord
100
AcDbLayerTableRecord
  2
RACCORDO
 70
0
 62
7
  6
CONTINUOUS
370
-3
390
F
  0
LAYER
  5
20A
100
AcDbSymbolTableRecord
100
AcDbLayerTableRecord
  2
SIMBOLI
 70
0
 62
7
  6
CONTINUOUS
370
-3
390
F
  0
LAYER
  5
20B
100
AcDbSymbolTableRecord
100
AcDbLayerTableRecord
  2
SMUSSO
 70
0
 62
7
  6
CONTINUOUS
370
-3
390
F
  0
LAYER
  5
20C
100
AcDbSymbolTableRecord
100
AcDbLayerTableRecord
  2
SNAPLINE
 70
0
 62
7
  6
CONTINUOUS
370
-3
390
F
  0
LAYER
  5
20D
100
AcDbSymbolTableRecord
100
AcDbLayerTableRecord
  2
SUPERFICI
 70
0
 62
7
  6
CONTINUOUS
370
-3
390
F
  0
LAYER
  5
20E
100
AcDbSymbolTableRecord
100
AcDbLayerTableRecord
  2
TRASH
 70
0
 62
7
  6
CONTINUOUS
370
-3
390
F
  0
LAYER
  5
20F
100
AcDbSymbolTableRecord
100
AcDbLayerTableRecord
  2
XSEC_DATUMS
 70
0
 62
7
  6
CONTINUOUS
370
-3
390
F
  0
ENDTAB
  0
TABLE
  2
STYLE
  5
3
100
AcDbSymbolTable
 70
1
  0
STYLE
  5
11
100
AcDbSymbolTableRecord
100
AcDbTextStyleTableRecord
  2
STANDARD
 70
0
 40
0.0
 41
0.8
 50
0.0
 71
0
 42
0.2
  3
txt
  4

  0
STYLE
  5
210
100
AcDbSymbolTableRecord
100
AcDbTextStyleTableRecord
  2
TEXTSTYLE_1
 70
0
 40
0.0
 41
0.8
 50
0.0
 71
0
 42
0.2
  3
gdt
  4

  0
ENDTAB
  0
TABLE
  2
VIEW
  5
6
100
AcDbSymbolTable
 70
0
  0
ENDTAB
  0
TABLE
  2
UCS
  5
7
100
AcDbSymbolTable
 70
0
  0
ENDTAB
  0
TABLE
  2
APPID
  5
9
100
AcDbSymbolTable
 70
1
  0
APPID
  5
211
100
AcDbSymbolTableRecord
100
AcDbRegAppTableRecord
  2
ACAD
 70
0
  0
ENDTAB
  0
TABLE
  2
BLOCK_RECORD
  5
1
100
AcDbSymbolTable
 70
0
  0
BLOCK_RECORD
  5
212
100
AcDbSymbolTableRecord
100
AcDbBlockTableRecord
  2
*Model_Space
  0
BLOCK_RECORD
  5
213
100
AcDbSymbolTableRecord
100
AcDbBlockTableRecord
  2
*Paper_Space
  0
BLOCK_RECORD
  5
214
100
AcDbSymbolTableRecord
100
AcDbBlockTableRecord
  2
_FILLED
  0
BLOCK_RECORD
  5
215
100
AcDbSymbolTableRecord
100
AcDbBlockTableRecord
  2
*D0
  0
BLOCK_RECORD
  5
216
100
AcDbSymbolTableRecord
100
AcDbBlockTableRecord
  2
*D1
  0
BLOCK_RECORD
  5
217
100
AcDbSymbolTableRecord
100
AcDbBlockTableRecord
  2
*D2
  0
ENDTAB
  0
TABLE
  2
DIMSTYLE
  5
A
100
AcDbSymbolTable
 70
1
100
AcDbDimStyleTable
 71
0
  0
DIMSTYLE
105
218
100
AcDbSymbolTableRecord
100
AcDbDimStyleTableRecord
  2
STANDARD
 70
0
  3

  4

 40
1.0
 41
3.0
 42
0.0625
 43
0.38
 44
0.18
 45
0.0
 46
0.0
 47
0.01
 48
0.01
140
3.0
141
0.09
142
0.0
143
25.4
144
1.0
145
0.0
146
1.0
147
0.09
 71
1.0
 72
0.0
 73
0
 74
0
 75
0
 76
0
 77
1
 78
8
170
0
171
2
172
0
173
0
174
0
175
0
176
0
177
0
178
0
270
2
271
2
272
2
273
2
274
2
275
0
280
0
281
0
282
0
283
1
284
8
285
0
286
0
287
3
288
0
340
11
341
214
342
214
343
214
344
214
  0
DIMSTYLE
105
219
100
AcDbSymbolTableRecord
100
AcDbDimStyleTableRecord
  2
DIMSTYLE_1
 70
0
  3

  4

 40
1.0
 41
3.0
 42
0.0625
 43
0.38
 44
0.18
 45
0.0
 46
0.0
 47
0.0
 48
0.0
140
3.0
141
0.09
142
0.0
143
25.4
144
1.0
145
0.0
146
1.0
147
0.09
 71
0.0
 72
0.0
 73
0
 74
0
 75
0
 76
0
 77
1
 78
8
170
0
171
2
172
0
173
0
174
0
175
0
176
0
177
0
178
0
270
2
271
2
272
2
273
2
274
2
275
0
280
0
281
0
282
0
283
1
284
8
285
0
286
0
287
3
288
0
340
11
341
214
342
214
343
214
344
214
  0
DIMSTYLE
105
21A
100
AcDbSymbolTableRecord
100
AcDbDimStyleTableRecord
  2
DIMSTYLE_2
 70
0
  3

  4

 40
1.0
 41
3.0
 42
0.0625
 43
0.38
 44
0.18
 45
0.0
 46
0.0
 47
0.0
 48
0.0
140
3.0
141
0.09
142
0.0
143
25.4
144
1.0
145
0.0
146
1.0
147
0.09
 71
0.0
 72
0.0
 73
0
 74
0
 75
0
 76
0
 77
1
 78
8
170
0
171
2
172
0
173
0
174
0
175
0
176
0
177
0
178
0
270
2
271
1
272
1
273
2
274
2
275
0
280
0
281
0
282
0
283
1
284
8
285
0
286
0
287
3
288
0
340
11
341
214
342
214
343
214
344
214
  0
ENDTAB
  0
ENDSEC
  0
SECTION
  2
BLOCKS
  0
BLOCK
  5
20
100
AcDbEntity
  8
0
100
AcDbBlockBegin
  2
*Model_Space
 70
0
 10
0.0
 20
0.0
 30
0.0
  3
*Model_Space
  1

  0
ENDBLK
  5
21
100
AcDbEntity
  8
0
100
AcDbBlockEnd
  0
BLOCK
  5
1C
100
AcDbEntity
  8
0
100
AcDbBlockBegin
  2
*Paper_Space
 70
0
 10
0.0
 20
0.0
 30
0.0
  3
*Paper_Space
  1

  0
ENDBLK
  5
1D
100
AcDbEntity
  8
0
100
AcDbBlockEnd
  0
BLOCK
  5
21B
100
AcDbEntity
  8
0
100
AcDbBlockBegin
  2
_FILLED
 70
64
 10
0.0
 20
0.0
  3
_FILLED
  1

  0
SOLID
  5
21C
100
AcDbEntity
  8
0
  6
BYBLOCK
 62
0
100
AcDbTrace
 10
0.0
 20
0.0
 11
-1.0
 21
0.3166666667
 12
-1.0
 22
-0.3166666667
 13
-1.0
 23
-0.3166666667
  0
ENDBLK
  5
21D
100
AcDbEntity
  8
0
  6
BYBLOCK
 62
0
100
AcDbBlockEnd
  0
BLOCK
  5
21E
100
AcDbEntity
  8
0
100
AcDbBlockBegin
 62
7
  6
CONTINUOUS
  2
*D0
 70
65
 10
0.0
 20
0.0
  3
*D0
  1

  0
MTEXT
  5
21F
100
AcDbEntity
  8
0
100
AcDbMText
 62
7
  6
CONTINUOUS
  7
STANDARD
 71
2
 72
1
 10
0.0
 20
61.75
 30
0.0
 11
1.0
 21
0.0
 31
0.0
 44
0.9
  1
144,5
 40
3.0
 41
10.2857142857
  0
LINE
  5
220
100
AcDbEntity
  8
0
100
AcDbLine
 62
7
  6
CONTINUOUS
 10
72.25
 20
44.5013704652
 11
72.25
 21
59.5
  0
LINE
  5
221
100
AcDbEntity
  8
0
100
AcDbLine
 62
7
  6
CONTINUOUS
 10
-72.25
 20
44.5013704652
 11
-72.25
 21
59.5
  0
LINE
  5
222
100
AcDbEntity
  8
0
100
AcDbLine
 62
7
  6
CONTINUOUS
 10
72.25
 20
58.0
 11
0.0
 21
58.0
  0
LINE
  5
223
100
AcDbEntity
  8
0
100
AcDbLine
 62
7
  6
CONTINUOUS
 10
-72.25
 20
58.0
 11
0.0
 21
58.0
  0
INSERT
  5
224
100
AcDbEntity
  8
0
100
AcDbBlockReference
 62
7
  6
CONTINUOUS
  2
_FILLED
 10
72.25
 20
58.0
 41
3.0
 42
3.0
 43
3.0
  0
INSERT
  5
225
100
AcDbEntity
  8
0
100
AcDbBlockReference
 62
7
  6
CONTINUOUS
  2
_FILLED
 10
-72.25
 20
58.0
 41
3.0
 42
3.0
 43
3.0
 50
180.0
  0
ENDBLK
  5
226
100
AcDbEntity
  8
0
  6
BYBLOCK
 62
0
100
AcDbBlockEnd
  0
BLOCK
  5
227
100
AcDbEntity
  8
0
100
AcDbBlockBegin
 62
7
  6
CONTINUOUS
  2
*D1
 70
65
 10
0.0
 20
0.0
  3
*D1
  1

  0
MTEXT
  5
228
100
AcDbEntity
  8
0
100
AcDbMText
 62
7
  6
CONTINUOUS
  7
STANDARD
 71
2
 72
1
 10
84.25
 20
0.0
 30
0.0
 11
0.0
 21
1.0
 31
0.0
 44
0.9
  1
90
 40
3.0
 41
4.7142857143
  0
LINE
  5
229
100
AcDbEntity
  8
0
100
AcDbLine
 62
7
  6
CONTINUOUS
 10
71.7513704652
 20
45.0
 11
89.5
 21
45.0
  0
LINE
  5
22A
100
AcDbEntity
  8
0
100
AcDbLine
 62
7
  6
CONTINUOUS
 10
71.7513704652
 20
-45.0
 11
89.5
 21
-45.0
  0
LINE
  5
22B
100
AcDbEntity
  8
0
100
AcDbLine
 62
7
  6
CONTINUOUS
 10
88.0
 20
45.0
 11
88.0
 21
0.0
  0
LINE
  5
22C
100
AcDbEntity
  8
0
100
AcDbLine
 62
7
  6
CONTINUOUS
 10
88.0
 20
-45.0
 11
88.0
 21
0.0
  0
INSERT
  5
22D
100
AcDbEntity
  8
0
100
AcDbBlockReference
 62
7
  6
CONTINUOUS
  2
_FILLED
 10
88.0
 20
45.0
 41
3.0
 42
3.0
 43
3.0
 50
90.0
  0
INSERT
  5
22E
100
AcDbEntity
  8
0
100
AcDbBlockReference
 62
7
  6
CONTINUOUS
  2
_FILLED
 10
88.0
 20
-45.0
 41
3.0
 42
3.0
 43
3.0
 50
270.0
  0
ENDBLK
  5
22F
100
AcDbEntity
  8
0
  6
BYBLOCK
 62
0
100
AcDbBlockEnd
  0
BLOCK
  5
230
100
AcDbEntity
  8
0
100
AcDbBlockBegin
 62
7
  6
CONTINUOUS
  2
*D2
 70
65
 10
0.0
 20
0.0
  3
*D2
  1

  0
MTEXT
  5
231
100
AcDbEntity
  8
0
100
AcDbMText
 62
7
  6
CONTINUOUS
  7
STANDARD
 71
2
 72
1
 10
-100.9390701868
 20
61.75
 30
0.0
 11
1.0
 21
0.0
 31
0.0
 44
0.9
  1
8,6
 40
3.0
 41
6.4285714286
  0
LINE
  5
232
100
AcDbEntity
  8
0
100
AcDbLine
 62
7
  6
CONTINUOUS
 10
-96.6534306194
 20
43.597075387
 11
-96.6534306271
 21
59.5000000021
  0
LINE
  5
233
100
AcDbEntity
  8
0
100
AcDbLine
 62
7
  6
CONTINUOUS
 10
-105.2247097169
 20
0.4999997802
 11
-105.2247097457
 21
59.4999999979
  0
LINE
  5
234
100
AcDbEntity
  8
0
100
AcDbLine
 62
7
  6
CONTINUOUS
 10
-96.6534306264
 20
58.0000000021
 11
-92.6534306264
 21
58.000000004
  0
LINE
  5
235
100
AcDbEntity
  8
0
100
AcDbLine
 62
7
  6
CONTINUOUS
 10
-92.6534306264
 20
58.000000004
 11
-100.9390701857
 21
58.0
  0
LINE
  5
236
100
AcDbEntity
  8
0
100
AcDbLine
 62
7
  6
CONTINUOUS
 10
-105.2247097449
 20
57.9999999979
 11
-109.2247097449
 21
57.999999996
  0
LINE
  5
237
100
AcDbEntity
  8
0
100
AcDbLine
 62
7
  6
CONTINUOUS
 10
-109.2247097449
 20
57.999999996
 11
-100.9390701857
 21
58.0
  0
INSERT
  5
238
100
AcDbEntity
  8
0
100
AcDbBlockReference
 62
7
  6
CONTINUOUS
  2
_FILLED
 10
-96.6534306264
 20
58.0000000021
 41
3.0
 42
3.0
 43
3.0
 50
180.000000028
  0
INSERT
  5
239
100
AcDbEntity
  8
0
100
AcDbBlockReference
 62
7
  6
CONTINUOUS
  2
_FILLED
 10
-105.2247097449
 20
57.9999999979
 41
3.0
 42
3.0
 43
3.0
 50
0.000000028
  0
ENDBLK
  5
23A
100
AcDbEntity
  8
0
  6
BYBLOCK
 62
0
100
AcDbBlockEnd
  0
ENDSEC
  0
SECTION
  2
ENTITIES
  0
DIMENSION
  5
23B
100
AcDbEntity
  8
0
100
AcDbDimension
 62
7
  6
CONTINUOUS
  2
*D0
 10
-72.25
 20
58.0
 11
-5.1428571429
 21
60.25
 70
160
 71
2
 42
144.5
  3
DIMSTYLE_1
100
AcDbAlignedDimension
 13
72.25
 23
44.5013704652
 14
-72.25
 24
44.5013704652
 50
180.0
100
AcDbRotatedDimension
  0
DIMENSION
  5
23C
100
AcDbEntity
  8
0
100
AcDbDimension
 62
7
  6
CONTINUOUS
  2
*D1
 10
88.0
 20
-45.0
 11
86.8061735237
 21
-2.1072778499
 70
160
 71
2
 42
90.0
  3
DIMSTYLE_1
100
AcDbAlignedDimension
 13
71.7513704652
 23
45.0
 14
71.7513704652
 24
-45.0
 50
270.0
100
AcDbRotatedDimension
  0
DIMENSION
  5
23D
100
AcDbEntity
  8
0
100
AcDbDimension
 62
7
  6
CONTINUOUS
  2
*D2
 10
-105.2247097449
 20
57.9999999979
 11
-104.1533559011
 21
60.25
 70
160
 71
2
 42
8.5712791185
  3
DIMSTYLE_2
100
AcDbAlignedDimension
 13
-96.6534306194
 23
43.597075387
 14
-105.2247097169
 24
0.4999997802
 50
180.000000028
100
AcDbRotatedDimension
  0
LWPOLYLINE
  5
23E
100
AcDbEntity
  8
RACCORDO
100
AcDbPolyline
 62
253
  6
CONTINUOUS
 90
28
 70
0
 10
-72.1200585586
 20
-43.8714290238
 10
-72.1186844686
 20
-43.9304743766
 10
-72.1138791753
 20
-43.9892336337
 10
-72.105673708
 20
-44.0475080222
 10
-72.0941178827
 20
-44.1050781734
 10
-72.0792609004
 20
-44.1617759443
 10
-72.0611367022
 20
-44.2174811733
 10
-72.0397893175
 20
-44.2720490404
 10
-72.0153059647
 20
-44.3252495663
 10
-71.9877989693
 20
-44.3768420397
 10
-71.9573859689
 20
-44.4266363763
 10
-71.9241696803
 20
-44.474493136
 10
-71.8882628328
 20
-44.5202616709
 10
-71.8497942217
 20
-44.5637943459
 10
-71.8089019354
 20
-44.6049511246
 10
-71.7657222969
 20
-44.6436030133
 10
-71.7204085578
 20
-44.6796246207
 10
-71.6731162995
 20
-44.7129042432
 10
-71.6239924813
 20
-44.7433438558
 10
-71.5731994415
 20
-44.7708483634
 10
-71.5209145997
 20
-44.7953277337
 10
-71.4673134256
 20
-44.8167039603
 10
-71.4125837314
 20
-44.8349078545
 10
-71.3569030317
 20
-44.849886574
 10
-71.3004351778
 20
-44.8615986049
 10
-71.2433606624
 20
-44.8700064094
 10
-71.1858771298
 20
-44.8750808273
 10
-71.1281758769
 20
-44.8768054117
  0
LWPOLYLINE
  5
23F
100
AcDbEntity
  8
RACCORDO
100
AcDbPolyline
 62
253
  6
CONTINUOUS
 90
28
 70
0
 10
-71.8204696982
 20
-43.9246281065
 10
-71.8196252612
 20
-43.96629429
 10
-71.8164307296
 20
-44.0075145745
 10
-71.8108861034
 20
-44.0482890176
 10
-71.8029569095
 20
-44.0887456584
 10
-71.7926776209
 20
-44.1287565602
 10
-71.7801516566
 20
-44.1679378676
 10
-71.7653473063
 20
-44.2063007183
 10
-71.7482962802
 20
-44.2438341817
 10
-71.7291971275
 20
-44.2801213992
 10
-71.7080341378
 20
-44.3151318114
 10
-71.6848230214
 20
-44.3488962717
 10
-71.6598094588
 20
-44.3810901221
 10
-71.6329763229
 20
-44.4116984623
 10
-71.6043407408
 20
-44.4407365201
 10
-71.574199774
 20
-44.4679248808
 10
-71.5425403022
 20
-44.4932444941
 10
-71.5093754457
 20
-44.5167147349
 10
-71.4750416268
 20
-44.5381138549
 10
-71.4395275462
 20
-44.5574215069
 10
-71.4028445032
 20
-44.5746583208
 10
-71.3653628175
 20
-44.5896640194
 10
-71.3270676316
 20
-44.6024166075
 10
-71.2879738031
 20
-44.6129382887
 10
-71.2484962242
 20
-44.621135071
 10
-71.2087731922
 20
-44.6269756618
 10
-71.1686664098
 20
-44.6304914639
 10
-71.1281758769
 20
-44.6316825048
  0
LWPOLYLINE
  5
240
100
AcDbEntity
  8
RACCORDO
100
AcDbPolyline
 62
253
  6
CONTINUOUS
 90
9
 70
0
 10
-72.1200585586
 20
43.8714290238
 10
-72.0988539353
 20
41.530635219
 10
-72.0794010733
 20
39.1852651697
 10
-72.0616999728
 20
36.8353188758
 10
-72.0457477181
 20
34.4803128887
 10
-72.0315472247
 20
32.1207306571
 10
-72.0191072395
 20
29.7580225269
 10
-72.0084306778
 20
27.3926719467
 10
-71.9995146241
 20
25.0241954679
  0
LWPOLYLINE
  5
241
100
AcDbEntity
  8
RACCORDO
100
AcDbPolyline
 62
253
  6
CONTINUOUS
 90
9
 70
0
 10
-71.8204696982
 20
43.9246281065
 10
-71.7992646814
 20
41.5803705021
 10
-71.7798115775
 20
39.2305985388
 10
-71.7621103866
 20
36.8757866537
 10
-71.7461582719
 20
34.5164144648
 10
-71.7319580701
 20
32.1529541779
 10
-71.7195182913
 20
29.7858704217
 10
-71.7088417721
 20
27.4156368628
 10
-71.6999256757
 20
25.0427361763
  0
LINE
  5
242
100
AcDbEntity
  8
RACCORDO
100
AcDbLine
 62
253
  6
CONTINUOUS
 10
-71.9995146241
 20
25.0241954679
 11
-71.9832181219
 21
18.8795044447
  0
LINE
  5
243
100
AcDbEntity
  8
RACCORDO
100
AcDbLine
 62
253
  6
CONTINUOUS
 10
-71.6999256757
 20
25.0427361763
 11
-71.6836291884
 21
18.8925039473
  0
LINE
  5
244
100
AcDbEntity
  8
RACCORDO
100
AcDbLine
 62
253
  6
CONTINUOUS
 10
-71.9832181219
 20
18.8795044447
 11
-71.9699214545
 21
11.3305150114
  0
LINE
  5
245
100
AcDbEntity
  8
RACCORDO
100
AcDbLine
 62
253
  6
CONTINUOUS
 10
-71.6836291884
 20
18.8925039473
 11
-71.6703325766
 21
11.3380604683
  0
LINE
  5
246
100
AcDbEntity
  8
RACCORDO
100
AcDbLine
 62
253
  6
CONTINUOUS
 10
-71.9699214545
 20
11.3305150114
 11
-71.9632711867
 21
3.77715111
  0
LINE
  5
247
100
AcDbEntity
  8
RACCORDO
100
AcDbLine
 62
253
  6
CONTINUOUS
 10
-71.6703325766
 20
11.3380604683
 11
-71.6636823257
 21
3.7797559319
  0
LINE
  5
248
100
AcDbEntity
  8
RACCORDO
100
AcDbLine
 62
7
  6
CONTINUOUS
 10
-72.25
 20
-44.0013704652
 11
-72.25
 21
44.0013704652
  0
LINE
  5
249
100
AcDbEntity
  8
RACCORDO
100
AcDbLine
 62
253
  6
CONTINUOUS
 10
-71.1281758769
 20
-44.6316825048
 11
-71.1281758769
 21
-44.8768054117
  0
LINE
  5
24A
100
AcDbEntity
  8
RACCORDO
100
AcDbLine
 62
253
  6
CONTINUOUS
 10
-71.1281758769
 20
44.6316825048
 11
-71.1281758772
 21
44.8768054117
  0
LINE
  5
24B
100
AcDbEntity
  8
RACCORDO
100
AcDbLine
 62
253
  6
CONTINUOUS
 10
-71.9632711867
 20
3.77715111
 11
-71.963271186
 21
-3.7771499691
  0
LINE
  5
24C
100
AcDbEntity
  8
RACCORDO
100
AcDbLine
 62
253
  6
CONTINUOUS
 10
-71.6636823257
 20
3.7797559319
 11
-71.6636823261
 21
-3.7797569659
  0
LINE
  5
24D
100
AcDbEntity
  8
RACCORDO
100
AcDbLine
 62
253
  6
CONTINUOUS
 10
-71.963271186
 20
-3.7771499691
 11
-71.9699214528
 21
-11.3305136537
  0
LINE
  5
24E
100
AcDbEntity
  8
RACCORDO
100
AcDbLine
 62
253
  6
CONTINUOUS
 10
-71.6636823261
 20
-3.7797569659
 11
-71.6703325776
 21
-11.3380611962
  0
LINE
  5
24F
100
AcDbEntity
  8
RACCORDO
100
AcDbLine
 62
253
  6
CONTINUOUS
 10
-71.9699214528
 20
-11.3305136537
 11
-71.9832181209
 21
-18.8795038031
  0
LINE
  5
250
100
AcDbEntity
  8
RACCORDO
100
AcDbLine
 62
253
  6
CONTINUOUS
 10
-71.6703325776
 20
-11.3380611962
 11
-71.683629189
 21
-18.892504222
  0
LWPOLYLINE
  5
251
100
AcDbEntity
  8
RACCORDO
100
AcDbPolyline
 62
253
  6
CONTINUOUS
 90
10
 70
0
 10
-71.683629189
 20
-18.892504222
 10
-71.699925677
 20
-25.0427362954
 10
-71.7088417737
 20
-27.4156370147
 10
-71.7195182923
 20
-29.7858705046
 10
-71.7319580688
 20
-32.1529539987
 10
-71.7461582673
 20
-34.516413923
 10
-71.7621103802
 20
-36.8757859222
 10
-71.7798115717
 20
-39.2305978808
 10
-71.7992646777
 20
-41.5803700883
 10
-71.8204696982
 20
-43.9246281065
  0
LWPOLYLINE
  5
252
100
AcDbEntity
  8
RACCORDO
100
AcDbPolyline
 62
253
  6
CONTINUOUS
 90
10
 70
0
 10
-71.9832181209
 20
-18.8795038031
 10
-71.9995146367
 20
-25.0241988665
 10
-72.0084307064
 20
-27.3926785798
 10
-72.0191072875
 20
-29.7580322302
 10
-72.0315473045
 20
-32.1207441804
 10
-72.0457478329
 20
-34.4803300678
 10
-72.0617000999
 20
-36.8353368046
 10
-72.079401181
 20
-39.1852800282
 10
-72.0988540005
 20
-41.5306441013
 10
-72.1200585586
 20
-43.8714290238
  0
LWPOLYLINE
  5
253
100
AcDbEntity
  8
RACCORDO
100
AcDbPolyline
 62
253
  6
CONTINUOUS
 90
13
 70
0
 10
-45.0746817863
 20
-22.3359476087
 10
-45.1006557687
 20
-22.3010009824
 10
-45.1248203413
 20
-22.264462247
 10
-45.1470659179
 20
-22.2264169859
 10
-45.1673353876
 20
-22.1868568238
 10
-45.1854657963
 20
-22.1459797892
 10
-45.2012467764
 20
-22.1042156145
 10
-45.2146370571
 20
-22.0617066033
 10
-45.2256095632
 20
-22.0185810825
 10
-45.2340895554
 20
-21.9752853469
 10
-45.2401016143
 20
-21.9320674269
 10
-45.2437126284
 20
-21.8889625714
 10
-45.2449737014
 20
-21.8461021237
  0
LWPOLYLINE
  5
254
100
AcDbEntity
  8
RACCORDO
100
AcDbPolyline
 62
253
  6
CONTINUOUS
 90
13
 70
0
 10
-45.4679615936
 20
-22.6677048937
 10
-45.5103004273
 20
-22.6106822652
 10
-45.5493880176
 20
-22.5513301182
 10
-45.5852243643
 20
-22.4896484074
 10
-45.6180084775
 20
-22.4252653073
 10
-45.6475413472
 20
-22.3585525425
 10
-45.6732259432
 20
-22.2906254159
 10
-45.6949016682
 20
-22.2214638456
 10
-45.7127291194
 20
-22.1510878612
 10
-45.726593058
 20
-22.0806729838
 10
-45.736455071
 20
-22.0106110663
 10
-45.7423535715
 20
-21.9405102634
 10
-45.7442885593
 20
-21.8703705759
  0
LINE
  5
255
100
AcDbEntity
  8
RACCORDO
100
AcDbLine
 62
253
  6
CONTINUOUS
 10
-45.7442885593
 20
-21.8703705759
 11
-45.7597532489
 21
-14.5834397175
  0
LINE
  5
256
100
AcDbEntity
  8
RACCORDO
100
AcDbLine
 62
253
  6
CONTINUOUS
 10
-45.2449737308
 20
-21.8461021525
 11
-45.2604384536
 21
-14.5669359818
  0
LINE
  5
257
100
AcDbEntity
  8
RACCORDO
100
AcDbLine
 62
253
  6
CONTINUOUS
 10
-45.7597532489
 20
-14.5834397175
 11
-45.7690327639
 21
-7.2926778504
  0
LINE
  5
258
100
AcDbEntity
  8
RACCORDO
100
AcDbLine
 62
253
  6
CONTINUOUS
 10
-45.2604384536
 20
-14.5669359818
 11
-45.2697179895
 21
-7.2846612491
  0
LINE
  5
259
100
AcDbEntity
  8
RACCORDO
100
AcDbLine
 62
253
  6
CONTINUOUS
 10
-45.7690327639
 20
-7.2926778504
 11
-45.7721266469
 21
-0.0000000449
  0
LINE
  5
25A
100
AcDbEntity
  8
RACCORDO
100
AcDbLine
 62
253
  6
CONTINUOUS
 10
-45.2697179895
 20
-7.2846612491
 11
-45.2728118795
 21
0.0000046778
  0
LINE
  5
25B
100
AcDbEntity
  8
0
100
AcDbLine
 62
7
  6
CONTINUOUS
 10
-45.1
 20
-21.7010963722
 11
-45.1
 21
21.7010963722
  0
LINE
  5
25C
100
AcDbEntity
  8
RACCORDO
100
AcDbLine
 62
253
  6
CONTINUOUS
 10
-44.4426456448
 20
23.1675430277
 11
-44.4426456448
 21
22.6415492726
  0
LINE
  5
25D
100
AcDbEntity
  8
RACCORDO
100
AcDbLine
 62
253
  6
CONTINUOUS
 10
-44.4426456448
 20
-23.1675430277
 11
-44.4426456448
 21
-22.6415492726
  0
LINE
  5
25E
100
AcDbEntity
  8
RACCORDO
100
AcDbLine
 62
253
  6
CONTINUOUS
 10
-45.7721266469
 20
-0.0000000449
 11
-45.7690327641
 21
7.2926777695
  0
LINE
  5
25F
100
AcDbEntity
  8
RACCORDO
100
AcDbLine
 62
253
  6
CONTINUOUS
 10
-45.2728118795
 20
0.0000046778
 11
-45.269717977
 21
7.2846728244
  0
LINE
  5
260
100
AcDbEntity
  8
RACCORDO
100
AcDbLine
 62
253
  6
CONTINUOUS
 10
-45.7690327641
 20
7.2926777695
 11
-45.7597532492
 21
14.5834396663
  0
LINE
  5
261
100
AcDbEntity
  8
RACCORDO
100
AcDbLine
 62
253
  6
CONTINUOUS
 10
-45.269717977
 20
7.2846728244
 11
-45.2604384523
 21
14.5669384586
  0
LINE
  5
262
100
AcDbEntity
  8
RACCORDO
100
AcDbLine
 62
253
  6
CONTINUOUS
 10
-45.7597532492
 20
14.5834396663
 11
-45.7442885593
 21
21.8703705759
  0
LINE
  5
263
100
AcDbEntity
  8
RACCORDO
100
AcDbLine
 62
253
  6
CONTINUOUS
 10
-45.2604384523
 20
14.5669384586
 11
-45.2449737716
 21
21.8460808361
  0
LWPOLYLINE
  5
264
100
AcDbEntity
  8
RACCORDO
100
AcDbPolyline
 62
253
  6
CONTINUOUS
 90
13
 70
0
 10
-45.7442885593
 20
21.8703705759
 10
-45.7424155439
 20
21.9398583102
 10
-45.7366078772
 20
22.0094119758
 10
-45.7268655593
 20
22.0790315696
 10
-45.71317883
 20
22.1490872379
 10
-45.6955574495
 20
22.2192088224
 10
-45.6740306982
 20
22.2882858881
 10
-45.6484214608
 20
22.3563516252
 10
-45.6189068525
 20
22.4233728872
 10
-45.5860474991
 20
22.4881397869
 10
-45.5500302758
 20
22.5502490714
 10
-45.5106683073
 20
22.6101040923
 10
-45.4679615936
 20
22.6677048937
  0
LWPOLYLINE
  5
265
100
AcDbEntity
  8
RACCORDO
100
AcDbPolyline
 62
253
  6
CONTINUOUS
 90
13
 70
0
 10
-45.2449737619
 20
21.8460808265
 10
-45.2437328644
 20
21.8886036479
 10
-45.2401738482
 20
21.9314160131
 10
-45.2342389437
 20
21.9743886709
 10
-45.2258591596
 20
22.0174673069
 10
-45.2150003536
 20
22.0604256281
 10
-45.2017087855
 20
22.1028768866
 10
-45.1859804906
 20
22.144722119
 10
-45.1678500493
 20
22.1857771256
 10
-45.1475336802
 20
22.2255624421
 10
-45.1251945359
 20
22.2638604283
 10
-45.1008761538
 20
22.3006865786
 10
-45.0746817863
 20
22.3359476087
  0
LWPOLYLINE
  5
266
100
AcDbEntity
  8
RACCORDO
100
AcDbPolyline
 62
253
  6
CONTINUOUS
 90
16
 70
0
 10
-45.4679615936
 20
22.6677048937
 10
-45.4176363365
 20
22.7282260377
 10
-45.3640214126
 20
22.7853193983
 10
-45.3071168218
 20
22.8389851477
 10
-45.2466845071
 20
22.8894314127
 10
-45.1829625256
 20
22.936450379
 10
-45.1166650489
 20
22.9794183208
 10
-45.0477053311
 20
23.0182859396
 10
-44.9761701182
 20
23.0531028413
 10
-44.9030338202
 20
23.0833936784
 10
-44.8282470336
 20
23.1090594703
 10
-44.7518591619
 20
23.1301994383
 10
-44.6749928251
 20
23.1466355292
 10
-44.59802223
 20
23.1583084353
 10
-44.5205731699
 20
23.1652775911
 10
-44.4426456448
 20
23.1675430277
  0
LWPOLYLINE
  5
267
100
AcDbEntity
  8
RACCORDO
100
AcDbPolyline
 62
253
  6
CONTINUOUS
 90
16
 70
0
 10
-45.0746817863
 20
22.3359476087
 10
-45.0437618923
 20
22.3729022731
 10
-45.0106074445
 20
22.4079839709
 10
-44.9753289471
 20
22.4410553377
 10
-44.9380428765
 20
22.4719860679
 10
-44.8988791706
 20
22.5006510469
 10
-44.8579817087
 20
22.5269320676
 10
-44.8154571622
 20
22.5507405148
 10
-44.7714905275
 20
22.5719537109
 10
-44.7263647211
 20
22.5904376773
 10
-44.6802422154
 20
22.6061366446
 10
-44.6333044135
 20
22.6189995156
 10
-44.5858844933
 20
22.6289643234
 10
-44.5382162373
 20
22.6360279061
 10
-44.4904248799
 20
22.6402149606
 10
-44.4426840957
 20
22.6415493366
  0
LWPOLYLINE
  5
268
100
AcDbEntity
  8
RACCORDO
100
AcDbPolyline
 62
253
  6
CONTINUOUS
 90
28
 70
0
 10
71.1281758769
 20
-44.8768054117
 10
71.1858790912
 20
-44.8750806058
 10
71.2433273885
 20
-44.8700102287
 10
71.3003303845
 20
-44.8616171492
 10
71.3566620052
 20
-44.8499439897
 10
71.4121751202
 20
-44.8350306373
 10
71.4667964506
 20
-44.8168925971
 10
71.520393801
 20
-44.7955529004
 10
71.5727268303
 20
-44.771086409
 10
71.6235626186
 20
-44.743592966
 10
71.6727052357
 20
-44.713175756
 10
71.7200127188
 20
-44.6799207097
 10
71.7653430184
 20
-44.6439229412
 10
71.808541784
 20
-44.6052929096
 10
71.8494543358
 20
-44.5641569719
 10
71.8879446408
 20
-44.5206436514
 10
71.9238754279
 20
-44.4748915901
 10
71.9571166854
 20
-44.4270494968
 10
71.9875534477
 20
-44.3772716237
 10
72.0150750393
 20
-44.3257147992
 10
72.039574811
 20
-44.2725531665
 10
72.0609589176
 20
-44.2179774542
 10
72.0791446967
 20
-44.1621714079
 10
72.0940619639
 20
-44.105319636
 10
72.1056541505
 20
-44.047622577
 10
72.1138742693
 20
-43.9892780405
 10
72.1186841964
 20
-43.9304802998
 10
72.1200585586
 20
-43.8714290238
  0
LWPOLYLINE
  5
269
100
AcDbEntity
  8
RACCORDO
100
AcDbPolyline
 62
253
  6
CONTINUOUS
 90
28
 70
0
 10
71.1281758769
 20
-44.6316825048
 10
71.1687038743
 20
-44.6304780836
 10
71.2088119933
 20
-44.626961863
 10
71.2485002339
 20
-44.6211338159
 10
71.287882471
 20
-44.6129688545
 10
71.3268448297
 20
-44.6024919575
 10
71.3650456852
 20
-44.5897781721
 10
71.4025079896
 20
-44.5747958048
 10
71.4392087907
 20
-44.5575763404
 10
71.4747376072
 20
-44.538289581
 10
71.5090663946
 20
-44.5169205958
 10
71.5422231974
 20
-44.4934840338
 10
71.5738816675
 20
-44.4681940731
 10
71.6040327652
 20
-44.4410301138
 10
71.6326855302
 20
-44.4120124308
 10
71.6595407336
 20
-44.3814165412
 10
71.6845831099
 20
-44.3492228294
 10
71.7078279245
 20
-44.3154505818
 10
71.729021745
 20
-44.2804337214
 10
71.7481438556
 20
-44.2441561065
 10
71.7652149721
 20
-44.2066335864
 10
71.7800438091
 20
-44.1682481484
 10
71.7926064825
 20
-44.1289768997
 10
71.8029268766
 20
-44.0888425141
 10
71.8108853584
 20
-44.0482954332
 10
71.8164420505
 20
-44.0074857957
 10
71.8196368304
 20
-43.9662633712
 10
71.8204696982
 20
-43.9246281065
  0
LWPOLYLINE
  5
26A
100
AcDbEntity
  8
RACCORDO
100
AcDbPolyline
 62
253
  6
CONTINUOUS
 90
19
 70
0
 10
71.8204696982
 20
-43.9246280943
 10
71.8457596656
 20
-43.924207405
 10
71.8708695746
 20
-43.9234109463
 10
71.8956206487
 20
-43.9222443888
 10
71.9198366663
 20
-43.9207160381
 10
71.9433452151
 20
-43.9188367757
 10
71.9659789199
 20
-43.9166199815
 10
71.9875766343
 20
-43.9140814385
 10
72.0079845877
 20
-43.9112392206
 10
72.0270574805
 20
-43.9081135635
 10
72.0446595182
 20
-43.9047267214
 10
72.0606653787
 20
-43.9011028076
 10
72.074961104
 20
-43.8972676235
 10
72.087444912
 20
-43.8932484748
 10
72.0980279211
 20
-43.8890739767
 10
72.1066347828
 20
-43.8847738508
 10
72.1132042183
 20
-43.8803787129
 10
72.1176894548
 20
-43.8759198552
 10
72.1200585586
 20
-43.8714290238
  0
LINE
  5
26B
100
AcDbEntity
  8
RACCORDO
100
AcDbLine
 62
7
  6
CONTINUOUS
 10
-71.2513704652
 20
-45.0
 11
71.2513704652
 21
-45.0
  0
LINE
  5
26C
100
AcDbEntity
  8
RACCORDO
100
AcDbLine
 62
253
  6
CONTINUOUS
 10
-71.1281758769
 20
-44.8768054117
 11
71.1281758769
 21
-44.8768054117
  0
LINE
  5
26D
100
AcDbEntity
  8
RACCORDO
100
AcDbLine
 62
253
  6
CONTINUOUS
 10
-71.1281758769
 20
-44.6316825048
 11
71.1281758769
 21
-44.6316825048
  0
LWPOLYLINE
  5
26E
100
AcDbEntity
  8
RACCORDO
100
AcDbPolyline
 62
253
  6
CONTINUOUS
 90
19
 70
0
 10
-71.8204696982
 20
-43.9246280955
 10
-71.845759238
 20
-43.9242073328
 10
-71.8708686854
 20
-43.9234108103
 10
-71.8956192716
 20
-43.9222441987
 10
-71.9198347824
 20
-43.9207158039
 10
-71.9433428136
 20
-43.9188365074
 10
-71.9659759974
 20
-43.9166196889
 10
-71.9875731949
 20
-43.9140811314
 10
-72.0079806431
 20
-43.9112389082
 10
-72.0270530492
 20
-43.9081132548
 10
-72.0446546255
 20
-43.9047264246
 10
-72.0606600561
 20
-43.9011025304
 10
-72.0749553888
 20
-43.8972673728
 10
-72.0874388469
 20
-43.8932482565
 10
-72.0980215531
 20
-43.889073796
 10
-72.106628163
 20
-43.8847737118
 10
-72.113197401
 20
-43.8803786186
 10
-72.1176824969
 20
-43.8759198077
 10
-72.1200515186
 20
-43.871429024
  0
LWPOLYLINE
  5
26F
100
AcDbEntity
  8
0
100
AcDbPolyline
 62
7
  6
CONTINUOUS
 90
25
 70
0
 10
3.6000188023
 20
-26.110807341
 10
3.6597713456
 20
-26.1021026191
 10
3.719484698
 20
-26.0939040547
 10
3.7791588594
 20
-26.0862116529
 10
3.8387555588
 20
-26.0789737834
 10
3.8983130672
 20
-26.0722420859
 10
3.957946198
 20
-26.0661714724
 10
4.0176671202
 20
-26.0607553445
 10
4.0774636648
 20
-26.0560003102
 10
4.1374141378
 20
-26.0520810922
 10
4.1975301568
 20
-26.0489904046
 10
4.2578001042
 20
-26.0467355407
 10
4.318267434
 20
-26.0455130932
 10
4.3789941944
 20
-26.0453205368
 10
4.4399183372
 20
-26.0461603986
 10
4.500897171
 20
-26.0482368473
 10
4.5619375208
 20
-26.0514818048
 10
4.6230325617
 20
-26.0559633411
 10
4.6840191279
 20
-26.0620898412
 10
4.7450311776
 20
-26.0697724087
 10
4.8059347526
 20
-26.0790999115
 10
4.8661648129
 20
-26.0907473664
 10
4.9255330118
 20
-26.1049397495
 10
4.9842276959
 20
-26.1214520054
 10
5.0422488653
 20
-26.1402840852
  0
LWPOLYLINE
  5
270
100
AcDbEntity
  8
0
100
AcDbPolyline
 62
7
  6
CONTINUOUS
 90
31
 70
0
 10
4.4966806463
 20
-27.3236280866
 10
4.5211194216
 20
-27.3228429404
 10
4.545415633
 20
-27.3212872226
 10
4.5695692806
 20
-27.3189609316
 10
4.5936556119
 20
-27.3159152979
 10
4.6175993794
 20
-27.3120990853
 10
4.6411748401
 20
-27.3073585898
 10
4.6643783114
 20
-27.301704831
 10
4.6872134761
 20
-27.295126776
 10
4.7094656388
 20
-27.2874376373
 10
4.7311733873
 20
-27.2786271553
 10
4.7522981339
 20
-27.2687055639
 10
4.7725094206
 20
-27.2575168097
 10
4.7917693527
 20
-27.2450067327
 10
4.810115825
 20
-27.2312294503
 10
4.8273320636
 20
-27.2161913203
 10
4.8433426618
 20
-27.1997972661
 10
4.8582230263
 20
-27.1821423078
 10
4.8719826035
 20
-27.1635179515
 10
4.8846145236
 20
-27.1439296656
 10
4.8961256562
 20
-27.1233719307
 10
4.9065460566
 20
-27.1021197848
 10
4.9158866187
 20
-27.0801914687
 10
4.9241364484
 20
-27.0575687013
 10
4.9312929189
 20
-27.0344717514
 10
4.9373778875
 20
-27.0108846428
 10
4.9423694968
 20
-26.9868233219
 10
4.9461995477
 20
-26.9625559568
 10
4.948845307
 20
-26.9381719368
 10
4.9503295078
 20
-26.9135818619
 10
4.9506521501
 20
-26.8887857259
  0
LINE
  5
271
100
AcDbEntity
  8
0
100
AcDbLine
 62
7
  6
CONTINUOUS
 10
5.6391482119
 20
-28.8778013544
 11
5.0770156219
 21
-28.8778013544
  0
LINE
  5
272
100
AcDbEntity
  8
0
100
AcDbLine
 62
7
  6
CONTINUOUS
 10
4.1820753449
 20
-28.8778013544
 11
3.6000188023
 21
-28.8778013544
  0
LINE
  5
273
100
AcDbEntity
  8
0
100
AcDbLine
 62
7
  6
CONTINUOUS
 10
3.298408
 20
-28.877801
 11
2.682466
 21
-28.877801
  0
LINE
  5
274
100
AcDbEntity
  8
0
100
AcDbLine
 62
7
  6
CONTINUOUS
 10
1.573947
 20
-28.877801
 11
0.99588
 21
-28.877801
  0
LINE
  5
275
100
AcDbEntity
  8
0
100
AcDbLine
 62
7
  6
CONTINUOUS
 10
0.694112
 20
-28.877801
 11
0.122406
 21
-28.877801
  0
LINE
  5
276
100
AcDbEntity
  8
0
100
AcDbLine
 62
7
  6
CONTINUOUS
 10
-0.692524
 20
-28.877801
 11
-0.774487
 21
-28.877801
  0
LINE
  5
277
100
AcDbEntity
  8
0
100
AcDbLine
 62
7
  6
CONTINUOUS
 10
-1.586183
 20
-28.877801
 11
-2.145272
 21
-28.877801
  0
LINE
  5
278
100
AcDbEntity
  8
0
100
AcDbLine
 62
7
  6
CONTINUOUS
 10
-2.449877
 20
-28.877801
 11
-3.034285
 21
-28.877801
  0
LINE
  5
279
100
AcDbEntity
  8
0
100
AcDbLine
 62
7
  6
CONTINUOUS
 10
-4.231097
 20
-28.877801
 11
-4.746107
 21
-28.877801
  0
LINE
  5
27A
100
AcDbEntity
  8
0
100
AcDbLine
 62
7
  6
CONTINUOUS
 10
2.531074
 20
-28.318881
 11
1.735207
 21
-28.318881
  0
LINE
  5
27B
100
AcDbEntity
  8
0
100
AcDbLine
 62
7
  6
CONTINUOUS
 10
2.41428
 20
-27.886391
 11
1.854751
 21
-27.886391
  0
LINE
  5
27C
100
AcDbEntity
  8
0
100
AcDbLine
 62
7
  6
CONTINUOUS
 10
4.4954209623
 20
-27.7821519248
 11
4.1820753449
 21
-27.7821519248
  0
LINE
  5
27D
100
AcDbEntity
  8
0
100
AcDbLine
 62
7
  6
CONTINUOUS
 10
4.4966806432
 20
-27.3236280866
 11
4.1626972541
 21
-27.3236280866
  0
LINE
  5
27E
100
AcDbEntity
  8
0
100
AcDbLine
 62
7
  6
CONTINUOUS
 10
2.43939
 20
-26.078098
 11
1.874045
 21
-26.078098
  0
LINE
  5
27F
100
AcDbEntity
  8
0
100
AcDbLine
 62
7
  6
CONTINUOUS
 10
0.432308
 20
-26.078098
 11
-0.145906
 21
-26.078098
  0
LINE
  5
280
100
AcDbEntity
  8
0
100
AcDbLine
 62
7
  6
CONTINUOUS
 10
-1.30855
 20
-26.078098
 11
-1.892475
 21
-26.078098
  0
LINE
  5
281
100
AcDbEntity
  8
0
100
AcDbLine
 62
7
  6
CONTINUOUS
 10
-3.33116
 20
-26.078098
 11
-3.915169
 21
-26.078098
  0
LINE
  5
282
100
AcDbEntity
  8
0
100
AcDbLine
 62
7
  6
CONTINUOUS
 10
-4.99882
 20
-26.078098
 11
-5.633668
 21
-26.078098
  0
LINE
  5
283
100
AcDbEntity
  8
0
100
AcDbLine
 62
7
  6
CONTINUOUS
 10
-2.449877
 20
-26.07793
 11
-3.034285
 21
-26.07793
  0
LWPOLYLINE
  5
284
100
AcDbEntity
  8
0
100
AcDbPolyline
 62
7
  6
CONTINUOUS
 90
10
 70
0
 10
4.6205134471
 20
-26.5385722443
 10
4.5718458297
 20
-26.5336539575
 10
4.5225684625
 20
-26.5304073571
 10
4.4726813455
 20
-26.5288324503
 10
4.4221050953
 20
-26.5289082669
 10
4.3709190953
 20
-26.5306557805
 10
4.3193614961
 20
-26.5341379081
 10
4.2675116813
 20
-26.5393756154
 10
4.2152902673
 20
-26.5463479167
 10
4.1626972541
 20
-26.5550547959
  0
LINE
  5
285
100
AcDbEntity
  8
RACCORDO
100
AcDbLine
 62
253
  6
CONTINUOUS
 10
-72.1200585586
 20
-43.8714290238
 11
-72.25
 21
-44.0013704652
  0
LINE
  5
286
100
AcDbEntity
  8
RACCORDO
100
AcDbLine
 62
253
  6
CONTINUOUS
 10
-71.1281758769
 20
-44.8768054117
 11
-71.2513704652
 21
-45.0
  0
LWPOLYLINE
  5
287
100
AcDbEntity
  8
RACCORDO
100
AcDbPolyline
 62
253
  6
CONTINUOUS
 90
16
 70
0
 10
-45.619093969
 20
-21.8692779856
 10
-45.5787508969
 20
-21.8685789918
 10
-45.5395852216
 20
-21.8677199025
 10
-45.5018755116
 20
-21.8667068282
 10
-45.4658899793
 20
-21.8655469743
 10
-45.4318845742
 20
-21.8642485904
 10
-45.4001011618
 20
-21.8628209112
 10
-45.3707658036
 20
-21.8612740914
 10
-45.344087149
 20
-21.8596191327
 10
-45.3202549518
 20
-21.8578678061
 10
-45.2994387199
 20
-21.856032568
 10
-45.28178651
 20
-21.8541264717
 10
-45.2674238746
 20
-21.8521630745
 10
-45.2564529687
 20
-21.850156341
 10
-45.2489518238
 20
-21.8481205443
 10
-45.244973792
 20
-21.8460701642
  0
LWPOLYLINE
  5
288
100
AcDbEntity
  8
RACCORDO
100
AcDbPolyline
 62
253
  6
CONTINUOUS
 90
17
 70
0
 10
71.7431469953
 20
-22.667357485
 10
71.7678871765
 20
-22.6670254536
 10
71.7920930806
 20
-22.6665907705
 10
71.8155925403
 20
-22.6660565275
 10
71.8382184134
 20
-22.6654265243
 10
71.8598097709
 20
-22.664705242
 10
71.8802130421
 20
-22.6638978107
 10
71.8992831066
 20
-22.6630099734
 10
71.9168843265
 20
-22.6620480449
 10
71.9328915112
 20
-22.6610188671
 10
71.9471908081
 20
-22.6599297601
 10
71.9596805118
 20
-22.6587884702
 10
71.9702717881
 20
-22.657603115
 10
71.9788893053
 20
-22.6563821255
 10
71.9854717705
 20
-22.6551341861
 10
71.9899723652
 20
-22.6538681728
 10
71.9923590785
 20
-22.6525930904
  0
LINE
  5
289
100
AcDbEntity
  8
RACCORDO
100
AcDbLine
 62
253
  6
CONTINUOUS
 10
71.6927702181
 20
-22.6677048932
 11
71.7431469953
 21
-22.667357485
  0
LWPOLYLINE
  5
28A
100
AcDbEntity
  8
RACCORDO
100
AcDbPolyline
 62
253
  6
CONTINUOUS
 90
3
 70
0
 10
-45.7442885593
 20
-21.8703705753
 10
-45.7021581999
 20
-21.8701769744
 10
-45.619093969
 20
-21.8692779856
  0
LINE
  5
28B
100
AcDbEntity
  8
RACCORDO
100
AcDbLine
 62
253
  6
CONTINUOUS
 10
44.4426456448
 20
-23.1675430277
 11
-44.4426456448
 21
-23.1675430277
  0
LINE
  5
28C
100
AcDbEntity
  8
RACCORDO
100
AcDbLine
 62
253
  6
CONTINUOUS
 10
71.6927701044
 20
-22.6676475367
 11
45.4679615936
 21
-22.6677048937
  0
LINE
  5
28D
100
AcDbEntity
  8
RACCORDO
100
AcDbLine
 62
253
  6
CONTINUOUS
 10
-45.4679615936
 20
-22.6677048937
 11
-71.6927701041
 21
-22.6676473889
  0
LINE
  5
28E
100
AcDbEntity
  8
RACCORDO
100
AcDbLine
 62
253
  6
CONTINUOUS
 10
44.4426840308
 20
-22.6415492726
 11
-44.4426540141
 21
-22.6415492726
  0
LINE
  5
28F
100
AcDbEntity
  8
0
100
AcDbLine
 62
7
  6
CONTINUOUS
 10
44.3010963722
 20
-22.5
 11
-44.3010963722
 21
-22.5
  0
LWPOLYLINE
  5
290
100
AcDbEntity
  8
RACCORDO
100
AcDbPolyline
 62
253
  6
CONTINUOUS
 90
18
 70
0
 10
45.7442885593
 20
-21.8703704105
 10
45.6603272302
 20
-21.8698117862
 10
45.6190935311
 20
-21.8692778769
 10
45.5787502659
 20
-21.8685788992
 10
45.5395843821
 20
-21.8677198246
 10
45.5018744527
 20
-21.8667067634
 10
45.4658886954
 20
-21.8655469213
 10
45.4318830641
 20
-21.8642485476
 10
45.4000994291
 20
-21.8628208775
 10
45.370763856
 20
-21.8612740652
 10
45.3440849987
 20
-21.8596191129
 10
45.3202526143
 20
-21.8578677915
 10
45.2994362143
 20
-21.8560325576
 10
45.2817838585
 20
-21.8541264646
 10
45.2674211019
 20
-21.8521630699
 10
45.2564501016
 20
-21.8501563383
 10
45.2489488906
 20
-21.8481205432
 10
45.2449708223
 20
-21.8460701642
  0
LWPOLYLINE
  5
291
100
AcDbEntity
  8
RACCORDO
100
AcDbPolyline
 62
253
  6
CONTINUOUS
 90
18
 70
0
 10
-71.6927702181
 20
-22.6677048929
 10
-71.7431469947
 20
-22.6673574847
 10
-71.7678871757
 20
-22.6670254534
 10
-71.7920930795
 20
-22.6665907703
 10
-71.815592539
 20
-22.6660565272
 10
-71.8382184119
 20
-22.6654265241
 10
-71.8598097693
 20
-22.6647052418
 10
-71.8802130404
 20
-22.6638978105
 10
-71.8992831048
 20
-22.6630099732
 10
-71.9168843246
 20
-22.6620480448
 10
-71.9328915094
 20
-22.661018867
 10
-71.9471908064
 20
-22.65992976
 10
-71.9596805103
 20
-22.6587884701
 10
-71.9702717867
 20
-22.6576031149
 10
-71.9788893042
 20
-22.6563821254
 10
-71.9854717697
 20
-22.655134186
 10
-71.9899723648
 20
-22.6538681728
 10
-71.9923590785
 20
-22.6525930904
  0
LWPOLYLINE
  5
292
100
AcDbEntity
  8
RACCORDO
100
AcDbPolyline
 62
253
  6
CONTINUOUS
 90
31
 70
0
 10
-44.4426540284
 20
-22.6415492868
 10
-44.4685715428
 20
-22.6411766217
 10
-44.4941483086
 20
-22.6399902412
 10
-44.5193598364
 20
-22.6380213654
 10
-44.5441575594
 20
-22.6353048929
 10
-44.5685469879
 20
-22.6318708052
 10
-44.5925865257
 20
-22.6277361186
 10
-44.6162571518
 20
-22.622925904
 10
-44.6395423219
 20
-22.6174652554
 10
-44.6625035
 20
-22.6113574038
 10
-44.6851237762
 20
-22.6046211375
 10
-44.7073879565
 20
-22.5972752906
 10
-44.729357538
 20
-22.5893098196
 10
-44.751016237
 20
-22.5807374936
 10
-44.7723480612
 20
-22.5715715339
 10
-44.7934106964
 20
-22.5617899132
 10
-44.8141866017
 20
-22.5514000849
 10
-44.8346576616
 20
-22.5404103505
 10
-44.8548749003
 20
-22.5287881763
 10
-44.8748176077
 20
-22.5165367289
 10
-44.8944645253
 20
-22.5036600554
 10
-44.9138585502
 20
-22.490116087
 10
-44.9329740103
 20
-22.4759048756
 10
-44.9517853866
 20
-22.4610268761
 10
-44.9703268441
 20
-22.4454305803
 10
-44.9885650162
 20
-22.4291150656
 10
-45.0064697137
 20
-22.4120770846
 10
-45.0240685995
 20
-22.3942519821
 10
-45.0413414542
 20
-22.3756131463
 10
-45.0582265124
 20
-22.3561786662
 10
-45.0746817863
 20
-22.3359476087
  0
LWPOLYLINE
  5
293
100
AcDbEntity
  8
RACCORDO
100
AcDbPolyline
 62
253
  6
CONTINUOUS
 90
31
 70
0
 10
-44.4426456448
 20
-23.1675430277
 10
-44.484757785
 20
-23.1667780232
 10
-44.5262417124
 20
-23.1647901401
 10
-44.5670974269
 20
-23.1615793761
 10
-44.6073144577
 20
-23.1571056169
 10
-44.6469032756
 20
-23.1514089677
 10
-44.6858952933
 20
-23.1446097537
 10
-44.7242861162
 20
-23.1367224701
 10
-44.7620801389
 20
-23.1277326063
 10
-44.7993219574
 20
-23.1177169786
 10
-44.8360106709
 20
-23.1066893212
 10
-44.8721471802
 20
-23.0946358794
 10
-44.9077787838
 20
-23.0815922361
 10
-44.9429085046
 20
-23.067570822
 10
-44.9775333197
 20
-23.0525591811
 10
-45.0116914586
 20
-23.0365555655
 10
-45.0453891411
 20
-23.0195707419
 10
-45.0786201473
 20
-23.0015939131
 10
-45.1114040483
 20
-22.9825909838
 10
-45.143749458
 20
-22.9625712578
 10
-45.1756477623
 20
-22.9415253944
 10
-45.2070926897
 20
-22.9193913273
 10
-45.2380948056
 20
-22.8961772198
 10
-45.2686435446
 20
-22.8718748636
 10
-45.2987009393
 20
-22.8463976308
 10
-45.3282798725
 20
-22.8197529995
 10
-45.3573674613
 20
-22.7919334365
 10
-45.3858870895
 20
-22.7628297909
 10
-45.4138132182
 20
-22.7324056551
 10
-45.4411713862
 20
-22.700697368
 10
-45.4679615936
 20
-22.6677048937
  0
LWPOLYLINE
  5
294
100
AcDbEntity
  8
0
100
AcDbPolyline
 62
7
  6
CONTINUOUS
 90
48
 70
0
 10
5.0422488653
 20
-26.1402840852
 10
5.0734660486
 20
-26.152912768
 10
5.1048883244
 20
-26.168193296
 10
5.1365156929
 20
-26.1861256168
 10
5.1684882724
 20
-26.2066035878
 10
5.2006659445
 20
-26.229733222
 10
5.2326283543
 20
-26.2558326775
 10
5.2646184535
 20
-26.2849609876
 10
5.2963932905
 20
-26.3170589039
 10
5.3268036545
 20
-26.3522671293
 10
5.3559514209
 20
-26.3910549792
 10
5.3837347143
 20
-26.4329528193
 10
5.4086986984
 20
-26.4766929719
 10
5.4304948194
 20
-26.5225353345
 10
5.4494716311
 20
-26.5702197753
 10
5.465219958
 20
-26.6176987626
 10
5.4773270675
 20
-26.6646892001
 10
5.4862056922
 20
-26.7114742141
 10
5.4926848546
 20
-26.7568558105
 10
5.4968016646
 20
-26.8004986432
 10
5.4985190122
 20
-26.8427382336
 10
5.4985545895
 20
-26.8833829713
 10
5.4970093254
 20
-26.9223352304
 10
5.493782291
 20
-26.9596928085
 10
5.4892883907
 20
-26.9955572317
 10
5.4835463208
 20
-27.0299395473
 10
5.4765373851
 20
-27.0628288486
 10
5.4686203995
 20
-27.094293718
 10
5.4598097958
 20
-27.1243223838
 10
5.4500911421
 20
-27.1529267373
 10
5.4397799586
 20
-27.1802108443
 10
5.4289087269
 20
-27.2061631747
 10
5.4174449653
 20
-27.2307953555
 10
5.4056067495
 20
-27.2542461761
 10
5.3934149083
 20
-27.2765264387
 10
5.3808486129
 20
-27.2976254158
 10
5.3680634518
 20
-27.3176495918
 10
5.3550647846
 20
-27.3365952553
 10
5.3418472518
 20
-27.3544661763
 10
5.3285503636
 20
-27.3713800526
 10
5.3151655094
 20
-27.3873093947
 10
5.3017013
 20
-27.4022817367
 10
5.2883230769
 20
-27.4164973021
 10
5.275043205
 20
-27.4299647669
 10
5.2618493196
 20
-27.4426754844
 10
5.2488696684
 20
-27.4548036861
 10
5.2361326017
 20
-27.4663586733
 10
5.2236097692
 20
-27.4773311641
  0
LWPOLYLINE
  5
295
100
AcDbEntity
  8
0
100
AcDbPolyline
 62
7
  6
CONTINUOUS
 90
3
 70
0
 10
5.1025031649
 20
-27.5709244369
 10
5.1300948793
 20
-27.5841404436
 10
5.1558675584
 20
-27.5987855186
  0
LWPOLYLINE
  5
296
100
AcDbEntity
  8
0
100
AcDbPolyline
 62
7
  6
CONTINUOUS
 90
22
 70
0
 10
5.1558675584
 20
-27.5987855186
 10
5.1798212023
 20
-27.6148596318
 10
5.201839815
 20
-27.632628516
 10
5.2220393923
 20
-27.6518263639
 10
5.2407679223
 20
-27.6716558524
 10
5.2580008256
 20
-27.6919627009
 10
5.2737626815
 20
-27.7129011558
 10
5.2884752158
 20
-27.7341367151
 10
5.3021964204
 20
-27.7556341631
 10
5.3148683035
 20
-27.7774286971
 10
5.3267386157
 20
-27.7992914527
 10
5.3378346723
 20
-27.8212024324
 10
5.348129158
 20
-27.8431816291
 10
5.3577878773
 20
-27.8650601761
 10
5.3668163227
 20
-27.8867941605
 10
5.3752090018
 20
-27.9084275018
 10
5.383115242
 20
-27.9299230888
 10
5.3905275292
 20
-27.9512414117
 10
5.3974533775
 20
-27.972421989
 10
5.4040646569
 20
-27.9935462507
 10
5.410347954
 20
-28.0146106707
 10
5.4163166822
 20
-28.0356187779
  0
LINE
  5
297
100
AcDbEntity
  8
RACCORDO
100
AcDbLine
 62
253
  6
CONTINUOUS
 10
-72.1200585586
 20
43.8714290238
 11
-72.25
 21
44.0013704652
  0
LINE
  5
298
100
AcDbEntity
  8
RACCORDO
100
AcDbLine
 62
253
  6
CONTINUOUS
 10
-71.1281758769
 20
44.8768054117
 11
-71.2513704652
 21
45.0
  0
LINE
  5
299
100
AcDbEntity
  8
0
100
AcDbLine
 62
253
  6
CONTINUOUS
 10
-45.2449737308
 20
-21.8461021525
 11
-45.1
 21
-21.7010963722
  0
LINE
  5
29A
100
AcDbEntity
  8
0
100
AcDbLine
 62
253
  6
CONTINUOUS
 10
-44.4426540141
 20
-22.6415492726
 11
-44.3010963722
 21
-22.5
  0
LINE
  5
29B
100
AcDbEntity
  8
0
100
AcDbLine
 62
253
  6
CONTINUOUS
 10
-44.4426840308
 20
22.6415492726
 11
-44.3010963722
 21
22.5
  0
LINE
  5
29C
100
AcDbEntity
  8
0
100
AcDbLine
 62
253
  6
CONTINUOUS
 10
-45.2449737716
 20
21.8460808361
 11
-45.1
 21
21.7010963722
  0
LINE
  5
29D
100
AcDbEntity
  8
0
100
AcDbLine
 62
7
  6
CONTINUOUS
 10
-4.746107
 20
-28.877801
 11
-5.633668
 21
-26.078098
  0
LINE
  5
29E
100
AcDbEntity
  8
0
100
AcDbLine
 62
7
  6
CONTINUOUS
 10
-4.465146
 20
-28.00522
 11
-4.99882
 21
-26.078098
  0
LWPOLYLINE
  5
29F
100
AcDbEntity
  8
RACCORDO
100
AcDbPolyline
 62
253
  6
CONTINUOUS
 90
12
 70
0
 10
-45.2475272282
 20
-22.4909531968
 10
-45.2206627899
 20
-22.4686674846
 10
-45.1955802882
 20
-22.4476344712
 10
-45.1724604615
 20
-22.4280057154
 10
-45.1514699056
 20
-22.409922657
 10
-45.1327598731
 20
-22.3935155981
 10
-45.116465184
 20
-22.3789027639
 10
-45.1027032538
 20
-22.3661894508
 10
-45.0915732475
 20
-22.3554672678
 10
-45.0831553653
 20
-22.3468134762
 10
-45.0775102643
 20
-22.3402904331
 10
-45.0746786217
 20
-22.335945142
  0
LINE
  5
2A0
100
AcDbEntity
  8
RACCORDO
100
AcDbLine
 62
253
  6
CONTINUOUS
 10
-45.3058161556
 20
-22.5386325071
 11
-45.2475272282
 21
-22.4909531968
  0
LINE
  5
2A1
100
AcDbEntity
  8
RACCORDO
100
AcDbLine
 62
253
  6
CONTINUOUS
 10
-45.3687700344
 20
-22.5893006167
 11
-45.3058161556
 21
-22.5386325071
  0
LWPOLYLINE
  5
2A2
100
AcDbEntity
  8
RACCORDO
100
AcDbPolyline
 62
253
  6
CONTINUOUS
 90
3
 70
0
 10
-45.4679615935
 20
-22.6677046708
 10
-45.4345776132
 20
-22.6414997491
 10
-45.3687700344
 20
-22.5893006167
  0
LINE
  5
2A3
100
AcDbEntity
  8
RACCORDO
100
AcDbLine
 62
253
  6
CONTINUOUS
 10
-45.4679615937
 20
22.6677046126
 11
-45.4014340853
 21
22.6153020317
  0
LINE
  5
2A4
100
AcDbEntity
  8
RACCORDO
100
AcDbLine
 62
253
  6
CONTINUOUS
 10
-45.4014340853
 20
22.6153020317
 11
-45.3368204632
 21
22.5636823587
  0
LWPOLYLINE
  5
2A5
100
AcDbEntity
  8
RACCORDO
100
AcDbPolyline
 62
253
  6
CONTINUOUS
 90
14
 70
0
 10
-45.3368204632
 20
22.5636823587
 10
-45.2759797398
 20
22.5143307538
 10
-45.2475268796
 20
22.4909528815
 10
-45.2206623767
 20
22.4686671222
 10
-45.1955798109
 20
22.4476340624
 10
-45.1724599217
 20
22.4280052615
 10
-45.1514693062
 20
22.4099221605
 10
-45.1327592182
 20
22.3935150623
 10
-45.1164644786
 20
22.3789021927
 10
-45.1027025038
 20
22.3661888489
 10
-45.0915724596
 20
22.3554666405
 10
-45.0831545469
 20
22.3468128293
 10
-45.0775094232
 20
22.3402897727
 10
-45.0746777662
 20
22.3359444745
  0
LWPOLYLINE
  5
2A6
100
AcDbEntity
  8
0
100
AcDbPolyline
 62
7
  6
CONTINUOUS
 90
19
 70
0
 10
4.8214020748
 20
-28.0286629788
 10
4.8119785467
 20
-28.0055536074
 10
4.8013904544
 20
-27.9831746656
 10
4.7896377979
 20
-27.9615261779
 10
4.7766906139
 20
-27.9404990222
 10
4.7625788656
 20
-27.9202023653
 10
4.7473924428
 20
-27.9009636733
 10
4.7311446096
 20
-27.8827680043
 10
4.7138221018
 20
-27.8656303589
 10
4.6954750159
 20
-27.8499231335
 10
4.6760276972
 20
-27.8356609972
 10
4.6555558004
 20
-27.8228293443
 10
4.6343363856
 20
-27.8117566701
 10
4.6123305164
 20
-27.8025808439
 10
4.5895771293
 20
-27.7951640499
 10
4.5664700941
 20
-27.7894212543
 10
4.543140701
 20
-27.7853241202
 10
4.5194576598
 20
-27.7829010083
 10
4.4954209707
 20
-27.7821519248
  0
LINE
  5
2A7
100
AcDbEntity
  8
0
100
AcDbLine
 62
7
  6
CONTINUOUS
 10
-0.774487
 20
-28.877801
 11
-1.460068
 21
-27.049647
  0
LINE
  5
2A8
100
AcDbEntity
  8
0
100
AcDbLine
 62
7
  6
CONTINUOUS
 10
-0.730314
 20
-27.632502
 11
-1.30855
 21
-26.078098
  0
LINE
  5
2A9
100
AcDbEntity
  8
0
100
AcDbLine
 62
7
  6
CONTINUOUS
 10
0.694112
 20
-28.877801
 11
0.432308
 21
-26.078098
  0
LINE
  5
2AA
100
AcDbEntity
  8
0
100
AcDbLine
 62
7
  6
CONTINUOUS
 10
0.122406
 20
-28.877801
 11
0.002337
 21
-27.057269
  0
LINE
  5
2AB
100
AcDbEntity
  8
0
100
AcDbLine
 62
7
  6
CONTINUOUS
 10
-3.034285
 20
-28.877801
 11
-3.034285
 21
-26.07793
  0
LINE
  5
2AC
100
AcDbEntity
  8
0
100
AcDbLine
 62
7
  6
CONTINUOUS
 10
-2.449877
 20
-28.877801
 11
-2.449877
 21
-26.07793
  0
LINE
  5
2AD
100
AcDbEntity
  8
0
100
AcDbLine
 62
7
  6
CONTINUOUS
 10
-1.586183
 20
-28.877801
 11
-1.460068
 21
-27.049647
  0
LINE
  5
2AE
100
AcDbEntity
  8
0
100
AcDbLine
 62
7
  6
CONTINUOUS
 10
-2.145272
 20
-28.877801
 11
-1.892475
 21
-26.078098
  0
LINE
  5
2AF
100
AcDbEntity
  8
0
100
AcDbLine
 62
7
  6
CONTINUOUS
 10
3.298408
 20
-28.877801
 11
2.43939
 21
-26.078098
  0
LWPOLYLINE
  5
2B0
100
AcDbEntity
  8
0
100
AcDbPolyline
 62
7
  6
CONTINUOUS
 90
8
 70
0
 10
4.9109609454
 20
-28.3034369207
 10
4.8992767202
 20
-28.2638731598
 10
4.8873360744
 20
-28.2244173741
 10
4.8751387819
 20
-28.1850746126
 10
4.8624683817
 20
-28.145829339
 10
4.8492527204
 20
-28.1066763794
 10
4.8355639514
 20
-28.0676209234
 10
4.8214020748
 20
-28.0286629788
  0
LINE
  5
2B1
100
AcDbEntity
  8
0
100
AcDbLine
 62
7
  6
CONTINUOUS
 10
5.0770156219
 20
-28.8778013544
 11
4.9795527773
 21
-28.5437436803
  0
LWPOLYLINE
  5
2B2
100
AcDbEntity
  8
0
100
AcDbPolyline
 62
7
  6
CONTINUOUS
 90
4
 70
0
 10
4.9795527773
 20
-28.5437436803
 10
4.9564529783
 20
-28.4629991499
 10
4.9451345403
 20
-28.4228948137
 10
4.9109609454
 20
-28.3034369207
  0
LWPOLYLINE
  5
2B3
100
AcDbEntity
  8
0
100
AcDbPolyline
 62
7
  6
CONTINUOUS
 90
3
 70
0
 10
5.4163166822
 20
-28.0356187779
 10
5.4280174663
 20
-28.077772741
 10
5.4337495222
 20
-28.0989185932
  0
LINE
  5
2B4
100
AcDbEntity
  8
0
100
AcDbLine
 62
7
  6
CONTINUOUS
 10
2.682466
 20
-28.877801
 11
2.531074
 21
-28.318881
  0
LINE
  5
2B5
100
AcDbEntity
  8
0
100
AcDbLine
 62
7
  6
CONTINUOUS
 10
5.4337495222
 20
-28.0989185932
 11
5.5089493589
 21
-28.3809296838
  0
LINE
  5
2B6
100
AcDbEntity
  8
0
100
AcDbLine
 62
7
  6
CONTINUOUS
 10
5.5089493589
 20
-28.3809296838
 11
5.6391482119
 21
-28.8778013544
  0
LINE
  5
2B7
100
AcDbEntity
  8
0
100
AcDbLine
 62
7
  6
CONTINUOUS
 10
2.41428
 20
-27.886391
 11
2.145737
 21
-26.847385
  0
LWPOLYLINE
  5
2B8
100
AcDbEntity
  8
0
100
AcDbPolyline
 62
7
  6
CONTINUOUS
 90
19
 70
0
 10
4.9506521501
 20
-26.8887857259
 10
4.9491853618
 20
-26.8617065212
 10
4.9455687149
 20
-26.8347794184
 10
4.9398022094
 20
-26.8080044237
 10
4.9319440219
 20
-26.7812150237
 10
4.9219359758
 20
-26.7545777402
 10
4.9096035409
 20
-26.7285921502
 10
4.894818864
 20
-26.7030715526
 10
4.8777097982
 20
-26.6782026907
 10
4.8584853734
 20
-26.6550453595
 10
4.8369200757
 20
-26.6338011652
 10
4.8132394188
 20
-26.614268608
 10
4.7883289744
 20
-26.596902865
 10
4.7622727648
 20
-26.5818761395
 10
4.7349867676
 20
-26.5690163245
 10
4.7071044868
 20
-26.5582621328
 10
4.6788370905
 20
-26.549593153
 10
4.6499734106
 20
-26.5430298508
 10
4.6205134471
 20
-26.5385722443
  0
LINE
  5
2B9
100
AcDbEntity
  8
0
100
AcDbLine
 62
7
  6
CONTINUOUS
 10
3.6000188023
 20
-28.8778013544
 11
3.6000188023
 21
-26.110807341
  0
LINE
  5
2BA
100
AcDbEntity
  8
0
100
AcDbLine
 62
7
  6
CONTINUOUS
 10
4.1626972541
 20
-27.3236280866
 11
4.1626972541
 21
-26.5550547959
  0
LINE
  5
2BB
100
AcDbEntity
  8
0
100
AcDbLine
 62
7
  6
CONTINUOUS
 10
4.1820753449
 20
-28.8778013544
 11
4.1820753449
 21
-27.7821519248
  0
LINE
  5
2BC
100
AcDbEntity
  8
0
100
AcDbLine
 62
7
  6
CONTINUOUS
 10
5.1025031649
 20
-27.5709244369
 11
5.1025031649
 21
-27.554380628
  0
LINE
  5
2BD
100
AcDbEntity
  8
0
100
AcDbLine
 62
7
  6
CONTINUOUS
 10
-4.465146
 20
-28.00522
 11
-3.915169
 21
-26.078098
  0
LINE
  5
2BE
100
AcDbEntity
  8
0
100
AcDbLine
 62
7
  6
CONTINUOUS
 10
-4.231097
 20
-28.877801
 11
-3.33116
 21
-26.078098
  0
LINE
  5
2BF
100
AcDbEntity
  8
0
100
AcDbLine
 62
7
  6
CONTINUOUS
 10
1.854751
 20
-27.886391
 11
2.145737
 21
-26.847385
  0
LINE
  5
2C0
100
AcDbEntity
  8
0
100
AcDbLine
 62
7
  6
CONTINUOUS
 10
1.573947
 20
-28.877801
 11
1.735207
 21
-28.318881
  0
LINE
  5
2C1
100
AcDbEntity
  8
0
100
AcDbLine
 62
7
  6
CONTINUOUS
 10
0.99588
 20
-28.877801
 11
1.874045
 21
-26.078098
  0
LINE
  5
2C2
100
AcDbEntity
  8
0
100
AcDbLine
 62
7
  6
CONTINUOUS
 10
-0.730314
 20
-27.632502
 11
-0.145906
 21
-26.078098
  0
LINE
  5
2C3
100
AcDbEntity
  8
0
100
AcDbLine
 62
7
  6
CONTINUOUS
 10
-0.692524
 20
-28.877801
 11
0.002337
 21
-27.057269
  0
LWPOLYLINE
  5
2C4
100
AcDbEntity
  8
RACCORDO
100
AcDbPolyline
 62
253
  6
CONTINUOUS
 90
12
 70
0
 10
45.2475271439
 20
22.4909531247
 10
45.2206626907
 20
22.4686674018
 10
45.1955801744
 20
22.4476343779
 10
45.1724603337
 20
22.4280056119
 10
45.1514697646
 20
22.4099225439
 10
45.1327597199
 20
22.3935154762
 10
45.11646502
 20
22.378902634
 10
45.1027030804
 20
22.366189314
 10
45.0915730664
 20
22.3554671254
 10
45.0831551782
 20
22.3468133296
 10
45.0775100732
 20
22.3402902837
 10
45.0746784285
 20
22.3359449913
  0
LINE
  5
2C5
100
AcDbEntity
  8
RACCORDO
100
AcDbLine
 62
253
  6
CONTINUOUS
 10
45.3058161004
 20
22.5386324556
 11
45.2475271439
 21
22.4909531247
  0
LINE
  5
2C6
100
AcDbEntity
  8
RACCORDO
100
AcDbLine
 62
253
  6
CONTINUOUS
 10
45.3687700057
 20
22.5893005832
 11
45.3058161004
 21
22.5386324556
  0
LWPOLYLINE
  5
2C7
100
AcDbEntity
  8
RACCORDO
100
AcDbPolyline
 62
253
  6
CONTINUOUS
 90
3
 70
0
 10
45.4679615935
 20
22.6677046554
 10
45.4345776055
 20
22.6414997293
 10
45.3687700057
 20
22.5893005832
  0
LINE
  5
2C8
100
AcDbEntity
  8
RACCORDO
100
AcDbLine
 62
253
  6
CONTINUOUS
 10
45.4679615937
 20
-22.6677046126
 11
45.4014340853
 21
-22.6153020317
  0
LINE
  5
2C9
100
AcDbEntity
  8
RACCORDO
100
AcDbLine
 62
253
  6
CONTINUOUS
 10
45.4014340853
 20
-22.6153020317
 11
45.3368204632
 21
-22.5636823587
  0
LWPOLYLINE
  5
2CA
100
AcDbEntity
  8
RACCORDO
100
AcDbPolyline
 62
253
  6
CONTINUOUS
 90
14
 70
0
 10
45.3368204632
 20
-22.5636823587
 10
45.2759797398
 20
-22.5143307538
 10
45.2475268797
 20
-22.4909528815
 10
45.2206623767
 20
-22.4686671222
 10
45.1955798109
 20
-22.4476340624
 10
45.1724599217
 20
-22.4280052615
 10
45.1514693062
 20
-22.4099221605
 10
45.1327592182
 20
-22.3935150623
 10
45.1164644786
 20
-22.3789021927
 10
45.1027025038
 20
-22.3661888489
 10
45.0915724596
 20
-22.3554666405
 10
45.0831545469
 20
-22.3468128293
 10
45.0775094232
 20
-22.3402897727
 10
45.0746777662
 20
-22.3359444745
  0
LINE
  5
2CB
100
AcDbEntity
  8
0
100
AcDbLine
 62
253
  6
CONTINUOUS
 10
44.4426540141
 20
22.6415492726
 11
44.3010963722
 21
22.5
  0
LINE
  5
2CC
100
AcDbEntity
  8
0
100
AcDbLine
 62
253
  6
CONTINUOUS
 10
45.2449737296
 20
21.8461028089
 11
45.1
 21
21.7010963722
  0
LINE
  5
2CD
100
AcDbEntity
  8
RACCORDO
100
AcDbLine
 62
253
  6
CONTINUOUS
 10
71.1281758769
 20
44.8768054117
 11
71.2513704652
 21
45.0
  0
LINE
  5
2CE
100
AcDbEntity
  8
0
100
AcDbLine
 62
253
  6
CONTINUOUS
 10
44.4426840308
 20
-22.6415492726
 11
44.3010963722
 21
-22.5
  0
LINE
  5
2CF
100
AcDbEntity
  8
0
100
AcDbLine
 62
253
  6
CONTINUOUS
 10
45.2449737709
 20
-21.8460811902
 11
45.1
 21
-21.7010963722
  0
LINE
  5
2D0
100
AcDbEntity
  8
RACCORDO
100
AcDbLine
 62
253
  6
CONTINUOUS
 10
71.1281758769
 20
-44.8768054117
 11
71.2513704652
 21
-45.0
  0
LINE
  5
2D1
100
AcDbEntity
  8
RACCORDO
100
AcDbLine
 62
253
  6
CONTINUOUS
 10
72.1200585586
 20
43.8714290238
 11
72.25
 21
44.0013704652
  0
LWPOLYLINE
  5
2D2
100
AcDbEntity
  8
0
100
AcDbPolyline
 62
7
  6
CONTINUOUS
 90
10
 70
0
 10
5.2236097692
 20
-27.4773311641
 10
5.1994215772
 20
-27.4980627068
 10
5.1877562176
 20
-27.5078217707
 10
5.1761359536
 20
-27.5170060626
 10
5.1646542117
 20
-27.5257687892
 10
5.1532175654
 20
-27.5339567571
 10
5.1413333991
 20
-27.5409717374
 10
5.1288375076
 20
-27.5466143304
 10
5.1158940962
 20
-27.5510839581
 10
5.1025031649
 20
-27.554380628
  0
LWPOLYLINE
  5
2D3
100
AcDbEntity
  8
RACCORDO
100
AcDbPolyline
 62
253
  6
CONTINUOUS
 90
16
 70
0
 10
45.619093969
 20
21.8692779856
 10
45.5787508969
 20
21.8685789918
 10
45.5395852216
 20
21.8677199025
 10
45.5018755116
 20
21.8667068282
 10
45.4658899793
 20
21.8655469743
 10
45.4318845742
 20
21.8642485904
 10
45.4001011618
 20
21.8628209112
 10
45.3707658036
 20
21.8612740914
 10
45.344087149
 20
21.8596191327
 10
45.3202549518
 20
21.8578678061
 10
45.2994387199
 20
21.856032568
 10
45.28178651
 20
21.8541264717
 10
45.2674238746
 20
21.8521630745
 10
45.2564529687
 20
21.850156341
 10
45.2489518238
 20
21.8481205443
 10
45.244973792
 20
21.8460701642
  0
LWPOLYLINE
  5
2D4
100
AcDbEntity
  8
RACCORDO
100
AcDbPolyline
 62
253
  6
CONTINUOUS
 90
17
 70
0
 10
-71.7431469952
 20
22.667357485
 10
-71.7678871764
 20
22.6670254536
 10
-71.7920930804
 20
22.6665907705
 10
-71.8155925401
 20
22.6660565274
 10
-71.8382184131
 20
22.6654265242
 10
-71.8598097706
 20
22.6647052419
 10
-71.8802130418
 20
22.6638978107
 10
-71.8992831063
 20
22.6630099734
 10
-71.9168843261
 20
22.6620480449
 10
-71.9328915109
 20
22.6610188671
 10
-71.9471908078
 20
22.65992976
 10
-71.9596805115
 20
22.6587884702
 10
-71.9702717878
 20
22.657603115
 10
-71.9788893051
 20
22.6563821255
 10
-71.9854717704
 20
22.6551341861
 10
-71.9899723652
 20
22.6538681728
 10
-71.9923590785
 20
22.6525930904
  0
LINE
  5
2D5
100
AcDbEntity
  8
RACCORDO
100
AcDbLine
 62
253
  6
CONTINUOUS
 10
-71.6927702181
 20
22.6677048931
 11
-71.7431469952
 21
22.667357485
  0
LWPOLYLINE
  5
2D6
100
AcDbEntity
  8
RACCORDO
100
AcDbPolyline
 62
253
  6
CONTINUOUS
 90
3
 70
0
 10
45.7442885593
 20
21.8703705753
 10
45.7021581999
 20
21.8701769744
 10
45.619093969
 20
21.8692779856
  0
LINE
  5
2D7
100
AcDbEntity
  8
0
100
AcDbLine
 62
7
  6
CONTINUOUS
 10
-44.3010963722
 20
22.5
 11
44.3010963722
 21
22.5
  0
LINE
  5
2D8
100
AcDbEntity
  8
RACCORDO
100
AcDbLine
 62
253
  6
CONTINUOUS
 10
-44.4426840308
 20
22.6415492726
 11
44.4426540141
 21
22.6415492726
  0
LINE
  5
2D9
100
AcDbEntity
  8
RACCORDO
100
AcDbLine
 62
253
  6
CONTINUOUS
 10
-71.6927701042
 20
22.6676474049
 11
-45.4679615936
 21
22.6677048937
  0
LINE
  5
2DA
100
AcDbEntity
  8
RACCORDO
100
AcDbLine
 62
253
  6
CONTINUOUS
 10
45.4679615936
 20
22.6677048937
 11
71.6927701039
 21
22.667647257
  0
LINE
  5
2DB
100
AcDbEntity
  8
RACCORDO
100
AcDbLine
 62
253
  6
CONTINUOUS
 10
-44.4426456448
 20
23.1675430277
 11
44.4426456448
 21
23.1675430277
  0
LWPOLYLINE
  5
2DC
100
AcDbEntity
  8
RACCORDO
100
AcDbPolyline
 62
253
  6
CONTINUOUS
 90
18
 70
0
 10
-45.7442885593
 20
21.8703704037
 10
-45.6603272194
 20
21.869811781
 10
-45.6190935132
 20
21.8692778725
 10
-45.5787502401
 20
21.8685788954
 10
-45.5395843477
 20
21.8677198214
 10
-45.5018744094
 20
21.8667067608
 10
-45.4658886428
 20
21.8655469191
 10
-45.4318830023
 20
21.8642485459
 10
-45.4000993581
 20
21.8628208761
 10
-45.3707637762
 20
21.8612740642
 10
-45.3440849105
 20
21.8596191121
 10
-45.3202525184
 20
21.8578677909
 10
-45.2994361115
 20
21.8560325572
 10
-45.2817837497
 20
21.8541264643
 10
-45.267420988
 20
21.8521630697
 10
-45.2564499838
 20
21.8501563382
 10
-45.24894877
 20
21.8481205431
 10
-45.2449707002
 20
21.8460701642
  0
LWPOLYLINE
  5
2DD
100
AcDbEntity
  8
RACCORDO
100
AcDbPolyline
 62
253
  6
CONTINUOUS
 90
18
 70
0
 10
71.6927702181
 20
22.6677048929
 10
71.7431469947
 20
22.6673574847
 10
71.7678871757
 20
22.6670254534
 10
71.7920930795
 20
22.6665907703
 10
71.815592539
 20
22.6660565272
 10
71.8382184119
 20
22.6654265241
 10
71.8598097693
 20
22.6647052418
 10
71.8802130404
 20
22.6638978105
 10
71.8992831048
 20
22.6630099732
 10
71.9168843246
 20
22.6620480448
 10
71.9328915094
 20
22.661018867
 10
71.9471908064
 20
22.65992976
 10
71.9596805103
 20
22.6587884701
 10
71.9702717867
 20
22.6576031149
 10
71.9788893042
 20
22.6563821254
 10
71.9854717697
 20
22.655134186
 10
71.9899723648
 20
22.6538681728
 10
71.9923590785
 20
22.6525930904
  0
LWPOLYLINE
  5
2DE
100
AcDbEntity
  8
RACCORDO
100
AcDbPolyline
 62
253
  6
CONTINUOUS
 90
31
 70
0
 10
44.4426540284
 20
22.6415492868
 10
44.4685715426
 20
22.6411766217
 10
44.4941483083
 20
22.6399902412
 10
44.5193598359
 20
22.6380213654
 10
44.5441575588
 20
22.635304893
 10
44.5685469873
 20
22.6318708053
 10
44.5925865249
 20
22.6277361188
 10
44.6162571509
 20
22.6229259042
 10
44.639542321
 20
22.6174652557
 10
44.662503499
 20
22.6113574041
 10
44.6851237751
 20
22.6046211378
 10
44.7073879553
 20
22.597275291
 10
44.7293575368
 20
22.5893098201
 10
44.7510162357
 20
22.5807374941
 10
44.7723480598
 20
22.5715715346
 10
44.7934106948
 20
22.561789914
 10
44.8141866
 20
22.5514000857
 10
44.8346576598
 20
22.5404103515
 10
44.8548748984
 20
22.5287881774
 10
44.8748176058
 20
22.5165367301
 10
44.8944645233
 20
22.5036600567
 10
44.9138585482
 20
22.4901160884
 10
44.9329740083
 20
22.4759048771
 10
44.9517853847
 20
22.4610268776
 10
44.9703268424
 20
22.4454305818
 10
44.9885650147
 20
22.429115067
 10
45.0064697124
 20
22.4120770859
 10
45.0240685984
 20
22.3942519832
 10
45.0413414535
 20
22.3756131471
 10
45.058226512
 20
22.3561786666
 10
45.0746817863
 20
22.3359476087
  0
LWPOLYLINE
  5
2DF
100
AcDbEntity
  8
RACCORDO
100
AcDbPolyline
 62
253
  6
CONTINUOUS
 90
31
 70
0
 10
44.4426456448
 20
23.1675430277
 10
44.4847577847
 20
23.1667780232
 10
44.5262417119
 20
23.1647901402
 10
44.5670974262
 20
23.1615793762
 10
44.6073144567
 20
23.1571056171
 10
44.6469032745
 20
23.1514089679
 10
44.685895292
 20
23.144609754
 10
44.7242861148
 20
23.1367224704
 10
44.7620801373
 20
23.1277326067
 10
44.7993219557
 20
23.1177169791
 10
44.836010669
 20
23.1066893218
 10
44.8721471782
 20
23.0946358801
 10
44.9077787816
 20
23.0815922369
 10
44.9429085023
 20
23.0675708229
 10
44.9775333172
 20
23.0525591822
 10
45.011691456
 20
23.0365555668
 10
45.0453891382
 20
23.0195707434
 10
45.0786201443
 20
23.0015939148
 10
45.1114040451
 20
22.9825909856
 10
45.1437494547
 20
22.9625712599
 10
45.175647759
 20
22.9415253967
 10
45.2070926864
 20
22.9193913297
 10
45.2380948023
 20
22.8961772223
 10
45.2686435414
 20
22.8718748662
 10
45.2987009363
 20
22.8463976334
 10
45.3282798698
 20
22.819753002
 10
45.357367459
 20
22.7919334388
 10
45.3858870876
 20
22.7628297929
 10
45.4138132169
 20
22.7324056566
 10
45.4411713855
 20
22.7006973688
 10
45.4679615936
 20
22.6677048937
  0
LINE
  5
2E0
100
AcDbEntity
  8
RACCORDO
100
AcDbLine
 62
253
  6
CONTINUOUS
 10
72.1200585586
 20
-43.8714290238
 11
72.25
 21
-44.0013704652
  0
LINE
  5
2E1
100
AcDbEntity
  8
RACCORDO
100
AcDbLine
 62
253
  6
CONTINUOUS
 10
44.4426456448
 20
23.1675430277
 11
44.4426456448
 21
22.6415492726
  0
LINE
  5
2E2
100
AcDbEntity
  8
RACCORDO
100
AcDbLine
 62
253
  6
CONTINUOUS
 10
44.4426456448
 20
-23.1675430277
 11
44.4426456448
 21
-22.6415492726
  0
LINE
  5
2E3
100
AcDbEntity
  8
RACCORDO
100
AcDbLine
 62
253
  6
CONTINUOUS
 10
71.1281758769
 20
44.6316825048
 11
-71.1281758769
 21
44.6316825048
  0
LINE
  5
2E4
100
AcDbEntity
  8
RACCORDO
100
AcDbLine
 62
253
  6
CONTINUOUS
 10
45.2449737296
 20
21.8461028089
 11
45.2604384533
 21
14.5669361326
  0
LINE
  5
2E5
100
AcDbEntity
  8
RACCORDO
100
AcDbLine
 62
253
  6
CONTINUOUS
 10
45.7442885593
 20
21.8703705759
 11
45.7597532489
 21
14.5834397224
  0
LINE
  5
2E6
100
AcDbEntity
  8
RACCORDO
100
AcDbLine
 62
253
  6
CONTINUOUS
 10
45.2604384533
 20
14.5669361326
 11
45.2697179896
 21
7.284661208
  0
LINE
  5
2E7
100
AcDbEntity
  8
RACCORDO
100
AcDbLine
 62
253
  6
CONTINUOUS
 10
45.7597532489
 20
14.5834397224
 11
45.7690327639
 21
7.2926778579
  0
LINE
  5
2E8
100
AcDbEntity
  8
RACCORDO
100
AcDbLine
 62
253
  6
CONTINUOUS
 10
45.2697179896
 20
7.284661208
 11
45.2728118795
 21
-0.0000046698
  0
LINE
  5
2E9
100
AcDbEntity
  8
RACCORDO
100
AcDbLine
 62
253
  6
CONTINUOUS
 10
45.7690327639
 20
7.2926778579
 11
45.7721266469
 21
0.0000000529
  0
LINE
  5
2EA
100
AcDbEntity
  8
0
100
AcDbLine
 62
7
  6
CONTINUOUS
 10
45.1
 20
21.7010963722
 11
45.1
 21
-21.7010963722
  0
LINE
  5
2EB
100
AcDbEntity
  8
RACCORDO
100
AcDbLine
 62
253
  6
CONTINUOUS
 10
45.2728118795
 20
-0.0000046698
 11
45.2697179771
 21
-7.2846727906
  0
LINE
  5
2EC
100
AcDbEntity
  8
RACCORDO
100
AcDbLine
 62
253
  6
CONTINUOUS
 10
45.7721266469
 20
0.0000000529
 11
45.7690327641
 21
-7.292677762
  0
LINE
  5
2ED
100
AcDbEntity
  8
RACCORDO
100
AcDbLine
 62
253
  6
CONTINUOUS
 10
45.2697179771
 20
-7.2846727906
 11
45.2604384522
 21
-14.5669385324
  0
LINE
  5
2EE
100
AcDbEntity
  8
RACCORDO
100
AcDbLine
 62
253
  6
CONTINUOUS
 10
45.7690327641
 20
-7.292677762
 11
45.7597532492
 21
-14.5834396614
  0
LINE
  5
2EF
100
AcDbEntity
  8
RACCORDO
100
AcDbLine
 62
253
  6
CONTINUOUS
 10
45.2604384522
 20
-14.5669385324
 11
45.2449737709
 21
-21.8460811902
  0
LINE
  5
2F0
100
AcDbEntity
  8
RACCORDO
100
AcDbLine
 62
253
  6
CONTINUOUS
 10
45.7597532492
 20
-14.5834396614
 11
45.7442885593
 21
-21.8703705759
  0
LWPOLYLINE
  5
2F1
100
AcDbEntity
  8
RACCORDO
100
AcDbPolyline
 62
253
  6
CONTINUOUS
 90
13
 70
0
 10
45.7442885593
 20
-21.8703705759
 10
45.742416098
 20
-21.9398660133
 10
45.7366066457
 20
-22.0094305253
 10
45.7268602025
 20
-22.0790641089
 10
45.7131656193
 20
-22.1491408256
 10
45.6955340452
 20
-22.2192866015
 10
45.6739989273
 20
-22.2883792558
 10
45.6483832336
 20
-22.3564474246
 10
45.6188639962
 20
-22.423462516
 10
45.5860057591
 20
-22.4882165587
 10
45.5499967036
 20
-22.5503069386
 10
45.5106486485
 20
-22.6101363689
 10
45.4679615936
 20
-22.6677048937
  0
LWPOLYLINE
  5
2F2
100
AcDbEntity
  8
RACCORDO
100
AcDbPolyline
 62
253
  6
CONTINUOUS
 90
13
 70
0
 10
45.2449737609
 20
-21.8460811803
 10
45.2437327786
 20
-21.8886052515
 10
45.2401732154
 20
-21.9314217759
 10
45.2342368259
 20
-21.9744014273
 10
45.2258535437
 20
-22.0174924277
 10
45.2149890592
 20
-22.0604655599
 10
45.2016918617
 20
-22.1029260611
 10
45.1859600455
 20
-22.1447721932
 10
45.167828174
 20
-22.1858230986
 10
45.1475126767
 20
-22.2256008643
 10
45.125177045
 20
-22.2638885872
 10
45.1008655087
 20
-22.3007017748
 10
45.0746817863
 20
-22.3359476087
  0
LWPOLYLINE
  5
2F3
100
AcDbEntity
  8
RACCORDO
100
AcDbPolyline
 62
253
  6
CONTINUOUS
 90
16
 70
0
 10
45.4679615936
 20
-22.6677048937
 10
45.4176363366
 20
-22.7282260376
 10
45.3640214129
 20
-22.785319398
 10
45.3071168224
 20
-22.8389851472
 10
45.246684508
 20
-22.889431412
 10
45.1829625268
 20
-22.9364503781
 10
45.1166650505
 20
-22.9794183199
 10
45.0477053328
 20
-23.0182859387
 10
44.97617012
 20
-23.0531028405
 10
44.9030338219
 20
-23.0833936777
 10
44.8282470351
 20
-23.1090594699
 10
44.7518591631
 20
-23.130199438
 10
44.674992826
 20
-23.146635529
 10
44.5980222306
 20
-23.1583084353
 10
44.5205731702
 20
-23.165277591
 10
44.4426456448
 20
-23.1675430277
  0
LWPOLYLINE
  5
2F4
100
AcDbEntity
  8
RACCORDO
100
AcDbPolyline
 62
253
  6
CONTINUOUS
 90
16
 70
0
 10
45.0746817863
 20
-22.3359476087
 10
45.0437618924
 20
-22.372902273
 10
45.0106074447
 20
-22.4079839707
 10
44.9753289474
 20
-22.4410553374
 10
44.9380428771
 20
-22.4719860675
 10
44.8988791713
 20
-22.5006510464
 10
44.8579817096
 20
-22.526932067
 10
44.8154571632
 20
-22.5507405142
 10
44.7714905285
 20
-22.5719537104
 10
44.7263647221
 20
-22.5904376769
 10
44.6802422163
 20
-22.6061366443
 10
44.6333044142
 20
-22.6189995155
 10
44.5858844938
 20
-22.6289643233
 10
44.5382162375
 20
-22.636027906
 10
44.49042488
 20
-22.6402149606
 10
44.4426840957
 20
-22.6415493366
  0
LWPOLYLINE
  5
2F5
100
AcDbEntity
  8
RACCORDO
100
AcDbPolyline
 62
253
  6
CONTINUOUS
 90
28
 70
0
 10
-71.1281758769
 20
44.8768054117
 10
-71.1858790912
 20
44.8750806058
 10
-71.2433273885
 20
44.8700102287
 10
-71.3003303845
 20
44.8616171492
 10
-71.3566620052
 20
44.8499439897
 10
-71.4121751202
 20
44.8350306373
 10
-71.4667964506
 20
44.8168925971
 10
-71.520393801
 20
44.7955529004
 10
-71.5727268303
 20
44.771086409
 10
-71.6235626186
 20
44.743592966
 10
-71.6727052357
 20
44.713175756
 10
-71.7200127188
 20
44.6799207097
 10
-71.7653430184
 20
44.6439229412
 10
-71.808541784
 20
44.6052929096
 10
-71.8494543358
 20
44.5641569719
 10
-71.8879446408
 20
44.5206436514
 10
-71.9238754279
 20
44.4748915901
 10
-71.9571166854
 20
44.4270494968
 10
-71.9875534477
 20
44.3772716237
 10
-72.0150750393
 20
44.3257147992
 10
-72.039574811
 20
44.2725531665
 10
-72.0609589176
 20
44.2179774542
 10
-72.0791446967
 20
44.1621714079
 10
-72.0940619639
 20
44.105319636
 10
-72.1056541505
 20
44.047622577
 10
-72.1138742693
 20
43.9892780405
 10
-72.1186841964
 20
43.9304802998
 10
-72.1200585586
 20
43.8714290238
  0
LWPOLYLINE
  5
2F6
100
AcDbEntity
  8
RACCORDO
100
AcDbPolyline
 62
253
  6
CONTINUOUS
 90
28
 70
0
 10
-71.1281758769
 20
44.6316825048
 10
-71.1687038743
 20
44.6304780836
 10
-71.2088119933
 20
44.626961863
 10
-71.2485002339
 20
44.6211338159
 10
-71.287882471
 20
44.6129688545
 10
-71.3268448297
 20
44.6024919575
 10
-71.3650456852
 20
44.5897781721
 10
-71.4025079896
 20
44.5747958048
 10
-71.4392087907
 20
44.5575763404
 10
-71.4747376072
 20
44.538289581
 10
-71.5090663946
 20
44.5169205958
 10
-71.5422231974
 20
44.4934840338
 10
-71.5738816675
 20
44.4681940731
 10
-71.6040327652
 20
44.4410301138
 10
-71.6326855302
 20
44.4120124308
 10
-71.6595407336
 20
44.3814165412
 10
-71.6845831099
 20
44.3492228294
 10
-71.7078279245
 20
44.3154505818
 10
-71.729021745
 20
44.2804337214
 10
-71.7481438556
 20
44.2441561065
 10
-71.7652149721
 20
44.2066335864
 10
-71.7800438091
 20
44.1682481484
 10
-71.7926064825
 20
44.1289768997
 10
-71.8029268766
 20
44.0888425141
 10
-71.8108853584
 20
44.0482954332
 10
-71.8164420505
 20
44.0074857957
 10
-71.8196368304
 20
43.9662633712
 10
-71.8204696982
 20
43.9246281065
  0
LWPOLYLINE
  5
2F7
100
AcDbEntity
  8
RACCORDO
100
AcDbPolyline
 62
253
  6
CONTINUOUS
 90
19
 70
0
 10
-71.8204696982
 20
43.9246280943
 10
-71.8457596656
 20
43.924207405
 10
-71.8708695746
 20
43.9234109463
 10
-71.8956206487
 20
43.9222443888
 10
-71.9198366663
 20
43.9207160381
 10
-71.9433452151
 20
43.9188367757
 10
-71.9659789199
 20
43.9166199815
 10
-71.9875766343
 20
43.9140814385
 10
-72.0079845877
 20
43.9112392206
 10
-72.0270574805
 20
43.9081135635
 10
-72.0446595182
 20
43.9047267214
 10
-72.0606653787
 20
43.9011028076
 10
-72.074961104
 20
43.8972676235
 10
-72.087444912
 20
43.8932484748
 10
-72.0980279211
 20
43.8890739767
 10
-72.1066347828
 20
43.8847738508
 10
-72.1132042183
 20
43.8803787129
 10
-72.1176894548
 20
43.8759198552
 10
-72.1200585586
 20
43.8714290238
  0
LINE
  5
2F8
100
AcDbEntity
  8
RACCORDO
100
AcDbLine
 62
253
  6
CONTINUOUS
 10
71.1281758769
 20
44.8768054117
 11
-71.1281758769
 21
44.8768054117
  0
LINE
  5
2F9
100
AcDbEntity
  8
RACCORDO
100
AcDbLine
 62
7
  6
CONTINUOUS
 10
-71.2513704652
 20
45.0
 11
71.2513704652
 21
45.0
  0
LWPOLYLINE
  5
2FA
100
AcDbEntity
  8
RACCORDO
100
AcDbPolyline
 62
253
  6
CONTINUOUS
 90
19
 70
0
 10
71.8204696982
 20
43.9246280955
 10
71.845759238
 20
43.9242073328
 10
71.8708686854
 20
43.9234108103
 10
71.8956192716
 20
43.9222441987
 10
71.9198347824
 20
43.9207158039
 10
71.9433428136
 20
43.9188365074
 10
71.9659759974
 20
43.9166196889
 10
71.9875731949
 20
43.9140811314
 10
72.0079806431
 20
43.9112389082
 10
72.0270530492
 20
43.9081132548
 10
72.0446546255
 20
43.9047264246
 10
72.0606600561
 20
43.9011025304
 10
72.0749553888
 20
43.8972673728
 10
72.0874388469
 20
43.8932482565
 10
72.0980215531
 20
43.889073796
 10
72.106628163
 20
43.8847737118
 10
72.113197401
 20
43.8803786186
 10
72.1176824969
 20
43.8759198077
 10
72.1200515186
 20
43.871429024
  0
LWPOLYLINE
  5
2FB
100
AcDbEntity
  8
RACCORDO
100
AcDbPolyline
 62
253
  6
CONTINUOUS
 90
13
 70
0
 10
45.0746817863
 20
22.3359476087
 10
45.1006671573
 20
22.3009847399
 10
45.1248390157
 20
22.2644322383
 10
45.1470882814
 20
22.2263761875
 10
45.1673583313
 20
22.1868087836
 10
45.1854869097
 20
22.1459283201
 10
45.2012644829
 20
22.1041644472
 10
45.2146500926
 20
22.0616607816
 10
45.225617737
 20
22.0185447306
 10
45.2340939832
 20
21.9752588584
 10
45.2401035717
 20
21.9320498242
 10
45.2437131093
 20
21.888954044
 10
45.2449736995
 20
21.8461027795
  0
LWPOLYLINE
  5
2FC
100
AcDbEntity
  8
RACCORDO
100
AcDbPolyline
 62
253
  6
CONTINUOUS
 90
13
 70
0
 10
45.4679615936
 20
22.6677048937
 10
45.5103205644
 20
22.6106490843
 10
45.5494223064
 20
22.5512709454
 10
45.5852668194
 20
22.4895704319
 10
45.6180515472
 20
22.4251760457
 10
45.647579046
 20
22.3584591843
 10
45.6732569848
 20
22.2905341686
 10
45.6949253505
 20
22.2213824348
 10
45.7127441561
 20
22.1510224948
 10
45.726601109
 20
22.0806243342
 10
45.7364587784
 20
22.0105779607
 10
45.7423545952
 20
21.9404933744
 10
45.7442885593
 20
21.8703705759
  0
LWPOLYLINE
  5
2FD
100
AcDbEntity
  8
RACCORDO
100
AcDbPolyline
 62
253
  6
CONTINUOUS
 90
28
 70
0
 10
72.1200585586
 20
43.8714290238
 10
72.1186844686
 20
43.9304743766
 10
72.1138791753
 20
43.9892336337
 10
72.105673708
 20
44.0475080222
 10
72.0941178827
 20
44.1050781734
 10
72.0792609004
 20
44.1617759443
 10
72.0611367022
 20
44.2174811733
 10
72.0397893175
 20
44.2720490404
 10
72.0153059647
 20
44.3252495663
 10
71.9877989693
 20
44.3768420397
 10
71.9573859689
 20
44.4266363763
 10
71.9241696803
 20
44.474493136
 10
71.8882628328
 20
44.5202616709
 10
71.8497942217
 20
44.5637943459
 10
71.8089019354
 20
44.6049511246
 10
71.7657222969
 20
44.6436030133
 10
71.7204085578
 20
44.6796246207
 10
71.6731162995
 20
44.7129042432
 10
71.6239924813
 20
44.7433438558
 10
71.5731994415
 20
44.7708483634
 10
71.5209145997
 20
44.7953277337
 10
71.4673134256
 20
44.8167039603
 10
71.4125837314
 20
44.8349078545
 10
71.3569030317
 20
44.849886574
 10
71.3004351778
 20
44.8615986049
 10
71.2433606624
 20
44.8700064094
 10
71.1858771298
 20
44.8750808273
 10
71.1281758769
 20
44.8768054117
  0
LWPOLYLINE
  5
2FE
100
AcDbEntity
  8
RACCORDO
100
AcDbPolyline
 62
253
  6
CONTINUOUS
 90
28
 70
0
 10
71.8204696982
 20
43.9246281065
 10
71.8196252612
 20
43.96629429
 10
71.8164307296
 20
44.0075145745
 10
71.8108861034
 20
44.0482890176
 10
71.8029569095
 20
44.0887456584
 10
71.7926776209
 20
44.1287565602
 10
71.7801516566
 20
44.1679378676
 10
71.7653473063
 20
44.2063007183
 10
71.7482962802
 20
44.2438341817
 10
71.7291971275
 20
44.2801213992
 10
71.7080341378
 20
44.3151318114
 10
71.6848230214
 20
44.3488962717
 10
71.6598094588
 20
44.3810901221
 10
71.6329763229
 20
44.4116984623
 10
71.6043407408
 20
44.4407365201
 10
71.574199774
 20
44.4679248808
 10
71.5425403022
 20
44.4932444941
 10
71.5093754457
 20
44.5167147349
 10
71.4750416268
 20
44.5381138549
 10
71.4395275462
 20
44.5574215069
 10
71.4028445032
 20
44.5746583208
 10
71.3653628175
 20
44.5896640194
 10
71.3270676316
 20
44.6024166075
 10
71.2879738031
 20
44.6129382887
 10
71.2484962242
 20
44.621135071
 10
71.2087731922
 20
44.6269756618
 10
71.1686664098
 20
44.6304914639
 10
71.1281758769
 20
44.6316825048
  0
LWPOLYLINE
  5
2FF
100
AcDbEntity
  8
RACCORDO
100
AcDbPolyline
 62
253
  6
CONTINUOUS
 90
9
 70
0
 10
71.8204696982
 20
-43.9246281065
 10
71.7992646814
 20
-41.5803705021
 10
71.7798115775
 20
-39.2305985388
 10
71.7621103866
 20
-36.8757866537
 10
71.7461582719
 20
-34.51641446
 10
71.7319580701
 20
-32.1529541681
 10
71.7195182913
 20
-29.7858704217
 10
71.7088417722
 20
-27.415636892
 10
71.699925676
 20
-25.0427362495
  0
LWPOLYLINE
  5
300
100
AcDbEntity
  8
RACCORDO
100
AcDbPolyline
 62
253
  6
CONTINUOUS
 90
9
 70
0
 10
72.1200585586
 20
-43.8714290238
 10
72.0988539353
 20
-41.530635219
 10
72.0794010733
 20
-39.1852651697
 10
72.0616999728
 20
-36.8353188758
 10
72.0457477181
 20
-34.4803128887
 10
72.0315472247
 20
-32.1207306571
 10
72.0191072395
 20
-29.7580225269
 10
72.0084306778
 20
-27.3926719467
 10
71.9995146241
 20
-25.0241954679
  0
LINE
  5
301
100
AcDbEntity
  8
RACCORDO
100
AcDbLine
 62
253
  6
CONTINUOUS
 10
71.699925676
 20
-25.0427362495
 11
71.6836291891
 21
-18.8925043042
  0
LINE
  5
302
100
AcDbEntity
  8
RACCORDO
100
AcDbLine
 62
253
  6
CONTINUOUS
 10
71.9995146241
 20
-25.0241954679
 11
71.9832181209
 21
-18.8795038031
  0
LINE
  5
303
100
AcDbEntity
  8
RACCORDO
100
AcDbLine
 62
253
  6
CONTINUOUS
 10
71.6836291891
 20
-18.8925043042
 11
71.6703325776
 21
-11.3380611962
  0
LINE
  5
304
100
AcDbEntity
  8
RACCORDO
100
AcDbLine
 62
253
  6
CONTINUOUS
 10
71.9832181209
 20
-18.8795038031
 11
71.9699214528
 21
-11.3305136537
  0
LINE
  5
305
100
AcDbEntity
  8
RACCORDO
100
AcDbLine
 62
253
  6
CONTINUOUS
 10
71.6703325776
 20
-11.3380611962
 11
71.6636823261
 21
-3.7797569604
  0
LINE
  5
306
100
AcDbEntity
  8
RACCORDO
100
AcDbLine
 62
253
  6
CONTINUOUS
 10
71.9699214528
 20
-11.3305136537
 11
71.963271186
 21
-3.7771499691
  0
LINE
  5
307
100
AcDbEntity
  8
RACCORDO
100
AcDbLine
 62
253
  6
CONTINUOUS
 10
71.1281758769
 20
-44.6316825048
 11
71.1281758772
 21
-44.8768054117
  0
LINE
  5
308
100
AcDbEntity
  8
RACCORDO
100
AcDbLine
 62
253
  6
CONTINUOUS
 10
71.1281758769
 20
44.6316825048
 11
71.1281758769
 21
44.8768054117
  0
LINE
  5
309
100
AcDbEntity
  8
RACCORDO
100
AcDbLine
 62
7
  6
CONTINUOUS
 10
72.25
 20
-44.0013704652
 11
72.25
 21
44.0013704652
  0
LINE
  5
30A
100
AcDbEntity
  8
RACCORDO
100
AcDbLine
 62
253
  6
CONTINUOUS
 10
71.6636823261
 20
-3.7797569604
 11
71.6636823257
 21
3.7797559374
  0
LINE
  5
30B
100
AcDbEntity
  8
RACCORDO
100
AcDbLine
 62
253
  6
CONTINUOUS
 10
71.963271186
 20
-3.7771499691
 11
71.9632711867
 21
3.77715111
  0
LINE
  5
30C
100
AcDbEntity
  8
RACCORDO
100
AcDbLine
 62
253
  6
CONTINUOUS
 10
71.6636823257
 20
3.7797559374
 11
71.6703325766
 21
11.3380604683
  0
LINE
  5
30D
100
AcDbEntity
  8
RACCORDO
100
AcDbLine
 62
253
  6
CONTINUOUS
 10
71.9632711867
 20
3.77715111
 11
71.9699214545
 21
11.3305150114
  0
LINE
  5
30E
100
AcDbEntity
  8
RACCORDO
100
AcDbLine
 62
253
  6
CONTINUOUS
 10
71.6703325766
 20
11.3380604683
 11
71.6836291883
 21
18.8925038652
  0
LINE
  5
30F
100
AcDbEntity
  8
RACCORDO
100
AcDbLine
 62
253
  6
CONTINUOUS
 10
71.9699214545
 20
11.3305150114
 11
71.9832181219
 21
18.8795044447
  0
LWPOLYLINE
  5
310
100
AcDbEntity
  8
RACCORDO
100
AcDbPolyline
 62
253
  6
CONTINUOUS
 90
10
 70
0
 10
71.6836291883
 20
18.8925038652
 10
71.6999256767
 20
25.0427362222
 10
71.7088417736
 20
27.4156369854
 10
71.7195182923
 20
29.7858705046
 10
71.7319580689
 20
32.1529540084
 10
71.7461582673
 20
34.5164139278
 10
71.7621103802
 20
36.8757859222
 10
71.7798115717
 20
39.2305978808
 10
71.7992646777
 20
41.5803700883
 10
71.8204696982
 20
43.9246281065
  0
LWPOLYLINE
  5
311
100
AcDbEntity
  8
RACCORDO
100
AcDbPolyline
 62
253
  6
CONTINUOUS
 90
10
 70
0
 10
71.9832181219
 20
18.8795044447
 10
71.9995146367
 20
25.0241988665
 10
72.0084307064
 20
27.3926785798
 10
72.0191072875
 20
29.7580322302
 10
72.0315473045
 20
32.1207441804
 10
72.0457478329
 20
34.4803300678
 10
72.0617000999
 20
36.8353368046
 10
72.079401181
 20
39.1852800282
 10
72.0988540005
 20
41.5306441013
 10
72.1200585586
 20
43.8714290238
  0
LINE
  5
312
100
AcDbEntity
  8
RACCORDO
100
AcDbLine
 62
7
  6
CONTINUOUS
 10
-101.8041233792
 20
-44.8768054117
 11
-99.4534306
 21
-45.0
  0
LINE
  5
313
100
AcDbEntity
  8
RACCORDO
100
AcDbLine
 62
253
  6
CONTINUOUS
 10
-101.9328610048
 20
-43.8714290238
 11
-99.4534306
 21
-44.0013704652
  0
LINE
  5
314
100
AcDbEntity
  8
RACCORDO
100
AcDbLine
 62
253
  6
CONTINUOUS
 10
-102.1867044175
 20
-43.9188367757
 11
-102.1626312147
 21
-43.9140814385
  0
LINE
  5
315
100
AcDbEntity
  8
RACCORDO
100
AcDbLine
 62
253
  6
CONTINUOUS
 10
-102.1626312147
 20
-43.9140814385
 11
-102.1137057903
 21
-43.9047267214
  0
LINE
  5
316
100
AcDbEntity
  8
RACCORDO
100
AcDbLine
 62
253
  6
CONTINUOUS
 10
-102.1137057903
 20
-43.9047267214
 11
-102.0062189039
 21
-43.8847738508
  0
LINE
  5
317
100
AcDbEntity
  8
RACCORDO
100
AcDbLine
 62
253
  6
CONTINUOUS
 10
-102.0062189039
 20
-43.8847738508
 11
-101.9328610048
 21
-43.8714290238
  0
LWPOLYLINE
  5
318
100
AcDbEntity
  8
RACCORDO
100
AcDbPolyline
 62
253
  6
CONTINUOUS
 90
9
 70
0
 10
-101.8041233792
 20
-44.8768054117
 10
-101.8052165315
 20
-44.8750806058
 10
-101.8066907524
 20
-44.8700102287
 10
-101.8085372628
 20
-44.8616171492
 10
-101.8107474397
 20
-44.8499439897
 10
-101.8133146713
 20
-44.8350306373
 10
-101.8162329562
 20
-44.8168925971
 10
-101.8195025213
 20
-44.7955529004
 10
-101.8231087462
 20
-44.771086409
  0
LWPOLYLINE
  5
319
100
AcDbEntity
  8
RACCORDO
100
AcDbPolyline
 62
253
  6
CONTINUOUS
 90
3
 70
0
 10
-104.6534305892
 20
-22.6677048932
 10
-104.6523684144
 20
-22.6675845031
 10
-104.6491827219
 20
-22.667357485
  0
LINE
  5
31A
100
AcDbEntity
  8
RACCORDO
100
AcDbLine
 62
253
  6
CONTINUOUS
 10
-104.6491827219
 20
-22.667357485
 11
-104.6365463603
 21
-22.6665907705
  0
LINE
  5
31B
100
AcDbEntity
  8
RACCORDO
100
AcDbLine
 62
253
  6
CONTINUOUS
 10
-104.6365463603
 20
-22.6665907705
 11
-104.5530185465
 21
-22.6620480449
  0
LINE
  5
31C
100
AcDbEntity
  8
RACCORDO
100
AcDbLine
 62
253
  6
CONTINUOUS
 10
-104.5530185465
 20
-22.6620480449
 11
-104.3695122396
 21
-22.6525930904
  0
LINE
  5
31D
100
AcDbEntity
  8
0
100
AcDbLine
 62
7
  6
CONTINUOUS
 10
-104.3456537697
 20
-27.423487196
 11
-104.3468162113
 21
-27.4087686351
  0
LINE
  5
31E
100
AcDbEntity
  8
RACCORDO
100
AcDbLine
 62
253
  6
CONTINUOUS
 10
-101.9328610048
 20
43.8714290238
 11
-101.8998187665
 21
44.1617759443
  0
LINE
  5
31F
100
AcDbEntity
  8
RACCORDO
100
AcDbLine
 62
253
  6
CONTINUOUS
 10
-101.8998187665
 20
44.1617759443
 11
-101.8742370379
 21
44.3768420397
  0
LINE
  5
320
100
AcDbEntity
  8
RACCORDO
100
AcDbLine
 62
253
  6
CONTINUOUS
 10
-101.8742370379
 20
44.3768420397
 11
-101.8564917041
 21
44.5202616709
  0
LINE
  5
321
100
AcDbEntity
  8
RACCORDO
100
AcDbLine
 62
253
  6
CONTINUOUS
 10
-101.8564917041
 20
44.5202616709
 11
-101.8406038589
 21
44.6436030133
  0
LINE
  5
322
100
AcDbEntity
  8
RACCORDO
100
AcDbLine
 62
253
  6
CONTINUOUS
 10
-101.8406038589
 20
44.6436030133
 11
-101.8312854885
 21
44.7129042432
  0
LWPOLYLINE
  5
323
100
AcDbEntity
  8
RACCORDO
100
AcDbPolyline
 62
253
  6
CONTINUOUS
 90
10
 70
0
 10
-101.8312854885
 20
44.7129042432
 10
-101.8231415318
 20
44.7708483634
 10
-101.8195338353
 20
44.7953277337
 10
-101.8162614799
 20
44.8167039603
 10
-101.8133362227
 20
44.8349078545
 10
-101.8107590571
 20
44.849886574
 10
-101.808540699
 20
44.8615986049
 10
-101.8066900752
 20
44.8700064094
 10
-101.8052145808
 20
44.8750808273
 10
-101.8041233792
 20
44.8768054117
  0
LWPOLYLINE
  5
324
100
AcDbEntity
  8
RACCORDO
100
AcDbPolyline
 62
253
  6
CONTINUOUS
 90
10
 70
0
 10
-101.9328610048
 20
-43.8714290238
 10
-102.3374693209
 20
-41.530635219
 10
-102.7086520385
 20
-39.1852651697
 10
-103.0464091576
 20
-36.8353188758
 10
-103.3507963103
 20
-34.4803128887
 10
-103.6217578644
 20
-32.1207306571
 10
-103.8591269241
 20
-29.7580225269
 10
-104.0628478571
 20
-27.3926719467
 10
-104.2329762956
 20
-25.0241954679
 10
-104.3695122396
 20
-22.6525930904
  0
LINE
  5
325
100
AcDbEntity
  8
RACCORDO
100
AcDbLine
 62
253
  6
CONTINUOUS
 10
-101.8231087462
 20
-44.771086409
 11
-101.8312481202
 21
-44.713175756
  0
LINE
  5
326
100
AcDbEntity
  8
RACCORDO
100
AcDbLine
 62
253
  6
CONTINUOUS
 10
-101.8312481202
 20
-44.713175756
 11
-101.8405610688
 21
-44.6439229412
  0
LINE
  5
327
100
AcDbEntity
  8
RACCORDO
100
AcDbLine
 62
253
  6
CONTINUOUS
 10
-101.8405610688
 20
-44.6439229412
 11
-101.856442313
 21
-44.5206436514
  0
LINE
  5
328
100
AcDbEntity
  8
RACCORDO
100
AcDbLine
 62
253
  6
CONTINUOUS
 10
-101.856442313
 20
-44.5206436514
 11
-101.8804131618
 21
-44.3257147992
  0
LINE
  5
329
100
AcDbEntity
  8
RACCORDO
100
AcDbLine
 62
253
  6
CONTINUOUS
 10
-101.8804131618
 20
-44.3257147992
 11
-101.9063896821
 21
-44.105319636
  0
LINE
  5
32A
100
AcDbEntity
  8
RACCORDO
100
AcDbLine
 62
253
  6
CONTINUOUS
 10
-101.9063896821
 20
-44.105319636
 11
-101.9328610048
 21
-43.8714290238
  0
LWPOLYLINE
  5
32B
100
AcDbEntity
  8
RACCORDO
100
AcDbPolyline
 62
253
  6
CONTINUOUS
 90
13
 70
0
 10
-104.3695122396
 20
-22.6525930904
 10
-104.5439321011
 20
-18.8795038031
 10
-104.6866439023
 20
-15.1054773242
 10
-104.7976476432
 20
-11.3305136537
 10
-104.8769489981
 20
-7.5543004072
 10
-104.9245422927
 20
-3.7771499691
 10
-104.9404105035
 20
0.0000005072
 10
-104.9245422791
 20
3.77715111
 10
-104.8769489709
 20
7.554301751
 10
-104.7976476098
 20
11.3305150114
 10
-104.6866438727
 20
15.1054784183
 10
-104.5439320826
 20
18.8795044447
 10
-104.3695122396
 20
22.6525930904
  0
LWPOLYLINE
  5
32C
100
AcDbEntity
  8
RACCORDO
100
AcDbPolyline
 62
253
  6
CONTINUOUS
 90
10
 70
0
 10
-104.3695122396
 20
22.6525930904
 10
-104.2329760553
 20
25.0241988665
 10
-104.0628473109
 20
27.3926785798
 10
-103.8591260065
 20
29.7580322302
 10
-103.6217563424
 20
32.1207441804
 10
-103.3507941184
 20
34.4803300678
 10
-103.0464067327
 20
36.8353368046
 10
-102.708649985
 20
39.1852800282
 10
-102.3374680757
 20
41.5306441013
 10
-101.9328610048
 20
43.8714290238
  0
LINE
  5
32D
100
AcDbEntity
  8
DRAFT
100
AcDbLine
 62
7
  6
CONTINUOUS
 10
-96.6534306
 20
-3.8526539614
 11
-98.6534306
 21
-3.5
  0
LINE
  5
32E
100
AcDbEntity
  8
RACCORDO
100
AcDbLine
 62
7
  6
CONTINUOUS
 10
-99.4534306
 20
-45.0
 11
-99.4534306
 21
45.0
  0
LINE
  5
32F
100
AcDbEntity
  8
DRAFT
100
AcDbLine
 62
7
  6
CONTINUOUS
 10
-98.6534306
 20
3.5
 11
-98.6534306
 21
-3.5
  0
LINE
  5
330
100
AcDbEntity
  8
RACCORDO
100
AcDbLine
 62
7
  6
CONTINUOUS
 10
-96.6534306
 20
43.5000000005
 11
-96.6534306
 21
43.0970752324
  0
LINE
  5
331
100
AcDbEntity
  8
DRAFT
100
AcDbLine
 62
7
  6
CONTINUOUS
 10
-96.6534306
 20
43.0970752324
 11
-96.6534306
 21
3.8526539614
  0
LINE
  5
332
100
AcDbEntity
  8
DRAFT
100
AcDbLine
 62
7
  6
CONTINUOUS
 10
-96.6534306
 20
-3.8526539614
 11
-96.6534306
 21
-43.0970750476
  0
LINE
  5
333
100
AcDbEntity
  8
RACCORDO
100
AcDbLine
 62
7
  6
CONTINUOUS
 10
-96.6534306
 20
-43.0970750476
 11
-96.6534306
 21
-43.5000000137
  0
LINE
  5
334
100
AcDbEntity
  8
DRAFT
100
AcDbLine
 62
7
  6
CONTINUOUS
 10
-96.6534306
 20
3.8526539614
 11
-98.6534306
 21
3.5
  0
LINE
  5
335
100
AcDbEntity
  8
RACCORDO
100
AcDbLine
 62
253
  6
CONTINUOUS
 10
-104.6158803704
 20
22.6654265241
 11
-104.3695122396
 21
22.6525930904
  0
LWPOLYLINE
  5
336
100
AcDbEntity
  8
RACCORDO
100
AcDbPolyline
 62
253
  6
CONTINUOUS
 90
5
 70
0
 10
-104.6534305838
 20
22.6677048929
 10
-104.6523684091
 20
22.6675845028
 10
-104.6491827166
 20
22.6673574847
 10
-104.643896165
 20
22.6670254534
 10
-104.6158803704
 20
22.6654265241
  0
LWPOLYLINE
  5
337
100
AcDbEntity
  8
RACCORDO
100
AcDbPolyline
 62
253
  6
CONTINUOUS
 90
13
 70
0
 10
-96.653430644
 20
-43.0970754028
 10
-96.7396856228
 20
-43.1536176709
 10
-96.8315266127
 20
-43.2106011035
 10
-96.929101845
 20
-43.2680257005
 10
-97.0328468827
 20
-43.3263497253
 10
-97.1426159348
 20
-43.3851149145
 10
-97.2576373535
 20
-43.4429464782
 10
-97.3785045023
 20
-43.4999689761
 10
-97.5047894912
 20
-43.5560578483
 10
-97.6340359946
 20
-43.6094646259
 10
-97.7653489543
 20
-43.6596064858
 10
-97.8995032579
 20
-43.707066251
 10
-98.0364395378
 20
-43.7518439215
  0
LWPOLYLINE
  5
338
100
AcDbEntity
  8
RACCORDO
100
AcDbPolyline
 62
253
  6
CONTINUOUS
 90
6
 70
0
 10
-102.2124055694
 20
-43.9246280943
 10
-102.2113962099
 20
-43.924207405
 10
-102.2082919609
 20
-43.9234109463
 10
-102.2031149238
 20
-43.9222443888
 10
-102.1959019578
 20
-43.9207160381
 10
-102.1867044175
 20
-43.9188367757
  0
LWPOLYLINE
  5
339
100
AcDbEntity
  8
RACCORDO
100
AcDbPolyline
 62
253
  6
CONTINUOUS
 90
7
 70
0
 10
-102.2124055761
 20
43.9246280955
 10
-102.2113957596
 20
43.9242073328
 10
-102.2082911065
 20
43.9234108103
 10
-102.2031137207
 20
43.9222441987
 10
-102.195900463
 20
43.9207158039
 10
-102.186702689
 20
43.9188365074
 10
-102.162629192
 20
43.9140811314
  0
LWPOLYLINE
  5
33A
100
AcDbEntity
  8
RACCORDO
100
AcDbPolyline
 62
253
  6
CONTINUOUS
 90
10
 70
0
 10
-98.0364395378
 20
-43.7518439215
 10
-98.1888242565
 20
-43.796886223
 10
-98.3423236537
 20
-43.8375523284
 10
-98.4967822345
 20
-43.8738422377
 10
-98.6513796054
 20
-43.9057187784
 10
-98.8066196933
 20
-43.933219123
 10
-98.9643708013
 20
-43.9564547889
 10
-99.1251839785
 20
-43.9754629486
 10
-99.2882528909
 20
-43.9902064297
 10
-99.4534305939
 20
-44.0006852321
  0
LINE
  5
33B
100
AcDbEntity
  8
RACCORDO
100
AcDbLine
 62
253
  6
CONTINUOUS
 10
-101.9328610048
 20
43.8714290238
 11
-99.4534306
 21
44.0013704652
  0
LWPOLYLINE
  5
33C
100
AcDbEntity
  8
RACCORDO
100
AcDbPolyline
 62
253
  6
CONTINUOUS
 90
13
 70
0
 10
-99.4534305761
 20
44.0006852308
 10
-99.3354373801
 20
43.993887186
 10
-99.2174581158
 20
43.9846325241
 10
-99.0995553937
 20
43.9729212452
 10
-98.9819700055
 20
43.9587976303
 10
-98.8645864371
 20
43.9422173982
 10
-98.7469391985
 20
43.9230477058
 10
-98.6290092677
 20
43.9013015824
 10
-98.5109614965
 20
43.8769659985
 10
-98.3926191148
 20
43.8498690226
 10
-98.2739812179
 20
43.8199533438
 10
-98.1552182362
 20
43.787276273
 10
-98.036418875
 20
43.7518378099
  0
LINE
  5
33D
100
AcDbEntity
  8
RACCORDO
100
AcDbLine
 62
253
  6
CONTINUOUS
 10
-102.0522442061
 20
43.8932482565
 11
-101.9328606358
 21
43.871429024
  0
LINE
  5
33E
100
AcDbEntity
  8
RACCORDO
100
AcDbLine
 62
253
  6
CONTINUOUS
 10
-102.131577583
 20
43.9081132548
 11
-102.0522442061
 21
43.8932482565
  0
LINE
  5
33F
100
AcDbEntity
  8
RACCORDO
100
AcDbLine
 62
253
  6
CONTINUOUS
 10
-102.162629192
 20
43.9140811314
 11
-102.131577583
 21
43.9081132548
  0
LWPOLYLINE
  5
340
100
AcDbEntity
  8
RACCORDO
100
AcDbPolyline
 62
253
  6
CONTINUOUS
 90
13
 70
0
 10
-98.036418875
 20
43.7518378099
 10
-97.8865494148
 20
43.7022200255
 10
-97.7429230208
 20
43.650946909
 10
-97.6055067793
 20
43.5980184606
 10
-97.4738382435
 20
43.5428516548
 10
-97.3482688074
 20
43.4860295171
 10
-97.2299109894
 20
43.4293011233
 10
-97.1194497736
 20
43.373150319
 10
-97.0158699926
 20
43.3170932586
 10
-96.9177225451
 20
43.2614274812
 10
-96.8244669974
 20
43.2062521667
 10
-96.7364124108
 20
43.1514681353
 10
-96.6534306191
 20
43.097075387
  0
LINE
  5
341
100
AcDbEntity
  8
RACCORDO
100
AcDbLine
 62
7
  6
CONTINUOUS
 10
-101.8041233792
 20
44.8768054117
 11
-99.4534306
 21
45.0
  0
ARC
  5
342
100
AcDbEntity
  8
RACCORDO
100
AcDbCircle
 62
7
  6
CONTINUOUS
 10
62.5672611676
 20
-14.2336437913
 40
167.4332498099
100
AcDbArc
 50
182.8873441217
 51
190.4602411505
  0
ARC
  5
343
100
AcDbEntity
  8
0
100
AcDbCircle
 62
7
  6
CONTINUOUS
 10
62.5672611676
 20
-14.2336437913
 40
167.4332498099
100
AcDbArc
 50
184.0677903884
 51
184.5132030469
  0
ARC
  5
344
100
AcDbEntity
  8
0
100
AcDbCircle
 62
7
  6
CONTINUOUS
 10
62.5672611676
 20
-14.2336437913
 40
167.4332498099
100
AcDbArc
 50
184.5182554331
 51
185.0176525292
  0
ARC
  5
345
100
AcDbEntity
  8
RACCORDO
100
AcDbCircle
 62
7
  6
CONTINUOUS
 10
-99.7249104164
 20
-39.3198565139
 40
5.1872524353
100
AcDbArc
 50
273.0000000399
 51
306.3076478614
  0
ARC
  5
346
100
AcDbEntity
  8
RACCORDO
100
AcDbCircle
 62
7
  6
CONTINUOUS
 10
-101.7884238423
 20
-44.577209968
 40
0.3000000001
100
AcDbArc
 50
190.4615209044
 51
267.0003041861
  0
ARC
  5
347
100
AcDbEntity
  8
RACCORDO
100
AcDbCircle
 62
7
  6
CONTINUOUS
 10
62.5672611676
 20
14.2336437913
 40
167.4332498099
100
AcDbArc
 50
169.5397588495
 51
177.1126559741
  0
ARC
  5
348
100
AcDbEntity
  8
RACCORDO
100
AcDbCircle
 62
7
  6
CONTINUOUS
 10
-99.7249104164
 20
39.3198565139
 40
5.1872524353
100
AcDbArc
 50
53.692351894
 51
86.9999997364
  0
ARC
  5
349
100
AcDbEntity
  8
RACCORDO
100
AcDbCircle
 62
7
  6
CONTINUOUS
 10
-101.7884225923
 20
44.5772165512
 40
0.3
100
AcDbArc
 50
93.0
 51
169.5397588495
  0
ARC
  5
34A
100
AcDbEntity
  8
RACCORDO
100
AcDbCircle
 62
7
  6
CONTINUOUS
 10
344.7752902834
 20
0.0
 40
450.0
100
AcDbArc
 50
177.1126435736
 51
182.8873564621
  0
ELLIPSE
  5
34B
100
AcDbEntity
  8
RACCORDO
100
AcDbEllipse
 62
7
  6
CONTINUOUS
 10
-71.248627654
 20
-43.998627654
 30
0.0
 11
0.7090462434
 21
0.7090462434
 31
0.0
 40
0.9972646886
 41
2.3575640181
 42
3.9256212891
  0
ELLIPSE
  5
34C
100
AcDbEntity
  8
RACCORDO
100
AcDbEllipse
 62
7
  6
CONTINUOUS
 10
71.248627654
 20
-43.998627654
 30
0.0
 11
0.7090462434
 21
-0.7090462434
 31
0.0
 40
0.9972646886
 41
-0.7840286355
 42
0.7840286355
  0
ELLIPSE
  5
34D
100
AcDbEntity
  8
RACCORDO
100
AcDbEllipse
 62
7
  6
CONTINUOUS
 10
71.248627654
 20
43.998627654
 30
0.0
 11
0.7090462434
 21
0.7090462434
 31
0.0
 40
0.9972646886
 41
-0.7840286355
 42
0.7840286355
  0
ELLIPSE
  5
34E
100
AcDbEntity
  8
RACCORDO
100
AcDbEllipse
 62
7
  6
CONTINUOUS
 10
-71.248627654
 20
43.998627654
 30
0.0
 11
0.7090462434
 21
-0.7090462434
 31
0.0
 40
0.9972646886
 41
2.3575640181
 42
3.9256212891
  0
ELLIPSE
  5
34F
100
AcDbEntity
  8
0
100
AcDbEllipse
 62
7
  6
CONTINUOUS
 10
44.2989021232
 20
-21.6989021232
 30
0.0
 11
0.5672369947
 21
-0.5672369947
 31
0.0
 40
0.9972646886
 41
-0.7840286355
 42
0.7840286355
  0
ELLIPSE
  5
350
100
AcDbEntity
  8
0
100
AcDbEllipse
 62
7
  6
CONTINUOUS
 10
44.2989021232
 20
21.6989021232
 30
0.0
 11
0.5672369947
 21
0.5672369947
 31
0.0
 40
0.9972646886
 41
-0.7840286355
 42
0.7840286355
  0
ELLIPSE
  5
351
100
AcDbEntity
  8
0
100
AcDbEllipse
 62
7
  6
CONTINUOUS
 10
-44.2989021232
 20
21.6989021232
 30
0.0
 11
0.5672369947
 21
-0.5672369947
 31
0.0
 40
0.9972646886
 41
2.3575640181
 42
3.9256212891
  0
ELLIPSE
  5
352
100
AcDbEntity
  8
0
100
AcDbEllipse
 62
7
  6
CONTINUOUS
 10
-44.2989021232
 20
-21.6989021232
 30
0.0
 11
0.5672369947
 21
0.5672369947
 31
0.0
 40
0.9972646886
 41
-3.9256212891
 42
-2.3575640181
  0
ENDSEC
  0
SECTION
  2
OBJECTS
  0
DICTIONARY
  5
C
100
AcDbDictionary
280
0
281
1
  3
ACAD_GROUP
350
D
  3
ACAD_MLINESTYLE
350
17
  3
ACAD_LAYOUT
350
1A
  3
ACAD_PLOTSETTINGS
350
19
  3
ACAD_PLOTSTYLENAME
350
E
  0
DICTIONARY
  5
D
102
{ACAD_REACTORS
330
C
102
}
100
AcDbDictionary
280
0
281
1
  0
ACDBDICTIONARYWDFLT
  5
E
102
{ACAD_REACTORS
330
C
102
}
100
AcDbDictionary
281
1
  3
Normal
350
F
100
AcDbDictionaryWithDefault
340
F
  0
DICTIONARY
  5
17
102
{ACAD_REACTORS
330
C
102
}
100
AcDbDictionary
280
0
281
1
  3
Standard
350
18
  0
DICTIONARY
  5
19
102
{ACAD_REACTORS
330
C
102
}
100
AcDbDictionary
281
1
  0
DICTIONARY
  5
1A
102
{ACAD_REACTORS
330
C
102
}
100
AcDbDictionary
281
1
  3
Model
350
353
  3
Layout1
350
354
  0
ACDBPLACEHOLDER
  5
F
102
{ACAD_REACTORS
330
E
102
}
  0
MLINESTYLE
  5
18
102
{ACAD_REACTORS
330
17
102
}
100
AcDbMlineStyle
  2
STANDARD
 70
0
  3

 62
256
 51
90.0
 52
90.0
 71
2
 49
0.5
 62
256
  6
BYLAYER
 49
-0.5
 62
256
  6
BYLAYER
  0
LAYOUT
  5
353
102
{ACAD_REACTORS
330
1A
102
}
100
AcDbPlotSettings
  1

  2
none_device
  4
ISO_A4_(297.00_x_210.00_MM)
  6

 40
0.0
 41
0.0
 42
0.0
 43
0.0
 44
297.0
 45
210.0
 46
0.0
 47
0.0
 48
0.0
 49
0.0
140
0.0
141
0.0
142
1.0
143
1.0
 70
1024
 72
1
 73
0
 74
0
  7

 75
0
147
1.0
148
0.0
149
0.0
100
AcDbLayout
  1
Model
 70
0
 71
0
 10
0.0
 20
0.0
 11
297.0
 21
210.0
 12
0.0
 22
0.0
 32
0.0
 14
0.0
 24
0.0
 34
0.0
 15
0.0
 25
0.0
 35
0.0
146
0.0
 13
0.0
 23
0.0
 33
0.0
 16
1.0
 26
0.0
 36
0.0
 17
0.0
 27
1.0
 37
0.0
 76
0
330
212
345
0
346
0
  0
LAYOUT
  5
354
102
{ACAD_REACTORS
330
1A
102
}
100
AcDbPlotSettings
  1

  2
none_device
  4
ISO_A4_(297.00_x_210.00_MM)
  6

 40
0.0
 41
0.0
 42
0.0
 43
0.0
 44
297.0
 45
210.0
 46
0.0
 47
0.0
 48
0.0
 49
0.0
140
0.0
141
0.0
142
1.0
143
1.0
 70
0
 72
1
 73
0
 74
0
  7

 75
0
147
1.0
148
0.0
149
0.0
100
AcDbLayout
  1
Layout1
 70
0
 71
1
 10
0.0
 20
0.0
 11
297.0
 21
210.0
 12
0.0
 22
0.0
 32
0.0
 14
0.0
 24
0.0
 34
0.0
 15
0.0
 25
0.0
 35
0.0
146
0.0
 13
0.0
 23
0.0
 33
0.0
 16
1.0
 26
0.0
 36
0.0
 17
0.0
 27
1.0
 37
0.0
 76
0
330
213
345
0
346
0
  0
ENDSEC
  0
EOF
