  0
SECTION
  2
HEADER
  9
$ACADVER
  1
AC1021
  9
$DWGCODEPAGE
  3
ANSI_1252
  9
$EXTMAX
 10
297.0
 20
210.0
 30
0.0
  9
$EXTMIN
 10
0.0
 20
0.0
 30
0.0
  9
$LIMMIN
 10
0.0
 20
0.0
  9
$LIMMAX
 10
297.0
 20
210.0
  9
$VIEWCTR
 10
148.5
 20
105.0
  9
$VIEWSIZE
 40
210.0
  9
$CLAYER
  8
0
  9
$LTSCALE
 40
16.335
  9
$CELTYPE
  6
BYLAYER
  9
$DIMSCALE
 40
1.0
  9
$DIMASZ
 40
3.0
  9
$DIMEXO
 40
1.85625
  9
$DIMDLI
 40
11.286
  9
$DIMEXE
 40
5.346
  9
$DIMCEN
 40
2.673
  9
$DIMLFAC
 40
1.0
  9
$DIMBLK
  1
_FILLED
  9
$DIMTXT
 40
3.0
  9
$DIMTOL
 70
1
  9
$DIMLIM
 70
0
  9
$DIMTFAC
 40
1.0
  9
$DIMTP
 40
0.01
  9
$DIMTM
 40
0.01
  9
$PDMODE
 70
3
  9
$PDSIZE
 40
3.0
  9
$HANDSEED
  5
3FD
  9
$TILEMODE
 70
1
  9
$MEASUREMENT
 70
1
  9
$INSUNITS
 70
4
  0
ENDSEC
  0
SECTION
  2
CLASSES
  0
CLASS
  1
ACDBDICTIONARYWDFLT
  2
AcDbDictionaryWithDefault
  3
AutoCAD 2000
 90
0
 91
1
280
0
281
0
  0
CLASS
  1
ACDBPLACEHOLDER
  2
AcDbPlaceHolder
  3
AutoCAD 2000
 90
0
 91
1
280
0
281
0
  0
CLASS
  1
LAYOUT
  2
AcDbLayout
  3
AutoCAD 2000
 90
0
 91
0
280
0
281
0
  0
ENDSEC
  0
SECTION
  2
TABLES
  0
TABLE
  2
VPORT
  5
8
100
AcDbSymbolTable
 70
2
  0
VPORT
  5
1F4
100
AcDbSymbolTableRecord
100
AcDbViewportTableRecord
  2
*ACTIVE
 70
0
 10
0.0
 20
0.0
 11
1.0
 21
1.0
 12
148.5
 22
105.0
 13
0.0
 23
0.0
 14
1.0
 24
1.0
 15
0.0
 25
0.0
 16
0.0
 26
0.0
 36
1.0
 17
0.0
 27
0.0
 37
0.0
 40
210.0
 41
1.4142857143
 42
50.0
 43
0.0
 44
0.0
 50
0.0
 51
0.0
 71
0
 72
100
 73
1
 74
1
 75
0
 76
0
 77
0
 78
0
  0
ENDTAB
  0
TABLE
  2
LTYPE
  5
5
100
AcDbSymbolTable
 70
6
  0
LTYPE
  5
14
100
AcDbSymbolTableRecord
100
AcDbLinetypeTableRecord
  2
BYBLOCK
 70
0
  3

 72
65
 73
0
 40
0.0
  0
LTYPE
  5
15
100
AcDbSymbolTableRecord
100
AcDbLinetypeTableRecord
  2
BYLAYER
 70
0
  3

 72
65
 73
0
 40
0.0
  0
LTYPE
  5
16
100
AcDbSymbolTableRecord
100
AcDbLinetypeTableRecord
  2
CONTINUOUS
 70
64
  3
Solid line
 72
65
 73
0
 40
0.0
  0
LTYPE
  5
1F5
100
AcDbSymbolTableRecord
100
AcDbLinetypeTableRecord
  2
CENTER
 70
64
  3
____ _ ____ _ ____ _ ____ _ ____ _ ____ _ ____
 72
65
 73
4
 40
0.6
 49
0.375
 74
0
 49
-0.075
 74
0
 49
0.075
 74
0
 49
-0.075
 74
0
  0
LTYPE
  5
1F6
100
AcDbSymbolTableRecord
100
AcDbLinetypeTableRecord
  2
HIDDEN
 70
64
  3
- - - - - - - - - - - - - - - - - - - -
 72
65
 73
2
 40
0.2
 49
0.1
 74
0
 49
-0.1
 74
0
  0
LTYPE
  5
1F7
100
AcDbSymbolTableRecord
100
AcDbLinetypeTableRecord
  2
PHANTOM
 70
64
  3
_____ _ _ _____ _ _ _____ _ _ _____
 72
65
 73
6
 40
0.8
 49
0.45
 74
0
 49
-0.05
 74
0
 49
0.1
 74
0
 49
-0.05
 74
0
 49
0.1
 74
0
 49
-0.05
 74
0
  0
LTYPE
  5
1F8
100
AcDbSymbolTableRecord
100
AcDbLinetypeTableRecord
  2
DOT
 70
64
  3
. . . . . . . . . . . . . . . . . . . .
 72
65
 73
2
 40
0.2
 49
0.1
 74
0
 49
-0.1
 74
0
  0
LTYPE
  5
1F9
100
AcDbSymbolTableRecord
100
AcDbLinetypeTableRecord
  2
DASHED
 70
64
  3
- - - - - - - - - - - - - - - - - - - -
 72
65
 73
2
 40
0.2
 49
0.1
 74
0
 49
-0.1
 74
0
  0
ENDTAB
  0
TABLE
  2
LAYER
  5
2
100
AcDbSymbolTable
 70
36
  0
LAYER
  5
10
100
AcDbSymbolTableRecord
100
AcDbLayerTableRecord
  2
0
 70
0
 62
7
  6
CONTINUOUS
370
-3
390
F
  0
LAYER
  5
1FA
100
AcDbSymbolTableRecord
100
AcDbLayerTableRecord
  2
DEFAULT_1
 70
0
 62
7
  6
CENTER
370
-3
390
F
  0
LAYER
  5
1FB
100
AcDbSymbolTableRecord
100
AcDbLayerTableRecord
  2
DEFAULT_2
 70
0
 62
7
  6
HIDDEN
370
-3
390
F
  0
LAYER
  5
1FC
100
AcDbSymbolTableRecord
100
AcDbLayerTableRecord
  2
DEFAULT_3
 70
0
 62
7
  6
PHANTOM
370
-3
390
F
  0
LAYER
  5
1FD
100
AcDbSymbolTableRecord
100
AcDbLayerTableRecord
  2
ASSI
 70
0
 62
7
  6
CONTINUOUS
370
-3
390
F
  0
LAYER
  5
1FE
100
AcDbSymbolTableRecord
100
AcDbLayerTableRecord
  2
COORDINATE
 70
0
 62
7
  6
CONTINUOUS
370
-3
390
F
  0
LAYER
  5
1FF
100
AcDbSymbolTableRecord
100
AcDbLayerTableRecord
  2
COPY_PUBLISH
 70
0
 62
7
  6
CONTINUOUS
370
-3
390
F
  0
LAYER
  5
200
100
AcDbSymbolTableRecord
100
AcDbLayerTableRecord
  2
COSMETICI
 70
0
 62
7
  6
CONTINUOUS
370
-3
390
F
  0
LAYER
  5
201
100
AcDbSymbolTableRecord
100
AcDbLayerTableRecord
  2
CURVE
 70
0
 62
7
  6
CONTINUOUS
370
-3
390
F
  0
LAYER
  5
202
100
AcDbSymbolTableRecord
100
AcDbLayerTableRecord
  2
DRAFT
 70
0
 62
7
  6
CONTINUOUS
370
-3
390
F
  0
LAYER
  5
203
100
AcDbSymbolTableRecord
100
AcDbLayerTableRecord
  2
IMPORT_IGES
 70
0
 62
7
  6
CONTINUOUS
370
-3
390
F
  0
LAYER
  5
204
100
AcDbSymbolTableRecord
100
AcDbLayerTableRecord
  2
INTF_1
 70
0
 62
7
  6
CONTINUOUS
370
-3
390
F
  0
LAYER
  5
205
100
AcDbSymbolTableRecord
100
AcDbLayerTableRecord
  2
NOTE
 70
0
 62
7
  6
CONTINUOUS
370
-3
390
F
  0
LAYER
  5
206
100
AcDbSymbolTableRecord
100
AcDbLayerTableRecord
  2
PIANI
 70
0
 62
7
  6
CONTINUOUS
370
-3
390
F
  0
LAYER
  5
207
100
AcDbSymbolTableRecord
100
AcDbLayerTableRecord
  2
PUNTI
 70
0
 62
7
  6
CONTINUOUS
370
-3
390
F
  0
LAYER
  5
208
100
AcDbSymbolTableRecord
100
AcDbLayerTableRecord
  2
RACCORDO
 70
0
 62
7
  6
CONTINUOUS
370
-3
390
F
  0
LAYER
  5
209
100
AcDbSymbolTableRecord
100
AcDbLayerTableRecord
  2
SCRITTE
 70
0
 62
7
  6
CONTINUOUS
370
-3
390
F
  0
LAYER
  5
20A
100
AcDbSymbolTableRecord
100
AcDbLayerTableRecord
  2
SIMBOLI
 70
0
 62
7
  6
CONTINUOUS
370
-3
390
F
  0
LAYER
  5
20B
100
AcDbSymbolTableRecord
100
AcDbLayerTableRecord
  2
SMUSSO
 70
0
 62
7
  6
CONTINUOUS
370
-3
390
F
  0
LAYER
  5
20C
100
AcDbSymbolTableRecord
100
AcDbLayerTableRecord
  2
SNAPLINE
 70
0
 62
7
  6
CONTINUOUS
370
-3
390
F
  0
LAYER
  5
20D
100
AcDbSymbolTableRecord
100
AcDbLayerTableRecord
  2
SUPERFICI
 70
0
 62
7
  6
CONTINUOUS
370
-3
390
F
  0
LAYER
  5
20E
100
AcDbSymbolTableRecord
100
AcDbLayerTableRecord
  2
TRASH
 70
0
 62
7
  6
CONTINUOUS
370
-3
390
F
  0
ENDTAB
  0
TABLE
  2
STYLE
  5
3
100
AcDbSymbolTable
 70
1
  0
STYLE
  5
11
100
AcDbSymbolTableRecord
100
AcDbTextStyleTableRecord
  2
STANDARD
 70
0
 40
0.0
 41
0.8
 50
0.0
 71
0
 42
0.2
  3
txt
  4

  0
STYLE
  5
20F
100
AcDbSymbolTableRecord
100
AcDbTextStyleTableRecord
  2
TEXTSTYLE_1
 70
0
 40
0.0
 41
0.8
 50
0.0
 71
0
 42
0.2
  3
gdt
  4

  0
ENDTAB
  0
TABLE
  2
VIEW
  5
6
100
AcDbSymbolTable
 70
0
  0
ENDTAB
  0
TABLE
  2
UCS
  5
7
100
AcDbSymbolTable
 70
0
  0
ENDTAB
  0
TABLE
  2
APPID
  5
9
100
AcDbSymbolTable
 70
1
  0
APPID
  5
210
100
AcDbSymbolTableRecord
100
AcDbRegAppTableRecord
  2
ACAD
 70
0
  0
ENDTAB
  0
TABLE
  2
BLOCK_RECORD
  5
1
100
AcDbSymbolTable
 70
0
  0
BLOCK_RECORD
  5
211
100
AcDbSymbolTableRecord
100
AcDbBlockTableRecord
  2
*Model_Space
  0
BLOCK_RECORD
  5
212
100
AcDbSymbolTableRecord
100
AcDbBlockTableRecord
  2
*Paper_Space
  0
BLOCK_RECORD
  5
213
100
AcDbSymbolTableRecord
100
AcDbBlockTableRecord
  2
_FILLED
  0
BLOCK_RECORD
  5
214
100
AcDbSymbolTableRecord
100
AcDbBlockTableRecord
  2
*D0
  0
BLOCK_RECORD
  5
215
100
AcDbSymbolTableRecord
100
AcDbBlockTableRecord
  2
*D1
  0
BLOCK_RECORD
  5
216
100
AcDbSymbolTableRecord
100
AcDbBlockTableRecord
  2
*D2
  0
ENDTAB
  0
TABLE
  2
DIMSTYLE
  5
A
100
AcDbSymbolTable
 70
1
100
AcDbDimStyleTable
 71
0
  0
DIMSTYLE
105
217
100
AcDbSymbolTableRecord
100
AcDbDimStyleTableRecord
  2
STANDARD
 70
0
  3

  4

 40
1.0
 41
3.0
 42
0.0625
 43
0.38
 44
0.18
 45
0.0
 46
0.0
 47
0.01
 48
0.01
140
3.0
141
0.09
142
0.0
143
25.4
144
1.0
145
0.0
146
1.0
147
0.09
 71
1.0
 72
0.0
 73
0
 74
0
 75
0
 76
0
 77
1
 78
8
170
0
171
2
172
0
173
0
174
0
175
0
176
0
177
0
178
0
270
2
271
2
272
2
273
2
274
2
275
0
280
0
281
0
282
0
283
1
284
8
285
0
286
0
287
3
288
0
340
11
341
213
342
213
343
213
344
213
  0
DIMSTYLE
105
218
100
AcDbSymbolTableRecord
100
AcDbDimStyleTableRecord
  2
DIMSTYLE_1
 70
0
  3

  4

 40
1.0
 41
3.0
 42
0.0625
 43
0.38
 44
0.18
 45
0.0
 46
0.0
 47
0.0
 48
0.0
140
3.0
141
0.09
142
0.0
143
25.4
144
1.0
145
0.0
146
1.0
147
0.09
 71
0.0
 72
0.0
 73
0
 74
0
 75
0
 76
0
 77
1
 78
8
170
0
171
2
172
0
173
0
174
0
175
0
176
0
177
0
178
0
270
2
271
2
272
2
273
2
274
2
275
0
280
0
281
0
282
0
283
1
284
8
285
0
286
0
287
3
288
0
340
11
341
213
342
213
343
213
344
213
  0
DIMSTYLE
105
219
100
AcDbSymbolTableRecord
100
AcDbDimStyleTableRecord
  2
DIMSTYLE_2
 70
0
  3

  4

 40
1.0
 41
3.0
 42
0.0625
 43
0.38
 44
0.18
 45
0.0
 46
0.0
 47
0.0
 48
0.0
140
3.0
141
0.09
142
0.0
143
25.4
144
1.0
145
0.0
146
1.0
147
0.09
 71
0.0
 72
0.0
 73
0
 74
0
 75
0
 76
0
 77
1
 78
8
170
0
171
2
172
0
173
0
174
0
175
0
176
0
177
0
178
0
270
2
271
1
272
1
273
2
274
2
275
0
280
0
281
0
282
0
283
1
284
8
285
0
286
0
287
3
288
0
340
11
341
213
342
213
343
213
344
213
  0
ENDTAB
  0
ENDSEC
  0
SECTION
  2
BLOCKS
  0
BLOCK
  5
20
100
AcDbEntity
  8
0
100
AcDbBlockBegin
  2
*Model_Space
 70
0
 10
0.0
 20
0.0
 30
0.0
  3
*Model_Space
  1

  0
ENDBLK
  5
21
100
AcDbEntity
  8
0
100
AcDbBlockEnd
  0
BLOCK
  5
1C
100
AcDbEntity
  8
0
100
AcDbBlockBegin
  2
*Paper_Space
 70
0
 10
0.0
 20
0.0
 30
0.0
  3
*Paper_Space
  1

  0
ENDBLK
  5
1D
100
AcDbEntity
  8
0
100
AcDbBlockEnd
  0
BLOCK
  5
21A
100
AcDbEntity
  8
0
100
AcDbBlockBegin
  2
_FILLED
 70
64
 10
0.0
 20
0.0
  3
_FILLED
  1

  0
SOLID
  5
21B
100
AcDbEntity
  8
0
  6
BYBLOCK
 62
0
100
AcDbTrace
 10
0.0
 20
0.0
 11
-1.0
 21
0.3166666667
 12
-1.0
 22
-0.3166666667
 13
-1.0
 23
-0.3166666667
  0
ENDBLK
  5
21C
100
AcDbEntity
  8
0
  6
BYBLOCK
 62
0
100
AcDbBlockEnd
  0
BLOCK
  5
21D
100
AcDbEntity
  8
0
100
AcDbBlockBegin
 62
7
  6
CONTINUOUS
  2
*D0
 70
65
 10
0.0
 20
0.0
  3
*D0
  1

  0
MTEXT
  5
21E
100
AcDbEntity
  8
0
100
AcDbMText
 62
7
  6
CONTINUOUS
  7
STANDARD
 71
2
 72
1
 10
169.185031185
 20
157.6746312771
 30
0.0
 11
1.0
 21
0.0
 31
0.0
 44
0.9
  1
144,5
 40
3.0
 41
10.2857142857
  0
LINE
  5
21F
100
AcDbEntity
  8
0
100
AcDbLine
 62
7
  6
CONTINUOUS
 10
96.935031185
 20
140.9417169083
 11
96.935031185
 21
155.4246312771
  0
LINE
  5
220
100
AcDbEntity
  8
0
100
AcDbLine
 62
7
  6
CONTINUOUS
 10
241.435031185
 20
140.9417169083
 11
241.435031185
 21
155.4246312771
  0
LINE
  5
221
100
AcDbEntity
  8
0
100
AcDbLine
 62
7
  6
CONTINUOUS
 10
96.935031185
 20
153.9246312771
 11
169.185031185
 21
153.9246312771
  0
LINE
  5
222
100
AcDbEntity
  8
0
100
AcDbLine
 62
7
  6
CONTINUOUS
 10
241.435031185
 20
153.9246312771
 11
169.185031185
 21
153.9246312771
  0
INSERT
  5
223
100
AcDbEntity
  8
0
100
AcDbBlockReference
 62
7
  6
CONTINUOUS
  2
_FILLED
 10
96.935031185
 20
153.9246312771
 41
3.0
 42
3.0
 43
3.0
 50
180.0
  0
INSERT
  5
224
100
AcDbEntity
  8
0
100
AcDbBlockReference
 62
7
  6
CONTINUOUS
  2
_FILLED
 10
241.435031185
 20
153.9246312771
 41
3.0
 42
3.0
 43
3.0
  0
ENDBLK
  5
225
100
AcDbEntity
  8
0
  6
BYBLOCK
 62
0
100
AcDbBlockEnd
  0
BLOCK
  5
226
100
AcDbEntity
  8
0
100
AcDbBlockBegin
 62
7
  6
CONTINUOUS
  2
*D1
 70
65
 10
0.0
 20
0.0
  3
*D1
  1

  0
MTEXT
  5
227
100
AcDbEntity
  8
0
100
AcDbMText
 62
7
  6
CONTINUOUS
  7
STANDARD
 71
2
 72
1
 10
253.5793725489
 20
96.2417169083
 30
0.0
 11
0.0
 21
1.0
 31
0.0
 44
0.9
  1
90
 40
3.0
 41
4.7142857143
  0
LINE
  5
228
100
AcDbEntity
  8
0
100
AcDbLine
 62
7
  6
CONTINUOUS
 10
241.135031185
 20
51.2417169083
 11
258.8293725489
 21
51.2417169083
  0
LINE
  5
229
100
AcDbEntity
  8
0
100
AcDbLine
 62
7
  6
CONTINUOUS
 10
241.135031185
 20
141.2417169083
 11
258.8293725489
 21
141.2417169083
  0
LINE
  5
22A
100
AcDbEntity
  8
0
100
AcDbLine
 62
7
  6
CONTINUOUS
 10
257.3293725489
 20
51.2417169083
 11
257.3293725489
 21
96.2417169083
  0
LINE
  5
22B
100
AcDbEntity
  8
0
100
AcDbLine
 62
7
  6
CONTINUOUS
 10
257.3293725489
 20
141.2417169083
 11
257.3293725489
 21
96.2417169083
  0
INSERT
  5
22C
100
AcDbEntity
  8
0
100
AcDbBlockReference
 62
7
  6
CONTINUOUS
  2
_FILLED
 10
257.3293725489
 20
51.2417169083
 41
3.0
 42
3.0
 43
3.0
 50
270.0
  0
INSERT
  5
22D
100
AcDbEntity
  8
0
100
AcDbBlockReference
 62
7
  6
CONTINUOUS
  2
_FILLED
 10
257.3293725489
 20
141.2417169083
 41
3.0
 42
3.0
 43
3.0
 50
90.0
  0
ENDBLK
  5
22E
100
AcDbEntity
  8
0
  6
BYBLOCK
 62
0
100
AcDbBlockEnd
  0
BLOCK
  5
22F
100
AcDbEntity
  8
0
100
AcDbBlockBegin
 62
7
  6
CONTINUOUS
  2
*D2
 70
65
 10
0.0
 20
0.0
  3
*D2
  1

  0
MTEXT
  5
230
100
AcDbEntity
  8
0
100
AcDbMText
 62
7
  6
CONTINUOUS
  7
STANDARD
 71
3
 72
1
 10
58.5205417447
 20
157.8779734077
 30
0.0
 11
1.0
 21
0.0
 31
0.0
 44
0.9
  1
8,6
 40
3.0
 41
6.4285714286
  0
LINE
  5
231
100
AcDbEntity
  8
0
100
AcDbLine
 62
7
  6
CONTINUOUS
 10
69.9320663226
 20
139.3084655683
 11
69.9320663335
 21
155.6279734
  0
LINE
  5
232
100
AcDbEntity
  8
0
100
AcDbLine
 62
7
  6
CONTINUOUS
 10
61.362066309
 20
96.7417172098
 11
61.3620663485
 21
155.6279734058
  0
LINE
  5
233
100
AcDbEntity
  8
0
100
AcDbLine
 62
7
  6
CONTINUOUS
 10
69.9320663325
 20
154.1279734
 11
65.64706634
 21
154.1279734029
  0
LINE
  5
234
100
AcDbEntity
  8
0
100
AcDbLine
 62
7
  6
CONTINUOUS
 10
61.3620663475
 20
154.1279734058
 11
65.64706634
 21
154.1279734029
  0
LINE
  5
235
100
AcDbEntity
  8
0
100
AcDbLine
 62
7
  6
CONTINUOUS
 10
65.64706634
 20
154.1279734029
 11
52.0919703162
 21
154.1279734077
  0
INSERT
  5
236
100
AcDbEntity
  8
0
100
AcDbBlockReference
 62
7
  6
CONTINUOUS
  2
_FILLED
 10
69.9320663325
 20
154.1279734
 41
3.0
 42
3.0
 43
3.0
 50
359.9999999616
  0
INSERT
  5
237
100
AcDbEntity
  8
0
100
AcDbBlockReference
 62
7
  6
CONTINUOUS
  2
_FILLED
 10
61.3620663475
 20
154.1279734058
 41
3.0
 42
3.0
 43
3.0
 50
179.9999999616
  0
ENDBLK
  5
238
100
AcDbEntity
  8
0
  6
BYBLOCK
 62
0
100
AcDbBlockEnd
  0
ENDSEC
  0
SECTION
  2
ENTITIES
  0
DIMENSION
  5
239
100
AcDbEntity
  8
0
100
AcDbDimension
 62
7
  6
CONTINUOUS
  2
*D0
 10
241.435031185
 20
153.9246312771
 11
164.0421740422
 21
156.1746312771
 70
160
 71
2
 42
144.5
  3
DIMSTYLE_1
100
AcDbAlignedDimension
 13
96.935031185
 23
140.9417169083
 14
241.435031185
 24
140.9417169083
100
AcDbRotatedDimension
  0
DIMENSION
  5
23A
100
AcDbEntity
  8
0
100
AcDbDimension
 62
7
  6
CONTINUOUS
  2
*D1
 10
257.3293725489
 20
141.2417169083
 11
256.1355460726
 21
94.1344390584
 70
160
 71
2
 42
90.0
  3
DIMSTYLE_1
100
AcDbAlignedDimension
 13
241.135031185
 23
51.2417169083
 14
241.135031185
 24
141.2417169083
 50
90.0
100
AcDbRotatedDimension
  0
DIMENSION
  5
23B
100
AcDbEntity
  8
0
100
AcDbDimension
 62
7
  6
CONTINUOUS
  2
*D2
 10
61.3620663475
 20
154.1279734058
 11
48.8776846019
 21
156.3779734077
 70
160
 71
3
 42
8.569999985
  3
DIMSTYLE_2
100
AcDbAlignedDimension
 13
69.9320663226
 23
139.3084655683
 14
61.362066309
 24
96.7417172098
 50
179.9999999616
100
AcDbRotatedDimension
  0
LWPOLYLINE
  5
23C
100
AcDbEntity
  8
RACCORDO
100
AcDbPolyline
 62
253
  6
CONTINUOUS
 90
19
 70
0
 10
97.0456843613
 20
52.1513598829
 10
97.0510146792
 20
52.1440744026
 10
97.0596834484
 20
52.1368922691
 10
97.0716319313
 20
52.1298621468
 10
97.0867791676
 20
52.1230316703
 10
97.1050225231
 20
52.1164471214
 10
97.1262383847
 20
52.1101531156
 10
97.1502829985
 20
52.1041922997
 10
97.1769934437
 20
52.0986050627
 10
97.206188736
 20
52.0934292626
 10
97.2376710548
 20
52.0886999694
 10
97.2712270829
 20
52.0844492278
 10
97.3066294519
 20
52.0807058399
 10
97.3436382835
 20
52.07749517
 10
97.3820028139
 20
52.0748389729
 10
97.4214630937
 20
52.0727552464
 10
97.4617517487
 20
52.0712581094
 10
97.502595792
 20
52.0703577061
 10
97.5437184735
 20
52.0700601375
  0
LWPOLYLINE
  5
23D
100
AcDbEntity
  8
ASSI
100
AcDbPolyline
 62
253
  6
CONTINUOUS
 90
19
 70
0
 10
97.0456843613
 20
52.1513598829
 10
97.0510146792
 20
52.1440744026
 10
97.0596834484
 20
52.1368922691
 10
97.0716319313
 20
52.1298621468
 10
97.0867791676
 20
52.1230316703
 10
97.1050225231
 20
52.1164471214
 10
97.1262383847
 20
52.1101531156
 10
97.1502829985
 20
52.1041922997
 10
97.1769934437
 20
52.0986050627
 10
97.206188736
 20
52.0934292626
 10
97.2376710548
 20
52.0886999694
 10
97.2712270829
 20
52.0844492278
 10
97.3066294519
 20
52.0807058399
 10
97.3436382835
 20
52.07749517
 10
97.3820028139
 20
52.0748389729
 10
97.4214630937
 20
52.0727552464
 10
97.4617517487
 20
52.0712581094
 10
97.502595792
 20
52.0703577061
 10
97.5437184735
 20
52.0700601375
  0
LWPOLYLINE
  5
23E
100
AcDbEntity
  8
RACCORDO
100
AcDbPolyline
 62
253
  6
CONTINUOUS
 90
19
 70
0
 10
97.0456885866
 20
140.3320738661
 10
97.0510188323
 20
140.3393593594
 10
97.0596874994
 20
140.3465415047
 10
97.0716358513
 20
140.3535716375
 10
97.086782929
 20
140.3604021233
 10
97.1050260998
 20
140.3669866804
 10
97.1262417529
 20
140.3732806932
 10
97.1502861364
 20
140.3792415151
 10
97.1769963319
 20
140.3848287569
 10
97.2061913579
 20
140.3900045608
 10
97.2376733967
 20
140.3947338568
 10
97.271229134
 20
140.3989846003
 10
97.3066312049
 20
140.4027279892
 10
97.3436397343
 20
140.4059386595
 10
97.3820039619
 20
140.4085948562
 10
97.4214639416
 20
140.4106785817
 10
97.461752303
 20
140.4121757173
 10
97.5025960625
 20
140.4130761187
 10
97.5437184735
 20
140.4133736851
  0
LWPOLYLINE
  5
23F
100
AcDbEntity
  8
ASSI
100
AcDbPolyline
 62
253
  6
CONTINUOUS
 90
19
 70
0
 10
97.0456885866
 20
140.3320738661
 10
97.0510188323
 20
140.3393593594
 10
97.0596874994
 20
140.3465415047
 10
97.0716358513
 20
140.3535716375
 10
97.086782929
 20
140.3604021233
 10
97.1050260998
 20
140.3669866804
 10
97.1262417529
 20
140.3732806932
 10
97.1502861364
 20
140.3792415151
 10
97.1769963319
 20
140.3848287569
 10
97.2061913579
 20
140.3900045608
 10
97.2376733967
 20
140.3947338568
 10
97.271229134
 20
140.3989846003
 10
97.3066312049
 20
140.4027279892
 10
97.3436397343
 20
140.4059386595
 10
97.3820039619
 20
140.4085948562
 10
97.4214639416
 20
140.4106785817
 10
97.461752303
 20
140.4121757173
 10
97.5025960625
 20
140.4130761187
 10
97.5437184735
 20
140.4133736851
  0
LWPOLYLINE
  5
240
100
AcDbEntity
  8
RACCORDO
100
AcDbPolyline
 62
253
  6
CONTINUOUS
 90
28
 70
0
 10
97.5437184735
 20
140.4133736871
 10
97.5442287669
 20
140.4310485054
 10
97.5457139475
 20
140.4485295694
 10
97.5481740155
 20
140.4658168903
 10
97.5516228859
 20
140.4829655132
 10
97.5560466436
 20
140.4999204125
 10
97.5614035428
 20
140.5165165016
 10
97.5677046062
 20
140.5327535702
 10
97.5749388111
 20
140.5486318672
 10
97.5830313435
 20
140.5639870134
 10
97.5919895674
 20
140.5788100937
 10
97.6018061188
 20
140.5931100754
 10
97.6123840917
 20
140.6067494161
 10
97.6237318629
 20
140.6197226785
 10
97.6358410557
 20
140.6320353583
 10
97.6485896336
 20
140.6435663212
 10
97.6619827755
 20
140.6543068153
 10
97.6760153025
 20
140.6642656505
 10
97.6905496413
 20
140.673348041
 10
97.7055906387
 20
140.6815455482
 10
97.7211334477
 20
140.688866661
 10
97.7370259543
 20
140.6952419854
 10
97.7532757515
 20
140.7006625585
 10
97.7698752463
 20
140.7051373805
 10
97.7866495444
 20
140.7086239997
 10
97.8035403478
 20
140.7111082725
 10
97.8206059546
 20
140.7126043624
 10
97.8378463647
 20
140.7131122741
  0
LWPOLYLINE
  5
241
100
AcDbEntity
  8
ASSI
100
AcDbPolyline
 62
253
  6
CONTINUOUS
 90
28
 70
0
 10
97.5437184735
 20
140.4133736871
 10
97.5442287669
 20
140.4310485054
 10
97.5457139475
 20
140.4485295694
 10
97.5481740155
 20
140.4658168903
 10
97.5516228859
 20
140.4829655132
 10
97.5560466436
 20
140.4999204125
 10
97.5614035428
 20
140.5165165016
 10
97.5677046062
 20
140.5327535702
 10
97.5749388111
 20
140.5486318672
 10
97.5830313435
 20
140.5639870134
 10
97.5919895674
 20
140.5788100937
 10
97.6018061188
 20
140.5931100754
 10
97.6123840917
 20
140.6067494161
 10
97.6237318629
 20
140.6197226785
 10
97.6358410557
 20
140.6320353583
 10
97.6485896336
 20
140.6435663212
 10
97.6619827755
 20
140.6543068153
 10
97.6760153025
 20
140.6642656505
 10
97.6905496413
 20
140.673348041
 10
97.7055906387
 20
140.6815455482
 10
97.7211334477
 20
140.688866661
 10
97.7370259543
 20
140.6952419854
 10
97.7532757515
 20
140.7006625585
 10
97.7698752463
 20
140.7051373805
 10
97.7866495444
 20
140.7086239997
 10
97.8035403478
 20
140.7111082725
 10
97.8206059546
 20
140.7126043624
 10
97.8378463647
 20
140.7131122741
  0
LWPOLYLINE
  5
242
100
AcDbEntity
  8
RACCORDO
100
AcDbPolyline
 62
253
  6
CONTINUOUS
 90
28
 70
0
 10
97.0456843581
 20
140.3320739239
 10
97.0476803275
 20
140.3782988886
 10
97.0523139818
 20
140.4242805997
 10
97.0595622691
 20
140.4698689892
 10
97.069388719
 20
140.514901821
 10
97.0817566156
 20
140.5592477837
 10
97.0966377393
 20
140.602804542
 10
97.1139936406
 20
140.6454521876
 10
97.1337600026
 20
140.6870270046
 10
97.1558610607
 20
140.7273651482
 10
97.1802143733
 20
140.7663269161
 10
97.2067410663
 20
140.803796871
 10
97.2353563755
 20
140.83965614
 10
97.2659645606
 20
140.8737896917
 10
97.2984620404
 20
140.9060872171
 10
97.332743849
 20
140.9364447282
 10
97.3686950208
 20
140.96476369
 10
97.4061968078
 20
140.9909543961
 10
97.4451316105
 20
141.01493496
 10
97.4853736281
 20
141.036628743
 10
97.5267881793
 20
141.055964586
 10
97.5692387028
 20
141.0728792466
 10
97.6125813023
 20
141.087316738
 10
97.6566782116
 20
141.0992329617
 10
97.7013984509
 20
141.1085924416
 10
97.7466006475
 20
141.1153636804
 10
97.7921328426
 20
141.1195218073
 10
97.8378463647
 20
141.1210515356
  0
LWPOLYLINE
  5
243
100
AcDbEntity
  8
ASSI
100
AcDbPolyline
 62
253
  6
CONTINUOUS
 90
28
 70
0
 10
97.0456843581
 20
140.3320739239
 10
97.0476803275
 20
140.3782988886
 10
97.0523139818
 20
140.4242805997
 10
97.0595622691
 20
140.4698689892
 10
97.069388719
 20
140.514901821
 10
97.0817566156
 20
140.5592477837
 10
97.0966377393
 20
140.602804542
 10
97.1139936406
 20
140.6454521876
 10
97.1337600026
 20
140.6870270046
 10
97.1558610607
 20
140.7273651482
 10
97.1802143733
 20
140.7663269161
 10
97.2067410663
 20
140.803796871
 10
97.2353563755
 20
140.83965614
 10
97.2659645606
 20
140.8737896917
 10
97.2984620404
 20
140.9060872171
 10
97.332743849
 20
140.9364447282
 10
97.3686950208
 20
140.96476369
 10
97.4061968078
 20
140.9909543961
 10
97.4451316105
 20
141.01493496
 10
97.4853736281
 20
141.036628743
 10
97.5267881793
 20
141.055964586
 10
97.5692387028
 20
141.0728792466
 10
97.6125813023
 20
141.087316738
 10
97.6566782116
 20
141.0992329617
 10
97.7013984509
 20
141.1085924416
 10
97.7466006475
 20
141.1153636804
 10
97.7921328426
 20
141.1195218073
 10
97.8378463647
 20
141.1210515356
  0
LINE
  5
244
100
AcDbEntity
  8
RACCORDO
100
AcDbLine
 62
7
  6
CONTINUOUS
 10
96.935031185
 20
52.0417169083
 11
96.935031185
 21
73.7270946861
  0
LINE
  5
245
100
AcDbEntity
  8
DRAFT
100
AcDbLine
 62
7
  6
CONTINUOUS
 10
96.935031185
 20
73.7270946861
 11
96.935031185
 21
118.7563391306
  0
LINE
  5
246
100
AcDbEntity
  8
RACCORDO
100
AcDbLine
 62
7
  6
CONTINUOUS
 10
96.935031185
 20
118.7563391306
 11
96.935031185
 21
140.4417169083
  0
LINE
  5
247
100
AcDbEntity
  8
ASSI
100
AcDbLine
 62
7
  6
CONTINUOUS
 10
96.935031185
 20
52.0417169083
 11
96.935031185
 21
140.4417169083
  0
LINE
  5
248
100
AcDbEntity
  8
RACCORDO
100
AcDbLine
 62
253
  6
CONTINUOUS
 10
97.0456843583
 20
52.151359893
 11
97.043853712
 21
88.7340556356
  0
LINE
  5
249
100
AcDbEntity
  8
ASSI
100
AcDbLine
 62
253
  6
CONTINUOUS
 10
97.0456843583
 20
52.151359893
 11
97.043853712
 21
88.7340556356
  0
LINE
  5
24A
100
AcDbEntity
  8
RACCORDO
100
AcDbLine
 62
253
  6
CONTINUOUS
 10
97.5437184735
 20
52.0700601295
 11
97.5419505218
 21
88.7264339648
  0
LINE
  5
24B
100
AcDbEntity
  8
ASSI
100
AcDbLine
 62
253
  6
CONTINUOUS
 10
97.5437184735
 20
52.0700601295
 11
97.5419505218
 21
88.7264339648
  0
LINE
  5
24C
100
AcDbEntity
  8
RACCORDO
100
AcDbLine
 62
253
  6
CONTINUOUS
 10
97.8378463647
 20
141.1210515356
 11
97.8378463647
 21
140.7131122741
  0
LINE
  5
24D
100
AcDbEntity
  8
ASSI
100
AcDbLine
 62
253
  6
CONTINUOUS
 10
97.8378463647
 20
141.1210515356
 11
97.8378463647
 21
140.7131122741
  0
LINE
  5
24E
100
AcDbEntity
  8
RACCORDO
100
AcDbLine
 62
253
  6
CONTINUOUS
 10
97.8378463647
 20
51.3623822811
 11
97.8378463647
 21
51.7703215426
  0
LINE
  5
24F
100
AcDbEntity
  8
ASSI
100
AcDbLine
 62
253
  6
CONTINUOUS
 10
97.8378463647
 20
51.3623822811
 11
97.8378463647
 21
51.7703215426
  0
LWPOLYLINE
  5
250
100
AcDbEntity
  8
RACCORDO
100
AcDbPolyline
 62
253
  6
CONTINUOUS
 90
3
 70
0
 10
97.043853712
 20
88.7340556356
 10
97.0441856124
 20
123.6243646875
 10
97.0456843583
 20
140.3320739238
  0
LWPOLYLINE
  5
251
100
AcDbEntity
  8
ASSI
100
AcDbPolyline
 62
253
  6
CONTINUOUS
 90
3
 70
0
 10
97.043853712
 20
88.7340556356
 10
97.0441856124
 20
123.6243646875
 10
97.0456843583
 20
140.3320739238
  0
LWPOLYLINE
  5
252
100
AcDbEntity
  8
RACCORDO
100
AcDbPolyline
 62
253
  6
CONTINUOUS
 90
3
 70
0
 10
97.5419505218
 20
88.7264339648
 10
97.542277585
 20
123.6603288449
 10
97.5437184735
 20
140.4133736871
  0
LWPOLYLINE
  5
253
100
AcDbEntity
  8
ASSI
100
AcDbPolyline
 62
253
  6
CONTINUOUS
 90
3
 70
0
 10
97.5419505218
 20
88.7264339648
 10
97.542277585
 20
123.6603288449
 10
97.5437184735
 20
140.4133736871
  0
LWPOLYLINE
  5
254
100
AcDbEntity
  8
RACCORDO
100
AcDbPolyline
 62
7
  6
CONTINUOUS
 90
22
 70
0
 10
123.8850311772
 20
73.9411593741
 10
123.8861972209
 20
73.9111534083
 10
123.889516284
 20
73.8816465683
 10
123.8949883666
 20
73.8526388493
 10
123.9026519455
 20
73.8239988514
 10
123.9124685438
 20
73.7958579659
 10
123.9243227306
 20
73.7686103716
 10
123.938247894
 20
73.7422395279
 10
123.9542106458
 20
73.7167619595
 10
123.9719953908
 20
73.6926214359
 10
123.9916842314
 20
73.6698090711
 10
124.0131950651
 20
73.6483337301
 10
124.0360659891
 20
73.6286658021
 10
124.0603023382
 20
73.6108832506
 10
124.0858987776
 20
73.5949080891
 10
124.1123774001
 20
73.5809767786
 10
124.1397005051
 20
73.5691335176
 10
124.1679057931
 20
73.5593340898
 10
124.196628458
 20
73.5516823351
 10
124.2257468977
 20
73.5462128634
 10
124.2553827141
 20
73.5428910553
 10
124.2855359074
 20
73.5417169083
  0
LWPOLYLINE
  5
255
100
AcDbEntity
  8
ASSI
100
AcDbPolyline
 62
7
  6
CONTINUOUS
 90
22
 70
0
 10
123.8850311772
 20
73.9411593741
 10
123.8861972209
 20
73.9111534083
 10
123.889516284
 20
73.8816465683
 10
123.8949883666
 20
73.8526388493
 10
123.9026519455
 20
73.8239988514
 10
123.9124685438
 20
73.7958579659
 10
123.9243227306
 20
73.7686103716
 10
123.938247894
 20
73.7422395279
 10
123.9542106458
 20
73.7167619595
 10
123.9719953908
 20
73.6926214359
 10
123.9916842314
 20
73.6698090711
 10
124.0131950651
 20
73.6483337301
 10
124.0360659891
 20
73.6286658021
 10
124.0603023382
 20
73.6108832506
 10
124.0858987776
 20
73.5949080891
 10
124.1123774001
 20
73.5809767786
 10
124.1397005051
 20
73.5691335176
 10
124.1679057931
 20
73.5593340898
 10
124.196628458
 20
73.5516823351
 10
124.2257468977
 20
73.5462128634
 10
124.2553827141
 20
73.5428910553
 10
124.2855359074
 20
73.5417169083
  0
LINE
  5
256
100
AcDbEntity
  8
RACCORDO
100
AcDbLine
 62
253
  6
CONTINUOUS
 10
123.3318704536
 20
73.8638961484
 11
123.3318704536
 21
118.6195376683
  0
LINE
  5
257
100
AcDbEntity
  8
ASSI
100
AcDbLine
 62
253
  6
CONTINUOUS
 10
123.3318704536
 20
73.8638961484
 11
123.3318704536
 21
118.6195376683
  0
LWPOLYLINE
  5
258
100
AcDbEntity
  8
RACCORDO
100
AcDbPolyline
 62
253
  6
CONTINUOUS
 90
7
 70
0
 10
123.3318704536
 20
118.6195376683
 10
123.3326766175
 20
118.6571858146
 10
123.3350205697
 20
118.6945866479
 10
123.3389023103
 20
118.7317401712
 10
123.3443218392
 20
118.7686463871
 10
123.3512791564
 20
118.8053052986
 10
123.359774262
 20
118.8417169084
  0
LWPOLYLINE
  5
259
100
AcDbEntity
  8
ASSI
100
AcDbPolyline
 62
253
  6
CONTINUOUS
 90
7
 70
0
 10
123.3318704536
 20
118.6195376683
 10
123.3326766175
 20
118.6571858146
 10
123.3350205697
 20
118.6945866479
 10
123.3389023103
 20
118.7317401712
 10
123.3443218392
 20
118.7686463871
 10
123.3512791564
 20
118.8053052986
 10
123.359774262
 20
118.8417169084
  0
LWPOLYLINE
  5
25A
100
AcDbEntity
  8
RACCORDO
100
AcDbPolyline
 62
253
  6
CONTINUOUS
 90
25
 70
0
 10
123.359774262
 20
118.8417169084
 10
123.373367954
 20
118.8895110879
 10
123.3894740951
 20
118.9362581201
 10
123.4080926852
 20
118.9819580457
 10
123.429300845
 20
119.0267612684
 10
123.4530214537
 20
119.0705174602
 10
123.4790231497
 20
119.1127755819
 10
123.5073188006
 20
119.1535014293
 10
123.5378955387
 20
119.1927293176
 10
123.5704833984
 20
119.2301110144
 10
123.6051059826
 20
119.2656348841
 10
123.6417396884
 20
119.2993126855
 10
123.6800437416
 20
119.3308312965
 10
123.7200337591
 20
119.3601685798
 10
123.7616941239
 20
119.3873467958
 10
123.8046372113
 20
119.41211943
 10
123.8488696189
 20
119.4344618505
 10
123.894384749
 20
119.4543987971
 10
123.9407751836
 20
119.4717578147
 10
123.9880386969
 20
119.4865166069
 10
124.0361775146
 20
119.4986975499
 10
124.0847908961
 20
119.5081951922
 10
124.133745261
 20
119.5149743977
 10
124.1831741897
 20
119.519070345
 10
124.233077682
 20
119.5204830446
  0
LWPOLYLINE
  5
25B
100
AcDbEntity
  8
ASSI
100
AcDbPolyline
 62
253
  6
CONTINUOUS
 90
25
 70
0
 10
123.359774262
 20
118.8417169084
 10
123.373367954
 20
118.8895110879
 10
123.3894740951
 20
118.9362581201
 10
123.4080926852
 20
118.9819580457
 10
123.429300845
 20
119.0267612684
 10
123.4530214537
 20
119.0705174602
 10
123.4790231497
 20
119.1127755819
 10
123.5073188006
 20
119.1535014293
 10
123.5378955387
 20
119.1927293176
 10
123.5704833984
 20
119.2301110144
 10
123.6051059826
 20
119.2656348841
 10
123.6417396884
 20
119.2993126855
 10
123.6800437416
 20
119.3308312965
 10
123.7200337591
 20
119.3601685798
 10
123.7616941239
 20
119.3873467958
 10
123.8046372113
 20
119.41211943
 10
123.8488696189
 20
119.4344618505
 10
123.894384749
 20
119.4543987971
 10
123.9407751836
 20
119.4717578147
 10
123.9880386969
 20
119.4865166069
 10
124.0361775146
 20
119.4986975499
 10
124.0847908961
 20
119.5081951922
 10
124.133745261
 20
119.5149743977
 10
124.1831741897
 20
119.519070345
 10
124.233077682
 20
119.5204830446
  0
LWPOLYLINE
  5
25C
100
AcDbEntity
  8
RACCORDO
100
AcDbPolyline
 62
253
  6
CONTINUOUS
 90
25
 70
0
 10
123.8436125075
 20
118.6945886815
 10
123.8496632168
 20
118.7157280238
 10
123.8568770802
 20
118.7365004599
 10
123.8652324764
 20
118.7568428402
 10
123.8747051954
 20
118.7766942409
 10
123.8852660819
 20
118.7959932116
 10
123.8968804698
 20
118.8146783103
 10
123.9095115851
 20
118.8326909914
 10
123.923122049
 20
118.8499788236
 10
123.9376715419
 20
118.8664926241
 10
123.9531173888
 20
118.8821831312
 10
123.9694120102
 20
118.8970014051
 10
123.9865039018
 20
118.9109023608
 10
124.0043415309
 20
118.9238438121
 10
124.0228709031
 20
118.9357864528
 10
124.0420331384
 20
118.9466943401
 10
124.0617689818
 20
118.9565340128
 10
124.0820200144
 20
118.9652766421
 10
124.1027260783
 20
118.9728980056
 10
124.1238209181
 20
118.979373788
 10
124.1452448752
 20
118.9846857651
 10
124.1669466951
 20
118.9888213496
 10
124.1888659456
 20
118.9917664473
 10
124.2109325545
 20
118.9935081035
 10
124.2330801441
 20
118.9940384623
  0
LWPOLYLINE
  5
25D
100
AcDbEntity
  8
ASSI
100
AcDbPolyline
 62
253
  6
CONTINUOUS
 90
25
 70
0
 10
123.8436125075
 20
118.6945886815
 10
123.8496632168
 20
118.7157280238
 10
123.8568770802
 20
118.7365004599
 10
123.8652324764
 20
118.7568428402
 10
123.8747051954
 20
118.7766942409
 10
123.8852660819
 20
118.7959932116
 10
123.8968804698
 20
118.8146783103
 10
123.9095115851
 20
118.8326909914
 10
123.923122049
 20
118.8499788236
 10
123.9376715419
 20
118.8664926241
 10
123.9531173888
 20
118.8821831312
 10
123.9694120102
 20
118.8970014051
 10
123.9865039018
 20
118.9109023608
 10
124.0043415309
 20
118.9238438121
 10
124.0228709031
 20
118.9357864528
 10
124.0420331384
 20
118.9466943401
 10
124.0617689818
 20
118.9565340128
 10
124.0820200144
 20
118.9652766421
 10
124.1027260783
 20
118.9728980056
 10
124.1238209181
 20
118.979373788
 10
124.1452448752
 20
118.9846857651
 10
124.1669466951
 20
118.9888213496
 10
124.1888659456
 20
118.9917664473
 10
124.2109325545
 20
118.9935081035
 10
124.2330801441
 20
118.9940384623
  0
LINE
  5
25E
100
AcDbEntity
  8
RACCORDO
100
AcDbLine
 62
7
  6
CONTINUOUS
 10
240.635031185
 20
51.2417169083
 11
97.735031185
 21
51.2417169083
  0
LINE
  5
25F
100
AcDbEntity
  8
ASSI
100
AcDbLine
 62
7
  6
CONTINUOUS
 10
240.635031185
 20
51.2417169083
 11
97.735031185
 21
51.2417169083
  0
LINE
  5
260
100
AcDbEntity
  8
RACCORDO
100
AcDbLine
 62
253
  6
CONTINUOUS
 10
240.5322160053
 20
51.3623822811
 11
97.8378463647
 21
51.3623822811
  0
LINE
  5
261
100
AcDbEntity
  8
ASSI
100
AcDbLine
 62
253
  6
CONTINUOUS
 10
240.5322160053
 20
51.3623822811
 11
97.8378463647
 21
51.3623822811
  0
LINE
  5
262
100
AcDbEntity
  8
RACCORDO
100
AcDbLine
 62
253
  6
CONTINUOUS
 10
240.5322160053
 20
51.7703215426
 11
97.8378463647
 21
51.7703215426
  0
LINE
  5
263
100
AcDbEntity
  8
ASSI
100
AcDbLine
 62
253
  6
CONTINUOUS
 10
240.5322160053
 20
51.7703215426
 11
97.8378463647
 21
51.7703215426
  0
LWPOLYLINE
  5
264
100
AcDbEntity
  8
RACCORDO
100
AcDbPolyline
 62
253
  6
CONTINUOUS
 90
28
 70
0
 10
97.8378463647
 20
51.7703215426
 10
97.8205966092
 20
51.7708325822
 10
97.8035300603
 20
51.772328851
 10
97.786646718
 20
51.7748103538
 10
97.7698940512
 20
51.7782897157
 10
97.7533245909
 20
51.7827543313
 10
97.7370959308
 20
51.7881663643
 10
97.7212067266
 20
51.7945370689
 10
97.7056583225
 20
51.8018552281
 10
97.690612344
 20
51.8100493018
 10
97.6760773187
 20
51.8191267123
 10
97.662044719
 20
51.8290800876
 10
97.6486505868
 20
51.8398156957
 10
97.6358994847
 20
51.8513425561
 10
97.6237868501
 20
51.8636517072
 10
97.6124350375
 20
51.8766224406
 10
97.6018521748
 20
51.8902609017
 10
97.5920301342
 20
51.9045610036
 10
97.5830668863
 20
51.9193836803
 10
97.5749708025
 20
51.9347343794
 10
97.5677335114
 20
51.9506077055
 10
97.5614278693
 20
51.9668483149
 10
97.5560628238
 20
51.9834649911
 10
97.5516294273
 20
52.0004489904
 10
97.5481736927
 20
52.0176186618
 10
97.5457109577
 20
52.0349134571
 10
97.5442258846
 20
52.0523939429
 10
97.5437184735
 20
52.0700601295
  0
LWPOLYLINE
  5
265
100
AcDbEntity
  8
ASSI
100
AcDbPolyline
 62
253
  6
CONTINUOUS
 90
28
 70
0
 10
97.8378463647
 20
51.7703215426
 10
97.8205966092
 20
51.7708325822
 10
97.8035300603
 20
51.772328851
 10
97.786646718
 20
51.7748103538
 10
97.7698940512
 20
51.7782897157
 10
97.7533245909
 20
51.7827543313
 10
97.7370959308
 20
51.7881663643
 10
97.7212067266
 20
51.7945370689
 10
97.7056583225
 20
51.8018552281
 10
97.690612344
 20
51.8100493018
 10
97.6760773187
 20
51.8191267123
 10
97.662044719
 20
51.8290800876
 10
97.6486505868
 20
51.8398156957
 10
97.6358994847
 20
51.8513425561
 10
97.6237868501
 20
51.8636517072
 10
97.6124350375
 20
51.8766224406
 10
97.6018521748
 20
51.8902609017
 10
97.5920301342
 20
51.9045610036
 10
97.5830668863
 20
51.9193836803
 10
97.5749708025
 20
51.9347343794
 10
97.5677335114
 20
51.9506077055
 10
97.5614278693
 20
51.9668483149
 10
97.5560628238
 20
51.9834649911
 10
97.5516294273
 20
52.0004489904
 10
97.5481736927
 20
52.0176186618
 10
97.5457109577
 20
52.0349134571
 10
97.5442258846
 20
52.0523939429
 10
97.5437184735
 20
52.0700601295
  0
LWPOLYLINE
  5
266
100
AcDbEntity
  8
RACCORDO
100
AcDbPolyline
 62
253
  6
CONTINUOUS
 90
28
 70
0
 10
97.8378463647
 20
51.3623822811
 10
97.7921208395
 20
51.363912806
 10
97.7465960695
 20
51.3680707251
 10
97.7014203677
 20
51.3748374374
 10
97.6567591535
 20
51.3841814164
 10
97.6127380753
 20
51.3960698085
 10
97.5694453297
 20
51.4104791393
 10
97.5269979026
 20
51.4273787111
 10
97.48556359
 20
51.4467097235
 10
97.4453038888
 20
51.468399512
 10
97.4063614557
 20
51.4923713483
 10
97.3688533823
 20
51.5185525604
 10
97.3328954404
 20
51.5468623555
 10
97.2986058884
 20
51.5772115189
 10
97.2661002639
 20
51.6095011249
 10
97.2354835126
 20
51.6436272627
 10
97.20685885
 20
51.6794801882
 10
97.1803225051
 20
51.7169443959
 10
97.1559602452
 20
51.7558993449
 10
97.1338547323
 20
51.7962215118
 10
97.1140831854
 20
51.8377785784
 10
97.096712373
 20
51.8804299247
 10
97.0818037608
 20
51.924034293
 10
97.0694085576
 20
51.9684524016
 10
97.0595666515
 20
52.0135416721
 10
97.0523136195
 20
52.059155905
 10
97.0476795466
 20
52.1051454676
 10
97.0456843581
 20
52.1513598928
  0
LWPOLYLINE
  5
267
100
AcDbEntity
  8
ASSI
100
AcDbPolyline
 62
253
  6
CONTINUOUS
 90
28
 70
0
 10
97.8378463647
 20
51.3623822811
 10
97.7921208395
 20
51.363912806
 10
97.7465960695
 20
51.3680707251
 10
97.7014203677
 20
51.3748374374
 10
97.6567591535
 20
51.3841814164
 10
97.6127380753
 20
51.3960698085
 10
97.5694453297
 20
51.4104791393
 10
97.5269979026
 20
51.4273787111
 10
97.48556359
 20
51.4467097235
 10
97.4453038888
 20
51.468399512
 10
97.4063614557
 20
51.4923713483
 10
97.3688533823
 20
51.5185525604
 10
97.3328954404
 20
51.5468623555
 10
97.2986058884
 20
51.5772115189
 10
97.2661002639
 20
51.6095011249
 10
97.2354835126
 20
51.6436272627
 10
97.20685885
 20
51.6794801882
 10
97.1803225051
 20
51.7169443959
 10
97.1559602452
 20
51.7558993449
 10
97.1338547323
 20
51.7962215118
 10
97.1140831854
 20
51.8377785784
 10
97.096712373
 20
51.8804299247
 10
97.0818037608
 20
51.924034293
 10
97.0694085576
 20
51.9684524016
 10
97.0595666515
 20
52.0135416721
 10
97.0523136195
 20
52.059155905
 10
97.0476795466
 20
52.1051454676
 10
97.0456843581
 20
52.1513598928
  0
LWPOLYLINE
  5
268
100
AcDbEntity
  8
RACCORDO
100
AcDbPolyline
 62
253
  6
CONTINUOUS
 90
18
 70
0
 10
97.0439720274
 20
73.7270946861
 10
97.0492543211
 20
73.7250486292
 10
97.0578817776
 20
73.7230313354
 10
97.0697958345
 20
73.7210564979
 10
97.0849156198
 20
73.7191375218
 10
97.1031385016
 20
73.7172874329
 10
97.124340784
 20
73.7155187895
 10
97.1483785476
 20
73.7138435971
 10
97.1750886255
 20
73.7122732267
 10
97.2042897115
 20
73.710818338
 10
97.2357835906
 20
73.7094888065
 10
97.2693564845
 20
73.7082936571
 10
97.3047805027
 20
73.7072410024
 10
97.3418151893
 20
73.7063379876
 10
97.3802091553
 20
73.7055907425
 10
97.4197017852
 20
73.7050043393
 10
97.4600250055
 20
73.7045827584
 10
97.5420645924
 20
73.704244372
  0
LWPOLYLINE
  5
269
100
AcDbEntity
  8
ASSI
100
AcDbPolyline
 62
253
  6
CONTINUOUS
 90
18
 70
0
 10
97.0439720274
 20
73.7270946861
 10
97.0492543211
 20
73.7250486292
 10
97.0578817776
 20
73.7230313354
 10
97.0697958345
 20
73.7210564979
 10
97.0849156198
 20
73.7191375218
 10
97.1031385016
 20
73.7172874329
 10
97.124340784
 20
73.7155187895
 10
97.1483785476
 20
73.7138435971
 10
97.1750886255
 20
73.7122732267
 10
97.2042897115
 20
73.710818338
 10
97.2357835906
 20
73.7094888065
 10
97.2693564845
 20
73.7082936571
 10
97.3047805027
 20
73.7072410024
 10
97.3418151893
 20
73.7063379876
 10
97.3802091553
 20
73.7055907425
 10
97.4197017852
 20
73.7050043393
 10
97.4600250055
 20
73.7045827584
 10
97.5420645924
 20
73.704244372
  0
LWPOLYLINE
  5
26A
100
AcDbEntity
  8
RACCORDO
100
AcDbPolyline
 62
253
  6
CONTINUOUS
 90
17
 70
0
 10
97.0439735113
 20
73.6646202512
 10
97.049255864
 20
73.66256863
 10
97.0578833714
 20
73.6605459212
 10
97.0697974707
 20
73.6585658547
 10
97.0849172898
 20
73.6566418712
 10
97.1031401968
 20
73.6547870304
 10
97.124342496
 20
73.6530139228
 10
97.148380268
 20
73.6513345842
 10
97.1750903464
 20
73.6497604138
 10
97.2042914253
 20
73.6483020968
 10
97.2357852902
 20
73.6469695323
 10
97.2693581634
 20
73.6457717655
 10
97.304782155
 20
73.6447169269
 10
97.3418168097
 20
73.6438121766
 10
97.3802107396
 20
73.6430636559
 10
97.4197033296
 20
73.6424764457
 10
97.5009065625
 20
73.6418007787
  0
LWPOLYLINE
  5
26B
100
AcDbEntity
  8
ASSI
100
AcDbPolyline
 62
253
  6
CONTINUOUS
 90
17
 70
0
 10
97.0439735113
 20
73.6646202512
 10
97.049255864
 20
73.66256863
 10
97.0578833714
 20
73.6605459212
 10
97.0697974707
 20
73.6585658547
 10
97.0849172898
 20
73.6566418712
 10
97.1031401968
 20
73.6547870304
 10
97.124342496
 20
73.6530139228
 10
97.148380268
 20
73.6513345842
 10
97.1750903464
 20
73.6497604138
 10
97.2042914253
 20
73.6483020968
 10
97.2357852902
 20
73.6469695323
 10
97.2693581634
 20
73.6457717655
 10
97.304782155
 20
73.6447169269
 10
97.3418168097
 20
73.6438121766
 10
97.3802107396
 20
73.6430636559
 10
97.4197033296
 20
73.6424764457
 10
97.5009065625
 20
73.6418007787
  0
LWPOLYLINE
  5
26C
100
AcDbEntity
  8
RACCORDO
100
AcDbPolyline
 62
253
  6
CONTINUOUS
 90
7
 70
0
 10
123.8436125075
 20
73.7888451351
 10
123.8398367887
 20
73.8049605253
 10
123.8367333973
 20
73.8212409263
 10
123.8343102094
 20
73.8376587526
 10
123.8325739693
 20
73.8541860119
 10
123.8315302669
 20
73.8707943516
 10
123.8311835179
 20
73.8874551057
  0
LWPOLYLINE
  5
26D
100
AcDbEntity
  8
ASSI
100
AcDbPolyline
 62
253
  6
CONTINUOUS
 90
7
 70
0
 10
123.8436125075
 20
73.7888451351
 10
123.8398367887
 20
73.8049605253
 10
123.8367333973
 20
73.8212409263
 10
123.8343102094
 20
73.8376587526
 10
123.8325739693
 20
73.8541860119
 10
123.8315302669
 20
73.8707943516
 10
123.8311835179
 20
73.8874551057
  0
LWPOLYLINE
  5
26E
100
AcDbEntity
  8
RACCORDO
100
AcDbPolyline
 62
253
  6
CONTINUOUS
 90
7
 70
0
 10
123.359774262
 20
73.6417169083
 10
123.3513016269
 20
73.6779529626
 10
123.3443577919
 20
73.7145065396
 10
123.3389427571
 20
73.751377643
 10
123.3350565225
 20
73.7885662765
 10
123.332699088
 20
73.8260724437
 10
123.3318704536
 20
73.8638961484
  0
LWPOLYLINE
  5
26F
100
AcDbEntity
  8
ASSI
100
AcDbPolyline
 62
253
  6
CONTINUOUS
 90
7
 70
0
 10
123.359774262
 20
73.6417169083
 10
123.3513016269
 20
73.6779529626
 10
123.3443577919
 20
73.7145065396
 10
123.3389427571
 20
73.751377643
 10
123.3350565225
 20
73.7885662765
 10
123.332699088
 20
73.8260724437
 10
123.3318704536
 20
73.8638961484
  0
LINE
  5
270
100
AcDbEntity
  8
RACCORDO
100
AcDbLine
 62
253
  6
CONTINUOUS
 10
123.8311835184
 20
73.8874551062
 11
123.8311835127
 21
118.5959874131
  0
LINE
  5
271
100
AcDbEntity
  8
ASSI
100
AcDbLine
 62
253
  6
CONTINUOUS
 10
123.8311835184
 20
73.8874551062
 11
123.8311835127
 21
118.5959874131
  0
LINE
  5
272
100
AcDbEntity
  8
RACCORDO
100
AcDbLine
 62
7
  6
CONTINUOUS
 10
123.8850311772
 20
118.5422744426
 11
123.8850311772
 21
73.9411593741
  0
LINE
  5
273
100
AcDbEntity
  8
ASSI
100
AcDbLine
 62
7
  6
CONTINUOUS
 10
123.8850311772
 20
118.5422744426
 11
123.8850311772
 21
73.9411593741
  0
LINE
  5
274
100
AcDbEntity
  8
RACCORDO
100
AcDbLine
 62
253
  6
CONTINUOUS
 10
124.233077682
 20
119.5204830446
 11
124.233077682
 21
118.9940384707
  0
LINE
  5
275
100
AcDbEntity
  8
ASSI
100
AcDbLine
 62
253
  6
CONTINUOUS
 10
124.233077682
 20
119.5204830446
 11
124.233077682
 21
118.9940384707
  0
LINE
  5
276
100
AcDbEntity
  8
RACCORDO
100
AcDbLine
 62
253
  6
CONTINUOUS
 10
124.233077682
 20
72.9629507721
 11
124.233077682
 21
73.489395346
  0
LINE
  5
277
100
AcDbEntity
  8
ASSI
100
AcDbLine
 62
253
  6
CONTINUOUS
 10
124.233077682
 20
72.9629507721
 11
124.233077682
 21
73.489395346
  0
LWPOLYLINE
  5
278
100
AcDbEntity
  8
RACCORDO
100
AcDbPolyline
 62
253
  6
CONTINUOUS
 90
7
 70
0
 10
123.8311835199
 20
118.595987406
 10
123.8315278462
 20
118.6125821777
 10
123.8325658023
 20
118.6291505955
 10
123.8342962105
 20
118.6456640083
 10
123.8367167016
 20
118.6620938104
 10
123.8398237159
 20
118.6784114905
 10
123.8436125075
 20
118.6945886815
  0
LWPOLYLINE
  5
279
100
AcDbEntity
  8
ASSI
100
AcDbPolyline
 62
253
  6
CONTINUOUS
 90
7
 70
0
 10
123.8311835199
 20
118.595987406
 10
123.8315278462
 20
118.6125821777
 10
123.8325658023
 20
118.6291505955
 10
123.8342962105
 20
118.6456640083
 10
123.8367167016
 20
118.6620938104
 10
123.8398237159
 20
118.6784114905
 10
123.8436125075
 20
118.6945886815
  0
LWPOLYLINE
  5
27A
100
AcDbEntity
  8
RACCORDO
100
AcDbPolyline
 62
253
  6
CONTINUOUS
 90
16
 70
0
 10
97.043973513
 20
118.8188135655
 10
97.0492558676
 20
118.8208651866
 10
97.0578833766
 20
118.8228878953
 10
97.0697974772
 20
118.8248679617
 10
97.0849172974
 20
118.8267919451
 10
97.1031402052
 20
118.8286467858
 10
97.124342505
 20
118.8304198933
 10
97.1483802773
 20
118.8320992318
 10
97.1750903557
 20
118.8336734022
 10
97.2042914344
 20
118.835131719
 10
97.2357852989
 20
118.8364642835
 10
97.2693581715
 20
118.8376620501
 10
97.3047821622
 20
118.8387168887
 10
97.3418168161
 20
118.839621639
 10
97.3802107448
 20
118.8403701596
 10
97.4197033336
 20
118.8409573697
  0
LWPOLYLINE
  5
27B
100
AcDbEntity
  8
ASSI
100
AcDbPolyline
 62
253
  6
CONTINUOUS
 90
16
 70
0
 10
97.043973513
 20
118.8188135655
 10
97.0492558676
 20
118.8208651866
 10
97.0578833766
 20
118.8228878953
 10
97.0697974772
 20
118.8248679617
 10
97.0849172974
 20
118.8267919451
 10
97.1031402052
 20
118.8286467858
 10
97.124342505
 20
118.8304198933
 10
97.1483802773
 20
118.8320992318
 10
97.1750903557
 20
118.8336734022
 10
97.2042914344
 20
118.835131719
 10
97.2357852989
 20
118.8364642835
 10
97.2693581715
 20
118.8376620501
 10
97.3047821622
 20
118.8387168887
 10
97.3418168161
 20
118.839621639
 10
97.3802107448
 20
118.8403701596
 10
97.4197033336
 20
118.8409573697
  0
LWPOLYLINE
  5
27C
100
AcDbEntity
  8
RACCORDO
100
AcDbPolyline
 62
253
  6
CONTINUOUS
 90
16
 70
0
 10
97.0439720271
 20
118.7563468546
 10
97.0492543203
 20
118.7583929122
 10
97.0578817765
 20
118.7604102067
 10
97.069795833
 20
118.7623850449
 10
97.0849156182
 20
118.7643040217
 10
97.1031384998
 20
118.7661541112
 10
97.1243407821
 20
118.7679227552
 10
97.1483785456
 20
118.7695979482
 10
97.1750886235
 20
118.7711683191
 10
97.2042897095
 20
118.7726232083
 10
97.2357835888
 20
118.7739527402
 10
97.2693564828
 20
118.7751478899
 10
97.3047805012
 20
118.7762005449
 10
97.341815188
 20
118.7771035599
 10
97.3802091543
 20
118.7778508052
 10
97.4197017844
 20
118.7784372086
  0
LWPOLYLINE
  5
27D
100
AcDbEntity
  8
ASSI
100
AcDbPolyline
 62
253
  6
CONTINUOUS
 90
16
 70
0
 10
97.0439720271
 20
118.7563468546
 10
97.0492543203
 20
118.7583929122
 10
97.0578817765
 20
118.7604102067
 10
97.069795833
 20
118.7623850449
 10
97.0849156182
 20
118.7643040217
 10
97.1031384998
 20
118.7661541112
 10
97.1243407821
 20
118.7679227552
 10
97.1483785456
 20
118.7695979482
 10
97.1750886235
 20
118.7711683191
 10
97.2042897095
 20
118.7726232083
 10
97.2357835888
 20
118.7739527402
 10
97.2693564828
 20
118.7751478899
 10
97.3047805012
 20
118.7762005449
 10
97.341815188
 20
118.7771035599
 10
97.3802091543
 20
118.7778508052
 10
97.4197017844
 20
118.7784372086
  0
LWPOLYLINE
  5
27E
100
AcDbEntity
  8
SCRITTE
100
AcDbPolyline
 62
253
  6
CONTINUOUS
 90
56
 70
0
 10
173.4017118282
 20
68.9180888217
 10
173.4179724945
 20
68.9185924662
 10
173.4343390371
 20
68.919396692
 10
173.4508330725
 20
68.9205279553
 10
173.4674762169
 20
68.9220127119
 10
173.4842753595
 20
68.9238772187
 10
173.5011784801
 20
68.9261469358
 10
173.5181188313
 20
68.928847124
 10
173.535029666
 20
68.9320030444
 10
173.5484911684
 20
68.9348710377
 10
173.5618505326
 20
68.9380487276
 10
173.5750672291
 20
68.9415379755
 10
173.5881007286
 20
68.9453406425
 10
173.6009105019
 20
68.9494585897
 10
173.613460279
 20
68.9538932983
 10
173.6257308279
 20
68.9586447293
 10
173.6377071759
 20
68.9637124634
 10
173.6493743504
 20
68.9690960815
 10
173.6607173789
 20
68.9747951644
 10
173.669913446
 20
68.9797859733
 10
173.6788770916
 20
68.9850006936
 10
173.6876113929
 20
68.9904444549
 10
173.6961184273
 20
68.9961227483
 10
173.7043962702
 20
69.0020425112
 10
173.7124419968
 20
69.0082110422
 10
173.7202532407
 20
69.0146337317
 10
173.7278298691
 20
69.0213083366
 10
173.7351723074
 20
69.0282307055
 10
173.7422815671
 20
69.0353955001
 10
173.7491610037
 20
69.0427926343
 10
173.7558145587
 20
69.0504108347
 10
173.7635065641
 20
69.0598319262
 10
173.7708879066
 20
69.0695555363
 10
173.7779675168
 20
69.0795820813
 10
173.7847543254
 20
69.0899119776
 10
173.791257263
 20
69.1005456416
 10
173.7974830118
 20
69.1114823367
 10
173.8034292598
 20
69.1227167144
 10
173.8090914466
 20
69.1342422733
 10
173.8144650115
 20
69.1460525118
 10
173.8195453941
 20
69.1581409286
 10
173.8243269216
 20
69.1704962832
 10
173.8287994713
 20
69.1830883796
 10
173.8329518083
 20
69.1958822827
 10
173.8367726976
 20
69.2088430575
 10
173.8402509043
 20
69.2219357689
 10
173.8433771183
 20
69.2351250056
 10
173.846149729
 20
69.248373451
 10
173.8485690507
 20
69.2616433121
 10
173.8506353976
 20
69.2748967959
 10
173.852349084
 20
69.2880961095
 10
173.8537107727
 20
69.3012118648
 10
173.8547225202
 20
69.3142482925
 10
173.8553867316
 20
69.3272180281
 10
173.8557058119
 20
69.3401337074
 10
173.8556821661
 20
69.3530079657
  0
LINE
  5
27F
100
AcDbEntity
  8
SCRITTE
100
AcDbLine
 62
253
  6
CONTINUOUS
 10
174.544179397
 20
67.363915554
 11
173.9820468069
 21
67.363915554
  0
LINE
  5
280
100
AcDbEntity
  8
SCRITTE
100
AcDbLine
 62
253
  6
CONTINUOUS
 10
173.0871065299
 20
67.363915554
 11
172.5050499873
 21
67.363915554
  0
LINE
  5
281
100
AcDbEntity
  8
SCRITTE
100
AcDbLine
 62
253
  6
CONTINUOUS
 10
166.785154185
 20
67.3639159083
 11
166.200746185
 21
67.3639159083
  0
LINE
  5
282
100
AcDbEntity
  8
SCRITTE
100
AcDbLine
 62
253
  6
CONTINUOUS
 10
164.568924185
 20
67.3639159083
 11
165.083934185
 21
67.3639159083
  0
LINE
  5
283
100
AcDbEntity
  8
SCRITTE
100
AcDbLine
 62
253
  6
CONTINUOUS
 10
167.099759185
 20
67.3639159083
 11
167.658848185
 21
67.3639159083
  0
LINE
  5
284
100
AcDbEntity
  8
SCRITTE
100
AcDbLine
 62
253
  6
CONTINUOUS
 10
168.470544185
 20
67.3639159083
 11
168.552507185
 21
67.3639159083
  0
LINE
  5
285
100
AcDbEntity
  8
SCRITTE
100
AcDbLine
 62
253
  6
CONTINUOUS
 10
169.367437185
 20
67.3639159083
 11
169.939143185
 21
67.3639159083
  0
LINE
  5
286
100
AcDbEntity
  8
SCRITTE
100
AcDbLine
 62
253
  6
CONTINUOUS
 10
170.030911185
 20
67.3639159083
 11
170.608978185
 21
67.3639159083
  0
LINE
  5
287
100
AcDbEntity
  8
SCRITTE
100
AcDbLine
 62
253
  6
CONTINUOUS
 10
171.717497185
 20
67.3639159083
 11
172.333439185
 21
67.3639159083
  0
LINE
  5
288
100
AcDbEntity
  8
SCRITTE
100
AcDbLine
 62
253
  6
CONTINUOUS
 10
170.770238185
 20
67.9228359083
 11
171.566105185
 21
67.9228359083
  0
LINE
  5
289
100
AcDbEntity
  8
SCRITTE
100
AcDbLine
 62
253
  6
CONTINUOUS
 10
171.449311185
 20
68.3553259083
 11
170.889782185
 21
68.3553259083
  0
LINE
  5
28A
100
AcDbEntity
  8
SCRITTE
100
AcDbLine
 62
253
  6
CONTINUOUS
 10
173.4004521473
 20
68.4595649836
 11
173.0871065299
 21
68.4595649836
  0
LWPOLYLINE
  5
28B
100
AcDbEntity
  8
SCRITTE
100
AcDbPolyline
 62
253
  6
CONTINUOUS
 90
36
 70
0
 10
172.5050499873
 20
70.1309095673
 10
172.5489617173
 20
70.1372733586
 10
172.5921771929
 20
70.1433368007
 10
172.6346782499
 20
70.1490894597
 10
172.6764467245
 20
70.1545209014
 10
172.7174644525
 20
70.1596206919
 10
172.7577260569
 20
70.1643807906
 10
172.7972773075
 20
70.1688027302
 10
172.836176761
 20
70.1728904368
 10
172.8744829742
 20
70.1766478364
 10
172.9122545037
 20
70.1800788552
 10
172.9587981229
 20
70.1839132163
 10
173.0046635533
 20
70.1872428871
 10
173.0499165548
 20
70.190067013
 10
173.0946228869
 20
70.1923847393
 10
173.1388517613
 20
70.1941935257
 10
173.182686198
 20
70.1954840908
 10
173.2262126691
 20
70.1962454675
 10
173.2695176468
 20
70.1964666886
 10
173.3270370467
 20
70.1959018196
 10
173.3843684828
 20
70.1943273823
 10
173.4415640293
 20
70.1917135821
 10
173.4843980661
 20
70.1890464754
 10
173.5271782971
 20
70.185724891
 10
173.5698980623
 20
70.1816957523
 10
173.612550702
 20
70.1769059828
 10
173.6466165426
 20
70.1724874853
 10
173.6806109584
 20
70.167500878
 10
173.7145097473
 20
70.1618988237
 10
173.748288707
 20
70.1556339855
 10
173.7819236353
 20
70.1486590261
 10
173.8153918412
 20
70.1409262679
 10
173.8486766777
 20
70.1323866705
 10
173.8817630093
 20
70.1229908532
 10
173.9146357003
 20
70.1126894349
 10
173.9472796148
 20
70.1014330349
  0
LWPOLYLINE
  5
28C
100
AcDbEntity
  8
RACCORDO
100
AcDbPolyline
 62
7
  6
CONTINUOUS
 90
22
 70
0
 10
214.0845264626
 20
73.5417169083
 10
214.1146581027
 20
73.5428847519
 10
214.144284356
 20
73.5462043891
 10
214.1734052226
 20
73.5516758223
 10
214.2021531197
 20
73.5593386782
 10
214.23039563
 20
73.5691533398
 10
214.2577355018
 20
73.5810009462
 10
214.2841884683
 20
73.5949149482
 10
214.3097387962
 20
73.6108619128
 10
214.3339420334
 20
73.6286226539
 10
214.3568062886
 20
73.6482787897
 10
214.3783234532
 20
73.6697487253
 10
214.3980247489
 20
73.6925684515
 10
214.4158314677
 20
73.7167423077
 10
214.4318223177
 20
73.7422659758
 10
214.4457646454
 20
73.7686624541
 10
214.4576143496
 20
73.7958933865
 10
214.4674155316
 20
73.8239971444
 10
214.4750678419
 20
73.8526118102
 10
214.4805378306
 20
73.8816167465
 10
214.4838589476
 20
73.9111325994
 10
214.4850311929
 20
73.9411593741
  0
LWPOLYLINE
  5
28D
100
AcDbEntity
  8
ASSI
100
AcDbPolyline
 62
7
  6
CONTINUOUS
 90
22
 70
0
 10
214.0845264626
 20
73.5417169083
 10
214.1146581027
 20
73.5428847519
 10
214.144284356
 20
73.5462043891
 10
214.1734052226
 20
73.5516758223
 10
214.2021531197
 20
73.5593386782
 10
214.23039563
 20
73.5691533398
 10
214.2577355018
 20
73.5810009462
 10
214.2841884683
 20
73.5949149482
 10
214.3097387962
 20
73.6108619128
 10
214.3339420334
 20
73.6286226539
 10
214.3568062886
 20
73.6482787897
 10
214.3783234532
 20
73.6697487253
 10
214.3980247489
 20
73.6925684515
 10
214.4158314677
 20
73.7167423077
 10
214.4318223177
 20
73.7422659758
 10
214.4457646454
 20
73.7686624541
 10
214.4576143496
 20
73.7958933865
 10
214.4674155316
 20
73.8239971444
 10
214.4750678419
 20
73.8526118102
 10
214.4805378306
 20
73.8816167465
 10
214.4838589476
 20
73.9111325994
 10
214.4850311929
 20
73.9411593741
  0
LWPOLYLINE
  5
28E
100
AcDbEntity
  8
RACCORDO
100
AcDbPolyline
 62
253
  6
CONTINUOUS
 90
16
 70
0
 10
123.4570552067
 20
73.8646873231
 10
123.4973953413
 20
73.8652971791
 10
123.5365583667
 20
73.8660738908
 10
123.5742657799
 20
73.8670119347
 10
123.6102494294
 20
73.8681046401
 10
123.6442534222
 20
73.8693442362
 10
123.6760359431
 20
73.8707219078
 10
123.7053709746
 20
73.8722278579
 10
123.7320499046
 20
73.873851377
 10
123.7558830091
 20
73.8755809197
 10
123.776700802
 20
73.8774041865
 10
123.7943552403
 20
73.8793082116
 10
123.8087207767
 20
73.8812794547
 10
123.8196952523
 20
73.8833038975
 10
123.8272006238
 20
73.8853671436
 10
123.8311835174
 20
73.8874545202
  0
LWPOLYLINE
  5
28F
100
AcDbEntity
  8
ASSI
100
AcDbPolyline
 62
253
  6
CONTINUOUS
 90
16
 70
0
 10
123.4570552067
 20
73.8646873231
 10
123.4973953413
 20
73.8652971791
 10
123.5365583667
 20
73.8660738908
 10
123.5742657799
 20
73.8670119347
 10
123.6102494294
 20
73.8681046401
 10
123.6442534222
 20
73.8693442362
 10
123.6760359431
 20
73.8707219078
 10
123.7053709746
 20
73.8722278579
 10
123.7320499046
 20
73.873851377
 10
123.7558830091
 20
73.8755809197
 10
123.776700802
 20
73.8774041865
 10
123.7943552403
 20
73.8793082116
 10
123.8087207767
 20
73.8812794547
 10
123.8196952523
 20
73.8833038975
 10
123.8272006238
 20
73.8853671436
 10
123.8311835174
 20
73.8874545202
  0
LINE
  5
290
100
AcDbEntity
  8
RACCORDO
100
AcDbLine
 62
253
  6
CONTINUOUS
 10
240.9503590377
 20
73.6424764465
 11
240.8691558066
 21
73.6418007796
  0
LINE
  5
291
100
AcDbEntity
  8
ASSI
100
AcDbLine
 62
253
  6
CONTINUOUS
 10
240.9503590377
 20
73.6424764465
 11
240.8691558066
 21
73.6418007796
  0
LWPOLYLINE
  5
292
100
AcDbEntity
  8
RACCORDO
100
AcDbPolyline
 62
253
  6
CONTINUOUS
 90
3
 70
0
 10
240.9503605858
 20
73.705004339
 10
240.8691572654
 20
73.7043288612
 10
240.8279977777
 20
73.7042443717
  0
LWPOLYLINE
  5
293
100
AcDbEntity
  8
ASSI
100
AcDbPolyline
 62
253
  6
CONTINUOUS
 90
3
 70
0
 10
240.9503605858
 20
73.705004339
 10
240.8691572654
 20
73.7043288612
 10
240.8279977777
 20
73.7042443717
  0
LWPOLYLINE
  5
294
100
AcDbEntity
  8
RACCORDO
100
AcDbPolyline
 62
253
  6
CONTINUOUS
 90
3
 70
0
 10
123.3318704536
 20
73.8638961489
 10
123.3739974354
 20
73.8639843083
 10
123.4570552067
 20
73.8646873231
  0
LWPOLYLINE
  5
295
100
AcDbEntity
  8
ASSI
100
AcDbPolyline
 62
253
  6
CONTINUOUS
 90
3
 70
0
 10
123.3318704536
 20
73.8638961489
 10
123.3739974354
 20
73.8639843083
 10
123.4570552067
 20
73.8646873231
  0
LINE
  5
296
100
AcDbEntity
  8
SCRITTE
100
AcDbLine
 62
253
  6
CONTINUOUS
 10
173.0677284391
 20
68.9180888217
 11
173.4017118282
 21
68.9180888217
  0
LINE
  5
297
100
AcDbEntity
  8
SCRITTE
100
AcDbLine
 62
253
  6
CONTINUOUS
 10
171.474421185
 20
70.1636189083
 11
170.909076185
 21
70.1636189083
  0
LINE
  5
298
100
AcDbEntity
  8
SCRITTE
100
AcDbLine
 62
253
  6
CONTINUOUS
 10
169.677339185
 20
70.1636189083
 11
169.099125185
 21
70.1636189083
  0
LINE
  5
299
100
AcDbEntity
  8
SCRITTE
100
AcDbLine
 62
253
  6
CONTINUOUS
 10
167.936481185
 20
70.1636189083
 11
167.352556185
 21
70.1636189083
  0
LINE
  5
29A
100
AcDbEntity
  8
SCRITTE
100
AcDbLine
 62
253
  6
CONTINUOUS
 10
165.983871185
 20
70.1636189083
 11
165.399862185
 21
70.1636189083
  0
LINE
  5
29B
100
AcDbEntity
  8
SCRITTE
100
AcDbLine
 62
253
  6
CONTINUOUS
 10
164.316211185
 20
70.1636189083
 11
163.681363185
 21
70.1636189083
  0
LINE
  5
29C
100
AcDbEntity
  8
SCRITTE
100
AcDbLine
 62
253
  6
CONTINUOUS
 10
166.200746185
 20
70.1637869083
 11
166.785154185
 21
70.1637869083
  0
LINE
  5
29D
100
AcDbEntity
  8
RACCORDO
100
AcDbLine
 62
253
  6
CONTINUOUS
 10
214.136984688
 20
72.9629507721
 11
124.233077682
 21
72.9629507721
  0
LINE
  5
29E
100
AcDbEntity
  8
ASSI
100
AcDbLine
 62
253
  6
CONTINUOUS
 10
214.136984688
 20
72.9629507721
 11
124.233077682
 21
72.9629507721
  0
LINE
  5
29F
100
AcDbEntity
  8
RACCORDO
100
AcDbLine
 62
253
  6
CONTINUOUS
 10
214.1369820128
 20
73.489395346
 11
124.2330574492
 21
73.489395346
  0
LINE
  5
2A0
100
AcDbEntity
  8
ASSI
100
AcDbLine
 62
253
  6
CONTINUOUS
 10
214.1369820128
 20
73.489395346
 11
124.2330574492
 21
73.489395346
  0
LINE
  5
2A1
100
AcDbEntity
  8
RACCORDO
100
AcDbLine
 62
7
  6
CONTINUOUS
 10
124.2855359074
 20
73.5417169083
 11
214.0845264626
 21
73.5417169083
  0
LINE
  5
2A2
100
AcDbEntity
  8
ASSI
100
AcDbLine
 62
7
  6
CONTINUOUS
 10
124.2855359074
 20
73.5417169083
 11
214.0845264626
 21
73.5417169083
  0
LINE
  5
2A3
100
AcDbEntity
  8
RACCORDO
100
AcDbLine
 62
253
  6
CONTINUOUS
 10
215.0102881081
 20
73.6417169083
 11
240.8691558066
 21
73.6418007796
  0
LINE
  5
2A4
100
AcDbEntity
  8
ASSI
100
AcDbLine
 62
253
  6
CONTINUOUS
 10
215.0102881081
 20
73.6417169083
 11
240.8691558066
 21
73.6418007796
  0
LINE
  5
2A5
100
AcDbEntity
  8
RACCORDO
100
AcDbLine
 62
253
  6
CONTINUOUS
 10
241.435031185
 20
73.7270946861
 11
241.3260903431
 21
73.7270946861
  0
LINE
  5
2A6
100
AcDbEntity
  8
ASSI
100
AcDbLine
 62
253
  6
CONTINUOUS
 10
241.435031185
 20
73.7270946861
 11
241.3260903431
 21
73.7270946861
  0
LINE
  5
2A7
100
AcDbEntity
  8
RACCORDO
100
AcDbLine
 62
253
  6
CONTINUOUS
 10
96.935031185
 20
73.7270946861
 11
97.043972027
 21
73.7270946861
  0
LINE
  5
2A8
100
AcDbEntity
  8
ASSI
100
AcDbLine
 62
253
  6
CONTINUOUS
 10
96.935031185
 20
73.7270946861
 11
97.043972027
 21
73.7270946861
  0
LINE
  5
2A9
100
AcDbEntity
  8
RACCORDO
100
AcDbLine
 62
253
  6
CONTINUOUS
 10
97.5009065625
 20
73.6418007787
 11
123.359774262
 21
73.6417169083
  0
LINE
  5
2AA
100
AcDbEntity
  8
ASSI
100
AcDbLine
 62
253
  6
CONTINUOUS
 10
97.5009065625
 20
73.6418007787
 11
123.359774262
 21
73.6417169083
  0
LWPOLYLINE
  5
2AB
100
AcDbEntity
  8
RACCORDO
100
AcDbPolyline
 62
253
  6
CONTINUOUS
 90
18
 70
0
 10
215.0381919165
 20
73.8638961097
 10
214.9542375536
 20
73.8642486274
 10
214.9130072001
 20
73.8646872941
 10
214.8726670857
 20
73.8652971533
 10
214.8335040834
 20
73.866073868
 10
214.7957966953
 20
73.8670119147
 10
214.7598130723
 20
73.8681046226
 10
214.7258091068
 20
73.8693442211
 10
214.6940266133
 20
73.870721895
 10
214.6646916085
 20
73.8722278472
 10
214.6380127041
 20
73.8738513682
 10
214.6141796234
 20
73.8755809126
 10
214.593361852
 20
73.877404181
 10
214.5757074326
 20
73.8793082076
 10
214.5613419121
 20
73.881279452
 10
214.5503674489
 20
73.8833038961
 10
214.5428620862
 20
73.8853671433
 10
214.5388791976
 20
73.8874545212
  0
LWPOLYLINE
  5
2AC
100
AcDbEntity
  8
ASSI
100
AcDbPolyline
 62
253
  6
CONTINUOUS
 90
18
 70
0
 10
215.0381919165
 20
73.8638961097
 10
214.9542375536
 20
73.8642486274
 10
214.9130072001
 20
73.8646872941
 10
214.8726670857
 20
73.8652971533
 10
214.8335040834
 20
73.866073868
 10
214.7957966953
 20
73.8670119147
 10
214.7598130723
 20
73.8681046226
 10
214.7258091068
 20
73.8693442211
 10
214.6940266133
 20
73.870721895
 10
214.6646916085
 20
73.8722278472
 10
214.6380127041
 20
73.8738513682
 10
214.6141796234
 20
73.8755809126
 10
214.593361852
 20
73.877404181
 10
214.5757074326
 20
73.8793082076
 10
214.5613419121
 20
73.881279452
 10
214.5503674489
 20
73.8833038961
 10
214.5428620862
 20
73.8853671433
 10
214.5388791976
 20
73.8874545212
  0
LWPOLYLINE
  5
2AD
100
AcDbEntity
  8
RACCORDO
100
AcDbPolyline
 62
253
  6
CONTINUOUS
 90
22
 70
0
 10
124.23305738
 20
73.4893952775
 10
124.2077248299
 20
73.4901030208
 10
124.1825080877
 20
73.4923953935
 10
124.1575064358
 20
73.4962600219
 10
124.1328240915
 20
73.501675987
 10
124.1085514004
 20
73.5086201353
 10
124.0847656725
 20
73.5170713578
 10
124.0615507133
 20
73.5270015579
 10
124.0390091595
 20
73.5383684672
 10
124.0172432986
 20
73.5511224896
 10
123.9963513194
 20
73.5652021319
 10
123.9764005399
 20
73.580557837
 10
123.9574446685
 20
73.597153177
 10
123.9395454751
 20
73.6149435627
 10
123.9227961753
 20
73.6338461499
 10
123.9072907045
 20
73.6537601783
 10
123.8930790357
 20
73.6746214682
 10
123.8802283852
 20
73.696330401
 10
123.8688298479
 20
73.7187140489
 10
123.8589228073
 20
73.7416456537
 10
123.8505122917
 20
73.7650551731
 10
123.8436125075
 20
73.7888451351
  0
LWPOLYLINE
  5
2AE
100
AcDbEntity
  8
ASSI
100
AcDbPolyline
 62
253
  6
CONTINUOUS
 90
22
 70
0
 10
124.23305738
 20
73.4893952775
 10
124.2077248299
 20
73.4901030208
 10
124.1825080877
 20
73.4923953935
 10
124.1575064358
 20
73.4962600219
 10
124.1328240915
 20
73.501675987
 10
124.1085514004
 20
73.5086201353
 10
124.0847656725
 20
73.5170713578
 10
124.0615507133
 20
73.5270015579
 10
124.0390091595
 20
73.5383684672
 10
124.0172432986
 20
73.5511224896
 10
123.9963513194
 20
73.5652021319
 10
123.9764005399
 20
73.580557837
 10
123.9574446685
 20
73.597153177
 10
123.9395454751
 20
73.6149435627
 10
123.9227961753
 20
73.6338461499
 10
123.9072907045
 20
73.6537601783
 10
123.8930790357
 20
73.6746214682
 10
123.8802283852
 20
73.696330401
 10
123.8688298479
 20
73.7187140489
 10
123.8589228073
 20
73.7416456537
 10
123.8505122917
 20
73.7650551731
 10
123.8436125075
 20
73.7888451351
  0
LWPOLYLINE
  5
2AF
100
AcDbEntity
  8
RACCORDO
100
AcDbPolyline
 62
253
  6
CONTINUOUS
 90
22
 70
0
 10
124.233077682
 20
72.9629507721
 10
124.1758474162
 20
72.9648171063
 10
124.1193253742
 20
72.9701828151
 10
124.0635115561
 20
72.9790479168
 10
124.008207162
 20
72.9914730289
 10
123.9536109918
 20
73.0073976065
 10
123.900319445
 20
73.0266399385
 10
123.8483234947
 20
73.049246045
 10
123.7976321679
 20
73.0751700398
 10
123.7488689451
 20
73.1040923569
 10
123.7020820864
 20
73.136025075
 10
123.6572233317
 20
73.1709562881
 10
123.6147713813
 20
73.2085304451
 10
123.5747163634
 20
73.2488166054
 10
123.5370681497
 20
73.2917459015
 10
123.5023350559
 20
73.3367558661
 10
123.4705530528
 20
73.3839431993
 10
123.4416861695
 20
73.4332113754
 10
123.4161348086
 20
73.483708031
 10
123.3940324374
 20
73.535149063
 10
123.3752455885
 20
73.587818671
 10
123.359774262
 20
73.6417169083
  0
LWPOLYLINE
  5
2B0
100
AcDbEntity
  8
ASSI
100
AcDbPolyline
 62
253
  6
CONTINUOUS
 90
22
 70
0
 10
124.233077682
 20
72.9629507721
 10
124.1758474162
 20
72.9648171063
 10
124.1193253742
 20
72.9701828151
 10
124.0635115561
 20
72.9790479168
 10
124.008207162
 20
72.9914730289
 10
123.9536109918
 20
73.0073976065
 10
123.900319445
 20
73.0266399385
 10
123.8483234947
 20
73.049246045
 10
123.7976321679
 20
73.0751700398
 10
123.7488689451
 20
73.1040923569
 10
123.7020820864
 20
73.136025075
 10
123.6572233317
 20
73.1709562881
 10
123.6147713813
 20
73.2085304451
 10
123.5747163634
 20
73.2488166054
 10
123.5370681497
 20
73.2917459015
 10
123.5023350559
 20
73.3367558661
 10
123.4705530528
 20
73.3839431993
 10
123.4416861695
 20
73.4332113754
 10
123.4161348086
 20
73.483708031
 10
123.3940324374
 20
73.535149063
 10
123.3752455885
 20
73.587818671
 10
123.359774262
 20
73.6417169083
  0
LWPOLYLINE
  5
2B1
100
AcDbEntity
  8
SCRITTE
100
AcDbPolyline
 62
253
  6
CONTINUOUS
 90
24
 70
0
 10
173.5255396675
 20
69.7031452336
 10
173.5040416348
 20
69.7054814722
 10
173.4825187632
 20
69.7075037548
 10
173.4609746273
 20
69.7092128105
 10
173.4394128014
 20
69.7106093682
 10
173.4178368601
 20
69.711694157
 10
173.3962503777
 20
69.7124679059
 10
173.3746569287
 20
69.7129313439
 10
173.35575828
 20
69.7130827964
 10
173.3368505732
 20
69.7129972522
 10
173.3179273472
 20
69.7126747383
 10
173.2989821409
 20
69.7121152815
 10
173.280007639
 20
69.7113178563
 10
173.2609931091
 20
69.7102772267
 10
173.2419269644
 20
69.7089871046
 10
173.2227976182
 20
69.7074412014
 10
173.2035971821
 20
69.7056360279
 10
173.1843325615
 20
69.7035792908
 10
173.16501436
 20
69.7012814957
 10
173.1456531813
 20
69.6987531483
 10
173.1262555302
 20
69.6960065944
 10
173.1068115159
 20
69.6930615398
 10
173.0873071488
 20
69.6899395305
 10
173.0677284391
 20
69.6866621124
  0
LWPOLYLINE
  5
2B2
100
AcDbEntity
  8
SCRITTE
100
AcDbPolyline
 62
253
  6
CONTINUOUS
 90
86
 70
0
 10
173.9472796148
 20
70.1014330349
 10
173.9626046259
 20
70.0955839591
 10
173.9781612787
 20
70.0889945692
 10
173.993974298
 20
70.0816323941
 10
174.0100684085
 20
70.0734649632
 10
174.0264683351
 20
70.0644598054
 10
174.0431988026
 20
70.0545844498
 10
174.0602638917
 20
70.0438163504
 10
174.0775851066
 20
70.0321726598
 10
174.0950633076
 20
70.0196804557
 10
174.1125993549
 20
70.0063668154
 10
174.1300941084
 20
69.9922588166
 10
174.1474484286
 20
69.9773835367
 10
174.1645717513
 20
69.96176488
 10
174.1814078166
 20
69.9454140575
 10
174.1979089401
 20
69.9283391068
 10
174.2140274377
 20
69.9105480656
 10
174.2297156251
 20
69.8920489717
 10
174.2449258181
 20
69.8728498628
 10
174.2596096849
 20
69.8529709505
 10
174.2737163029
 20
69.8324811427
 10
174.287194102
 20
69.811461521
 10
174.299991512
 20
69.7899931674
 10
174.3120569629
 20
69.7681571635
 10
174.3233388844
 20
69.7460345913
 10
174.3337967406
 20
69.7236997309
 10
174.3434341316
 20
69.7011996575
 10
174.352265692
 20
69.6785746446
 10
174.360306056
 20
69.6558649658
 10
174.3675698581
 20
69.6331108947
 10
174.3740717326
 20
69.6103527049
 10
174.3808946105
 20
69.5830985018
 10
174.3867012806
 20
69.5559920919
 10
174.3915516369
 20
69.5291292056
 10
174.3955055739
 20
69.5026055732
 10
174.3986229857
 20
69.4765169249
 10
174.4009616781
 20
69.4509464778
 10
174.4025711035
 20
69.4259273963
 10
174.4034986255
 20
69.4014803316
 10
174.403791608
 20
69.3776259348
 10
174.4034974148
 20
69.3543848571
 10
174.402660308
 20
69.3317714418
 10
174.4013121427
 20
69.3097748008
 10
174.3994816721
 20
69.2883777381
 10
174.3971976499
 20
69.2675630578
 10
174.3944888292
 20
69.2473135637
 10
174.3905459905
 20
69.2227680861
 10
174.3860210262
 20
69.1990320197
 10
174.380950631
 20
69.1760585408
 10
174.3753714996
 20
69.1538008256
 10
174.3693206081
 20
69.1322195069
 10
174.3628360574
 20
69.1113050432
 10
174.35595623
 20
69.0910553495
 10
174.3487195081
 20
69.071468341
 10
174.3411636289
 20
69.0525414289
 10
174.3333237488
 20
69.0342700102
 10
174.325234379
 20
69.0166489782
 10
174.3169300308
 20
68.9996732262
 10
174.3055761979
 20
68.9780279328
 10
174.2939436993
 20
68.9574732216
 10
174.2820746998
 20
68.937961589
 10
174.2700104642
 20
68.9194498187
 10
174.257788656
 20
68.901911843
 10
174.2454460383
 20
68.8853258816
 10
174.2330202562
 20
68.8696629289
 10
174.2205524814
 20
68.8548650786
 10
174.2080847675
 20
68.8408671994
 10
174.1956598941
 20
68.8276063377
 10
174.1833235444
 20
68.8150282509
 10
174.1711221277
 20
68.8030808742
 10
174.1590977669
 20
68.7917134797
 10
174.1472754396
 20
68.7808806868
 10
174.1356758371
 20
68.7705384522
 10
174.1187241672
 20
68.7558497963
 10
174.102323528
 20
68.7420308403
 10
174.086517401
 20
68.7290098299
 10
174.0787763509
 20
68.7228257963
 10
174.0710312312
 20
68.7168922148
 10
174.0631963512
 20
68.7112539097
 10
174.0552930633
 20
68.7060189071
 10
174.0473641837
 20
68.7013005711
 10
174.0394313414
 20
68.6971704161
 10
174.0315027323
 20
68.6936828732
 10
174.0235540079
 20
68.6908658908
 10
174.0155611931
 20
68.6887417169
 10
174.0075343499
 20
68.6873362803
  0
LWPOLYLINE
  5
2B3
100
AcDbEntity
  8
SCRITTE
100
AcDbPolyline
 62
253
  6
CONTINUOUS
 90
41
 70
0
 10
174.0075343499
 20
68.6707924715
 10
174.0167863746
 20
68.6669306025
 10
174.0259875932
 20
68.6627395528
 10
174.0351433008
 20
68.658210924
 10
174.0442587928
 20
68.6533363174
 10
174.05333881
 20
68.6481067488
 10
174.0623858777
 20
68.6425108892
 10
174.0714019667
 20
68.636536824
 10
174.0803890481
 20
68.6301726384
 10
174.089345524
 20
68.6234097505
 10
174.0982555204
 20
68.6162529097
 10
174.1070995945
 20
68.6087101983
 10
174.1158583033
 20
68.6007896984
 10
174.1245133714
 20
68.5925009298
 10
174.1330511922
 20
68.583859162
 10
174.1414593268
 20
68.5748811018
 10
174.1497253361
 20
68.5655834562
 10
174.1578400729
 20
68.555979345
 10
174.165807557
 20
68.5460675391
 10
174.1736351003
 20
68.5358432223
 10
174.1813300144
 20
68.5253015782
 10
174.1888977982
 20
68.5144400189
 10
174.1963366981
 20
68.5032648681
 10
174.2036431475
 20
68.4917846778
 10
174.2108135799
 20
68.4800080002
 10
174.2188382542
 20
68.4661957271
 10
174.226681418
 20
68.4520133151
 10
174.2343438742
 20
68.4374667043
 10
174.2418264255
 20
68.4225618348
 10
174.249129875
 20
68.4073046465
 10
174.2562550252
 20
68.3917010795
 10
174.2632026792
 20
68.3757570739
 10
174.2710848769
 20
68.3567343094
 10
174.2787270449
 20
68.3372712512
 10
174.2861296531
 20
68.3173828955
 10
174.2932931712
 20
68.2970842381
 10
174.3002180692
 20
68.2763902754
 10
174.3069048168
 20
68.2553160031
 10
174.3133648091
 20
68.2338759223
 10
174.3196531428
 20
68.2120825528
 10
174.3258358398
 20
68.1899479192
  0
LINE
  5
2B4
100
AcDbEntity
  8
RACCORDO
100
AcDbLine
 62
253
  6
CONTINUOUS
 10
123.8311835127
 20
118.5959874131
 11
123.8850311772
 21
118.5422744426
  0
LINE
  5
2B5
100
AcDbEntity
  8
ASSI
100
AcDbLine
 62
253
  6
CONTINUOUS
 10
123.8311835127
 20
118.5959874131
 11
123.8850311772
 21
118.5422744426
  0
LINE
  5
2B6
100
AcDbEntity
  8
RACCORDO
100
AcDbLine
 62
253
  6
CONTINUOUS
 10
124.2330801357
 20
118.9940384707
 11
124.2855359074
 21
118.9417169083
  0
LINE
  5
2B7
100
AcDbEntity
  8
ASSI
100
AcDbLine
 62
253
  6
CONTINUOUS
 10
124.2330801357
 20
118.9940384707
 11
124.2855359074
 21
118.9417169083
  0
LINE
  5
2B8
100
AcDbEntity
  8
RACCORDO
100
AcDbLine
 62
253
  6
CONTINUOUS
 10
97.8378463647
 20
141.1210515356
 11
97.7192683943
 21
141.2415616023
  0
LINE
  5
2B9
100
AcDbEntity
  8
ASSI
100
AcDbLine
 62
253
  6
CONTINUOUS
 10
97.8378463647
 20
141.1210515356
 11
97.7192683943
 21
141.2415616023
  0
LINE
  5
2BA
100
AcDbEntity
  8
RACCORDO
100
AcDbLine
 62
253
  6
CONTINUOUS
 10
97.0456843583
 20
140.3320739238
 11
96.9350339069
 21
140.444577125
  0
LINE
  5
2BB
100
AcDbEntity
  8
ASSI
100
AcDbLine
 62
253
  6
CONTINUOUS
 10
97.0456843583
 20
140.3320739238
 11
96.9350339069
 21
140.444577125
  0
LINE
  5
2BC
100
AcDbEntity
  8
RACCORDO
100
AcDbLine
 62
253
  6
CONTINUOUS
 10
97.0456843583
 20
52.151359893
 11
96.9350339069
 21
52.0388566917
  0
LINE
  5
2BD
100
AcDbEntity
  8
ASSI
100
AcDbLine
 62
253
  6
CONTINUOUS
 10
97.0456843583
 20
52.151359893
 11
96.9350339069
 21
52.0388566917
  0
LINE
  5
2BE
100
AcDbEntity
  8
RACCORDO
100
AcDbLine
 62
253
  6
CONTINUOUS
 10
97.8378463647
 20
51.3623822811
 11
97.7192683943
 21
51.2418722144
  0
LINE
  5
2BF
100
AcDbEntity
  8
ASSI
100
AcDbLine
 62
253
  6
CONTINUOUS
 10
97.8378463647
 20
51.3623822811
 11
97.7192683943
 21
51.2418722144
  0
LINE
  5
2C0
100
AcDbEntity
  8
RACCORDO
100
AcDbLine
 62
253
  6
CONTINUOUS
 10
123.8311835184
 20
73.8874551062
 11
123.8850311772
 21
73.9411593741
  0
LINE
  5
2C1
100
AcDbEntity
  8
ASSI
100
AcDbLine
 62
253
  6
CONTINUOUS
 10
123.8311835184
 20
73.8874551062
 11
123.8850311772
 21
73.9411593741
  0
LWPOLYLINE
  5
2C2
100
AcDbEntity
  8
RACCORDO
100
AcDbPolyline
 62
253
  6
CONTINUOUS
 90
15
 70
0
 10
123.520272651
 20
73.6840379063
 10
123.5582433736
 20
73.6945004157
 10
123.5948006866
 20
73.704765861
 10
123.629684234
 20
73.7147611332
 10
123.6626455802
 20
73.7244150475
 10
123.6934499792
 20
73.73365885
 10
123.7218780462
 20
73.7424267077
 10
123.7477273208
 20
73.7506561773
 10
123.770813708
 20
73.7582886495
 10
123.7909727898
 20
73.7652697671
 10
123.8080609962
 20
73.7715498116
 10
123.8219566273
 20
73.7770840574
 10
123.8325607205
 20
73.7818330904
 10
123.8397977548
 20
73.7857630886
 10
123.8436161892
 20
73.7888460633
  0
LWPOLYLINE
  5
2C3
100
AcDbEntity
  8
ASSI
100
AcDbPolyline
 62
253
  6
CONTINUOUS
 90
15
 70
0
 10
123.520272651
 20
73.6840379063
 10
123.5582433736
 20
73.6945004157
 10
123.5948006866
 20
73.704765861
 10
123.629684234
 20
73.7147611332
 10
123.6626455802
 20
73.7244150475
 10
123.6934499792
 20
73.73365885
 10
123.7218780462
 20
73.7424267077
 10
123.7477273208
 20
73.7506561773
 10
123.770813708
 20
73.7582886495
 10
123.7909727898
 20
73.7652697671
 10
123.8080609962
 20
73.7715498116
 10
123.8219566273
 20
73.7770840574
 10
123.8325607205
 20
73.7818330904
 10
123.8397977548
 20
73.7857630886
 10
123.8436161892
 20
73.7888460633
  0
LINE
  5
2C4
100
AcDbEntity
  8
RACCORDO
100
AcDbLine
 62
253
  6
CONTINUOUS
 10
123.4411808055
 20
73.6628206183
 11
123.520272651
 21
73.6840379063
  0
LINE
  5
2C5
100
AcDbEntity
  8
ASSI
100
AcDbLine
 62
253
  6
CONTINUOUS
 10
123.4411808055
 20
73.6628206183
 11
123.520272651
 21
73.6840379063
  0
LINE
  5
2C6
100
AcDbEntity
  8
RACCORDO
100
AcDbLine
 62
253
  6
CONTINUOUS
 10
123.3597742623
 20
73.6417173465
 11
123.4411808055
 21
73.6628206183
  0
LINE
  5
2C7
100
AcDbEntity
  8
ASSI
100
AcDbLine
 62
253
  6
CONTINUOUS
 10
123.3597742623
 20
73.6417173465
 11
123.4411808055
 21
73.6628206183
  0
LINE
  5
2C8
100
AcDbEntity
  8
RACCORDO
100
AcDbLine
 62
253
  6
CONTINUOUS
 10
215.010288108
 20
73.6417172462
 11
214.9288816193
 21
73.6628205218
  0
LINE
  5
2C9
100
AcDbEntity
  8
ASSI
100
AcDbLine
 62
253
  6
CONTINUOUS
 10
215.010288108
 20
73.6417172462
 11
214.9288816193
 21
73.6628205218
  0
LWPOLYLINE
  5
2CA
100
AcDbEntity
  8
RACCORDO
100
AcDbPolyline
 62
253
  6
CONTINUOUS
 90
16
 70
0
 10
214.9288816193
 20
73.6628205218
 10
214.8497898666
 20
73.6840378025
 10
214.8118192003
 20
73.694500305
 10
214.7752619481
 20
73.7047657419
 10
214.7403784642
 20
73.7147610045
 10
214.7074171825
 20
73.7244149085
 10
214.6766128477
 20
73.7336587004
 10
214.6481848425
 20
73.7424265476
 10
214.6223356265
 20
73.7506560071
 10
214.5992492929
 20
73.7582884702
 10
214.5790902587
 20
73.7652695798
 10
214.562002093
 20
73.7715496177
 10
214.5481064946
 20
73.7770838587
 10
214.5375024256
 20
73.7818328888
 10
214.5302654062
 20
73.7857628865
 10
214.5264469772
 20
73.7888458628
  0
LWPOLYLINE
  5
2CB
100
AcDbEntity
  8
ASSI
100
AcDbPolyline
 62
253
  6
CONTINUOUS
 90
16
 70
0
 10
214.9288816193
 20
73.6628205218
 10
214.8497898666
 20
73.6840378025
 10
214.8118192003
 20
73.694500305
 10
214.7752619481
 20
73.7047657419
 10
214.7403784642
 20
73.7147610045
 10
214.7074171825
 20
73.7244149085
 10
214.6766128477
 20
73.7336587004
 10
214.6481848425
 20
73.7424265476
 10
214.6223356265
 20
73.7506560071
 10
214.5992492929
 20
73.7582884702
 10
214.5790902587
 20
73.7652695798
 10
214.562002093
 20
73.7715496177
 10
214.5481064946
 20
73.7770838587
 10
214.5375024256
 20
73.7818328888
 10
214.5302654062
 20
73.7857628865
 10
214.5264469772
 20
73.7888458628
  0
LINE
  5
2CC
100
AcDbEntity
  8
SCRITTE
100
AcDbLine
 62
253
  6
CONTINUOUS
 10
167.784963185
 20
69.1920699083
 11
168.470544185
 21
67.3639159083
  0
LINE
  5
2CD
100
AcDbEntity
  8
SCRITTE
100
AcDbLine
 62
253
  6
CONTINUOUS
 10
163.681363185
 20
70.1636189083
 11
164.568924185
 21
67.3639159083
  0
LINE
  5
2CE
100
AcDbEntity
  8
SCRITTE
100
AcDbLine
 62
253
  6
CONTINUOUS
 10
164.849885185
 20
68.2364969083
 11
164.316211185
 21
70.1636189083
  0
LINE
  5
2CF
100
AcDbEntity
  8
RACCORDO
100
AcDbLine
 62
253
  6
CONTINUOUS
 10
124.2330574492
 20
73.489395346
 11
124.2855359074
 21
73.5417169083
  0
LINE
  5
2D0
100
AcDbEntity
  8
ASSI
100
AcDbLine
 62
253
  6
CONTINUOUS
 10
124.2330574492
 20
73.489395346
 11
124.2855359074
 21
73.5417169083
  0
LWPOLYLINE
  5
2D1
100
AcDbEntity
  8
SCRITTE
100
AcDbPolyline
 62
253
  6
CONTINUOUS
 90
47
 70
0
 10
173.7264113014
 20
68.213112418
 10
173.7224768377
 20
68.2232130247
 10
173.7183651285
 20
68.233072339
 10
173.7140852458
 20
68.2426928304
 10
173.7096462615
 20
68.2520769683
 10
173.7050572478
 20
68.2612272222
 10
173.7003272768
 20
68.2701460614
 10
173.6954654203
 20
68.2788359554
 10
173.6904807505
 20
68.2872993736
 10
173.6853823395
 20
68.2955387854
 10
173.6801792592
 20
68.3035566602
 10
173.6742843345
 20
68.3122087576
 10
173.6682718429
 20
68.3205948176
 10
173.6621422388
 20
68.3287192566
 10
173.6558959767
 20
68.336586491
 10
173.6495335107
 20
68.3442009372
 10
173.6430552955
 20
68.3515670116
 10
173.6364617852
 20
68.3586891304
 10
173.6297534343
 20
68.3655717103
 10
173.6229306972
 20
68.3722191675
 10
173.6159942601
 20
68.3786345727
 10
173.6089457369
 20
68.3848156135
 10
173.6017869734
 20
68.3907586319
 10
173.5945198154
 20
68.3964599697
 10
173.5871461086
 20
68.401915969
 10
173.5796676988
 20
68.4071229715
 10
173.5720864318
 20
68.4120773192
 10
173.5644041534
 20
68.4167753541
 10
173.5566227094
 20
68.421213418
 10
173.5487437496
 20
68.4253892241
 10
173.5407681402
 20
68.4293059703
 10
173.5326965514
 20
68.4329682257
 10
173.5245296535
 20
68.4363805597
 10
173.5162681168
 20
68.4395475412
 10
173.5079126115
 20
68.4424737396
 10
173.4994638078
 20
68.445163724
 10
173.4909223761
 20
68.4476220635
 10
173.4822889864
 20
68.4498533273
 10
173.4735641599
 20
68.4518608428
 10
173.4647478204
 20
68.4536429707
 10
173.4558397426
 20
68.4551968295
 10
173.4468397009
 20
68.456519538
 10
173.4377474701
 20
68.4576082151
 10
173.4285628247
 20
68.4584599794
 10
173.4192855394
 20
68.4590719498
 10
173.4099153887
 20
68.4594412449
 10
173.4004521473
 20
68.4595649836
  0
LINE
  5
2D2
100
AcDbEntity
  8
SCRITTE
100
AcDbLine
 62
253
  6
CONTINUOUS
 10
168.514717185
 20
68.6092149083
 11
167.936481185
 21
70.1636189083
  0
LINE
  5
2D3
100
AcDbEntity
  8
SCRITTE
100
AcDbLine
 62
253
  6
CONTINUOUS
 10
172.333439185
 20
67.3639159083
 11
171.474421185
 21
70.1636189083
  0
LINE
  5
2D4
100
AcDbEntity
  8
SCRITTE
100
AcDbLine
 62
253
  6
CONTINUOUS
 10
171.566105185
 20
67.9228359083
 11
171.717497185
 21
67.3639159083
  0
LINE
  5
2D5
100
AcDbEntity
  8
SCRITTE
100
AcDbLine
 62
253
  6
CONTINUOUS
 10
171.180768185
 20
69.3943319083
 11
171.449311185
 21
68.3553259083
  0
LINE
  5
2D6
100
AcDbEntity
  8
SCRITTE
100
AcDbLine
 62
253
  6
CONTINUOUS
 10
169.939143185
 20
67.3639159083
 11
169.677339185
 21
70.1636189083
  0
LINE
  5
2D7
100
AcDbEntity
  8
SCRITTE
100
AcDbLine
 62
253
  6
CONTINUOUS
 10
169.247368185
 20
69.1844479083
 11
169.367437185
 21
67.3639159083
  0
LINE
  5
2D8
100
AcDbEntity
  8
SCRITTE
100
AcDbLine
 62
253
  6
CONTINUOUS
 10
166.200746185
 20
67.3639159083
 11
166.200746185
 21
70.1637869827
  0
LINE
  5
2D9
100
AcDbEntity
  8
SCRITTE
100
AcDbLine
 62
253
  6
CONTINUOUS
 10
166.785154185
 20
70.1637869083
 11
166.785154185
 21
67.3639158341
  0
LINE
  5
2DA
100
AcDbEntity
  8
SCRITTE
100
AcDbLine
 62
253
  6
CONTINUOUS
 10
167.658848185
 20
67.3639159083
 11
167.784963185
 21
69.1920699083
  0
LWPOLYLINE
  5
2DB
100
AcDbEntity
  8
SCRITTE
100
AcDbPolyline
 62
253
  6
CONTINUOUS
 90
8
 70
0
 10
173.812486844
 20
67.9501843885
 10
173.8009132012
 20
67.9891803669
 10
173.7891718198
 20
68.0277215113
 10
173.7772200308
 20
68.0657903994
 10
173.7650151649
 20
68.1033696089
 10
173.7525145528
 20
68.1404417177
 10
173.7396755255
 20
68.1769893034
 10
173.7264554137
 20
68.2129949438
  0
LINE
  5
2DC
100
AcDbEntity
  8
SCRITTE
100
AcDbLine
 62
253
  6
CONTINUOUS
 10
173.9671109221
 20
67.4155788138
 11
173.8938208586
 21
67.6659976402
  0
LINE
  5
2DD
100
AcDbEntity
  8
SCRITTE
100
AcDbLine
 62
253
  6
CONTINUOUS
 10
173.9820468069
 20
67.363915554
 11
173.9671109221
 21
67.4155788138
  0
LWPOLYLINE
  5
2DE
100
AcDbEntity
  8
SCRITTE
100
AcDbPolyline
 62
253
  6
CONTINUOUS
 90
4
 70
0
 10
173.8938208586
 20
67.6659976402
 10
173.8525131591
 20
67.8103864514
 10
173.8391455924
 20
67.8575282528
 10
173.812486844
 20
67.9501843885
  0
LINE
  5
2DF
100
AcDbEntity
  8
SCRITTE
100
AcDbLine
 62
253
  6
CONTINUOUS
 10
174.3258358398
 20
68.1899479192
 11
174.3795283906
 21
67.9911706857
  0
LINE
  5
2E0
100
AcDbEntity
  8
SCRITTE
100
AcDbLine
 62
253
  6
CONTINUOUS
 10
174.5116870864
 20
67.4858657541
 11
174.544179397
 21
67.363915554
  0
LINE
  5
2E1
100
AcDbEntity
  8
SCRITTE
100
AcDbLine
 62
253
  6
CONTINUOUS
 10
174.3795283906
 20
67.9911706857
 11
174.4468197227
 21
67.7351625378
  0
LINE
  5
2E2
100
AcDbEntity
  8
SCRITTE
100
AcDbLine
 62
253
  6
CONTINUOUS
 10
174.4468197227
 20
67.7351625378
 11
174.5116870864
 21
67.4858657541
  0
LWPOLYLINE
  5
2E3
100
AcDbEntity
  8
SCRITTE
100
AcDbPolyline
 62
253
  6
CONTINUOUS
 90
49
 70
0
 10
173.8556844831
 20
69.352854337
 10
173.85536886
 20
69.363353612
 10
173.8547338144
 20
69.3737950771
 10
173.8537824708
 20
69.3841825499
 10
173.8525179538
 20
69.3945198481
 10
173.8509433877
 20
69.4048107892
 10
173.8490618971
 20
69.4150591908
 10
173.8468766066
 20
69.4252688705
 10
173.8443906405
 20
69.4354436459
 10
173.8416065951
 20
69.4455848154
 10
173.838524953
 20
69.4556836007
 10
173.8351456684
 20
69.4657287044
 10
173.8314686958
 20
69.4757088291
 10
173.8274939893
 20
69.4856126773
 10
173.8232215033
 20
69.4954289517
 10
173.8186511922
 20
69.5051463548
 10
173.8137830101
 20
69.5147535891
 10
173.8086168926
 20
69.5242388558
 10
173.8031527003
 20
69.5335883498
 10
173.7973902749
 20
69.5427877648
 10
173.7913294582
 20
69.5518227942
 10
173.7849700918
 20
69.5606791316
 10
173.7783120177
 20
69.5693424706
 10
173.7713550775
 20
69.5777985047
 10
173.764099113
 20
69.5860329273
 10
173.7565459199
 20
69.5940329042
 10
173.7487051098
 20
69.6017914892
 10
173.7405882484
 20
69.6093032082
 10
173.7322069013
 20
69.6165625871
 10
173.7235726341
 20
69.6235641517
 10
173.7146970123
 20
69.6303024281
 10
173.7055916016
 20
69.6367719421
 10
173.6962679676
 20
69.6429672197
 10
173.6867376886
 20
69.648883532
 10
173.6770123938
 20
69.6545191314
 10
173.6671037252
 20
69.6598730158
 10
173.6570233245
 20
69.6649441828
 10
173.6467828339
 20
69.6697316302
 10
173.6363938951
 20
69.6742343557
 10
173.6258681501
 20
69.678451357
 10
173.6152172407
 20
69.6823816318
 10
173.6044501404
 20
69.6860237178
 10
173.5935651475
 20
69.6893743119
 10
173.582557892
 20
69.6924296508
 10
173.5714240038
 20
69.6951859715
 10
173.5601591127
 20
69.6976395108
 10
173.5487588487
 20
69.6997865053
 10
173.5372188416
 20
69.701623192
 10
173.5255347212
 20
69.7031458077
  0
LINE
  5
2E4
100
AcDbEntity
  8
SCRITTE
100
AcDbLine
 62
253
  6
CONTINUOUS
 10
172.5050499873
 20
67.363915554
 11
172.5050499873
 21
70.1309094439
  0
LINE
  5
2E5
100
AcDbEntity
  8
SCRITTE
100
AcDbLine
 62
253
  6
CONTINUOUS
 10
173.0677284391
 20
69.6866621124
 11
173.0677284391
 21
68.9180887941
  0
LINE
  5
2E6
100
AcDbEntity
  8
SCRITTE
100
AcDbLine
 62
253
  6
CONTINUOUS
 10
173.0871065299
 20
68.4595649836
 11
173.0871065299
 21
67.3639155661
  0
LINE
  5
2E7
100
AcDbEntity
  8
SCRITTE
100
AcDbLine
 62
253
  6
CONTINUOUS
 10
174.0075343499
 20
68.6873362803
 11
174.0075343499
 21
68.6707924711
  0
LINE
  5
2E8
100
AcDbEntity
  8
SCRITTE
100
AcDbLine
 62
253
  6
CONTINUOUS
 10
167.352556185
 20
70.1636189083
 11
167.099759185
 21
67.3639159083
  0
LINE
  5
2E9
100
AcDbEntity
  8
SCRITTE
100
AcDbLine
 62
253
  6
CONTINUOUS
 10
165.399862185
 20
70.1636189083
 11
164.849885185
 21
68.2364969083
  0
LINE
  5
2EA
100
AcDbEntity
  8
SCRITTE
100
AcDbLine
 62
253
  6
CONTINUOUS
 10
165.083934185
 20
67.3639159083
 11
165.983871185
 21
70.1636189083
  0
LWPOLYLINE
  5
2EB
100
AcDbEntity
  8
RACCORDO
100
AcDbPolyline
 62
253
  6
CONTINUOUS
 90
15
 70
0
 10
214.8497899325
 20
118.7993960648
 10
214.8118192954
 20
118.7889335667
 10
214.7752620754
 20
118.7786681351
 10
214.7403786261
 20
118.7686728783
 10
214.7074173804
 20
118.7590189807
 10
214.6766130821
 20
118.7497751953
 10
214.6481851131
 20
118.7410073547
 10
214.6223359321
 20
118.7327779016
 10
214.5992496319
 20
118.7251454445
 10
214.5790906285
 20
118.7181643404
 10
214.5620024904
 20
118.7118843073
 10
214.548106916
 20
118.7063500703
 10
214.537502867
 20
118.7016010431
 10
214.5302658632
 20
118.6976710474
 10
214.5264474452
 20
118.6945880719
  0
LWPOLYLINE
  5
2EC
100
AcDbEntity
  8
ASSI
100
AcDbPolyline
 62
253
  6
CONTINUOUS
 90
15
 70
0
 10
214.8497899325
 20
118.7993960648
 10
214.8118192954
 20
118.7889335667
 10
214.7752620754
 20
118.7786681351
 10
214.7403786261
 20
118.7686728783
 10
214.7074173804
 20
118.7590189807
 10
214.6766130821
 20
118.7497751953
 10
214.6481851131
 20
118.7410073547
 10
214.6223359321
 20
118.7327779016
 10
214.5992496319
 20
118.7251454445
 10
214.5790906285
 20
118.7181643404
 10
214.5620024904
 20
118.7118843073
 10
214.548106916
 20
118.7063500703
 10
214.537502867
 20
118.7016010431
 10
214.5302658632
 20
118.6976710474
 10
214.5264474452
 20
118.6945880719
  0
LINE
  5
2ED
100
AcDbEntity
  8
RACCORDO
100
AcDbLine
 62
253
  6
CONTINUOUS
 10
214.9288816405
 20
118.8206133401
 11
214.8497899325
 21
118.7993960648
  0
LINE
  5
2EE
100
AcDbEntity
  8
ASSI
100
AcDbLine
 62
253
  6
CONTINUOUS
 10
214.9288816405
 20
118.8206133401
 11
214.8497899325
 21
118.7993960648
  0
LINE
  5
2EF
100
AcDbEntity
  8
RACCORDO
100
AcDbLine
 62
253
  6
CONTINUOUS
 10
215.010288108
 20
118.8417166163
 11
214.9288816405
 21
118.8206133401
  0
LINE
  5
2F0
100
AcDbEntity
  8
ASSI
100
AcDbLine
 62
253
  6
CONTINUOUS
 10
215.010288108
 20
118.8417166163
 11
214.9288816405
 21
118.8206133401
  0
LINE
  5
2F1
100
AcDbEntity
  8
RACCORDO
100
AcDbLine
 62
253
  6
CONTINUOUS
 10
123.359774262
 20
118.8417165855
 11
123.4411807441
 21
118.8206133095
  0
LINE
  5
2F2
100
AcDbEntity
  8
ASSI
100
AcDbLine
 62
253
  6
CONTINUOUS
 10
123.359774262
 20
118.8417165855
 11
123.4411807441
 21
118.8206133095
  0
LWPOLYLINE
  5
2F3
100
AcDbEntity
  8
RACCORDO
100
AcDbPolyline
 62
253
  6
CONTINUOUS
 90
16
 70
0
 10
123.4411807441
 20
118.8206133095
 10
123.520272485
 20
118.7993960296
 10
123.5582431438
 20
118.788933528
 10
123.594800388
 20
118.7786680922
 10
123.6296838634
 20
118.7686728308
 10
123.6626451363
 20
118.7590189281
 10
123.6934494625
 20
118.7497751375
 10
123.7218774591
 20
118.7410072916
 10
123.7477266671
 20
118.7327778334
 10
123.7708129931
 20
118.7251453715
 10
123.7909720205
 20
118.7181642629
 10
123.8080601803
 20
118.7118842258
 10
123.8219557738
 20
118.7063499854
 10
123.832559839
 20
118.7016009556
 10
123.8397968558
 20
118.697670958
 10
123.8436152833
 20
118.6945879814
  0
LWPOLYLINE
  5
2F4
100
AcDbEntity
  8
ASSI
100
AcDbPolyline
 62
253
  6
CONTINUOUS
 90
16
 70
0
 10
123.4411807441
 20
118.8206133095
 10
123.520272485
 20
118.7993960296
 10
123.5582431438
 20
118.788933528
 10
123.594800388
 20
118.7786680922
 10
123.6296838634
 20
118.7686728308
 10
123.6626451363
 20
118.7590189281
 10
123.6934494625
 20
118.7497751375
 10
123.7218774591
 20
118.7410072916
 10
123.7477266671
 20
118.7327778334
 10
123.7708129931
 20
118.7251453715
 10
123.7909720205
 20
118.7181642629
 10
123.8080601803
 20
118.7118842258
 10
123.8219557738
 20
118.7063499854
 10
123.832559839
 20
118.7016009556
 10
123.8397968558
 20
118.697670958
 10
123.8436152833
 20
118.6945879814
  0
LINE
  5
2F5
100
AcDbEntity
  8
SCRITTE
100
AcDbLine
 62
253
  6
CONTINUOUS
 10
170.889782185
 20
68.3553259083
 11
171.180768185
 21
69.3943319083
  0
LINE
  5
2F6
100
AcDbEntity
  8
SCRITTE
100
AcDbLine
 62
253
  6
CONTINUOUS
 10
170.608978185
 20
67.3639159083
 11
170.770238185
 21
67.9228359083
  0
LINE
  5
2F7
100
AcDbEntity
  8
SCRITTE
100
AcDbLine
 62
253
  6
CONTINUOUS
 10
170.909076185
 20
70.1636189083
 11
170.030911185
 21
67.3639159083
  0
LINE
  5
2F8
100
AcDbEntity
  8
SCRITTE
100
AcDbLine
 62
253
  6
CONTINUOUS
 10
169.099125185
 20
70.1636189083
 11
168.514717185
 21
68.6092149083
  0
LINE
  5
2F9
100
AcDbEntity
  8
SCRITTE
100
AcDbLine
 62
253
  6
CONTINUOUS
 10
168.552507185
 20
67.3639159083
 11
169.247368185
 21
69.1844479083
  0
LINE
  5
2FA
100
AcDbEntity
  8
RACCORDO
100
AcDbLine
 62
253
  6
CONTINUOUS
 10
214.1369820128
 20
73.489395346
 11
214.0845264626
 21
73.5417169083
  0
LINE
  5
2FB
100
AcDbEntity
  8
ASSI
100
AcDbLine
 62
253
  6
CONTINUOUS
 10
214.1369820128
 20
73.489395346
 11
214.0845264626
 21
73.5417169083
  0
LINE
  5
2FC
100
AcDbEntity
  8
RACCORDO
100
AcDbLine
 62
253
  6
CONTINUOUS
 10
214.5388788565
 20
73.88744773
 11
214.4850311929
 21
73.9411593741
  0
LINE
  5
2FD
100
AcDbEntity
  8
ASSI
100
AcDbLine
 62
253
  6
CONTINUOUS
 10
214.5388788565
 20
73.88744773
 11
214.4850311929
 21
73.9411593741
  0
LINE
  5
2FE
100
AcDbEntity
  8
RACCORDO
100
AcDbLine
 62
253
  6
CONTINUOUS
 10
214.4850311929
 20
118.5422744426
 11
214.5388788575
 21
118.5959875585
  0
LINE
  5
2FF
100
AcDbEntity
  8
ASSI
100
AcDbLine
 62
253
  6
CONTINUOUS
 10
214.4850311929
 20
118.5422744426
 11
214.5388788575
 21
118.5959875585
  0
LINE
  5
300
100
AcDbEntity
  8
RACCORDO
100
AcDbLine
 62
253
  6
CONTINUOUS
 10
214.0845264626
 20
118.9417169083
 11
214.1369822377
 21
118.9940384707
  0
LINE
  5
301
100
AcDbEntity
  8
ASSI
100
AcDbLine
 62
253
  6
CONTINUOUS
 10
214.0845264626
 20
118.9417169083
 11
214.1369822377
 21
118.9940384707
  0
LWPOLYLINE
  5
302
100
AcDbEntity
  8
RACCORDO
100
AcDbPolyline
 62
7
  6
CONTINUOUS
 90
22
 70
0
 10
124.2855359074
 20
118.9417169083
 10
124.2554042674
 20
118.9405490648
 10
124.2257780141
 20
118.9372294276
 10
124.1966571475
 20
118.9317579943
 10
124.1679092504
 20
118.9240951384
 10
124.13966674
 20
118.9142804769
 10
124.1123268683
 20
118.9024328705
 10
124.0858739018
 20
118.8885188685
 10
124.0603235739
 20
118.8725719039
 10
124.0361203367
 20
118.8548111628
 10
124.0132560814
 20
118.8351550269
 10
123.9917389169
 20
118.8136850914
 10
123.9720376211
 20
118.7908653652
 10
123.9542309024
 20
118.766691509
 10
123.9382400524
 20
118.7411678409
 10
123.9242977246
 20
118.7147713626
 10
123.9124480204
 20
118.6875404302
 10
123.9026468384
 20
118.6594366723
 10
123.8949945282
 20
118.6308220065
 10
123.8895245395
 20
118.6018170702
 10
123.8862034225
 20
118.5723012172
 10
123.8850311772
 20
118.5422744426
  0
LWPOLYLINE
  5
303
100
AcDbEntity
  8
ASSI
100
AcDbPolyline
 62
7
  6
CONTINUOUS
 90
22
 70
0
 10
124.2855359074
 20
118.9417169083
 10
124.2554042674
 20
118.9405490648
 10
124.2257780141
 20
118.9372294276
 10
124.1966571475
 20
118.9317579943
 10
124.1679092504
 20
118.9240951384
 10
124.13966674
 20
118.9142804769
 10
124.1123268683
 20
118.9024328705
 10
124.0858739018
 20
118.8885188685
 10
124.0603235739
 20
118.8725719039
 10
124.0361203367
 20
118.8548111628
 10
124.0132560814
 20
118.8351550269
 10
123.9917389169
 20
118.8136850914
 10
123.9720376211
 20
118.7908653652
 10
123.9542309024
 20
118.766691509
 10
123.9382400524
 20
118.7411678409
 10
123.9242977246
 20
118.7147713626
 10
123.9124480204
 20
118.6875404302
 10
123.9026468384
 20
118.6594366723
 10
123.8949945282
 20
118.6308220065
 10
123.8895245395
 20
118.6018170702
 10
123.8862034225
 20
118.5723012172
 10
123.8850311772
 20
118.5422744426
  0
LWPOLYLINE
  5
304
100
AcDbEntity
  8
RACCORDO
100
AcDbPolyline
 62
253
  6
CONTINUOUS
 90
16
 70
0
 10
214.9130071634
 20
118.6187464936
 10
214.8726670288
 20
118.6181366376
 10
214.8335040034
 20
118.6173599258
 10
214.7957965902
 20
118.6164218819
 10
214.7598129406
 20
118.6153291766
 10
214.7258089479
 20
118.6140895805
 10
214.694026427
 20
118.6127119088
 10
214.6646913954
 20
118.6112059588
 10
214.6380124655
 20
118.6095824397
 10
214.614179361
 20
118.607852897
 10
214.593361568
 20
118.6060296301
 10
214.5757071297
 20
118.6041256051
 10
214.5613415934
 20
118.602154362
 10
214.5503671177
 20
118.6001299191
 10
214.5428617463
 20
118.5980666731
 10
214.5388788526
 20
118.5959792964
  0
LWPOLYLINE
  5
305
100
AcDbEntity
  8
ASSI
100
AcDbPolyline
 62
253
  6
CONTINUOUS
 90
16
 70
0
 10
214.9130071634
 20
118.6187464936
 10
214.8726670288
 20
118.6181366376
 10
214.8335040034
 20
118.6173599258
 10
214.7957965902
 20
118.6164218819
 10
214.7598129406
 20
118.6153291766
 10
214.7258089479
 20
118.6140895805
 10
214.694026427
 20
118.6127119088
 10
214.6646913954
 20
118.6112059588
 10
214.6380124655
 20
118.6095824397
 10
214.614179361
 20
118.607852897
 10
214.593361568
 20
118.6060296301
 10
214.5757071297
 20
118.6041256051
 10
214.5613415934
 20
118.602154362
 10
214.5503671177
 20
118.6001299191
 10
214.5428617463
 20
118.5980666731
 10
214.5388788526
 20
118.5959792964
  0
LWPOLYLINE
  5
306
100
AcDbEntity
  8
RACCORDO
100
AcDbPolyline
 62
253
  6
CONTINUOUS
 90
3
 70
0
 10
97.4197017844
 20
118.7784372086
 10
97.5009051048
 20
118.7791126864
 10
97.5420645925
 20
118.7791971759
  0
LWPOLYLINE
  5
307
100
AcDbEntity
  8
ASSI
100
AcDbPolyline
 62
253
  6
CONTINUOUS
 90
3
 70
0
 10
97.4197017844
 20
118.7784372086
 10
97.5009051048
 20
118.7791126864
 10
97.5420645925
 20
118.7791971759
  0
LINE
  5
308
100
AcDbEntity
  8
RACCORDO
100
AcDbLine
 62
253
  6
CONTINUOUS
 10
97.4197033336
 20
118.8409573697
 11
97.5009065639
 21
118.8416330367
  0
LINE
  5
309
100
AcDbEntity
  8
ASSI
100
AcDbLine
 62
253
  6
CONTINUOUS
 10
97.4197033336
 20
118.8409573697
 11
97.5009065639
 21
118.8416330367
  0
LWPOLYLINE
  5
30A
100
AcDbEntity
  8
RACCORDO
100
AcDbPolyline
 62
253
  6
CONTINUOUS
 90
3
 70
0
 10
215.0381919165
 20
118.6195376677
 10
214.9960649347
 20
118.6194495084
 10
214.9130071634
 20
118.6187464936
  0
LWPOLYLINE
  5
30B
100
AcDbEntity
  8
ASSI
100
AcDbPolyline
 62
253
  6
CONTINUOUS
 90
3
 70
0
 10
215.0381919165
 20
118.6195376677
 10
214.9960649347
 20
118.6194495084
 10
214.9130071634
 20
118.6187464936
  0
LINE
  5
30C
100
AcDbEntity
  8
RACCORDO
100
AcDbLine
 62
253
  6
CONTINUOUS
 10
241.435031185
 20
118.7563391306
 11
241.3260903431
 21
118.7563391306
  0
LINE
  5
30D
100
AcDbEntity
  8
ASSI
100
AcDbLine
 62
253
  6
CONTINUOUS
 10
241.435031185
 20
118.7563391306
 11
241.3260903431
 21
118.7563391306
  0
LINE
  5
30E
100
AcDbEntity
  8
RACCORDO
100
AcDbLine
 62
253
  6
CONTINUOUS
 10
96.935031185
 20
118.7563391306
 11
97.0439720271
 21
118.7563468543
  0
LINE
  5
30F
100
AcDbEntity
  8
ASSI
100
AcDbLine
 62
253
  6
CONTINUOUS
 10
96.935031185
 20
118.7563391306
 11
97.0439720271
 21
118.7563468543
  0
LINE
  5
310
100
AcDbEntity
  8
RACCORDO
100
AcDbLine
 62
253
  6
CONTINUOUS
 10
123.359774262
 20
118.8417169084
 11
97.5009065639
 21
118.8416330367
  0
LINE
  5
311
100
AcDbEntity
  8
ASSI
100
AcDbLine
 62
253
  6
CONTINUOUS
 10
123.359774262
 20
118.8417169084
 11
97.5009065639
 21
118.8416330367
  0
LINE
  5
312
100
AcDbEntity
  8
RACCORDO
100
AcDbLine
 62
7
  6
CONTINUOUS
 10
214.0845264626
 20
118.9417169083
 11
124.2855359074
 21
118.9417169083
  0
LINE
  5
313
100
AcDbEntity
  8
ASSI
100
AcDbLine
 62
7
  6
CONTINUOUS
 10
214.0845264626
 20
118.9417169083
 11
124.2855359074
 21
118.9417169083
  0
LINE
  5
314
100
AcDbEntity
  8
RACCORDO
100
AcDbLine
 62
253
  6
CONTINUOUS
 10
124.2330801357
 20
118.9940384707
 11
214.1369822377
 21
118.9940384707
  0
LINE
  5
315
100
AcDbEntity
  8
ASSI
100
AcDbLine
 62
253
  6
CONTINUOUS
 10
124.2330801357
 20
118.9940384707
 11
214.1369822377
 21
118.9940384707
  0
LINE
  5
316
100
AcDbEntity
  8
RACCORDO
100
AcDbLine
 62
253
  6
CONTINUOUS
 10
124.233077682
 20
119.5204830446
 11
214.136984688
 21
119.5204830446
  0
LINE
  5
317
100
AcDbEntity
  8
ASSI
100
AcDbLine
 62
253
  6
CONTINUOUS
 10
124.233077682
 20
119.5204830446
 11
214.136984688
 21
119.5204830446
  0
LINE
  5
318
100
AcDbEntity
  8
RACCORDO
100
AcDbLine
 62
253
  6
CONTINUOUS
 10
240.8691558075
 20
118.8416330379
 11
215.0102881081
 21
118.8417169084
  0
LINE
  5
319
100
AcDbEntity
  8
ASSI
100
AcDbLine
 62
253
  6
CONTINUOUS
 10
240.8691558075
 20
118.8416330379
 11
215.0102881081
 21
118.8417169084
  0
LWPOLYLINE
  5
31A
100
AcDbEntity
  8
RACCORDO
100
AcDbPolyline
 62
253
  6
CONTINUOUS
 90
18
 70
0
 10
123.3318704536
 20
118.6195377047
 10
123.4158248178
 20
118.6191851875
 10
123.4570551724
 20
118.6187465209
 10
123.4973952881
 20
118.618136662
 10
123.536558292
 20
118.6173599475
 10
123.5742656816
 20
118.6164219009
 10
123.6102493063
 20
118.6153291931
 10
123.6442532735
 20
118.6140895948
 10
123.6760357688
 20
118.612711921
 10
123.7053707753
 20
118.611205969
 10
123.7320496813
 20
118.6095824481
 10
123.7558827635
 20
118.6078529037
 10
123.7767005362
 20
118.6060296354
 10
123.7943549568
 20
118.6041256089
 10
123.8087204783
 20
118.6021543645
 10
123.8196949423
 20
118.6001299205
 10
123.8272003054
 20
118.5980666733
 10
123.8311831943
 20
118.5959792956
  0
LWPOLYLINE
  5
31B
100
AcDbEntity
  8
ASSI
100
AcDbPolyline
 62
253
  6
CONTINUOUS
 90
18
 70
0
 10
123.3318704536
 20
118.6195377047
 10
123.4158248178
 20
118.6191851875
 10
123.4570551724
 20
118.6187465209
 10
123.4973952881
 20
118.618136662
 10
123.536558292
 20
118.6173599475
 10
123.5742656816
 20
118.6164219009
 10
123.6102493063
 20
118.6153291931
 10
123.6442532735
 20
118.6140895948
 10
123.6760357688
 20
118.612711921
 10
123.7053707753
 20
118.611205969
 10
123.7320496813
 20
118.6095824481
 10
123.7558827635
 20
118.6078529037
 10
123.7767005362
 20
118.6060296354
 10
123.7943549568
 20
118.6041256089
 10
123.8087204783
 20
118.6021543645
 10
123.8196949423
 20
118.6001299205
 10
123.8272003054
 20
118.5980666733
 10
123.8311831943
 20
118.5959792956
  0
LWPOLYLINE
  5
31C
100
AcDbEntity
  8
RACCORDO
100
AcDbPolyline
 62
253
  6
CONTINUOUS
 90
25
 70
0
 10
214.1369822293
 20
118.9940384623
 10
214.1591298092
 20
118.9935081038
 10
214.1811964115
 20
118.9917664487
 10
214.2031156582
 20
118.9888213523
 10
214.2248174786
 20
118.9846857686
 10
214.2462414389
 20
118.9793737916
 10
214.2673362815
 20
118.9728980091
 10
214.2880423466
 20
118.9652766458
 10
214.30829338
 20
118.9565340167
 10
214.3280292243
 20
118.946694344
 10
214.3471914604
 20
118.9357864567
 10
214.3657208335
 20
118.923843816
 10
214.3835584635
 20
118.9109023645
 10
214.4006503562
 20
118.8970014083
 10
214.4169449785
 20
118.8821831338
 10
214.4323908262
 20
118.8664926262
 10
214.4469403194
 20
118.8499788256
 10
214.4605507834
 20
118.8326909934
 10
214.4731818991
 20
118.814678312
 10
214.4847962882
 20
118.7959932115
 10
214.4953571759
 20
118.7766942384
 10
214.5048298953
 20
118.7568428363
 10
214.5131852913
 20
118.7365004562
 10
214.520399154
 20
118.7157280213
 10
214.5264498625
 20
118.6945886815
  0
LWPOLYLINE
  5
31D
100
AcDbEntity
  8
ASSI
100
AcDbPolyline
 62
253
  6
CONTINUOUS
 90
25
 70
0
 10
214.1369822293
 20
118.9940384623
 10
214.1591298092
 20
118.9935081038
 10
214.1811964115
 20
118.9917664487
 10
214.2031156582
 20
118.9888213523
 10
214.2248174786
 20
118.9846857686
 10
214.2462414389
 20
118.9793737916
 10
214.2673362815
 20
118.9728980091
 10
214.2880423466
 20
118.9652766458
 10
214.30829338
 20
118.9565340167
 10
214.3280292243
 20
118.946694344
 10
214.3471914604
 20
118.9357864567
 10
214.3657208335
 20
118.923843816
 10
214.3835584635
 20
118.9109023645
 10
214.4006503562
 20
118.8970014083
 10
214.4169449785
 20
118.8821831338
 10
214.4323908262
 20
118.8664926262
 10
214.4469403194
 20
118.8499788256
 10
214.4605507834
 20
118.8326909934
 10
214.4731818991
 20
118.814678312
 10
214.4847962882
 20
118.7959932115
 10
214.4953571759
 20
118.7766942384
 10
214.5048298953
 20
118.7568428363
 10
214.5131852913
 20
118.7365004562
 10
214.520399154
 20
118.7157280213
 10
214.5264498625
 20
118.6945886815
  0
LWPOLYLINE
  5
31E
100
AcDbEntity
  8
RACCORDO
100
AcDbPolyline
 62
253
  6
CONTINUOUS
 90
25
 70
0
 10
214.136984688
 20
119.5204830446
 10
214.1868881772
 20
119.5190703439
 10
214.2363171032
 20
119.5149743962
 10
214.2852714661
 20
119.5081951911
 10
214.3338848463
 20
119.4986975503
 10
214.3820236634
 20
119.4865166095
 10
214.4292871763
 20
119.471757819
 10
214.4756776106
 20
119.454398802
 10
214.5211927408
 20
119.4344618554
 10
214.5654251484
 20
119.4121194353
 10
214.6083682353
 20
119.3873468023
 10
214.6500285997
 20
119.3601685877
 10
214.6900186175
 20
119.3308313051
 10
214.7283226725
 20
119.2993126932
 10
214.764956381
 20
119.26563489
 10
214.7995789674
 20
119.230111019
 10
214.832166828
 20
119.1927293221
 10
214.8627435665
 20
119.1535014339
 10
214.8910392179
 20
119.112775586
 10
214.9170409149
 20
119.0705174625
 10
214.9407615248
 20
119.0267612682
 10
214.9619696854
 20
118.9819580439
 10
214.9805882757
 20
118.936258118
 10
214.9966944166
 20
118.8895110864
 10
215.0102881081
 20
118.8417169084
  0
LWPOLYLINE
  5
31F
100
AcDbEntity
  8
ASSI
100
AcDbPolyline
 62
253
  6
CONTINUOUS
 90
25
 70
0
 10
214.136984688
 20
119.5204830446
 10
214.1868881772
 20
119.5190703439
 10
214.2363171032
 20
119.5149743962
 10
214.2852714661
 20
119.5081951911
 10
214.3338848463
 20
119.4986975503
 10
214.3820236634
 20
119.4865166095
 10
214.4292871763
 20
119.471757819
 10
214.4756776106
 20
119.454398802
 10
214.5211927408
 20
119.4344618554
 10
214.5654251484
 20
119.4121194353
 10
214.6083682353
 20
119.3873468023
 10
214.6500285997
 20
119.3601685877
 10
214.6900186175
 20
119.3308313051
 10
214.7283226725
 20
119.2993126932
 10
214.764956381
 20
119.26563489
 10
214.7995789674
 20
119.230111019
 10
214.832166828
 20
119.1927293221
 10
214.8627435665
 20
119.1535014339
 10
214.8910392179
 20
119.112775586
 10
214.9170409149
 20
119.0705174625
 10
214.9407615248
 20
119.0267612682
 10
214.9619696854
 20
118.9819580439
 10
214.9805882757
 20
118.936258118
 10
214.9966944166
 20
118.8895110864
 10
215.0102881081
 20
118.8417169084
  0
LINE
  5
320
100
AcDbEntity
  8
RACCORDO
100
AcDbLine
 62
253
  6
CONTINUOUS
 10
240.5322160053
 20
51.3623822811
 11
240.6507939757
 21
51.2418722144
  0
LINE
  5
321
100
AcDbEntity
  8
ASSI
100
AcDbLine
 62
253
  6
CONTINUOUS
 10
240.5322160053
 20
51.3623822811
 11
240.6507939757
 21
51.2418722144
  0
LINE
  5
322
100
AcDbEntity
  8
RACCORDO
100
AcDbLine
 62
253
  6
CONTINUOUS
 10
241.3243780118
 20
52.1513598929
 11
241.4350284632
 21
52.0388566917
  0
LINE
  5
323
100
AcDbEntity
  8
ASSI
100
AcDbLine
 62
253
  6
CONTINUOUS
 10
241.3243780118
 20
52.1513598929
 11
241.4350284632
 21
52.0388566917
  0
LINE
  5
324
100
AcDbEntity
  8
RACCORDO
100
AcDbLine
 62
253
  6
CONTINUOUS
 10
241.3243780118
 20
140.3320739237
 11
241.4350284632
 21
140.444577125
  0
LINE
  5
325
100
AcDbEntity
  8
ASSI
100
AcDbLine
 62
253
  6
CONTINUOUS
 10
241.3243780118
 20
140.3320739237
 11
241.4350284632
 21
140.444577125
  0
LINE
  5
326
100
AcDbEntity
  8
RACCORDO
100
AcDbLine
 62
253
  6
CONTINUOUS
 10
240.5322160053
 20
141.1210515356
 11
240.6507939757
 21
141.2415616023
  0
LINE
  5
327
100
AcDbEntity
  8
ASSI
100
AcDbLine
 62
253
  6
CONTINUOUS
 10
240.5322160053
 20
141.1210515356
 11
240.6507939757
 21
141.2415616023
  0
LINE
  5
328
100
AcDbEntity
  8
RACCORDO
100
AcDbLine
 62
253
  6
CONTINUOUS
 10
97.8378463647
 20
140.7131122741
 11
240.5322160053
 21
140.7131122741
  0
LINE
  5
329
100
AcDbEntity
  8
ASSI
100
AcDbLine
 62
253
  6
CONTINUOUS
 10
97.8378463647
 20
140.7131122741
 11
240.5322160053
 21
140.7131122741
  0
LINE
  5
32A
100
AcDbEntity
  8
RACCORDO
100
AcDbLine
 62
253
  6
CONTINUOUS
 10
97.8378463647
 20
141.1210515356
 11
240.5322160053
 21
141.1210515356
  0
LINE
  5
32B
100
AcDbEntity
  8
ASSI
100
AcDbLine
 62
253
  6
CONTINUOUS
 10
97.8378463647
 20
141.1210515356
 11
240.5322160053
 21
141.1210515356
  0
LINE
  5
32C
100
AcDbEntity
  8
RACCORDO
100
AcDbLine
 62
7
  6
CONTINUOUS
 10
97.735031185
 20
141.2417169083
 11
240.635031185
 21
141.2417169083
  0
LINE
  5
32D
100
AcDbEntity
  8
ASSI
100
AcDbLine
 62
7
  6
CONTINUOUS
 10
97.735031185
 20
141.2417169083
 11
240.635031185
 21
141.2417169083
  0
LWPOLYLINE
  5
32E
100
AcDbEntity
  8
RACCORDO
100
AcDbPolyline
 62
7
  6
CONTINUOUS
 90
22
 70
0
 10
214.4850311929
 20
118.5422744426
 10
214.4838589501
 20
118.5723012098
 10
214.4805378337
 20
118.6018170603
 10
214.4750678436
 20
118.6308219988
 10
214.4674155276
 20
118.6594366769
 10
214.4576143379
 20
118.6875404519
 10
214.4457646318
 20
118.714771391
 10
214.4318223136
 20
118.7411678547
 10
214.415831479
 20
118.7666914978
 10
214.3980247723
 20
118.7908653359
 10
214.3783234832
 20
118.8136850582
 10
214.356806322
 20
118.8351549969
 10
214.333942063
 20
118.8548111393
 10
214.3097388072
 20
118.8725718925
 10
214.2841884536
 20
118.8885188726
 10
214.2577354736
 20
118.902432884
 10
214.2303956135
 20
118.9142804874
 10
214.2021531269
 20
118.9240951398
 10
214.1734052453
 20
118.9317579892
 10
214.1442843793
 20
118.9372294215
 10
214.1146581185
 20
118.9405490604
 10
214.0845264626
 20
118.9417169083
  0
LWPOLYLINE
  5
32F
100
AcDbEntity
  8
ASSI
100
AcDbPolyline
 62
7
  6
CONTINUOUS
 90
22
 70
0
 10
214.4850311929
 20
118.5422744426
 10
214.4838589501
 20
118.5723012098
 10
214.4805378337
 20
118.6018170603
 10
214.4750678436
 20
118.6308219988
 10
214.4674155276
 20
118.6594366769
 10
214.4576143379
 20
118.6875404519
 10
214.4457646318
 20
118.714771391
 10
214.4318223136
 20
118.7411678547
 10
214.415831479
 20
118.7666914978
 10
214.3980247723
 20
118.7908653359
 10
214.3783234832
 20
118.8136850582
 10
214.356806322
 20
118.8351549969
 10
214.333942063
 20
118.8548111393
 10
214.3097388072
 20
118.8725718925
 10
214.2841884536
 20
118.8885188726
 10
214.2577354736
 20
118.902432884
 10
214.2303956135
 20
118.9142804874
 10
214.2021531269
 20
118.9240951398
 10
214.1734052453
 20
118.9317579892
 10
214.1442843793
 20
118.9372294215
 10
214.1146581185
 20
118.9405490604
 10
214.0845264626
 20
118.9417169083
  0
LINE
  5
330
100
AcDbEntity
  8
RACCORDO
100
AcDbLine
 62
253
  6
CONTINUOUS
 10
214.136984688
 20
119.5204830446
 11
214.136984688
 21
118.9940384707
  0
LINE
  5
331
100
AcDbEntity
  8
ASSI
100
AcDbLine
 62
253
  6
CONTINUOUS
 10
214.136984688
 20
119.5204830446
 11
214.136984688
 21
118.9940384707
  0
LINE
  5
332
100
AcDbEntity
  8
RACCORDO
100
AcDbLine
 62
253
  6
CONTINUOUS
 10
214.136984688
 20
72.9629507721
 11
214.136984688
 21
73.489395346
  0
LINE
  5
333
100
AcDbEntity
  8
ASSI
100
AcDbLine
 62
253
  6
CONTINUOUS
 10
214.136984688
 20
72.9629507721
 11
214.136984688
 21
73.489395346
  0
LINE
  5
334
100
AcDbEntity
  8
RACCORDO
100
AcDbLine
 62
7
  6
CONTINUOUS
 10
214.4850311929
 20
73.9411593741
 11
214.4850311929
 21
118.5422744426
  0
LINE
  5
335
100
AcDbEntity
  8
ASSI
100
AcDbLine
 62
7
  6
CONTINUOUS
 10
214.4850311929
 20
73.9411593741
 11
214.4850311929
 21
118.5422744426
  0
LINE
  5
336
100
AcDbEntity
  8
RACCORDO
100
AcDbLine
 62
253
  6
CONTINUOUS
 10
214.5388788575
 20
118.5959875585
 11
214.5388788565
 21
73.88744773
  0
LINE
  5
337
100
AcDbEntity
  8
ASSI
100
AcDbLine
 62
253
  6
CONTINUOUS
 10
214.5388788575
 20
118.5959875585
 11
214.5388788565
 21
73.88744773
  0
LINE
  5
338
100
AcDbEntity
  8
RACCORDO
100
AcDbLine
 62
253
  6
CONTINUOUS
 10
215.0381919165
 20
118.6195376683
 11
215.0381919165
 21
73.8638961484
  0
LINE
  5
339
100
AcDbEntity
  8
ASSI
100
AcDbLine
 62
253
  6
CONTINUOUS
 10
215.0381919165
 20
118.6195376683
 11
215.0381919165
 21
73.8638961484
  0
LWPOLYLINE
  5
33A
100
AcDbEntity
  8
RACCORDO
100
AcDbPolyline
 62
253
  6
CONTINUOUS
 90
7
 70
0
 10
214.5388788505
 20
73.887447736
 10
214.5385342828
 20
73.8708459377
 10
214.5374957298
 20
73.8542732412
 10
214.5357647095
 20
73.8377582994
 10
214.533343931
 20
73.8213296918
 10
214.5302372897
 20
73.8050158755
 10
214.5264498625
 20
73.7888451351
  0
LWPOLYLINE
  5
33B
100
AcDbEntity
  8
ASSI
100
AcDbPolyline
 62
253
  6
CONTINUOUS
 90
7
 70
0
 10
214.5388788505
 20
73.887447736
 10
214.5385342828
 20
73.8708459377
 10
214.5374957298
 20
73.8542732412
 10
214.5357647095
 20
73.8377582994
 10
214.533343931
 20
73.8213296918
 10
214.5302372897
 20
73.8050158755
 10
214.5264498625
 20
73.7888451351
  0
LWPOLYLINE
  5
33C
100
AcDbEntity
  8
RACCORDO
100
AcDbPolyline
 62
253
  6
CONTINUOUS
 90
7
 70
0
 10
215.0381919165
 20
73.8638961484
 10
215.0373842192
 20
73.8262363523
 10
215.035039347
 20
73.7888285292
 10
215.0311572997
 20
73.7516726761
 10
215.0257380775
 20
73.7147687902
 10
215.0187816803
 20
73.6781168685
 10
215.0102881081
 20
73.6417169083
  0
LWPOLYLINE
  5
33D
100
AcDbEntity
  8
ASSI
100
AcDbPolyline
 62
253
  6
CONTINUOUS
 90
7
 70
0
 10
215.0381919165
 20
73.8638961484
 10
215.0373842192
 20
73.8262363523
 10
215.035039347
 20
73.7888285292
 10
215.0311572997
 20
73.7516726761
 10
215.0257380775
 20
73.7147687902
 10
215.0187816803
 20
73.6781168685
 10
215.0102881081
 20
73.6417169083
  0
LWPOLYLINE
  5
33E
100
AcDbEntity
  8
RACCORDO
100
AcDbPolyline
 62
253
  6
CONTINUOUS
 90
28
 70
0
 10
240.5322160053
 20
140.7131122741
 10
240.5494657609
 20
140.7126012345
 10
240.5665323098
 20
140.7111049657
 10
240.5834156521
 20
140.7086234629
 10
240.6001683189
 20
140.705144101
 10
240.6167377791
 20
140.7006794854
 10
240.6329664393
 20
140.6952674523
 10
240.6488556434
 20
140.6888967478
 10
240.6644040475
 20
140.6815785886
 10
240.6794500261
 20
140.6733845149
 10
240.6939850513
 20
140.6643071044
 10
240.7080176511
 20
140.6543537291
 10
240.7214117833
 20
140.6436181209
 10
240.7341628854
 20
140.6320912606
 10
240.74627552
 20
140.6197821095
 10
240.7576273326
 20
140.606811376
 10
240.7682101952
 20
140.5931729149
 10
240.7780322358
 20
140.5788728131
 10
240.7869954838
 20
140.5640501364
 10
240.7950915675
 20
140.5486994373
 10
240.8023288586
 20
140.5328261112
 10
240.8086345008
 20
140.5165855017
 10
240.8139995462
 20
140.4999688256
 10
240.8184329428
 20
140.4829848263
 10
240.8218886774
 20
140.4658151549
 10
240.8243514124
 20
140.4485203595
 10
240.8258364855
 20
140.4310398738
 10
240.8263438966
 20
140.4133736871
  0
LWPOLYLINE
  5
33F
100
AcDbEntity
  8
ASSI
100
AcDbPolyline
 62
253
  6
CONTINUOUS
 90
28
 70
0
 10
240.5322160053
 20
140.7131122741
 10
240.5494657609
 20
140.7126012345
 10
240.5665323098
 20
140.7111049657
 10
240.5834156521
 20
140.7086234629
 10
240.6001683189
 20
140.705144101
 10
240.6167377791
 20
140.7006794854
 10
240.6329664393
 20
140.6952674523
 10
240.6488556434
 20
140.6888967478
 10
240.6644040475
 20
140.6815785886
 10
240.6794500261
 20
140.6733845149
 10
240.6939850513
 20
140.6643071044
 10
240.7080176511
 20
140.6543537291
 10
240.7214117833
 20
140.6436181209
 10
240.7341628854
 20
140.6320912606
 10
240.74627552
 20
140.6197821095
 10
240.7576273326
 20
140.606811376
 10
240.7682101952
 20
140.5931729149
 10
240.7780322358
 20
140.5788728131
 10
240.7869954838
 20
140.5640501364
 10
240.7950915675
 20
140.5486994373
 10
240.8023288586
 20
140.5328261112
 10
240.8086345008
 20
140.5165855017
 10
240.8139995462
 20
140.4999688256
 10
240.8184329428
 20
140.4829848263
 10
240.8218886774
 20
140.4658151549
 10
240.8243514124
 20
140.4485203595
 10
240.8258364855
 20
140.4310398738
 10
240.8263438966
 20
140.4133736871
  0
LWPOLYLINE
  5
340
100
AcDbEntity
  8
RACCORDO
100
AcDbPolyline
 62
253
  6
CONTINUOUS
 90
28
 70
0
 10
240.5322160053
 20
141.1210515356
 10
240.5779415305
 20
141.1195210106
 10
240.6234663006
 20
141.1153630916
 10
240.6686420024
 20
141.1085963793
 10
240.7133032166
 20
141.0992524003
 10
240.7573242948
 20
141.0873640082
 10
240.8006170404
 20
141.0729546774
 10
240.8430644674
 20
141.0560551056
 10
240.8844987801
 20
141.0367240931
 10
240.9247584812
 20
141.0150343047
 10
240.9637009144
 20
140.9910624684
 10
241.0012089877
 20
140.9648812562
 10
241.0371669296
 20
140.9365714612
 10
241.0714564817
 20
140.9062222978
 10
241.1039621062
 20
140.8739326918
 10
241.1345788575
 20
140.8398065539
 10
241.1632035201
 20
140.8039536285
 10
241.1897398649
 20
140.7664894208
 10
241.2141021249
 20
140.7275344717
 10
241.2362076377
 20
140.6872123049
 10
241.2559791847
 20
140.6456552383
 10
241.273349997
 20
140.603003892
 10
241.2882586092
 20
140.5593995237
 10
241.3006538125
 20
140.5149814151
 10
241.3104957186
 20
140.4698921446
 10
241.3177487505
 20
140.4242779116
 10
241.3223828235
 20
140.3782883491
 10
241.3243780119
 20
140.3320739238
  0
LWPOLYLINE
  5
341
100
AcDbEntity
  8
ASSI
100
AcDbPolyline
 62
253
  6
CONTINUOUS
 90
28
 70
0
 10
240.5322160053
 20
141.1210515356
 10
240.5779415305
 20
141.1195210106
 10
240.6234663006
 20
141.1153630916
 10
240.6686420024
 20
141.1085963793
 10
240.7133032166
 20
141.0992524003
 10
240.7573242948
 20
141.0873640082
 10
240.8006170404
 20
141.0729546774
 10
240.8430644674
 20
141.0560551056
 10
240.8844987801
 20
141.0367240931
 10
240.9247584812
 20
141.0150343047
 10
240.9637009144
 20
140.9910624684
 10
241.0012089877
 20
140.9648812562
 10
241.0371669296
 20
140.9365714612
 10
241.0714564817
 20
140.9062222978
 10
241.1039621062
 20
140.8739326918
 10
241.1345788575
 20
140.8398065539
 10
241.1632035201
 20
140.8039536285
 10
241.1897398649
 20
140.7664894208
 10
241.2141021249
 20
140.7275344717
 10
241.2362076377
 20
140.6872123049
 10
241.2559791847
 20
140.6456552383
 10
241.273349997
 20
140.603003892
 10
241.2882586092
 20
140.5593995237
 10
241.3006538125
 20
140.5149814151
 10
241.3104957186
 20
140.4698921446
 10
241.3177487505
 20
140.4242779116
 10
241.3223828235
 20
140.3782883491
 10
241.3243780119
 20
140.3320739238
  0
LWPOLYLINE
  5
342
100
AcDbEntity
  8
RACCORDO
100
AcDbPolyline
 62
253
  6
CONTINUOUS
 90
18
 70
0
 10
241.3260903426
 20
118.7563391306
 10
241.320808049
 20
118.7583851874
 10
241.3121805925
 20
118.7604024812
 10
241.3002665356
 20
118.7623773187
 10
241.2851467503
 20
118.7642962949
 10
241.2669238685
 20
118.7661463838
 10
241.245721586
 20
118.7679150272
 10
241.2216838225
 20
118.7695902196
 10
241.1949737446
 20
118.77116059
 10
241.1657726586
 20
118.7726154787
 10
241.1342787795
 20
118.7739450102
 10
241.1007058855
 20
118.7751401596
 10
241.0652818674
 20
118.7761928143
 10
241.0282471808
 20
118.777095829
 10
240.9898532147
 20
118.7778430741
 10
240.9503605849
 20
118.7784294774
 10
240.9100373646
 20
118.7788510583
 10
240.8279977777
 20
118.7791894446
  0
LWPOLYLINE
  5
343
100
AcDbEntity
  8
ASSI
100
AcDbPolyline
 62
253
  6
CONTINUOUS
 90
18
 70
0
 10
241.3260903426
 20
118.7563391306
 10
241.320808049
 20
118.7583851874
 10
241.3121805925
 20
118.7604024812
 10
241.3002665356
 20
118.7623773187
 10
241.2851467503
 20
118.7642962949
 10
241.2669238685
 20
118.7661463838
 10
241.245721586
 20
118.7679150272
 10
241.2216838225
 20
118.7695902196
 10
241.1949737446
 20
118.77116059
 10
241.1657726586
 20
118.7726154787
 10
241.1342787795
 20
118.7739450102
 10
241.1007058855
 20
118.7751401596
 10
241.0652818674
 20
118.7761928143
 10
241.0282471808
 20
118.777095829
 10
240.9898532147
 20
118.7778430741
 10
240.9503605849
 20
118.7784294774
 10
240.9100373646
 20
118.7788510583
 10
240.8279977777
 20
118.7791894446
  0
LWPOLYLINE
  5
344
100
AcDbEntity
  8
RACCORDO
100
AcDbPolyline
 62
253
  6
CONTINUOUS
 90
17
 70
0
 10
241.3260888588
 20
118.8188135655
 10
241.320806506
 20
118.8208651867
 10
241.3121789986
 20
118.8228878955
 10
241.3002648994
 20
118.8248679619
 10
241.2851450802
 20
118.8267919455
 10
241.2669221732
 20
118.8286467863
 10
241.245719874
 20
118.8304198939
 10
241.221682102
 20
118.8320992325
 10
241.1949720237
 20
118.8336734029
 10
241.1657709448
 20
118.8351317199
 10
241.1342770799
 20
118.8364642844
 10
241.1007042067
 20
118.8376620511
 10
241.0652802151
 20
118.8387168898
 10
241.0282455603
 20
118.8396216401
 10
240.9898516305
 20
118.8403701608
 10
240.9503590405
 20
118.840957371
 10
240.8691558075
 20
118.8416330379
  0
LWPOLYLINE
  5
345
100
AcDbEntity
  8
ASSI
100
AcDbPolyline
 62
253
  6
CONTINUOUS
 90
17
 70
0
 10
241.3260888588
 20
118.8188135655
 10
241.320806506
 20
118.8208651867
 10
241.3121789986
 20
118.8228878955
 10
241.3002648994
 20
118.8248679619
 10
241.2851450802
 20
118.8267919455
 10
241.2669221732
 20
118.8286467863
 10
241.245719874
 20
118.8304198939
 10
241.221682102
 20
118.8320992325
 10
241.1949720237
 20
118.8336734029
 10
241.1657709448
 20
118.8351317199
 10
241.1342770799
 20
118.8364642844
 10
241.1007042067
 20
118.8376620511
 10
241.0652802151
 20
118.8387168898
 10
241.0282455603
 20
118.8396216401
 10
240.9898516305
 20
118.8403701608
 10
240.9503590405
 20
118.840957371
 10
240.8691558075
 20
118.8416330379
  0
LWPOLYLINE
  5
346
100
AcDbEntity
  8
RACCORDO
100
AcDbPolyline
 62
253
  6
CONTINUOUS
 90
25
 70
0
 10
215.0102881081
 20
73.6417169083
 10
214.9966914083
 20
73.5939154273
 10
214.9805829802
 20
73.5471633246
 10
214.961962824
 20
73.5014605593
 10
214.9407535773
 20
73.4566570422
 10
214.9170326024
 20
73.4129027867
 10
214.8910319864
 20
73.3706478885
 10
214.8627397623
 20
73.3299271197
 10
214.8321678971
 20
73.2907055971
 10
214.7995843781
 20
73.253328906
 10
214.7649653551
 20
73.2178077865
 10
214.7283346784
 20
73.1841313753
 10
214.6900318862
 20
73.1526128346
 10
214.6500403497
 20
73.1232737258
 10
214.6083766977
 20
73.0960923642
 10
214.5654303556
 20
73.0713170335
 10
214.5211949553
 20
73.0489729345
 10
214.4756768649
 20
73.0290347581
 10
214.4292846133
 20
73.0116750205
 10
214.3820212689
 20
72.9969162428
 10
214.3338837633
 20
72.9847358239
 10
214.2852714201
 20
72.9752386019
 10
214.236317347
 20
72.9684595079
 10
214.1868884364
 20
72.9643635682
 10
214.136984688
 20
72.9629507721
  0
LWPOLYLINE
  5
347
100
AcDbEntity
  8
ASSI
100
AcDbPolyline
 62
253
  6
CONTINUOUS
 90
25
 70
0
 10
215.0102881081
 20
73.6417169083
 10
214.9966914083
 20
73.5939154273
 10
214.9805829802
 20
73.5471633246
 10
214.961962824
 20
73.5014605593
 10
214.9407535773
 20
73.4566570422
 10
214.9170326024
 20
73.4129027867
 10
214.8910319864
 20
73.3706478885
 10
214.8627397623
 20
73.3299271197
 10
214.8321678971
 20
73.2907055971
 10
214.7995843781
 20
73.253328906
 10
214.7649653551
 20
73.2178077865
 10
214.7283346784
 20
73.1841313753
 10
214.6900318862
 20
73.1526128346
 10
214.6500403497
 20
73.1232737258
 10
214.6083766977
 20
73.0960923642
 10
214.5654303556
 20
73.0713170335
 10
214.5211949553
 20
73.0489729345
 10
214.4756768649
 20
73.0290347581
 10
214.4292846133
 20
73.0116750205
 10
214.3820212689
 20
72.9969162428
 10
214.3338837633
 20
72.9847358239
 10
214.2852714201
 20
72.9752386019
 10
214.236317347
 20
72.9684595079
 10
214.1868884364
 20
72.9643635682
 10
214.136984688
 20
72.9629507721
  0
LWPOLYLINE
  5
348
100
AcDbEntity
  8
RACCORDO
100
AcDbPolyline
 62
253
  6
CONTINUOUS
 90
25
 70
0
 10
214.5264498625
 20
73.7888451351
 10
214.5203989328
 20
73.767705098
 10
214.5131847503
 20
73.746931935
 10
214.5048289288
 20
73.7265888062
 10
214.4953555504
 20
73.7067364106
 10
214.4847938612
 20
73.6874364599
 10
214.4731789652
 20
73.6687510727
 10
214.460548148
 20
73.6507392774
 10
214.4469385406
 20
73.6334528462
 10
214.4323897067
 20
73.6169399728
 10
214.4169437673
 20
73.6012494976
 10
214.4006486741
 20
73.5864309352
 10
214.3835565001
 20
73.5725299157
 10
214.3657191697
 20
73.5595888395
 10
214.3471903714
 20
73.5476466853
 10
214.3280285422
 20
73.5367391015
 10
214.3082925978
 20
73.5268994334
 10
214.2880412372
 20
73.5181567274
 10
214.2673350952
 20
73.5105354094
 10
214.246240803
 20
73.5040598528
 10
214.2248176815
 20
73.4987480984
 10
214.2031163944
 20
73.4946125902
 10
214.1811971595
 20
73.491667453
 10
214.1591302372
 20
73.4899257379
 10
214.1369820036
 20
73.4893953551
  0
LWPOLYLINE
  5
349
100
AcDbEntity
  8
ASSI
100
AcDbPolyline
 62
253
  6
CONTINUOUS
 90
25
 70
0
 10
214.5264498625
 20
73.7888451351
 10
214.5203989328
 20
73.767705098
 10
214.5131847503
 20
73.746931935
 10
214.5048289288
 20
73.7265888062
 10
214.4953555504
 20
73.7067364106
 10
214.4847938612
 20
73.6874364599
 10
214.4731789652
 20
73.6687510727
 10
214.460548148
 20
73.6507392774
 10
214.4469385406
 20
73.6334528462
 10
214.4323897067
 20
73.6169399728
 10
214.4169437673
 20
73.6012494976
 10
214.4006486741
 20
73.5864309352
 10
214.3835565001
 20
73.5725299157
 10
214.3657191697
 20
73.5595888395
 10
214.3471903714
 20
73.5476466853
 10
214.3280285422
 20
73.5367391015
 10
214.3082925978
 20
73.5268994334
 10
214.2880412372
 20
73.5181567274
 10
214.2673350952
 20
73.5105354094
 10
214.246240803
 20
73.5040598528
 10
214.2248176815
 20
73.4987480984
 10
214.2031163944
 20
73.4946125902
 10
214.1811971595
 20
73.491667453
 10
214.1591302372
 20
73.4899257379
 10
214.1369820036
 20
73.4893953551
  0
LWPOLYLINE
  5
34A
100
AcDbEntity
  8
RACCORDO
100
AcDbPolyline
 62
253
  6
CONTINUOUS
 90
16
 70
0
 10
241.3260888575
 20
73.6646202512
 10
241.3208065035
 20
73.66256863
 10
241.3121789951
 20
73.6605459213
 10
241.3002648949
 20
73.6585658549
 10
241.285145075
 20
73.6566418714
 10
241.2669221675
 20
73.6547870307
 10
241.2457198679
 20
73.6530139232
 10
241.2216820957
 20
73.6513345847
 10
241.1949720173
 20
73.6497604143
 10
241.1657709386
 20
73.6483020974
 10
241.1342770739
 20
73.6469695329
 10
241.1007042012
 20
73.6457717662
 10
241.0652802102
 20
73.6447169276
 10
241.028245556
 20
73.6438121773
 10
240.9898516269
 20
73.6430636567
 10
240.9503590377
 20
73.6424764465
  0
LWPOLYLINE
  5
34B
100
AcDbEntity
  8
ASSI
100
AcDbPolyline
 62
253
  6
CONTINUOUS
 90
16
 70
0
 10
241.3260888575
 20
73.6646202512
 10
241.3208065035
 20
73.66256863
 10
241.3121789951
 20
73.6605459213
 10
241.3002648949
 20
73.6585658549
 10
241.285145075
 20
73.6566418714
 10
241.2669221675
 20
73.6547870307
 10
241.2457198679
 20
73.6530139232
 10
241.2216820957
 20
73.6513345847
 10
241.1949720173
 20
73.6497604143
 10
241.1657709386
 20
73.6483020974
 10
241.1342770739
 20
73.6469695329
 10
241.1007042012
 20
73.6457717662
 10
241.0652802102
 20
73.6447169276
 10
241.028245556
 20
73.6438121773
 10
240.9898516269
 20
73.6430636567
 10
240.9503590377
 20
73.6424764465
  0
LWPOLYLINE
  5
34C
100
AcDbEntity
  8
RACCORDO
100
AcDbPolyline
 62
253
  6
CONTINUOUS
 90
16
 70
0
 10
241.3260903431
 20
73.7270946861
 10
241.3208080499
 20
73.7250486292
 10
241.3121805937
 20
73.7230313354
 10
241.3002665371
 20
73.7210564979
 10
241.285146752
 20
73.7191375217
 10
241.2669238704
 20
73.7172874328
 10
241.2457215881
 20
73.7155187894
 10
241.2216838246
 20
73.713843597
 10
241.1949737467
 20
73.7122732266
 10
241.1657726607
 20
73.7108183378
 10
241.1342787814
 20
73.7094888063
 10
241.1007058874
 20
73.7082936569
 10
241.065281869
 20
73.7072410021
 10
241.0282471822
 20
73.7063379874
 10
240.9898532159
 20
73.7055907423
 10
240.9503605858
 20
73.705004339
  0
LWPOLYLINE
  5
34D
100
AcDbEntity
  8
ASSI
100
AcDbPolyline
 62
253
  6
CONTINUOUS
 90
16
 70
0
 10
241.3260903431
 20
73.7270946861
 10
241.3208080499
 20
73.7250486292
 10
241.3121805937
 20
73.7230313354
 10
241.3002665371
 20
73.7210564979
 10
241.285146752
 20
73.7191375217
 10
241.2669238704
 20
73.7172874328
 10
241.2457215881
 20
73.7155187894
 10
241.2216838246
 20
73.713843597
 10
241.1949737467
 20
73.7122732266
 10
241.1657726607
 20
73.7108183378
 10
241.1342787814
 20
73.7094888063
 10
241.1007058874
 20
73.7082936569
 10
241.065281869
 20
73.7072410021
 10
241.0282471822
 20
73.7063379874
 10
240.9898532159
 20
73.7055907423
 10
240.9503605858
 20
73.705004339
  0
LWPOLYLINE
  5
34E
100
AcDbEntity
  8
RACCORDO
100
AcDbPolyline
 62
253
  6
CONTINUOUS
 90
7
 70
0
 10
214.5264498625
 20
118.6945886815
 10
214.530232167
 20
118.6784421491
 10
214.5333373349
 20
118.6621432562
 10
214.5357591022
 20
118.6457199869
 10
214.537492366
 20
118.6292005974
 10
214.5385331969
 20
118.6126135673
 10
214.5388788501
 20
118.5959875512
  0
LWPOLYLINE
  5
34F
100
AcDbEntity
  8
ASSI
100
AcDbPolyline
 62
253
  6
CONTINUOUS
 90
7
 70
0
 10
214.5264498625
 20
118.6945886815
 10
214.530232167
 20
118.6784421491
 10
214.5333373349
 20
118.6621432562
 10
214.5357591022
 20
118.6457199869
 10
214.537492366
 20
118.6292005974
 10
214.5385331969
 20
118.6126135673
 10
214.5388788501
 20
118.5959875512
  0
LWPOLYLINE
  5
350
100
AcDbEntity
  8
RACCORDO
100
AcDbPolyline
 62
253
  6
CONTINUOUS
 90
7
 70
0
 10
215.0102881081
 20
118.8417169084
 10
215.018774491
 20
118.8053744634
 10
215.0257265746
 20
118.7687570512
 10
215.031144359
 20
118.7318646688
 10
215.0350278441
 20
118.6946973129
 10
215.0373770299
 20
118.6572549805
 10
215.0381919165
 20
118.6195376683
  0
LWPOLYLINE
  5
351
100
AcDbEntity
  8
ASSI
100
AcDbPolyline
 62
253
  6
CONTINUOUS
 90
7
 70
0
 10
215.0102881081
 20
118.8417169084
 10
215.018774491
 20
118.8053744634
 10
215.0257265746
 20
118.7687570512
 10
215.031144359
 20
118.7318646688
 10
215.0350278441
 20
118.6946973129
 10
215.0373770299
 20
118.6572549805
 10
215.0381919165
 20
118.6195376683
  0
LINE
  5
352
100
AcDbEntity
  8
RACCORDO
100
AcDbLine
 62
253
  6
CONTINUOUS
 10
240.5322160053
 20
141.1210515356
 11
240.5322160053
 21
140.7131122741
  0
LINE
  5
353
100
AcDbEntity
  8
ASSI
100
AcDbLine
 62
253
  6
CONTINUOUS
 10
240.5322160053
 20
141.1210515356
 11
240.5322160053
 21
140.7131122741
  0
LINE
  5
354
100
AcDbEntity
  8
RACCORDO
100
AcDbLine
 62
253
  6
CONTINUOUS
 10
240.5322160053
 20
51.3623822811
 11
240.5322160053
 21
51.7703215426
  0
LINE
  5
355
100
AcDbEntity
  8
ASSI
100
AcDbLine
 62
253
  6
CONTINUOUS
 10
240.5322160053
 20
51.3623822811
 11
240.5322160053
 21
51.7703215426
  0
LINE
  5
356
100
AcDbEntity
  8
RACCORDO
100
AcDbLine
 62
7
  6
CONTINUOUS
 10
241.435031185
 20
140.4417169083
 11
241.435031185
 21
118.7563391306
  0
LINE
  5
357
100
AcDbEntity
  8
DRAFT
100
AcDbLine
 62
7
  6
CONTINUOUS
 10
241.435031185
 20
118.7563391306
 11
241.435031185
 21
73.7270946861
  0
LINE
  5
358
100
AcDbEntity
  8
RACCORDO
100
AcDbLine
 62
7
  6
CONTINUOUS
 10
241.435031185
 20
73.7270946861
 11
241.435031185
 21
52.0417169083
  0
LINE
  5
359
100
AcDbEntity
  8
ASSI
100
AcDbLine
 62
7
  6
CONTINUOUS
 10
241.435031185
 20
140.4417169083
 11
241.435031185
 21
52.0417169083
  0
LINE
  5
35A
100
AcDbEntity
  8
RACCORDO
100
AcDbLine
 62
253
  6
CONTINUOUS
 10
240.8263438966
 20
140.4133736871
 11
240.8263438966
 21
52.0700601295
  0
LINE
  5
35B
100
AcDbEntity
  8
ASSI
100
AcDbLine
 62
253
  6
CONTINUOUS
 10
240.8263438966
 20
140.4133736871
 11
240.8263438966
 21
52.0700601295
  0
LINE
  5
35C
100
AcDbEntity
  8
RACCORDO
100
AcDbLine
 62
253
  6
CONTINUOUS
 10
241.3243780118
 20
140.3320739237
 11
241.3243780118
 21
52.1513598929
  0
LINE
  5
35D
100
AcDbEntity
  8
ASSI
100
AcDbLine
 62
253
  6
CONTINUOUS
 10
241.3243780118
 20
140.3320739237
 11
241.3243780118
 21
52.1513598929
  0
LWPOLYLINE
  5
35E
100
AcDbEntity
  8
RACCORDO
100
AcDbPolyline
 62
253
  6
CONTINUOUS
 90
28
 70
0
 10
240.8263438966
 20
52.0700601295
 10
240.8258336032
 20
52.0523853113
 10
240.8243484225
 20
52.0349042472
 10
240.8218883546
 20
52.0176169263
 10
240.8184394842
 20
52.0004683034
 10
240.8140157265
 20
51.9835134042
 10
240.8086588273
 20
51.966917315
 10
240.8023577639
 20
51.9506802465
 10
240.795123559
 20
51.9348019495
 10
240.7870310266
 20
51.9194468033
 10
240.7780728027
 20
51.904623723
 10
240.7682562513
 20
51.8903237413
 10
240.7576782784
 20
51.8766844006
 10
240.7463305071
 20
51.8637111381
 10
240.7342213144
 20
51.8513984584
 10
240.7214727365
 20
51.8398674954
 10
240.7080795946
 20
51.8291270013
 10
240.6940470675
 20
51.8191681661
 10
240.6795127288
 20
51.8100857757
 10
240.6644717314
 20
51.8018882685
 10
240.6489289223
 20
51.7945671557
 10
240.6330364158
 20
51.7881918313
 10
240.6167866185
 20
51.7827712581
 10
240.6001871238
 20
51.7782964362
 10
240.5834128257
 20
51.774809817
 10
240.5665220222
 20
51.7723255441
 10
240.5494564155
 20
51.7708294543
 10
240.5322160053
 20
51.7703215426
  0
LWPOLYLINE
  5
35F
100
AcDbEntity
  8
ASSI
100
AcDbPolyline
 62
253
  6
CONTINUOUS
 90
28
 70
0
 10
240.8263438966
 20
52.0700601295
 10
240.8258336032
 20
52.0523853113
 10
240.8243484225
 20
52.0349042472
 10
240.8218883546
 20
52.0176169263
 10
240.8184394842
 20
52.0004683034
 10
240.8140157265
 20
51.9835134042
 10
240.8086588273
 20
51.966917315
 10
240.8023577639
 20
51.9506802465
 10
240.795123559
 20
51.9348019495
 10
240.7870310266
 20
51.9194468033
 10
240.7780728027
 20
51.904623723
 10
240.7682562513
 20
51.8903237413
 10
240.7576782784
 20
51.8766844006
 10
240.7463305071
 20
51.8637111381
 10
240.7342213144
 20
51.8513984584
 10
240.7214727365
 20
51.8398674954
 10
240.7080795946
 20
51.8291270013
 10
240.6940470675
 20
51.8191681661
 10
240.6795127288
 20
51.8100857757
 10
240.6644717314
 20
51.8018882685
 10
240.6489289223
 20
51.7945671557
 10
240.6330364158
 20
51.7881918313
 10
240.6167866185
 20
51.7827712581
 10
240.6001871238
 20
51.7782964362
 10
240.5834128257
 20
51.774809817
 10
240.5665220222
 20
51.7723255441
 10
240.5494564155
 20
51.7708294543
 10
240.5322160053
 20
51.7703215426
  0
LWPOLYLINE
  5
360
100
AcDbEntity
  8
RACCORDO
100
AcDbPolyline
 62
253
  6
CONTINUOUS
 90
28
 70
0
 10
241.3243780119
 20
52.1513598928
 10
241.3223820425
 20
52.105134928
 10
241.3177483883
 20
52.0591532169
 10
241.310500101
 20
52.0135648275
 10
241.3006736511
 20
51.9685319957
 10
241.2883057545
 20
51.924186033
 10
241.2734246308
 20
51.8806292747
 10
241.2560687295
 20
51.8379816291
 10
241.2363023674
 20
51.7964068121
 10
241.2142013093
 20
51.7560686685
 10
241.1898479968
 20
51.7171069006
 10
241.1633213038
 20
51.6796369457
 10
241.1347059945
 20
51.6437776767
 10
241.1040978094
 20
51.6096441249
 10
241.0716003297
 20
51.5773465995
 10
241.037318521
 20
51.5469890885
 10
241.0013673493
 20
51.5186701267
 10
240.9638655622
 20
51.4924794206
 10
240.9249307595
 20
51.4684988567
 10
240.884688742
 20
51.4468050737
 10
240.8432741907
 20
51.4274692306
 10
240.8008236672
 20
51.4105545701
 10
240.7574810678
 20
51.3961170787
 10
240.7133841585
 20
51.384200855
 10
240.6686639191
 20
51.374841375
 10
240.6234617226
 20
51.3680701363
 10
240.5779295275
 20
51.3639120093
 10
240.5322160053
 20
51.3623822811
  0
LWPOLYLINE
  5
361
100
AcDbEntity
  8
ASSI
100
AcDbPolyline
 62
253
  6
CONTINUOUS
 90
28
 70
0
 10
241.3243780119
 20
52.1513598928
 10
241.3223820425
 20
52.105134928
 10
241.3177483883
 20
52.0591532169
 10
241.310500101
 20
52.0135648275
 10
241.3006736511
 20
51.9685319957
 10
241.2883057545
 20
51.924186033
 10
241.2734246308
 20
51.8806292747
 10
241.2560687295
 20
51.8379816291
 10
241.2363023674
 20
51.7964068121
 10
241.2142013093
 20
51.7560686685
 10
241.1898479968
 20
51.7171069006
 10
241.1633213038
 20
51.6796369457
 10
241.1347059945
 20
51.6437776767
 10
241.1040978094
 20
51.6096441249
 10
241.0716003297
 20
51.5773465995
 10
241.037318521
 20
51.5469890885
 10
241.0013673493
 20
51.5186701267
 10
240.9638655622
 20
51.4924794206
 10
240.9249307595
 20
51.4684988567
 10
240.884688742
 20
51.4468050737
 10
240.8432741907
 20
51.4274692306
 10
240.8008236672
 20
51.4105545701
 10
240.7574810678
 20
51.3961170787
 10
240.7133841585
 20
51.384200855
 10
240.6686639191
 20
51.374841375
 10
240.6234617226
 20
51.3680701363
 10
240.5779295275
 20
51.3639120093
 10
240.5322160053
 20
51.3623822811
  0
LWPOLYLINE
  5
362
100
AcDbEntity
  8
RACCORDO
100
AcDbPolyline
 62
253
  6
CONTINUOUS
 90
19
 70
0
 10
241.3243737834
 20
52.1513599505
 10
241.3190435377
 20
52.1440744573
 10
241.3103748706
 20
52.136892312
 10
241.2984265188
 20
52.1298621791
 10
241.2832794411
 20
52.1230316933
 10
241.2650362702
 20
52.1164471363
 10
241.2438206172
 20
52.1101531235
 10
241.2197762337
 20
52.1041923016
 10
241.1930660382
 20
52.0986050598
 10
241.1638710122
 20
52.0934292559
 10
241.1323889734
 20
52.0886999599
 10
241.0988332361
 20
52.0844492164
 10
241.0634311651
 20
52.0807058274
 10
241.0264226358
 20
52.0774951572
 10
240.9880584082
 20
52.0748389605
 10
240.9485984285
 20
52.072755235
 10
240.9083100671
 20
52.0712580994
 10
240.8674663076
 20
52.070357698
 10
240.8263438966
 20
52.0700601316
  0
LWPOLYLINE
  5
363
100
AcDbEntity
  8
ASSI
100
AcDbPolyline
 62
253
  6
CONTINUOUS
 90
19
 70
0
 10
241.3243737834
 20
52.1513599505
 10
241.3190435377
 20
52.1440744573
 10
241.3103748706
 20
52.136892312
 10
241.2984265188
 20
52.1298621791
 10
241.2832794411
 20
52.1230316933
 10
241.2650362702
 20
52.1164471363
 10
241.2438206172
 20
52.1101531235
 10
241.2197762337
 20
52.1041923016
 10
241.1930660382
 20
52.0986050598
 10
241.1638710122
 20
52.0934292559
 10
241.1323889734
 20
52.0886999599
 10
241.0988332361
 20
52.0844492164
 10
241.0634311651
 20
52.0807058274
 10
241.0264226358
 20
52.0774951572
 10
240.9880584082
 20
52.0748389605
 10
240.9485984285
 20
52.072755235
 10
240.9083100671
 20
52.0712580994
 10
240.8674663076
 20
52.070357698
 10
240.8263438966
 20
52.0700601316
  0
LWPOLYLINE
  5
364
100
AcDbEntity
  8
RACCORDO
100
AcDbPolyline
 62
253
  6
CONTINUOUS
 90
19
 70
0
 10
241.3243780088
 20
140.3320739337
 10
241.3190476909
 20
140.339359414
 10
241.3103789216
 20
140.3465415476
 10
241.2984304387
 20
140.3535716699
 10
241.2832832024
 20
140.3604021464
 10
241.2650398469
 20
140.3669866952
 10
241.2438239853
 20
140.373280701
 10
241.2197793715
 20
140.379241517
 10
241.1930689263
 20
140.384828754
 10
241.163873634
 20
140.3900045541
 10
241.1323913152
 20
140.3947338473
 10
241.0988352872
 20
140.3989845888
 10
241.0634329181
 20
140.4027279768
 10
241.0264240865
 20
140.4059386467
 10
240.9880595561
 20
140.4085948438
 10
240.9485992764
 20
140.4106785703
 10
240.9083106213
 20
140.4121757073
 10
240.867466578
 20
140.4130761105
 10
240.8263438966
 20
140.4133736791
  0
LWPOLYLINE
  5
365
100
AcDbEntity
  8
ASSI
100
AcDbPolyline
 62
253
  6
CONTINUOUS
 90
19
 70
0
 10
241.3243780088
 20
140.3320739337
 10
241.3190476909
 20
140.339359414
 10
241.3103789216
 20
140.3465415476
 10
241.2984304387
 20
140.3535716699
 10
241.2832832024
 20
140.3604021464
 10
241.2650398469
 20
140.3669866952
 10
241.2438239853
 20
140.373280701
 10
241.2197793715
 20
140.379241517
 10
241.1930689263
 20
140.384828754
 10
241.163873634
 20
140.3900045541
 10
241.1323913152
 20
140.3947338473
 10
241.0988352872
 20
140.3989845888
 10
241.0634329181
 20
140.4027279768
 10
241.0264240865
 20
140.4059386467
 10
240.9880595561
 20
140.4085948438
 10
240.9485992764
 20
140.4106785703
 10
240.9083106213
 20
140.4121757073
 10
240.867466578
 20
140.4130761105
 10
240.8263438966
 20
140.4133736791
  0
LINE
  5
366
100
AcDbEntity
  8
RACCORDO
100
AcDbLine
 62
253
  6
CONTINUOUS
 10
64.8672121386
 20
52.1513599505
 11
64.418817183
 21
52.0700601316
  0
LINE
  5
367
100
AcDbEntity
  8
ASSI
100
AcDbLine
 62
253
  6
CONTINUOUS
 10
64.8672121386
 20
52.1513599505
 11
64.418817183
 21
52.0700601316
  0
LWPOLYLINE
  5
368
100
AcDbEntity
  8
RACCORDO
100
AcDbPolyline
 62
253
  6
CONTINUOUS
 90
16
 70
0
 10
67.383939929
 20
52.5323395287
 10
67.5079541722
 20
52.5504532118
 10
67.6319840054
 20
52.5714632299
 10
67.7559526968
 20
52.5953745171
 10
67.8797027759
 20
52.6221114234
 10
68.0032236935
 20
52.6517595372
 10
68.1266504004
 20
52.6845662362
 10
68.2499015819
 20
52.7205101125
 10
68.3728528053
 20
52.7596239413
 10
68.4955633791
 20
52.8022376262
 10
68.6180193252
 20
52.8483253491
 10
68.7399818165
 20
52.8979259934
 10
68.8611792962
 20
52.9514679304
 10
68.9814643471
 20
53.00909913
 10
69.1007858523
 20
53.0706863964
 10
69.2190396998
 20
53.1362370468
  0
LINE
  5
369
100
AcDbEntity
  8
RACCORDO
100
AcDbLine
 62
253
  6
CONTINUOUS
 10
67.277330347
 20
53.124505396
 11
69.2190396998
 21
53.1362370468
  0
LINE
  5
36A
100
AcDbEntity
  8
RACCORDO
100
AcDbLine
 62
7
  6
CONTINUOUS
 10
66.3009228754
 20
51.2417169083
 11
67.1150967696
 21
51.2417169083
  0
LINE
  5
36B
100
AcDbEntity
  8
ASSI
100
AcDbLine
 62
7
  6
CONTINUOUS
 10
66.3009228754
 20
51.2417169083
 11
67.1150967696
 21
51.2417169083
  0
LINE
  5
36C
100
AcDbEntity
  8
RACCORDO
100
AcDbLine
 62
253
  6
CONTINUOUS
 10
66.15210102
 20
52.0417169083
 11
66.9654956365
 21
52.0417169083
  0
LINE
  5
36D
100
AcDbEntity
  8
ASSI
100
AcDbLine
 62
253
  6
CONTINUOUS
 10
66.15210102
 20
52.0417169083
 11
66.9654956365
 21
52.0417169083
  0
LINE
  5
36E
100
AcDbEntity
  8
RACCORDO
100
AcDbLine
 62
7
  6
CONTINUOUS
 10
64.9217113534
 20
51.3623822811
 11
66.2991477191
 21
51.2418722144
  0
LINE
  5
36F
100
AcDbEntity
  8
ASSI
100
AcDbLine
 62
7
  6
CONTINUOUS
 10
64.9217113534
 20
51.3623822811
 11
66.2991477191
 21
51.2418722144
  0
LINE
  5
370
100
AcDbEntity
  8
RACCORDO
100
AcDbLine
 62
253
  6
CONTINUOUS
 10
64.8672117671
 20
52.1513598929
 11
66.1525626252
 21
52.0388566917
  0
LINE
  5
371
100
AcDbEntity
  8
ASSI
100
AcDbLine
 62
253
  6
CONTINUOUS
 10
64.8672117671
 20
52.1513598929
 11
66.1525626252
 21
52.0388566917
  0
LINE
  5
372
100
AcDbEntity
  8
0
100
AcDbLine
 62
7
  6
CONTINUOUS
 10
67.4187323808
 20
52.3417169083
 11
66.9125294776
 21
52.3860039238
  0
LINE
  5
373
100
AcDbEntity
  8
0
100
AcDbLine
 62
253
  6
CONTINUOUS
 10
67.239405821
 20
53.3381951979
 11
66.7340385984
 21
53.3824335665
  0
LINE
  5
374
100
AcDbEntity
  8
DRAFT
100
AcDbLine
 62
7
  6
CONTINUOUS
 10
65.6966812891
 20
60.0766249977
 11
65.69076005
 21
60.0767283533
  0
LWPOLYLINE
  5
375
100
AcDbEntity
  8
RACCORDO
100
AcDbPolyline
 62
253
  6
CONTINUOUS
 90
19
 70
0
 10
64.9217113534
 20
141.1210515356
 10
64.9192579226
 20
141.1195210106
 10
64.9167688953
 20
141.1153630916
 10
64.9142554122
 20
141.1085963793
 10
64.9117294724
 20
141.0992524003
 10
64.9091985017
 20
141.0873640082
 10
64.906666488
 20
141.0729546774
 10
64.9041384571
 20
141.0560551056
 10
64.9016260695
 20
141.0367240931
 10
64.8991423994
 20
141.0150343047
 10
64.8966901639
 20
140.9910624684
 10
64.8942759364
 20
140.9648812562
 10
64.8919166973
 20
140.9365714612
 10
64.8896119649
 20
140.9062222978
 10
64.8873658879
 20
140.8739326918
 10
64.8852010637
 20
140.8398065539
 10
64.8831147169
 20
140.8039536285
 10
64.881107086
 20
140.7664894208
 10
64.8773987787
 20
140.6872123049
  0
LWPOLYLINE
  5
376
100
AcDbEntity
  8
ASSI
100
AcDbPolyline
 62
253
  6
CONTINUOUS
 90
19
 70
0
 10
64.9217113534
 20
141.1210515356
 10
64.9192579226
 20
141.1195210106
 10
64.9167688953
 20
141.1153630916
 10
64.9142554122
 20
141.1085963793
 10
64.9117294724
 20
141.0992524003
 10
64.9091985017
 20
141.0873640082
 10
64.906666488
 20
141.0729546774
 10
64.9041384571
 20
141.0560551056
 10
64.9016260695
 20
141.0367240931
 10
64.8991423994
 20
141.0150343047
 10
64.8966901639
 20
140.9910624684
 10
64.8942759364
 20
140.9648812562
 10
64.8919166973
 20
140.9365714612
 10
64.8896119649
 20
140.9062222978
 10
64.8873658879
 20
140.8739326918
 10
64.8852010637
 20
140.8398065539
 10
64.8831147169
 20
140.8039536285
 10
64.881107086
 20
140.7664894208
 10
64.8773987787
 20
140.6872123049
  0
LINE
  5
377
100
AcDbEntity
  8
DRAFT
100
AcDbLine
 62
7
  6
CONTINUOUS
 10
64.616576404
 20
70.7437327921
 11
64.6089830411
 21
70.7438653348
  0
LINE
  5
378
100
AcDbEntity
  8
RACCORDO
100
AcDbLine
 62
253
  6
CONTINUOUS
 10
62.3857273137
 20
73.6646202512
 11
61.9299357433
 21
73.6417169092
  0
LINE
  5
379
100
AcDbEntity
  8
ASSI
100
AcDbLine
 62
253
  6
CONTINUOUS
 10
62.3857273137
 20
73.6646202512
 11
61.9299357433
 21
73.6417169092
  0
LINE
  5
37A
100
AcDbEntity
  8
RACCORDO
100
AcDbLine
 62
253
  6
CONTINUOUS
 10
62.3825909206
 20
73.7270946861
 11
61.9267958507
 21
73.7042443717
  0
LINE
  5
37B
100
AcDbEntity
  8
ASSI
100
AcDbLine
 62
253
  6
CONTINUOUS
 10
62.3825909206
 20
73.7270946861
 11
61.9267958507
 21
73.7042443717
  0
LINE
  5
37C
100
AcDbEntity
  8
0
100
AcDbLine
 62
253
  6
CONTINUOUS
 10
69.9320663087
 20
73.8731077158
 11
67.4918334073
 21
73.8323131452
  0
LINE
  5
37D
100
AcDbEntity
  8
0
100
AcDbLine
 62
253
  6
CONTINUOUS
 10
67.4918334073
 20
73.8323131452
 11
64.92614993
 21
73.792383575
  0
LINE
  5
37E
100
AcDbEntity
  8
RACCORDO
100
AcDbLine
 62
253
  6
CONTINUOUS
 10
63.6277904417
 20
73.7270946861
 11
62.3825909206
 21
73.7270946861
  0
LINE
  5
37F
100
AcDbEntity
  8
ASSI
100
AcDbLine
 62
253
  6
CONTINUOUS
 10
63.6277904417
 20
73.7270946861
 11
62.3825909206
 21
73.7270946861
  0
LINE
  5
380
100
AcDbEntity
  8
0
100
AcDbLine
 62
253
  6
CONTINUOUS
 10
64.92614993
 20
73.792383575
 11
64.4355316131
 21
73.7923809502
  0
LINE
  5
381
100
AcDbEntity
  8
DRAFT
100
AcDbLine
 62
7
  6
CONTINUOUS
 10
64.2549852753
 20
77.7333894279
 11
64.2457237262
 21
77.733227767
  0
LWPOLYLINE
  5
382
100
AcDbEntity
  8
RACCORDO
100
AcDbPolyline
 62
253
  6
CONTINUOUS
 90
19
 70
0
 10
69.2190395452
 20
53.1362370373
 10
69.2410450867
 20
53.0885839385
 10
69.2606749595
 20
53.0410173128
 10
69.2778361431
 20
52.9937625652
 10
69.2924473153
 20
52.9470436233
 10
69.3044392378
 20
52.901081875
 10
69.3137550843
 20
52.8560951196
 10
69.3203507092
 20
52.8122965369
 10
69.3241948575
 20
52.7698936768
 10
69.3252693126
 20
52.7290874742
 10
69.3235689826
 20
52.6900712989
 10
69.3191019245
 20
52.653030038
 10
69.311889306
 20
52.6181392203
 10
69.3019653055
 20
52.585564184
 10
69.2893769497
 20
52.5554592939
 10
69.274183891
 20
52.5279672093
 10
69.2564581248
 20
52.5032182083
 10
69.2362836485
 20
52.48132957
 10
69.2137560631
 20
52.4624050193
  0
LWPOLYLINE
  5
383
100
AcDbEntity
  8
RACCORDO
100
AcDbPolyline
 62
253
  6
CONTINUOUS
 90
10
 70
0
 10
64.8672117671
 20
140.3320739237
 10
64.4543395205
 20
137.9598480455
 10
64.0757121017
 20
135.5819267296
 10
63.731329937
 20
133.1988111447
 10
63.4211373036
 20
130.8110125693
 10
63.1451907742
 20
128.4190217994
 10
62.9036592281
 20
126.0233089765
 10
62.6965992537
 20
123.6243644965
 10
62.5239551369
 20
121.2226991812
 10
62.3857273136
 20
118.8188135655
  0
LWPOLYLINE
  5
384
100
AcDbEntity
  8
ASSI
100
AcDbPolyline
 62
253
  6
CONTINUOUS
 90
10
 70
0
 10
64.8672117671
 20
140.3320739237
 10
64.4543395205
 20
137.9598480455
 10
64.0757121017
 20
135.5819267296
 10
63.731329937
 20
133.1988111447
 10
63.4211373036
 20
130.8110125693
 10
63.1451907742
 20
128.4190217994
 10
62.9036592281
 20
126.0233089765
 10
62.6965992537
 20
123.6243644965
 10
62.5239551369
 20
121.2226991812
 10
62.3857273136
 20
118.8188135655
  0
LINE
  5
385
100
AcDbEntity
  8
RACCORDO
100
AcDbLine
 62
7
  6
CONTINUOUS
 10
69.9320663087
 20
92.3890629469
 11
68.0973366732
 21
92.712575284
  0
LWPOLYLINE
  5
386
100
AcDbEntity
  8
RACCORDO
100
AcDbPolyline
 62
7
  6
CONTINUOUS
 90
17
 70
0
 10
66.1940687833
 20
51.6455473761
 10
66.1984989951
 20
51.6013156219
 10
66.2030384271
 20
51.5586723262
 10
66.2076569594
 20
51.517945842
 10
66.2124765228
 20
51.479495032
 10
66.2175021824
 20
51.4434887503
 10
66.2227288731
 20
51.4100654368
 10
66.2282633299
 20
51.3794661074
 10
66.234078656
 20
51.3518541445
 10
66.2402017481
 20
51.3272249084
 10
66.2468200316
 20
51.305555308
 10
66.2539276806
 20
51.2868682228
 10
66.2615305209
 20
51.271332606
 10
66.2698334547
 20
51.2590926393
 10
66.2789047827
 20
51.2501457445
 10
66.2886762041
 20
51.244421951
 10
66.2991477191
 20
51.2418722144
  0
LWPOLYLINE
  5
387
100
AcDbEntity
  8
ASSI
100
AcDbPolyline
 62
7
  6
CONTINUOUS
 90
17
 70
0
 10
66.1940687833
 20
51.6455473761
 10
66.1984989951
 20
51.6013156219
 10
66.2030384271
 20
51.5586723262
 10
66.2076569594
 20
51.517945842
 10
66.2124765228
 20
51.479495032
 10
66.2175021824
 20
51.4434887503
 10
66.2227288731
 20
51.4100654368
 10
66.2282633299
 20
51.3794661074
 10
66.234078656
 20
51.3518541445
 10
66.2402017481
 20
51.3272249084
 10
66.2468200316
 20
51.305555308
 10
66.2539276806
 20
51.2868682228
 10
66.2615305209
 20
51.271332606
 10
66.2698334547
 20
51.2590926393
 10
66.2789047827
 20
51.2501457445
 10
66.2886762041
 20
51.244421951
 10
66.2991477191
 20
51.2418722144
  0
LINE
  5
388
100
AcDbEntity
  8
RACCORDO
100
AcDbLine
 62
7
  6
CONTINUOUS
 10
66.1759486469
 20
51.8367151268
 11
66.1940687833
 21
51.6455473761
  0
LINE
  5
389
100
AcDbEntity
  8
ASSI
100
AcDbLine
 62
7
  6
CONTINUOUS
 10
66.1759486469
 20
51.8367151268
 11
66.1940687833
 21
51.6455473761
  0
LWPOLYLINE
  5
38A
100
AcDbEntity
  8
RACCORDO
100
AcDbPolyline
 62
7
  6
CONTINUOUS
 90
10
 70
0
 10
63.6277904417
 20
73.7270946861
 10
63.76743262
 20
71.3034297698
 10
63.9423620316
 20
68.8826671213
 10
64.1525786764
 20
66.4648067405
 10
64.398186607
 20
64.0489921524
 10
64.679081771
 20
61.636079832
 10
64.99495201
 20
59.2286392048
 10
65.3456932715
 20
56.827526746
 10
65.7314096082
 20
54.4318859806
 10
66.15210102
 20
52.0417169083
  0
LWPOLYLINE
  5
38B
100
AcDbEntity
  8
ASSI
100
AcDbPolyline
 62
7
  6
CONTINUOUS
 90
10
 70
0
 10
63.6277904417
 20
73.7270946861
 10
63.76743262
 20
71.3034297698
 10
63.9423620316
 20
68.8826671213
 10
64.1525786764
 20
66.4648067405
 10
64.398186607
 20
64.0489921524
 10
64.679081771
 20
61.636079832
 10
64.99495201
 20
59.2286392048
 10
65.3456932715
 20
56.827526746
 10
65.7314096082
 20
54.4318859806
 10
66.15210102
 20
52.0417169083
  0
LWPOLYLINE
  5
38C
100
AcDbEntity
  8
RACCORDO
100
AcDbPolyline
 62
253
  6
CONTINUOUS
 90
10
 70
0
 10
62.3857273136
 20
73.6646202512
 10
62.5239551057
 20
71.2607350754
 10
62.6965992023
 20
68.8590700308
 10
62.9036591676
 20
66.4601256527
 10
63.1451907202
 20
64.0644126859
 10
63.4211372673
 20
61.6724216047
 10
63.7313299164
 20
59.2846227841
 10
64.0757120901
 20
56.9015070968
 10
64.4543395158
 20
54.5235857437
 10
64.8672117671
 20
52.1513598929
  0
LWPOLYLINE
  5
38D
100
AcDbEntity
  8
ASSI
100
AcDbPolyline
 62
253
  6
CONTINUOUS
 90
10
 70
0
 10
62.3857273136
 20
73.6646202512
 10
62.5239551057
 20
71.2607350754
 10
62.6965992023
 20
68.8590700308
 10
62.9036591676
 20
66.4601256527
 10
63.1451907202
 20
64.0644126859
 10
63.4211372673
 20
61.6724216047
 10
63.7313299164
 20
59.2846227841
 10
64.0757120901
 20
56.9015070968
 10
64.4543395158
 20
54.5235857437
 10
64.8672117671
 20
52.1513598929
  0
LWPOLYLINE
  5
38E
100
AcDbEntity
  8
RACCORDO
100
AcDbPolyline
 62
253
  6
CONTINUOUS
 90
18
 70
0
 10
64.8810982369
 20
51.7171069006
 10
64.8831051362
 20
51.6796369457
 10
64.8851908867
 20
51.6437776767
 10
64.8873553671
 20
51.6096441249
 10
64.8896012541
 20
51.5773465995
 10
64.8919058797
 20
51.5469890885
 10
64.8942651283
 20
51.5186701267
 10
64.8966794646
 20
51.4924794206
 10
64.8991317164
 20
51.4684988567
 10
64.9016149623
 20
51.4468050737
 10
64.90412663
 20
51.4274692306
 10
64.9066546735
 20
51.4105545701
 10
64.9091890747
 20
51.3961170787
 10
64.9117243602
 20
51.384200855
 10
64.9142541214
 20
51.374841375
 10
64.916769531
 20
51.3680701363
 10
64.9192590955
 20
51.3639120093
 10
64.9217113534
 20
51.3623822811
  0
LWPOLYLINE
  5
38F
100
AcDbEntity
  8
ASSI
100
AcDbPolyline
 62
253
  6
CONTINUOUS
 90
18
 70
0
 10
64.8810982369
 20
51.7171069006
 10
64.8831051362
 20
51.6796369457
 10
64.8851908867
 20
51.6437776767
 10
64.8873553671
 20
51.6096441249
 10
64.8896012541
 20
51.5773465995
 10
64.8919058797
 20
51.5469890885
 10
64.8942651283
 20
51.5186701267
 10
64.8966794646
 20
51.4924794206
 10
64.8991317164
 20
51.4684988567
 10
64.9016149623
 20
51.4468050737
 10
64.90412663
 20
51.4274692306
 10
64.9066546735
 20
51.4105545701
 10
64.9091890747
 20
51.3961170787
 10
64.9117243602
 20
51.384200855
 10
64.9142541214
 20
51.374841375
 10
64.916769531
 20
51.3680701363
 10
64.9192590955
 20
51.3639120093
 10
64.9217113534
 20
51.3623822811
  0
LWPOLYLINE
  5
390
100
AcDbEntity
  8
RACCORDO
100
AcDbPolyline
 62
253
  6
CONTINUOUS
 90
3
 70
0
 10
64.8756816666
 20
51.8379816291
 10
64.8773907192
 20
51.7964068121
 10
64.8810982369
 20
51.7171069006
  0
LWPOLYLINE
  5
391
100
AcDbEntity
  8
ASSI
100
AcDbPolyline
 62
253
  6
CONTINUOUS
 90
3
 70
0
 10
64.8756816666
 20
51.8379816291
 10
64.8773907192
 20
51.7964068121
 10
64.8810982369
 20
51.7171069006
  0
LWPOLYLINE
  5
392
100
AcDbEntity
  8
RACCORDO
100
AcDbPolyline
 62
253
  6
CONTINUOUS
 90
12
 70
0
 10
62.2102385547
 20
115.0063026578
 10
62.0692203042
 20
111.2549550539
 10
61.9595361681
 20
107.5025594978
 10
61.8811828695
 20
103.7493807488
 10
61.8341636833
 20
99.9956803999
 10
61.8184884373
 20
96.2417168769
 10
61.8341636844
 20
92.4877533445
 10
61.8811828716
 20
88.7340529802
 10
61.9595361708
 20
84.9808742288
 10
62.0692203066
 20
81.2284786898
 10
62.2102385562
 20
77.4771311159
 10
62.3857273136
 20
73.6646202512
  0
LWPOLYLINE
  5
393
100
AcDbEntity
  8
ASSI
100
AcDbPolyline
 62
253
  6
CONTINUOUS
 90
12
 70
0
 10
62.2102385547
 20
115.0063026578
 10
62.0692203042
 20
111.2549550539
 10
61.9595361681
 20
107.5025594978
 10
61.8811828695
 20
103.7493807488
 10
61.8341636833
 20
99.9956803999
 10
61.8184884373
 20
96.2417168769
 10
61.8341636844
 20
92.4877533445
 10
61.8811828716
 20
88.7340529802
 10
61.9595361708
 20
84.9808742288
 10
62.0692203066
 20
81.2284786898
 10
62.2102385562
 20
77.4771311159
 10
62.3857273136
 20
73.6646202512
  0
LWPOLYLINE
  5
394
100
AcDbEntity
  8
DRAFT
100
AcDbPolyline
 62
7
  6
CONTINUOUS
 90
13
 70
0
 10
63.6277904417
 20
118.7563391306
 10
63.4549904932
 20
115.006824813
 10
63.3136035162
 20
111.2561414076
 10
63.2036295107
 20
107.5042889144
 10
63.1250621199
 20
103.7508776376
 10
63.0779077006
 20
99.996297273
 10
63.062185323
 20
96.2417169083
 10
63.0779077006
 20
92.4871365437
 10
63.1250621199
 20
88.7325561791
 10
63.2036295107
 20
84.9791449022
 10
63.3136035162
 20
81.2272924091
 10
63.4549904932
 20
77.4766090037
 10
63.6277904417
 20
73.7270946861
  0
LWPOLYLINE
  5
395
100
AcDbEntity
  8
ASSI
100
AcDbPolyline
 62
7
  6
CONTINUOUS
 90
13
 70
0
 10
63.6277904417
 20
118.7563391306
 10
63.4549904932
 20
115.006824813
 10
63.3136035162
 20
111.2561414076
 10
63.2036295107
 20
107.5042889144
 10
63.1250621199
 20
103.7508776376
 10
63.0779077006
 20
99.996297273
 10
63.062185323
 20
96.2417169083
 10
63.0779077006
 20
92.4871365437
 10
63.1250621199
 20
88.7325561791
 10
63.2036295107
 20
84.9791449022
 10
63.3136035162
 20
81.2272924091
 10
63.4549904932
 20
77.4766090037
 10
63.6277904417
 20
73.7270946861
  0
LINE
  5
396
100
AcDbEntity
  8
RACCORDO
100
AcDbLine
 62
253
  6
CONTINUOUS
 10
62.3857273136
 20
118.8188135655
 11
62.2102385547
 21
115.0063026578
  0
LINE
  5
397
100
AcDbEntity
  8
ASSI
100
AcDbLine
 62
253
  6
CONTINUOUS
 10
62.3857273136
 20
118.8188135655
 11
62.2102385547
 21
115.0063026578
  0
LWPOLYLINE
  5
398
100
AcDbEntity
  8
RACCORDO
100
AcDbPolyline
 62
7
  6
CONTINUOUS
 90
5
 70
0
 10
66.1759486469
 20
140.646718637
 10
66.170769073
 20
140.5962087784
 10
66.1650063173
 20
140.5450658383
 10
66.158772879
 20
140.4934963955
 10
66.1520687579
 20
140.4417169083
  0
LWPOLYLINE
  5
399
100
AcDbEntity
  8
ASSI
100
AcDbPolyline
 62
7
  6
CONTINUOUS
 90
5
 70
0
 10
66.1759486469
 20
140.646718637
 10
66.170769073
 20
140.5962087784
 10
66.1650063173
 20
140.5450658383
 10
66.158772879
 20
140.4934963955
 10
66.1520687579
 20
140.4417169083
  0
LWPOLYLINE
  5
39A
100
AcDbEntity
  8
RACCORDO
100
AcDbPolyline
 62
7
  6
CONTINUOUS
 90
10
 70
0
 10
66.15210102
 20
140.4417169083
 10
65.7314096082
 20
138.0515478361
 10
65.3456932715
 20
135.6559070706
 10
64.99495201
 20
133.2547946119
 10
64.679081771
 20
130.8473539847
 10
64.398186607
 20
128.4344416643
 10
64.1525786764
 20
126.0186270761
 10
63.9423620316
 20
123.6007666954
 10
63.76743262
 20
121.1800040469
 10
63.6277904417
 20
118.7563391306
  0
LWPOLYLINE
  5
39B
100
AcDbEntity
  8
ASSI
100
AcDbPolyline
 62
7
  6
CONTINUOUS
 90
10
 70
0
 10
66.15210102
 20
140.4417169083
 10
65.7314096082
 20
138.0515478361
 10
65.3456932715
 20
135.6559070706
 10
64.99495201
 20
133.2547946119
 10
64.679081771
 20
130.8473539847
 10
64.398186607
 20
128.4344416643
 10
64.1525786764
 20
126.0186270761
 10
63.9423620316
 20
123.6007666954
 10
63.76743262
 20
121.1800040469
 10
63.6277904417
 20
118.7563391306
  0
LINE
  5
39C
100
AcDbEntity
  8
0
100
AcDbLine
 62
253
  6
CONTINUOUS
 10
67.9320663087
 20
96.2417169083
 11
64.3620663087
 21
96.2417169083
  0
LWPOLYLINE
  5
39D
100
AcDbEntity
  8
RACCORDO
100
AcDbPolyline
 62
7
  6
CONTINUOUS
 90
5
 70
0
 10
66.1520687579
 20
52.0417169083
 10
66.1587728415
 20
51.9899378109
 10
66.1650062659
 20
51.9383685019
 10
66.1707690309
 20
51.8872254425
 10
66.1759486469
 20
51.8367151268
  0
LWPOLYLINE
  5
39E
100
AcDbEntity
  8
ASSI
100
AcDbPolyline
 62
7
  6
CONTINUOUS
 90
5
 70
0
 10
66.1520687579
 20
52.0417169083
 10
66.1587728415
 20
51.9899378109
 10
66.1650062659
 20
51.9383685019
 10
66.1707690309
 20
51.8872254425
 10
66.1759486469
 20
51.8367151268
  0
LINE
  5
39F
100
AcDbEntity
  8
RACCORDO
100
AcDbLine
 62
253
  6
CONTINUOUS
 10
64.8726355127
 20
51.924186033
 11
64.8756816666
 21
51.8379816291
  0
LINE
  5
3A0
100
AcDbEntity
  8
ASSI
100
AcDbLine
 62
253
  6
CONTINUOUS
 10
64.8726355127
 20
51.924186033
 11
64.8756816666
 21
51.8379816291
  0
LINE
  5
3A1
100
AcDbEntity
  8
RACCORDO
100
AcDbLine
 62
253
  6
CONTINUOUS
 10
64.8700693762
 20
52.0135648275
 11
64.8726355127
 21
51.924186033
  0
LINE
  5
3A2
100
AcDbEntity
  8
ASSI
100
AcDbLine
 62
253
  6
CONTINUOUS
 10
64.8700693762
 20
52.0135648275
 11
64.8726355127
 21
51.924186033
  0
LWPOLYLINE
  5
3A3
100
AcDbEntity
  8
RACCORDO
100
AcDbPolyline
 62
253
  6
CONTINUOUS
 90
3
 70
0
 10
64.8672117686
 20
52.1513598928
 10
64.8680511164
 20
52.105134928
 10
64.8700693762
 20
52.0135648275
  0
LWPOLYLINE
  5
3A4
100
AcDbEntity
  8
ASSI
100
AcDbPolyline
 62
253
  6
CONTINUOUS
 90
3
 70
0
 10
64.8672117686
 20
52.1513598928
 10
64.8680511164
 20
52.105134928
 10
64.8700693762
 20
52.0135648275
  0
LINE
  5
3A5
100
AcDbEntity
  8
RACCORDO
100
AcDbLine
 62
7
  6
CONTINUOUS
 10
64.8320663087
 20
124.5988218539
 11
64.8320663087
 21
124.5329472577
  0
LINE
  5
3A6
100
AcDbEntity
  8
RACCORDO
100
AcDbLine
 62
7
  6
CONTINUOUS
 10
64.8320663087
 20
67.950486559
 11
64.8320663087
 21
67.8846119627
  0
LINE
  5
3A7
100
AcDbEntity
  8
RACCORDO
100
AcDbLine
 62
253
  6
CONTINUOUS
 10
65.0914299358
 20
65.1364184313
 11
65.0914299358
 21
65.1938858466
  0
LINE
  5
3A8
100
AcDbEntity
  8
RACCORDO
100
AcDbLine
 62
253
  6
CONTINUOUS
 10
65.0914299358
 20
127.2895479701
 11
65.0914299358
 21
127.3442603539
  0
LINE
  5
3A9
100
AcDbEntity
  8
SMUSSO
100
AcDbLine
 62
7
  6
CONTINUOUS
 10
65.3319901563
 20
129.5386942961
 11
65.3319901563
 21
129.4906931385
  0
LINE
  5
3AA
100
AcDbEntity
  8
SMUSSO
100
AcDbLine
 62
7
  6
CONTINUOUS
 10
65.3319901563
 20
62.9927406782
 11
65.3319901563
 21
62.9447395205
  0
LINE
  5
3AB
100
AcDbEntity
  8
RACCORDO
100
AcDbLine
 62
253
  6
CONTINUOUS
 10
64.8690000152
 20
140.4242779116
 11
64.8672117686
 21
140.3320739238
  0
LINE
  5
3AC
100
AcDbEntity
  8
ASSI
100
AcDbLine
 62
253
  6
CONTINUOUS
 10
64.8690000152
 20
140.4242779116
 11
64.8672117686
 21
140.3320739238
  0
LINE
  5
3AD
100
AcDbEntity
  8
RACCORDO
100
AcDbLine
 62
253
  6
CONTINUOUS
 10
64.8712841043
 20
140.5149814151
 11
64.8690000152
 21
140.4242779116
  0
LINE
  5
3AE
100
AcDbEntity
  8
ASSI
100
AcDbLine
 62
253
  6
CONTINUOUS
 10
64.8712841043
 20
140.5149814151
 11
64.8690000152
 21
140.4242779116
  0
LINE
  5
3AF
100
AcDbEntity
  8
RACCORDO
100
AcDbLine
 62
253
  6
CONTINUOUS
 10
64.8741057751
 20
140.603003892
 11
64.8712841043
 21
140.5149814151
  0
LINE
  5
3B0
100
AcDbEntity
  8
ASSI
100
AcDbLine
 62
253
  6
CONTINUOUS
 10
64.8741057751
 20
140.603003892
 11
64.8712841043
 21
140.5149814151
  0
LINE
  5
3B1
100
AcDbEntity
  8
RACCORDO
100
AcDbLine
 62
253
  6
CONTINUOUS
 10
64.8773987787
 20
140.6872123049
 11
64.8741057751
 21
140.603003892
  0
LINE
  5
3B2
100
AcDbEntity
  8
ASSI
100
AcDbLine
 62
253
  6
CONTINUOUS
 10
64.8773987787
 20
140.6872123049
 11
64.8741057751
 21
140.603003892
  0
LINE
  5
3B3
100
AcDbEntity
  8
RACCORDO
100
AcDbLine
 62
7
  6
CONTINUOUS
 10
68.0973366732
 20
99.7708585327
 11
69.9320663087
 21
100.0943708698
  0
LINE
  5
3B4
100
AcDbEntity
  8
RACCORDO
100
AcDbLine
 62
7
  6
CONTINUOUS
 10
67.9320663087
 20
92.9095368346
 11
67.9320663087
 21
99.5738969821
  0
LINE
  5
3B5
100
AcDbEntity
  8
RACCORDO
100
AcDbLine
 62
7
  6
CONTINUOUS
 10
69.9320663087
 20
53.1417168293
 11
69.9320663087
 21
73.8731077158
  0
LINE
  5
3B6
100
AcDbEntity
  8
DRAFT
100
AcDbLine
 62
7
  6
CONTINUOUS
 10
69.9320663087
 20
73.8731077158
 11
69.9320663087
 21
92.3890629469
  0
LINE
  5
3B7
100
AcDbEntity
  8
DRAFT
100
AcDbLine
 62
7
  6
CONTINUOUS
 10
69.9320663087
 20
100.0943708698
 11
69.9320663087
 21
118.6103261009
  0
LINE
  5
3B8
100
AcDbEntity
  8
RACCORDO
100
AcDbLine
 62
7
  6
CONTINUOUS
 10
69.9320663087
 20
118.6103261009
 11
69.9320663087
 21
139.3417169134
  0
LINE
  5
3B9
100
AcDbEntity
  8
DRAFT
100
AcDbLine
 62
7
  6
CONTINUOUS
 10
64.2549852753
 20
114.7500443888
 11
64.2457237449
 21
114.7502060494
  0
LINE
  5
3BA
100
AcDbEntity
  8
DRAFT
100
AcDbLine
 62
7
  6
CONTINUOUS
 10
64.6165764042
 20
121.7397010246
 11
64.6090997541
 21
121.7395705191
  0
LINE
  5
3BB
100
AcDbEntity
  8
0
100
AcDbLine
 62
253
  6
CONTINUOUS
 10
64.92614993
 20
118.6910502417
 11
64.4355314812
 21
118.6910502417
  0
LINE
  5
3BC
100
AcDbEntity
  8
RACCORDO
100
AcDbLine
 62
253
  6
CONTINUOUS
 10
63.6277904417
 20
118.7563391306
 11
62.3825909206
 21
118.7563391306
  0
LINE
  5
3BD
100
AcDbEntity
  8
ASSI
100
AcDbLine
 62
253
  6
CONTINUOUS
 10
63.6277904417
 20
118.7563391306
 11
62.3825909206
 21
118.7563391306
  0
LWPOLYLINE
  5
3BE
100
AcDbEntity
  8
0
100
AcDbPolyline
 62
253
  6
CONTINUOUS
 90
3
 70
0
 10
64.92614993
 20
118.6910502417
 10
69.5381623472
 20
118.6171951517
 10
69.9320663087
 20
118.6103261009
  0
LINE
  5
3BF
100
AcDbEntity
  8
RACCORDO
100
AcDbLine
 62
253
  6
CONTINUOUS
 10
62.3825909206
 20
118.7563391306
 11
61.9267958563
 21
118.7791894446
  0
LINE
  5
3C0
100
AcDbEntity
  8
ASSI
100
AcDbLine
 62
253
  6
CONTINUOUS
 10
62.3825909206
 20
118.7563391306
 11
61.9267958563
 21
118.7791894446
  0
LINE
  5
3C1
100
AcDbEntity
  8
RACCORDO
100
AcDbLine
 62
253
  6
CONTINUOUS
 10
62.3857273136
 20
118.8188135655
 11
61.9299357261
 21
118.8417169084
  0
LINE
  5
3C2
100
AcDbEntity
  8
ASSI
100
AcDbLine
 62
253
  6
CONTINUOUS
 10
62.3857273136
 20
118.8188135655
 11
61.9299357261
 21
118.8417169084
  0
LINE
  5
3C3
100
AcDbEntity
  8
DRAFT
100
AcDbLine
 62
7
  6
CONTINUOUS
 10
65.6966812891
 20
132.406808819
 11
65.6888568133
 21
132.4066722422
  0
LWPOLYLINE
  5
3C4
100
AcDbEntity
  8
RACCORDO
100
AcDbPolyline
 62
253
  6
CONTINUOUS
 90
19
 70
0
 10
69.2137560979
 20
140.0210288448
 10
69.2362836489
 20
140.0021043296
 10
69.2564581021
 20
139.9802157303
 10
69.2741838554
 20
139.9554667699
 10
69.2893769106
 20
139.9279747257
 10
69.3019652709
 20
139.8978698737
 10
69.3118892827
 20
139.8652948709
 10
69.3191019176
 20
139.83040408
 10
69.3235689956
 20
139.7933628381
 10
69.3252693471
 20
139.7543466727
 10
69.3241949133
 20
139.7135404698
 10
69.3203507844
 20
139.6711375983
 10
69.3137551756
 20
139.6273389946
 10
69.3044393406
 20
139.5823522077
 10
69.2924474236
 20
139.5363904178
 10
69.2778362507
 20
139.4896714273
 10
69.2606750599
 20
139.4424166255
 10
69.2410451727
 20
139.3948499396
 10
69.2190396093
 20
139.3471967754
  0
LWPOLYLINE
  5
3C5
100
AcDbEntity
  8
RACCORDO
100
AcDbPolyline
 62
253
  6
CONTINUOUS
 90
13
 70
0
 10
69.2190396998
 20
139.3471967699
 10
69.3005212248
 20
139.2983401668
 10
69.377330351
 20
139.2501425757
 10
69.4495905958
 20
139.2026075022
 10
69.5172764992
 20
139.1556767081
 10
69.5806699098
 20
139.1094151527
 10
69.6403329401
 20
139.0640108697
 10
69.6962848355
 20
139.0195892652
 10
69.7487097968
 20
138.9760308796
 10
69.7983659595
 20
138.9331555896
 10
69.845541785
 20
138.890904476
 10
69.8900854115
 20
138.8493404769
 10
69.9320663222
 20
138.8084655683
  0
LWPOLYLINE
  5
3C6
100
AcDbEntity
  8
RACCORDO
100
AcDbPolyline
 62
7
  6
CONTINUOUS
 90
18
 70
0
 10
66.2991477191
 20
141.2415616023
 10
66.2886761534
 20
141.2390118638
 10
66.2789045961
 20
141.2332879517
 10
66.2698330472
 20
141.224340674
 10
66.2615297563
 20
141.2120998241
 10
66.2539264737
 20
141.1965627303
 10
66.246818451
 20
141.1778738341
 10
66.2401998787
 20
141.1562020752
 10
66.2340765662
 20
141.1315704402
 10
66.2282611926
 20
141.1039567147
 10
66.2227269575
 20
141.0733571471
 10
66.2175006613
 20
141.0399348853
 10
66.2124753836
 20
141.0039301289
 10
66.2076561518
 20
140.9654812137
 10
66.2030379386
 20
140.9247570865
 10
66.1984987414
 20
140.8821157232
 10
66.1940686267
 20
140.8378847887
 10
66.1759486469
 20
140.646718637
  0
LWPOLYLINE
  5
3C7
100
AcDbEntity
  8
ASSI
100
AcDbPolyline
 62
7
  6
CONTINUOUS
 90
18
 70
0
 10
66.2991477191
 20
141.2415616023
 10
66.2886761534
 20
141.2390118638
 10
66.2789045961
 20
141.2332879517
 10
66.2698330472
 20
141.224340674
 10
66.2615297563
 20
141.2120998241
 10
66.2539264737
 20
141.1965627303
 10
66.246818451
 20
141.1778738341
 10
66.2401998787
 20
141.1562020752
 10
66.2340765662
 20
141.1315704402
 10
66.2282611926
 20
141.1039567147
 10
66.2227269575
 20
141.0733571471
 10
66.2175006613
 20
141.0399348853
 10
66.2124753836
 20
141.0039301289
 10
66.2076561518
 20
140.9654812137
 10
66.2030379386
 20
140.9247570865
 10
66.1984987414
 20
140.8821157232
 10
66.1940686267
 20
140.8378847887
 10
66.1759486469
 20
140.646718637
  0
LINE
  5
3C8
100
AcDbEntity
  8
0
100
AcDbLine
 62
253
  6
CONTINUOUS
 10
66.7340385984
 20
139.1010002502
 11
67.239405821
 21
139.1452386187
  0
LINE
  5
3C9
100
AcDbEntity
  8
0
100
AcDbLine
 62
7
  6
CONTINUOUS
 10
67.4187323808
 20
140.1417169083
 11
66.9125294776
 21
140.0974298929
  0
LINE
  5
3CA
100
AcDbEntity
  8
RACCORDO
100
AcDbLine
 62
253
  6
CONTINUOUS
 10
64.8672117671
 20
140.3320739237
 11
66.1525626252
 21
140.444577125
  0
LINE
  5
3CB
100
AcDbEntity
  8
ASSI
100
AcDbLine
 62
253
  6
CONTINUOUS
 10
64.8672117671
 20
140.3320739237
 11
66.1525626252
 21
140.444577125
  0
LINE
  5
3CC
100
AcDbEntity
  8
RACCORDO
100
AcDbLine
 62
7
  6
CONTINUOUS
 10
64.9217113534
 20
141.1210515356
 11
66.3009228754
 21
141.2417169083
  0
LINE
  5
3CD
100
AcDbEntity
  8
ASSI
100
AcDbLine
 62
7
  6
CONTINUOUS
 10
64.9217113534
 20
141.1210515356
 11
66.3009228754
 21
141.2417169083
  0
LINE
  5
3CE
100
AcDbEntity
  8
RACCORDO
100
AcDbLine
 62
253
  6
CONTINUOUS
 10
66.15210102
 20
140.4417169083
 11
66.9654956365
 21
140.4417169083
  0
LINE
  5
3CF
100
AcDbEntity
  8
ASSI
100
AcDbLine
 62
253
  6
CONTINUOUS
 10
66.15210102
 20
140.4417169083
 11
66.9654956365
 21
140.4417169083
  0
LINE
  5
3D0
100
AcDbEntity
  8
RACCORDO
100
AcDbLine
 62
7
  6
CONTINUOUS
 10
66.3009228754
 20
141.2417169083
 11
67.1150967696
 21
141.2417169083
  0
LINE
  5
3D1
100
AcDbEntity
  8
ASSI
100
AcDbLine
 62
7
  6
CONTINUOUS
 10
66.3009228754
 20
141.2417169083
 11
67.1150967696
 21
141.2417169083
  0
LINE
  5
3D2
100
AcDbEntity
  8
RACCORDO
100
AcDbLine
 62
253
  6
CONTINUOUS
 10
69.2190396998
 20
139.3471967699
 11
67.277330347
 21
139.3589284206
  0
LWPOLYLINE
  5
3D3
100
AcDbEntity
  8
RACCORDO
100
AcDbPolyline
 62
253
  6
CONTINUOUS
 90
13
 70
0
 10
67.3839398362
 20
139.9510943031
 10
67.5384995209
 20
139.9281708321
 10
67.6931500924
 20
139.9006498358
 10
67.8477392419
 20
139.8685214753
 10
68.0019025259
 20
139.8319769984
 10
68.1556626659
 20
139.790805381
 10
68.3094211283
 20
139.7443915452
 10
68.4631985036
 20
139.6927697265
 10
68.6165102736
 20
139.6358813626
 10
68.7689884511
 20
139.5729687099
 10
68.9203586489
 20
139.5037690414
 10
69.070447883
 20
139.4285164629
 10
69.2190396998
 20
139.3471967699
  0
LINE
  5
3D4
100
AcDbEntity
  8
RACCORDO
100
AcDbLine
 62
253
  6
CONTINUOUS
 10
64.867211769
 20
140.3320739337
 11
64.4188172162
 21
140.4133736791
  0
LINE
  5
3D5
100
AcDbEntity
  8
ASSI
100
AcDbLine
 62
253
  6
CONTINUOUS
 10
64.867211769
 20
140.3320739337
 11
64.4188172162
 21
140.4133736791
  0
LWPOLYLINE
  5
3D6
100
AcDbEntity
  8
RACCORDO
100
AcDbPolyline
 62
253
  6
CONTINUOUS
 90
13
 70
0
 10
69.2190396998
 20
53.1362370468
 10
69.2986528367
 20
53.1839020419
 10
69.3740423535
 20
53.2311348423
 10
69.4453152134
 20
53.2779325548
 10
69.5124623955
 20
53.3243527471
 10
69.5757160162
 20
53.3703322592
 10
69.6355277219
 20
53.4156872573
 10
69.6919324396
 20
53.4603266333
 10
69.7450789228
 20
53.5043363663
 10
69.7955495954
 20
53.5477988157
 10
69.8435753678
 20
53.5907403234
 10
69.8890584527
 20
53.6331307701
 10
69.9320663794
 20
53.6749683024
  0
ARC
  5
3D7
100
AcDbEntity
  8
RACCORDO
100
AcDbCircle
 62
7
  6
CONTINUOUS
 10
240.635031185
 20
52.0417169083
 40
0.8
100
AcDbArc
 50
270.0
 51
360.0
  0
ARC
  5
3D8
100
AcDbEntity
  8
RACCORDO
100
AcDbCircle
 62
7
  6
CONTINUOUS
 10
240.635031185
 20
140.4417169083
 40
0.8
100
AcDbArc
 50
0.0
 51
90.0
  0
ARC
  5
3D9
100
AcDbEntity
  8
RACCORDO
100
AcDbCircle
 62
7
  6
CONTINUOUS
 10
97.735031185
 20
52.0417169083
 40
0.8
100
AcDbArc
 50
180.0
 51
270.0
  0
ARC
  5
3DA
100
AcDbEntity
  8
RACCORDO
100
AcDbCircle
 62
7
  6
CONTINUOUS
 10
97.735031185
 20
140.4417169083
 40
0.8
100
AcDbArc
 50
90.0
 51
180.0
  0
ARC
  5
3DB
100
AcDbEntity
  8
ASSI
100
AcDbCircle
 62
7
  6
CONTINUOUS
 10
240.635031185
 20
52.0417169083
 40
0.8
100
AcDbArc
 50
270.0
 51
360.0
  0
ARC
  5
3DC
100
AcDbEntity
  8
ASSI
100
AcDbCircle
 62
7
  6
CONTINUOUS
 10
240.635031185
 20
140.4417169083
 40
0.8
100
AcDbArc
 50
0.0
 51
90.0
  0
ARC
  5
3DD
100
AcDbEntity
  8
ASSI
100
AcDbCircle
 62
7
  6
CONTINUOUS
 10
97.735031185
 20
52.0417169083
 40
0.8
100
AcDbArc
 50
180.0
 51
270.0
  0
ARC
  5
3DE
100
AcDbEntity
  8
ASSI
100
AcDbCircle
 62
7
  6
CONTINUOUS
 10
97.735031185
 20
140.4417169083
 40
0.8
100
AcDbArc
 50
90.0
 51
180.0
  0
ARC
  5
3DF
100
AcDbEntity
  8
RACCORDO
100
AcDbCircle
 62
7
  6
CONTINUOUS
 10
66.8316851141
 20
55.7006676456
 40
4.0200239337
100
AcDbArc
 50
279.9999996913
 51
320.464875236
  0
ARC
  5
3E0
100
AcDbEntity
  8
RACCORDO
100
AcDbCircle
 62
7
  6
CONTINUOUS
 10
64.9652887194
 20
51.860482352
 40
0.5
100
AcDbArc
 50
190.3884938804
 51
265.0000848831
  0
ARC
  5
3E1
100
AcDbEntity
  8
ASSI
100
AcDbCircle
 62
7
  6
CONTINUOUS
 10
64.9652887194
 20
51.860482352
 40
0.5
100
AcDbArc
 50
190.3884938804
 51
265.0000848831
  0
ARC
  5
3E2
100
AcDbEntity
  8
RACCORDO
100
AcDbCircle
 62
7
  6
CONTINUOUS
 10
68.1320663087
 20
92.9095368346
 40
0.2
100
AcDbArc
 50
180.0
 51
260.0
  0
ARC
  5
3E3
100
AcDbEntity
  8
RACCORDO
100
AcDbCircle
 62
7
  6
CONTINUOUS
 10
229.8377797118
 20
82.0850769083
 40
168.12
100
AcDbArc
 50
182.8787323946
 51
190.3881766496
  0
ARC
  5
3E4
100
AcDbEntity
  8
ASSI
100
AcDbCircle
 62
7
  6
CONTINUOUS
 10
229.8377797118
 20
82.0850769083
 40
168.12
100
AcDbArc
 50
182.8787323946
 51
190.3881766496
  0
ARC
  5
3E5
100
AcDbEntity
  8
RACCORDO
100
AcDbCircle
 62
7
  6
CONTINUOUS
 10
229.8377797118
 20
82.0850769083
 40
165.62
100
AcDbArc
 50
182.8787323946
 51
190.7328340038
  0
ARC
  5
3E6
100
AcDbEntity
  8
ASSI
100
AcDbCircle
 62
7
  6
CONTINUOUS
 10
229.8377797118
 20
82.0850769083
 40
165.62
100
AcDbArc
 50
182.8787323946
 51
190.7328340038
  0
ARC
  5
3E7
100
AcDbEntity
  8
0
100
AcDbCircle
 62
7
  6
CONTINUOUS
 10
229.8377797118
 20
82.0850769083
 40
165.61
100
AcDbArc
 50
182.8787323946
 51
190.330818118
  0
ARC
  5
3E8
100
AcDbEntity
  8
0
100
AcDbCircle
 62
7
  6
CONTINUOUS
 10
229.8377797118
 20
82.0850769083
 40
165.12
100
AcDbArc
 50
182.8787323946
 51
190.1014160741
  0
ARC
  5
3E9
100
AcDbEntity
  8
RACCORDO
100
AcDbCircle
 62
7
  6
CONTINUOUS
 10
229.8377797118
 20
82.0850769083
 40
165.12
100
AcDbArc
 50
190.1014160741
 51
190.5891670948
  0
ARC
  5
3EA
100
AcDbEntity
  8
RACCORDO
100
AcDbCircle
 62
7
  6
CONTINUOUS
 10
229.8377797118
 20
110.3983569084
 40
168.12
100
AcDbArc
 50
169.6125188462
 51
177.1212676054
  0
ARC
  5
3EB
100
AcDbEntity
  8
ASSI
100
AcDbCircle
 62
7
  6
CONTINUOUS
 10
229.8377797118
 20
110.3983569084
 40
168.12
100
AcDbArc
 50
169.6125188462
 51
177.1212676054
  0
ARC
  5
3EC
100
AcDbEntity
  8
RACCORDO
100
AcDbCircle
 62
7
  6
CONTINUOUS
 10
229.8377797118
 20
110.3983569084
 40
165.62
100
AcDbArc
 50
169.2676317374
 51
177.1212676054
  0
ARC
  5
3ED
100
AcDbEntity
  8
ASSI
100
AcDbCircle
 62
7
  6
CONTINUOUS
 10
229.8377797118
 20
110.3983569084
 40
165.62
100
AcDbArc
 50
169.2676317374
 51
177.1212676054
  0
ARC
  5
3EE
100
AcDbEntity
  8
0
100
AcDbCircle
 62
7
  6
CONTINUOUS
 10
229.8377797118
 20
110.3983569084
 40
165.61
100
AcDbArc
 50
169.669181882
 51
177.1212676054
  0
ARC
  5
3EF
100
AcDbEntity
  8
RACCORDO
100
AcDbCircle
 62
7
  6
CONTINUOUS
 10
229.8377797118
 20
110.3983569084
 40
165.12
100
AcDbArc
 50
169.4108329052
 51
169.8985839314
  0
ARC
  5
3F0
100
AcDbEntity
  8
0
100
AcDbCircle
 62
7
  6
CONTINUOUS
 10
229.8377797118
 20
110.3983569084
 40
165.12
100
AcDbArc
 50
169.8985839314
 51
177.1212676054
  0
ARC
  5
3F1
100
AcDbEntity
  8
RACCORDO
100
AcDbCircle
 62
7
  6
CONTINUOUS
 10
66.8316851141
 20
136.7827661711
 40
4.0200239337
100
AcDbArc
 50
39.5351233981
 51
80.0000000573
  0
ARC
  5
3F2
100
AcDbEntity
  8
RACCORDO
100
AcDbCircle
 62
7
  6
CONTINUOUS
 10
64.9652887194
 20
140.6229514647
 40
0.5
100
AcDbArc
 50
94.9999151169
 51
169.6115061196
  0
ARC
  5
3F3
100
AcDbEntity
  8
ASSI
100
AcDbCircle
 62
7
  6
CONTINUOUS
 10
64.9652887194
 20
140.6229514647
 40
0.5
100
AcDbArc
 50
94.9999151169
 51
169.6115061196
  0
ARC
  5
3F4
100
AcDbEntity
  8
RACCORDO
100
AcDbCircle
 62
7
  6
CONTINUOUS
 10
68.1320663087
 20
99.5738969821
 40
0.2
100
AcDbArc
 50
100.0
 51
180.0
  0
ARC
  5
3F5
100
AcDbEntity
  8
RACCORDO
100
AcDbCircle
 62
7
  6
CONTINUOUS
 10
511.3620663087
 20
96.2417169083
 40
450.0
100
AcDbArc
 50
177.1212731691
 51
182.8787274802
  0
ARC
  5
3F6
100
AcDbEntity
  8
ASSI
100
AcDbCircle
 62
7
  6
CONTINUOUS
 10
511.3620663087
 20
96.2417169083
 40
450.0
100
AcDbArc
 50
177.1212731691
 51
182.8787274802
  0
ARC
  5
3F7
100
AcDbEntity
  8
DRAFT
100
AcDbCircle
 62
7
  6
CONTINUOUS
 10
511.3620663087
 20
96.2417169083
 40
447.5
100
AcDbArc
 50
177.1212676054
 51
182.8787323946
  0
ARC
  5
3F8
100
AcDbEntity
  8
ASSI
100
AcDbCircle
 62
7
  6
CONTINUOUS
 10
511.3620663087
 20
96.2417169083
 40
447.5
100
AcDbArc
 50
177.1212676054
 51
182.8787323946
  0
ARC
  5
3F9
100
AcDbEntity
  8
0
100
AcDbCircle
 62
7
  6
CONTINUOUS
 10
511.3620663087
 20
96.2417169083
 40
447.49
100
AcDbArc
 50
177.1212676054
 51
182.8787323946
  0
ARC
  5
3FA
100
AcDbEntity
  8
0
100
AcDbCircle
 62
7
  6
CONTINUOUS
 10
511.3620663087
 20
96.2417169083
 40
447.0
100
AcDbArc
 50
177.1212676054
 51
182.8787323946
  0
ENDSEC
  0
SECTION
  2
OBJECTS
  0
DICTIONARY
  5
C
100
AcDbDictionary
280
0
281
1
  3
ACAD_GROUP
350
D
  3
ACAD_MLINESTYLE
350
17
  3
ACAD_LAYOUT
350
1A
  3
ACAD_PLOTSETTINGS
350
19
  3
ACAD_PLOTSTYLENAME
350
E
  0
DICTIONARY
  5
D
102
{ACAD_REACTORS
330
C
102
}
100
AcDbDictionary
280
0
281
1
  0
ACDBDICTIONARYWDFLT
  5
E
102
{ACAD_REACTORS
330
C
102
}
100
AcDbDictionary
281
1
  3
Normal
350
F
100
AcDbDictionaryWithDefault
340
F
  0
DICTIONARY
  5
17
102
{ACAD_REACTORS
330
C
102
}
100
AcDbDictionary
280
0
281
1
  3
Standard
350
18
  0
DICTIONARY
  5
19
102
{ACAD_REACTORS
330
C
102
}
100
AcDbDictionary
281
1
  0
DICTIONARY
  5
1A
102
{ACAD_REACTORS
330
C
102
}
100
AcDbDictionary
281
1
  3
Model
350
3FB
  3
Layout1
350
3FC
  0
ACDBPLACEHOLDER
  5
F
102
{ACAD_REACTORS
330
E
102
}
  0
MLINESTYLE
  5
18
102
{ACAD_REACTORS
330
17
102
}
100
AcDbMlineStyle
  2
STANDARD
 70
0
  3

 62
256
 51
90.0
 52
90.0
 71
2
 49
0.5
 62
256
  6
BYLAYER
 49
-0.5
 62
256
  6
BYLAYER
  0
LAYOUT
  5
3FB
102
{ACAD_REACTORS
330
1A
102
}
100
AcDbPlotSettings
  1

  2
none_device
  4
ISO_A4_(297.00_x_210.00_MM)
  6

 40
0.0
 41
0.0
 42
0.0
 43
0.0
 44
297.0
 45
210.0
 46
0.0
 47
0.0
 48
0.0
 49
0.0
140
0.0
141
0.0
142
1.0
143
1.0
 70
1024
 72
1
 73
0
 74
0
  7

 75
0
147
1.0
148
0.0
149
0.0
100
AcDbLayout
  1
Model
 70
0
 71
0
 10
0.0
 20
0.0
 11
297.0
 21
210.0
 12
0.0
 22
0.0
 32
0.0
 14
0.0
 24
0.0
 34
0.0
 15
0.0
 25
0.0
 35
0.0
146
0.0
 13
0.0
 23
0.0
 33
0.0
 16
1.0
 26
0.0
 36
0.0
 17
0.0
 27
1.0
 37
0.0
 76
0
330
211
345
0
346
0
  0
LAYOUT
  5
3FC
102
{ACAD_REACTORS
330
1A
102
}
100
AcDbPlotSettings
  1

  2
none_device
  4
ISO_A4_(297.00_x_210.00_MM)
  6

 40
0.0
 41
0.0
 42
0.0
 43
0.0
 44
297.0
 45
210.0
 46
0.0
 47
0.0
 48
0.0
 49
0.0
140
0.0
141
0.0
142
1.0
143
1.0
 70
0
 72
1
 73
0
 74
0
  7

 75
0
147
1.0
148
0.0
149
0.0
100
AcDbLayout
  1
Layout1
 70
0
 71
1
 10
0.0
 20
0.0
 11
297.0
 21
210.0
 12
0.0
 22
0.0
 32
0.0
 14
0.0
 24
0.0
 34
0.0
 15
0.0
 25
0.0
 35
0.0
146
0.0
 13
0.0
 23
0.0
 33
0.0
 16
1.0
 26
0.0
 36
0.0
 17
0.0
 27
1.0
 37
0.0
 76
0
330
212
345
0
346
0
  0
ENDSEC
  0
EOF
