  0
SECTION
  2
HEADER
  9
$ACADVER
  1
AC1021
  9
$DWGCODEPAGE
  3
ANSI_1252
  9
$EXTMAX
 10
297.0
 20
210.0
 30
0.0
  9
$EXTMIN
 10
0.0
 20
0.0
 30
0.0
  9
$LIMMIN
 10
0.0
 20
0.0
  9
$LIMMAX
 10
297.0
 20
210.0
  9
$VIEWCTR
 10
148.5
 20
105.0
  9
$VIEWSIZE
 40
210.0
  9
$CLAYER
  8
0
  9
$LTSCALE
 40
16.335
  9
$CELTYPE
  6
BYLAYER
  9
$DIMSCALE
 40
1.0
  9
$DIMASZ
 40
3.0
  9
$DIMEXO
 40
0.5
  9
$DIMDLI
 40
11.286
  9
$DIMEXE
 40
1.5
  9
$DIMCEN
 40
2.673
  9
$DIMLFAC
 40
1.0
  9
$DIMBLK
  1
_FILLED
  9
$DIMALT
 70
0
  9
$DIMALTF
 40
0.0393700787
  9
$DIMTXT
 40
3.0
  9
$DIMTOL
 70
1
  9
$DIMLIM
 70
0
  9
$DIMTFAC
 40
1.0
  9
$DIMTP
 40
0.01
  9
$DIMTM
 40
0.01
  9
$DIMGAP
 40
0.625
  9
$DIMDSEP
 70
44
  9
$AUNITS
 70
0
  9
$PDMODE
 70
3
  9
$PDSIZE
 40
3.0
  9
$HANDSEED
  5
427
  9
$TILEMODE
 70
1
  9
$MEASUREMENT
 70
1
  9
$INSUNITS
 70
4
  0
ENDSEC
  0
SECTION
  2
CLASSES
  0
CLASS
  1
ACDBDICTIONARYWDFLT
  2
AcDbDictionaryWithDefault
  3
AutoCAD 2000
 90
0
 91
1
280
0
281
0
  0
CLASS
  1
ACDBPLACEHOLDER
  2
AcDbPlaceHolder
  3
AutoCAD 2000
 90
0
 91
1
280
0
281
0
  0
CLASS
  1
LAYOUT
  2
AcDbLayout
  3
AutoCAD 2000
 90
0
 91
0
280
0
281
0
  0
ENDSEC
  0
SECTION
  2
TABLES
  0
TABLE
  2
VPORT
  5
8
100
AcDbSymbolTable
 70
2
  0
VPORT
  5
1F4
100
AcDbSymbolTableRecord
100
AcDbViewportTableRecord
  2
*ACTIVE
 70
0
 10
0.0
 20
0.0
 11
1.0
 21
1.0
 12
148.5
 22
105.0
 13
0.0
 23
0.0
 14
1.0
 24
1.0
 15
0.0
 25
0.0
 16
0.0
 26
0.0
 36
1.0
 17
0.0
 27
0.0
 37
0.0
 40
210.0
 41
1.4142857143
 42
50.0
 43
0.0
 44
0.0
 50
0.0
 51
0.0
 71
0
 72
100
 73
1
 74
1
 75
0
 76
0
 77
0
 78
0
  0
ENDTAB
  0
TABLE
  2
LTYPE
  5
5
100
AcDbSymbolTable
 70
6
  0
LTYPE
  5
14
100
AcDbSymbolTableRecord
100
AcDbLinetypeTableRecord
  2
BYBLOCK
 70
0
  3

 72
65
 73
0
 40
0.0
  0
LTYPE
  5
15
100
AcDbSymbolTableRecord
100
AcDbLinetypeTableRecord
  2
BYLAYER
 70
0
  3

 72
65
 73
0
 40
0.0
  0
LTYPE
  5
16
100
AcDbSymbolTableRecord
100
AcDbLinetypeTableRecord
  2
CONTINUOUS
 70
64
  3
Solid line
 72
65
 73
0
 40
0.0
  0
LTYPE
  5
1F5
100
AcDbSymbolTableRecord
100
AcDbLinetypeTableRecord
  2
CENTER
 70
64
  3
____ _ ____ _ ____ _ ____ _ ____ _ ____ _ ____
 72
65
 73
4
 40
0.6
 49
0.375
 74
0
 49
-0.075
 74
0
 49
0.075
 74
0
 49
-0.075
 74
0
  0
LTYPE
  5
1F6
100
AcDbSymbolTableRecord
100
AcDbLinetypeTableRecord
  2
HIDDEN
 70
64
  3
- - - - - - - - - - - - - - - - - - - -
 72
65
 73
2
 40
0.2
 49
0.1
 74
0
 49
-0.1
 74
0
  0
LTYPE
  5
1F7
100
AcDbSymbolTableRecord
100
AcDbLinetypeTableRecord
  2
PHANTOM
 70
64
  3
_____ _ _ _____ _ _ _____ _ _ _____
 72
65
 73
6
 40
0.8
 49
0.45
 74
0
 49
-0.05
 74
0
 49
0.1
 74
0
 49
-0.05
 74
0
 49
0.1
 74
0
 49
-0.05
 74
0
  0
LTYPE
  5
1F8
100
AcDbSymbolTableRecord
100
AcDbLinetypeTableRecord
  2
DOT
 70
64
  3
. . . . . . . . . . . . . . . . . . . .
 72
65
 73
2
 40
0.2
 49
0.1
 74
0
 49
-0.1
 74
0
  0
LTYPE
  5
1F9
100
AcDbSymbolTableRecord
100
AcDbLinetypeTableRecord
  2
DASHED
 70
64
  3
- - - - - - - - - - - - - - - - - - - -
 72
65
 73
2
 40
0.2
 49
0.1
 74
0
 49
-0.1
 74
0
  0
ENDTAB
  0
TABLE
  2
LAYER
  5
2
100
AcDbSymbolTable
 70
36
  0
LAYER
  5
10
100
AcDbSymbolTableRecord
100
AcDbLayerTableRecord
  2
0
 70
0
 62
7
  6
CONTINUOUS
370
-3
390
F
  0
LAYER
  5
1FA
100
AcDbSymbolTableRecord
100
AcDbLayerTableRecord
  2
DEFAULT_1
 70
0
 62
7
  6
CENTER
370
-3
390
F
  0
LAYER
  5
1FB
100
AcDbSymbolTableRecord
100
AcDbLayerTableRecord
  2
DEFAULT_2
 70
0
 62
7
  6
HIDDEN
370
-3
390
F
  0
LAYER
  5
1FC
100
AcDbSymbolTableRecord
100
AcDbLayerTableRecord
  2
DEFAULT_3
 70
0
 62
7
  6
PHANTOM
370
-3
390
F
  0
LAYER
  5
1FD
100
AcDbSymbolTableRecord
100
AcDbLayerTableRecord
  2
ASSI
 70
0
 62
7
  6
CONTINUOUS
370
-3
390
F
  0
LAYER
  5
1FE
100
AcDbSymbolTableRecord
100
AcDbLayerTableRecord
  2
COORDINATE
 70
0
 62
7
  6
CONTINUOUS
370
-3
390
F
  0
LAYER
  5
1FF
100
AcDbSymbolTableRecord
100
AcDbLayerTableRecord
  2
COPY_PUBLISH
 70
0
 62
7
  6
CONTINUOUS
370
-3
390
F
  0
LAYER
  5
200
100
AcDbSymbolTableRecord
100
AcDbLayerTableRecord
  2
COSMETICI
 70
0
 62
7
  6
CONTINUOUS
370
-3
390
F
  0
LAYER
  5
201
100
AcDbSymbolTableRecord
100
AcDbLayerTableRecord
  2
CURVE
 70
0
 62
7
  6
CONTINUOUS
370
-3
390
F
  0
LAYER
  5
202
100
AcDbSymbolTableRecord
100
AcDbLayerTableRecord
  2
DRAFT
 70
0
 62
7
  6
CONTINUOUS
370
-3
390
F
  0
LAYER
  5
203
100
AcDbSymbolTableRecord
100
AcDbLayerTableRecord
  2
IMPORT_IGES
 70
0
 62
7
  6
CONTINUOUS
370
-3
390
F
  0
LAYER
  5
204
100
AcDbSymbolTableRecord
100
AcDbLayerTableRecord
  2
INTF_1
 70
0
 62
7
  6
CONTINUOUS
370
-3
390
F
  0
LAYER
  5
205
100
AcDbSymbolTableRecord
100
AcDbLayerTableRecord
  2
INTF_11
 70
0
 62
7
  6
CONTINUOUS
370
-3
390
F
  0
LAYER
  5
206
100
AcDbSymbolTableRecord
100
AcDbLayerTableRecord
  2
NOTE
 70
0
 62
7
  6
CONTINUOUS
370
-3
390
F
  0
LAYER
  5
207
100
AcDbSymbolTableRecord
100
AcDbLayerTableRecord
  2
PIANI
 70
0
 62
7
  6
CONTINUOUS
370
-3
390
F
  0
LAYER
  5
208
100
AcDbSymbolTableRecord
100
AcDbLayerTableRecord
  2
PUNTI
 70
0
 62
7
  6
CONTINUOUS
370
-3
390
F
  0
LAYER
  5
209
100
AcDbSymbolTableRecord
100
AcDbLayerTableRecord
  2
RACCORDO
 70
0
 62
7
  6
CONTINUOUS
370
-3
390
F
  0
LAYER
  5
20A
100
AcDbSymbolTableRecord
100
AcDbLayerTableRecord
  2
RGB____0____0____0__
 70
0
 62
7
  6
CONTINUOUS
370
-3
390
F
  0
LAYER
  5
20B
100
AcDbSymbolTableRecord
100
AcDbLayerTableRecord
  2
SIMBOLI
 70
0
 62
7
  6
CONTINUOUS
370
-3
390
F
  0
LAYER
  5
20C
100
AcDbSymbolTableRecord
100
AcDbLayerTableRecord
  2
SMUSSO
 70
0
 62
7
  6
CONTINUOUS
370
-3
390
F
  0
LAYER
  5
20D
100
AcDbSymbolTableRecord
100
AcDbLayerTableRecord
  2
SNAPLINE
 70
0
 62
7
  6
CONTINUOUS
370
-3
390
F
  0
LAYER
  5
20E
100
AcDbSymbolTableRecord
100
AcDbLayerTableRecord
  2
SUPERFICI
 70
0
 62
7
  6
CONTINUOUS
370
-3
390
F
  0
LAYER
  5
20F
100
AcDbSymbolTableRecord
100
AcDbLayerTableRecord
  2
TRASH
 70
0
 62
7
  6
CONTINUOUS
370
-3
390
F
  0
ENDTAB
  0
TABLE
  2
STYLE
  5
3
100
AcDbSymbolTable
 70
1
  0
STYLE
  5
11
100
AcDbSymbolTableRecord
100
AcDbTextStyleTableRecord
  2
STANDARD
 70
0
 40
0.0
 41
0.8
 50
0.0
 71
0
 42
0.2
  3
txt
  4

  0
STYLE
  5
210
100
AcDbSymbolTableRecord
100
AcDbTextStyleTableRecord
  2
TEXTSTYLE_1
 70
0
 40
0.0
 41
0.8
 50
0.0
 71
0
 42
0.2
  3
gdt
  4

  0
ENDTAB
  0
TABLE
  2
VIEW
  5
6
100
AcDbSymbolTable
 70
0
  0
ENDTAB
  0
TABLE
  2
UCS
  5
7
100
AcDbSymbolTable
 70
0
  0
ENDTAB
  0
TABLE
  2
APPID
  5
9
100
AcDbSymbolTable
 70
1
  0
APPID
  5
211
100
AcDbSymbolTableRecord
100
AcDbRegAppTableRecord
  2
ACAD
 70
0
  0
ENDTAB
  0
TABLE
  2
BLOCK_RECORD
  5
1
100
AcDbSymbolTable
 70
0
  0
BLOCK_RECORD
  5
212
100
AcDbSymbolTableRecord
100
AcDbBlockTableRecord
  2
*Model_Space
  0
BLOCK_RECORD
  5
213
100
AcDbSymbolTableRecord
100
AcDbBlockTableRecord
  2
*Paper_Space
  0
BLOCK_RECORD
  5
214
100
AcDbSymbolTableRecord
100
AcDbBlockTableRecord
  2
_FILLED
  0
BLOCK_RECORD
  5
215
100
AcDbSymbolTableRecord
100
AcDbBlockTableRecord
  2
*D0
  0
BLOCK_RECORD
  5
216
100
AcDbSymbolTableRecord
100
AcDbBlockTableRecord
  2
*D1
  0
BLOCK_RECORD
  5
217
100
AcDbSymbolTableRecord
100
AcDbBlockTableRecord
  2
*D2
  0
ENDTAB
  0
TABLE
  2
DIMSTYLE
  5
A
100
AcDbSymbolTable
 70
1
100
AcDbDimStyleTable
 71
0
  0
DIMSTYLE
105
218
100
AcDbSymbolTableRecord
100
AcDbDimStyleTableRecord
  2
STANDARD
 70
0
  3

  4

 40
1.0
 41
3.0
 42
0.5
 43
0.38
 44
1.5
 45
0.0
 46
0.0
 47
0.01
 48
0.01
140
3.0
141
0.09
142
0.0
143
25.4
144
1.0
145
0.0
146
1.0
147
0.625
 71
1.0
 72
0.0
 73
0
 74
0
 75
0
 76
0
 77
1
 78
8
170
0
171
2
172
0
173
0
174
0
175
0
176
0
177
0
178
0
270
2
271
2
272
2
273
2
274
2
275
0
280
0
281
0
282
0
283
1
284
8
285
0
286
0
287
3
288
0
340
11
278
44
341
214
342
214
343
214
344
214
  0
DIMSTYLE
105
219
100
AcDbSymbolTableRecord
100
AcDbDimStyleTableRecord
  2
DIMSTYLE_1
 70
0
  3

  4

 40
1.0
 41
3.0
 42
0.5
 43
0.38
 44
1.5
 45
0.0
 46
0.0
 47
0.0
 48
0.0
140
3.0
141
0.09
142
0.0
143
25.4
144
1.0
145
0.0
146
1.0
147
0.75
 71
0.0
 72
0.0
 73
0
 74
0
 75
0
 76
0
 77
1
 78
8
170
0
171
2
172
0
173
0
174
0
175
0
176
0
177
0
178
0
270
2
271
2
272
2
273
2
274
2
275
0
280
0
281
0
282
0
283
1
284
8
285
0
286
0
287
3
288
0
340
11
278
44
341
214
342
214
343
214
344
214
  0
DIMSTYLE
105
21A
100
AcDbSymbolTableRecord
100
AcDbDimStyleTableRecord
  2
DIMSTYLE_2
 70
0
  3

  4

 40
1.0
 41
3.0
 42
0.5
 43
0.38
 44
1.5
 45
0.0
 46
0.0
 47
0.0
 48
0.0
140
3.0
141
0.09
142
0.0
143
25.4
144
1.0
145
0.0
146
1.0
147
0.75
 71
0.0
 72
0.0
 73
0
 74
0
 75
0
 76
0
 77
1
 78
8
170
0
171
2
172
0
173
0
174
0
175
0
176
0
177
0
178
0
270
2
271
1
272
1
273
2
274
2
275
0
280
0
281
0
282
0
283
1
284
8
285
0
286
0
287
3
288
0
340
11
278
44
341
214
342
214
343
214
344
214
  0
ENDTAB
  0
ENDSEC
  0
SECTION
  2
BLOCKS
  0
BLOCK
  5
20
100
AcDbEntity
  8
0
100
AcDbBlockBegin
  2
*Model_Space
 70
0
 10
0.0
 20
0.0
 30
0.0
  3
*Model_Space
  1

  0
ENDBLK
  5
21
100
AcDbEntity
  8
0
100
AcDbBlockEnd
  0
BLOCK
  5
1C
100
AcDbEntity
  8
0
100
AcDbBlockBegin
  2
*Paper_Space
 70
0
 10
0.0
 20
0.0
 30
0.0
  3
*Paper_Space
  1

  0
ENDBLK
  5
1D
100
AcDbEntity
  8
0
100
AcDbBlockEnd
  0
BLOCK
  5
21B
100
AcDbEntity
  8
0
100
AcDbBlockBegin
  2
_FILLED
 70
64
 10
0.0
 20
0.0
  3
_FILLED
  1

  0
SOLID
  5
21C
100
AcDbEntity
  8
0
  6
BYBLOCK
 62
0
100
AcDbTrace
 10
0.0
 20
0.0
 11
-1.0
 21
0.3166666667
 12
-1.0
 22
-0.3166666667
 13
-1.0
 23
-0.3166666667
  0
ENDBLK
  5
21D
100
AcDbEntity
  8
0
  6
BYBLOCK
 62
0
100
AcDbBlockEnd
  0
BLOCK
  5
21E
100
AcDbEntity
  8
0
100
AcDbBlockBegin
 62
7
  6
CONTINUOUS
  2
*D0
 70
65
 10
0.0
 20
0.0
  3
*D0
  1

  0
MTEXT
  5
21F
100
AcDbEntity
  8
0
100
AcDbMText
 62
7
  6
CONTINUOUS
  7
STANDARD
 71
2
 72
1
 10
0.0
 20
61.75
 30
0.0
 11
1.0
 21
0.0
 31
0.0
 44
0.9
  1
144,5
 40
3.0
 41
15.4285714286
  0
LINE
  5
220
100
AcDbEntity
  8
0
100
AcDbLine
 62
7
  6
CONTINUOUS
 10
-72.2499890968
 20
44.5035192549
 11
-72.2499890968
 21
59.5
  0
LINE
  5
221
100
AcDbEntity
  8
0
100
AcDbLine
 62
7
  6
CONTINUOUS
 10
72.2499890968
 20
44.5035192549
 11
72.2499890968
 21
59.5
  0
LINE
  5
222
100
AcDbEntity
  8
0
100
AcDbLine
 62
7
  6
CONTINUOUS
 10
-72.2499890968
 20
58.0
 11
0.0
 21
58.0
  0
LINE
  5
223
100
AcDbEntity
  8
0
100
AcDbLine
 62
7
  6
CONTINUOUS
 10
72.2499890968
 20
58.0
 11
0.0
 21
58.0
  0
INSERT
  5
224
100
AcDbEntity
  8
0
100
AcDbBlockReference
 62
7
  6
CONTINUOUS
  2
_FILLED
 10
-72.2499890968
 20
58.0
 41
3.0
 42
3.0
 43
3.0
 50
180.0
  0
INSERT
  5
225
100
AcDbEntity
  8
0
100
AcDbBlockReference
 62
7
  6
CONTINUOUS
  2
_FILLED
 10
72.2499890968
 20
58.0
 41
3.0
 42
3.0
 43
3.0
  0
ENDBLK
  5
226
100
AcDbEntity
  8
0
  6
BYBLOCK
 62
0
100
AcDbBlockEnd
  0
BLOCK
  5
227
100
AcDbEntity
  8
0
100
AcDbBlockBegin
 62
7
  6
CONTINUOUS
  2
*D1
 70
65
 10
0.0
 20
0.0
  3
*D1
  1

  0
MTEXT
  5
228
100
AcDbEntity
  8
0
100
AcDbMText
 62
7
  6
CONTINUOUS
  7
STANDARD
 71
3
 72
1
 10
102.6778507299
 20
61.75
 30
0.0
 11
1.0
 21
0.0
 31
0.0
 44
0.9
  1
9,1
 40
3.0
 41
8.6785714286
  0
LINE
  5
229
100
AcDbEntity
  8
0
100
AcDbLine
 62
7
  6
CONTINUOUS
 10
116.0692974046
 20
0.5
 11
116.0692974046
 21
59.5
  0
LINE
  5
22A
100
AcDbEntity
  8
0
100
AcDbLine
 62
7
  6
CONTINUOUS
 10
106.99986708
 20
43.3732322995
 11
106.99986708
 21
59.5
  0
LINE
  5
22B
100
AcDbEntity
  8
0
100
AcDbLine
 62
7
  6
CONTINUOUS
 10
116.0692974046
 20
58.0
 11
120.0692974046
 21
58.0
  0
LINE
  5
22C
100
AcDbEntity
  8
0
100
AcDbLine
 62
7
  6
CONTINUOUS
 10
120.0692974046
 20
58.0
 11
111.5345822423
 21
58.0
  0
LINE
  5
22D
100
AcDbEntity
  8
0
100
AcDbLine
 62
7
  6
CONTINUOUS
 10
106.99986708
 20
58.0
 11
96.8921364442
 21
58.0
  0
LINE
  5
22E
100
AcDbEntity
  8
0
100
AcDbLine
 62
7
  6
CONTINUOUS
 10
96.8921364442
 20
58.0
 11
111.5345822423
 21
58.0
  0
INSERT
  5
22F
100
AcDbEntity
  8
0
100
AcDbBlockReference
 62
7
  6
CONTINUOUS
  2
_FILLED
 10
116.0692974046
 20
58.0
 41
3.0
 42
3.0
 43
3.0
 50
180.0
  0
INSERT
  5
230
100
AcDbEntity
  8
0
100
AcDbBlockReference
 62
7
  6
CONTINUOUS
  2
_FILLED
 10
106.99986708
 20
58.0
 41
3.0
 42
3.0
 43
3.0
  0
ENDBLK
  5
231
100
AcDbEntity
  8
0
  6
BYBLOCK
 62
0
100
AcDbBlockEnd
  0
BLOCK
  5
232
100
AcDbEntity
  8
0
100
AcDbBlockBegin
 62
7
  6
CONTINUOUS
  2
*D2
 70
65
 10
0.0
 20
0.0
  3
*D2
  1

  0
MTEXT
  5
233
100
AcDbEntity
  8
0
100
AcDbMText
 62
7
  6
CONTINUOUS
  7
STANDARD
 71
2
 72
1
 10
121.2498776667
 20
0.0
 30
0.0
 11
0.0
 21
1.0
 31
0.0
 44
0.9
  1
90
 40
3.0
 41
7.0714285714
  0
LINE
  5
234
100
AcDbEntity
  8
0
100
AcDbLine
 62
7
  6
CONTINUOUS
 10
111.111945974
 20
45.0
 11
126.4998776667
 21
45.0
  0
LINE
  5
235
100
AcDbEntity
  8
0
100
AcDbLine
 62
7
  6
CONTINUOUS
 10
111.111945974
 20
-45.0
 11
126.4998776667
 21
-45.0
  0
LINE
  5
236
100
AcDbEntity
  8
0
100
AcDbLine
 62
7
  6
CONTINUOUS
 10
124.9998776667
 20
45.0
 11
124.9998776667
 21
0.0
  0
LINE
  5
237
100
AcDbEntity
  8
0
100
AcDbLine
 62
7
  6
CONTINUOUS
 10
124.9998776667
 20
-45.0
 11
124.9998776667
 21
0.0
  0
INSERT
  5
238
100
AcDbEntity
  8
0
100
AcDbBlockReference
 62
7
  6
CONTINUOUS
  2
_FILLED
 10
124.9998776667
 20
45.0
 41
3.0
 42
3.0
 43
3.0
 50
90.0
  0
INSERT
  5
239
100
AcDbEntity
  8
0
100
AcDbBlockReference
 62
7
  6
CONTINUOUS
  2
_FILLED
 10
124.9998776667
 20
-45.0
 41
3.0
 42
3.0
 43
3.0
 50
270.0
  0
ENDBLK
  5
23A
100
AcDbEntity
  8
0
  6
BYBLOCK
 62
0
100
AcDbBlockEnd
  0
ENDSEC
  0
SECTION
  2
ENTITIES
  0
DIMENSION
  5
23B
100
AcDbEntity
  8
0
100
AcDbDimension
 62
7
  6
CONTINUOUS
  2
*D0
 10
72.2499890968
 20
58.0
 11
-0.4285713773
 21
58.0
 70
160
 71
2
 42
144.4999781935
  3
DIMSTYLE_1
100
AcDbAlignedDimension
 13
-72.2499890968
 23
44.0035192549
 14
72.2499890968
 24
44.0035192549
100
AcDbRotatedDimension
  0
DIMENSION
  5
23C
100
AcDbEntity
  8
0
100
AcDbDimension
 62
7
  6
CONTINUOUS
  2
*D1
 10
106.99986708
 20
58.0
 11
99.3564202423
 21
58.0
 70
160
 71
3
 42
9.0694303246
  3
DIMSTYLE_2
100
AcDbAlignedDimension
 13
116.0692974046
 23
-0.0
 14
106.99986708
 24
42.8732322995
 50
180.0
100
AcDbRotatedDimension
  0
DIMENSION
  5
23D
100
AcDbEntity
  8
0
100
AcDbDimension
 62
7
  6
CONTINUOUS
  2
*D2
 10
124.9998776667
 20
-45.0
 11
124.9998776667
 21
-0.4285717934
 70
160
 71
2
 42
90.0
  3
DIMSTYLE_1
100
AcDbAlignedDimension
 13
110.611945974
 23
45.0
 14
110.611945974
 24
-45.0
 50
270.0
100
AcDbRotatedDimension
  0
LWPOLYLINE
  5
23E
100
AcDbEntity
  8
RACCORDO
100
AcDbPolyline
 62
253
  6
CONTINUOUS
 90
28
 70
0
 10
-72.0948916334
 20
-43.8457940382
 10
-72.0925507296
 20
-43.9039047161
 10
-72.0868913919
 20
-43.9616903536
 10
-72.0779450976
 20
-44.0189621801
 10
-72.0657610321
 20
-44.0755152838
 10
-72.0503871632
 20
-44.1311862319
 10
-72.0318583161
 20
-44.1858503528
 10
-72.0102224396
 20
-44.2393619303
 10
-71.9855633178
 20
-44.2915114641
 10
-71.9579810534
 20
-44.3420846172
 10
-71.9275841457
 20
-44.3909042618
 10
-71.8944724219
 20
-44.4378314313
 10
-71.8587517164
 20
-44.4827206664
 10
-71.8205439738
 20
-44.525429701
 10
-71.7799806739
 20
-44.5658228843
 10
-71.7371913376
 20
-44.6037740409
 10
-71.6923213632
 20
-44.639161417
 10
-71.6455196596
 20
-44.671875489
 10
-71.5969284118
 20
-44.7018184359
 10
-71.5467033705
 20
-44.7288964631
 10
-71.4950142425
 20
-44.7530212018
 10
-71.4420303676
 20
-44.774115063
 10
-71.3879333701
 20
-44.7921085058
 10
-71.3328928168
 20
-44.8069486365
 10
-71.2770638833
 20
-44.8185937441
 10
-71.2206196489
 20
-44.827004556
 10
-71.1637517301
 20
-44.8321490217
 10
-71.1066450886
 20
-44.8340076387
  0
LWPOLYLINE
  5
23F
100
AcDbEntity
  8
RACCORDO
100
AcDbPolyline
 62
253
  6
CONTINUOUS
 90
28
 70
0
 10
-71.596857488
 20
-43.9268006745
 10
-71.5959972074
 20
-43.9563518857
 10
-71.5935067232
 20
-43.9855678874
 10
-71.5893860354
 20
-44.0144487109
 10
-71.5836109048
 20
-44.0430846235
 10
-71.5762055706
 20
-44.0713854142
 10
-71.5672427503
 20
-44.0990804217
 10
-71.5567030812
 20
-44.1261719681
 10
-71.5446059261
 20
-44.1526578398
 10
-71.5310820903
 20
-44.1782606199
 10
-71.5161203156
 20
-44.2029629192
 10
-71.4997318603
 20
-44.2267822746
 10
-71.4820813049
 20
-44.2494936973
 10
-71.4631566167
 20
-44.2710873732
 10
-71.4429698283
 20
-44.2915732801
 10
-71.4217216187
 20
-44.3107561426
 10
-71.3994020633
 20
-44.3286233086
 10
-71.3760210866
 20
-44.3451875919
 10
-71.3518091408
 20
-44.3602919299
 10
-71.3267585841
 20
-44.3739219713
 10
-71.3008770583
 20
-44.3860922083
 10
-71.274417941
 20
-44.3966888465
 10
-71.2473692277
 20
-44.4056969079
 10
-71.2197429228
 20
-44.4131314744
 10
-71.1918284174
 20
-44.4189238353
 10
-71.163722175
 20
-44.4230511061
 10
-71.1353277321
 20
-44.4255362264
 10
-71.1066450886
 20
-44.4263792099
  0
LINE
  5
240
100
AcDbEntity
  8
RACCORDO
100
AcDbLine
 62
7
  6
CONTINUOUS
 10
-72.2499996007
 20
-44.0035192549
 11
-72.25
 21
-22.5203789087
  0
LINE
  5
241
100
AcDbEntity
  8
DRAFT
100
AcDbLine
 62
7
  6
CONTINUOUS
 10
-72.25
 20
-22.5203789087
 11
-72.25
 21
22.5203789087
  0
LINE
  5
242
100
AcDbEntity
  8
RACCORDO
100
AcDbLine
 62
7
  6
CONTINUOUS
 10
-72.25
 20
22.5203789087
 11
-72.2499996007
 21
44.0035192549
  0
LINE
  5
243
100
AcDbEntity
  8
RACCORDO
100
AcDbLine
 62
253
  6
CONTINUOUS
 10
-72.0974462442
 20
0.0000001319
 11
-72.0948916333
 21
-43.845794038
  0
LINE
  5
244
100
AcDbEntity
  8
RACCORDO
100
AcDbLine
 62
253
  6
CONTINUOUS
 10
-72.0948916333
 20
43.8457940385
 11
-72.0974462442
 21
0.0000001319
  0
LWPOLYLINE
  5
245
100
AcDbEntity
  8
RACCORDO
100
AcDbPolyline
 62
7
  6
CONTINUOUS
 90
28
 70
0
 10
-72.2499996007
 20
44.0035192549
 10
-72.2482508474
 20
44.0632408899
 10
-72.24314613
 20
44.1222945497
 10
-72.2346854486
 20
44.1806803605
 10
-72.2227769011
 20
44.2386673129
 10
-72.2075123896
 20
44.2959866303
 10
-72.1891676206
 20
44.3518319449
 10
-72.1677594647
 20
44.406038978
 10
-72.1432710513
 20
44.4587725744
 10
-72.1159274749
 20
44.5097202574
 10
-72.0857124582
 20
44.5589113297
 10
-72.0526422785
 20
44.6063170948
 10
-72.0169908621
 20
44.6515381854
 10
-71.9786215913
 20
44.6946403706
 10
-71.9376710837
 20
44.7355585396
 10
-71.8948231187
 20
44.7736971332
 10
-71.8501944544
 20
44.8088965316
 10
-71.8036683327
 20
44.8413170774
 10
-71.7555782576
 20
44.8708432141
 10
-71.7059155216
 20
44.8974915601
 10
-71.6546888324
 20
44.9212460649
 10
-71.6022578166
 20
44.9419421516
 10
-71.5484877502
 20
44.9595833458
 10
-71.4935133572
 20
44.9741665338
 10
-71.4380984368
 20
44.9855171539
 10
-71.3824975887
 20
44.9935770964
 10
-71.326456213
 20
44.9984046934
 10
-71.2699743099
 20
45.0
  0
LINE
  5
246
100
AcDbEntity
  8
RACCORDO
100
AcDbLine
 62
253
  6
CONTINUOUS
 10
-71.5993488952
 20
0.0000000027
 11
-71.596857488
 21
-43.9268006745
  0
LINE
  5
247
100
AcDbEntity
  8
RACCORDO
100
AcDbLine
 62
253
  6
CONTINUOUS
 10
-71.1066450886
 20
-44.4263792099
 11
-71.1066450886
 21
-44.8340076387
  0
LINE
  5
248
100
AcDbEntity
  8
RACCORDO
100
AcDbLine
 62
253
  6
CONTINUOUS
 10
-71.1066450886
 20
44.4263792099
 11
-71.1066450889
 21
44.8340076387
  0
LINE
  5
249
100
AcDbEntity
  8
RACCORDO
100
AcDbLine
 62
253
  6
CONTINUOUS
 10
-71.596857488
 20
43.9268006745
 11
-71.5993488952
 21
0.0000000027
  0
LWPOLYLINE
  5
24A
100
AcDbEntity
  8
RACCORDO
100
AcDbPolyline
 62
253
  6
CONTINUOUS
 90
16
 70
0
 10
-45.4008701393
 20
22.6310194482
 10
-45.3505357167
 20
22.6897222478
 10
-45.2970675552
 20
22.745075976
 10
-45.2404656547
 20
22.7970807964
 10
-45.1805052031
 20
22.8459304762
 10
-45.1174110126
 20
22.8914315452
 10
-45.0518575197
 20
22.9330033221
 10
-44.9837569237
 20
22.9706031358
 10
-44.9131970252
 20
23.0042739461
 10
-44.8411156629
 20
23.0335635375
 10
-44.7674666569
 20
23.0583767186
 10
-44.6922961872
 20
23.0788089062
 10
-44.6166806325
 20
23.0946937877
 10
-44.5409787855
 20
23.1059759664
 10
-44.4648318535
 20
23.1127109576
 10
-44.3882398365
 20
23.1148987905
  0
LWPOLYLINE
  5
24B
100
AcDbEntity
  8
RACCORDO
100
AcDbPolyline
 62
253
  6
CONTINUOUS
 90
16
 70
0
 10
-45.0124604562
 20
22.2931695584
 10
-44.981521235
 20
22.3290265036
 10
-44.9484536369
 20
22.3630398481
 10
-44.913364947
 20
22.3950812845
 10
-44.8763710508
 20
22.4250267807
 10
-44.8375941518
 20
22.4527626645
 10
-44.7971617849
 20
22.4781852485
 10
-44.7551686287
 20
22.5012137539
 10
-44.7117966892
 20
22.5217280681
 10
-44.6673239915
 20
22.539598285
 10
-44.6219070131
 20
22.5547718971
 10
-44.5757164016
 20
22.5672021431
 10
-44.5290724011
 20
22.5768307257
 10
-44.4821982671
 20
22.5836553704
 10
-44.4352116762
 20
22.5877001985
 10
-44.388277579
 20
22.5889882637
  0
LWPOLYLINE
  5
24C
100
AcDbEntity
  8
RACCORDO
100
AcDbPolyline
 62
253
  6
CONTINUOUS
 90
13
 70
0
 10
-45.0124604562
 20
-22.2931695584
 10
-45.0396445675
 20
-22.2577185913
 10
-45.0649542236
 20
-22.2205548862
 10
-45.0882680988
 20
-22.1817682862
 10
-45.1095214019
 20
-22.1413503863
 10
-45.1285348836
 20
-22.0995104899
 10
-45.1450781624
 20
-22.0567037037
 10
-45.1591039043
 20
-22.0130827146
 10
-45.1705798584
 20
-21.9687871502
 10
-45.1794229004
 20
-21.9242946059
 10
-45.1856582011
 20
-21.8798722206
 10
-45.1893568619
 20
-21.8355604888
 10
-45.1905731628
 20
-21.791501964
  0
LWPOLYLINE
  5
24D
100
AcDbEntity
  8
RACCORDO
100
AcDbPolyline
 62
253
  6
CONTINUOUS
 90
13
 70
0
 10
-45.4008701393
 20
-22.6310194482
 10
-45.4451880134
 20
-22.5731806662
 10
-45.4861171448
 20
-22.5128252747
 10
-45.5236575335
 20
-22.4499532241
 10
-45.5580305266
 20
-22.3841672107
 10
-45.589014777
 20
-22.3158644271
 10
-45.615946243
 20
-22.2462365918
 10
-45.6386484722
 20
-22.1752585035
 10
-45.657297917
 20
-22.1029553051
 10
-45.6717598923
 20
-22.0305942865
 10
-45.6819895031
 20
-21.9585978918
 10
-45.6880316445
 20
-21.8865436847
 10
-45.6898863164
 20
-21.8144316658
  0
LWPOLYLINE
  5
24E
100
AcDbEntity
  8
RACCORDO
100
AcDbPolyline
 62
7
  6
CONTINUOUS
 90
28
 70
0
 10
-45.1000000304
 20
-21.7011338162
 10
-45.0986695732
 20
-21.7474146265
 10
-45.0946668598
 20
-21.7933561928
 10
-45.0879918902
 20
-21.8389585196
 10
-45.0785926175
 20
-21.8844361711
 10
-45.0665210886
 20
-21.9295745902
 10
-45.0519334442
 20
-21.9737301092
 10
-45.0348306183
 20
-22.0167940154
 10
-45.0152116769
 20
-22.0588750501
 10
-44.9932299584
 20
-22.0996557395
 10
-44.968882805
 20
-22.1391393267
 10
-44.9421728746
 20
-22.1773226025
 10
-44.9132614786
 20
-22.2138784232
 10
-44.882016258
 20
-22.2488849256
 10
-44.8485695718
 20
-22.2822640107
 10
-44.8134798093
 20
-22.3134541894
 10
-44.7768202151
 20
-22.3423254517
 10
-44.7385175445
 20
-22.3690078521
 10
-44.698910453
 20
-22.3933300047
 10
-44.6580045618
 20
-22.415285691
 10
-44.6157942496
 20
-22.4348811659
 10
-44.5726013079
 20
-22.4519637532
 10
-44.5283265966
 20
-22.4665338264
 10
-44.4830692557
 20
-22.4785910386
 10
-44.4374484968
 20
-22.4879816317
 10
-44.3916707237
 20
-22.4946543579
 10
-44.3455295326
 20
-22.4986604795
 10
-44.2990249234
 20
-22.5
  0
LINE
  5
24F
100
AcDbEntity
  8
RACCORDO
100
AcDbLine
 62
253
  6
CONTINUOUS
 10
-45.6898863164
 20
-21.8144316658
 11
-45.6898863164
 21
21.8144316658
  0
LINE
  5
250
100
AcDbEntity
  8
RACCORDO
100
AcDbLine
 62
253
  6
CONTINUOUS
 10
-45.1905731938
 20
-21.7915019943
 11
-45.1905731783
 21
21.7914779004
  0
LINE
  5
251
100
AcDbEntity
  8
RACCORDO
100
AcDbLine
 62
7
  6
CONTINUOUS
 10
-45.1000000304
 20
21.7011338162
 11
-45.1000000304
 21
-21.7011338162
  0
LINE
  5
252
100
AcDbEntity
  8
RACCORDO
100
AcDbLine
 62
253
  6
CONTINUOUS
 10
-44.3882398365
 20
23.1148987905
 11
-44.3882398365
 21
22.5889882007
  0
LINE
  5
253
100
AcDbEntity
  8
RACCORDO
100
AcDbLine
 62
253
  6
CONTINUOUS
 10
-44.3882398365
 20
-23.1148987905
 11
-44.3882398366
 21
-22.5889882007
  0
LWPOLYLINE
  5
254
100
AcDbEntity
  8
RACCORDO
100
AcDbPolyline
 62
253
  6
CONTINUOUS
 90
13
 70
0
 10
-45.6898863164
 20
21.8144316658
 10
-45.6880955195
 20
21.8858708067
 10
-45.6821482674
 20
21.9573603635
 10
-45.6720445601
 20
22.0289003334
 10
-45.6577700142
 20
22.1008904856
 10
-45.6393390131
 20
22.1729310385
 10
-45.6167947072
 20
22.2438226906
 10
-45.5899427996
 20
22.3135964281
 10
-45.5589775872
 20
22.3822213141
 10
-45.5245251108
 20
22.4484052204
 10
-45.4867940509
 20
22.5117174844
 10
-45.4455757271
 20
22.5725888775
 10
-45.4008701393
 20
22.6310194482
  0
LWPOLYLINE
  5
255
100
AcDbEntity
  8
RACCORDO
100
AcDbPolyline
 62
253
  6
CONTINUOUS
 90
13
 70
0
 10
-45.1905731696
 20
21.7914778918
 10
-45.1893771606
 20
21.835193491
 10
-45.1857322721
 20
21.8792069796
 10
-45.1795774651
 20
21.9233780954
 10
-45.1708398831
 20
21.9676458435
 10
-45.1594844562
 20
22.0117666501
 10
-45.1455635601
 20
22.0553271719
 10
-45.1290758325
 20
22.0982192079
 10
-45.1100617406
 20
22.1402449168
 10
-45.0887585536
 20
22.1808959525
 10
-45.0653462434
 20
22.2199420883
 10
-45.0398752454
 20
22.2573993105
 10
-45.0124604562
 20
22.2931695584
  0
LWPOLYLINE
  5
256
100
AcDbEntity
  8
RACCORDO
100
AcDbPolyline
 62
253
  6
CONTINUOUS
 90
28
 70
0
 10
71.1066450886
 20
-44.8340076387
 10
71.1637447525
 20
-44.8321493719
 10
71.2205834619
 20
-44.8270088139
 10
71.2769768705
 20
-44.8186092666
 10
71.3327153883
 20
-44.8069910442
 10
71.3876469904
 20
-44.7921945993
 10
71.4416737481
 20
-44.7742449729
 10
71.4946551885
 20
-44.7531759451
 10
71.5463760028
 20
-44.7290606579
 10
71.5966292175
 20
-44.701990962
 10
71.6452330657
 20
-44.6720637266
 10
71.6920450514
 20
-44.6393668152
 10
71.7369259381
 20
-44.6039963408
 10
71.779727548
 20
-44.5660611712
 10
71.8203037265
 20
-44.5256836327
 10
71.8585252883
 20
-44.4829894899
 10
71.8942613472
 20
-44.4381134444
 10
71.9273891772
 20
-44.3911985155
 10
71.9578015314
 20
-44.3423925188
 10
71.9853927423
 20
-44.2918468391
 10
72.0100622823
 20
-44.2397271833
 10
72.0317238669
 20
-44.1862118502
 10
72.0502974199
 20
-44.1314774343
 10
72.0657160486
 20
-44.0756977734
 10
72.0779280287
 20
-44.0190538877
 10
72.0868863715
 20
-43.9617300776
 10
72.0925501543
 20
-43.9039136401
 10
72.0948916334
 20
-43.8457940386
  0
LWPOLYLINE
  5
257
100
AcDbEntity
  8
RACCORDO
100
AcDbPolyline
 62
253
  6
CONTINUOUS
 90
28
 70
0
 10
71.1066450886
 20
-44.4263792099
 10
71.1353531406
 20
-44.4255286782
 10
71.1637533943
 20
-44.4230423958
 10
71.1918458497
 20
-44.4189203492
 10
71.2197148026
 20
-44.4131424313
 10
71.2472759571
 20
-44.4057286944
 10
71.2742764262
 20
-44.3967393517
 10
71.3007224648
 20
-44.3861550012
 10
71.3266078181
 20
-44.3739949408
 10
71.3516608342
 20
-44.360377428
 10
71.3758656889
 20
-44.3452911537
 10
71.3992382064
 20
-44.3287472864
 10
71.4215542076
 20
-44.3108978014
 10
71.4428064329
 20
-44.2917290081
 10
71.4630021419
 20
-44.2712544351
 10
71.4819389347
 20
-44.2496668996
 10
71.499605913
 20
-44.2269535946
 10
71.5160139753
 20
-44.2031271626
 10
71.5309934169
 20
-44.1784186206
 10
71.5445299508
 20
-44.1528183786
 10
71.556637864
 20
-44.1263358795
 10
71.567190314
 20
-44.0992307278
 10
71.5761720237
 20
-44.0714872154
 10
71.5835982701
 20
-44.0431209377
 10
71.5893880409
 20
-44.0144385042
 10
71.5935143322
 20
-43.9855421118
 10
71.5960041479
 20
-43.9563295117
 10
71.596857488
 20
-43.9268006745
  0
LWPOLYLINE
  5
258
100
AcDbEntity
  8
RACCORDO
100
AcDbPolyline
 62
253
  6
CONTINUOUS
 90
19
 70
0
 10
71.596857488
 20
-43.926800663
 10
71.6379801891
 20
-43.9265061011
 10
71.6788242517
 20
-43.9256106825
 10
71.7191129252
 20
-43.9241204744
 10
71.7585732222
 20
-43.9220455743
 10
71.7969377684
 20
-43.919400041
 10
71.8339466137
 20
-43.9162018003
 10
71.8693489943
 20
-43.9124725226
 10
71.9029050313
 20
-43.9082374768
 10
71.9343873562
 20
-43.9035253587
 10
71.9635826515
 20
-43.8983680965
 10
71.9902930963
 20
-43.8928006347
 10
72.0143377064
 20
-43.8868606972
 10
72.0355535605
 20
-43.8805885318
 10
72.0537969048
 20
-43.8740266374
 10
72.0689441262
 20
-43.8672194758
 10
72.0808925904
 20
-43.8602131709
 10
72.0895613373
 20
-43.8530551961
 10
72.0948916292
 20
-43.8457940521
  0
LINE
  5
259
100
AcDbEntity
  8
RACCORDO
100
AcDbLine
 62
7
  6
CONTINUOUS
 10
-71.2699743099
 20
-45.0
 11
71.2699743099
 21
-45.0
  0
LINE
  5
25A
100
AcDbEntity
  8
RACCORDO
100
AcDbLine
 62
253
  6
CONTINUOUS
 10
-71.1066450886
 20
-44.8340076387
 11
71.1066450886
 21
-44.8340076387
  0
LINE
  5
25B
100
AcDbEntity
  8
RACCORDO
100
AcDbLine
 62
253
  6
CONTINUOUS
 10
-71.1066450886
 20
-44.4263792099
 11
71.1066450886
 21
-44.4263792099
  0
LWPOLYLINE
  5
25C
100
AcDbEntity
  8
RACCORDO
100
AcDbPolyline
 62
253
  6
CONTINUOUS
 90
19
 70
0
 10
-71.596857488
 20
-43.9268006691
 10
-71.637979849
 20
-43.92650608
 10
-71.6788235498
 20
-43.9256106375
 10
-71.7191118448
 20
-43.9241204087
 10
-71.7585717519
 20
-43.9220454911
 10
-71.7969359014
 20
-43.9193999435
 10
-71.8339443488
 20
-43.9162016915
 10
-71.8693463348
 20
-43.9124724056
 10
-71.9029019857
 20
-43.9082373542
 10
-71.9343839375
 20
-43.9035252331
 10
-71.9635788772
 20
-43.8983679701
 10
-71.9902889882
 20
-43.8928005095
 10
-72.01433329
 20
-43.886860575
 10
-72.0355488652
 20
-43.880588414
 10
-72.0537919629
 20
-43.8740265248
 10
-72.068938973
 20
-43.8672193692
 10
-72.0808872634
 20
-43.8602130706
 10
-72.089555876
 20
-43.8530551018
 10
-72.0948860746
 20
-43.8457939633
  0
LWPOLYLINE
  5
25D
100
AcDbEntity
  8
RACCORDO
100
AcDbPolyline
 62
7
  6
CONTINUOUS
 90
28
 70
0
 10
-71.2699743099
 20
-45.0
 10
-71.3264796275
 20
-44.9983984097
 10
-71.3825279765
 20
-44.9935696001
 10
-71.4381193568
 20
-44.985513516
 10
-71.4934996027
 20
-44.9741734187
 10
-71.5484228799
 20
-44.9596058251
 10
-71.6021516857
 20
-44.9419805178
 10
-71.6545601789
 20
-44.9213008268
 10
-71.7057742006
 20
-44.8975630105
 10
-71.7554337718
 20
-44.8709262165
 10
-71.8035341419
 20
-44.8414026277
 10
-71.8500800615
 20
-44.8089794921
 10
-71.894725804
 20
-44.7737785384
 10
-71.9375837275
 20
-44.7356410578
 10
-71.978541474
 20
-44.6947250367
 10
-72.016916242
 20
-44.6516273066
 10
-72.0525704216
 20
-44.6064154248
 10
-72.0856416227
 20
-44.5590211768
 10
-72.1158598742
 20
-44.5098378632
 10
-72.1432104307
 20
-44.4588949527
 10
-72.1677080375
 20
-44.4061623695
 10
-72.1891269589
 20
-44.3519442023
 10
-72.2074859133
 20
-44.2960644203
 10
-72.2227661823
 20
-44.2386984821
 10
-72.2346858746
 20
-44.1806779204
 10
-72.2431510266
 20
-44.1222799043
 10
-72.248255602
 20
-44.063227057
 10
-72.2499996007
 20
-44.0035192549
  0
LWPOLYLINE
  5
25E
100
AcDbEntity
  8
0
100
AcDbPolyline
 62
7
  6
CONTINUOUS
 90
25
 70
0
 10
3.3200188023
 20
-26.110807341
 10
3.3798956163
 20
-26.1020856172
 10
3.4397108503
 20
-26.0938742102
 10
3.4994645044
 20
-26.0861731254
 10
3.559115985
 20
-26.078931429
 10
3.6187058856
 20
-26.0722000642
 10
3.6783559868
 20
-26.0661318532
 10
3.7380794794
 20
-26.0607201302
 10
3.7978631726
 20
-26.0559715706
 10
3.8577892745
 20
-26.05205901
 10
3.9178673207
 20
-26.0489750575
 10
3.9780877757
 20
-26.0467271114
 10
4.0385042406
 20
-26.0455101905
 10
4.0991793941
 20
-26.0453211782
 10
4.1600505575
 20
-26.0461631929
 10
4.2209832959
 20
-26.048240605
 10
4.2819885993
 20
-26.051485376
 10
4.3430554775
 20
-26.0559655361
 10
4.4040165256
 20
-26.0620895535
 10
4.46500028
 20
-26.0697671502
 10
4.5258782042
 20
-26.0790885757
 10
4.5860972828
 20
-26.0907330741
 10
4.6454731774
 20
-26.1049270305
 10
4.7041902264
 20
-26.1214439801
 10
4.7622484297
 20
-26.1402838735
  0
LWPOLYLINE
  5
25F
100
AcDbEntity
  8
0
100
AcDbPolyline
 62
7
  6
CONTINUOUS
 90
31
 70
0
 10
4.2166806432
 20
-27.3236280866
 10
4.2407998151
 20
-27.3228602822
 10
4.264810572
 20
-27.3213355337
 10
4.2887129139
 20
-27.3190538395
 10
4.3125637017
 20
-27.3160745592
 10
4.3363060746
 20
-27.3123383276
 10
4.3597694497
 20
-27.3076670539
 10
4.3829564295
 20
-27.3020854439
 10
4.4058644117
 20
-27.2955687782
 10
4.4283150067
 20
-27.2878648224
 10
4.4503981303
 20
-27.2789499231
 10
4.4720238669
 20
-27.2688477057
 10
4.4927440797
 20
-27.2573768465
 10
4.5125190294
 20
-27.2444464474
 10
4.5313884553
 20
-27.2301473586
 10
4.5490234396
 20
-27.214570875
 10
4.5653094972
 20
-27.1976150332
 10
4.5803611131
 20
-27.1793817369
 10
4.5941928239
 20
-27.1602680896
 10
4.6067846952
 20
-27.1402912581
 10
4.6181566613
 20
-27.1194340284
 10
4.6283830626
 20
-27.0980419513
 10
4.6374664202
 20
-27.0761697164
 10
4.6454042129
 20
-27.0537626038
 10
4.6522632175
 20
-27.0310020651
 10
4.6580747339
 20
-27.0078964905
 10
4.6628074622
 20
-26.9844374685
 10
4.6664342798
 20
-26.9607812587
 10
4.6689461456
 20
-26.9369799461
 10
4.6703521006
 20
-26.9129814349
 10
4.6706521447
 20
-26.8887857192
  0
LWPOLYLINE
  5
260
100
AcDbEntity
  8
RACCORDO
100
AcDbPolyline
 62
7
  6
CONTINUOUS
 90
28
 70
0
 10
44.2990249234
 20
-22.5
 10
44.3455000971
 20
-22.4986673673
 10
44.3916291883
 20
-22.4946633626
 10
44.437412197
 20
-22.4879879823
 10
44.4830650427
 20
-22.478588075
 10
44.5283718058
 20
-22.4665167775
 10
44.5726847277
 20
-22.4519335156
 10
44.6158934039
 20
-22.434839677
 10
44.6581082389
 20
-22.4152338473
 10
44.6990126876
 20
-22.3932712478
 10
44.7386112372
 20
-22.3689481248
 10
44.7768994005
 20
-22.3422681954
 10
44.8135471708
 20
-22.3133978873
 10
44.8486310647
 20
-22.2822058957
 10
44.8820745656
 20
-22.2488234806
 10
44.9133181175
 20
-22.2138109217
 10
44.9422306727
 20
-22.1772429369
 10
44.9689432789
 20
-22.1390447705
 10
44.9932895242
 20
-22.0995525006
 10
45.0152641284
 20
-22.0587706944
 10
45.0348723718
 20
-22.0166947511
 10
45.0519636831
 20
-21.9736470049
 10
45.0665380501
 20
-21.9295298178
 10
45.078595485
 20
-21.8844407999
 10
45.0879854539
 20
-21.8389951713
 10
45.0946577788
 20
-21.7933980062
 10
45.0986626376
 20
-21.7474442228
 10
45.1000000304
 20
-21.7011338162
  0
LWPOLYLINE
  5
261
100
AcDbEntity
  8
RACCORDO
100
AcDbPolyline
 62
253
  6
CONTINUOUS
 90
16
 70
0
 10
71.7215266169
 20
-22.6302605538
 10
71.7610191827
 20
-22.6296730821
 10
71.7994130905
 20
-22.6289240635
 10
71.8364477259
 20
-22.6280185823
 10
71.8718717013
 20
-22.6269627849
 10
71.9054445618
 20
-22.6257638378
 10
71.9369384181
 20
-22.6244298795
 10
71.9661394927
 20
-22.6229699647
 10
71.9928495713
 20
-22.6213940031
 10
72.0168873484
 20
-22.6197126924
 10
72.0380896578
 20
-22.6179374449
 10
72.0563125802
 20
-22.6160803111
 10
72.0714324199
 20
-22.6141538968
 10
72.083346545
 20
-22.6121712785
 10
72.0919740833
 20
-22.610145914
 10
72.0972564721
 20
-22.6080915512
  0
LWPOLYLINE
  5
262
100
AcDbEntity
  8
RACCORDO
100
AcDbPolyline
 62
253
  6
CONTINUOUS
 90
16
 70
0
 10
71.7215296113
 20
-22.5424730477
 10
71.7610222338
 20
-22.5418866889
 10
71.7994161932
 20
-22.5411394418
 10
71.8364508739
 20
-22.5402363786
 10
71.8718748872
 20
-22.5391836293
 10
71.9054477773
 20
-22.5379883399
 10
71.9369416538
 20
-22.5366586239
 10
71.9661427385
 20
-22.5352035073
 10
71.9928528165
 20
-22.5336328674
 10
72.0168905816
 20
-22.5319573655
 10
72.0380928672
 20
-22.5301883749
 10
72.0563157536
 20
-22.5283379033
 10
72.0714355451
 20
-22.5264185116
 10
72.0833496098
 20
-22.5244432284
 10
72.0919770757
 20
-22.522425462
 10
72.0972593802
 20
-22.5203789087
  0
LINE
  5
263
100
AcDbEntity
  8
0
100
AcDbLine
 62
7
  6
CONTINUOUS
 10
-4.616107
 20
-28.877801
 11
-4.101097
 21
-28.877801
  0
LINE
  5
264
100
AcDbEntity
  8
0
100
AcDbLine
 62
7
  6
CONTINUOUS
 10
-2.984285
 20
-28.877801
 11
-2.399877
 21
-28.877801
  0
LINE
  5
265
100
AcDbEntity
  8
0
100
AcDbLine
 62
7
  6
CONTINUOUS
 10
-2.085272
 20
-28.877801
 11
-1.526183
 21
-28.877801
  0
LINE
  5
266
100
AcDbEntity
  8
0
100
AcDbLine
 62
7
  6
CONTINUOUS
 10
-0.714487
 20
-28.877801
 11
-0.632524
 21
-28.877801
  0
LINE
  5
267
100
AcDbEntity
  8
0
100
AcDbLine
 62
7
  6
CONTINUOUS
 10
0.182406
 20
-28.877801
 11
0.754112
 21
-28.877801
  0
LINE
  5
268
100
AcDbEntity
  8
0
100
AcDbLine
 62
7
  6
CONTINUOUS
 10
0.84588
 20
-28.877801
 11
1.423947
 21
-28.877801
  0
LINE
  5
269
100
AcDbEntity
  8
0
100
AcDbLine
 62
7
  6
CONTINUOUS
 10
2.532466
 20
-28.877801
 11
3.148408
 21
-28.877801
  0
LINE
  5
26A
100
AcDbEntity
  8
0
100
AcDbLine
 62
7
  6
CONTINUOUS
 10
3.3200188023
 20
-28.8778013544
 11
3.9020753449
 21
-28.8778013544
  0
LINE
  5
26B
100
AcDbEntity
  8
0
100
AcDbLine
 62
7
  6
CONTINUOUS
 10
4.7970156219
 20
-28.8778013544
 11
5.3591482119
 21
-28.8778013544
  0
LINE
  5
26C
100
AcDbEntity
  8
0
100
AcDbLine
 62
7
  6
CONTINUOUS
 10
1.585207
 20
-28.318881
 11
2.381074
 21
-28.318881
  0
LINE
  5
26D
100
AcDbEntity
  8
0
100
AcDbLine
 62
7
  6
CONTINUOUS
 10
1.704751
 20
-27.886391
 11
2.26428
 21
-27.886391
  0
LINE
  5
26E
100
AcDbEntity
  8
0
100
AcDbLine
 62
7
  6
CONTINUOUS
 10
3.9020753449
 20
-27.7821519248
 11
4.2154209623
 21
-27.7821519248
  0
LINE
  5
26F
100
AcDbEntity
  8
0
100
AcDbLine
 62
7
  6
CONTINUOUS
 10
3.8826972541
 20
-27.3236280866
 11
4.2166806432
 21
-27.3236280866
  0
LINE
  5
270
100
AcDbEntity
  8
0
100
AcDbLine
 62
7
  6
CONTINUOUS
 10
-5.503668
 20
-26.078098
 11
-4.86882
 21
-26.078098
  0
LINE
  5
271
100
AcDbEntity
  8
0
100
AcDbLine
 62
7
  6
CONTINUOUS
 10
-3.785169
 20
-26.078098
 11
-3.20116
 21
-26.078098
  0
LINE
  5
272
100
AcDbEntity
  8
0
100
AcDbLine
 62
7
  6
CONTINUOUS
 10
-1.832475
 20
-26.078098
 11
-1.24855
 21
-26.078098
  0
LINE
  5
273
100
AcDbEntity
  8
0
100
AcDbLine
 62
7
  6
CONTINUOUS
 10
-0.085906
 20
-26.078098
 11
0.492308
 21
-26.078098
  0
LINE
  5
274
100
AcDbEntity
  8
0
100
AcDbLine
 62
7
  6
CONTINUOUS
 10
1.724045
 20
-26.078098
 11
2.28939
 21
-26.078098
  0
LINE
  5
275
100
AcDbEntity
  8
0
100
AcDbLine
 62
7
  6
CONTINUOUS
 10
-2.984285
 20
-26.07793
 11
-2.399877
 21
-26.07793
  0
LWPOLYLINE
  5
276
100
AcDbEntity
  8
RACCORDO
100
AcDbPolyline
 62
253
  6
CONTINUOUS
 90
16
 70
0
 10
-44.3882398365
 20
-23.1148987905
 10
-44.46349092
 20
-23.1129194744
 10
-44.5387432805
 20
-23.1063428555
 10
-44.6139969181
 20
-23.0951689046
 10
-44.6896888417
 20
-23.0793863082
 10
-44.7653820424
 20
-23.0590062615
 10
-44.8397654929
 20
-23.0340624693
 10
-44.9128576802
 20
-23.0043550541
 10
-44.9846401174
 20
-22.9700836546
 10
-45.053746316
 20
-22.9318812426
 10
-45.1200385349
 20
-22.8896014802
 10
-45.1836545154
 20
-22.8433904092
 10
-45.2436409925
 20
-22.7943196185
 10
-45.2996802114
 20
-22.7427462394
 10
-45.352089927
 20
-22.6883128948
 10
-45.4008701393
 20
-22.6310194482
  0
LWPOLYLINE
  5
277
100
AcDbEntity
  8
RACCORDO
100
AcDbPolyline
 62
253
  6
CONTINUOUS
 90
16
 70
0
 10
-44.3882479775
 20
-22.5889882145
 10
-44.4344147345
 20
-22.5877449773
 10
-44.4808975617
 20
-22.5838047505
 10
-44.5275328892
 20
-22.5770997368
 10
-44.5742305039
 20
-22.567553504
 10
-44.6207255184
 20
-22.5551268985
 10
-44.6665918799
 20
-22.539866936
 10
-44.7116984891
 20
-22.5217708151
 10
-44.7558151674
 20
-22.500883428
 10
-44.7984093575
 20
-22.4774502383
 10
-44.8393164508
 20
-22.4516032205
 10
-44.8784317712
 20
-22.4234522053
 10
-44.9153912464
 20
-22.3933327705
 10
-44.9500443168
 20
-22.3614945546
 10
-44.9824161707
 20
-22.3280488225
 10
-45.0124604562
 20
-22.2931695584
  0
LWPOLYLINE
  5
278
100
AcDbEntity
  8
0
100
AcDbPolyline
 62
7
  6
CONTINUOUS
 90
10
 70
0
 10
4.3405134302
 20
-26.5385722489
 10
4.2916664357
 20
-26.5336467544
 10
4.2422562309
 20
-26.5303979969
 10
4.1922828159
 20
-26.5288259835
 10
4.1416690666
 20
-26.5289140756
 10
4.090492107
 20
-26.5306789152
 10
4.0389833088
 20
-26.5341704245
 10
3.9872197959
 20
-26.5394052375
 10
3.9351244443
 20
-26.5463666999
 10
3.8826972541
 20
-26.5550547959
  0
LINE
  5
279
100
AcDbEntity
  8
RACCORDO
100
AcDbLine
 62
253
  6
CONTINUOUS
 10
-72.0948916333
 20
-43.845794038
 11
-72.2499996007
 21
-44.0035192549
  0
LINE
  5
27A
100
AcDbEntity
  8
RACCORDO
100
AcDbLine
 62
253
  6
CONTINUOUS
 10
-71.1066450886
 20
-44.8340076387
 11
-71.2699743099
 21
-45.0
  0
LWPOLYLINE
  5
27B
100
AcDbEntity
  8
RACCORDO
100
AcDbPolyline
 62
253
  6
CONTINUOUS
 90
16
 70
0
 10
-45.5647013173
 20
-21.8136609015
 10
-45.524361109
 20
-21.8130665564
 10
-45.4851980169
 20
-21.8123095511
 10
-45.4474905456
 20
-21.811395269
 10
-45.411506848
 20
-21.810330212
 10
-45.3775028187
 20
-21.8091219541
 10
-45.3457202739
 20
-21.8077790877
 10
-45.3163852322
 20
-21.8063111625
 10
-45.2897063068
 20
-21.8047286174
 10
-45.2658732222
 20
-21.8030427066
 10
-45.2450554652
 20
-21.8012654193
 10
-45.227401079
 20
-21.7994093945
 10
-45.2130356112
 20
-21.797487831
 10
-45.2020612204
 20
-21.795514394
 10
-45.1945559499
 20
-21.7935031174
 10
-45.1905731727
 20
-21.791468304
  0
LINE
  5
27C
100
AcDbEntity
  8
RACCORDO
100
AcDbLine
 62
253
  6
CONTINUOUS
 10
71.6403234369
 20
-22.6309360294
 11
71.7215266169
 21
-22.6302605538
  0
LWPOLYLINE
  5
27D
100
AcDbEntity
  8
RACCORDO
100
AcDbPolyline
 62
253
  6
CONTINUOUS
 90
3
 70
0
 10
71.5991668284
 20
-22.5432326076
 10
71.6403263074
 20
-22.5431482988
 10
71.7215296113
 20
-22.5424730477
  0
LWPOLYLINE
  5
27E
100
AcDbEntity
  8
RACCORDO
100
AcDbPolyline
 62
253
  6
CONTINUOUS
 90
3
 70
0
 10
-45.6898863164
 20
-21.8144316653
 10
-45.6477592502
 20
-21.8143458915
 10
-45.5647013173
 20
-21.8136609015
  0
LINE
  5
27F
100
AcDbEntity
  8
RACCORDO
100
AcDbLine
 62
253
  6
CONTINUOUS
 10
44.3882398365
 20
-23.1148987905
 11
-44.3882398365
 21
-23.1148987905
  0
LINE
  5
280
100
AcDbEntity
  8
RACCORDO
100
AcDbLine
 62
253
  6
CONTINUOUS
 10
45.4008701393
 20
-22.6310194482
 11
71.6403234369
 21
-22.6309360294
  0
LINE
  5
281
100
AcDbEntity
  8
RACCORDO
100
AcDbLine
 62
253
  6
CONTINUOUS
 10
44.3882778217
 20
-22.5889882007
 11
-44.3882479637
 21
-22.5889882007
  0
LINE
  5
282
100
AcDbEntity
  8
RACCORDO
100
AcDbLine
 62
253
  6
CONTINUOUS
 10
72.0972593806
 20
-22.5203789087
 11
72.25
 21
-22.5203789087
  0
LINE
  5
283
100
AcDbEntity
  8
RACCORDO
100
AcDbLine
 62
253
  6
CONTINUOUS
 10
-72.0972593806
 20
-22.5203789087
 11
-72.25
 21
-22.5203789087
  0
LINE
  5
284
100
AcDbEntity
  8
RACCORDO
100
AcDbLine
 62
7
  6
CONTINUOUS
 10
-44.2990249234
 20
-22.5
 11
44.2990249234
 21
-22.5
  0
LINE
  5
285
100
AcDbEntity
  8
RACCORDO
100
AcDbLine
 62
253
  6
CONTINUOUS
 10
-45.4008701393
 20
-22.6310194482
 11
-71.6403234359
 21
-22.6309360285
  0
LWPOLYLINE
  5
286
100
AcDbEntity
  8
RACCORDO
100
AcDbPolyline
 62
253
  6
CONTINUOUS
 90
18
 70
0
 10
-71.5991668284
 20
-22.5432326078
 10
-71.6812063993
 20
-22.5428945383
 10
-71.7215296121
 20
-22.5424730479
 10
-71.7610222349
 20
-22.5418866891
 10
-71.7994161945
 20
-22.541139442
 10
-71.8364508755
 20
-22.5402363788
 10
-71.871874889
 20
-22.5391836295
 10
-71.9054477792
 20
-22.5379883401
 10
-71.9369416558
 20
-22.5366586241
 10
-71.9661427406
 20
-22.5352035075
 10
-71.9928528185
 20
-22.5336328675
 10
-72.0168905836
 20
-22.5319573656
 10
-72.038092869
 20
-22.530188375
 10
-72.0563157552
 20
-22.5283379034
 10
-72.0714355466
 20
-22.5264185116
 10
-72.083349611
 20
-22.5244432285
 10
-72.0919770765
 20
-22.522425462
 10
-72.0972593806
 20
-22.5203789087
  0
LWPOLYLINE
  5
287
100
AcDbEntity
  8
RACCORDO
100
AcDbPolyline
 62
253
  6
CONTINUOUS
 90
18
 70
0
 10
45.6898863164
 20
-21.8144314823
 10
45.6059314718
 20
-21.8140882205
 10
45.5647008306
 20
-21.8136607821
 10
45.5243604075
 20
-21.8130664553
 10
45.4851970833
 20
-21.8123094669
 10
45.447489368
 20
-21.8113952001
 10
45.4115054199
 20
-21.8103301568
 10
45.3775011389
 20
-21.809121911
 10
45.3457183463
 20
-21.8077790552
 10
45.3163830654
 20
-21.806311139
 10
45.2897039141
 20
-21.8047286015
 10
45.265870621
 20
-21.8030426971
 10
45.2450526767
 20
-21.8012654149
 10
45.2273981278
 20
-21.7994093941
 10
45.2130325248
 20
-21.7974878339
 10
45.2020580285
 20
-21.7955143993
 10
45.1945526841
 20
-21.7935031244
 10
45.1905698658
 20
-21.7914683126
  0
LWPOLYLINE
  5
288
100
AcDbEntity
  8
RACCORDO
100
AcDbPolyline
 62
253
  6
CONTINUOUS
 90
17
 70
0
 10
-71.6403234359
 20
-22.6309360285
 10
-71.721526614
 20
-22.6302605529
 10
-71.761019179
 20
-22.6296730812
 10
-71.799413086
 20
-22.6289240627
 10
-71.8364477207
 20
-22.6280185816
 10
-71.8718716955
 20
-22.6269627842
 10
-71.9054445556
 20
-22.6257638372
 10
-71.9369384116
 20
-22.6244298789
 10
-71.966139486
 20
-22.6229699641
 10
-71.9928495646
 20
-22.6213940027
 10
-72.016887342
 20
-22.6197126919
 10
-72.0380896518
 20
-22.6179374446
 10
-72.0563125747
 20
-22.6160803108
 10
-72.0714324152
 20
-22.6141538966
 10
-72.0833465412
 20
-22.6121712784
 10
-72.0919740807
 20
-22.6101459139
 10
-72.0972564707
 20
-22.6080915512
  0
LWPOLYLINE
  5
289
100
AcDbEntity
  8
0
100
AcDbPolyline
 62
7
  6
CONTINUOUS
 90
51
 70
0
 10
4.7622484297
 20
-26.1402838735
 10
4.7928727703
 20
-26.1526603519
 10
4.8236753307
 20
-26.1675658212
 10
4.8546561108
 20
-26.1850002325
 10
4.8859350264
 20
-26.204868933
 10
4.9173921616
 20
-26.2272664547
 10
4.9486677698
 20
-26.2524765049
 10
4.9799872338
 20
-26.2805310255
 10
5.0111251708
 20
-26.3113978778
 10
5.0410456852
 20
-26.3452646161
 10
5.0698671919
 20
-26.38256829
 10
5.0974712761
 20
-26.4228715532
 10
5.1224667984
 20
-26.4650503997
 10
5.1445665137
 20
-26.5094340823
 10
5.1640576671
 20
-26.5556931148
 10
5.1804108545
 20
-26.6017155631
 10
5.1931846539
 20
-26.6471721973
 10
5.2028204872
 20
-26.6923922827
 10
5.2101132162
 20
-26.7362518246
 10
5.2150815187
 20
-26.7784002415
 10
5.2177067169
 20
-26.8191882811
 10
5.2187276384
 20
-26.8585440124
 10
5.2182633299
 20
-26.8964248641
 10
5.2161947447
 20
-26.9328735559
 10
5.2129035706
 20
-26.9679460912
 10
5.2084112878
 20
-27.0016397539
 10
5.202696416
 20
-27.0339573875
 10
5.1960762021
 20
-27.064963326
 10
5.188562277
 20
-27.0946488924
 10
5.1801430099
 20
-27.1230228724
 10
5.1711007557
 20
-27.1501757839
 10
5.1614529581
 20
-27.1761061086
 10
5.1511821734
 20
-27.2008154541
 10
5.1405184249
 20
-27.2243990168
 10
5.1294916194
 20
-27.2468464011
 10
5.1180718501
 20
-27.2681680749
 10
5.1063994207
 20
-27.2884905204
 10
5.0944806933
 20
-27.3078298633
 10
5.0823093057
 20
-27.3261700331
 10
5.0700064753
 20
-27.3435892088
 10
5.0575715918
 20
-27.3600671027
 10
5.0450052656
 20
-27.3756240469
 10
5.0324305447
 20
-27.3903991437
 10
5.0198439884
 20
-27.4043826695
 10
5.0072490375
 20
-27.41758438
 10
4.9947790624
 20
-27.4301725887
 10
4.9824449996
 20
-27.4421617355
 10
4.9702359127
 20
-27.4535374017
 10
4.9582523626
 20
-27.4644246075
 10
4.9465233429
 20
-27.4748289996
 10
4.93501986
 20
-27.4847449458
  0
LWPOLYLINE
  5
28A
100
AcDbEntity
  8
0
100
AcDbPolyline
 62
7
  6
CONTINUOUS
 90
3
 70
0
 10
4.8225031649
 20
-27.5709244369
 10
4.8470790759
 20
-27.5823549337
 10
4.8703143986
 20
-27.595136152
  0
LWPOLYLINE
  5
28B
100
AcDbEntity
  8
0
100
AcDbPolyline
 62
7
  6
CONTINUOUS
 90
24
 70
0
 10
4.8703143986
 20
-27.595136152
 10
4.8922091331
 20
-27.6092680668
 10
4.9127505041
 20
-27.6250005557
 10
4.9319512868
 20
-27.6420836787
 10
4.9498498074
 20
-27.6597676989
 10
4.9663530781
 20
-27.6779209591
 10
4.9815540866
 20
-27.6966750868
 10
4.9957701225
 20
-27.7156752994
 10
5.0090162567
 20
-27.7348428797
 10
5.0212774182
 20
-27.7542565321
 10
5.032825684
 20
-27.7737976178
 10
5.0437063881
 20
-27.7934765448
 10
5.0538741963
 20
-27.8132828971
 10
5.0634651825
 20
-27.8330668083
 10
5.0724884654
 20
-27.8528098523
 10
5.0809349263
 20
-27.8725304563
 10
5.0889132834
 20
-27.8921340401
 10
5.0964246665
 20
-27.9115905335
 10
5.1034679458
 20
-27.9309300136
 10
5.1101484502
 20
-27.9501481241
 10
5.116455713
 20
-27.9692210728
 10
5.122400201
 20
-27.9881726588
 10
5.128118643
 20
-28.0070699115
 10
5.1336038971
 20
-28.0259109584
  0
LINE
  5
28C
100
AcDbEntity
  8
RACCORDO
100
AcDbLine
 62
253
  6
CONTINUOUS
 10
-71.1066450886
 20
44.8340076387
 11
-71.2699743099
 21
45.0
  0
LINE
  5
28D
100
AcDbEntity
  8
RACCORDO
100
AcDbLine
 62
253
  6
CONTINUOUS
 10
-72.0948916333
 20
43.8457940385
 11
-72.2499996007
 21
44.0035192549
  0
LINE
  5
28E
100
AcDbEntity
  8
RACCORDO
100
AcDbLine
 62
253
  6
CONTINUOUS
 10
-45.1905731938
 20
-21.7915019943
 11
-45.1000000304
 21
-21.7011338162
  0
LINE
  5
28F
100
AcDbEntity
  8
RACCORDO
100
AcDbLine
 62
253
  6
CONTINUOUS
 10
-44.3882479637
 20
-22.5889882007
 11
-44.2990249234
 21
-22.5
  0
LWPOLYLINE
  5
290
100
AcDbEntity
  8
RACCORDO
100
AcDbPolyline
 62
253
  6
CONTINUOUS
 90
12
 70
0
 10
-45.1831269901
 20
-22.4508096818
 10
-45.1565925424
 20
-22.4281050744
 10
-45.1318190228
 20
-22.4066819491
 10
-45.1089850208
 20
-22.3866947427
 10
-45.0882551438
 20
-22.3682875404
 10
-45.0697788311
 20
-22.3515930376
 10
-45.0536892763
 20
-22.336731583
 10
-45.0401024669
 20
-22.3238103108
 10
-45.0291163488
 20
-22.3129223691
 10
-45.0208101195
 20
-22.3041462476
 10
-45.0152436576
 20
-22.2975452124
 10
-45.0124570911
 20
-22.2931668494
  0
LINE
  5
291
100
AcDbEntity
  8
RACCORDO
100
AcDbLine
 62
253
  6
CONTINUOUS
 10
-45.2407022201
 20
-22.4994005858
 11
-45.1831269901
 21
-22.4508096818
  0
LWPOLYLINE
  5
292
100
AcDbEntity
  8
RACCORDO
100
AcDbPolyline
 62
253
  6
CONTINUOUS
 90
3
 70
0
 10
-45.3351533422
 20
-22.5775706319
 10
-45.3028874931
 20
-22.5510560424
 10
-45.2407022201
 20
-22.4994005858
  0
LINE
  5
293
100
AcDbEntity
  8
RACCORDO
100
AcDbLine
 62
253
  6
CONTINUOUS
 10
-45.33515331
 20
22.5775705708
 11
-45.271327867
 21
22.5249364937
  0
LWPOLYLINE
  5
294
100
AcDbEntity
  8
RACCORDO
100
AcDbPolyline
 62
253
  6
CONTINUOUS
 90
14
 70
0
 10
-45.271327867
 20
22.5249364937
 10
-45.2112309377
 20
22.4746319447
 10
-45.1831268118
 20
22.450809504
 10
-45.1565923296
 20
22.4281048706
 10
-45.1318187755
 20
22.4066817196
 10
-45.1089847397
 20
22.3866944883
 10
-45.0882548302
 20
22.3682872626
 10
-45.0697784869
 20
22.3515927382
 10
-45.0536889039
 20
22.3367312641
 10
-45.0401020694
 20
22.3238099752
 10
-45.0291159295
 20
22.3129220196
 10
-45.0208096822
 20
22.3041458874
 10
-45.0152432064
 20
22.2975448447
 10
-45.0124566303
 20
22.2931664778
  0
LINE
  5
295
100
AcDbEntity
  8
RACCORDO
100
AcDbLine
 62
253
  6
CONTINUOUS
 10
-44.388277515
 20
22.5889882007
 11
-44.2990249234
 21
22.5
  0
LINE
  5
296
100
AcDbEntity
  8
RACCORDO
100
AcDbLine
 62
253
  6
CONTINUOUS
 10
-45.1905731783
 20
21.7914779004
 11
-45.1000000304
 21
21.7011338162
  0
LINE
  5
297
100
AcDbEntity
  8
0
100
AcDbLine
 62
7
  6
CONTINUOUS
 10
-5.503668
 20
-26.078098
 11
-4.616107
 21
-28.877801
  0
LINE
  5
298
100
AcDbEntity
  8
0
100
AcDbLine
 62
7
  6
CONTINUOUS
 10
-4.86882
 20
-26.078098
 11
-4.335146
 21
-28.00522
  0
LINE
  5
299
100
AcDbEntity
  8
RACCORDO
100
AcDbLine
 62
253
  6
CONTINUOUS
 10
-45.4008701392
 20
-22.6310192088
 11
-45.3351533422
 21
-22.5775706319
  0
LINE
  5
29A
100
AcDbEntity
  8
RACCORDO
100
AcDbLine
 62
253
  6
CONTINUOUS
 10
-45.4008701394
 20
22.6310191773
 11
-45.33515331
 21
22.5775705708
  0
LWPOLYLINE
  5
29B
100
AcDbEntity
  8
0
100
AcDbPolyline
 62
7
  6
CONTINUOUS
 90
19
 70
0
 10
4.541402059
 20
-28.0286629446
 10
4.5321479731
 20
-28.0059355254
 10
4.5217602463
 20
-27.9839042716
 10
4.5102388785
 20
-27.9625692065
 10
4.4975723792
 20
-27.9418389902
 10
4.483772239
 20
-27.921805005
 10
4.4688729294
 20
-27.9027413639
 10
4.4528882057
 20
-27.8846120131
 10
4.4358043127
 20
-27.8674530597
 10
4.4176144559
 20
-27.8516468736
 10
4.3982295907
 20
-27.8371849808
 10
4.3777387618
 20
-27.824075916
 10
4.3564023088
 20
-27.8127275755
 10
4.3341486856
 20
-27.8032862388
 10
4.3110494383
 20
-27.795605682
 10
4.2875795446
 20
-27.789655047
 10
4.2638973302
 20
-27.7854240564
 10
4.2398444695
 20
-27.7829230136
 10
4.2154209623
 20
-27.7821519248
  0
LINE
  5
29C
100
AcDbEntity
  8
0
100
AcDbLine
 62
7
  6
CONTINUOUS
 10
-1.400068
 20
-27.049647
 11
-0.714487
 21
-28.877801
  0
LINE
  5
29D
100
AcDbEntity
  8
0
100
AcDbLine
 62
7
  6
CONTINUOUS
 10
-1.24855
 20
-26.078098
 11
-0.670314
 21
-27.632502
  0
LINE
  5
29E
100
AcDbEntity
  8
0
100
AcDbLine
 62
7
  6
CONTINUOUS
 10
2.28939
 20
-26.078098
 11
3.148408
 21
-28.877801
  0
LINE
  5
29F
100
AcDbEntity
  8
0
100
AcDbLine
 62
7
  6
CONTINUOUS
 10
0.492308
 20
-26.078098
 11
0.754112
 21
-28.877801
  0
LINE
  5
2A0
100
AcDbEntity
  8
0
100
AcDbLine
 62
7
  6
CONTINUOUS
 10
0.062337
 20
-27.057269
 11
0.182406
 21
-28.877801
  0
LINE
  5
2A1
100
AcDbEntity
  8
0
100
AcDbLine
 62
7
  6
CONTINUOUS
 10
-2.984285
 20
-26.07793
 11
-2.984285
 21
-28.877801
  0
LINE
  5
2A2
100
AcDbEntity
  8
0
100
AcDbLine
 62
7
  6
CONTINUOUS
 10
-2.399877
 20
-26.07793
 11
-2.399877
 21
-28.877801
  0
LINE
  5
2A3
100
AcDbEntity
  8
0
100
AcDbLine
 62
7
  6
CONTINUOUS
 10
-1.400068
 20
-27.049647
 11
-1.526183
 21
-28.877801
  0
LINE
  5
2A4
100
AcDbEntity
  8
0
100
AcDbLine
 62
7
  6
CONTINUOUS
 10
-1.832475
 20
-26.078098
 11
-2.085272
 21
-28.877801
  0
LWPOLYLINE
  5
2A5
100
AcDbEntity
  8
0
100
AcDbPolyline
 62
7
  6
CONTINUOUS
 90
8
 70
0
 10
4.6307868701
 20
-28.3028412883
 10
4.6191159523
 20
-28.2633339859
 10
4.6071920591
 20
-28.2239469723
 10
4.595014902
 20
-28.1846841893
 10
4.5823688833
 20
-28.1455263194
 10
4.5691821369
 20
-28.1064669287
 10
4.5555265288
 20
-28.0675124676
 10
4.541402059
 20
-28.0286629446
  0
LINE
  5
2A6
100
AcDbEntity
  8
0
100
AcDbLine
 62
7
  6
CONTINUOUS
 10
4.7970156219
 20
-28.8778013544
 11
4.69935459
 21
-28.5430549164
  0
LWPOLYLINE
  5
2A7
100
AcDbEntity
  8
0
100
AcDbPolyline
 62
7
  6
CONTINUOUS
 90
4
 70
0
 10
4.69935459
 20
-28.5430549164
 10
4.6762517499
 20
-28.4622916926
 10
4.664936964
 20
-28.4221980158
 10
4.6307868701
 20
-28.3028412883
  0
LINE
  5
2A8
100
AcDbEntity
  8
0
100
AcDbLine
 62
7
  6
CONTINUOUS
 10
5.1336038971
 20
-28.0259109584
 11
5.1440544217
 21
-28.0635027069
  0
LINE
  5
2A9
100
AcDbEntity
  8
0
100
AcDbLine
 62
7
  6
CONTINUOUS
 10
2.381074
 20
-28.318881
 11
2.532466
 21
-28.877801
  0
LINE
  5
2AA
100
AcDbEntity
  8
0
100
AcDbLine
 62
7
  6
CONTINUOUS
 10
5.1440544217
 20
-28.0635027069
 11
5.1543388152
 21
-28.1012161458
  0
LINE
  5
2AB
100
AcDbEntity
  8
0
100
AcDbLine
 62
7
  6
CONTINUOUS
 10
5.1543388152
 20
-28.1012161458
 11
5.2289134804
 21
-28.3807929306
  0
LINE
  5
2AC
100
AcDbEntity
  8
0
100
AcDbLine
 62
7
  6
CONTINUOUS
 10
5.2289134804
 20
-28.3807929306
 11
5.3591482119
 21
-28.8778013544
  0
LINE
  5
2AD
100
AcDbEntity
  8
0
100
AcDbLine
 62
7
  6
CONTINUOUS
 10
1.995737
 20
-26.847385
 11
2.26428
 21
-27.886391
  0
LWPOLYLINE
  5
2AE
100
AcDbEntity
  8
0
100
AcDbPolyline
 62
7
  6
CONTINUOUS
 90
22
 70
0
 10
4.6706521447
 20
-26.8887857192
 10
4.6695984188
 20
-26.8661169675
 10
4.6669640554
 20
-26.8433797572
 10
4.6627490545
 20
-26.8205740867
 10
4.6569809516
 20
-26.7975632845
 10
4.6496322112
 20
-26.7744840158
 10
4.6406202266
 20
-26.7517462968
 10
4.6299270419
 20
-26.7292932371
 10
4.6175706129
 20
-26.7071817478
 10
4.603522201
 20
-26.6859925777
 10
4.587658467
 20
-26.6657372352
 10
4.5701027499
 20
-26.6464042643
 10
4.5511963286
 20
-26.6285399974
 10
4.5308538316
 20
-26.612283702
 10
4.5091606304
 20
-26.5974961802
 10
4.4867141178
 20
-26.5843060794
 10
4.4635984935
 20
-26.5727710279
 10
4.4397295578
 20
-26.5628334508
 10
4.4154521043
 20
-26.5544491868
 10
4.3908810641
 20
-26.5476035259
 10
4.365901506
 20
-26.5423112096
 10
4.3405134302
 20
-26.5385722489
  0
LINE
  5
2AF
100
AcDbEntity
  8
0
100
AcDbLine
 62
7
  6
CONTINUOUS
 10
3.3200188023
 20
-26.110807341
 11
3.3200188023
 21
-28.8778013544
  0
LINE
  5
2B0
100
AcDbEntity
  8
0
100
AcDbLine
 62
7
  6
CONTINUOUS
 10
3.8826972541
 20
-26.5550547959
 11
3.8826972541
 21
-27.3236280866
  0
LINE
  5
2B1
100
AcDbEntity
  8
0
100
AcDbLine
 62
7
  6
CONTINUOUS
 10
3.9020753449
 20
-27.7821519248
 11
3.9020753449
 21
-28.8778013544
  0
LINE
  5
2B2
100
AcDbEntity
  8
0
100
AcDbLine
 62
7
  6
CONTINUOUS
 10
4.8225031649
 20
-27.554380628
 11
4.8225031649
 21
-27.5709244369
  0
LINE
  5
2B3
100
AcDbEntity
  8
0
100
AcDbLine
 62
7
  6
CONTINUOUS
 10
-3.785169
 20
-26.078098
 11
-4.335146
 21
-28.00522
  0
LINE
  5
2B4
100
AcDbEntity
  8
0
100
AcDbLine
 62
7
  6
CONTINUOUS
 10
-3.20116
 20
-26.078098
 11
-4.101097
 21
-28.877801
  0
LINE
  5
2B5
100
AcDbEntity
  8
0
100
AcDbLine
 62
7
  6
CONTINUOUS
 10
1.995737
 20
-26.847385
 11
1.704751
 21
-27.886391
  0
LINE
  5
2B6
100
AcDbEntity
  8
0
100
AcDbLine
 62
7
  6
CONTINUOUS
 10
1.585207
 20
-28.318881
 11
1.423947
 21
-28.877801
  0
LINE
  5
2B7
100
AcDbEntity
  8
0
100
AcDbLine
 62
7
  6
CONTINUOUS
 10
1.724045
 20
-26.078098
 11
0.84588
 21
-28.877801
  0
LINE
  5
2B8
100
AcDbEntity
  8
0
100
AcDbLine
 62
7
  6
CONTINUOUS
 10
-0.085906
 20
-26.078098
 11
-0.670314
 21
-27.632502
  0
LINE
  5
2B9
100
AcDbEntity
  8
0
100
AcDbLine
 62
7
  6
CONTINUOUS
 10
0.062337
 20
-27.057269
 11
-0.632524
 21
-28.877801
  0
LWPOLYLINE
  5
2BA
100
AcDbEntity
  8
RACCORDO
100
AcDbPolyline
 62
253
  6
CONTINUOUS
 90
12
 70
0
 10
45.1831268989
 20
22.4508096014
 10
45.1565924351
 20
22.4281049821
 10
45.1318188998
 20
22.4066818451
 10
45.1089848826
 20
22.3866946273
 10
45.0882549913
 20
22.3682874142
 10
45.0697786655
 20
22.3515929015
 10
45.0536890989
 20
22.336731438
 10
45.0401022794
 20
22.3238101582
 10
45.0291161529
 20
22.3129222102
 10
45.0208099172
 20
22.304146084
 10
45.015243451
 20
22.2975450456
 10
45.0124568823
 20
22.2931666812
  0
LINE
  5
2BB
100
AcDbEntity
  8
RACCORDO
100
AcDbLine
 62
253
  6
CONTINUOUS
 10
45.2407021604
 20
22.4994005285
 11
45.1831268989
 21
22.4508096014
  0
LINE
  5
2BC
100
AcDbEntity
  8
RACCORDO
100
AcDbLine
 62
253
  6
CONTINUOUS
 10
45.302887462
 20
22.5510560054
 11
45.2407021604
 21
22.4994005285
  0
LWPOLYLINE
  5
2BD
100
AcDbEntity
  8
RACCORDO
100
AcDbPolyline
 62
253
  6
CONTINUOUS
 90
3
 70
0
 10
45.4008701392
 20
22.6310191921
 10
45.3678928877
 20
22.6042892027
 10
45.302887462
 20
22.5510560054
  0
LINE
  5
2BE
100
AcDbEntity
  8
RACCORDO
100
AcDbLine
 62
253
  6
CONTINUOUS
 10
45.4008701394
 20
-22.6310191555
 11
45.3351532863
 21
-22.5775705333
  0
LINE
  5
2BF
100
AcDbEntity
  8
RACCORDO
100
AcDbLine
 62
253
  6
CONTINUOUS
 10
45.3351532863
 20
-22.5775705333
 11
45.2713278102
 21
-22.5249364327
  0
LWPOLYLINE
  5
2C0
100
AcDbEntity
  8
RACCORDO
100
AcDbPolyline
 62
253
  6
CONTINUOUS
 90
14
 70
0
 10
45.2713278102
 20
-22.5249364327
 10
45.2112308418
 20
-22.4746318553
 10
45.1831266952
 20
-22.4508093994
 10
45.1565921922
 20
-22.4281047504
 10
45.1318186177
 20
-22.4066815842
 10
45.108984562
 20
-22.3866943381
 10
45.0882546338
 20
-22.3682870985
 10
45.0697782732
 20
-22.3515925611
 10
45.0536886747
 20
-22.3367310755
 10
45.0401018266
 20
-22.3238097766
 10
45.0291156755
 20
-22.3129218128
 10
45.0208094194
 20
-22.3041456743
 10
45.0152429374
 20
-22.2975446275
 10
45.0124563579
 20
-22.2931662586
  0
LINE
  5
2C1
100
AcDbEntity
  8
RACCORDO
100
AcDbLine
 62
253
  6
CONTINUOUS
 10
45.1905731942
 20
21.7915025806
 11
45.1000000304
 21
21.7011338162
  0
LINE
  5
2C2
100
AcDbEntity
  8
RACCORDO
100
AcDbLine
 62
253
  6
CONTINUOUS
 10
44.3882483498
 20
22.5889882007
 11
44.2990249234
 21
22.5
  0
LINE
  5
2C3
100
AcDbEntity
  8
RACCORDO
100
AcDbLine
 62
253
  6
CONTINUOUS
 10
44.3882778217
 20
-22.5889882007
 11
44.2990249234
 21
-22.5
  0
LINE
  5
2C4
100
AcDbEntity
  8
RACCORDO
100
AcDbLine
 62
253
  6
CONTINUOUS
 10
45.1905731786
 20
-21.791478323
 11
45.1000000304
 21
-21.7011338162
  0
LINE
  5
2C5
100
AcDbEntity
  8
RACCORDO
100
AcDbLine
 62
253
  6
CONTINUOUS
 10
72.0948916333
 20
43.845794038
 11
72.2499996007
 21
44.0035192549
  0
LINE
  5
2C6
100
AcDbEntity
  8
RACCORDO
100
AcDbLine
 62
253
  6
CONTINUOUS
 10
71.1066450886
 20
44.8340076387
 11
71.2699743099
 21
45.0
  0
LWPOLYLINE
  5
2C7
100
AcDbEntity
  8
0
100
AcDbPolyline
 62
7
  6
CONTINUOUS
 90
10
 70
0
 10
4.93501986
 20
-27.4847449458
 10
4.9128180877
 20
-27.5035266052
 10
4.9021197983
 20
-27.5123923276
 10
4.8914106732
 20
-27.520713394
 10
4.8807527766
 20
-27.5286014498
 10
4.8700840443
 20
-27.5359448613
 10
4.8589683315
 20
-27.5422443994
 10
4.8472602565
 20
-27.5473336623
 10
4.835105201
 20
-27.5513790698
 10
4.8225031649
 20
-27.554380628
  0
LWPOLYLINE
  5
2C8
100
AcDbEntity
  8
RACCORDO
100
AcDbPolyline
 62
7
  6
CONTINUOUS
 90
28
 70
0
 10
-44.2990249234
 20
22.5
 10
-44.3455000971
 20
22.4986673673
 10
-44.3916291883
 20
22.4946633626
 10
-44.437412197
 20
22.4879879823
 10
-44.4830650427
 20
22.478588075
 10
-44.5283718058
 20
22.4665167775
 10
-44.5726847277
 20
22.4519335156
 10
-44.6158934039
 20
22.434839677
 10
-44.6581082389
 20
22.4152338473
 10
-44.6990126876
 20
22.3932712478
 10
-44.7386112372
 20
22.3689481248
 10
-44.7768994005
 20
22.3422681954
 10
-44.8135471708
 20
22.3133978873
 10
-44.8486310647
 20
22.2822058957
 10
-44.8820745656
 20
22.2488234806
 10
-44.9133181175
 20
22.2138109217
 10
-44.9422306727
 20
22.1772429369
 10
-44.9689432789
 20
22.1390447705
 10
-44.9932895242
 20
22.0995525006
 10
-45.0152641284
 20
22.0587706944
 10
-45.0348723718
 20
22.0166947511
 10
-45.0519636831
 20
21.9736470049
 10
-45.0665380501
 20
21.9295298178
 10
-45.078595485
 20
21.8844407999
 10
-45.0879854539
 20
21.8389951713
 10
-45.0946577788
 20
21.7933980062
 10
-45.0986626376
 20
21.7474442228
 10
-45.1000000304
 20
21.7011338162
  0
LWPOLYLINE
  5
2C9
100
AcDbEntity
  8
RACCORDO
100
AcDbPolyline
 62
253
  6
CONTINUOUS
 90
16
 70
0
 10
-71.7215296113
 20
22.5424730477
 10
-71.7610222338
 20
22.5418866889
 10
-71.7994161932
 20
22.5411394418
 10
-71.8364508739
 20
22.5402363786
 10
-71.8718748872
 20
22.5391836293
 10
-71.9054477773
 20
22.5379883399
 10
-71.9369416538
 20
22.5366586239
 10
-71.9661427385
 20
22.5352035073
 10
-71.9928528165
 20
22.5336328674
 10
-72.0168905816
 20
22.5319573655
 10
-72.0380928672
 20
22.5301883749
 10
-72.0563157536
 20
22.5283379033
 10
-72.0714355451
 20
22.5264185116
 10
-72.0833496098
 20
22.5244432284
 10
-72.0919770757
 20
22.522425462
 10
-72.0972593802
 20
22.5203789087
  0
LWPOLYLINE
  5
2CA
100
AcDbEntity
  8
RACCORDO
100
AcDbPolyline
 62
253
  6
CONTINUOUS
 90
16
 70
0
 10
-71.7215266169
 20
22.6302605538
 10
-71.7610191827
 20
22.6296730821
 10
-71.7994130905
 20
22.6289240635
 10
-71.8364477259
 20
22.6280185823
 10
-71.8718717013
 20
22.6269627849
 10
-71.9054445618
 20
22.6257638378
 10
-71.9369384181
 20
22.6244298795
 10
-71.9661394927
 20
22.6229699647
 10
-71.9928495713
 20
22.6213940031
 10
-72.0168873484
 20
22.6197126924
 10
-72.0380896578
 20
22.6179374449
 10
-72.0563125802
 20
22.6160803111
 10
-72.0714324199
 20
22.6141538968
 10
-72.083346545
 20
22.6121712785
 10
-72.0919740833
 20
22.610145914
 10
-72.0972564721
 20
22.6080915512
  0
LWPOLYLINE
  5
2CB
100
AcDbEntity
  8
RACCORDO
100
AcDbPolyline
 62
253
  6
CONTINUOUS
 90
16
 70
0
 10
45.5647013173
 20
21.8136609015
 10
45.524361109
 20
21.8130665564
 10
45.4851980169
 20
21.8123095511
 10
45.4474905456
 20
21.811395269
 10
45.411506848
 20
21.810330212
 10
45.3775028187
 20
21.8091219541
 10
45.3457202739
 20
21.8077790877
 10
45.3163852322
 20
21.8063111625
 10
45.2897063068
 20
21.8047286174
 10
45.2658732222
 20
21.8030427066
 10
45.2450554652
 20
21.8012654193
 10
45.227401079
 20
21.7994093945
 10
45.2130356112
 20
21.797487831
 10
45.2020612204
 20
21.795514394
 10
45.1945559499
 20
21.7935031174
 10
45.1905731727
 20
21.791468304
  0
LINE
  5
2CC
100
AcDbEntity
  8
RACCORDO
100
AcDbLine
 62
253
  6
CONTINUOUS
 10
-71.6403234369
 20
22.6309360294
 11
-71.7215266169
 21
22.6302605538
  0
LWPOLYLINE
  5
2CD
100
AcDbEntity
  8
RACCORDO
100
AcDbPolyline
 62
253
  6
CONTINUOUS
 90
3
 70
0
 10
-71.5991668284
 20
22.5432326076
 10
-71.6403263074
 20
22.5431482988
 10
-71.7215296113
 20
22.5424730477
  0
LWPOLYLINE
  5
2CE
100
AcDbEntity
  8
RACCORDO
100
AcDbPolyline
 62
253
  6
CONTINUOUS
 90
3
 70
0
 10
45.6898863164
 20
21.8144316653
 10
45.6477592502
 20
21.8143458915
 10
45.5647013173
 20
21.8136609015
  0
LINE
  5
2CF
100
AcDbEntity
  8
RACCORDO
100
AcDbLine
 62
7
  6
CONTINUOUS
 10
44.2990249234
 20
22.5
 11
-44.2990249234
 21
22.5
  0
LINE
  5
2D0
100
AcDbEntity
  8
RACCORDO
100
AcDbLine
 62
253
  6
CONTINUOUS
 10
72.0972593806
 20
22.5203789087
 11
72.25
 21
22.5203789087
  0
LINE
  5
2D1
100
AcDbEntity
  8
RACCORDO
100
AcDbLine
 62
253
  6
CONTINUOUS
 10
-72.0972593806
 20
22.5203789087
 11
-72.25
 21
22.5203789087
  0
LINE
  5
2D2
100
AcDbEntity
  8
RACCORDO
100
AcDbLine
 62
253
  6
CONTINUOUS
 10
-44.388277515
 20
22.5889882007
 11
44.3882483498
 21
22.5889882007
  0
LINE
  5
2D3
100
AcDbEntity
  8
RACCORDO
100
AcDbLine
 62
253
  6
CONTINUOUS
 10
-71.6403234369
 20
22.6309360294
 11
-45.4008701393
 21
22.6310194482
  0
LINE
  5
2D4
100
AcDbEntity
  8
RACCORDO
100
AcDbLine
 62
253
  6
CONTINUOUS
 10
-44.3882398365
 20
23.1148987905
 11
44.3882398365
 21
23.1148987905
  0
LINE
  5
2D5
100
AcDbEntity
  8
RACCORDO
100
AcDbLine
 62
253
  6
CONTINUOUS
 10
45.4008701393
 20
22.6310194482
 11
71.640323436
 21
22.6309360285
  0
LWPOLYLINE
  5
2D6
100
AcDbEntity
  8
RACCORDO
100
AcDbPolyline
 62
253
  6
CONTINUOUS
 90
18
 70
0
 10
-45.6898863164
 20
21.8144314751
 10
-45.6059314602
 20
21.814088215
 10
-45.5647008113
 20
21.8136607774
 10
-45.5243603797
 20
21.8130664514
 10
-45.4851970463
 20
21.8123094636
 10
-45.4474893213
 20
21.8113951975
 10
-45.4115053633
 20
21.8103301547
 10
-45.3775010722
 20
21.8091219094
 10
-45.3457182698
 20
21.8077790539
 10
-45.3163829794
 20
21.8063111381
 10
-45.2897038191
 20
21.8047286009
 10
-45.2658705177
 20
21.8030426967
 10
-45.2450525659
 20
21.8012654147
 10
-45.2273980106
 20
21.7994093941
 10
-45.2130324021
 20
21.797487834
 10
-45.2020579016
 20
21.7955143995
 10
-45.1945525542
 20
21.7935031247
 10
-45.1905697342
 20
21.7914683129
  0
LWPOLYLINE
  5
2D7
100
AcDbEntity
  8
RACCORDO
100
AcDbPolyline
 62
253
  6
CONTINUOUS
 90
18
 70
0
 10
71.5991668284
 20
22.5432326078
 10
71.6812063993
 20
22.5428945383
 10
71.7215296121
 20
22.5424730479
 10
71.7610222349
 20
22.5418866891
 10
71.7994161945
 20
22.541139442
 10
71.8364508755
 20
22.5402363788
 10
71.871874889
 20
22.5391836295
 10
71.9054477792
 20
22.5379883401
 10
71.9369416558
 20
22.5366586241
 10
71.9661427406
 20
22.5352035075
 10
71.9928528185
 20
22.5336328675
 10
72.0168905836
 20
22.5319573656
 10
72.038092869
 20
22.530188375
 10
72.0563157552
 20
22.5283379034
 10
72.0714355466
 20
22.5264185116
 10
72.083349611
 20
22.5244432285
 10
72.0919770765
 20
22.522425462
 10
72.0972593806
 20
22.5203789087
  0
LWPOLYLINE
  5
2D8
100
AcDbEntity
  8
RACCORDO
100
AcDbPolyline
 62
253
  6
CONTINUOUS
 90
17
 70
0
 10
71.640323436
 20
22.6309360285
 10
71.7215266144
 20
22.630260553
 10
71.7610191794
 20
22.6296730813
 10
71.7994130865
 20
22.6289240628
 10
71.8364477213
 20
22.6280185816
 10
71.8718716961
 20
22.6269627842
 10
71.9054445562
 20
22.6257638372
 10
71.9369384122
 20
22.624429879
 10
71.9661394867
 20
22.6229699642
 10
71.9928495653
 20
22.6213940027
 10
72.0168873427
 20
22.619712692
 10
72.0380896524
 20
22.6179374446
 10
72.0563125752
 20
22.6160803108
 10
72.0714324157
 20
22.6141538966
 10
72.0833465416
 20
22.6121712784
 10
72.0919740809
 20
22.6101459139
 10
72.0972564709
 20
22.6080915512
  0
LWPOLYLINE
  5
2D9
100
AcDbEntity
  8
RACCORDO
100
AcDbPolyline
 62
253
  6
CONTINUOUS
 90
19
 70
0
 10
44.3882483643
 20
22.5889882152
 10
44.426715819
 20
22.5881359839
 10
44.4654117654
 20
22.5854182408
 10
44.5042428309
 20
22.5807958157
 10
44.5431257458
 20
22.5742318686
 10
44.5819446709
 20
22.5656973591
 10
44.6205528884
 20
22.5551781022
 10
44.6589196706
 20
22.5426339888
 10
44.6968568292
 20
22.5280769593
 10
44.7339944177
 20
22.5116255258
 10
44.7702146712
 20
22.4933355559
 10
44.8054498652
 20
22.473245342
 10
44.8394395556
 20
22.4515208389
 10
44.8721086996
 20
22.4282487309
 10
44.903400919
 20
22.4035096171
 10
44.933124088
 20
22.377511642
 10
44.9612016764
 20
22.3504045167
 10
44.9876538005
 20
22.3222556523
 10
45.0124604562
 20
22.2931695584
  0
LWPOLYLINE
  5
2DA
100
AcDbEntity
  8
RACCORDO
100
AcDbPolyline
 62
253
  6
CONTINUOUS
 90
19
 70
0
 10
44.3882398365
 20
23.1148987905
 10
44.4507582081
 20
23.1135143027
 10
44.5133777917
 20
23.1089711462
 10
44.5760985874
 20
23.1012693073
 10
44.6391229599
 20
23.0904407128
 10
44.7022485445
 20
23.07645338
 10
44.7648682464
 20
23.059211415
 10
44.8270886005
 20
23.0386008559
 10
44.888803072
 20
23.0147355464
 10
44.9490849617
 20
22.9878612907
 10
45.0078604952
 20
22.9578939809
 10
45.0652034469
 20
22.9249175634
 10
45.1204084412
 20
22.8894299332
 10
45.1734055531
 20
22.8513651828
 10
45.2242647076
 20
22.8107890491
 10
45.2724903035
 20
22.7683969267
 10
45.3179171406
 20
22.7244205793
 10
45.3607104192
 20
22.6786281106
 10
45.4008701393
 20
22.6310194482
  0
LINE
  5
2DB
100
AcDbEntity
  8
RACCORDO
100
AcDbLine
 62
253
  6
CONTINUOUS
 10
71.1066450886
 20
-44.8340076387
 11
71.2699743099
 21
-45.0
  0
LINE
  5
2DC
100
AcDbEntity
  8
RACCORDO
100
AcDbLine
 62
253
  6
CONTINUOUS
 10
72.0948916333
 20
-43.8457940385
 11
72.2499996007
 21
-44.0035192549
  0
LWPOLYLINE
  5
2DD
100
AcDbEntity
  8
RACCORDO
100
AcDbPolyline
 62
7
  6
CONTINUOUS
 90
28
 70
0
 10
45.1000000304
 20
21.7011338162
 10
45.0986695732
 20
21.7474146265
 10
45.0946668598
 20
21.7933561928
 10
45.0879918902
 20
21.8389585196
 10
45.0785926175
 20
21.8844361711
 10
45.0665210886
 20
21.9295745902
 10
45.0519334442
 20
21.9737301092
 10
45.0348306183
 20
22.0167940154
 10
45.0152116769
 20
22.0588750501
 10
44.9932299584
 20
22.0996557395
 10
44.968882805
 20
22.1391393267
 10
44.9421728746
 20
22.1773226025
 10
44.9132614786
 20
22.2138784232
 10
44.882016258
 20
22.2488849256
 10
44.8485695718
 20
22.2822640107
 10
44.8134798093
 20
22.3134541894
 10
44.7768202151
 20
22.3423254517
 10
44.7385175445
 20
22.3690078521
 10
44.698910453
 20
22.3933300047
 10
44.6580045618
 20
22.415285691
 10
44.6157942496
 20
22.4348811659
 10
44.5726013079
 20
22.4519637532
 10
44.5283265966
 20
22.4665338264
 10
44.4830692557
 20
22.4785910386
 10
44.4374484968
 20
22.4879816317
 10
44.3916707237
 20
22.4946543579
 10
44.3455295326
 20
22.4986604795
 10
44.2990249234
 20
22.5
  0
LINE
  5
2DE
100
AcDbEntity
  8
RACCORDO
100
AcDbLine
 62
253
  6
CONTINUOUS
 10
44.3882398365
 20
23.1148987905
 11
44.3882398366
 21
22.5889882007
  0
LINE
  5
2DF
100
AcDbEntity
  8
RACCORDO
100
AcDbLine
 62
253
  6
CONTINUOUS
 10
44.3882398365
 20
-23.1148987905
 11
44.3882398365
 21
-22.5889882007
  0
LINE
  5
2E0
100
AcDbEntity
  8
RACCORDO
100
AcDbLine
 62
7
  6
CONTINUOUS
 10
45.1000000304
 20
-21.7011338162
 11
45.1000000304
 21
21.7011338162
  0
LINE
  5
2E1
100
AcDbEntity
  8
RACCORDO
100
AcDbLine
 62
253
  6
CONTINUOUS
 10
45.1905731942
 20
21.7915025806
 11
45.1905731786
 21
-21.791478323
  0
LINE
  5
2E2
100
AcDbEntity
  8
RACCORDO
100
AcDbLine
 62
253
  6
CONTINUOUS
 10
45.6898863164
 20
21.8144316658
 11
45.6898863164
 21
-21.8144316658
  0
LWPOLYLINE
  5
2E3
100
AcDbEntity
  8
RACCORDO
100
AcDbPolyline
 62
253
  6
CONTINUOUS
 90
13
 70
0
 10
45.6898863164
 20
-21.8144316658
 10
45.6880960837
 20
-21.8858793997
 10
45.6821468697
 20
-21.9573807282
 10
45.6720386743
 20
-22.0289356482
 10
45.6577556229
 20
-22.1009480075
 10
45.6393135903
 20
-22.1730139457
 10
45.6167602004
 20
-22.2439219269
 10
45.5899011972
 20
-22.3136982137
 10
45.5589308369
 20
-22.3823165933
 10
45.5244795117
 20
-22.4484868739
 10
45.4867573524
 20
-22.5117790389
 10
45.4455542283
 20
-22.5726232141
 10
45.4008701393
 20
-22.6310194482
  0
LWPOLYLINE
  5
2E4
100
AcDbEntity
  8
RACCORDO
100
AcDbPolyline
 62
253
  6
CONTINUOUS
 90
13
 70
0
 10
45.1905731695
 20
-21.791478314
 10
45.1893770782
 20
-21.8351950726
 10
45.1857316239
 20
-21.8792128622
 10
45.1795752397
 20
-21.923391338
 10
45.1708338934
 20
-21.9676721977
 10
45.1594723185
 20
-22.0118087413
 10
45.1455453026
 20
-22.0553790931
 10
45.1290537098
 20
-22.0982721402
 10
45.1100379978
 20
-22.1402935786
 10
45.0887357052
 20
-22.1809366462
 10
45.0653271949
 20
-22.2199718949
 10
45.0398636444
 20
-22.2574153782
 10
45.0124604562
 20
-22.2931695584
  0
LWPOLYLINE
  5
2E5
100
AcDbEntity
  8
RACCORDO
100
AcDbPolyline
 62
253
  6
CONTINUOUS
 90
16
 70
0
 10
45.4008701393
 20
-22.6310194482
 10
45.3505262154
 20
-22.6897330709
 10
45.297046493
 20
-22.7450967429
 10
45.240430972
 20
-22.7971106279
 10
45.1804523783
 20
-22.8459696592
 10
45.1173379862
 20
-22.8914792005
 10
45.0517696181
 20
-22.933055073
 10
44.9836617418
 20
-22.9706523064
 10
44.9130998895
 20
-23.00431616
 10
44.8410224815
 20
-23.0335978182
 10
44.7673855973
 20
-23.0584022221
 10
44.6922331574
 20
-23.0788246559
 10
44.6166353432
 20
-23.09470181
 10
44.5409488819
 20
-23.1059792884
 10
44.4648170463
 20
-23.1127116055
 10
44.3882398365
 20
-23.1148987905
  0
LWPOLYLINE
  5
2E6
100
AcDbEntity
  8
RACCORDO
100
AcDbPolyline
 62
253
  6
CONTINUOUS
 90
16
 70
0
 10
45.0124604562
 20
-22.2931695584
 10
44.9815162833
 20
-22.3290319096
 10
44.9484423563
 20
-22.3630507803
 10
44.913345889
 20
-22.3950976714
 10
44.8763413755
 20
-22.4250493663
 10
44.8375522146
 20
-22.4527908018
 10
44.7971103079
 20
-22.478215504
 10
44.755112429
 20
-22.5012424181
 10
44.7117394546
 20
-22.5217530697
 10
44.667269326
 20
-22.5396183739
 10
44.6218600526
 20
-22.5547860446
 10
44.5756811236
 20
-22.5672105208
 10
44.5290482996
 20
-22.5768349611
 10
44.4821831563
 20
-22.5836571171
 10
44.4352047355
 20
-22.5877005909
 10
44.3882778863
 20
-22.5889882642
  0
LWPOLYLINE
  5
2E7
100
AcDbEntity
  8
RACCORDO
100
AcDbPolyline
 62
253
  6
CONTINUOUS
 90
28
 70
0
 10
-71.1066450886
 20
44.8340076387
 10
-71.1637447525
 20
44.8321493719
 10
-71.2205834619
 20
44.8270088139
 10
-71.2769768705
 20
44.8186092666
 10
-71.3327153883
 20
44.8069910442
 10
-71.3876469904
 20
44.7921945993
 10
-71.4416737481
 20
44.7742449729
 10
-71.4946551885
 20
44.7531759451
 10
-71.5463760028
 20
44.7290606579
 10
-71.5966292175
 20
44.701990962
 10
-71.6452330657
 20
44.6720637266
 10
-71.6920450514
 20
44.6393668152
 10
-71.7369259381
 20
44.6039963408
 10
-71.779727548
 20
44.5660611712
 10
-71.8203037265
 20
44.5256836327
 10
-71.8585252883
 20
44.4829894899
 10
-71.8942613472
 20
44.4381134444
 10
-71.9273891772
 20
44.3911985155
 10
-71.9578015314
 20
44.3423925188
 10
-71.9853927423
 20
44.2918468391
 10
-72.0100622823
 20
44.2397271833
 10
-72.0317238669
 20
44.1862118502
 10
-72.0502974199
 20
44.1314774343
 10
-72.0657160486
 20
44.0756977734
 10
-72.0779280287
 20
44.0190538877
 10
-72.0868863715
 20
43.9617300776
 10
-72.0925501543
 20
43.9039136401
 10
-72.0948916334
 20
43.8457940386
  0
LWPOLYLINE
  5
2E8
100
AcDbEntity
  8
RACCORDO
100
AcDbPolyline
 62
253
  6
CONTINUOUS
 90
28
 70
0
 10
-71.1066450886
 20
44.4263792099
 10
-71.1353531406
 20
44.4255286782
 10
-71.1637533943
 20
44.4230423958
 10
-71.1918458497
 20
44.4189203492
 10
-71.2197148026
 20
44.4131424313
 10
-71.2472759571
 20
44.4057286944
 10
-71.2742764262
 20
44.3967393517
 10
-71.3007224648
 20
44.3861550012
 10
-71.3266078181
 20
44.3739949408
 10
-71.3516608342
 20
44.360377428
 10
-71.3758656889
 20
44.3452911537
 10
-71.3992382064
 20
44.3287472864
 10
-71.4215542076
 20
44.3108978014
 10
-71.4428064329
 20
44.2917290081
 10
-71.4630021419
 20
44.2712544351
 10
-71.4819389347
 20
44.2496668996
 10
-71.499605913
 20
44.2269535946
 10
-71.5160139753
 20
44.2031271626
 10
-71.5309934169
 20
44.1784186206
 10
-71.5445299508
 20
44.1528183786
 10
-71.556637864
 20
44.1263358795
 10
-71.567190314
 20
44.0992307278
 10
-71.5761720237
 20
44.0714872154
 10
-71.5835982701
 20
44.0431209377
 10
-71.5893880409
 20
44.0144385042
 10
-71.5935143322
 20
43.9855421118
 10
-71.5960041479
 20
43.9563295117
 10
-71.596857488
 20
43.9268006745
  0
LWPOLYLINE
  5
2E9
100
AcDbEntity
  8
RACCORDO
100
AcDbPolyline
 62
253
  6
CONTINUOUS
 90
19
 70
0
 10
-71.596857488
 20
43.926800663
 10
-71.6379801891
 20
43.9265061011
 10
-71.6788242517
 20
43.9256106825
 10
-71.7191129252
 20
43.9241204745
 10
-71.7585732223
 20
43.9220455743
 10
-71.7969377684
 20
43.919400041
 10
-71.8339466137
 20
43.9162018003
 10
-71.8693489944
 20
43.9124725226
 10
-71.9029050313
 20
43.9082374769
 10
-71.9343873562
 20
43.9035253587
 10
-71.9635826516
 20
43.8983680965
 10
-71.9902930964
 20
43.8928006347
 10
-72.0143377064
 20
43.8868606972
 10
-72.0355535605
 20
43.8805885318
 10
-72.0537969048
 20
43.8740266374
 10
-72.0689441262
 20
43.8672194758
 10
-72.0808925904
 20
43.8602131709
 10
-72.0895613373
 20
43.8530551961
 10
-72.0948916292
 20
43.8457940521
  0
LINE
  5
2EA
100
AcDbEntity
  8
RACCORDO
100
AcDbLine
 62
253
  6
CONTINUOUS
 10
71.1066450886
 20
44.4263792099
 11
-71.1066450886
 21
44.4263792099
  0
LINE
  5
2EB
100
AcDbEntity
  8
RACCORDO
100
AcDbLine
 62
253
  6
CONTINUOUS
 10
71.1066450886
 20
44.8340076387
 11
-71.1066450886
 21
44.8340076387
  0
LINE
  5
2EC
100
AcDbEntity
  8
RACCORDO
100
AcDbLine
 62
7
  6
CONTINUOUS
 10
71.2699743099
 20
45.0
 11
-71.2699743099
 21
45.0
  0
LWPOLYLINE
  5
2ED
100
AcDbEntity
  8
RACCORDO
100
AcDbPolyline
 62
253
  6
CONTINUOUS
 90
19
 70
0
 10
71.596857488
 20
43.9268006691
 10
71.637979849
 20
43.92650608
 10
71.6788235498
 20
43.9256106375
 10
71.7191118448
 20
43.9241204087
 10
71.7585717519
 20
43.9220454911
 10
71.7969359014
 20
43.9193999435
 10
71.8339443488
 20
43.9162016915
 10
71.8693463348
 20
43.9124724056
 10
71.9029019857
 20
43.9082373542
 10
71.9343839375
 20
43.9035252331
 10
71.9635788772
 20
43.8983679701
 10
71.9902889882
 20
43.8928005095
 10
72.01433329
 20
43.886860575
 10
72.0355488652
 20
43.880588414
 10
72.0537919629
 20
43.8740265248
 10
72.068938973
 20
43.8672193692
 10
72.0808872634
 20
43.8602130706
 10
72.089555876
 20
43.8530551018
 10
72.0948860746
 20
43.8457939633
  0
LWPOLYLINE
  5
2EE
100
AcDbEntity
  8
RACCORDO
100
AcDbPolyline
 62
7
  6
CONTINUOUS
 90
28
 70
0
 10
71.2699743099
 20
45.0
 10
71.3264796275
 20
44.9983984097
 10
71.3825279765
 20
44.9935696001
 10
71.4381193568
 20
44.985513516
 10
71.4934996027
 20
44.9741734187
 10
71.5484228799
 20
44.9596058251
 10
71.6021516857
 20
44.9419805178
 10
71.6545601789
 20
44.9213008268
 10
71.7057742006
 20
44.8975630105
 10
71.7554337718
 20
44.8709262165
 10
71.8035341419
 20
44.8414026277
 10
71.8500800615
 20
44.8089794921
 10
71.894725804
 20
44.7737785384
 10
71.9375837275
 20
44.7356410578
 10
71.978541474
 20
44.6947250367
 10
72.016916242
 20
44.6516273066
 10
72.0525704216
 20
44.6064154248
 10
72.0856416227
 20
44.5590211768
 10
72.1158598742
 20
44.5098378632
 10
72.1432104307
 20
44.4588949527
 10
72.1677080375
 20
44.4061623695
 10
72.1891269589
 20
44.3519442023
 10
72.2074859133
 20
44.2960644203
 10
72.2227661823
 20
44.2386984821
 10
72.2346858746
 20
44.1806779204
 10
72.2431510266
 20
44.1222799043
 10
72.248255602
 20
44.063227057
 10
72.2499996007
 20
44.0035192549
  0
LWPOLYLINE
  5
2EF
100
AcDbEntity
  8
RACCORDO
100
AcDbPolyline
 62
253
  6
CONTINUOUS
 90
13
 70
0
 10
45.0124604562
 20
22.2931695584
 10
45.0396570916
 20
22.2577012617
 10
45.0649747533
 20
22.2205228219
 10
45.0882926682
 20
22.1817246482
 10
45.1095465832
 20
22.1412989693
 10
45.1285580167
 20
22.0994554024
 10
45.1450975047
 20
22.0566490021
 10
45.1591180459
 20
22.0130339616
 10
45.1705886139
 20
21.9687488509
 10
45.1794275683
 20
21.9242670198
 10
45.1856602311
 20
21.8798540396
 10
45.1893573464
 20
21.8355517292
 10
45.1905731626
 20
21.7915025498
  0
LWPOLYLINE
  5
2F0
100
AcDbEntity
  8
RACCORDO
100
AcDbPolyline
 62
253
  6
CONTINUOUS
 90
13
 70
0
 10
45.4008701393
 20
22.6310194482
 10
45.4452101593
 20
22.5731452066
 10
45.4861548599
 20
22.5127619778
 10
45.5237042411
 20
22.449869712
 10
45.5580779375
 20
22.3840713952
 10
45.5890563145
 20
22.3157639309
 10
45.6159804685
 20
22.2461381702
 10
45.6386745647
 20
22.1751706289
 10
45.657314438
 20
22.1028847331
 10
45.6717686897
 20
22.0305417553
 10
45.6819935202
 20
21.958562133
 10
45.6880327291
 20
21.8865254363
 10
45.6898863164
 20
21.8144316658
  0
LWPOLYLINE
  5
2F1
100
AcDbEntity
  8
RACCORDO
100
AcDbPolyline
 62
253
  6
CONTINUOUS
 90
28
 70
0
 10
71.596857488
 20
43.9268006745
 10
71.5959972074
 20
43.9563518857
 10
71.5935067232
 20
43.9855678874
 10
71.5893860354
 20
44.0144487109
 10
71.5836109048
 20
44.0430846235
 10
71.5762055706
 20
44.0713854142
 10
71.5672427503
 20
44.0990804217
 10
71.5567030812
 20
44.1261719681
 10
71.5446059261
 20
44.1526578398
 10
71.5310820903
 20
44.1782606199
 10
71.5161203156
 20
44.2029629192
 10
71.4997318603
 20
44.2267822746
 10
71.4820813049
 20
44.2494936973
 10
71.4631566167
 20
44.2710873732
 10
71.4429698283
 20
44.2915732801
 10
71.4217216187
 20
44.3107561426
 10
71.3994020633
 20
44.3286233086
 10
71.3760210866
 20
44.3451875919
 10
71.3518091408
 20
44.3602919299
 10
71.3267585841
 20
44.3739219713
 10
71.3008770583
 20
44.3860922083
 10
71.274417941
 20
44.3966888465
 10
71.2473692277
 20
44.4056969079
 10
71.2197429228
 20
44.4131314744
 10
71.1918284174
 20
44.4189238353
 10
71.163722175
 20
44.4230511061
 10
71.1353277321
 20
44.4255362264
 10
71.1066450886
 20
44.4263792099
  0
LINE
  5
2F2
100
AcDbEntity
  8
RACCORDO
100
AcDbLine
 62
253
  6
CONTINUOUS
 10
71.1066450886
 20
-44.4263792099
 11
71.1066450889
 21
-44.8340076387
  0
LINE
  5
2F3
100
AcDbEntity
  8
RACCORDO
100
AcDbLine
 62
253
  6
CONTINUOUS
 10
71.1066450886
 20
44.4263792099
 11
71.1066450886
 21
44.8340076387
  0
LINE
  5
2F4
100
AcDbEntity
  8
RACCORDO
100
AcDbLine
 62
253
  6
CONTINUOUS
 10
71.5981971776
 20
34.5017285393
 11
71.596857488
 21
43.9268006745
  0
LINE
  5
2F5
100
AcDbEntity
  8
RACCORDO
100
AcDbLine
 62
253
  6
CONTINUOUS
 10
72.0962670871
 20
34.446380284
 11
72.0948916333
 21
43.845794038
  0
LINE
  5
2F6
100
AcDbEntity
  8
RACCORDO
100
AcDbLine
 62
7
  6
CONTINUOUS
 10
72.2499996007
 20
44.0035192549
 11
72.25
 21
22.5203789087
  0
LINE
  5
2F7
100
AcDbEntity
  8
DRAFT
100
AcDbLine
 62
7
  6
CONTINUOUS
 10
72.25
 20
22.5203789087
 11
72.25
 21
-22.5203789087
  0
LINE
  5
2F8
100
AcDbEntity
  8
RACCORDO
100
AcDbLine
 62
7
  6
CONTINUOUS
 10
72.25
 20
-22.5203789087
 11
72.2499996007
 21
-44.0035192549
  0
LINE
  5
2F9
100
AcDbEntity
  8
RACCORDO
100
AcDbLine
 62
253
  6
CONTINUOUS
 10
71.596857488
 20
-43.9268006745
 11
71.5981971776
 21
34.5017285393
  0
LINE
  5
2FA
100
AcDbEntity
  8
RACCORDO
100
AcDbLine
 62
253
  6
CONTINUOUS
 10
72.0948916333
 20
-43.8457940385
 11
72.0962670871
 21
34.446380284
  0
LWPOLYLINE
  5
2FB
100
AcDbEntity
  8
RACCORDO
100
AcDbPolyline
 62
253
  6
CONTINUOUS
 90
28
 70
0
 10
72.0948916334
 20
43.8457940382
 10
72.0925507296
 20
43.9039047161
 10
72.0868913919
 20
43.9616903536
 10
72.0779450976
 20
44.0189621801
 10
72.0657610321
 20
44.0755152838
 10
72.0503871632
 20
44.1311862319
 10
72.0318583161
 20
44.1858503528
 10
72.0102224396
 20
44.2393619303
 10
71.9855633178
 20
44.2915114641
 10
71.9579810534
 20
44.3420846172
 10
71.9275841457
 20
44.3909042618
 10
71.8944724219
 20
44.4378314313
 10
71.8587517164
 20
44.4827206664
 10
71.8205439738
 20
44.525429701
 10
71.7799806739
 20
44.5658228843
 10
71.7371913376
 20
44.6037740409
 10
71.6923213632
 20
44.639161417
 10
71.6455196596
 20
44.671875489
 10
71.5969284118
 20
44.7018184359
 10
71.5467033705
 20
44.7288964631
 10
71.4950142425
 20
44.7530212018
 10
71.4420303676
 20
44.774115063
 10
71.3879333701
 20
44.7921085058
 10
71.3328928168
 20
44.8069486365
 10
71.2770638833
 20
44.8185937441
 10
71.2206196489
 20
44.827004556
 10
71.1637517301
 20
44.8321490217
 10
71.1066450886
 20
44.8340076387
  0
LWPOLYLINE
  5
2FC
100
AcDbEntity
  8
RACCORDO
100
AcDbPolyline
 62
7
  6
CONTINUOUS
 90
28
 70
0
 10
72.2499996007
 20
-44.0035192549
 10
72.2482508474
 20
-44.0632408899
 10
72.24314613
 20
-44.1222945497
 10
72.2346854486
 20
-44.1806803605
 10
72.2227769011
 20
-44.2386673129
 10
72.2075123896
 20
-44.2959866303
 10
72.1891676206
 20
-44.3518319449
 10
72.1677594647
 20
-44.406038978
 10
72.1432710513
 20
-44.4587725744
 10
72.1159274749
 20
-44.5097202574
 10
72.0857124582
 20
-44.5589113297
 10
72.0526422785
 20
-44.6063170948
 10
72.0169908621
 20
-44.6515381854
 10
71.9786215913
 20
-44.6946403706
 10
71.9376710837
 20
-44.7355585396
 10
71.8948231187
 20
-44.7736971332
 10
71.8501944544
 20
-44.8088965316
 10
71.8036683327
 20
-44.8413170774
 10
71.7555782576
 20
-44.8708432141
 10
71.7059155216
 20
-44.8974915601
 10
71.6546888324
 20
-44.9212460649
 10
71.6022578166
 20
-44.9419421516
 10
71.5484877502
 20
-44.9595833458
 10
71.4935133572
 20
-44.9741665338
 10
71.4380984368
 20
-44.9855171539
 10
71.3824975887
 20
-44.9935770964
 10
71.326456213
 20
-44.9984046934
 10
71.2699743099
 20
-45.0
  0
LINE
  5
2FD
100
AcDbEntity
  8
RACCORDO
100
AcDbLine
 62
7
  6
CONTINUOUS
 10
112.5092473456
 20
-44.8340076387
 11
110.611945974
 21
-45.0
  0
LINE
  5
2FE
100
AcDbEntity
  8
RACCORDO
100
AcDbLine
 62
253
  6
CONTINUOUS
 10
112.6000925068
 20
-43.845794038
 11
110.7982887635
 21
-44.0035192549
  0
LINE
  5
2FF
100
AcDbEntity
  8
0
100
AcDbLine
 62
7
  6
CONTINUOUS
 10
110.1041087818
 20
-43.7
 11
110.1102524886
 21
-43.7
  0
LINE
  5
300
100
AcDbEntity
  8
SUPERFICI
100
AcDbLine
 62
7
  6
CONTINUOUS
 10
110.1040209414
 20
-43.6999953961
 11
110.1041087818
 21
-43.7
  0
LINE
  5
301
100
AcDbEntity
  8
RACCORDO
100
AcDbLine
 62
7
  6
CONTINUOUS
 10
109.7776226915
 20
-43.6781815943
 11
110.1041087818
 21
-43.7
  0
LWPOLYLINE
  5
302
100
AcDbEntity
  8
RACCORDO
100
AcDbPolyline
 62
253
  6
CONTINUOUS
 90
26
 70
0
 10
110.4625356546
 20
-44.6460554293
 10
110.4631158136
 20
-44.6461043983
 10
110.4637319605
 20
-44.6459410115
 10
110.4643885301
 20
-44.6455416885
 10
110.4650908119
 20
-44.6448820385
 10
110.4658427946
 20
-44.6439371059
 10
110.4666470065
 20
-44.6426822141
 10
110.4675089882
 20
-44.6410922881
 10
110.4684335937
 20
-44.6391370449
 10
110.4694225441
 20
-44.6367828034
 10
110.4704821574
 20
-44.6339955593
 10
110.4716187707
 20
-44.6307418183
 10
110.4728342218
 20
-44.6269881471
 10
110.4741335567
 20
-44.6227061534
 10
110.4755231731
 20
-44.6178629016
 10
110.4770066964
 20
-44.6124193272
 10
110.4785899931
 20
-44.6063449797
 10
110.48027834
 20
-44.5996102842
 10
110.4820752248
 20
-44.5921734272
 10
110.4839871911
 20
-44.5840008248
 10
110.4860179835
 20
-44.5750701148
 10
110.488168607
 20
-44.56534703
 10
110.4904467858
 20
-44.5547907668
 10
110.4928591291
 20
-44.5433640349
 10
110.4954062445
 20
-44.5310308302
 10
110.5009315441
 20
-44.5034989207
  0
LINE
  5
303
100
AcDbEntity
  8
RACCORDO
100
AcDbLine
 62
7
  6
CONTINUOUS
 10
110.0863322793
 20
-43.6981857106
 11
110.1041087818
 21
-43.7
  0
LINE
  5
304
100
AcDbEntity
  8
RACCORDO
100
AcDbLine
 62
253
  6
CONTINUOUS
 10
109.871937495
 20
-43.6650910758
 11
110.1177389022
 21
-43.6909911438
  0
LINE
  5
305
100
AcDbEntity
  8
RACCORDO
100
AcDbLine
 62
253
  6
CONTINUOUS
 10
110.0863322793
 20
-43.6981857106
 11
110.1102524886
 21
-43.7
  0
LINE
  5
306
100
AcDbEntity
  8
RACCORDO
100
AcDbLine
 62
253
  6
CONTINUOUS
 10
109.8593818223
 20
-43.6734849269
 11
109.8651124629
 21
-43.6734488016
  0
LINE
  5
307
100
AcDbEntity
  8
RACCORDO
100
AcDbLine
 62
253
  6
CONTINUOUS
 10
110.464882477
 20
-43.9488822438
 11
110.5082161006
 21
-43.9544770889
  0
LINE
  5
308
100
AcDbEntity
  8
RACCORDO
100
AcDbLine
 62
253
  6
CONTINUOUS
 10
110.5082161006
 20
-43.9544770889
 11
110.5913182556
 21
-43.9654749919
  0
LINE
  5
309
100
AcDbEntity
  8
RACCORDO
100
AcDbLine
 62
253
  6
CONTINUOUS
 10
109.6144011355
 20
-43.6436057502
 11
109.6196933921
 21
-43.6435388973
  0
LINE
  5
30A
100
AcDbEntity
  8
RACCORDO
100
AcDbLine
 62
253
  6
CONTINUOUS
 10
109.3693755896
 20
-43.6103508092
 11
109.3742039907
 21
-43.6102576721
  0
LINE
  5
30B
100
AcDbEntity
  8
RACCORDO
100
AcDbLine
 62
253
  6
CONTINUOUS
 10
109.124319996
 20
-43.5736777216
 11
109.1286546979
 21
-43.5735611627
  0
LINE
  5
30C
100
AcDbEntity
  8
RACCORDO
100
AcDbLine
 62
253
  6
CONTINUOUS
 10
108.8796521591
 20
-43.5336013053
 11
108.8834677549
 21
-43.5334637774
  0
LINE
  5
30D
100
AcDbEntity
  8
RACCORDO
100
AcDbLine
 62
253
  6
CONTINUOUS
 10
110.479999751
 20
-43.8679120799
 11
110.6031100106
 21
-43.8904819762
  0
LINE
  5
30E
100
AcDbEntity
  8
RACCORDO
100
AcDbLine
 62
253
  6
CONTINUOUS
 10
110.7982887214
 20
-44.0035194839
 11
110.5913177316
 21
-43.9654787046
  0
LINE
  5
30F
100
AcDbEntity
  8
RACCORDO
100
AcDbLine
 62
253
  6
CONTINUOUS
 10
108.6361821257
 20
-43.4902200147
 11
108.6394662516
 21
-43.4900652056
  0
LINE
  5
310
100
AcDbEntity
  8
RACCORDO
100
AcDbLine
 62
7
  6
CONTINUOUS
 10
110.6687145734
 20
-44.7
 11
110.4625359603
 21
-44.6460555093
  0
LINE
  5
311
100
AcDbEntity
  8
RACCORDO
100
AcDbLine
 62
253
  6
CONTINUOUS
 10
110.4453755343
 20
44.6404374112
 11
110.4625356546
 21
44.6460554293
  0
LWPOLYLINE
  5
312
100
AcDbEntity
  8
RACCORDO
100
AcDbPolyline
 62
7
  6
CONTINUOUS
 90
9
 70
0
 10
107.2082874346
 20
43.1690345982
 10
107.5215859581
 20
43.2645321701
 10
107.8377649882
 20
43.3510872522
 10
108.1565673545
 20
43.4286254954
 10
108.4779451565
 20
43.4971140134
 10
108.801430093
 20
43.5564240455
 10
109.1261223714
 20
43.6063914384
 10
109.4515385645
 20
43.646972116
 10
109.7776226916
 20
43.6781815943
  0
LWPOLYLINE
  5
313
100
AcDbEntity
  8
0
100
AcDbPolyline
 62
7
  6
CONTINUOUS
 90
7
 70
0
 10
110.1102524886
 20
-43.7
 10
110.1114603754
 20
-43.6997579492
 10
110.1126785041
 20
-43.6990253395
 10
110.1139110454
 20
-43.6977923394
 10
110.1151623061
 20
-43.6960490152
 10
110.1164367305
 20
-43.6937853302
 10
110.1177389024
 20
-43.6909911438
  0
LWPOLYLINE
  5
314
100
AcDbEntity
  8
RACCORDO
100
AcDbPolyline
 62
253
  6
CONTINUOUS
 90
4
 70
0
 10
106.9998671609
 20
-42.6387628281
 10
107.001388826
 20
-42.6386343222
 10
107.005938403
 20
-42.63850712
 10
107.0134697387
 20
-42.6383825117
  0
LINE
  5
315
100
AcDbEntity
  8
RACCORDO
100
AcDbLine
 62
253
  6
CONTINUOUS
 10
107.0134697387
 20
-42.6383825117
 11
107.0371426061
 21
-42.6381460945
  0
LINE
  5
316
100
AcDbEntity
  8
RACCORDO
100
AcDbLine
 62
253
  6
CONTINUOUS
 10
107.0371426061
 20
-42.6381460945
 11
107.1397059566
 21
-42.6376826214
  0
LINE
  5
317
100
AcDbEntity
  8
RACCORDO
100
AcDbLine
 62
253
  6
CONTINUOUS
 10
107.1397059566
 20
-42.6376826214
 11
107.1937227174
 21
-42.6375679674
  0
LWPOLYLINE
  5
318
100
AcDbEntity
  8
RACCORDO
100
AcDbPolyline
 62
253
  6
CONTINUOUS
 90
13
 70
0
 10
107.1937227186
 20
-42.6375679674
 10
107.4335678014
 20
-42.6807370707
 10
107.6765588556
 20
-42.720873222
 10
107.9224992651
 20
-42.757937431
 10
108.1713558679
 20
-42.7919118971
 10
108.4227646988
 20
-42.8227313712
 10
108.676017656
 20
-42.8503045052
 10
108.930887543
 20
-42.8746096493
 10
109.1871711762
 20
-42.8956276066
 10
109.4441773745
 20
-42.9133082039
 10
109.7015271946
 20
-42.9276415592
 10
109.9591623485
 20
-42.9386378242
 10
110.2168690699
 20
-42.9462954714
  0
LINE
  5
319
100
AcDbEntity
  8
RACCORDO
100
AcDbLine
 62
253
  6
CONTINUOUS
 10
113.0485405088
 20
-43.9268006691
 11
112.6000920182
 21
-43.8457939633
  0
LWPOLYLINE
  5
31A
100
AcDbEntity
  8
RACCORDO
100
AcDbPolyline
 62
253
  6
CONTINUOUS
 90
13
 70
0
 10
107.1769302442
 20
-42.8607687277
 10
107.415727761
 20
-42.906750452
 10
107.657718505
 20
-42.9496559657
 10
107.9027016889
 20
-42.9894455092
 10
108.1506564186
 20
-43.0261046689
 10
108.4011983445
 20
-43.0595627388
 10
108.6535646847
 20
-43.0897166445
 10
108.9075255873
 20
-43.116546456
 10
109.1628698025
 20
-43.1400343317
 10
109.4188411833
 20
-43.1601228588
 10
109.6750352742
 20
-43.1768038373
 10
109.9314089659
 20
-43.1900950547
 10
110.1877444045
 20
-43.1999994174
  0
LINE
  5
31B
100
AcDbEntity
  8
RACCORDO
100
AcDbLine
 62
253
  6
CONTINUOUS
 10
108.3941086675
 20
-43.4435442033
 11
108.3968491579
 21
-43.4433753224
  0
LINE
  5
31C
100
AcDbEntity
  8
RACCORDO
100
AcDbLine
 62
253
  6
CONTINUOUS
 10
108.1536619485
 20
-43.3935899395
 11
108.1558466161
 21
-43.3934096614
  0
LWPOLYLINE
  5
31D
100
AcDbEntity
  8
RACCORDO
100
AcDbPolyline
 62
253
  6
CONTINUOUS
 90
12
 70
0
 10
107.2180920869
 20
-43.1618163141
 10
107.4485067634
 20
-43.2232856374
 10
107.6819922514
 20
-43.2817637249
 10
107.9183550074
 20
-43.3372118617
 10
108.1576215456
 20
-43.3896380627
 10
108.3993755665
 20
-43.4389501614
 10
108.642739727
 20
-43.4849854916
 10
108.8874763075
 20
-43.527727619
 10
109.1333930574
 20
-43.5671682665
 10
109.3796564136
 20
-43.6032084648
 10
109.6258403508
 20
-43.6358345873
 10
109.871937495
 20
-43.6650910758
  0
LWPOLYLINE
  5
31E
100
AcDbEntity
  8
RACCORDO
100
AcDbPolyline
 62
7
  6
CONTINUOUS
 90
13
 70
0
 10
107.2190573346
 20
-43.1631009655
 10
107.4482821335
 20
-43.2252531921
 10
107.6805530837
 20
-43.2844033158
 10
107.9156758685
 20
-43.3405133834
 10
108.1536619485
 20
-43.3935899395
 10
108.3941086675
 20
-43.4435442033
 10
108.6361821257
 20
-43.4902200147
 10
108.8796521591
 20
-43.5336013053
 10
109.124319996
 20
-43.5736777216
 10
109.3693755896
 20
-43.6103508092
 10
109.6144011355
 20
-43.6436057502
 10
109.8593818223
 20
-43.6734849269
 10
110.0863322793
 20
-43.6981857106
  0
LWPOLYLINE
  5
31F
100
AcDbEntity
  8
RACCORDO
100
AcDbPolyline
 62
7
  6
CONTINUOUS
 90
9
 70
0
 10
107.2082874346
 20
-43.1690345982
 10
107.5215859581
 20
-43.2645321701
 10
107.8377649881
 20
-43.3510872522
 10
108.1565673544
 20
-43.4286254954
 10
108.4779451564
 20
-43.4971140134
 10
108.8014300929
 20
-43.5564240454
 10
109.1261223713
 20
-43.6063914384
 10
109.4515385644
 20
-43.646972116
 10
109.7776226915
 20
-43.6781815943
  0
LINE
  5
320
100
AcDbEntity
  8
RACCORDO
100
AcDbLine
 62
253
  6
CONTINUOUS
 10
110.445375564
 20
-44.6404372979
 11
110.4625356885
 21
-44.6460552999
  0
LWPOLYLINE
  5
321
100
AcDbEntity
  8
RACCORDO
100
AcDbPolyline
 62
253
  6
CONTINUOUS
 90
39
 70
0
 10
107.2180920869
 20
-43.1618163141
 10
107.2150693107
 20
-43.1604730396
 10
107.2121593464
 20
-43.1587146828
 10
107.2093621256
 20
-43.1565402727
 10
107.2066773369
 20
-43.1539462884
 10
107.2041051974
 20
-43.1509332481
 10
107.2016464399
 20
-43.1475109431
 10
107.1993030309
 20
-43.1436850008
 10
107.197072969
 20
-43.1394574171
 10
107.194951033
 20
-43.1348401193
 10
107.1929372541
 20
-43.1298409854
 10
107.1910316209
 20
-43.1244650521
 10
107.1892288422
 20
-43.1187244777
 10
107.1875303294
 20
-43.1126317357
 10
107.185934745
 20
-43.1061901839
 10
107.1844326658
 20
-43.0993987509
 10
107.183018178
 20
-43.092260996
 10
107.1816972946
 20
-43.0847856741
 10
107.1804784985
 20
-43.0769778239
 10
107.1793622161
 20
-43.0688352515
 10
107.1783481199
 20
-43.0603717808
 10
107.1774434127
 20
-43.0516214986
 10
107.1766536888
 20
-43.042608764
 10
107.1759729366
 20
-43.0333364942
 10
107.1753909339
 20
-43.0238088462
 10
107.1749073875
 20
-43.0140324597
 10
107.1745222215
 20
-43.0040242404
 10
107.1742255226
 20
-42.9938037307
 10
107.1740160651
 20
-42.9833808983
 10
107.1738947347
 20
-42.9727699111
 10
107.1738547833
 20
-42.9619983555
 10
107.1738956126
 20
-42.9510775459
 10
107.1740175194
 20
-42.9400210385
 10
107.1742151184
 20
-42.9288618249
 10
107.1744881357
 20
-42.9176101883
 10
107.1748365924
 20
-42.9062810279
 10
107.175255591
 20
-42.8949164473
 10
107.1757434552
 20
-42.8835396077
 10
107.1763016988
 20
-42.8721530649
  0
LWPOLYLINE
  5
322
100
AcDbEntity
  8
RACCORDO
100
AcDbPolyline
 62
253
  6
CONTINUOUS
 90
7
 70
0
 10
107.2190313394
 20
-43.1629235081
 10
107.2187655055
 20
-43.1628015628
 10
107.218542906
 20
-43.1626548583
 10
107.2183639007
 20
-43.1624832208
 10
107.2182288518
 20
-43.1622864331
 10
107.2181381243
 20
-43.1620642331
 10
107.2180920869
 20
-43.1618163141
  0
LINE
  5
323
100
AcDbEntity
  8
RACCORDO
100
AcDbLine
 62
7
  6
CONTINUOUS
 10
107.2190321078
 20
43.1630832776
 11
107.2190573346
 21
43.1631009655
  0
LWPOLYLINE
  5
324
100
AcDbEntity
  8
RACCORDO
100
AcDbPolyline
 62
253
  6
CONTINUOUS
 90
6
 70
0
 10
110.3761244634
 20
44.5845272484
 10
110.3870597884
 20
44.598914297
 10
110.3996461164
 20
44.6118754794
 10
110.4137002723
 20
44.6232221653
 10
110.4290177191
 20
44.6327892206
 10
110.4453755343
 20
44.6404374112
  0
LINE
  5
325
100
AcDbEntity
  8
0
100
AcDbLine
 62
7
  6
CONTINUOUS
 10
115.067647875
 20
-28.877801
 11
115.1680347573
 21
-28.877801
  0
LWPOLYLINE
  5
326
100
AcDbEntity
  8
RACCORDO
100
AcDbPolyline
 62
253
  6
CONTINUOUS
 90
6
 70
0
 10
110.3761244748
 20
-44.5845272084
 10
110.3870598021
 20
-44.5989142434
 10
110.3996461334
 20
-44.6118754118
 10
110.4137002933
 20
-44.6232220829
 10
110.4290177444
 20
-44.6327891229
 10
110.445375564
 20
-44.6404372979
  0
LINE
  5
327
100
AcDbEntity
  8
0
100
AcDbLine
 62
7
  6
CONTINUOUS
 10
115.2905003614
 20
-26.078098
 11
115.3907528859
 21
-26.078098
  0
LINE
  5
328
100
AcDbEntity
  8
SUPERFICI
100
AcDbLine
 62
7
  6
CONTINUOUS
 10
115.3930849092
 20
-26.0452484808
 11
115.2928337897
 21
-26.0452484808
  0
LINE
  5
329
100
AcDbEntity
  8
RACCORDO
100
AcDbLine
 62
253
  6
CONTINUOUS
 10
112.8804003862
 20
-24.0508290824
 11
113.0054984249
 21
-24.0583142238
  0
LWPOLYLINE
  5
32A
100
AcDbEntity
  8
RACCORDO
100
AcDbPolyline
 62
253
  6
CONTINUOUS
 90
10
 70
0
 10
107.239343753
 20
-22.8983882283
 10
107.8138911486
 20
-22.9706591839
 10
108.3917978435
 20
-23.0394028347
 10
108.9727121833
 20
-23.1045930609
 10
109.5565176558
 20
-23.1662277804
 10
110.1426311908
 20
-23.2242541007
 10
110.7299939071
 20
-23.2785827653
 10
111.3180135516
 20
-23.3291813953
 10
111.9065737388
 20
-23.3760600412
 10
112.4953257611
 20
-23.4192064493
  0
LINE
  5
32B
100
AcDbEntity
  8
RACCORDO
100
AcDbLine
 62
253
  6
CONTINUOUS
 10
106.99986708
 20
-22.8986132865
 11
107.001113208
 21
-22.8985923645
  0
LINE
  5
32C
100
AcDbEntity
  8
RACCORDO
100
AcDbLine
 62
253
  6
CONTINUOUS
 10
106.99986708
 20
-22.0172222975
 11
107.0011178351
 21
-22.0172024962
  0
LINE
  5
32D
100
AcDbEntity
  8
RACCORDO
100
AcDbLine
 62
253
  6
CONTINUOUS
 10
106.9998670802
 20
-21.3730508899
 11
107.0011210228
 21
-21.3730320535
  0
LINE
  5
32E
100
AcDbEntity
  8
RACCORDO
100
AcDbLine
 62
253
  6
CONTINUOUS
 10
107.001113208
 20
-22.8985923645
 11
107.043650299
 21
-22.8984937577
  0
LINE
  5
32F
100
AcDbEntity
  8
RACCORDO
100
AcDbLine
 62
253
  6
CONTINUOUS
 10
107.0011178351
 20
-22.0172024962
 11
107.07646914
 21
-22.0170774137
  0
LINE
  5
330
100
AcDbEntity
  8
RACCORDO
100
AcDbLine
 62
253
  6
CONTINUOUS
 10
107.0011210228
 20
-21.3730320535
 11
107.0958960471
 21
-21.3728996585
  0
LINE
  5
331
100
AcDbEntity
  8
RACCORDO
100
AcDbLine
 62
253
  6
CONTINUOUS
 10
107.043650299
 20
-22.8984937577
 11
107.239343753
 21
-22.8983882283
  0
LINE
  5
332
100
AcDbEntity
  8
RACCORDO
100
AcDbLine
 62
253
  6
CONTINUOUS
 10
107.07646914
 20
-22.0170774137
 11
107.2400898585
 21
-22.0170095779
  0
LINE
  5
333
100
AcDbEntity
  8
RACCORDO
100
AcDbLine
 62
253
  6
CONTINUOUS
 10
107.0958960471
 20
-21.3728996585
 11
107.2406032563
 21
-21.3728487205
  0
LINE
  5
334
100
AcDbEntity
  8
RACCORDO
100
AcDbLine
 62
253
  6
CONTINUOUS
 10
115.0484842298
 20
-22.5203789087
 11
113.3026509615
 21
-22.5203789087
  0
LINE
  5
335
100
AcDbEntity
  8
RACCORDO
100
AcDbLine
 62
253
  6
CONTINUOUS
 10
115.5042789799
 20
-22.5432326078
 11
115.0484842298
 21
-22.5203789087
  0
LINE
  5
336
100
AcDbEntity
  8
RACCORDO
100
AcDbLine
 62
253
  6
CONTINUOUS
 10
115.4998670618
 20
-22.6310194473
 11
115.0440772229
 21
-22.6080915512
  0
LINE
  5
337
100
AcDbEntity
  8
RACCORDO
100
AcDbLine
 62
253
  6
CONTINUOUS
 10
112.9682550779
 20
-22.4527732306
 11
113.0935278642
 21
-22.4590680776
  0
LINE
  5
338
100
AcDbEntity
  8
RACCORDO
100
AcDbLine
 62
253
  6
CONTINUOUS
 10
112.9657104809
 20
-22.5033850635
 11
113.3026509616
 21
-22.5203789087
  0
LWPOLYLINE
  5
339
100
AcDbEntity
  8
RACCORDO
100
AcDbPolyline
 62
253
  6
CONTINUOUS
 90
10
 70
0
 10
107.2406032563
 20
-21.3728487205
 10
107.8247789533
 20
-21.4408170659
 10
108.4120981016
 20
-21.5054545349
 10
109.0022245698
 20
-21.5667376069
 10
109.5950407192
 20
-21.6246634342
 10
110.189996107
 20
-21.6791855441
 10
110.7860993291
 20
-21.7302262684
 10
111.382792412
 20
-21.7777568335
 10
111.9799589583
 20
-21.821784929
 10
112.5772671285
 20
-21.8622991111
  0
LWPOLYLINE
  5
33A
100
AcDbEntity
  8
RACCORDO
100
AcDbPolyline
 62
253
  6
CONTINUOUS
 90
10
 70
0
 10
107.2400898585
 20
-22.0170095779
 10
107.8203483223
 20
-22.086873108
 10
108.4038408196
 20
-22.1533218281
 10
108.9902245917
 20
-22.2163311625
 10
109.5793823076
 20
-22.2758986059
 10
110.1707497903
 20
-22.3319750489
 10
110.7633074118
 20
-22.3844780312
 10
111.356482798
 20
-22.433377291
 10
111.9501594214
 20
-22.4786815118
 10
112.5439982919
 20
-22.5203789265
  0
LINE
  5
33B
100
AcDbEntity
  8
RACCORDO
100
AcDbLine
 62
7
  6
CONTINUOUS
 10
107.2190573346
 20
-43.1631009655
 11
107.2190149426
 21
-43.1629649689
  0
LINE
  5
33C
100
AcDbEntity
  8
RACCORDO
100
AcDbLine
 62
7
  6
CONTINUOUS
 10
110.1046043622
 20
43.7016730513
 11
110.3537503479
 21
44.5427758029
  0
LWPOLYLINE
  5
33D
100
AcDbEntity
  8
RACCORDO
100
AcDbPolyline
 62
253
  6
CONTINUOUS
 90
4
 70
0
 10
110.3546823257
 20
44.53498994
 10
110.3598170673
 20
44.5523307843
 10
110.3669992886
 20
44.5689237155
 10
110.3761244634
 20
44.5845272484
  0
LINE
  5
33E
100
AcDbEntity
  8
RACCORDO
100
AcDbLine
 62
7
  6
CONTINUOUS
 10
110.1046043622
 20
-43.7016730513
 11
110.3537503479
 21
-44.5427758029
  0
LWPOLYLINE
  5
33F
100
AcDbEntity
  8
RACCORDO
100
AcDbPolyline
 62
253
  6
CONTINUOUS
 90
4
 70
0
 10
110.3546823374
 20
-44.5349899372
 10
110.3598170774
 20
-44.5523307697
 10
110.3669992987
 20
-44.5689236885
 10
110.3761244748
 20
-44.5845272084
  0
LWPOLYLINE
  5
340
100
AcDbEntity
  8
RACCORDO
100
AcDbPolyline
 62
253
  6
CONTINUOUS
 90
15
 70
0
 10
107.0009839167
 20
42.8990895611
 10
107.0043261149
 20
42.9247543003
 10
107.00986879
 20
42.950035428
 10
107.0175706735
 20
42.9747447111
 10
107.0273744204
 20
42.9986981747
 10
107.0392070359
 20
43.0217174709
 10
107.0529804193
 20
43.0436312075
 10
107.0685920196
 20
43.0642762239
 10
107.0859255991
 20
43.0834988057
 10
107.1048520993
 20
43.1011558294
 10
107.1252306011
 20
43.1171158281
 10
107.1469093745
 20
43.1312599701
 10
107.1697270083
 20
43.143482944
 10
107.1935136117
 20
43.1536937426
 10
107.2180920795
 20
43.1618163403
  0
LWPOLYLINE
  5
341
100
AcDbEntity
  8
RACCORDO
100
AcDbPolyline
 62
253
  6
CONTINUOUS
 90
7
 70
0
 10
107.2180920869
 20
43.1618163141
 10
107.2181381249
 20
43.1620642341
 10
107.2182288527
 20
43.1622864344
 10
107.2183639018
 20
43.1624832221
 10
107.218542907
 20
43.1626548592
 10
107.2187655061
 20
43.1628015632
 10
107.2190313394
 20
43.1629235081
  0
LINE
  5
342
100
AcDbEntity
  8
RACCORDO
100
AcDbLine
 62
253
  6
CONTINUOUS
 10
110.2168690699
 20
42.9462954714
 11
110.4799997489
 21
43.8679120795
  0
LINE
  5
343
100
AcDbEntity
  8
RACCORDO
100
AcDbLine
 62
253
  6
CONTINUOUS
 10
112.4953257611
 20
23.4192064493
 11
112.8804003806
 21
24.050829082
  0
LINE
  5
344
100
AcDbEntity
  8
RACCORDO
100
AcDbLine
 62
253
  6
CONTINUOUS
 10
112.5772671285
 20
21.8622991111
 11
112.9682550782
 21
22.4527732306
  0
LINE
  5
345
100
AcDbEntity
  8
RACCORDO
100
AcDbLine
 62
253
  6
CONTINUOUS
 10
112.5772671285
 20
-21.8622991111
 11
112.9682550782
 21
-22.4527732306
  0
LINE
  5
346
100
AcDbEntity
  8
RACCORDO
100
AcDbLine
 62
253
  6
CONTINUOUS
 10
112.4953257611
 20
-23.4192064493
 11
112.8804003807
 21
-24.0508290821
  0
LINE
  5
347
100
AcDbEntity
  8
RACCORDO
100
AcDbLine
 62
253
  6
CONTINUOUS
 10
110.2168690699
 20
-42.9462954714
 11
110.4799997489
 21
-43.8679120795
  0
LWPOLYLINE
  5
348
100
AcDbEntity
  8
RACCORDO
100
AcDbPolyline
 62
253
  6
CONTINUOUS
 90
10
 70
0
 10
110.3537503479
 20
-44.5427758029
 10
110.35349032
 20
-44.5417691101
 10
110.3533197332
 20
-44.5408021274
 10
110.3532393623
 20
-44.5398706767
 10
110.3532498853
 20
-44.5389663726
 10
110.3533523985
 20
-44.5380880588
 10
110.3535472847
 20
-44.537247833
 10
110.3538340582
 20
-44.5364529739
 10
110.3542124946
 20
-44.5356999207
 10
110.3546823533
 20
-44.5349899335
  0
LWPOLYLINE
  5
349
100
AcDbEntity
  8
RACCORDO
100
AcDbPolyline
 62
253
  6
CONTINUOUS
 90
13
 70
0
 10
106.99986708
 20
42.7465570485
 10
107.001240226
 20
42.7585229046
 10
107.0053470785
 20
42.7703792229
 10
107.0121500423
 20
42.7820174674
 10
107.0215868413
 20
42.7933310989
 10
107.0335710886
 20
42.8042165493
 10
107.0479930775
 20
42.8145741706
 10
107.0647207852
 20
42.8243091464
 10
107.0836010822
 20
42.8333323602
 10
107.1044611333
 20
42.8415612112
 10
107.1271099803
 20
42.8489203704
 10
107.15134029
 20
42.8553424701
 10
107.1769302518
 20
42.8607687207
  0
LWPOLYLINE
  5
34A
100
AcDbEntity
  8
RACCORDO
100
AcDbPolyline
 62
253
  6
CONTINUOUS
 90
13
 70
0
 10
106.99986708
 20
-42.7465570485
 10
107.00124022
 20
-42.7585229138
 10
107.0053470664
 20
-42.7703792405
 10
107.0121500242
 20
-42.7820174929
 10
107.0215868172
 20
-42.7933311314
 10
107.0335710588
 20
-42.8042165882
 10
107.047993042
 20
-42.8145742149
 10
107.0647207444
 20
-42.8243091952
 10
107.0836010363
 20
-42.8333324126
 10
107.1044610828
 20
-42.8415612663
 10
107.1271099255
 20
-42.8489204272
 10
107.1513402313
 20
-42.8553425277
 10
107.1769301898
 20
-42.8607687782
  0
LWPOLYLINE
  5
34B
100
AcDbEntity
  8
RACCORDO
100
AcDbPolyline
 62
253
  6
CONTINUOUS
 90
16
 70
0
 10
106.99986708
 20
-42.8740201612
 10
107.0009895333
 20
-42.8999471471
 10
107.0043484942
 20
-42.9256801207
 10
107.0099188273
 20
-42.9510265218
 10
107.0176588497
 20
-42.9757966824
 10
107.0275106427
 20
-42.9998052471
 10
107.039400485
 20
-43.0228725591
 10
107.0532394048
 20
-43.0448260053
 10
107.0689238451
 20
-43.0655013075
 10
107.0863364388
 20
-43.0847437519
 10
107.1053468871
 20
-43.102409347
 10
107.1258129345
 20
-43.1183659006
 10
107.1475814329
 20
-43.1324940095
 10
107.1704894883
 20
-43.1446879527
 10
107.1943656791
 20
-43.1548564828
 10
107.2190313393
 20
-43.1629235083
  0
LINE
  5
34C
100
AcDbEntity
  8
RACCORDO
100
AcDbLine
 62
253
  6
CONTINUOUS
 10
107.2031238888
 20
40.6377452468
 11
107.1937227186
 21
42.6375679674
  0
LINE
  5
34D
100
AcDbEntity
  8
RACCORDO
100
AcDbLine
 62
253
  6
CONTINUOUS
 10
107.2170192548
 20
36.4962384463
 11
107.2031238888
 21
40.6377452468
  0
LINE
  5
34E
100
AcDbEntity
  8
RACCORDO
100
AcDbLine
 62
253
  6
CONTINUOUS
 10
107.2270103567
 20
32.1700322935
 11
107.2170192548
 21
36.4962384463
  0
LINE
  5
34F
100
AcDbEntity
  8
RACCORDO
100
AcDbLine
 62
253
  6
CONTINUOUS
 10
107.2368594679
 20
25.2949616353
 11
107.2270103567
 21
32.1700322935
  0
LINE
  5
350
100
AcDbEntity
  8
RACCORDO
100
AcDbLine
 62
253
  6
CONTINUOUS
 10
107.2486274322
 20
4.0058257844
 11
107.2368594679
 21
25.2949616353
  0
LINE
  5
351
100
AcDbEntity
  8
RACCORDO
100
AcDbLine
 62
7
  6
CONTINUOUS
 10
106.99986708
 20
-42.8833544124
 11
106.99986708
 21
-4.0204738974
  0
LINE
  5
352
100
AcDbEntity
  8
RACCORDO
100
AcDbLine
 62
7
  6
CONTINUOUS
 10
106.99986708
 20
4.0204738944
 11
106.99986708
 21
42.8833544124
  0
LINE
  5
353
100
AcDbEntity
  8
RACCORDO
100
AcDbLine
 62
253
  6
CONTINUOUS
 10
107.239343753
 20
-22.8983882283
 11
107.2485888162
 21
-4.0058325416
  0
LINE
  5
354
100
AcDbEntity
  8
RACCORDO
100
AcDbLine
 62
253
  6
CONTINUOUS
 10
107.2270914112
 20
-32.1275308189
 11
107.239343753
 21
-22.8983882283
  0
LINE
  5
355
100
AcDbEntity
  8
RACCORDO
100
AcDbLine
 62
253
  6
CONTINUOUS
 10
107.2171224085
 20
-36.4589545935
 11
107.2270914112
 21
-32.1275308189
  0
LWPOLYLINE
  5
356
100
AcDbEntity
  8
RACCORDO
100
AcDbPolyline
 62
253
  6
CONTINUOUS
 90
3
 70
0
 10
107.1937227186
 20
-42.6375679674
 10
107.2032101414
 20
-40.6213002862
 10
107.2171224085
 20
-36.4589545935
  0
LINE
  5
357
100
AcDbEntity
  8
RACCORDO
100
AcDbLine
 62
7
  6
CONTINUOUS
 10
107.2190313394
 20
43.1629235081
 11
107.2190321078
 21
43.1630832776
  0
LINE
  5
358
100
AcDbEntity
  8
RACCORDO
100
AcDbLine
 62
253
  6
CONTINUOUS
 10
106.99986708
 20
42.8740201612
 11
107.0009895342
 21
42.8999471465
  0
LWPOLYLINE
  5
359
100
AcDbEntity
  8
RACCORDO
100
AcDbPolyline
 62
253
  6
CONTINUOUS
 90
16
 70
0
 10
107.2486274173
 20
4.005825787
 10
107.2453487344
 20
3.9856180948
 10
107.2424648345
 20
3.9656237753
 10
107.2400061282
 20
3.9460536658
 10
107.237998542
 20
3.9271141304
 10
107.2364632457
 20
3.909004884
 10
107.2354164287
 20
3.8919168862
 10
107.2348691297
 20
3.8760303274
 10
107.2348271198
 20
3.8615127294
 10
107.235290842
 20
3.8485171783
 10
107.2362554064
 20
3.8371807102
 10
107.2377106418
 20
3.8276228669
 10
107.239641203
 20
3.8199444343
 10
107.2420267324
 20
3.8142263806
 10
107.244842075
 20
3.8105290018
 10
107.2480575433
 20
3.8088912864
  0
LWPOLYLINE
  5
35A
100
AcDbEntity
  8
RACCORDO
100
AcDbPolyline
 62
253
  6
CONTINUOUS
 90
16
 70
0
 10
108.7586957035
 20
3.7405382039
 10
108.755342343
 20
3.7202710697
 10
108.7523216204
 20
3.7002204234
 10
108.749665588
 20
3.6805990197
 10
108.7474024287
 20
3.6616150587
 10
108.7455561566
 20
3.6434699768
 10
108.7441463622
 20
3.626356309
 10
108.7431880047
 20
3.6104556462
 10
108.742691253
 20
3.5959367082
 10
108.742661378
 20
3.5829535536
 10
108.7430986969
 20
3.5716439448
 10
108.7439985693
 20
3.5621278867
 10
108.7453514466
 20
3.5545063529
 10
108.7471429738
 20
3.5488602144
 10
108.7493541411
 20
3.5452493818
 10
108.7519614861
 20
3.5437121691
  0
LINE
  5
35B
100
AcDbEntity
  8
RACCORDO
100
AcDbLine
 62
7
  6
CONTINUOUS
 10
108.7519637584
 20
-3.5437120442
 11
107.1651374444
 21
-3.823512337
  0
LINE
  5
35C
100
AcDbEntity
  8
RACCORDO
100
AcDbLine
 62
253
  6
CONTINUOUS
 10
108.7586956497
 20
-3.7405382036
 11
107.2485888162
 21
-4.0058325416
  0
LINE
  5
35D
100
AcDbEntity
  8
RACCORDO
100
AcDbLine
 62
253
  6
CONTINUOUS
 10
107.2485888816
 20
-4.0058279883
 11
106.999866982
 21
-4.0204736924
  0
LINE
  5
35E
100
AcDbEntity
  8
RACCORDO
100
AcDbLine
 62
253
  6
CONTINUOUS
 10
109.0007869203
 20
-3.2482571591
 11
108.9998673964
 21
-3.2482701107
  0
LINE
  5
35F
100
AcDbEntity
  8
RACCORDO
100
AcDbLine
 62
253
  6
CONTINUOUS
 10
109.1735716998
 20
-3.2481360567
 11
109.0007869203
 21
-3.2482571591
  0
LWPOLYLINE
  5
360
100
AcDbEntity
  8
RACCORDO
100
AcDbPolyline
 62
253
  6
CONTINUOUS
 90
16
 70
0
 10
108.7586956491
 20
-3.7405382036
 10
108.7553422978
 20
-3.7202710749
 10
108.7523215845
 20
-3.7002204383
 10
108.7496655615
 20
-3.6805990481
 10
108.7474024115
 20
-3.6616151038
 10
108.7455561485
 20
-3.643470041
 10
108.7441463627
 20
-3.6263563942
 10
108.7431880133
 20
-3.6104557537
 10
108.7426912691
 20
-3.5959368387
 10
108.742661401
 20
-3.5829537071
 10
108.743098726
 20
-3.5716441211
 10
108.7439986036
 20
-3.5621280847
 10
108.7453514854
 20
-3.5545065712
 10
108.7471430162
 20
-3.5488604513
 10
108.7493541863
 20
-3.5452496352
 10
108.7519615333
 20
-3.5437124366
  0
LWPOLYLINE
  5
361
100
AcDbEntity
  8
RACCORDO
100
AcDbPolyline
 62
253
  6
CONTINUOUS
 90
16
 70
0
 10
107.2486277552
 20
-4.005825787
 10
107.2453490895
 20
-3.985618158
 10
107.2424652016
 20
-3.9656238994
 10
107.2400065014
 20
-3.9460538467
 10
107.2379989153
 20
-3.9271143619
 10
107.2364636128
 20
-3.9090051583
 10
107.2354167831
 20
-3.8919171936
 10
107.2348694648
 20
-3.876030657
 10
107.2348274292
 20
-3.8615130688
 10
107.2352911196
 20
-3.8485175139
 10
107.2362556462
 20
-3.8371810279
 10
107.2377108384
 20
-3.8276231517
 10
107.2396413513
 20
-3.8199446712
 10
107.2420268282
 20
-3.8142265544
 10
107.2448421147
 20
-3.8105290976
 10
107.2480575241
 20
-3.8088912898
  0
LINE
  5
362
100
AcDbEntity
  8
RACCORDO
100
AcDbLine
 62
253
  6
CONTINUOUS
 10
107.1937227186
 20
42.6375679674
 11
107.1912116643
 21
42.6637313431
  0
LINE
  5
363
100
AcDbEntity
  8
RACCORDO
100
AcDbLine
 62
253
  6
CONTINUOUS
 10
107.1912116643
 20
42.6637313431
 11
107.1889133585
 21
42.6895935819
  0
LINE
  5
364
100
AcDbEntity
  8
RACCORDO
100
AcDbLine
 62
253
  6
CONTINUOUS
 10
107.1889133585
 20
42.6895935819
 11
107.1868143174
 21
42.7150969961
  0
LINE
  5
365
100
AcDbEntity
  8
RACCORDO
100
AcDbLine
 62
253
  6
CONTINUOUS
 10
107.1868143174
 20
42.7150969961
 11
107.1848722972
 21
42.7402498019
  0
LINE
  5
366
100
AcDbEntity
  8
RACCORDO
100
AcDbLine
 62
253
  6
CONTINUOUS
 10
107.1848722972
 20
42.7402498019
 11
107.1822070103
 21
42.7773300178
  0
LINE
  5
367
100
AcDbEntity
  8
RACCORDO
100
AcDbLine
 62
253
  6
CONTINUOUS
 10
107.1822070103
 20
42.7773300178
 11
107.1797941698
 21
42.8136289148
  0
LINE
  5
368
100
AcDbEntity
  8
RACCORDO
100
AcDbLine
 62
253
  6
CONTINUOUS
 10
107.1797941698
 20
42.8136289148
 11
107.1776090352
 21
42.8491381274
  0
LWPOLYLINE
  5
369
100
AcDbEntity
  8
RACCORDO
100
AcDbPolyline
 62
253
  6
CONTINUOUS
 90
40
 70
0
 10
107.1776090352
 20
42.8491381274
 10
107.1763057108
 20
42.8720665413
 10
107.1757502925
 20
42.8833834455
 10
107.1752640449
 20
42.8947070963
 10
107.1748451179
 20
42.9060358986
 10
107.1744954853
 20
42.9173446185
 10
107.1742209803
 20
42.9285862879
 10
107.1740217599
 20
42.9397450989
 10
107.1738978998
 20
42.9508107246
 10
107.1738551637
 20
42.9617469263
 10
107.1738931491
 20
42.9725400086
 10
107.1740125512
 20
42.9831779064
 10
107.174220805
 20
42.9936292498
 10
107.1745174833
 20
43.0038779589
 10
107.1749033518
 20
43.0139155808
 10
107.1753876349
 20
43.0237239992
 10
107.1759695542
 20
43.0332898713
 10
107.1766502601
 20
43.0426017429
 10
107.1774418546
 20
43.0516452476
 10
107.1783525429
 20
43.060413622
 10
107.1793745351
 20
43.0688881429
 10
107.1804959307
 20
43.0770392554
 10
107.181714075
 20
43.0848550334
 10
107.1830315371
 20
43.0923356939
 10
107.1844441005
 20
43.0994747252
 10
107.1859478093
 20
43.1062620081
 10
107.1875465107
 20
43.1126968333
 10
107.1892477041
 20
43.1187846761
 10
107.1910517771
 20
43.1245235188
 10
107.1929582726
 20
43.129898543
 10
107.1949734166
 20
43.1348959617
 10
107.1970981094
 20
43.1395110279
 10
107.1993314286
 20
43.143735759
 10
107.2016768606
 20
43.1475568806
 10
107.2041363176
 20
43.1509729612
 10
107.2067079237
 20
43.1539788445
 10
107.2093894807
 20
43.1565642269
 10
107.2121802833
 20
43.1587293946
 10
107.2150811299
 20
43.1604793916
 10
107.2180920869
 20
43.1618163141
  0
LINE
  5
36A
100
AcDbEntity
  8
RACCORDO
100
AcDbLine
 62
7
  6
CONTINUOUS
 10
108.99986708
 20
3.2482650996
 11
108.99986708
 21
-3.2482665857
  0
LINE
  5
36B
100
AcDbEntity
  8
RACCORDO
100
AcDbLine
 62
253
  6
CONTINUOUS
 10
109.173571734
 20
3.2481360568
 11
109.173571734
 21
-3.2481360568
  0
LWPOLYLINE
  5
36C
100
AcDbEntity
  8
RACCORDO
100
AcDbPolyline
 62
253
  6
CONTINUOUS
 90
22
 70
0
 10
109.173571734
 20
-3.2481360568
 10
109.1724243555
 20
-3.2814655819
 10
109.1691333927
 20
-3.3143489826
 10
109.1636992284
 20
-3.3467853223
 10
109.1560838047
 20
-3.3788990986
 10
109.1463260763
 20
-3.4105639284
 10
109.1345419976
 20
-3.4414026591
 10
109.1207094874
 20
-3.4714127746
 10
109.1048517308
 20
-3.5005951898
 10
109.0871525674
 20
-3.5285781929
 10
109.0675846713
 20
-3.5553542745
 10
109.0461765181
 20
-3.5809298474
 10
109.0231955261
 20
-3.6049545195
 10
108.9986215223
 20
-3.627407959
 10
108.9724756817
 20
-3.6483101105
 10
108.9450872077
 20
-3.6673715223
 10
108.9164414891
 20
-3.6845694708
 10
108.8865538238
 20
-3.6999270808
 10
108.855797955
 20
-3.7132242076
 10
108.8242984744
 20
-3.7243879484
 10
108.7919310067
 20
-3.7334923988
 10
108.7586956497
 20
-3.7405382036
  0
LINE
  5
36D
100
AcDbEntity
  8
RACCORDO
100
AcDbLine
 62
253
  6
CONTINUOUS
 10
107.1763016988
 20
-42.8721530649
 11
107.1776090352
 21
-42.8491381274
  0
LINE
  5
36E
100
AcDbEntity
  8
RACCORDO
100
AcDbLine
 62
253
  6
CONTINUOUS
 10
107.1776090352
 20
-42.8491381274
 11
107.1797941698
 21
-42.8136289147
  0
LINE
  5
36F
100
AcDbEntity
  8
RACCORDO
100
AcDbLine
 62
253
  6
CONTINUOUS
 10
107.1797941698
 20
-42.8136289147
 11
107.1822070103
 21
-42.7773300177
  0
LINE
  5
370
100
AcDbEntity
  8
RACCORDO
100
AcDbLine
 62
253
  6
CONTINUOUS
 10
107.1822070103
 20
-42.7773300177
 11
107.1848722972
 21
-42.7402498017
  0
LINE
  5
371
100
AcDbEntity
  8
RACCORDO
100
AcDbLine
 62
253
  6
CONTINUOUS
 10
107.1848722972
 20
-42.7402498017
 11
107.1868143175
 21
-42.7150969959
  0
LINE
  5
372
100
AcDbEntity
  8
RACCORDO
100
AcDbLine
 62
253
  6
CONTINUOUS
 10
107.1868143175
 20
-42.7150969959
 11
107.1889133585
 21
-42.6895935816
  0
LINE
  5
373
100
AcDbEntity
  8
RACCORDO
100
AcDbLine
 62
253
  6
CONTINUOUS
 10
107.1889133585
 20
-42.6895935816
 11
107.1912116643
 21
-42.6637313428
  0
LINE
  5
374
100
AcDbEntity
  8
RACCORDO
100
AcDbLine
 62
253
  6
CONTINUOUS
 10
107.1912116643
 20
-42.6637313428
 11
107.1937227186
 21
-42.6375679674
  0
LINE
  5
375
100
AcDbEntity
  8
RACCORDO
100
AcDbLine
 62
253
  6
CONTINUOUS
 10
108.99986708
 20
-0.0
 11
113.6574374543
 21
0.0
  0
LWPOLYLINE
  5
376
100
AcDbEntity
  8
0
100
AcDbPolyline
 62
7
  6
CONTINUOUS
 90
15
 70
0
 10
110.1856134548
 20
43.2297193658
 10
110.183139922
 20
43.2599867122
 10
110.18034267
 20
43.2906806904
 10
110.177231876
 20
43.3217459075
 10
110.173846658
 20
43.3529504211
 10
110.170260376
 20
43.3838985547
 10
110.1665277157
 20
43.4144399935
 10
110.1626761956
 20
43.4443871979
 10
110.1587494735
 20
43.4733118142
 10
110.1547888427
 20
43.5010175884
 10
110.1508500211
 20
43.5273827865
 10
110.1469835014
 20
43.552160326
 10
110.1431878939
 20
43.5752516311
 10
110.1394791229
 20
43.5966048858
 10
110.1359098675
 20
43.6161111189
  0
LWPOLYLINE
  5
377
100
AcDbEntity
  8
RACCORDO
100
AcDbPolyline
 62
253
  6
CONTINUOUS
 90
21
 70
0
 10
112.8012994896
 20
25.2934458123
 10
112.7150129574
 20
26.5052896309
 10
112.6222937962
 20
27.6858357418
 10
112.5238968536
 20
28.8343204413
 10
112.4204992346
 20
29.9506845125
 10
112.3126794818
 20
31.0355652104
 10
112.2010775673
 20
32.0886590736
 10
112.0862969123
 20
33.1098254561
 10
111.9687873034
 20
34.1000208985
 10
111.8491949862
 20
35.0584304824
 10
111.7280088782
 20
35.9857215227
 10
111.6053317735
 20
36.8851060626
 10
111.4816569519
 20
37.7564396089
 10
111.3574151406
 20
38.5998877673
 10
111.2324747716
 20
39.4191139805
 10
111.1071922666
 20
40.2141703598
 10
110.9819100859
 20
40.9851039941
 10
110.856352161
 20
41.735531902
 10
110.7305807641
 20
42.4666860029
 10
110.6050480989
 20
43.1774520005
 10
110.4799997489
 20
43.8679120795
  0
LWPOLYLINE
  5
378
100
AcDbEntity
  8
RACCORDO
100
AcDbPolyline
 62
253
  6
CONTINUOUS
 90
22
 70
0
 10
113.0054984248
 20
24.0583142237
 10
112.9262397506
 20
25.3026176815
 10
112.8398958656
 20
26.5152173053
 10
112.7471608272
 20
27.6960962441
 10
112.6487119159
 20
28.8452513688
 10
112.545204795
 20
29.9626772688
 10
112.4372745555
 20
31.0483655832
 10
112.3255765935
 20
32.1021305852
 10
112.2106854039
 20
33.1241922429
 10
112.0930776775
 20
34.1151580265
 10
111.9733916323
 20
35.0742351518
 10
111.8520950994
 20
36.0022790139
 10
111.7293196884
 20
36.9023679132
 10
111.6055567857
 20
37.7743422132
 10
111.4812140852
 20
38.6184334045
 10
111.3561677351
 20
39.4382965144
 10
111.2307877221
 20
40.2339578395
 10
111.1054136862
 20
41.0054607188
 10
110.9797517689
 20
41.7564717766
 10
110.8538646963
 20
42.4882299289
 10
110.728229428
 20
43.1995558364
 10
110.6031100106
 20
43.8904819762
  0
LWPOLYLINE
  5
379
100
AcDbEntity
  8
0
100
AcDbPolyline
 62
7
  6
CONTINUOUS
 90
9
 70
0
 10
112.4953257611
 20
23.4192064493
 10
112.3586092534
 20
25.5961629915
 10
112.1923923759
 20
27.7737745723
 10
111.9969090757
 20
29.9505918127
 10
111.7725619528
 20
32.123838728
 10
111.5194679581
 20
34.293357389
 10
111.237297719
 20
36.4615589501
 10
110.9259616186
 20
38.6281722723
 10
110.5857705125
 20
40.7902933223
  0
LINE
  5
37A
100
AcDbEntity
  8
RACCORDO
100
AcDbLine
 62
253
  6
CONTINUOUS
 10
112.8905790777
 20
23.879175584
 11
112.8012994896
 21
25.2934458123
  0
LINE
  5
37B
100
AcDbEntity
  8
RACCORDO
100
AcDbLine
 62
253
  6
CONTINUOUS
 10
113.0547696424
 20
23.1976696374
 11
113.0054984248
 21
24.0583142237
  0
LINE
  5
37C
100
AcDbEntity
  8
RACCORDO
100
AcDbLine
 62
253
  6
CONTINUOUS
 10
112.9389088533
 20
23.0187220793
 11
112.8905790777
 21
23.879175584
  0
LINE
  5
37D
100
AcDbEntity
  8
0
100
AcDbLine
 62
7
  6
CONTINUOUS
 10
112.5478065513
 20
22.4470212354
 11
112.4953257611
 21
23.4192064493
  0
LINE
  5
37E
100
AcDbEntity
  8
RACCORDO
100
AcDbLine
 62
253
  6
CONTINUOUS
 10
112.590904321
 20
44.0190538877
 11
112.6000925051
 21
43.8457940386
  0
LINE
  5
37F
100
AcDbEntity
  8
RACCORDO
100
AcDbLine
 62
253
  6
CONTINUOUS
 10
112.9682550782
 20
22.4527732306
 11
112.9389088533
 21
23.0187220793
  0
LINE
  5
380
100
AcDbEntity
  8
RACCORDO
100
AcDbLine
 62
253
  6
CONTINUOUS
 10
113.0935278642
 20
22.4590680777
 11
113.0547696424
 21
23.1976696374
  0
LINE
  5
381
100
AcDbEntity
  8
0
100
AcDbLine
 62
7
  6
CONTINUOUS
 10
112.5772671285
 20
21.8622991111
 11
112.5478065513
 21
22.4470212354
  0
LWPOLYLINE
  5
382
100
AcDbEntity
  8
RACCORDO
100
AcDbPolyline
 62
253
  6
CONTINUOUS
 90
10
 70
0
 10
113.5319547573
 20
-0.0
 10
113.5249902212
 20
2.4954604148
 10
113.504099874
 20
4.9911180305
 10
113.4692865784
 20
7.4868301373
 10
113.4205520561
 20
9.9825086348
 10
113.3578996588
 20
12.4779560622
 10
113.2813374187
 20
14.9728655484
 10
113.1908729324
 20
17.4670395123
 10
113.0865103093
 20
19.9603897099
 10
112.9682550782
 20
22.4527732306
  0
LWPOLYLINE
  5
383
100
AcDbEntity
  8
RACCORDO
100
AcDbPolyline
 62
253
  6
CONTINUOUS
 90
10
 70
0
 10
113.6574374543
 20
-0.0000000003
 10
113.650463629
 20
2.4962721044
 10
113.6295672237
 20
4.9926074796
 10
113.5947467784
 20
7.4889303147
 10
113.5459982356
 20
9.9852852896
 10
113.4833214268
 20
12.4814759474
 10
113.4067276815
 20
14.9770637565
 10
113.3162281141
 20
17.471850179
 10
113.2118259954
 20
19.9658776328
 10
113.0935278642
 20
22.4590680777
  0
LWPOLYLINE
  5
384
100
AcDbEntity
  8
0
100
AcDbPolyline
 62
7
  6
CONTINUOUS
 90
10
 70
0
 10
113.1127705466
 20
-0.0
 10
113.106159813
 20
2.429760412
 10
113.0863215279
 20
4.8596626094
 10
113.053257038
 20
7.2895971335
 10
113.0069665513
 20
9.7195082408
 10
112.9474520007
 20
12.1492326267
 10
112.8747199704
 20
14.5784995087
 10
112.7887765117
 20
17.0071456666
 10
112.6896242161
 20
19.4351153603
 10
112.5772671285
 20
21.8622991111
  0
LWPOLYLINE
  5
385
100
AcDbEntity
  8
0
100
AcDbPolyline
 62
7
  6
CONTINUOUS
 90
9
 70
0
 10
112.6896242161
 20
-19.4351153602
 10
112.7887765117
 20
-17.0071456665
 10
112.8747199705
 20
-14.5784995086
 10
112.9474520007
 20
-12.1492326267
 10
113.0069665513
 20
-9.7195082407
 10
113.053257038
 20
-7.2895971335
 10
113.0863215279
 20
-4.8596626095
 10
113.106159813
 20
-2.429760412
 10
113.1127705466
 20
-0.0
  0
LWPOLYLINE
  5
386
100
AcDbEntity
  8
RACCORDO
100
AcDbPolyline
 62
253
  6
CONTINUOUS
 90
9
 70
0
 10
113.0865103228
 20
-19.9603894068
 10
113.1908729466
 20
-17.4670391493
 10
113.2813374247
 20
-14.9728653687
 10
113.3578996457
 20
-12.4779565329
 10
113.4205520257
 20
-9.9825099994
 10
113.4692865477
 20
-7.486831969
 10
113.5040998556
 20
-4.9911196788
 10
113.5249902154
 20
-2.4954614525
 10
113.5319547573
 20
-0.0
  0
LWPOLYLINE
  5
387
100
AcDbEntity
  8
RACCORDO
100
AcDbPolyline
 62
253
  6
CONTINUOUS
 90
9
 70
0
 10
113.2118260089
 20
-19.9658773296
 10
113.3162281283
 20
-17.4718498158
 10
113.4067276875
 20
-14.9770635768
 10
113.4833214137
 20
-12.4814764182
 10
113.5459982052
 20
-9.9852866545
 10
113.5947467478
 20
-7.488932147
 10
113.6295672053
 20
-4.9926091285
 10
113.6504636232
 20
-2.4962731427
 10
113.6574374543
 20
-0.0000000003
  0
LINE
  5
388
100
AcDbEntity
  8
0
100
AcDbLine
 62
7
  6
CONTINUOUS
 10
112.5590637982
 20
-22.2272992051
 11
112.6896242161
 21
-19.4351153602
  0
LINE
  5
389
100
AcDbEntity
  8
RACCORDO
100
AcDbLine
 62
253
  6
CONTINUOUS
 10
112.9569704824
 20
-22.6748856371
 11
113.0865103228
 21
-19.9603894068
  0
LINE
  5
38A
100
AcDbEntity
  8
RACCORDO
100
AcDbLine
 62
253
  6
CONTINUOUS
 10
113.0821998659
 20
-22.6814801149
 11
113.2118260089
 21
-19.9658773296
  0
LINE
  5
38B
100
AcDbEntity
  8
RACCORDO
100
AcDbLine
 62
253
  6
CONTINUOUS
 10
112.6000925052
 20
-43.8457940382
 11
112.5909091561
 21
-44.0189621801
  0
LINE
  5
38C
100
AcDbEntity
  8
0
100
AcDbLine
 62
7
  6
CONTINUOUS
 10
112.5062937391
 20
-23.2225158131
 11
112.5590637982
 21
-22.2272992051
  0
LINE
  5
38D
100
AcDbEntity
  8
0
100
AcDbLine
 62
7
  6
CONTINUOUS
 10
112.4953257611
 20
-23.4192064493
 11
112.5062937391
 21
-23.2225158131
  0
LINE
  5
38E
100
AcDbEntity
  8
RACCORDO
100
AcDbLine
 62
253
  6
CONTINUOUS
 10
112.9104401904
 20
-23.5351286994
 11
112.9569704824
 21
-22.6748856371
  0
LINE
  5
38F
100
AcDbEntity
  8
RACCORDO
100
AcDbLine
 62
253
  6
CONTINUOUS
 10
113.0355748505
 20
-23.5422283695
 11
113.0821998659
 21
-22.6814801149
  0
LINE
  5
390
100
AcDbEntity
  8
RACCORDO
100
AcDbLine
 62
253
  6
CONTINUOUS
 10
112.8804003807
 20
-24.0508290821
 11
112.9104401904
 21
-23.5351286994
  0
LINE
  5
391
100
AcDbEntity
  8
RACCORDO
100
AcDbLine
 62
253
  6
CONTINUOUS
 10
113.0054984249
 20
-24.0583142236
 11
113.0355748505
 21
-23.5422283695
  0
LWPOLYLINE
  5
392
100
AcDbEntity
  8
0
100
AcDbPolyline
 62
7
  6
CONTINUOUS
 90
8
 70
0
 10
110.1899926941
 20
-43.1680089141
 10
110.1924959578
 20
-43.1370672659
 10
110.1952471739
 20
-43.1071510311
 10
110.1982318193
 20
-43.0783069423
 10
110.2014494459
 20
-43.0504385934
 10
110.2049198971
 20
-43.0233260267
 10
110.2086515233
 20
-42.9969005907
 10
110.212634964
 20
-42.9712253507
  0
LINE
  5
393
100
AcDbEntity
  8
RACCORDO
100
AcDbLine
 62
253
  6
CONTINUOUS
 10
108.805173076
 20
-3.5291759482
 11
108.8085501801
 21
-3.527840528
  0
LWPOLYLINE
  5
394
100
AcDbEntity
  8
RACCORDO
100
AcDbPolyline
 62
253
  6
CONTINUOUS
 90
3
 70
0
 10
109.173571734
 20
3.2481360568
 10
109.0007866154
 20
3.2482571583
 10
108.99986708
 20
3.2482701106
  0
LINE
  5
395
100
AcDbEntity
  8
RACCORDO
100
AcDbLine
 62
253
  6
CONTINUOUS
 10
106.9998670196
 20
4.0204736896
 11
107.2486274711
 21
4.005825781
  0
LINE
  5
396
100
AcDbEntity
  8
RACCORDO
100
AcDbLine
 62
253
  6
CONTINUOUS
 10
107.2486274322
 20
4.0058257844
 11
108.7586956497
 21
3.7405382036
  0
LINE
  5
397
100
AcDbEntity
  8
RACCORDO
100
AcDbLine
 62
7
  6
CONTINUOUS
 10
107.1651374444
 20
3.823512337
 11
108.7519631687
 21
3.5437121482
  0
LWPOLYLINE
  5
398
100
AcDbEntity
  8
RACCORDO
100
AcDbPolyline
 62
253
  6
CONTINUOUS
 90
22
 70
0
 10
108.7586956497
 20
3.7405382036
 10
108.7919265335
 20
3.7334939056
 10
108.8242908733
 20
3.7243906531
 10
108.8557885718
 20
3.7132278008
 10
108.8865443995
 20
3.6999312483
 10
108.9164333707
 20
3.684573902
 10
108.9450805587
 20
3.6673759198
 10
108.9724703738
 20
3.648314124
 10
108.998617719
 20
3.6274112905
 10
109.0231930829
 20
3.6049570432
 10
109.046175875
 20
3.5809298623
 10
109.0675856837
 20
3.5553516542
 10
109.0871530276
 20
3.5285777115
 10
109.1048470582
 20
3.5006063658
 10
109.1206974726
 20
3.4714403873
 10
109.1345254846
 20
3.4414421601
 10
109.1463105714
 20
3.4106075288
 10
109.1560721539
 20
3.3789422442
 10
109.1636913485
 20
3.346823842
 10
109.1691282237
 20
3.3143788334
 10
109.1724218132
 20
3.2814825927
 10
109.173571734
 20
3.2481360568
  0
LINE
  5
399
100
AcDbEntity
  8
RACCORDO
100
AcDbLine
 62
253
  6
CONTINUOUS
 10
112.5549432352
 20
44.5256836327
 11
112.5624286429
 21
44.4381134444
  0
LINE
  5
39A
100
AcDbEntity
  8
RACCORDO
100
AcDbLine
 62
253
  6
CONTINUOUS
 10
112.5624286429
 20
44.4381134444
 11
112.5698769508
 21
44.3423925188
  0
LINE
  5
39B
100
AcDbEntity
  8
RACCORDO
100
AcDbLine
 62
253
  6
CONTINUOUS
 10
112.5698769508
 20
44.3423925188
 11
112.5771810725
 21
44.2397271833
  0
LINE
  5
39C
100
AcDbEntity
  8
RACCORDO
100
AcDbLine
 62
253
  6
CONTINUOUS
 10
112.5771810725
 20
44.2397271833
 11
112.5842079514
 21
44.1314774343
  0
LINE
  5
39D
100
AcDbEntity
  8
RACCORDO
100
AcDbLine
 62
253
  6
CONTINUOUS
 10
112.5842079514
 20
44.1314774343
 11
112.590904321
 21
44.0190538877
  0
LWPOLYLINE
  5
39E
100
AcDbEntity
  8
RACCORDO
100
AcDbPolyline
 62
253
  6
CONTINUOUS
 90
12
 70
0
 10
115.0440772231
 20
22.6080915512
 10
115.2209247532
 20
18.7693858765
 10
115.3620151353
 20
15.0170795117
 10
115.4717553774
 20
11.2637237866
 10
115.5501487604
 20
7.509584833
 10
115.5971920061
 20
3.754924456
 10
115.612875276
 20
0.0000001319
 10
115.597192011
 20
-3.7549241486
 10
115.5501487702
 20
-7.5095844529
 10
115.4717553894
 20
-11.2637233922
 10
115.362015146
 20
-15.0170791905
 10
115.2209247599
 20
-18.7693856868
  0
LINE
  5
39F
100
AcDbEntity
  8
RACCORDO
100
AcDbLine
 62
253
  6
CONTINUOUS
 10
115.2209247599
 20
-18.7693856868
 11
115.0440772231
 21
-22.6080915512
  0
LWPOLYLINE
  5
3A0
100
AcDbEntity
  8
RACCORDO
100
AcDbPolyline
 62
253
  6
CONTINUOUS
 90
10
 70
0
 10
115.0440772231
 20
-22.6080915512
 10
114.9075506842
 20
-24.9810868824
 10
114.7372253017
 20
-27.3519082004
 10
114.5331015006
 20
-29.7200634304
 10
114.2951250021
 20
-32.0850471668
 10
114.0233509378
 20
-34.4463804566
 10
113.717943835
 20
-36.8036105772
 10
113.3789588051
 20
-39.1562580461
 10
113.0063415582
 20
-41.5038168431
 10
112.6000925068
 20
-43.845794038
  0
LINE
  5
3A1
100
AcDbEntity
  8
RACCORDO
100
AcDbLine
 62
253
  6
CONTINUOUS
 10
112.5909091561
 20
-44.0189621801
 11
112.5842241778
 21
-44.1311862319
  0
LINE
  5
3A2
100
AcDbEntity
  8
RACCORDO
100
AcDbLine
 62
253
  6
CONTINUOUS
 10
112.5842241778
 20
-44.1311862319
 11
112.5772056137
 21
-44.2393619303
  0
LINE
  5
3A3
100
AcDbEntity
  8
RACCORDO
100
AcDbLine
 62
7
  6
CONTINUOUS
 10
115.2928338354
 20
-26.0452478368
 11
115.2933421538
 21
-26.0380796398
  0
LINE
  5
3A4
100
AcDbEntity
  8
RACCORDO
100
AcDbLine
 62
253
  6
CONTINUOUS
 10
112.5772056137
 20
-44.2393619303
 11
112.5699010443
 21
-44.3420846172
  0
LINE
  5
3A5
100
AcDbEntity
  8
RACCORDO
100
AcDbLine
 62
253
  6
CONTINUOUS
 10
112.5699010443
 20
-44.3420846172
 11
112.5624544512
 21
-44.4378314313
  0
LWPOLYLINE
  5
3A6
100
AcDbEntity
  8
RACCORDO
100
AcDbPolyline
 62
253
  6
CONTINUOUS
 90
16
 70
0
 10
112.5624544512
 20
-44.4378314313
 10
112.5549692936
 20
-44.525429701
 10
112.5512262635
 20
-44.5658228843
 10
112.5475181896
 20
-44.6037740409
 10
112.5438512517
 20
-44.639161417
 10
112.5402243723
 20
-44.671875489
 10
112.5366647963
 20
-44.7018184359
 10
112.5331822105
 20
-44.7288964631
 10
112.5297790087
 20
-44.7530212018
 10
112.5264730904
 20
-44.774115063
 10
112.523278292
 20
-44.7921085058
 10
112.5202002984
 20
-44.8069486365
 10
112.5172460739
 20
-44.8185937441
 10
112.5144261675
 20
-44.827004556
 10
112.5117551858
 20
-44.8321490217
 10
112.5092473456
 20
-44.8340076387
  0
LWPOLYLINE
  5
3A7
100
AcDbEntity
  8
RACCORDO
100
AcDbPolyline
 62
253
  6
CONTINUOUS
 90
10
 70
0
 10
110.5913177316
 20
-43.9654787046
 10
110.5924574461
 20
-43.9570908852
 10
110.5936390314
 20
-43.9487153164
 10
110.5948624892
 20
-43.9403519919
 10
110.5961268093
 20
-43.9319989353
 10
110.5974330056
 20
-43.92365811
 10
110.5987841172
 20
-43.9153354177
 10
110.6001811596
 20
-43.9070328206
 10
110.6016231231
 20
-43.8987483424
 10
110.6031100106
 20
-43.8904819762
  0
LINE
  5
3A8
100
AcDbEntity
  8
RACCORDO
100
AcDbLine
 62
253
  6
CONTINUOUS
 10
110.5840397303
 20
-44.0151129456
 11
110.5913177135
 21
-43.9654787012
  0
LINE
  5
3A9
100
AcDbEntity
  8
RACCORDO
100
AcDbLine
 62
253
  6
CONTINUOUS
 10
110.5754542792
 20
-44.071548856
 11
110.5840397303
 21
-44.0151129456
  0
LINE
  5
3AA
100
AcDbEntity
  8
RACCORDO
100
AcDbLine
 62
253
  6
CONTINUOUS
 10
110.5653130007
 20
-44.1359691236
 11
110.5754542792
 21
-44.071548856
  0
LINE
  5
3AB
100
AcDbEntity
  8
RACCORDO
100
AcDbLine
 62
253
  6
CONTINUOUS
 10
110.4542674201
 20
-44.014591786
 11
110.466333764
 21
-43.9398953032
  0
LINE
  5
3AC
100
AcDbEntity
  8
RACCORDO
100
AcDbLine
 62
253
  6
CONTINUOUS
 10
110.5534853816
 20
-44.2086005245
 11
110.5653130007
 21
-44.1359691236
  0
LWPOLYLINE
  5
3AD
100
AcDbEntity
  8
RACCORDO
100
AcDbPolyline
 62
253
  6
CONTINUOUS
 90
9
 70
0
 10
110.466333764
 20
-43.9398953032
 10
110.4678405807
 20
-43.9309057368
 10
110.4694030454
 20
-43.9219130302
 10
110.4710194648
 20
-43.912914811
 10
110.4726917053
 20
-43.9039124713
 10
110.4744252143
 20
-43.8949110558
 10
110.4762218838
 20
-43.8859118215
 10
110.4780800292
 20
-43.8769123481
 10
110.4799997489
 20
-43.8679120795
  0
LINE
  5
3AE
100
AcDbEntity
  8
RACCORDO
100
AcDbLine
 62
253
  6
CONTINUOUS
 10
110.4386175581
 20
-44.1087142679
 11
110.4542674201
 21
-44.014591786
  0
LINE
  5
3AF
100
AcDbEntity
  8
RACCORDO
100
AcDbLine
 62
253
  6
CONTINUOUS
 10
110.5400445627
 20
-44.2884422227
 11
110.5534853816
 21
-44.2086005245
  0
LWPOLYLINE
  5
3B0
100
AcDbEntity
  8
0
100
AcDbPolyline
 62
7
  6
CONTINUOUS
 90
10
 70
0
 10
110.212634964
 20
-42.9712253507
 10
110.5857705125
 20
-40.7902933224
 10
110.9259616186
 20
-38.6281722724
 10
111.237297719
 20
-36.4615589502
 10
111.5194679581
 20
-34.2933573891
 10
111.7725619528
 20
-32.123838728
 10
111.9969090757
 20
-29.9505918128
 10
112.1923923759
 20
-27.7737745723
 10
112.3586092534
 20
-25.5961629915
 10
112.4953257611
 20
-23.4192064493
  0
LINE
  5
3B1
100
AcDbEntity
  8
RACCORDO
100
AcDbLine
 62
253
  6
CONTINUOUS
 10
110.4221316897
 20
-44.2050351146
 11
110.4386175581
 21
-44.1087142679
  0
LINE
  5
3B2
100
AcDbEntity
  8
RACCORDO
100
AcDbLine
 62
253
  6
CONTINUOUS
 10
110.5290627231
 20
-44.3516162173
 11
110.5400445627
 21
-44.2884422227
  0
LINE
  5
3B3
100
AcDbEntity
  8
RACCORDO
100
AcDbLine
 62
253
  6
CONTINUOUS
 10
110.4098249445
 20
-44.2750755874
 11
110.4221316897
 21
-44.2050351146
  0
LINE
  5
3B4
100
AcDbEntity
  8
RACCORDO
100
AcDbLine
 62
253
  6
CONTINUOUS
 10
110.5215370254
 20
-44.3937637143
 11
110.5290627231
 21
-44.3516162173
  0
LWPOLYLINE
  5
3B5
100
AcDbEntity
  8
RACCORDO
100
AcDbPolyline
 62
253
  6
CONTINUOUS
 90
22
 70
0
 10
110.4799997489
 20
-43.8679120795
 10
110.605019991
 20
-43.1776091255
 10
110.7305271316
 20
-42.4669936268
 10
110.8562755648
 20
-41.7359832805
 10
110.9818130717
 20
-40.9856921644
 10
111.107077334
 20
-40.2148883294
 10
111.2323443564
 20
-39.4199549251
 10
111.3572716466
 20
-38.6008447427
 10
111.481502747
 20
-37.757505542
 10
111.6051691702
 20
-36.8862740427
 10
111.7278398024
 20
-35.9869871339
 10
111.8490216948
 20
-35.0597865724
 10
111.968612956
 20
-34.1014525733
 10
112.08612332
 20
-33.1113273213
 10
112.2009075026
 20
-32.0902159031
 10
112.3125192693
 20
-31.0371247892
 10
112.4203539876
 20
-29.9521967042
 10
112.5237708946
 20
-28.8357325371
 10
112.6221939596
 20
-27.6870508636
 10
112.7149450328
 20
-26.5061961904
 10
112.8012656567
 20
-25.2939471534
 10
112.8804003807
 20
-24.0508290821
  0
LWPOLYLINE
  5
3B6
100
AcDbEntity
  8
0
100
AcDbPolyline
 62
7
  6
CONTINUOUS
 90
16
 70
0
 10
110.1359098675
 20
-43.6161111189
 10
110.1394791229
 20
-43.5966048858
 10
110.1431878939
 20
-43.5752516311
 10
110.1469835014
 20
-43.5521603261
 10
110.1508500211
 20
-43.5273827865
 10
110.1547888427
 20
-43.5010175884
 10
110.1587494735
 20
-43.4733118142
 10
110.1626761956
 20
-43.4443871979
 10
110.1665277157
 20
-43.4144399935
 10
110.170260376
 20
-43.3838985547
 10
110.173846658
 20
-43.3529504211
 10
110.177231876
 20
-43.3217459075
 10
110.18034267
 20
-43.2906806904
 10
110.183139922
 20
-43.2599867122
 10
110.1856134548
 20
-43.2297193658
 10
110.1899926941
 20
-43.1680089141
  0
LWPOLYLINE
  5
3B7
100
AcDbEntity
  8
RACCORDO
100
AcDbPolyline
 62
253
  6
CONTINUOUS
 90
3
 70
0
 10
110.3972758238
 20
-44.3443143284
 10
110.400330854
 20
-44.3276903633
 10
110.4098249445
 20
-44.2750755874
  0
LWPOLYLINE
  5
3B8
100
AcDbEntity
  8
RACCORDO
100
AcDbPolyline
 62
253
  6
CONTINUOUS
 90
10
 70
0
 10
110.6031100106
 20
43.8904819762
 10
110.6016241514
 20
43.8987422278
 10
110.6001829139
 20
43.9070223055
 10
110.598786295
 20
43.9153222161
 10
110.5974352236
 20
43.9236443207
 10
110.5961287644
 20
43.9319862723
 10
110.5948641194
 20
43.9403410149
 10
110.593640355
 20
43.948706201
 10
110.5924584011
 20
43.9570841911
 10
110.5913182556
 20
43.9654749918
  0
LINE
  5
3B9
100
AcDbEntity
  8
RACCORDO
100
AcDbLine
 62
253
  6
CONTINUOUS
 10
110.4078143356
 20
44.2863399554
 11
110.3981104413
 21
44.3397908274
  0
LINE
  5
3BA
100
AcDbEntity
  8
RACCORDO
100
AcDbLine
 62
253
  6
CONTINUOUS
 10
110.533903925
 20
44.3239934047
 11
110.5229084507
 21
44.3861689692
  0
LINE
  5
3BB
100
AcDbEntity
  8
RACCORDO
100
AcDbLine
 62
253
  6
CONTINUOUS
 10
110.4223029949
 20
44.2040499638
 11
110.4078143356
 21
44.2863399554
  0
LWPOLYLINE
  5
3BC
100
AcDbEntity
  8
0
100
AcDbPolyline
 62
7
  6
CONTINUOUS
 90
10
 70
0
 10
110.5857705125
 20
40.7902933223
 10
110.212634964
 20
42.9712253507
 10
110.2086515233
 20
42.9969005907
 10
110.2049198971
 20
43.0233260267
 10
110.2014494459
 20
43.0504385934
 10
110.1982318193
 20
43.0783069423
 10
110.1952471739
 20
43.1071510311
 10
110.1924959578
 20
43.1370672659
 10
110.1899926941
 20
43.1680089141
 10
110.1856134548
 20
43.2297193658
  0
LINE
  5
3BD
100
AcDbEntity
  8
RACCORDO
100
AcDbLine
 62
253
  6
CONTINUOUS
 10
110.5468115669
 20
44.2485938831
 11
110.533903925
 21
44.3239934047
  0
LINE
  5
3BE
100
AcDbEntity
  8
RACCORDO
100
AcDbLine
 62
253
  6
CONTINUOUS
 10
110.4393761455
 20
44.1042183613
 11
110.4223029949
 21
44.2040499638
  0
LINE
  5
3BF
100
AcDbEntity
  8
RACCORDO
100
AcDbLine
 62
253
  6
CONTINUOUS
 10
110.5581568359
 20
44.1802016542
 11
110.5468115669
 21
44.2485938831
  0
LINE
  5
3C0
100
AcDbEntity
  8
RACCORDO
100
AcDbLine
 62
253
  6
CONTINUOUS
 10
110.4552718304
 20
44.0084527691
 11
110.4393761455
 21
44.1042183613
  0
LINE
  5
3C1
100
AcDbEntity
  8
RACCORDO
100
AcDbLine
 62
253
  6
CONTINUOUS
 10
110.4663346077
 20
43.9398903518
 11
110.4552718304
 21
44.0084527691
  0
LINE
  5
3C2
100
AcDbEntity
  8
RACCORDO
100
AcDbLine
 62
253
  6
CONTINUOUS
 10
110.5682749146
 20
44.1173795808
 11
110.5581568359
 21
44.1802016542
  0
LINE
  5
3C3
100
AcDbEntity
  8
RACCORDO
100
AcDbLine
 62
253
  6
CONTINUOUS
 10
110.5770756066
 20
44.0610327521
 11
110.5682749146
 21
44.1173795808
  0
LINE
  5
3C4
100
AcDbEntity
  8
RACCORDO
100
AcDbLine
 62
253
  6
CONTINUOUS
 10
110.5846864018
 20
44.0107811327
 11
110.5770756066
 21
44.0610327521
  0
LINE
  5
3C5
100
AcDbEntity
  8
RACCORDO
100
AcDbLine
 62
253
  6
CONTINUOUS
 10
110.5913182556
 20
43.9654749918
 11
110.5846864018
 21
44.0107811327
  0
LWPOLYLINE
  5
3C6
100
AcDbEntity
  8
RACCORDO
100
AcDbPolyline
 62
253
  6
CONTINUOUS
 90
22
 70
0
 10
110.6031100106
 20
-43.8904819762
 10
110.7282012741
 20
-43.1997132559
 10
110.8538110027
 20
-42.4885379275
 10
110.9796751134
 20
-41.7569234981
 10
111.1053165994
 20
-41.0060492987
 10
111.2306726913
 20
-40.2346763871
 10
111.3560372177
 20
-39.4391380957
 10
111.4810704816
 20
-38.6193910687
 10
111.6054024474
 20
-37.7754089889
 10
111.7291569547
 20
-36.9035367799
 10
111.8519259047
 20
-36.0035455752
 10
111.9732182117
 20
-35.0755923478
 10
112.0929031771
 20
-34.1165907996
 10
112.2105116312
 20
-33.1256952286
 10
112.3254063506
 20
-32.1036886585
 10
112.4371142011
 20
-31.0499263452
 10
112.5450594442
 20
-29.9641904182
 10
112.648585871
 20
-28.8466642919
 10
112.7470609036
 20
-27.6973122876
 10
112.8398278451
 20
-26.5161250003
 10
112.9262058306
 20
-25.3031200638
 10
113.0054984249
 20
-24.0583142236
  0
LINE
  5
3C7
100
AcDbEntity
  8
RACCORDO
100
AcDbLine
 62
253
  6
CONTINUOUS
 10
110.5140906357
 20
-44.4344947027
 11
110.5215370254
 21
-44.3937637143
  0
LINE
  5
3C8
100
AcDbEntity
  8
RACCORDO
100
AcDbLine
 62
253
  6
CONTINUOUS
 10
110.5071613591
 20
-44.4713400622
 11
110.5140906357
 21
-44.4344947027
  0
LINE
  5
3C9
100
AcDbEntity
  8
RACCORDO
100
AcDbLine
 62
253
  6
CONTINUOUS
 10
110.388831997
 20
-44.3892486622
 11
110.3972758238
 21
-44.3443143284
  0
LINE
  5
3CA
100
AcDbEntity
  8
RACCORDO
100
AcDbLine
 62
253
  6
CONTINUOUS
 10
110.3839752827
 20
-44.4142978971
 11
110.388831997
 21
-44.3892486622
  0
LINE
  5
3CB
100
AcDbEntity
  8
RACCORDO
100
AcDbLine
 62
253
  6
CONTINUOUS
 10
110.5009315441
 20
-44.5034989207
 11
110.5071613591
 21
-44.4713400622
  0
LINE
  5
3CC
100
AcDbEntity
  8
RACCORDO
100
AcDbLine
 62
253
  6
CONTINUOUS
 10
110.3796293074
 20
-44.4360983737
 11
110.3839752827
 21
-44.4142978971
  0
LINE
  5
3CD
100
AcDbEntity
  8
RACCORDO
100
AcDbLine
 62
253
  6
CONTINUOUS
 10
110.3757410645
 20
-44.4549930927
 11
110.3796293074
 21
-44.4360983737
  0
LINE
  5
3CE
100
AcDbEntity
  8
RACCORDO
100
AcDbLine
 62
253
  6
CONTINUOUS
 10
110.3722704286
 20
-44.4712836777
 11
110.3757410645
 21
-44.4549930927
  0
LWPOLYLINE
  5
3CF
100
AcDbEntity
  8
0
100
AcDbPolyline
 62
7
  6
CONTINUOUS
 90
4
 70
0
 10
110.1261384952
 20
-43.6629343198
 10
110.12924649
 20
-43.6493478616
 10
110.1325030531
 20
-43.6337120024
 10
110.1359098675
 20
-43.6161111189
  0
LWPOLYLINE
  5
3D0
100
AcDbEntity
  8
RACCORDO
100
AcDbPolyline
 62
253
  6
CONTINUOUS
 90
4
 70
0
 10
110.3664769676
 20
-44.4968921143
 10
110.3677905352
 20
-44.4912980542
 10
110.369192279
 20
-44.4851824398
 10
110.3722704286
 20
-44.4712836777
  0
LWPOLYLINE
  5
3D1
100
AcDbEntity
  8
RACCORDO
100
AcDbPolyline
 62
253
  6
CONTINUOUS
 90
18
 70
0
 10
110.3703448092
 20
44.4800530586
 10
110.368775581
 20
44.487012844
 10
110.3673169815
 20
44.4933291954
 10
110.3659598571
 20
44.4990542709
 10
110.3647013031
 20
44.5042011541
 10
110.3635313625
 20
44.5088323514
 10
110.3624429895
 20
44.512981858
 10
110.3614328212
 20
44.5166717456
 10
110.3604974946
 20
44.5199408308
 10
110.3596328211
 20
44.5228135444
 10
110.358833194
 20
44.5253180503
 10
110.3580938201
 20
44.5274949968
 10
110.3574114333
 20
44.529367108
 10
110.356781023
 20
44.5309560038
 10
110.3561963281
 20
44.5322945147
 10
110.3556533518
 20
44.5334038025
 10
110.355149729
 20
44.5342967409
 10
110.3546823533
 20
44.5349899335
  0
LINE
  5
3D2
100
AcDbEntity
  8
RACCORDO
100
AcDbLine
 62
253
  6
CONTINUOUS
 10
110.3738959571
 20
44.4637271777
 11
110.3703448092
 21
44.4800530586
  0
LWPOLYLINE
  5
3D3
100
AcDbEntity
  8
RACCORDO
100
AcDbPolyline
 62
253
  6
CONTINUOUS
 90
9
 70
0
 10
110.4799997489
 20
43.8679120795
 10
110.4780813586
 20
43.87690568
 10
110.4762241442
 20
43.8859003982
 10
110.4744280114
 20
43.8948967658
 10
110.4726945732
 20
43.9038974351
 10
110.4710220183
 20
43.9129008642
 10
110.4694051302
 20
43.92190122
 10
110.4678421201
 20
43.9308968441
 10
110.4663346077
 20
43.9398903518
  0
LINE
  5
3D4
100
AcDbEntity
  8
RACCORDO
100
AcDbLine
 62
253
  6
CONTINUOUS
 10
110.3780655317
 20
44.4437705551
 11
110.3738959571
 21
44.4637271777
  0
LWPOLYLINE
  5
3D5
100
AcDbEntity
  8
RACCORDO
100
AcDbPolyline
 62
253
  6
CONTINUOUS
 90
24
 70
0
 10
110.496905249
 20
44.5236586633
 10
110.4938187943
 20
44.5387296419
 10
110.4909712652
 20
44.5523289813
 10
110.4883599929
 20
44.5644812749
 10
110.4859471918
 20
44.5753813082
 10
110.4837191603
 20
44.585165591
 10
110.4816689345
 20
44.5938849261
 10
110.4797771658
 20
44.6016306597
 10
110.4780181202
 20
44.6085648534
 10
110.4763815677
 20
44.6147462051
 10
110.4748624701
 20
44.6201983086
 10
110.473448692
 20
44.624999397
 10
110.4721297128
 20
44.6291978989
 10
110.4709019935
 20
44.6328207535
 10
110.4697650367
 20
44.6359076374
 10
110.4687123043
 20
44.6384993833
 10
110.467734343
 20
44.6406404452
 10
110.466826396
 20
44.6423752535
 10
110.4659822952
 20
44.6437394198
 10
110.4651956236
 20
44.6447643605
 10
110.4644624546
 20
44.6454817932
 10
110.4637782982
 20
44.6459192087
 10
110.463137714
 20
44.6461019321
 10
110.462535901
 20
44.6460554937
  0
LINE
  5
3D6
100
AcDbEntity
  8
RACCORDO
100
AcDbLine
 62
253
  6
CONTINUOUS
 10
110.3829882413
 20
44.419304891
 11
110.3780655317
 21
44.4437705551
  0
LINE
  5
3D7
100
AcDbEntity
  8
RACCORDO
100
AcDbLine
 62
253
  6
CONTINUOUS
 10
110.5036891033
 20
44.4893757011
 11
110.496905249
 21
44.5236586633
  0
LWPOLYLINE
  5
3D8
100
AcDbEntity
  8
0
100
AcDbPolyline
 62
7
  6
CONTINUOUS
 90
7
 70
0
 10
110.1359098675
 20
43.6161111189
 10
110.1325030531
 20
43.6337120024
 10
110.12924649
 20
43.6493478616
 10
110.1261384952
 20
43.6629343198
 10
110.123180895
 20
43.6744227561
 10
110.1203798024
 20
43.6837865772
 10
110.1177389022
 20
43.6909911438
  0
LINE
  5
3D9
100
AcDbEntity
  8
RACCORDO
100
AcDbLine
 62
253
  6
CONTINUOUS
 10
110.3886230231
 20
44.3903263884
 11
110.3829882413
 21
44.419304891
  0
LINE
  5
3DA
100
AcDbEntity
  8
RACCORDO
100
AcDbLine
 62
253
  6
CONTINUOUS
 10
110.5112180816
 20
44.4499078904
 11
110.5036891033
 21
44.4893757011
  0
LWPOLYLINE
  5
3DB
100
AcDbEntity
  8
RACCORDO
100
AcDbPolyline
 62
253
  6
CONTINUOUS
 90
3
 70
0
 10
110.3981104413
 20
44.3397908274
 10
110.3948822704
 20
44.3572125766
 10
110.3886230231
 20
44.3903263884
  0
LWPOLYLINE
  5
3DC
100
AcDbEntity
  8
RACCORDO
100
AcDbPolyline
 62
253
  6
CONTINUOUS
 90
3
 70
0
 10
110.5229084507
 20
44.3861689692
 10
110.5190331453
 20
44.4075670254
 10
110.5112180816
 20
44.4499078904
  0
LWPOLYLINE
  5
3DD
100
AcDbEntity
  8
RACCORDO
100
AcDbPolyline
 62
253
  6
CONTINUOUS
 90
10
 70
0
 10
112.6000925067
 20
43.8457940385
 10
113.0063415021
 20
41.5038172084
 10
113.3789587149
 20
39.1562586394
 10
113.7179437324
 20
36.8036112606
 10
114.0233508548
 20
34.446381028
 10
114.2951249603
 20
32.0850474864
 10
114.5331014908
 20
29.7200635476
 10
114.7372253045
 20
27.3519082284
 10
114.9075506902
 20
24.9810868712
 10
115.0440772231
 20
22.6080915512
  0
LINE
  5
3DE
100
AcDbEntity
  8
RACCORDO
100
AcDbLine
 62
7
  6
CONTINUOUS
 10
107.2190149426
 20
-43.1629649689
 11
107.2190313394
 21
-43.1629235081
  0
LWPOLYLINE
  5
3DF
100
AcDbEntity
  8
0
100
AcDbPolyline
 62
7
  6
CONTINUOUS
 90
4
 70
0
 10
110.1177389022
 20
-43.6909911438
 10
110.1203798024
 20
-43.6837865772
 10
110.123180895
 20
-43.6744227561
 10
110.1261384952
 20
-43.6629343198
  0
LWPOLYLINE
  5
3E0
100
AcDbEntity
  8
0
100
AcDbPolyline
 62
7
  6
CONTINUOUS
 90
7
 70
0
 10
110.1177389024
 20
43.6909911438
 10
110.1164367305
 20
43.6937853302
 10
110.1151623061
 20
43.6960490152
 10
110.1139110454
 20
43.6977923394
 10
110.1126785041
 20
43.6990253395
 10
110.1114603754
 20
43.6997579492
 10
110.1102524886
 20
43.7
  0
LWPOLYLINE
  5
3E1
100
AcDbEntity
  8
RACCORDO
100
AcDbPolyline
 62
253
  6
CONTINUOUS
 90
10
 70
0
 10
107.239343753
 20
22.8983882283
 10
107.8138911484
 20
22.9706591839
 10
108.3917978433
 20
23.0394028347
 10
108.972712183
 20
23.1045930608
 10
109.5565176556
 20
23.1662277804
 10
110.1426311906
 20
23.2242541007
 10
110.729993907
 20
23.2785827653
 10
111.3180135515
 20
23.3291813953
 10
111.9065737387
 20
23.3760600412
 10
112.4953257611
 20
23.4192064493
  0
LWPOLYLINE
  5
3E2
100
AcDbEntity
  8
RACCORDO
100
AcDbPolyline
 62
253
  6
CONTINUOUS
 90
10
 70
0
 10
107.2400898585
 20
22.0170095779
 10
107.8203483222
 20
22.086873108
 10
108.4038408195
 20
22.1533218281
 10
108.9902245917
 20
22.2163311625
 10
109.5793823075
 20
22.2758986059
 10
110.1707497902
 20
22.3319750489
 10
110.7633074117
 20
22.3844780312
 10
111.356482798
 20
22.433377291
 10
111.9501594214
 20
22.4786815118
 10
112.5439982919
 20
22.5203789265
  0
LWPOLYLINE
  5
3E3
100
AcDbEntity
  8
RACCORDO
100
AcDbPolyline
 62
253
  6
CONTINUOUS
 90
10
 70
0
 10
107.2406032563
 20
21.3728487205
 10
107.8247786692
 20
21.4408170337
 10
108.4120976256
 20
21.505454484
 10
109.0022239959
 20
21.566737549
 10
109.5950401751
 20
21.6246633827
 10
110.1899956899
 20
21.6791855071
 10
110.7860990398
 20
21.7302262444
 10
111.3827922189
 20
21.7777568187
 10
111.9799588617
 20
21.8217849222
 10
112.5772671285
 20
21.8622991111
  0
LINE
  5
3E4
100
AcDbEntity
  8
RACCORDO
100
AcDbLine
 62
253
  6
CONTINUOUS
 10
112.8804003804
 20
24.050829082
 11
113.0054984247
 21
24.0583142237
  0
LINE
  5
3E5
100
AcDbEntity
  8
RACCORDO
100
AcDbLine
 62
253
  6
CONTINUOUS
 10
113.3026509616
 20
22.5203789087
 11
112.9657104985
 21
22.5033850533
  0
LINE
  5
3E6
100
AcDbEntity
  8
RACCORDO
100
AcDbLine
 62
253
  6
CONTINUOUS
 10
115.49986708
 20
22.6310194482
 11
115.0440772231
 21
22.6080915512
  0
LINE
  5
3E7
100
AcDbEntity
  8
RACCORDO
100
AcDbLine
 62
253
  6
CONTINUOUS
 10
115.5042789745
 20
22.5432326076
 11
115.0484842298
 21
22.5203789087
  0
LINE
  5
3E8
100
AcDbEntity
  8
RACCORDO
100
AcDbLine
 62
253
  6
CONTINUOUS
 10
112.9682550782
 20
22.4527732306
 11
113.0935278642
 21
22.4590680776
  0
LINE
  5
3E9
100
AcDbEntity
  8
RACCORDO
100
AcDbLine
 62
253
  6
CONTINUOUS
 10
115.0484842298
 20
22.5203789087
 11
113.3026509616
 21
22.5203789087
  0
LWPOLYLINE
  5
3EA
100
AcDbEntity
  8
RACCORDO
100
AcDbPolyline
 62
253
  6
CONTINUOUS
 90
3
 70
0
 10
106.99986708
 20
21.3730508899
 10
107.0011210225
 20
21.3730320535
 10
107.2406032563
 20
21.3728487205
  0
LWPOLYLINE
  5
3EB
100
AcDbEntity
  8
RACCORDO
100
AcDbPolyline
 62
253
  6
CONTINUOUS
 90
4
 70
0
 10
106.99986708
 20
22.0172222975
 10
107.0011178351
 20
22.0172024962
 10
107.0048596712
 20
22.0171828601
 10
107.2400898585
 20
22.0170095779
  0
LWPOLYLINE
  5
3EC
100
AcDbEntity
  8
RACCORDO
100
AcDbPolyline
 62
253
  6
CONTINUOUS
 90
4
 70
0
 10
106.9998671007
 20
22.8986132865
 10
107.0011132278
 20
22.8985923645
 10
107.0048412588
 20
22.8985716164
 10
107.2393437553
 20
22.8983882283
  0
LWPOLYLINE
  5
3ED
100
AcDbEntity
  8
RACCORDO
100
AcDbPolyline
 62
253
  6
CONTINUOUS
 90
16
 70
0
 10
110.3546823533
 20
-44.5349899335
 10
110.3551324795
 20
-44.5343252003
 10
110.3556164695
 20
-44.5334744361
 10
110.3561371548
 20
-44.5324225069
 10
110.3566970525
 20
-44.5311562501
 10
110.3572994923
 20
-44.5296575527
 10
110.3579489441
 20
-44.5279016002
 10
110.3586498826
 20
-44.5258697625
 10
110.359404895
 20
-44.5235428352
 10
110.3602161279
 20
-44.5208924054
 10
110.3610870611
 20
-44.5178988469
 10
110.3620218435
 20
-44.5145408169
 10
110.3630240141
 20
-44.5107852137
 10
110.364097937
 20
-44.5066077831
 10
110.3652477365
 20
-44.5019870697
 10
110.3664769676
 20
-44.4968921143
  0
LWPOLYLINE
  5
3EE
100
AcDbEntity
  8
RACCORDO
100
AcDbPolyline
 62
253
  6
CONTINUOUS
 90
13
 70
0
 10
110.3546823533
 20
44.5349899335
 10
110.3543480429
 20
44.5354685534
 10
110.3540554219
 20
44.535981691
 10
110.3538051619
 20
44.536525774
 10
110.3535965102
 20
44.5370916155
 10
110.3534315854
 20
44.5376811436
 10
110.3533154701
 20
44.5383069067
 10
110.3532486273
 20
44.5389633353
 10
110.3532322362
 20
44.5396472868
 10
110.3532726647
 20
44.5403738281
 10
110.3533727377
 20
44.5411442605
 10
110.353531625
 20
44.5419467189
 10
110.3537503479
 20
44.5427758029
  0
LWPOLYLINE
  5
3EF
100
AcDbEntity
  8
RACCORDO
100
AcDbPolyline
 62
7
  6
CONTINUOUS
 90
10
 70
0
 10
107.2082874346
 20
-43.1690345982
 10
107.2083890241
 20
-43.1689867909
 10
107.2087002719
 20
-43.1688501247
 10
107.2092468245
 20
-43.1685969496
 10
107.2100491655
 20
-43.1681987948
 10
107.2111373564
 20
-43.1676297035
 10
107.212552924
 20
-43.1668644992
 10
107.2143288244
 20
-43.1658746637
 10
107.2164875766
 20
-43.1646300441
 10
107.2190573346
 20
-43.1631009655
  0
LWPOLYLINE
  5
3F0
100
AcDbEntity
  8
RACCORDO
100
AcDbPolyline
 62
7
  6
CONTINUOUS
 90
10
 70
0
 10
107.2190573346
 20
43.1631009655
 10
107.2164875766
 20
43.1646300441
 10
107.2143288244
 20
43.1658746637
 10
107.212552924
 20
43.1668644992
 10
107.2111373564
 20
43.1676297035
 10
107.2100491655
 20
43.1681987948
 10
107.2092468245
 20
43.1685969496
 10
107.2087002719
 20
43.1688501247
 10
107.2083890241
 20
43.1689867909
 10
107.2082874346
 20
43.1690345982
  0
LWPOLYLINE
  5
3F1
100
AcDbEntity
  8
RACCORDO
100
AcDbPolyline
 62
253
  6
CONTINUOUS
 90
15
 70
0
 10
112.5092473456
 20
44.8340076387
 10
112.5117557189
 20
44.8321493719
 10
112.5144251391
 20
44.8270088139
 10
112.517241775
 20
44.8186092666
 10
112.5201902884
 20
44.8069910442
 10
112.5232619532
 20
44.7921945993
 10
112.5264529962
 20
44.7742449729
 10
112.529758262
 20
44.7531759451
 10
112.5331616321
 20
44.7290606579
 10
112.536643844
 20
44.701990962
 10
112.5402023129
 20
44.6720637266
 10
112.5438278706
 20
44.6393668152
 10
112.547493695
 20
44.6039963408
 10
112.5512008876
 20
44.5660611712
 10
112.5549432352
 20
44.5256836327
  0
LWPOLYLINE
  5
3F2
100
AcDbEntity
  8
RACCORDO
100
AcDbPolyline
 62
7
  6
CONTINUOUS
 90
13
 70
0
 10
107.2190573346
 20
43.1631009655
 10
107.4482821441
 20
43.2252531948
 10
107.6805531017
 20
43.2844033202
 10
107.9156758908
 20
43.3405133886
 10
108.1536619707
 20
43.3935899443
 10
108.3941086863
 20
43.4435442071
 10
108.6361821409
 20
43.4902200175
 10
108.8796521718
 20
43.5336013074
 10
109.1243200062
 20
43.5736777232
 10
109.3693755973
 20
43.6103508103
 10
109.6144011406
 20
43.6436057509
 10
109.8593818248
 20
43.6734849272
 10
110.0863322793
 20
43.6981857106
  0
LWPOLYLINE
  5
3F3
100
AcDbEntity
  8
RACCORDO
100
AcDbPolyline
 62
253
  6
CONTINUOUS
 90
12
 70
0
 10
107.2180920869
 20
43.1618163141
 10
107.4485071346
 20
43.2232857334
 10
107.6819928865
 20
43.2817638788
 10
107.9183557947
 20
43.3372120403
 10
108.1576223304
 20
43.3896382287
 10
108.3993762292
 20
43.4389502916
 10
108.6427402649
 20
43.4849855894
 10
108.8874767579
 20
43.5277276944
 10
109.1333934185
 20
43.5671683219
 10
109.3796566848
 20
43.6032085026
 10
109.6258405318
 20
43.6358346101
 10
109.8719375855
 20
43.665091086
  0
LINE
  5
3F4
100
AcDbEntity
  8
RACCORDO
100
AcDbLine
 62
7
  6
CONTINUOUS
 10
110.6687145734
 20
44.7
 11
110.4625359603
 21
44.6460555093
  0
LINE
  5
3F5
100
AcDbEntity
  8
RACCORDO
100
AcDbLine
 62
253
  6
CONTINUOUS
 10
108.1536619707
 20
43.3935899443
 11
108.1558466178
 21
43.3934096617
  0
LINE
  5
3F6
100
AcDbEntity
  8
RACCORDO
100
AcDbLine
 62
253
  6
CONTINUOUS
 10
108.3941086863
 20
43.4435442071
 11
108.3968491593
 21
43.4433753226
  0
LWPOLYLINE
  5
3F7
100
AcDbEntity
  8
RACCORDO
100
AcDbPolyline
 62
253
  6
CONTINUOUS
 90
13
 70
0
 10
107.1769302442
 20
42.8607687277
 10
107.4157277621
 20
42.9067504522
 10
107.657718507
 20
42.949655966
 10
107.9027016913
 20
42.9894455095
 10
108.150656421
 20
43.0261046693
 10
108.4011983465
 20
43.059562739
 10
108.6535646863
 20
43.0897166446
 10
108.9075255887
 20
43.1165464561
 10
109.1628698036
 20
43.1400343318
 10
109.4188411841
 20
43.1601228588
 10
109.6750352747
 20
43.1768038373
 10
109.9314089662
 20
43.1900950547
 10
110.1877444045
 20
43.1999994174
  0
LINE
  5
3F8
100
AcDbEntity
  8
RACCORDO
100
AcDbLine
 62
253
  6
CONTINUOUS
 10
108.6361821409
 20
43.4902200175
 11
108.6394662528
 21
43.4900652058
  0
LINE
  5
3F9
100
AcDbEntity
  8
RACCORDO
100
AcDbLine
 62
253
  6
CONTINUOUS
 10
110.7982887214
 20
44.0035194839
 11
110.5913182556
 21
43.9654749918
  0
LINE
  5
3FA
100
AcDbEntity
  8
RACCORDO
100
AcDbLine
 62
253
  6
CONTINUOUS
 10
110.479999748
 20
43.8679120794
 11
110.6031100106
 21
43.8904819762
  0
LWPOLYLINE
  5
3FB
100
AcDbEntity
  8
RACCORDO
100
AcDbPolyline
 62
253
  6
CONTINUOUS
 90
13
 70
0
 10
107.1937227186
 20
42.6375679674
 10
107.433568097
 20
42.6807371217
 10
107.6765593614
 20
42.7208733019
 10
107.9224998921
 20
42.7579375211
 10
108.1713564929
 20
42.791911978
 10
108.4227652269
 20
42.8227314323
 10
108.676018085
 20
42.850304549
 10
108.9308879025
 20
42.8746096811
 10
109.1871714648
 20
42.8956276283
 10
109.4441775915
 20
42.9133082174
 10
109.7015273396
 20
42.9276415663
 10
109.9591624211
 20
42.9386378268
 10
110.2168690699
 20
42.9462954714
  0
LINE
  5
3FC
100
AcDbEntity
  8
RACCORDO
100
AcDbLine
 62
253
  6
CONTINUOUS
 10
108.8796521718
 20
43.5336013074
 11
108.8834677559
 21
43.5334637776
  0
LINE
  5
3FD
100
AcDbEntity
  8
RACCORDO
100
AcDbLine
 62
253
  6
CONTINUOUS
 10
113.0485404755
 20
43.926800663
 11
112.6000925042
 21
43.8457940521
  0
LINE
  5
3FE
100
AcDbEntity
  8
RACCORDO
100
AcDbLine
 62
253
  6
CONTINUOUS
 10
109.1243200062
 20
43.5736777232
 11
109.1286546987
 21
43.5735611628
  0
LINE
  5
3FF
100
AcDbEntity
  8
RACCORDO
100
AcDbLine
 62
253
  6
CONTINUOUS
 10
109.3693755973
 20
43.6103508103
 11
109.3742039913
 21
43.6102576722
  0
LINE
  5
400
100
AcDbEntity
  8
RACCORDO
100
AcDbLine
 62
253
  6
CONTINUOUS
 10
109.6144011406
 20
43.6436057509
 11
109.6196933925
 21
43.6435388974
  0
LINE
  5
401
100
AcDbEntity
  8
RACCORDO
100
AcDbLine
 62
253
  6
CONTINUOUS
 10
110.4830381216
 20
43.9512009581
 11
110.5913182568
 21
43.9654749921
  0
LINE
  5
402
100
AcDbEntity
  8
RACCORDO
100
AcDbLine
 62
253
  6
CONTINUOUS
 10
110.4648825026
 20
43.9488822473
 11
110.4830381216
 21
43.9512009581
  0
LINE
  5
403
100
AcDbEntity
  8
RACCORDO
100
AcDbLine
 62
253
  6
CONTINUOUS
 10
109.8593818248
 20
43.6734849272
 11
109.8651124631
 21
43.6734488016
  0
LINE
  5
404
100
AcDbEntity
  8
RACCORDO
100
AcDbLine
 62
253
  6
CONTINUOUS
 10
110.0864154088
 20
43.6974181979
 11
110.1102524886
 21
43.7
  0
LINE
  5
405
100
AcDbEntity
  8
RACCORDO
100
AcDbLine
 62
253
  6
CONTINUOUS
 10
109.8719375855
 20
43.665091086
 11
110.1177389022
 21
43.6909911438
  0
LINE
  5
406
100
AcDbEntity
  8
RACCORDO
100
AcDbLine
 62
7
  6
CONTINUOUS
 10
110.0863322793
 20
43.6981857106
 11
110.1041087818
 21
43.7
  0
LINE
  5
407
100
AcDbEntity
  8
RACCORDO
100
AcDbLine
 62
7
  6
CONTINUOUS
 10
109.7776226916
 20
43.6781815943
 11
110.1041087818
 21
43.7
  0
LINE
  5
408
100
AcDbEntity
  8
0
100
AcDbLine
 62
7
  6
CONTINUOUS
 10
110.1102524886
 20
43.7
 11
110.1042806163
 21
43.6999998177
  0
LINE
  5
409
100
AcDbEntity
  8
RACCORDO
100
AcDbLine
 62
253
  6
CONTINUOUS
 10
107.0530439903
 20
42.6380367167
 11
107.19372269
 21
42.6375679671
  0
LWPOLYLINE
  5
40A
100
AcDbEntity
  8
RACCORDO
100
AcDbPolyline
 62
253
  6
CONTINUOUS
 90
6
 70
0
 10
106.99986708
 20
42.6387628281
 10
107.0013887676
 20
42.6386343321
 10
107.0059383636
 20
42.6385071381
 10
107.0134697148
 20
42.6383825363
 10
107.0239064196
 20
42.6382617908
 10
107.0530439903
 20
42.6380367167
  0
LINE
  5
40B
100
AcDbEntity
  8
RACCORDO
100
AcDbLine
 62
253
  6
CONTINUOUS
 10
112.6000925067
 20
43.8457940385
 11
110.7982887635
 21
44.0035192549
  0
LINE
  5
40C
100
AcDbEntity
  8
RACCORDO
100
AcDbLine
 62
7
  6
CONTINUOUS
 10
112.5092473456
 20
44.8340076387
 11
110.611945974
 21
45.0
  0
ARC
  5
40D
100
AcDbEntity
  8
RACCORDO
100
AcDbCircle
 62
7
  6
CONTINUOUS
 10
-333.9307025954
 20
-0.0
 40
450.0
100
AcDbArc
 50
357.1173180382
 51
2.882682159
  0
ARC
  5
40E
100
AcDbEntity
  8
DRAFT
100
AcDbCircle
 62
7
  6
CONTINUOUS
 10
-333.9307025954
 20
-0.0
 40
447.8
100
AcDbArc
 50
357.1173130894
 51
2.8826869106
  0
ARC
  5
40F
100
AcDbEntity
  8
0
100
AcDbCircle
 62
7
  6
CONTINUOUS
 10
-51.1157626436
 20
-14.2411105033
 40
166.926732391
100
AcDbArc
 50
354.9696557406
 51
355.94488403
  0
ARC
  5
410
100
AcDbEntity
  8
RACCORDO
100
AcDbCircle
 62
7
  6
CONTINUOUS
 10
-51.1157626436
 20
-14.2411105033
 40
166.826732391
100
AcDbArc
 50
349.5756088776
 51
357.1173264382
  0
ARC
  5
411
100
AcDbEntity
  8
RACCORDO
100
AcDbCircle
 62
7
  6
CONTINUOUS
 10
-51.1157626436
 20
-14.2411105033
 40
164.626732391
100
AcDbArc
 50
349.2315617336
 51
357.1173130894
  0
ARC
  5
412
100
AcDbEntity
  8
RACCORDO
100
AcDbCircle
 62
7
  6
CONTINUOUS
 10
112.4656694742
 20
-44.3359102896
 40
0.5
100
AcDbArc
 50
275.0
 51
349.5756088776
  0
ARC
  5
413
100
AcDbEntity
  8
RACCORDO
100
AcDbCircle
 62
7
  6
CONTINUOUS
 10
107.29986708
 20
-42.8833544125
 40
0.3
100
AcDbArc
 50
179.9999999846
 51
252.2258631863
  0
ARC
  5
414
100
AcDbEntity
  8
RACCORDO
100
AcDbCircle
 62
7
  6
CONTINUOUS
 10
107.29986708
 20
-42.8741895961
 40
0.3
100
AcDbArc
 50
180.0000010891
 51
254.3734674801
  0
ARC
  5
415
100
AcDbEntity
  8
RACCORDO
100
AcDbCircle
 62
7
  6
CONTINUOUS
 10
107.19986708
 20
-42.4113525438
 40
0.2
100
AcDbArc
 50
102.43331322
 51
180.0
  0
ARC
  5
416
100
AcDbEntity
  8
RACCORDO
100
AcDbCircle
 62
7
  6
CONTINUOUS
 10
110.4975732772
 20
-44.5001734931
 40
0.15
100
AcDbArc
 50
196.5000063076
 51
255.337837178
  0
ARC
  5
417
100
AcDbEntity
  8
RACCORDO
100
AcDbCircle
 62
7
  6
CONTINUOUS
 10
108.69986708
 20
-3.2482701106
 40
0.3
100
AcDbArc
 50
280.0004315253
 51
0.0006732127
  0
ARC
  5
418
100
AcDbEntity
  8
RACCORDO
100
AcDbCircle
 62
7
  6
CONTINUOUS
 10
107.19986708
 20
-7.8113525438
 40
0.2
100
AcDbArc
 50
174.4693376286
 51
180.0
  0
ARC
  5
419
100
AcDbEntity
  8
RACCORDO
100
AcDbCircle
 62
7
  6
CONTINUOUS
 10
107.19986708
 20
-23.8465394526
 40
0.2
100
AcDbArc
 50
174.0666377965
 51
180.0
  0
ARC
  5
41A
100
AcDbEntity
  8
RACCORDO
100
AcDbCircle
 62
7
  6
CONTINUOUS
 10
107.19986708
 20
-4.0204738877
 40
0.2
100
AcDbArc
 50
100.0
 51
180.0
  0
ARC
  5
41B
100
AcDbEntity
  8
RACCORDO
100
AcDbCircle
 62
7
  6
CONTINUOUS
 10
-51.1157626436
 20
14.2411105033
 40
166.826732391
100
AcDbArc
 50
2.8826740936
 51
10.4243911224
  0
ARC
  5
41C
100
AcDbEntity
  8
RACCORDO
100
AcDbCircle
 62
7
  6
CONTINUOUS
 10
-51.1157626436
 20
14.2411105033
 40
164.626732391
100
AcDbArc
 50
2.8826869106
 51
10.7684382664
  0
ARC
  5
41D
100
AcDbEntity
  8
RACCORDO
100
AcDbCircle
 62
7
  6
CONTINUOUS
 10
108.69986708
 20
3.2482701106
 40
0.3
100
AcDbArc
 50
359.999042967
 51
79.9996828362
  0
ARC
  5
41E
100
AcDbEntity
  8
RACCORDO
100
AcDbCircle
 62
7
  6
CONTINUOUS
 10
107.1998671151
 20
4.0204738815
 40
0.2
100
AcDbArc
 50
179.9999963013
 51
259.9999807736
  0
ARC
  5
41F
100
AcDbEntity
  8
RACCORDO
100
AcDbCircle
 62
7
  6
CONTINUOUS
 10
112.4656703107
 20
44.3359058363
 40
0.5000000001
100
AcDbArc
 50
10.4249103538
 51
85.0001399558
  0
ARC
  5
420
100
AcDbEntity
  8
RACCORDO
100
AcDbCircle
 62
7
  6
CONTINUOUS
 10
107.29986708
 20
42.8833544125
 40
0.3
100
AcDbArc
 50
107.7741368137
 51
180.0000000154
  0
ARC
  5
421
100
AcDbEntity
  8
RACCORDO
100
AcDbCircle
 62
7
  6
CONTINUOUS
 10
107.29986708
 20
42.8741896019
 40
0.3
100
AcDbArc
 50
105.6265328179
 51
180.0000000173
  0
ARC
  5
422
100
AcDbEntity
  8
RACCORDO
100
AcDbCircle
 62
7
  6
CONTINUOUS
 10
107.19986708
 20
24.1534605474
 40
0.2
100
AcDbArc
 50
174.0666377965
 51
180.0
  0
ARC
  5
423
100
AcDbEntity
  8
RACCORDO
100
AcDbCircle
 62
7
  6
CONTINUOUS
 10
107.19986708
 20
42.4113525438
 40
0.2
100
AcDbArc
 50
180.0
 51
257.56668678
  0
ARC
  5
424
100
AcDbEntity
  8
RACCORDO
100
AcDbCircle
 62
7
  6
CONTINUOUS
 10
110.4975732772
 20
44.5001734931
 40
0.15
100
AcDbArc
 50
104.662162822
 51
163.4999936924
  0
ENDSEC
  0
SECTION
  2
OBJECTS
  0
DICTIONARY
  5
C
100
AcDbDictionary
280
0
281
1
  3
ACAD_GROUP
350
D
  3
ACAD_MLINESTYLE
350
17
  3
ACAD_LAYOUT
350
1A
  3
ACAD_PLOTSETTINGS
350
19
  3
ACAD_PLOTSTYLENAME
350
E
  0
DICTIONARY
  5
D
102
{ACAD_REACTORS
330
C
102
}
100
AcDbDictionary
280
0
281
1
  0
ACDBDICTIONARYWDFLT
  5
E
102
{ACAD_REACTORS
330
C
102
}
100
AcDbDictionary
281
1
  3
Normal
350
F
100
AcDbDictionaryWithDefault
340
F
  0
DICTIONARY
  5
17
102
{ACAD_REACTORS
330
C
102
}
100
AcDbDictionary
280
0
281
1
  3
Standard
350
18
  0
DICTIONARY
  5
19
102
{ACAD_REACTORS
330
C
102
}
100
AcDbDictionary
281
1
  0
DICTIONARY
  5
1A
102
{ACAD_REACTORS
330
C
102
}
100
AcDbDictionary
281
1
  3
Model
350
425
  3
Layout1
350
426
  0
ACDBPLACEHOLDER
  5
F
102
{ACAD_REACTORS
330
E
102
}
  0
MLINESTYLE
  5
18
102
{ACAD_REACTORS
330
17
102
}
100
AcDbMlineStyle
  2
STANDARD
 70
0
  3

 62
256
 51
90.0
 52
90.0
 71
2
 49
0.5
 62
256
  6
BYLAYER
 49
-0.5
 62
256
  6
BYLAYER
  0
LAYOUT
  5
425
102
{ACAD_REACTORS
330
1A
102
}
100
AcDbPlotSettings
  1

  2
none_device
  4
ISO_A4_(297.00_x_210.00_MM)
  6

 40
0.0
 41
0.0
 42
0.0
 43
0.0
 44
297.0
 45
210.0
 46
0.0
 47
0.0
 48
0.0
 49
0.0
140
0.0
141
0.0
142
1.0
143
1.0
 70
1024
 72
1
 73
0
 74
0
  7

 75
0
147
1.0
148
0.0
149
0.0
100
AcDbLayout
  1
Model
 70
0
 71
0
 10
0.0
 20
0.0
 11
297.0
 21
210.0
 12
0.0
 22
0.0
 32
0.0
 14
0.0
 24
0.0
 34
0.0
 15
0.0
 25
0.0
 35
0.0
146
0.0
 13
0.0
 23
0.0
 33
0.0
 16
1.0
 26
0.0
 36
0.0
 17
0.0
 27
1.0
 37
0.0
 76
0
330
212
345
0
346
0
  0
LAYOUT
  5
426
102
{ACAD_REACTORS
330
1A
102
}
100
AcDbPlotSettings
  1

  2
none_device
  4
ISO_A4_(297.00_x_210.00_MM)
  6

 40
0.0
 41
0.0
 42
0.0
 43
0.0
 44
297.0
 45
210.0
 46
0.0
 47
0.0
 48
0.0
 49
0.0
140
0.0
141
0.0
142
1.0
143
1.0
 70
0
 72
1
 73
0
 74
0
  7

 75
0
147
1.0
148
0.0
149
0.0
100
AcDbLayout
  1
Layout1
 70
0
 71
1
 10
0.0
 20
0.0
 11
297.0
 21
210.0
 12
0.0
 22
0.0
 32
0.0
 14
0.0
 24
0.0
 34
0.0
 15
0.0
 25
0.0
 35
0.0
146
0.0
 13
0.0
 23
0.0
 33
0.0
 16
1.0
 26
0.0
 36
0.0
 17
0.0
 27
1.0
 37
0.0
 76
0
330
213
345
0
346
0
  0
ENDSEC
  0
EOF
