  0
SECTION
  2
HEADER
  9
$ACADVER
  1
AC1021
  9
$DWGCODEPAGE
  3
ANSI_1252
  9
$EXTMAX
 10
297.0
 20
210.0
 30
0.0
  9
$EXTMIN
 10
0.0
 20
0.0
 30
0.0
  9
$LIMMIN
 10
0.0
 20
0.0
  9
$LIMMAX
 10
297.0
 20
210.0
  9
$VIEWCTR
 10
148.5
 20
105.0
  9
$VIEWSIZE
 40
210.0
  9
$CLAYER
  8
0
  9
$LTSCALE
 40
16.335
  9
$CELTYPE
  6
BYLAYER
  9
$DIMSCALE
 40
1.0
  9
$DIMASZ
 40
3.0
  9
$DIMEXO
 40
1.85625
  9
$DIMDLI
 40
11.286
  9
$DIMEXE
 40
5.346
  9
$DIMCEN
 40
2.673
  9
$DIMLFAC
 40
1.0
  9
$DIMBLK
  1
_FILLED
  9
$DIMTXT
 40
3.0
  9
$DIMTOL
 70
1
  9
$DIMLIM
 70
0
  9
$DIMTFAC
 40
1.0
  9
$DIMTP
 40
0.01
  9
$DIMTM
 40
0.01
  9
$PDMODE
 70
3
  9
$PDSIZE
 40
3.0
  9
$HANDSEED
  5
421
  9
$TILEMODE
 70
1
  9
$MEASUREMENT
 70
1
  9
$INSUNITS
 70
4
  0
ENDSEC
  0
SECTION
  2
CLASSES
  0
CLASS
  1
ACDBDICTIONARYWDFLT
  2
AcDbDictionaryWithDefault
  3
AutoCAD 2000
 90
0
 91
1
280
0
281
0
  0
CLASS
  1
ACDBPLACEHOLDER
  2
AcDbPlaceHolder
  3
AutoCAD 2000
 90
0
 91
1
280
0
281
0
  0
CLASS
  1
LAYOUT
  2
AcDbLayout
  3
AutoCAD 2000
 90
0
 91
0
280
0
281
0
  0
ENDSEC
  0
SECTION
  2
TABLES
  0
TABLE
  2
VPORT
  5
8
100
AcDbSymbolTable
 70
2
  0
VPORT
  5
1F4
100
AcDbSymbolTableRecord
100
AcDbViewportTableRecord
  2
*ACTIVE
 70
0
 10
0.0
 20
0.0
 11
1.0
 21
1.0
 12
148.5
 22
105.0
 13
0.0
 23
0.0
 14
1.0
 24
1.0
 15
0.0
 25
0.0
 16
0.0
 26
0.0
 36
1.0
 17
0.0
 27
0.0
 37
0.0
 40
210.0
 41
1.4142857143
 42
50.0
 43
0.0
 44
0.0
 50
0.0
 51
0.0
 71
0
 72
100
 73
1
 74
1
 75
0
 76
0
 77
0
 78
0
  0
ENDTAB
  0
TABLE
  2
LTYPE
  5
5
100
AcDbSymbolTable
 70
6
  0
LTYPE
  5
14
100
AcDbSymbolTableRecord
100
AcDbLinetypeTableRecord
  2
BYBLOCK
 70
0
  3

 72
65
 73
0
 40
0.0
  0
LTYPE
  5
15
100
AcDbSymbolTableRecord
100
AcDbLinetypeTableRecord
  2
BYLAYER
 70
0
  3

 72
65
 73
0
 40
0.0
  0
LTYPE
  5
16
100
AcDbSymbolTableRecord
100
AcDbLinetypeTableRecord
  2
CONTINUOUS
 70
64
  3
Solid line
 72
65
 73
0
 40
0.0
  0
LTYPE
  5
1F5
100
AcDbSymbolTableRecord
100
AcDbLinetypeTableRecord
  2
CENTER
 70
64
  3
____ _ ____ _ ____ _ ____ _ ____ _ ____ _ ____
 72
65
 73
4
 40
0.6
 49
0.375
 74
0
 49
-0.075
 74
0
 49
0.075
 74
0
 49
-0.075
 74
0
  0
LTYPE
  5
1F6
100
AcDbSymbolTableRecord
100
AcDbLinetypeTableRecord
  2
HIDDEN
 70
64
  3
- - - - - - - - - - - - - - - - - - - -
 72
65
 73
2
 40
0.2
 49
0.1
 74
0
 49
-0.1
 74
0
  0
LTYPE
  5
1F7
100
AcDbSymbolTableRecord
100
AcDbLinetypeTableRecord
  2
PHANTOM
 70
64
  3
_____ _ _ _____ _ _ _____ _ _ _____
 72
65
 73
6
 40
0.8
 49
0.45
 74
0
 49
-0.05
 74
0
 49
0.1
 74
0
 49
-0.05
 74
0
 49
0.1
 74
0
 49
-0.05
 74
0
  0
LTYPE
  5
1F8
100
AcDbSymbolTableRecord
100
AcDbLinetypeTableRecord
  2
DOT
 70
64
  3
. . . . . . . . . . . . . . . . . . . .
 72
65
 73
2
 40
0.2
 49
0.1
 74
0
 49
-0.1
 74
0
  0
LTYPE
  5
1F9
100
AcDbSymbolTableRecord
100
AcDbLinetypeTableRecord
  2
DASHED
 70
64
  3
- - - - - - - - - - - - - - - - - - - -
 72
65
 73
2
 40
0.2
 49
0.1
 74
0
 49
-0.1
 74
0
  0
ENDTAB
  0
TABLE
  2
LAYER
  5
2
100
AcDbSymbolTable
 70
36
  0
LAYER
  5
10
100
AcDbSymbolTableRecord
100
AcDbLayerTableRecord
  2
0
 70
0
 62
7
  6
CONTINUOUS
370
-3
390
F
  0
LAYER
  5
1FA
100
AcDbSymbolTableRecord
100
AcDbLayerTableRecord
  2
DEFAULT_1
 70
0
 62
7
  6
CENTER
370
-3
390
F
  0
LAYER
  5
1FB
100
AcDbSymbolTableRecord
100
AcDbLayerTableRecord
  2
DEFAULT_2
 70
0
 62
7
  6
HIDDEN
370
-3
390
F
  0
LAYER
  5
1FC
100
AcDbSymbolTableRecord
100
AcDbLayerTableRecord
  2
DEFAULT_3
 70
0
 62
7
  6
PHANTOM
370
-3
390
F
  0
LAYER
  5
1FD
100
AcDbSymbolTableRecord
100
AcDbLayerTableRecord
  2
ASSI
 70
0
 62
7
  6
CONTINUOUS
370
-3
390
F
  0
LAYER
  5
1FE
100
AcDbSymbolTableRecord
100
AcDbLayerTableRecord
  2
COORDINATE
 70
0
 62
7
  6
CONTINUOUS
370
-3
390
F
  0
LAYER
  5
1FF
100
AcDbSymbolTableRecord
100
AcDbLayerTableRecord
  2
COPY_PUBLISH
 70
0
 62
7
  6
CONTINUOUS
370
-3
390
F
  0
LAYER
  5
200
100
AcDbSymbolTableRecord
100
AcDbLayerTableRecord
  2
COSMETICI
 70
0
 62
7
  6
CONTINUOUS
370
-3
390
F
  0
LAYER
  5
201
100
AcDbSymbolTableRecord
100
AcDbLayerTableRecord
  2
COSTOLE_APPOGGIO
 70
0
 62
7
  6
CONTINUOUS
370
-3
390
F
  0
LAYER
  5
202
100
AcDbSymbolTableRecord
100
AcDbLayerTableRecord
  2
CURVE
 70
0
 62
7
  6
CONTINUOUS
370
-3
390
F
  0
LAYER
  5
203
100
AcDbSymbolTableRecord
100
AcDbLayerTableRecord
  2
DRAFT
 70
0
 62
7
  6
CONTINUOUS
370
-3
390
F
  0
LAYER
  5
204
100
AcDbSymbolTableRecord
100
AcDbLayerTableRecord
  2
IMPORT_IGES
 70
0
 62
7
  6
CONTINUOUS
370
-3
390
F
  0
LAYER
  5
205
100
AcDbSymbolTableRecord
100
AcDbLayerTableRecord
  2
INTF_1
 70
0
 62
7
  6
CONTINUOUS
370
-3
390
F
  0
LAYER
  5
206
100
AcDbSymbolTableRecord
100
AcDbLayerTableRecord
  2
NOTE
 70
0
 62
7
  6
CONTINUOUS
370
-3
390
F
  0
LAYER
  5
207
100
AcDbSymbolTableRecord
100
AcDbLayerTableRecord
  2
PIANI
 70
0
 62
7
  6
CONTINUOUS
370
-3
390
F
  0
LAYER
  5
208
100
AcDbSymbolTableRecord
100
AcDbLayerTableRecord
  2
PUNTI
 70
0
 62
7
  6
CONTINUOUS
370
-3
390
F
  0
LAYER
  5
209
100
AcDbSymbolTableRecord
100
AcDbLayerTableRecord
  2
RACCORDO
 70
0
 62
7
  6
CONTINUOUS
370
-3
390
F
  0
LAYER
  5
20A
100
AcDbSymbolTableRecord
100
AcDbLayerTableRecord
  2
SCRITTE
 70
0
 62
7
  6
CONTINUOUS
370
-3
390
F
  0
LAYER
  5
20B
100
AcDbSymbolTableRecord
100
AcDbLayerTableRecord
  2
SIMBOLI
 70
0
 62
7
  6
CONTINUOUS
370
-3
390
F
  0
LAYER
  5
20C
100
AcDbSymbolTableRecord
100
AcDbLayerTableRecord
  2
SMUSSO
 70
0
 62
7
  6
CONTINUOUS
370
-3
390
F
  0
LAYER
  5
20D
100
AcDbSymbolTableRecord
100
AcDbLayerTableRecord
  2
SNAPLINE
 70
0
 62
7
  6
CONTINUOUS
370
-3
390
F
  0
LAYER
  5
20E
100
AcDbSymbolTableRecord
100
AcDbLayerTableRecord
  2
SUPERFICI
 70
0
 62
7
  6
CONTINUOUS
370
-3
390
F
  0
LAYER
  5
20F
100
AcDbSymbolTableRecord
100
AcDbLayerTableRecord
  2
TRASH
 70
0
 62
7
  6
CONTINUOUS
370
-3
390
F
  0
LAYER
  5
210
100
AcDbSymbolTableRecord
100
AcDbLayerTableRecord
  2
XSEC_DATUMS
 70
0
 62
7
  6
CONTINUOUS
370
-3
390
F
  0
ENDTAB
  0
TABLE
  2
STYLE
  5
3
100
AcDbSymbolTable
 70
1
  0
STYLE
  5
11
100
AcDbSymbolTableRecord
100
AcDbTextStyleTableRecord
  2
STANDARD
 70
0
 40
0.0
 41
0.8
 50
0.0
 71
0
 42
0.2
  3
txt
  4

  0
STYLE
  5
211
100
AcDbSymbolTableRecord
100
AcDbTextStyleTableRecord
  2
TEXTSTYLE_1
 70
0
 40
0.0
 41
0.8
 50
0.0
 71
0
 42
0.2
  3
gdt
  4

  0
ENDTAB
  0
TABLE
  2
VIEW
  5
6
100
AcDbSymbolTable
 70
0
  0
ENDTAB
  0
TABLE
  2
UCS
  5
7
100
AcDbSymbolTable
 70
0
  0
ENDTAB
  0
TABLE
  2
APPID
  5
9
100
AcDbSymbolTable
 70
1
  0
APPID
  5
212
100
AcDbSymbolTableRecord
100
AcDbRegAppTableRecord
  2
ACAD
 70
0
  0
ENDTAB
  0
TABLE
  2
BLOCK_RECORD
  5
1
100
AcDbSymbolTable
 70
0
  0
BLOCK_RECORD
  5
213
100
AcDbSymbolTableRecord
100
AcDbBlockTableRecord
  2
*Model_Space
  0
BLOCK_RECORD
  5
214
100
AcDbSymbolTableRecord
100
AcDbBlockTableRecord
  2
*Paper_Space
  0
BLOCK_RECORD
  5
215
100
AcDbSymbolTableRecord
100
AcDbBlockTableRecord
  2
_FILLED
  0
BLOCK_RECORD
  5
216
100
AcDbSymbolTableRecord
100
AcDbBlockTableRecord
  2
*D0
  0
BLOCK_RECORD
  5
217
100
AcDbSymbolTableRecord
100
AcDbBlockTableRecord
  2
*D1
  0
BLOCK_RECORD
  5
218
100
AcDbSymbolTableRecord
100
AcDbBlockTableRecord
  2
*D2
  0
ENDTAB
  0
TABLE
  2
DIMSTYLE
  5
A
100
AcDbSymbolTable
 70
1
100
AcDbDimStyleTable
 71
0
  0
DIMSTYLE
105
219
100
AcDbSymbolTableRecord
100
AcDbDimStyleTableRecord
  2
STANDARD
 70
0
  3

  4

 40
1.0
 41
3.0
 42
0.0625
 43
0.38
 44
0.18
 45
0.0
 46
0.0
 47
0.01
 48
0.01
140
3.0
141
0.09
142
0.0
143
25.4
144
1.0
145
0.0
146
1.0
147
0.09
 71
1.0
 72
0.0
 73
0
 74
0
 75
0
 76
0
 77
1
 78
8
170
0
171
2
172
0
173
0
174
0
175
0
176
0
177
0
178
0
270
2
271
2
272
2
273
2
274
2
275
0
280
0
281
0
282
0
283
1
284
8
285
0
286
0
287
3
288
0
340
11
341
215
342
215
343
215
344
215
  0
DIMSTYLE
105
21A
100
AcDbSymbolTableRecord
100
AcDbDimStyleTableRecord
  2
DIMSTYLE_1
 70
0
  3

  4

 40
1.0
 41
3.0
 42
0.0625
 43
0.38
 44
0.18
 45
0.0
 46
0.0
 47
0.0
 48
0.0
140
3.0
141
0.09
142
0.0
143
25.4
144
1.0
145
0.0
146
1.0
147
0.09
 71
0.0
 72
0.0
 73
0
 74
0
 75
0
 76
0
 77
1
 78
8
170
0
171
2
172
0
173
0
174
0
175
0
176
0
177
0
178
0
270
2
271
2
272
2
273
2
274
2
275
0
280
0
281
0
282
0
283
1
284
8
285
0
286
0
287
3
288
0
340
11
341
215
342
215
343
215
344
215
  0
DIMSTYLE
105
21B
100
AcDbSymbolTableRecord
100
AcDbDimStyleTableRecord
  2
DIMSTYLE_2
 70
0
  3

  4

 40
1.0
 41
3.0
 42
0.0625
 43
0.38
 44
0.18
 45
0.0
 46
0.0
 47
0.0
 48
0.0
140
3.0
141
0.09
142
0.0
143
25.4
144
1.0
145
0.0
146
1.0
147
0.09
 71
0.0
 72
0.0
 73
0
 74
0
 75
0
 76
0
 77
1
 78
8
170
0
171
2
172
0
173
0
174
0
175
0
176
0
177
0
178
0
270
2
271
1
272
1
273
2
274
2
275
0
280
0
281
0
282
0
283
1
284
8
285
0
286
0
287
3
288
0
340
11
341
215
342
215
343
215
344
215
  0
ENDTAB
  0
ENDSEC
  0
SECTION
  2
BLOCKS
  0
BLOCK
  5
20
100
AcDbEntity
  8
0
100
AcDbBlockBegin
  2
*Model_Space
 70
0
 10
0.0
 20
0.0
 30
0.0
  3
*Model_Space
  1

  0
ENDBLK
  5
21
100
AcDbEntity
  8
0
100
AcDbBlockEnd
  0
BLOCK
  5
1C
100
AcDbEntity
  8
0
100
AcDbBlockBegin
  2
*Paper_Space
 70
0
 10
0.0
 20
0.0
 30
0.0
  3
*Paper_Space
  1

  0
ENDBLK
  5
1D
100
AcDbEntity
  8
0
100
AcDbBlockEnd
  0
BLOCK
  5
21C
100
AcDbEntity
  8
0
100
AcDbBlockBegin
  2
_FILLED
 70
64
 10
0.0
 20
0.0
  3
_FILLED
  1

  0
SOLID
  5
21D
100
AcDbEntity
  8
0
  6
BYBLOCK
 62
0
100
AcDbTrace
 10
0.0
 20
0.0
 11
-1.0
 21
0.3166666667
 12
-1.0
 22
-0.3166666667
 13
-1.0
 23
-0.3166666667
  0
ENDBLK
  5
21E
100
AcDbEntity
  8
0
  6
BYBLOCK
 62
0
100
AcDbBlockEnd
  0
BLOCK
  5
21F
100
AcDbEntity
  8
0
100
AcDbBlockBegin
 62
7
  6
CONTINUOUS
  2
*D0
 70
65
 10
0.0
 20
0.0
  3
*D0
  1

  0
MTEXT
  5
220
100
AcDbEntity
  8
0
100
AcDbMText
 62
7
  6
CONTINUOUS
  7
STANDARD
 71
2
 72
1
 10
170.7289386348
 20
166.0269703366
 30
0.0
 11
1.0
 21
0.0
 31
0.0
 44
0.9
  1
210
 40
3.0
 41
6.4285714286
  0
LINE
  5
221
100
AcDbEntity
  8
0
100
AcDbLine
 62
7
  6
CONTINUOUS
 10
275.7289386348
 20
149.2044816054
 11
275.7289386348
 21
163.7769703366
  0
LINE
  5
222
100
AcDbEntity
  8
0
100
AcDbLine
 62
7
  6
CONTINUOUS
 10
65.7289386348
 20
149.2044816054
 11
65.7289386348
 21
163.7769703366
  0
LINE
  5
223
100
AcDbEntity
  8
0
100
AcDbLine
 62
7
  6
CONTINUOUS
 10
275.7289386348
 20
162.2769703366
 11
170.7289386348
 21
162.2769703366
  0
LINE
  5
224
100
AcDbEntity
  8
0
100
AcDbLine
 62
7
  6
CONTINUOUS
 10
65.7289386348
 20
162.2769703366
 11
170.7289386348
 21
162.2769703366
  0
INSERT
  5
225
100
AcDbEntity
  8
0
100
AcDbBlockReference
 62
7
  6
CONTINUOUS
  2
_FILLED
 10
275.7289386348
 20
162.2769703366
 41
3.0
 42
3.0
 43
3.0
  0
INSERT
  5
226
100
AcDbEntity
  8
0
100
AcDbBlockReference
 62
7
  6
CONTINUOUS
  2
_FILLED
 10
65.7289386348
 20
162.2769703366
 41
3.0
 42
3.0
 43
3.0
 50
180.0
  0
ENDBLK
  5
227
100
AcDbEntity
  8
0
  6
BYBLOCK
 62
0
100
AcDbBlockEnd
  0
BLOCK
  5
228
100
AcDbEntity
  8
0
100
AcDbBlockBegin
 62
7
  6
CONTINUOUS
  2
*D1
 70
65
 10
0.0
 20
0.0
  3
*D1
  1

  0
MTEXT
  5
229
100
AcDbEntity
  8
0
100
AcDbMText
 62
7
  6
CONTINUOUS
  7
STANDARD
 71
2
 72
1
 10
285.0284199923
 20
104.5044816054
 30
0.0
 11
0.0
 21
1.0
 31
0.0
 44
0.9
  1
90
 40
3.0
 41
4.7142857143
  0
LINE
  5
22A
100
AcDbEntity
  8
0
100
AcDbLine
 62
7
  6
CONTINUOUS
 10
275.4289386348
 20
149.5044816054
 11
290.2784199923
 21
149.5044816054
  0
LINE
  5
22B
100
AcDbEntity
  8
0
100
AcDbLine
 62
7
  6
CONTINUOUS
 10
275.4289386348
 20
59.5044816054
 11
290.2784199923
 21
59.5044816054
  0
LINE
  5
22C
100
AcDbEntity
  8
0
100
AcDbLine
 62
7
  6
CONTINUOUS
 10
288.7784199923
 20
149.5044816054
 11
288.7784199923
 21
104.5044816054
  0
LINE
  5
22D
100
AcDbEntity
  8
0
100
AcDbLine
 62
7
  6
CONTINUOUS
 10
288.7784199923
 20
59.5044816054
 11
288.7784199923
 21
104.5044816054
  0
INSERT
  5
22E
100
AcDbEntity
  8
0
100
AcDbBlockReference
 62
7
  6
CONTINUOUS
  2
_FILLED
 10
288.7784199923
 20
149.5044816054
 41
3.0
 42
3.0
 43
3.0
 50
90.0
  0
INSERT
  5
22F
100
AcDbEntity
  8
0
100
AcDbBlockReference
 62
7
  6
CONTINUOUS
  2
_FILLED
 10
288.7784199923
 20
59.5044816054
 41
3.0
 42
3.0
 43
3.0
 50
270.0
  0
ENDBLK
  5
230
100
AcDbEntity
  8
0
  6
BYBLOCK
 62
0
100
AcDbBlockEnd
  0
BLOCK
  5
231
100
AcDbEntity
  8
0
100
AcDbBlockBegin
 62
7
  6
CONTINUOUS
  2
*D2
 70
65
 10
0.0
 20
0.0
  3
*D2
  1

  0
MTEXT
  5
232
100
AcDbEntity
  8
0
100
AcDbMText
 62
7
  6
CONTINUOUS
  7
STANDARD
 71
2
 72
1
 10
45.9520069113
 20
166.0174280489
 30
0.0
 11
1.0
 21
0.0
 31
0.0
 44
0.9
  1
8,6
 40
3.0
 41
6.4285714286
  0
LINE
  5
233
100
AcDbEntity
  8
0
100
AcDbLine
 62
7
  6
CONTINUOUS
 10
50.2370069113
 20
147.5670125403
 11
50.2370069113
 21
163.7674280489
  0
LINE
  5
234
100
AcDbEntity
  8
0
100
AcDbLine
 62
7
  6
CONTINUOUS
 10
41.6670069113
 20
105.0044816054
 11
41.6670069113
 21
163.7674280489
  0
LINE
  5
235
100
AcDbEntity
  8
0
100
AcDbLine
 62
7
  6
CONTINUOUS
 10
50.2370069113
 20
162.2674280489
 11
54.2370069113
 21
162.2674280489
  0
LINE
  5
236
100
AcDbEntity
  8
0
100
AcDbLine
 62
7
  6
CONTINUOUS
 10
54.2370069113
 20
162.2674280489
 11
45.9520069113
 21
162.2674280489
  0
LINE
  5
237
100
AcDbEntity
  8
0
100
AcDbLine
 62
7
  6
CONTINUOUS
 10
41.6670069113
 20
162.2674280489
 11
37.6670069113
 21
162.2674280489
  0
LINE
  5
238
100
AcDbEntity
  8
0
100
AcDbLine
 62
7
  6
CONTINUOUS
 10
37.6670069113
 20
162.2674280489
 11
45.9520069113
 21
162.2674280489
  0
INSERT
  5
239
100
AcDbEntity
  8
0
100
AcDbBlockReference
 62
7
  6
CONTINUOUS
  2
_FILLED
 10
50.2370069113
 20
162.2674280489
 41
3.0
 42
3.0
 43
3.0
 50
180.0
  0
INSERT
  5
23A
100
AcDbEntity
  8
0
100
AcDbBlockReference
 62
7
  6
CONTINUOUS
  2
_FILLED
 10
41.6670069113
 20
162.2674280489
 41
3.0
 42
3.0
 43
3.0
  0
ENDBLK
  5
23B
100
AcDbEntity
  8
0
  6
BYBLOCK
 62
0
100
AcDbBlockEnd
  0
ENDSEC
  0
SECTION
  2
ENTITIES
  0
DIMENSION
  5
23C
100
AcDbEntity
  8
0
100
AcDbDimension
 62
7
  6
CONTINUOUS
  2
*D0
 10
65.7289386348
 20
162.2769703366
 11
167.5146529205
 21
164.5269703366
 70
160
 71
2
 42
210.0
  3
DIMSTYLE_1
100
AcDbAlignedDimension
 13
275.7289386348
 23
149.2044816054
 14
65.7289386348
 24
149.2044816054
 50
180.0
100
AcDbRotatedDimension
  0
DIMENSION
  5
23D
100
AcDbEntity
  8
0
100
AcDbDimension
 62
7
  6
CONTINUOUS
  2
*D1
 10
288.7784199923
 20
59.5044816054
 11
287.5845935161
 21
102.3972037554
 70
160
 71
2
 42
90.0
  3
DIMSTYLE_1
100
AcDbAlignedDimension
 13
275.4289386348
 23
149.5044816054
 14
275.4289386348
 24
59.5044816054
 50
270.0
100
AcDbRotatedDimension
  0
DIMENSION
  5
23E
100
AcDbEntity
  8
0
100
AcDbDimension
 62
7
  6
CONTINUOUS
  2
*D2
 10
41.6670069113
 20
162.2674280489
 11
42.737721197
 21
164.5174280489
 70
160
 71
2
 42
8.57
  3
DIMSTYLE_2
100
AcDbAlignedDimension
 13
50.2370069113
 23
147.5670125403
 14
41.6670069113
 24
105.0044816054
 50
180.0
100
AcDbRotatedDimension
  0
LWPOLYLINE
  5
23F
100
AcDbEntity
  8
RACCORDO
100
AcDbPolyline
 62
253
  6
CONTINUOUS
 90
22
 70
0
 10
65.8395918111
 20
60.4141245799
 10
65.8439551712
 20
60.4078747005
 10
65.8507764532
 20
60.4016956046
 10
65.8600216946
 20
60.395618057
 10
65.8716448648
 20
60.3896723171
 10
65.8855880935
 20
60.383887988
 10
65.9017819591
 20
60.3782938691
 10
65.9201458345
 20
60.3729178127
 10
65.9405882884
 20
60.3677865855
 10
65.9630075406
 20
60.3629257352
 10
65.9872919685
 20
60.3583594635
 10
66.0133206631
 20
60.354110505
 10
66.0409640309
 20
60.3502000149
 10
66.0700844394
 20
60.346647463
 10
66.1005369017
 20
60.3434705369
 10
66.1321697992
 20
60.3406850542
 10
66.1648256356
 20
60.3383048833
 10
66.1983418221
 20
60.3363418749
 10
66.2325514857
 20
60.3348058025
 10
66.2672843011
 20
60.3337043141
 10
66.3023673383
 20
60.3330428937
 10
66.3376259233
 20
60.3328248346
  0
LWPOLYLINE
  5
240
100
AcDbEntity
  8
ASSI
100
AcDbPolyline
 62
253
  6
CONTINUOUS
 90
22
 70
0
 10
65.8395918111
 20
60.4141245799
 10
65.8439551712
 20
60.4078747005
 10
65.8507764532
 20
60.4016956046
 10
65.8600216946
 20
60.395618057
 10
65.8716448648
 20
60.3896723171
 10
65.8855880935
 20
60.383887988
 10
65.9017819591
 20
60.3782938691
 10
65.9201458345
 20
60.3729178127
 10
65.9405882884
 20
60.3677865855
 10
65.9630075406
 20
60.3629257352
 10
65.9872919685
 20
60.3583594635
 10
66.0133206631
 20
60.354110505
 10
66.0409640309
 20
60.3502000149
 10
66.0700844394
 20
60.346647463
 10
66.1005369017
 20
60.3434705369
 10
66.1321697992
 20
60.3406850542
 10
66.1648256356
 20
60.3383048833
 10
66.1983418221
 20
60.3363418749
 10
66.2325514857
 20
60.3348058025
 10
66.2672843011
 20
60.3337043141
 10
66.3023673383
 20
60.3330428937
 10
66.3376259233
 20
60.3328248346
  0
LINE
  5
241
100
AcDbEntity
  8
RACCORDO
100
AcDbLine
 62
7
  6
CONTINUOUS
 10
65.7289386348
 20
60.3044816054
 11
65.7289386348
 21
81.9898593831
  0
LINE
  5
242
100
AcDbEntity
  8
DRAFT
100
AcDbLine
 62
7
  6
CONTINUOUS
 10
65.7289386348
 20
81.9898593831
 11
65.7289386348
 21
127.0191038276
  0
LINE
  5
243
100
AcDbEntity
  8
RACCORDO
100
AcDbLine
 62
7
  6
CONTINUOUS
 10
65.7289386348
 20
127.0191038276
 11
65.7289386348
 21
148.7044816054
  0
LINE
  5
244
100
AcDbEntity
  8
ASSI
100
AcDbLine
 62
7
  6
CONTINUOUS
 10
65.7289386348
 20
60.3044816054
 11
65.7289386348
 21
148.7044816054
  0
LINE
  5
245
100
AcDbEntity
  8
RACCORDO
100
AcDbLine
 62
253
  6
CONTINUOUS
 10
65.8395918081
 20
60.41412459
 11
65.8377611618
 21
96.9968203464
  0
LINE
  5
246
100
AcDbEntity
  8
ASSI
100
AcDbLine
 62
253
  6
CONTINUOUS
 10
65.8395918081
 20
60.41412459
 11
65.8377611618
 21
96.9968203464
  0
LINE
  5
247
100
AcDbEntity
  8
RACCORDO
100
AcDbLine
 62
253
  6
CONTINUOUS
 10
66.3376259233
 20
60.3328248265
 11
66.3358579716
 21
96.9891986756
  0
LINE
  5
248
100
AcDbEntity
  8
ASSI
100
AcDbLine
 62
253
  6
CONTINUOUS
 10
66.3376259233
 20
60.3328248265
 11
66.3358579716
 21
96.9891986756
  0
LINE
  5
249
100
AcDbEntity
  8
RACCORDO
100
AcDbLine
 62
253
  6
CONTINUOUS
 10
66.6317538145
 20
149.3838162326
 11
66.6317538145
 21
148.9758769711
  0
LINE
  5
24A
100
AcDbEntity
  8
ASSI
100
AcDbLine
 62
253
  6
CONTINUOUS
 10
66.6317538145
 20
149.3838162326
 11
66.6317538145
 21
148.9758769711
  0
LINE
  5
24B
100
AcDbEntity
  8
RACCORDO
100
AcDbLine
 62
253
  6
CONTINUOUS
 10
66.6317538145
 20
59.6251469781
 11
66.6317538145
 21
60.0330862396
  0
LINE
  5
24C
100
AcDbEntity
  8
ASSI
100
AcDbLine
 62
253
  6
CONTINUOUS
 10
66.6317538145
 20
59.6251469781
 11
66.6317538145
 21
60.0330862396
  0
LWPOLYLINE
  5
24D
100
AcDbEntity
  8
RACCORDO
100
AcDbPolyline
 62
253
  6
CONTINUOUS
 90
3
 70
0
 10
65.8377611618
 20
96.9968203464
 10
65.8380930622
 20
131.8871293845
 10
65.8395918081
 20
148.5948386208
  0
LWPOLYLINE
  5
24E
100
AcDbEntity
  8
ASSI
100
AcDbPolyline
 62
253
  6
CONTINUOUS
 90
3
 70
0
 10
65.8377611618
 20
96.9968203464
 10
65.8380930622
 20
131.8871293845
 10
65.8395918081
 20
148.5948386208
  0
LWPOLYLINE
  5
24F
100
AcDbEntity
  8
RACCORDO
100
AcDbPolyline
 62
253
  6
CONTINUOUS
 90
3
 70
0
 10
66.3358579716
 20
96.9891986756
 10
66.3361850348
 20
131.9230935419
 10
66.3376259233
 20
148.6761383842
  0
LWPOLYLINE
  5
250
100
AcDbEntity
  8
ASSI
100
AcDbPolyline
 62
253
  6
CONTINUOUS
 90
3
 70
0
 10
66.3358579716
 20
96.9891986756
 10
66.3361850348
 20
131.9230935419
 10
66.3376259233
 20
148.6761383842
  0
LWPOLYLINE
  5
251
100
AcDbEntity
  8
RACCORDO
100
AcDbPolyline
 62
253
  6
CONTINUOUS
 90
28
 70
0
 10
66.3376259233
 20
148.6761383842
 10
66.3381362167
 20
148.6938132024
 10
66.3396213973
 20
148.7112942665
 10
66.3420814653
 20
148.7285815874
 10
66.3455303357
 20
148.7457302103
 10
66.3499540934
 20
148.7626851095
 10
66.3553109926
 20
148.7792811986
 10
66.361612056
 20
148.7955182672
 10
66.3688462609
 20
148.8113965642
 10
66.3769387933
 20
148.8267517104
 10
66.3858970172
 20
148.8415747907
 10
66.3957135686
 20
148.8558747724
 10
66.4062915415
 20
148.8695141131
 10
66.4176393127
 20
148.8824873756
 10
66.4297485055
 20
148.8948000553
 10
66.4424970834
 20
148.9063310182
 10
66.4558902253
 20
148.9170715124
 10
66.4699227523
 20
148.9270303476
 10
66.4844570911
 20
148.936112738
 10
66.4994980885
 20
148.9443102452
 10
66.5150408975
 20
148.951631358
 10
66.5309334041
 20
148.9580066824
 10
66.5471832014
 20
148.9634272556
 10
66.5637826961
 20
148.9679020775
 10
66.5805569942
 20
148.9713886967
 10
66.5974477976
 20
148.9738729695
 10
66.6145134044
 20
148.9753690594
 10
66.6317538145
 20
148.9758769711
  0
LWPOLYLINE
  5
252
100
AcDbEntity
  8
ASSI
100
AcDbPolyline
 62
253
  6
CONTINUOUS
 90
28
 70
0
 10
66.3376259233
 20
148.6761383842
 10
66.3381362167
 20
148.6938132024
 10
66.3396213973
 20
148.7112942665
 10
66.3420814653
 20
148.7285815874
 10
66.3455303357
 20
148.7457302103
 10
66.3499540934
 20
148.7626851095
 10
66.3553109926
 20
148.7792811986
 10
66.361612056
 20
148.7955182672
 10
66.3688462609
 20
148.8113965642
 10
66.3769387933
 20
148.8267517104
 10
66.3858970172
 20
148.8415747907
 10
66.3957135686
 20
148.8558747724
 10
66.4062915415
 20
148.8695141131
 10
66.4176393127
 20
148.8824873756
 10
66.4297485055
 20
148.8948000553
 10
66.4424970834
 20
148.9063310182
 10
66.4558902253
 20
148.9170715124
 10
66.4699227523
 20
148.9270303476
 10
66.4844570911
 20
148.936112738
 10
66.4994980885
 20
148.9443102452
 10
66.5150408975
 20
148.951631358
 10
66.5309334041
 20
148.9580066824
 10
66.5471832014
 20
148.9634272556
 10
66.5637826961
 20
148.9679020775
 10
66.5805569942
 20
148.9713886967
 10
66.5974477976
 20
148.9738729695
 10
66.6145134044
 20
148.9753690594
 10
66.6317538145
 20
148.9758769711
  0
LWPOLYLINE
  5
253
100
AcDbEntity
  8
RACCORDO
100
AcDbPolyline
 62
253
  6
CONTINUOUS
 90
28
 70
0
 10
65.8395918079
 20
148.5948386209
 10
65.8415877774
 20
148.6410635857
 10
65.8462214316
 20
148.6870452967
 10
65.8534697189
 20
148.7326336862
 10
65.8632961688
 20
148.777666518
 10
65.8756640654
 20
148.8220124807
 10
65.8905451891
 20
148.865569239
 10
65.9079010904
 20
148.9082168846
 10
65.9276674524
 20
148.9497917016
 10
65.9497685105
 20
148.9901298452
 10
65.9741218231
 20
149.0290916131
 10
66.0006485161
 20
149.066561568
 10
66.0292638253
 20
149.102420837
 10
66.0598720104
 20
149.1365543887
 10
66.0923694902
 20
149.1688519141
 10
66.1266512988
 20
149.1992094252
 10
66.1626024706
 20
149.227528387
 10
66.2001042576
 20
149.2537190931
 10
66.2390390603
 20
149.277699657
 10
66.2792810779
 20
149.29939344
 10
66.3206956291
 20
149.3187292831
 10
66.3631461526
 20
149.3356439436
 10
66.4064887521
 20
149.350081435
 10
66.4505856614
 20
149.3619976587
 10
66.4953059007
 20
149.3713571386
 10
66.5405080973
 20
149.3781283774
 10
66.5860402924
 20
149.3822865043
 10
66.6317538145
 20
149.3838162326
  0
LWPOLYLINE
  5
254
100
AcDbEntity
  8
ASSI
100
AcDbPolyline
 62
253
  6
CONTINUOUS
 90
28
 70
0
 10
65.8395918079
 20
148.5948386209
 10
65.8415877774
 20
148.6410635857
 10
65.8462214316
 20
148.6870452967
 10
65.8534697189
 20
148.7326336862
 10
65.8632961688
 20
148.777666518
 10
65.8756640654
 20
148.8220124807
 10
65.8905451891
 20
148.865569239
 10
65.9079010904
 20
148.9082168846
 10
65.9276674524
 20
148.9497917016
 10
65.9497685105
 20
148.9901298452
 10
65.9741218231
 20
149.0290916131
 10
66.0006485161
 20
149.066561568
 10
66.0292638253
 20
149.102420837
 10
66.0598720104
 20
149.1365543887
 10
66.0923694902
 20
149.1688519141
 10
66.1266512988
 20
149.1992094252
 10
66.1626024706
 20
149.227528387
 10
66.2001042576
 20
149.2537190931
 10
66.2390390603
 20
149.277699657
 10
66.2792810779
 20
149.29939344
 10
66.3206956291
 20
149.3187292831
 10
66.3631461526
 20
149.3356439436
 10
66.4064887521
 20
149.350081435
 10
66.4505856614
 20
149.3619976587
 10
66.4953059007
 20
149.3713571386
 10
66.5405080973
 20
149.3781283774
 10
66.5860402924
 20
149.3822865043
 10
66.6317538145
 20
149.3838162326
  0
LWPOLYLINE
  5
255
100
AcDbEntity
  8
RACCORDO
100
AcDbPolyline
 62
253
  6
CONTINUOUS
 90
22
 70
0
 10
65.8395960364
 20
148.5948385632
 10
65.8439593365
 20
148.6010884538
 10
65.8507805363
 20
148.60726756
 10
65.8600256742
 20
148.613345117
 10
65.8716487201
 20
148.6192908654
 10
65.8855918046
 20
148.6250752021
 10
65.9017855075
 20
148.6306693279
 10
65.9201492027
 20
148.6360453902
 10
65.9405914605
 20
148.6411766225
 10
65.963010502
 20
148.6460374771
 10
65.9872947063
 20
148.6506037524
 10
66.0133231664
 20
148.6548527137
 10
66.0409662907
 20
148.6587632059
 10
66.0700864483
 20
148.6623157593
 10
66.1005386547
 20
148.6654926863
 10
66.1321712933
 20
148.6682781693
 10
66.16482687
 20
148.67065834
 10
66.198342798
 20
148.6726213477
 10
66.2325522068
 20
148.674157419
 10
66.2672847732
 20
148.6752589061
 10
66.3023675692
 20
148.6759203248
 10
66.3376259233
 20
148.6761383821
  0
LWPOLYLINE
  5
256
100
AcDbEntity
  8
ASSI
100
AcDbPolyline
 62
253
  6
CONTINUOUS
 90
22
 70
0
 10
65.8395960364
 20
148.5948385632
 10
65.8439593365
 20
148.6010884538
 10
65.8507805363
 20
148.60726756
 10
65.8600256742
 20
148.613345117
 10
65.8716487201
 20
148.6192908654
 10
65.8855918046
 20
148.6250752021
 10
65.9017855075
 20
148.6306693279
 10
65.9201492027
 20
148.6360453902
 10
65.9405914605
 20
148.6411766225
 10
65.963010502
 20
148.6460374771
 10
65.9872947063
 20
148.6506037524
 10
66.0133231664
 20
148.6548527137
 10
66.0409662907
 20
148.6587632059
 10
66.0700864483
 20
148.6623157593
 10
66.1005386547
 20
148.6654926863
 10
66.1321712933
 20
148.6682781693
 10
66.16482687
 20
148.67065834
 10
66.198342798
 20
148.6726213477
 10
66.2325522068
 20
148.674157419
 10
66.2672847732
 20
148.6752589061
 10
66.3023675692
 20
148.6759203248
 10
66.3376259233
 20
148.6761383821
  0
LWPOLYLINE
  5
257
100
AcDbEntity
  8
RACCORDO
100
AcDbPolyline
 62
7
  6
CONTINUOUS
 90
25
 70
0
 10
91.678938627
 20
82.2039240711
 10
91.6798197433
 20
82.1777176998
 10
91.682364799
 20
82.1518414673
 10
91.6865737941
 20
82.1262953708
 10
91.6924757531
 20
82.1009787329
 10
91.7000416516
 20
82.0759922261
 10
91.7091844159
 20
82.0516378705
 10
91.7199072028
 20
82.0279344974
 10
91.7322068557
 20
82.0048632652
 10
91.7459868311
 20
81.9826696809
 10
91.7612946345
 20
81.9613226
 10
91.7780827604
 20
81.9408531544
 10
91.7961121484
 20
81.9216002612
 10
91.815423484
 20
81.9035883187
 10
91.8359760817
 20
81.8867929135
 10
91.8574088251
 20
81.8714797423
 10
91.8796848911
 20
81.857705608
 10
91.9028411027
 20
81.8454136931
 10
91.9266268127
 20
81.8346992639
 10
91.9510553566
 20
81.8255662414
 10
91.9761133989
 20
81.818010694
 10
92.0015102855
 20
81.8121161103
 10
92.0271491318
 20
81.8079103178
 10
92.0531268224
 20
81.8053654833
 10
92.0794433572
 20
81.8044816054
  0
LWPOLYLINE
  5
258
100
AcDbEntity
  8
ASSI
100
AcDbPolyline
 62
7
  6
CONTINUOUS
 90
25
 70
0
 10
91.678938627
 20
82.2039240711
 10
91.6798197433
 20
82.1777176998
 10
91.682364799
 20
82.1518414673
 10
91.6865737941
 20
82.1262953708
 10
91.6924757531
 20
82.1009787329
 10
91.7000416516
 20
82.0759922261
 10
91.7091844159
 20
82.0516378705
 10
91.7199072028
 20
82.0279344974
 10
91.7322068557
 20
82.0048632652
 10
91.7459868311
 20
81.9826696809
 10
91.7612946345
 20
81.9613226
 10
91.7780827604
 20
81.9408531544
 10
91.7961121484
 20
81.9216002612
 10
91.815423484
 20
81.9035883187
 10
91.8359760817
 20
81.8867929135
 10
91.8574088251
 20
81.8714797423
 10
91.8796848911
 20
81.857705608
 10
91.9028411027
 20
81.8454136931
 10
91.9266268127
 20
81.8346992639
 10
91.9510553566
 20
81.8255662414
 10
91.9761133989
 20
81.818010694
 10
92.0015102855
 20
81.8121161103
 10
92.0271491318
 20
81.8079103178
 10
92.0531268224
 20
81.8053654833
 10
92.0794433572
 20
81.8044816054
  0
LINE
  5
259
100
AcDbEntity
  8
RACCORDO
100
AcDbLine
 62
253
  6
CONTINUOUS
 10
91.1257779034
 20
82.1266608454
 11
91.1257779034
 21
126.8823023653
  0
LINE
  5
25A
100
AcDbEntity
  8
ASSI
100
AcDbLine
 62
253
  6
CONTINUOUS
 10
91.1257779034
 20
82.1266608454
 11
91.1257779034
 21
126.8823023653
  0
LINE
  5
25B
100
AcDbEntity
  8
RACCORDO
100
AcDbLine
 62
253
  6
CONTINUOUS
 10
91.6250909655
 20
82.1502156904
 11
91.6250909625
 21
126.8587521101
  0
LINE
  5
25C
100
AcDbEntity
  8
ASSI
100
AcDbLine
 62
253
  6
CONTINUOUS
 10
91.6250909655
 20
82.1502156904
 11
91.6250909625
 21
126.8587521101
  0
LINE
  5
25D
100
AcDbEntity
  8
RACCORDO
100
AcDbLine
 62
7
  6
CONTINUOUS
 10
91.678938627
 20
126.8050391396
 11
91.678938627
 21
82.2039240711
  0
LINE
  5
25E
100
AcDbEntity
  8
ASSI
100
AcDbLine
 62
7
  6
CONTINUOUS
 10
91.678938627
 20
126.8050391396
 11
91.678938627
 21
82.2039240711
  0
LINE
  5
25F
100
AcDbEntity
  8
RACCORDO
100
AcDbLine
 62
253
  6
CONTINUOUS
 10
92.0269851318
 20
127.7832477416
 11
92.0269851318
 21
127.2568031677
  0
LINE
  5
260
100
AcDbEntity
  8
ASSI
100
AcDbLine
 62
253
  6
CONTINUOUS
 10
92.0269851318
 20
127.7832477416
 11
92.0269851318
 21
127.2568031677
  0
LINE
  5
261
100
AcDbEntity
  8
RACCORDO
100
AcDbLine
 62
253
  6
CONTINUOUS
 10
92.0269851318
 20
81.2257154691
 11
92.0269851318
 21
81.752160043
  0
LINE
  5
262
100
AcDbEntity
  8
ASSI
100
AcDbLine
 62
253
  6
CONTINUOUS
 10
92.0269851318
 20
81.2257154691
 11
92.0269851318
 21
81.752160043
  0
LWPOLYLINE
  5
263
100
AcDbEntity
  8
RACCORDO
100
AcDbPolyline
 62
253
  6
CONTINUOUS
 90
7
 70
0
 10
91.6250909697
 20
126.858752103
 10
91.625435296
 20
126.8753468747
 10
91.6264732521
 20
126.8919152925
 10
91.6282036603
 20
126.9084287053
 10
91.6306241514
 20
126.9248585074
 10
91.6337311658
 20
126.9411761875
 10
91.6375199573
 20
126.9573533785
  0
LWPOLYLINE
  5
264
100
AcDbEntity
  8
ASSI
100
AcDbPolyline
 62
253
  6
CONTINUOUS
 90
7
 70
0
 10
91.6250909697
 20
126.858752103
 10
91.625435296
 20
126.8753468747
 10
91.6264732521
 20
126.8919152925
 10
91.6282036603
 20
126.9084287053
 10
91.6306241514
 20
126.9248585074
 10
91.6337311658
 20
126.9411761875
 10
91.6375199573
 20
126.9573533785
  0
LWPOLYLINE
  5
265
100
AcDbEntity
  8
RACCORDO
100
AcDbPolyline
 62
253
  6
CONTINUOUS
 90
7
 70
0
 10
91.1257779034
 20
126.8823023653
 10
91.1265840673
 20
126.9199505116
 10
91.1289280195
 20
126.9573513449
 10
91.1328097601
 20
126.9945048682
 10
91.138229289
 20
127.0314110841
 10
91.1451866062
 20
127.0680699956
 10
91.1536817118
 20
127.1044816054
  0
LWPOLYLINE
  5
266
100
AcDbEntity
  8
ASSI
100
AcDbPolyline
 62
253
  6
CONTINUOUS
 90
7
 70
0
 10
91.1257779034
 20
126.8823023653
 10
91.1265840673
 20
126.9199505116
 10
91.1289280195
 20
126.9573513449
 10
91.1328097601
 20
126.9945048682
 10
91.138229289
 20
127.0314110841
 10
91.1451866062
 20
127.0680699956
 10
91.1536817118
 20
127.1044816054
  0
LWPOLYLINE
  5
267
100
AcDbEntity
  8
RACCORDO
100
AcDbPolyline
 62
253
  6
CONTINUOUS
 90
25
 70
0
 10
91.1536817118
 20
127.1044816054
 10
91.1672754038
 20
127.1522757849
 10
91.1833815449
 20
127.1990228171
 10
91.202000135
 20
127.2447227427
 10
91.2232082948
 20
127.2895259654
 10
91.2469289035
 20
127.3332821572
 10
91.2729305995
 20
127.3755402789
 10
91.3012262504
 20
127.4162661264
 10
91.3318029885
 20
127.4554940147
 10
91.3643908482
 20
127.4928757114
 10
91.3990134324
 20
127.5283995811
 10
91.4356471382
 20
127.5620773826
 10
91.4739511914
 20
127.5935959936
 10
91.5139412089
 20
127.6229332768
 10
91.5556015737
 20
127.6501114929
 10
91.5985446611
 20
127.674884127
 10
91.6427770687
 20
127.6972265475
 10
91.6882921988
 20
127.7171634941
 10
91.7346826334
 20
127.7345225117
 10
91.7819461467
 20
127.749281304
 10
91.8300849644
 20
127.761462247
 10
91.8786983459
 20
127.7709598892
 10
91.9276527108
 20
127.7777390947
 10
91.9770816395
 20
127.781835042
 10
92.0269851318
 20
127.7832477416
  0
LWPOLYLINE
  5
268
100
AcDbEntity
  8
ASSI
100
AcDbPolyline
 62
253
  6
CONTINUOUS
 90
25
 70
0
 10
91.1536817118
 20
127.1044816054
 10
91.1672754038
 20
127.1522757849
 10
91.1833815449
 20
127.1990228171
 10
91.202000135
 20
127.2447227427
 10
91.2232082948
 20
127.2895259654
 10
91.2469289035
 20
127.3332821572
 10
91.2729305995
 20
127.3755402789
 10
91.3012262504
 20
127.4162661264
 10
91.3318029885
 20
127.4554940147
 10
91.3643908482
 20
127.4928757114
 10
91.3990134324
 20
127.5283995811
 10
91.4356471382
 20
127.5620773826
 10
91.4739511914
 20
127.5935959936
 10
91.5139412089
 20
127.6229332768
 10
91.5556015737
 20
127.6501114929
 10
91.5985446611
 20
127.674884127
 10
91.6427770687
 20
127.6972265475
 10
91.6882921988
 20
127.7171634941
 10
91.7346826334
 20
127.7345225117
 10
91.7819461467
 20
127.749281304
 10
91.8300849644
 20
127.761462247
 10
91.8786983459
 20
127.7709598892
 10
91.9276527108
 20
127.7777390947
 10
91.9770816395
 20
127.781835042
 10
92.0269851318
 20
127.7832477416
  0
LWPOLYLINE
  5
269
100
AcDbEntity
  8
RACCORDO
100
AcDbPolyline
 62
253
  6
CONTINUOUS
 90
25
 70
0
 10
91.6375199573
 20
126.9573533785
 10
91.6435706666
 20
126.9784927208
 10
91.65078453
 20
126.9992651569
 10
91.6591399262
 20
127.0196075372
 10
91.6686126452
 20
127.0394589379
 10
91.6791735317
 20
127.0587579086
 10
91.6907879197
 20
127.0774430073
 10
91.7034190349
 20
127.0954556884
 10
91.7170294988
 20
127.1127435206
 10
91.7315789917
 20
127.1292573211
 10
91.7470248386
 20
127.1449478282
 10
91.76331946
 20
127.1597661021
 10
91.7804113516
 20
127.1736670579
 10
91.7982489807
 20
127.1866085091
 10
91.8167783529
 20
127.1985511498
 10
91.8359405882
 20
127.2094590371
 10
91.8556764316
 20
127.2192987099
 10
91.8759274642
 20
127.2280413391
 10
91.8966335281
 20
127.2356627026
 10
91.9177283679
 20
127.242138485
 10
91.939152325
 20
127.2474504621
 10
91.9608541449
 20
127.2515860466
 10
91.9827733954
 20
127.2545311443
 10
92.0048400043
 20
127.2562728005
 10
92.0269875939
 20
127.2568031593
  0
LWPOLYLINE
  5
26A
100
AcDbEntity
  8
ASSI
100
AcDbPolyline
 62
253
  6
CONTINUOUS
 90
25
 70
0
 10
91.6375199573
 20
126.9573533785
 10
91.6435706666
 20
126.9784927208
 10
91.65078453
 20
126.9992651569
 10
91.6591399262
 20
127.0196075372
 10
91.6686126452
 20
127.0394589379
 10
91.6791735317
 20
127.0587579086
 10
91.6907879197
 20
127.0774430073
 10
91.7034190349
 20
127.0954556884
 10
91.7170294988
 20
127.1127435206
 10
91.7315789917
 20
127.1292573211
 10
91.7470248386
 20
127.1449478282
 10
91.76331946
 20
127.1597661021
 10
91.7804113516
 20
127.1736670579
 10
91.7982489807
 20
127.1866085091
 10
91.8167783529
 20
127.1985511498
 10
91.8359405882
 20
127.2094590371
 10
91.8556764316
 20
127.2192987099
 10
91.8759274642
 20
127.2280413391
 10
91.8966335281
 20
127.2356627026
 10
91.9177283679
 20
127.242138485
 10
91.939152325
 20
127.2474504621
 10
91.9608541449
 20
127.2515860466
 10
91.9827733954
 20
127.2545311443
 10
92.0048400043
 20
127.2562728005
 10
92.0269875939
 20
127.2568031593
  0
LWPOLYLINE
  5
26B
100
AcDbEntity
  8
RACCORDO
100
AcDbPolyline
 62
253
  6
CONTINUOUS
 90
7
 70
0
 10
91.6375199573
 20
82.0516098322
 10
91.6337423198
 20
82.0677343403
 10
91.63063843
 20
82.0840200554
 10
91.6282156804
 20
82.1004392734
 10
91.6264803224
 20
82.1169639241
 10
91.6254374472
 20
82.1335656179
 10
91.6250909686
 20
82.1502156935
  0
LWPOLYLINE
  5
26C
100
AcDbEntity
  8
ASSI
100
AcDbPolyline
 62
253
  6
CONTINUOUS
 90
7
 70
0
 10
91.6375199573
 20
82.0516098322
 10
91.6337423198
 20
82.0677343403
 10
91.63063843
 20
82.0840200554
 10
91.6282156804
 20
82.1004392734
 10
91.6264803224
 20
82.1169639241
 10
91.6254374472
 20
82.1335656179
 10
91.6250909686
 20
82.1502156935
  0
LWPOLYLINE
  5
26D
100
AcDbEntity
  8
RACCORDO
100
AcDbPolyline
 62
253
  6
CONTINUOUS
 90
7
 70
0
 10
91.1536817118
 20
81.9044816053
 10
91.1451904381
 20
81.940870812
 10
91.13823542
 20
81.9775162815
 10
91.1328166575
 20
82.0144180167
 10
91.1289341506
 20
82.0515760204
 10
91.1265878992
 20
82.0889902957
 10
91.1257779034
 20
82.1266608454
  0
LWPOLYLINE
  5
26E
100
AcDbEntity
  8
ASSI
100
AcDbPolyline
 62
253
  6
CONTINUOUS
 90
7
 70
0
 10
91.1536817118
 20
81.9044816053
 10
91.1451904381
 20
81.940870812
 10
91.13823542
 20
81.9775162815
 10
91.1328166575
 20
82.0144180167
 10
91.1289341506
 20
82.0515760204
 10
91.1265878992
 20
82.0889902957
 10
91.1257779034
 20
82.1266608454
  0
LWPOLYLINE
  5
26F
100
AcDbEntity
  8
RACCORDO
100
AcDbPolyline
 62
253
  6
CONTINUOUS
 90
17
 70
0
 10
65.8378794772
 20
81.9898593831
 10
65.842201268
 20
81.9881041813
 10
65.8489858893
 20
81.9863686641
 10
65.8581995009
 20
81.9846614877
 10
65.8697961471
 20
81.9829911672
 10
65.8837179861
 20
81.981366034
 10
65.8998955785
 20
81.9797941937
 10
65.9182482339
 20
81.9782834865
 10
65.9386844126
 20
81.9768414475
 10
65.9611021832
 20
81.9754752692
 10
65.9853897302
 20
81.9741917659
 10
66.0114259122
 20
81.9729973395
 10
66.0390808659
 20
81.9718979474
 10
66.0682166538
 20
81.9708990733
 10
66.0986879525
 20
81.9700056994
 10
66.1303427771
 20
81.9692222815
 10
66.1965663365
 20
81.9680003764
  0
LWPOLYLINE
  5
270
100
AcDbEntity
  8
ASSI
100
AcDbPolyline
 62
253
  6
CONTINUOUS
 90
17
 70
0
 10
65.8378794772
 20
81.9898593831
 10
65.842201268
 20
81.9881041813
 10
65.8489858893
 20
81.9863686641
 10
65.8581995009
 20
81.9846614877
 10
65.8697961471
 20
81.9829911672
 10
65.8837179861
 20
81.981366034
 10
65.8998955785
 20
81.9797941937
 10
65.9182482339
 20
81.9782834865
 10
65.9386844126
 20
81.9768414475
 10
65.9611021832
 20
81.9754752692
 10
65.9853897302
 20
81.9741917659
 10
66.0114259122
 20
81.9729973395
 10
66.0390808659
 20
81.9718979474
 10
66.0682166538
 20
81.9708990733
 10
66.0986879525
 20
81.9700056994
 10
66.1303427771
 20
81.9692222815
 10
66.1965663365
 20
81.9680003764
  0
LWPOLYLINE
  5
271
100
AcDbEntity
  8
RACCORDO
100
AcDbPolyline
 62
253
  6
CONTINUOUS
 90
16
 70
0
 10
65.8378809611
 20
81.9273849482
 10
65.842202803
 20
81.9256249687
 10
65.8489874694
 20
81.9238847795
 10
65.85820112
 20
81.9221730603
 10
65.8697977988
 20
81.9204983489
 10
65.8837196642
 20
81.9188689982
 10
65.8998972767
 20
81.9172931351
 10
65.9182499458
 20
81.9157786198
 10
65.9386861323
 20
81.9143330064
 10
65.9611039048
 20
81.9129635051
 10
65.985391448
 20
81.9116769469
 10
66.0114276208
 20
81.9104797488
 10
66.0390825602
 20
81.9093778822
 10
66.0682183293
 20
81.9083768429
 10
66.0986896048
 20
81.9074816239
 10
66.1630248346
 20
81.9060259576
  0
LWPOLYLINE
  5
272
100
AcDbEntity
  8
ASSI
100
AcDbPolyline
 62
253
  6
CONTINUOUS
 90
16
 70
0
 10
65.8378809611
 20
81.9273849482
 10
65.842202803
 20
81.9256249687
 10
65.8489874694
 20
81.9238847795
 10
65.85820112
 20
81.9221730603
 10
65.8697977988
 20
81.9204983489
 10
65.8837196642
 20
81.9188689982
 10
65.8998972767
 20
81.9172931351
 10
65.9182499458
 20
81.9157786198
 10
65.9386861323
 20
81.9143330064
 10
65.9611039048
 20
81.9129635051
 10
65.985391448
 20
81.9116769469
 10
66.0114276208
 20
81.9104797488
 10
66.0390825602
 20
81.9093778822
 10
66.0682183293
 20
81.9083768429
 10
66.0986896048
 20
81.9074816239
 10
66.1630248346
 20
81.9060259576
  0
LWPOLYLINE
  5
273
100
AcDbEntity
  8
RACCORDO
100
AcDbPolyline
 62
253
  6
CONTINUOUS
 90
15
 70
0
 10
65.8378809628
 20
127.0815782625
 10
65.8422028063
 20
127.0833382419
 10
65.8489874742
 20
127.085078431
 10
65.858201126
 20
127.0867901501
 10
65.8697978058
 20
127.0884648615
 10
65.883719672
 20
127.0900942121
 10
65.8998972852
 20
127.0916700751
 10
65.9182499548
 20
127.0931845903
 10
65.9386861416
 20
127.0946302037
 10
65.9611039141
 20
127.0959997049
 10
65.9853914572
 20
127.097286263
 10
66.0114276297
 20
127.098483461
 10
66.0390825688
 20
127.0995853276
 10
66.0682183372
 20
127.1005863668
 10
66.098689612
 20
127.1014815857
  0
LWPOLYLINE
  5
274
100
AcDbEntity
  8
ASSI
100
AcDbPolyline
 62
253
  6
CONTINUOUS
 90
15
 70
0
 10
65.8378809628
 20
127.0815782625
 10
65.8422028063
 20
127.0833382419
 10
65.8489874742
 20
127.085078431
 10
65.858201126
 20
127.0867901501
 10
65.8697978058
 20
127.0884648615
 10
65.883719672
 20
127.0900942121
 10
65.8998972852
 20
127.0916700751
 10
65.9182499548
 20
127.0931845903
 10
65.9386861416
 20
127.0946302037
 10
65.9611039141
 20
127.0959997049
 10
65.9853914572
 20
127.097286263
 10
66.0114276297
 20
127.098483461
 10
66.0390825688
 20
127.0995853276
 10
66.0682183372
 20
127.1005863668
 10
66.098689612
 20
127.1014815857
  0
LWPOLYLINE
  5
275
100
AcDbEntity
  8
RACCORDO
100
AcDbPolyline
 62
253
  6
CONTINUOUS
 90
15
 70
0
 10
65.8378794769
 20
127.0191115931
 10
65.8422012672
 20
127.0208667955
 10
65.8489858882
 20
127.0226023134
 10
65.8581994996
 20
127.0243094903
 10
65.8697961455
 20
127.0259798114
 10
65.8837179844
 20
127.0276049452
 10
65.8998955767
 20
127.0291767859
 10
65.9182482319
 20
127.0306874936
 10
65.9386844106
 20
127.0321295332
 10
65.9611021812
 20
127.0334957119
 10
65.9853897282
 20
127.0347792156
 10
66.0114259103
 20
127.0359736424
 10
66.0390808641
 20
127.0370730348
 10
66.0682166522
 20
127.0380719092
 10
66.098687951
 20
127.0389652834
  0
LWPOLYLINE
  5
276
100
AcDbEntity
  8
ASSI
100
AcDbPolyline
 62
253
  6
CONTINUOUS
 90
15
 70
0
 10
65.8378794769
 20
127.0191115931
 10
65.8422012672
 20
127.0208667955
 10
65.8489858882
 20
127.0226023134
 10
65.8581994996
 20
127.0243094903
 10
65.8697961455
 20
127.0259798114
 10
65.8837179844
 20
127.0276049452
 10
65.8998955767
 20
127.0291767859
 10
65.9182482319
 20
127.0306874936
 10
65.9386844106
 20
127.0321295332
 10
65.9611021812
 20
127.0334957119
 10
65.9853897282
 20
127.0347792156
 10
66.0114259103
 20
127.0359736424
 10
66.0390808641
 20
127.0370730348
 10
66.0682166522
 20
127.0380719092
 10
66.098687951
 20
127.0389652834
  0
LWPOLYLINE
  5
277
100
AcDbEntity
  8
RACCORDO
100
AcDbPolyline
 62
253
  6
CONTINUOUS
 90
28
 70
0
 10
66.6317538145
 20
60.0330862396
 10
66.614504059
 20
60.0335972792
 10
66.5974375101
 20
60.035093548
 10
66.5805541678
 20
60.0375750508
 10
66.563801501
 20
60.0410544127
 10
66.5472320407
 20
60.0455190283
 10
66.5310033806
 20
60.0509310614
 10
66.5151141764
 20
60.0573017659
 10
66.4995657724
 20
60.0646199251
 10
66.4845197938
 20
60.0728139988
 10
66.4699847685
 20
60.0818914093
 10
66.4559521688
 20
60.0918447846
 10
66.4425580366
 20
60.1025803928
 10
66.4298069345
 20
60.1141072531
 10
66.4176942999
 20
60.1264164042
 10
66.4063424873
 20
60.1393871376
 10
66.3957596246
 20
60.1530255988
 10
66.385937584
 20
60.1673257006
 10
66.3769743361
 20
60.1821483773
 10
66.3688782523
 20
60.1974990764
 10
66.3616409612
 20
60.2133724025
 10
66.3553353191
 20
60.229613012
 10
66.3499702736
 20
60.2462296881
 10
66.3455368771
 20
60.2632136874
 10
66.3420811425
 20
60.2803833588
 10
66.3396184075
 20
60.2976781541
 10
66.3381333344
 20
60.3151586399
 10
66.3376259233
 20
60.3328248265
  0
LWPOLYLINE
  5
278
100
AcDbEntity
  8
ASSI
100
AcDbPolyline
 62
253
  6
CONTINUOUS
 90
28
 70
0
 10
66.6317538145
 20
60.0330862396
 10
66.614504059
 20
60.0335972792
 10
66.5974375101
 20
60.035093548
 10
66.5805541678
 20
60.0375750508
 10
66.563801501
 20
60.0410544127
 10
66.5472320407
 20
60.0455190283
 10
66.5310033806
 20
60.0509310614
 10
66.5151141764
 20
60.0573017659
 10
66.4995657724
 20
60.0646199251
 10
66.4845197938
 20
60.0728139988
 10
66.4699847685
 20
60.0818914093
 10
66.4559521688
 20
60.0918447846
 10
66.4425580366
 20
60.1025803928
 10
66.4298069345
 20
60.1141072531
 10
66.4176942999
 20
60.1264164042
 10
66.4063424873
 20
60.1393871376
 10
66.3957596246
 20
60.1530255988
 10
66.385937584
 20
60.1673257006
 10
66.3769743361
 20
60.1821483773
 10
66.3688782523
 20
60.1974990764
 10
66.3616409612
 20
60.2133724025
 10
66.3553353191
 20
60.229613012
 10
66.3499702736
 20
60.2462296881
 10
66.3455368771
 20
60.2632136874
 10
66.3420811425
 20
60.2803833588
 10
66.3396184075
 20
60.2976781541
 10
66.3381333344
 20
60.3151586399
 10
66.3376259233
 20
60.3328248265
  0
LWPOLYLINE
  5
279
100
AcDbEntity
  8
RACCORDO
100
AcDbPolyline
 62
253
  6
CONTINUOUS
 90
28
 70
0
 10
66.6317538145
 20
59.6251469781
 10
66.5860282894
 20
59.626677503
 10
66.5405035193
 20
59.6308354221
 10
66.4953278175
 20
59.6376021344
 10
66.4506666033
 20
59.6469461134
 10
66.4066455251
 20
59.6588345055
 10
66.3633527795
 20
59.6732438363
 10
66.3209053524
 20
59.6901434081
 10
66.2794710398
 20
59.7094744205
 10
66.2392113386
 20
59.731164209
 10
66.2002689055
 20
59.7551360453
 10
66.1627608321
 20
59.7813172574
 10
66.1268028902
 20
59.8096270525
 10
66.0925133382
 20
59.8399762159
 10
66.0600077137
 20
59.8722658219
 10
66.0293909624
 20
59.9063919597
 10
66.0007662998
 20
59.9422448852
 10
65.9742299549
 20
59.9797090929
 10
65.949867695
 20
60.018664042
 10
65.9277621821
 20
60.0589862088
 10
65.9079906352
 20
60.1005432754
 10
65.8906198229
 20
60.1431946217
 10
65.8757112106
 20
60.18679899
 10
65.8633160074
 20
60.2312170986
 10
65.8534741013
 20
60.2763063691
 10
65.8462210693
 20
60.3219206021
 10
65.8415869964
 20
60.3679101646
 10
65.8395918079
 20
60.4141245898
  0
LWPOLYLINE
  5
27A
100
AcDbEntity
  8
ASSI
100
AcDbPolyline
 62
253
  6
CONTINUOUS
 90
28
 70
0
 10
66.6317538145
 20
59.6251469781
 10
66.5860282894
 20
59.626677503
 10
66.5405035193
 20
59.6308354221
 10
66.4953278175
 20
59.6376021344
 10
66.4506666033
 20
59.6469461134
 10
66.4066455251
 20
59.6588345055
 10
66.3633527795
 20
59.6732438363
 10
66.3209053524
 20
59.6901434081
 10
66.2794710398
 20
59.7094744205
 10
66.2392113386
 20
59.731164209
 10
66.2002689055
 20
59.7551360453
 10
66.1627608321
 20
59.7813172574
 10
66.1268028902
 20
59.8096270525
 10
66.0925133382
 20
59.8399762159
 10
66.0600077137
 20
59.8722658219
 10
66.0293909624
 20
59.9063919597
 10
66.0007662998
 20
59.9422448852
 10
65.9742299549
 20
59.9797090929
 10
65.949867695
 20
60.018664042
 10
65.9277621821
 20
60.0589862088
 10
65.9079906352
 20
60.1005432754
 10
65.8906198229
 20
60.1431946217
 10
65.8757112106
 20
60.18679899
 10
65.8633160074
 20
60.2312170986
 10
65.8534741013
 20
60.2763063691
 10
65.8462210693
 20
60.3219206021
 10
65.8415869964
 20
60.3679101646
 10
65.8395918079
 20
60.4141245898
  0
LINE
  5
27B
100
AcDbEntity
  8
RACCORDO
100
AcDbLine
 62
7
  6
CONTINUOUS
 10
274.9289386348
 20
59.5044816054
 11
66.5289386348
 21
59.5044816054
  0
LINE
  5
27C
100
AcDbEntity
  8
ASSI
100
AcDbLine
 62
7
  6
CONTINUOUS
 10
274.9289386348
 20
59.5044816054
 11
66.5289386348
 21
59.5044816054
  0
LINE
  5
27D
100
AcDbEntity
  8
RACCORDO
100
AcDbLine
 62
253
  6
CONTINUOUS
 10
274.8261234551
 20
59.6251469781
 11
66.6317538145
 21
59.6251469781
  0
LINE
  5
27E
100
AcDbEntity
  8
ASSI
100
AcDbLine
 62
253
  6
CONTINUOUS
 10
274.8261234551
 20
59.6251469781
 11
66.6317538145
 21
59.6251469781
  0
LINE
  5
27F
100
AcDbEntity
  8
RACCORDO
100
AcDbLine
 62
253
  6
CONTINUOUS
 10
274.8261234551
 20
60.0330862396
 11
66.6317538145
 21
60.0330862396
  0
LINE
  5
280
100
AcDbEntity
  8
ASSI
100
AcDbLine
 62
253
  6
CONTINUOUS
 10
274.8261234551
 20
60.0330862396
 11
66.6317538145
 21
60.0330862396
  0
LINE
  5
281
100
AcDbEntity
  8
RACCORDO
100
AcDbLine
 62
253
  6
CONTINUOUS
 10
66.6317538145
 20
149.3838162326
 11
66.5131758441
 21
149.5043262993
  0
LINE
  5
282
100
AcDbEntity
  8
ASSI
100
AcDbLine
 62
253
  6
CONTINUOUS
 10
66.6317538145
 20
149.3838162326
 11
66.5131758441
 21
149.5043262993
  0
LINE
  5
283
100
AcDbEntity
  8
RACCORDO
100
AcDbLine
 62
253
  6
CONTINUOUS
 10
65.8395918081
 20
148.5948386208
 11
65.7289413567
 21
148.707341822
  0
LINE
  5
284
100
AcDbEntity
  8
ASSI
100
AcDbLine
 62
253
  6
CONTINUOUS
 10
65.8395918081
 20
148.5948386208
 11
65.7289413567
 21
148.707341822
  0
LINE
  5
285
100
AcDbEntity
  8
RACCORDO
100
AcDbLine
 62
253
  6
CONTINUOUS
 10
65.8395918081
 20
60.41412459
 11
65.7289413567
 21
60.3016213887
  0
LINE
  5
286
100
AcDbEntity
  8
ASSI
100
AcDbLine
 62
253
  6
CONTINUOUS
 10
65.8395918081
 20
60.41412459
 11
65.7289413567
 21
60.3016213887
  0
LINE
  5
287
100
AcDbEntity
  8
RACCORDO
100
AcDbLine
 62
253
  6
CONTINUOUS
 10
66.6317538145
 20
59.6251469781
 11
66.5131758441
 21
59.5046369114
  0
LINE
  5
288
100
AcDbEntity
  8
ASSI
100
AcDbLine
 62
253
  6
CONTINUOUS
 10
66.6317538145
 20
59.6251469781
 11
66.5131758441
 21
59.5046369114
  0
LINE
  5
289
100
AcDbEntity
  8
RACCORDO
100
AcDbLine
 62
253
  6
CONTINUOUS
 10
91.6250909655
 20
82.1502156904
 11
91.678938627
 21
82.2039240711
  0
LINE
  5
28A
100
AcDbEntity
  8
ASSI
100
AcDbLine
 62
253
  6
CONTINUOUS
 10
91.6250909655
 20
82.1502156904
 11
91.678938627
 21
82.2039240711
  0
LINE
  5
28B
100
AcDbEntity
  8
RACCORDO
100
AcDbLine
 62
253
  6
CONTINUOUS
 10
92.0269826051
 20
81.752160043
 11
92.0794433572
 21
81.8044816054
  0
LINE
  5
28C
100
AcDbEntity
  8
ASSI
100
AcDbLine
 62
253
  6
CONTINUOUS
 10
92.0269826051
 20
81.752160043
 11
92.0794433572
 21
81.8044816054
  0
LINE
  5
28D
100
AcDbEntity
  8
RACCORDO
100
AcDbLine
 62
253
  6
CONTINUOUS
 10
91.6250909625
 20
126.8587521101
 11
91.678938627
 21
126.8050391396
  0
LINE
  5
28E
100
AcDbEntity
  8
ASSI
100
AcDbLine
 62
253
  6
CONTINUOUS
 10
91.6250909625
 20
126.8587521101
 11
91.678938627
 21
126.8050391396
  0
LINE
  5
28F
100
AcDbEntity
  8
RACCORDO
100
AcDbLine
 62
253
  6
CONTINUOUS
 10
92.0269875855
 20
127.2568031677
 11
92.0794433572
 21
127.2044816054
  0
LINE
  5
290
100
AcDbEntity
  8
ASSI
100
AcDbLine
 62
253
  6
CONTINUOUS
 10
92.0269875855
 20
127.2568031677
 11
92.0794433572
 21
127.2044816054
  0
LWPOLYLINE
  5
291
100
AcDbEntity
  8
SCRITTE
100
AcDbPolyline
 62
253
  6
CONTINUOUS
 90
35
 70
0
 10
174.0489574371
 20
78.3936742643
 10
174.1103259159
 20
78.4025116964
 10
174.1707605206
 20
78.410808442
 10
174.230263272
 20
78.4185326
 10
174.2888361908
 20
78.4256522696
 10
174.3464812977
 20
78.4321355498
 10
174.4032019576
 20
78.4379538284
 10
174.4590069124
 20
78.4430916486
 10
174.5139062483
 20
78.4475368424
 10
174.5679100515
 20
78.4512772418
 10
174.621028408
 20
78.4543006788
 10
174.6646224597
 20
78.4562655947
 10
174.7076016237
 20
78.4577281885
 10
174.7499589014
 20
78.4586924783
 10
174.7916872941
 20
78.4591624826
 10
174.8327798034
 20
78.4591422197
 10
174.8732294306
 20
78.4586357079
 10
174.9130321905
 20
78.4576466567
 10
174.9521961503
 20
78.4561775403
 10
174.9907323905
 20
78.4542305239
 10
175.0286519916
 20
78.4518077728
 10
175.0659660343
 20
78.4489114525
 10
175.1026855989
 20
78.445543728
 10
175.1388153719
 20
78.4417035089
 10
175.1743344628
 20
78.4373766805
 10
175.2092155872
 20
78.4325458724
 10
175.2434314605
 20
78.4271937141
 10
175.2769547982
 20
78.421302835
 10
175.3097583158
 20
78.4148558647
 10
175.3418205241
 20
78.4078385547
 10
175.3731431154
 20
78.4002491444
 10
175.4037335775
 20
78.3920889955
 10
175.4335993979
 20
78.3833594694
 10
175.4627480644
 20
78.3740619277
 10
175.4911870646
 20
78.3641977319
  0
LWPOLYLINE
  5
292
100
AcDbEntity
  8
RACCORDO
100
AcDbPolyline
 62
7
  6
CONTINUOUS
 90
25
 70
0
 10
249.3784339124
 20
81.8044816054
 10
249.4047515687
 20
81.8053642625
 10
249.4307339787
 20
81.8079100308
 10
249.4563811424
 20
81.8121189116
 10
249.4817940869
 20
81.8180205203
 10
249.5068717851
 20
81.8255852474
 10
249.5313111562
 20
81.8347242575
 10
249.5550935472
 20
81.8454410318
 10
249.5782376111
 20
81.8577320998
 10
249.6004962257
 20
81.8714981996
 10
249.6218999402
 20
81.8867867255
 10
249.6424182053
 20
81.903550298
 10
249.6617122515
 20
81.9215474941
 10
249.6797570028
 20
81.9408183763
 10
249.6965775351
 20
81.9613228978
 10
249.7119103066
 20
81.9826994694
 10
249.7256982222
 20
82.0049104595
 10
249.7379983769
 20
82.0279935121
 10
249.748718514
 20
82.0516999475
 10
249.7578551331
 20
82.0760434818
 10
249.7654117346
 20
82.1010104088
 10
249.7713065619
 20
82.1263109109
 10
249.7755123629
 20
82.1518483832
 10
249.7780563899
 20
82.1777194357
 10
249.7789386427
 20
82.2039240711
  0
LWPOLYLINE
  5
293
100
AcDbEntity
  8
ASSI
100
AcDbPolyline
 62
7
  6
CONTINUOUS
 90
25
 70
0
 10
249.3784339124
 20
81.8044816054
 10
249.4047515687
 20
81.8053642625
 10
249.4307339787
 20
81.8079100308
 10
249.4563811424
 20
81.8121189116
 10
249.4817940869
 20
81.8180205203
 10
249.5068717851
 20
81.8255852474
 10
249.5313111562
 20
81.8347242575
 10
249.5550935472
 20
81.8454410318
 10
249.5782376111
 20
81.8577320998
 10
249.6004962257
 20
81.8714981996
 10
249.6218999402
 20
81.8867867255
 10
249.6424182053
 20
81.903550298
 10
249.6617122515
 20
81.9215474941
 10
249.6797570028
 20
81.9408183763
 10
249.6965775351
 20
81.9613228978
 10
249.7119103066
 20
81.9826994694
 10
249.7256982222
 20
82.0049104595
 10
249.7379983769
 20
82.0279935121
 10
249.748718514
 20
82.0516999475
 10
249.7578551331
 20
82.0760434818
 10
249.7654117346
 20
82.1010104088
 10
249.7713065619
 20
82.1263109109
 10
249.7755123629
 20
82.1518483832
 10
249.7780563899
 20
82.1777194357
 10
249.7789386427
 20
82.2039240711
  0
LWPOLYLINE
  5
294
100
AcDbEntity
  8
SCRITTE
100
AcDbPolyline
 62
253
  6
CONTINUOUS
 90
54
 70
0
 10
174.945619278
 20
77.1808535188
 10
174.9619211078
 20
77.1813587061
 10
174.9783342161
 20
77.182166301
 10
174.9948809259
 20
77.1833034629
 10
175.0115835599
 20
77.1847973512
 10
175.0284492371
 20
77.186674859
 10
175.0454242603
 20
77.1889618137
 10
175.0624397285
 20
77.1916837765
 10
175.0794267406
 20
77.1948663086
 10
175.0929484679
 20
77.1977592512
 10
175.106366054
 20
77.2009651849
 10
175.1196376664
 20
77.204485977
 10
175.1327214724
 20
77.2083234951
 10
175.1455756395
 20
77.2124796066
 10
175.1581628547
 20
77.2169555154
 10
175.1704638832
 20
77.2217497713
 10
175.1824640097
 20
77.2268602602
 10
175.1941485188
 20
77.2322848682
 10
175.2055026954
 20
77.2380214813
 10
175.2165143999
 20
77.2440702494
 10
175.2271817956
 20
77.2504403765
 10
175.2375056215
 20
77.2571433306
 10
175.2474866166
 20
77.2641905795
 10
175.25712552
 20
77.2715935912
 10
175.266423586
 20
77.2793597424
 10
175.2753841304
 20
77.2874800456
 10
175.2840109846
 20
77.2959414223
 10
175.2923079798
 20
77.304730794
 10
175.3002789471
 20
77.313835082
 10
175.3079287819
 20
77.3232434059
 10
175.3152666366
 20
77.3329536785
 10
175.3223027273
 20
77.3429660102
 10
175.3290472705
 20
77.353280512
 10
175.3355104826
 20
77.3638972945
 10
175.341700033
 20
77.3748153889
 10
175.3476134046
 20
77.3860295087
 10
175.3532455336
 20
77.3975332879
 10
175.3585913558
 20
77.4093203604
 10
175.3636458073
 20
77.4213843601
 10
175.3684028133
 20
77.4337141685
 10
175.3728522552
 20
77.4462796572
 10
175.3769830035
 20
77.4590459453
 10
175.3807839287
 20
77.4719781519
 10
175.3842439012
 20
77.4850413961
 10
175.3873536923
 20
77.498200312
 10
175.3901116766
 20
77.5114175937
 10
175.3925181296
 20
77.5246554502
 10
175.3945733266
 20
77.5378760906
 10
175.396277543
 20
77.5510417239
 10
175.3976314227
 20
77.5641229637
 10
175.3986370835
 20
77.5771240414
 10
175.3992970118
 20
77.5900575932
 10
175.3996136938
 20
77.602936255
 10
175.3995896159
 20
77.6157726627
  0
LINE
  5
295
100
AcDbEntity
  8
RACCORDO
100
AcDbLine
 62
253
  6
CONTINUOUS
 10
275.35918766
 20
81.9074816247
 11
275.2948524312
 21
81.9060259584
  0
LINE
  5
296
100
AcDbEntity
  8
ASSI
100
AcDbLine
 62
253
  6
CONTINUOUS
 10
275.35918766
 20
81.9074816247
 11
275.2948524312
 21
81.9060259584
  0
LINE
  5
297
100
AcDbEntity
  8
RACCORDO
100
AcDbLine
 62
253
  6
CONTINUOUS
 10
275.3591893188
 20
81.9700056991
 11
275.2948540312
 21
81.9685527271
  0
LINE
  5
298
100
AcDbEntity
  8
ASSI
100
AcDbLine
 62
253
  6
CONTINUOUS
 10
275.3591893188
 20
81.9700056991
 11
275.2948540312
 21
81.9685527271
  0
LINE
  5
299
100
AcDbEntity
  8
RACCORDO
100
AcDbLine
 62
253
  6
CONTINUOUS
 10
91.2333845318
 20
82.127242849
 11
91.3026246936
 21
82.1282669873
  0
LINE
  5
29A
100
AcDbEntity
  8
ASSI
100
AcDbLine
 62
253
  6
CONTINUOUS
 10
91.2333845318
 20
82.127242849
 11
91.3026246936
 21
82.1282669873
  0
LINE
  5
29B
100
AcDbEntity
  8
RACCORDO
100
AcDbLine
 62
253
  6
CONTINUOUS
 10
275.2948524312
 20
81.9060259584
 11
275.2270709795
 21
81.9050398901
  0
LINE
  5
29C
100
AcDbEntity
  8
ASSI
100
AcDbLine
 62
253
  6
CONTINUOUS
 10
275.2948524312
 20
81.9060259584
 11
275.2270709795
 21
81.9050398901
  0
LINE
  5
29D
100
AcDbEntity
  8
RACCORDO
100
AcDbLine
 62
253
  6
CONTINUOUS
 10
275.2948540312
 20
81.9685527271
 11
275.2270725091
 21
81.9675679835
  0
LINE
  5
29E
100
AcDbEntity
  8
ASSI
100
AcDbLine
 62
253
  6
CONTINUOUS
 10
275.2948540312
 20
81.9685527271
 11
275.2270725091
 21
81.9675679835
  0
LINE
  5
29F
100
AcDbEntity
  8
RACCORDO
100
AcDbLine
 62
253
  6
CONTINUOUS
 10
275.2270709795
 20
81.9050398901
 11
275.157193937
 21
81.9045430683
  0
LINE
  5
2A0
100
AcDbEntity
  8
ASSI
100
AcDbLine
 62
253
  6
CONTINUOUS
 10
275.2270709795
 20
81.9050398901
 11
275.157193937
 21
81.9045430683
  0
LWPOLYLINE
  5
2A1
100
AcDbEntity
  8
RACCORDO
100
AcDbPolyline
 62
253
  6
CONTINUOUS
 90
3
 70
0
 10
275.2270725091
 20
81.9675679835
 10
275.1571953891
 20
81.9670710906
 10
275.1219052275
 20
81.9670090688
  0
LWPOLYLINE
  5
2A2
100
AcDbEntity
  8
ASSI
100
AcDbPolyline
 62
253
  6
CONTINUOUS
 90
3
 70
0
 10
275.2270725091
 20
81.9675679835
 10
275.1571953891
 20
81.9670710906
 10
275.1219052275
 20
81.9670090688
  0
LWPOLYLINE
  5
2A3
100
AcDbEntity
  8
RACCORDO
100
AcDbPolyline
 62
253
  6
CONTINUOUS
 90
3
 70
0
 10
91.1257779034
 20
82.126660846
 10
91.1618981125
 20
82.1267255956
 10
91.2333845318
 20
82.127242849
  0
LWPOLYLINE
  5
2A4
100
AcDbEntity
  8
ASSI
100
AcDbPolyline
 62
253
  6
CONTINUOUS
 90
3
 70
0
 10
91.1257779034
 20
82.126660846
 10
91.1618981125
 20
82.1267255956
 10
91.2333845318
 20
82.127242849
  0
LINE
  5
2A5
100
AcDbEntity
  8
SCRITTE
100
AcDbLine
 62
253
  6
CONTINUOUS
 10
176.0880868468
 20
75.626680251
 11
175.5259542567
 21
75.626680251
  0
LINE
  5
2A6
100
AcDbEntity
  8
SCRITTE
100
AcDbLine
 62
253
  6
CONTINUOUS
 10
174.6310139797
 20
75.626680251
 11
174.0489574371
 21
75.626680251
  0
LINE
  5
2A7
100
AcDbEntity
  8
SCRITTE
100
AcDbLine
 62
253
  6
CONTINUOUS
 10
168.3290616348
 20
75.6266806053
 11
167.7446536348
 21
75.6266806053
  0
LINE
  5
2A8
100
AcDbEntity
  8
SCRITTE
100
AcDbLine
 62
253
  6
CONTINUOUS
 10
166.1128316348
 20
75.6266806053
 11
166.6278416348
 21
75.6266806053
  0
LINE
  5
2A9
100
AcDbEntity
  8
SCRITTE
100
AcDbLine
 62
253
  6
CONTINUOUS
 10
168.6436666348
 20
75.6266806053
 11
169.2027556348
 21
75.6266806053
  0
LINE
  5
2AA
100
AcDbEntity
  8
SCRITTE
100
AcDbLine
 62
253
  6
CONTINUOUS
 10
170.0144516348
 20
75.6266806053
 11
170.0964146348
 21
75.6266806053
  0
LINE
  5
2AB
100
AcDbEntity
  8
SCRITTE
100
AcDbLine
 62
253
  6
CONTINUOUS
 10
170.9113446348
 20
75.6266806053
 11
171.4830506348
 21
75.6266806053
  0
LINE
  5
2AC
100
AcDbEntity
  8
SCRITTE
100
AcDbLine
 62
253
  6
CONTINUOUS
 10
171.5748186348
 20
75.6266806053
 11
172.1528856348
 21
75.6266806053
  0
LINE
  5
2AD
100
AcDbEntity
  8
SCRITTE
100
AcDbLine
 62
253
  6
CONTINUOUS
 10
173.2614046348
 20
75.6266806053
 11
173.8773466348
 21
75.6266806053
  0
LINE
  5
2AE
100
AcDbEntity
  8
SCRITTE
100
AcDbLine
 62
253
  6
CONTINUOUS
 10
172.3141456348
 20
76.1856006053
 11
173.1100126348
 21
76.1856006053
  0
LINE
  5
2AF
100
AcDbEntity
  8
SCRITTE
100
AcDbLine
 62
253
  6
CONTINUOUS
 10
172.9932186348
 20
76.6180906053
 11
172.4336896348
 21
76.6180906053
  0
LINE
  5
2B0
100
AcDbEntity
  8
SCRITTE
100
AcDbLine
 62
253
  6
CONTINUOUS
 10
174.9443595971
 20
76.7223296806
 11
174.6310139797
 21
76.7223296806
  0
LINE
  5
2B1
100
AcDbEntity
  8
SCRITTE
100
AcDbLine
 62
253
  6
CONTINUOUS
 10
174.6116358889
 20
77.1808535188
 11
174.945619278
 21
77.1808535188
  0
LINE
  5
2B2
100
AcDbEntity
  8
SCRITTE
100
AcDbLine
 62
253
  6
CONTINUOUS
 10
173.0183286348
 20
78.4263836053
 11
172.4529836348
 21
78.4263836053
  0
LINE
  5
2B3
100
AcDbEntity
  8
SCRITTE
100
AcDbLine
 62
253
  6
CONTINUOUS
 10
171.2212466348
 20
78.4263836053
 11
170.6430326348
 21
78.4263836053
  0
LINE
  5
2B4
100
AcDbEntity
  8
SCRITTE
100
AcDbLine
 62
253
  6
CONTINUOUS
 10
169.4803886348
 20
78.4263836053
 11
168.8964636348
 21
78.4263836053
  0
LINE
  5
2B5
100
AcDbEntity
  8
SCRITTE
100
AcDbLine
 62
253
  6
CONTINUOUS
 10
167.5277786348
 20
78.4263836053
 11
166.9437696348
 21
78.4263836053
  0
LINE
  5
2B6
100
AcDbEntity
  8
SCRITTE
100
AcDbLine
 62
253
  6
CONTINUOUS
 10
165.8601186348
 20
78.4263836053
 11
165.2252706348
 21
78.4263836053
  0
LINE
  5
2B7
100
AcDbEntity
  8
SCRITTE
100
AcDbLine
 62
253
  6
CONTINUOUS
 10
167.7446536348
 20
78.4265516053
 11
168.3290616348
 21
78.4265516053
  0
LINE
  5
2B8
100
AcDbEntity
  8
RACCORDO
100
AcDbLine
 62
253
  6
CONTINUOUS
 10
249.4308921378
 20
81.2257154691
 11
92.0269851318
 21
81.2257154691
  0
LINE
  5
2B9
100
AcDbEntity
  8
ASSI
100
AcDbLine
 62
253
  6
CONTINUOUS
 10
249.4308921378
 20
81.2257154691
 11
92.0269851318
 21
81.2257154691
  0
LINE
  5
2BA
100
AcDbEntity
  8
RACCORDO
100
AcDbLine
 62
253
  6
CONTINUOUS
 10
249.4308894626
 20
81.752160043
 11
92.0269826051
 21
81.752160043
  0
LINE
  5
2BB
100
AcDbEntity
  8
ASSI
100
AcDbLine
 62
253
  6
CONTINUOUS
 10
249.4308894626
 20
81.752160043
 11
92.0269826051
 21
81.752160043
  0
LINE
  5
2BC
100
AcDbEntity
  8
RACCORDO
100
AcDbLine
 62
7
  6
CONTINUOUS
 10
92.0794433572
 20
81.8044816054
 11
249.3784339124
 21
81.8044816054
  0
LINE
  5
2BD
100
AcDbEntity
  8
ASSI
100
AcDbLine
 62
7
  6
CONTINUOUS
 10
92.0794433572
 20
81.8044816054
 11
249.3784339124
 21
81.8044816054
  0
LINE
  5
2BE
100
AcDbEntity
  8
RACCORDO
100
AcDbLine
 62
253
  6
CONTINUOUS
 10
250.3041955579
 20
81.9044816053
 11
275.157193937
 21
81.9045430683
  0
LINE
  5
2BF
100
AcDbEntity
  8
ASSI
100
AcDbLine
 62
253
  6
CONTINUOUS
 10
250.3041955579
 20
81.9044816053
 11
275.157193937
 21
81.9045430683
  0
LINE
  5
2C0
100
AcDbEntity
  8
RACCORDO
100
AcDbLine
 62
253
  6
CONTINUOUS
 10
275.7289386348
 20
81.9898593831
 11
275.6199977929
 21
81.9898593831
  0
LINE
  5
2C1
100
AcDbEntity
  8
ASSI
100
AcDbLine
 62
253
  6
CONTINUOUS
 10
275.7289386348
 20
81.9898593831
 11
275.6199977929
 21
81.9898593831
  0
LINE
  5
2C2
100
AcDbEntity
  8
RACCORDO
100
AcDbLine
 62
253
  6
CONTINUOUS
 10
65.7289386348
 20
81.9898593831
 11
65.8378794768
 21
81.9898593831
  0
LINE
  5
2C3
100
AcDbEntity
  8
ASSI
100
AcDbLine
 62
253
  6
CONTINUOUS
 10
65.7289386348
 20
81.9898593831
 11
65.8378794768
 21
81.9898593831
  0
LINE
  5
2C4
100
AcDbEntity
  8
RACCORDO
100
AcDbLine
 62
253
  6
CONTINUOUS
 10
66.3006833319
 20
81.9045430675
 11
91.1536817118
 21
81.9044816053
  0
LINE
  5
2C5
100
AcDbEntity
  8
ASSI
100
AcDbLine
 62
253
  6
CONTINUOUS
 10
66.3006833319
 20
81.9045430675
 11
91.1536817118
 21
81.9044816053
  0
LINE
  5
2C6
100
AcDbEntity
  8
RACCORDO
100
AcDbLine
 62
253
  6
CONTINUOUS
 10
66.2655677397
 20
81.967257706
 11
66.3359720422
 21
81.967009069
  0
LINE
  5
2C7
100
AcDbEntity
  8
ASSI
100
AcDbLine
 62
253
  6
CONTINUOUS
 10
66.2655677397
 20
81.967257706
 11
66.3359720422
 21
81.967009069
  0
LINE
  5
2C8
100
AcDbEntity
  8
RACCORDO
100
AcDbLine
 62
253
  6
CONTINUOUS
 10
250.3320993663
 20
82.1266608067
 11
250.2600477103
 21
82.1269199019
  0
LINE
  5
2C9
100
AcDbEntity
  8
ASSI
100
AcDbLine
 62
253
  6
CONTINUOUS
 10
250.3320993663
 20
82.1266608067
 11
250.2600477103
 21
82.1269199019
  0
LINE
  5
2CA
100
AcDbEntity
  8
RACCORDO
100
AcDbLine
 62
253
  6
CONTINUOUS
 10
66.2308062879
 20
81.9050398892
 11
66.3006833319
 21
81.9045430675
  0
LINE
  5
2CB
100
AcDbEntity
  8
ASSI
100
AcDbLine
 62
253
  6
CONTINUOUS
 10
66.2308062879
 20
81.9050398892
 11
66.3006833319
 21
81.9045430675
  0
LINE
  5
2CC
100
AcDbEntity
  8
RACCORDO
100
AcDbLine
 62
253
  6
CONTINUOUS
 10
66.1965663365
 20
81.9680003764
 11
66.2655677397
 21
81.967257706
  0
LINE
  5
2CD
100
AcDbEntity
  8
ASSI
100
AcDbLine
 62
253
  6
CONTINUOUS
 10
66.1965663365
 20
81.9680003764
 11
66.2655677397
 21
81.967257706
  0
LWPOLYLINE
  5
2CE
100
AcDbEntity
  8
RACCORDO
100
AcDbPolyline
 62
253
  6
CONTINUOUS
 90
19
 70
0
 10
250.2600477103
 20
82.1269199019
 10
250.1895001253
 20
82.1276926223
 10
250.1552526393
 20
82.1282669623
 10
250.1219292688
 20
82.1289628375
 10
250.0897041451
 20
82.1297766117
 10
250.0587456603
 20
82.1307040324
 10
250.0292155877
 20
82.1317402533
 10
250.0012682367
 20
82.1328798599
 10
249.9750496459
 20
82.1341168969
 10
249.9506968205
 20
82.1354449004
 10
249.9283370159
 20
82.1368569308
 10
249.9080870732
 20
82.1383456096
 10
249.8900528084
 20
82.1399031577
 10
249.8743284594
 20
82.1415214361
 10
249.8609961937
 20
82.1431919886
 10
249.850125679
 20
82.1449060856
 10
249.8417737191
 20
82.1466547702
 10
249.8359839571
 20
82.1484289046
 10
249.8327866474
 20
82.1502192182
  0
LWPOLYLINE
  5
2CF
100
AcDbEntity
  8
ASSI
100
AcDbPolyline
 62
253
  6
CONTINUOUS
 90
19
 70
0
 10
250.2600477103
 20
82.1269199019
 10
250.1895001253
 20
82.1276926223
 10
250.1552526393
 20
82.1282669623
 10
250.1219292688
 20
82.1289628375
 10
250.0897041451
 20
82.1297766117
 10
250.0587456603
 20
82.1307040324
 10
250.0292155877
 20
82.1317402533
 10
250.0012682367
 20
82.1328798599
 10
249.9750496459
 20
82.1341168969
 10
249.9506968205
 20
82.1354449004
 10
249.9283370159
 20
82.1368569308
 10
249.9080870732
 20
82.1383456096
 10
249.8900528084
 20
82.1399031577
 10
249.8743284594
 20
82.1415214361
 10
249.8609961937
 20
82.1431919886
 10
249.850125679
 20
82.1449060856
 10
249.8417737191
 20
82.1466547702
 10
249.8359839571
 20
82.1484289046
 10
249.8327866474
 20
82.1502192182
  0
LINE
  5
2D0
100
AcDbEntity
  8
RACCORDO
100
AcDbLine
 62
253
  6
CONTINUOUS
 10
66.1630248346
 20
81.9060259576
 11
66.2308062879
 21
81.9050398892
  0
LINE
  5
2D1
100
AcDbEntity
  8
ASSI
100
AcDbLine
 62
253
  6
CONTINUOUS
 10
66.1630248346
 20
81.9060259576
 11
66.2308062879
 21
81.9050398892
  0
LWPOLYLINE
  5
2D2
100
AcDbEntity
  8
RACCORDO
100
AcDbPolyline
 62
253
  6
CONTINUOUS
 90
25
 70
0
 10
92.0269825965
 20
81.7521600344
 10
92.0048375114
 20
81.7526905433
 10
91.9827701111
 20
81.7544324154
 10
91.9608468254
 20
81.7573783328
 10
91.9391345924
 20
81.7615165712
 10
91.9176973466
 20
81.766833201
 10
91.8965960341
 20
81.7733129736
 10
91.875896492
 20
81.780934042
 10
91.8556578518
 20
81.7896729271
 10
91.8359301543
 20
81.7995095418
 10
91.8167666129
 20
81.8104190043
 10
91.7982326193
 20
81.8223657543
 10
91.7803940226
 20
81.8353093539
 10
91.7633079899
 20
81.8492068865
 10
91.7470217088
 20
81.8640183387
 10
91.7315821938
 20
81.87970244
 10
91.7170381825
 20
81.8962092795
 10
91.7034313768
 20
81.9134909573
 10
91.6907964688
 20
81.9315073469
 10
91.6791652475
 20
81.9502196309
 10
91.6685849916
 20
81.9695584522
 10
91.6591056531
 20
81.9894329905
 10
91.6507572847
 20
82.009769931
 10
91.6435559422
 20
82.0305168796
 10
91.6375199573
 20
82.0516098322
  0
LWPOLYLINE
  5
2D3
100
AcDbEntity
  8
ASSI
100
AcDbPolyline
 62
253
  6
CONTINUOUS
 90
25
 70
0
 10
92.0269825965
 20
81.7521600344
 10
92.0048375114
 20
81.7526905433
 10
91.9827701111
 20
81.7544324154
 10
91.9608468254
 20
81.7573783328
 10
91.9391345924
 20
81.7615165712
 10
91.9176973466
 20
81.766833201
 10
91.8965960341
 20
81.7733129736
 10
91.875896492
 20
81.780934042
 10
91.8556578518
 20
81.7896729271
 10
91.8359301543
 20
81.7995095418
 10
91.8167666129
 20
81.8104190043
 10
91.7982326193
 20
81.8223657543
 10
91.7803940226
 20
81.8353093539
 10
91.7633079899
 20
81.8492068865
 10
91.7470217088
 20
81.8640183387
 10
91.7315821938
 20
81.87970244
 10
91.7170381825
 20
81.8962092795
 10
91.7034313768
 20
81.9134909573
 10
91.6907964688
 20
81.9315073469
 10
91.6791652475
 20
81.9502196309
 10
91.6685849916
 20
81.9695584522
 10
91.6591056531
 20
81.9894329905
 10
91.6507572847
 20
82.009769931
 10
91.6435559422
 20
82.0305168796
 10
91.6375199573
 20
82.0516098322
  0
LWPOLYLINE
  5
2D4
100
AcDbEntity
  8
RACCORDO
100
AcDbPolyline
 62
253
  6
CONTINUOUS
 90
25
 70
0
 10
92.0269851318
 20
81.2257154691
 10
91.9770531073
 20
81.2271267341
 10
91.9275918784
 20
81.2312269552
 10
91.878601445
 20
81.2380161432
 10
91.8299396403
 20
81.2475334064
 10
91.7817486312
 20
81.2597396791
 10
91.7344549181
 20
81.27451772
 10
91.6880725705
 20
81.2918844593
 10
91.6425875188
 20
81.3118230464
 10
91.598384055
 20
81.3341655738
 10
91.5554581476
 20
81.3589414824
 10
91.5138138281
 20
81.3861214393
 10
91.4738474828
 20
81.4154493739
 10
91.4355833986
 20
81.446939378
 10
91.3989972886
 20
81.4805774822
 10
91.3644126781
 20
81.5160655137
 10
91.3318492839
 20
81.5534123682
 10
91.3012873892
 20
81.5926092734
 10
91.272991368
 20
81.6333315369
 10
91.2469621458
 20
81.6756401954
 10
91.2231987972
 20
81.7194743262
 10
91.2019629197
 20
81.7643262679
 10
91.1833417126
 20
81.8100268167
 10
91.1672479766
 20
81.8567452494
 10
91.1536817118
 20
81.9044816053
  0
LWPOLYLINE
  5
2D5
100
AcDbEntity
  8
ASSI
100
AcDbPolyline
 62
253
  6
CONTINUOUS
 90
25
 70
0
 10
92.0269851318
 20
81.2257154691
 10
91.9770531073
 20
81.2271267341
 10
91.9275918784
 20
81.2312269552
 10
91.878601445
 20
81.2380161432
 10
91.8299396403
 20
81.2475334064
 10
91.7817486312
 20
81.2597396791
 10
91.7344549181
 20
81.27451772
 10
91.6880725705
 20
81.2918844593
 10
91.6425875188
 20
81.3118230464
 10
91.598384055
 20
81.3341655738
 10
91.5554581476
 20
81.3589414824
 10
91.5138138281
 20
81.3861214393
 10
91.4738474828
 20
81.4154493739
 10
91.4355833986
 20
81.446939378
 10
91.3989972886
 20
81.4805774822
 10
91.3644126781
 20
81.5160655137
 10
91.3318492839
 20
81.5534123682
 10
91.3012873892
 20
81.5926092734
 10
91.272991368
 20
81.6333315369
 10
91.2469621458
 20
81.6756401954
 10
91.2231987972
 20
81.7194743262
 10
91.2019629197
 20
81.7643262679
 10
91.1833417126
 20
81.8100268167
 10
91.1672479766
 20
81.8567452494
 10
91.1536817118
 20
81.9044816053
  0
LWPOLYLINE
  5
2D6
100
AcDbEntity
  8
SCRITTE
100
AcDbPolyline
 62
253
  6
CONTINUOUS
 90
24
 70
0
 10
175.0694471173
 20
77.9659099306
 10
175.0479652009
 20
77.9682444671
 10
175.02645761
 20
77.9702655296
 10
175.0049285139
 20
77.9719738508
 10
174.9833820821
 20
77.9733701631
 10
174.9618224838
 20
77.9744551992
 10
174.9402538886
 20
77.9752296916
 10
174.9186804657
 20
77.975694373
 10
174.8998013028
 20
77.9758473312
 10
174.8809140166
 20
77.9757637104
 10
174.8620109877
 20
77.9754435698
 10
174.8430845968
 20
77.9748869685
 10
174.8241263195
 20
77.9740928523
 10
174.8051240107
 20
77.9730557129
 10
174.7860646205
 20
77.9717689284
 10
174.7669350987
 20
77.9702258771
 10
174.7477265045
 20
77.968422761
 10
174.7284463339
 20
77.9663670777
 10
174.709106192
 20
77.9640691488
 10
174.689717684
 20
77.9615392957
 10
174.6702880993
 20
77.9587897109
 10
174.6508074647
 20
77.9558400702
 10
174.6312614909
 20
77.9527119208
 10
174.6116358889
 20
77.9494268094
  0
LWPOLYLINE
  5
2D7
100
AcDbEntity
  8
SCRITTE
100
AcDbPolyline
 62
253
  6
CONTINUOUS
 90
85
 70
0
 10
175.4911870646
 20
78.3641977319
 10
175.5087096014
 20
78.3574550112
 10
175.5264618067
 20
78.3497739901
 10
175.5444726001
 20
78.341125277
 10
175.5627709012
 20
78.3314794799
 10
175.5813856296
 20
78.3208072069
 10
175.6003228229
 20
78.3090886214
 10
175.6194969901
 20
78.2963421063
 10
175.6387997584
 20
78.2825955999
 10
175.6581227549
 20
78.2678770403
 10
175.6773576065
 20
78.2522143655
 10
175.6964025596
 20
78.2356306142
 10
175.7151823379
 20
78.2181292265
 10
175.7336282841
 20
78.1997087429
 10
175.7516717414
 20
78.1803677038
 10
175.7692440524
 20
78.16010465
 10
175.7862756673
 20
78.1389304003
 10
175.8026934649
 20
78.1169048878
 10
175.8184234309
 20
78.0941003241
 10
175.8333915514
 20
78.0705889207
 10
175.8475238121
 20
78.0464428892
 10
175.8607550231
 20
78.0217347429
 10
175.873055291
 20
77.9965382029
 10
175.8844035464
 20
77.9709272919
 10
175.89477872
 20
77.9449760328
 10
175.9041597423
 20
77.9187584483
 10
175.9112064344
 20
77.8967626075
 10
175.9175586885
 20
77.8746891739
 10
175.9232270812
 20
77.8525940977
 10
175.9282239156
 20
77.8305439826
 10
175.9325684015
 20
77.8086480435
 10
175.9362814757
 20
77.7870261487
 10
175.9393888976
 20
77.7657709634
 10
175.9419357181
 20
77.7448663429
 10
175.9439718108
 20
77.7242689393
 10
175.9455418679
 20
77.7039498245
 10
175.9466698552
 20
77.6839377474
 10
175.9473745569
 20
77.6642758764
 10
175.9476873366
 20
77.6411902556
 10
175.9474466513
 20
77.6186591184
 10
175.9466815177
 20
77.5966704892
 10
175.9454209526
 20
77.5752123928
 10
175.943693973
 20
77.5542728536
 10
175.9409210102
 20
77.5288102928
 10
175.9375059999
 20
77.5041211918
 10
175.9334903283
 20
77.4801874763
 10
175.9289153819
 20
77.4569910722
 10
175.9238229384
 20
77.4345167236
 10
175.9182563397
 20
77.4127604486
 10
175.912259319
 20
77.3917210838
 10
175.9058756093
 20
77.3713974659
 10
175.8991466392
 20
77.3517843149
 10
175.8921046181
 20
77.3328598844
 10
175.8847794511
 20
77.3145983119
 10
175.8772010431
 20
77.2969737343
 10
175.8667524006
 20
77.2744275034
 10
175.8559664695
 20
77.2529485798
 10
175.8449030033
 20
77.2325178134
 10
175.8336162237
 20
77.2131111939
 10
175.8221382265
 20
77.1946852701
 10
175.8104955757
 20
77.1771917305
 10
175.7987171644
 20
77.1605872882
 10
175.7868412019
 20
77.1448487548
 10
175.7749082263
 20
77.1299579665
 10
175.7629589747
 20
77.1158886449
 10
175.7510349805
 20
77.1025820535
 10
175.7391779755
 20
77.0899713415
 10
175.7274270032
 20
77.0779929506
 10
175.7158103512
 20
77.0665964944
 10
175.7043536185
 20
77.0557348792
 10
175.6875192868
 20
77.040349385
 10
175.6711582943
 20
77.0259450951
 10
175.6553137412
 20
77.0124063513
 10
175.6399933228
 20
76.9996226776
 10
175.6251988718
 20
76.9875743029
 10
175.6179278985
 20
76.9819087171
 10
175.6106471776
 20
76.9765176118
 10
175.6032897733
 20
76.9714314171
 10
175.5958773181
 20
76.9667368534
 10
175.5884499653
 20
76.9625256873
 10
175.5810333814
 20
76.9588535807
 10
175.5736413698
 20
76.955761001
 10
175.5662547679
 20
76.9532637415
 10
175.5588528744
 20
76.9513723388
 10
175.5514417997
 20
76.9501009773
  0
LWPOLYLINE
  5
2D8
100
AcDbEntity
  8
SCRITTE
100
AcDbPolyline
 62
253
  6
CONTINUOUS
 90
42
 70
0
 10
175.5514417997
 20
76.9335571685
 10
175.5605034194
 20
76.9297783404
 10
175.5695273797
 20
76.9256786444
 10
175.5785190572
 20
76.921248631
 10
175.5874838286
 20
76.9164788511
 10
175.596426386
 20
76.9113593556
 10
175.6053486839
 20
76.9058781964
 10
175.6142519921
 20
76.9000229256
 10
175.6231375806
 20
76.8937810953
 10
175.632003256
 20
76.8871434926
 10
175.6408329721
 20
76.8801138436
 10
175.6496072192
 20
76.8726991094
 10
175.6583064877
 20
76.8649062512
 10
175.6669124353
 20
76.8567435891
 10
175.6754113884
 20
76.8482248803
 10
175.6837908406
 20
76.839365241
 10
175.6920382854
 20
76.8301797874
 10
175.7001443552
 20
76.8206803043
 10
175.7081122383
 20
76.8108652496
 10
175.7159482617
 20
76.8007297499
 10
175.7236587523
 20
76.7902689315
 10
175.7312483088
 20
76.7794800768
 10
175.7387146165
 20
76.7683690919
 10
175.746053632
 20
76.756944039
 10
175.7532613122
 20
76.7452129801
 10
175.7613337251
 20
76.7314406039
 10
175.769229698
 20
76.7172845555
 10
175.7769496119
 20
76.7027503141
 10
175.7844938477
 20
76.6878433588
 10
175.7918627864
 20
76.6725691687
 10
175.799056809
 20
76.6569332229
 10
175.8060762964
 20
76.6409410004
 10
175.8129214924
 20
76.6245986218
 10
175.819592093
 20
76.6079147724
 10
175.8260876569
 20
76.5908987793
 10
175.8324077428
 20
76.5735599693
 10
175.8385519095
 20
76.5559076691
 10
175.8445197157
 20
76.5379512057
 10
175.8503107203
 20
76.519699906
 10
175.8568542234
 20
76.4980461206
 10
175.8632240436
 20
76.476016106
 10
175.869487745
 20
76.4536222434
  0
LWPOLYLINE
  5
2D9
100
AcDbEntity
  8
RACCORDO
100
AcDbPolyline
 62
253
  6
CONTINUOUS
 90
17
 70
0
 10
91.3026246936
 20
82.1282669873
 10
91.3359480843
 20
82.12896286
 10
91.3681732297
 20
82.1297766318
 10
91.3991317372
 20
82.1307040502
 10
91.4286618331
 20
82.1317402691
 10
91.4566092076
 20
82.1328798736
 10
91.4828278216
 20
82.1341169088
 10
91.5071806697
 20
82.1354449106
 10
91.5295404959
 20
82.1368569394
 10
91.5497904589
 20
82.1383456167
 10
91.5678247424
 20
82.1399031634
 10
91.5835491081
 20
82.1415214405
 10
91.5968813883
 20
82.1431919918
 10
91.6077519151
 20
82.1449060877
 10
91.6161038846
 20
82.1466547713
 10
91.6218936535
 20
82.1484289047
 10
91.6250909673
 20
82.1502192173
  0
LWPOLYLINE
  5
2DA
100
AcDbEntity
  8
ASSI
100
AcDbPolyline
 62
253
  6
CONTINUOUS
 90
17
 70
0
 10
91.3026246936
 20
82.1282669873
 10
91.3359480843
 20
82.12896286
 10
91.3681732297
 20
82.1297766318
 10
91.3991317372
 20
82.1307040502
 10
91.4286618331
 20
82.1317402691
 10
91.4566092076
 20
82.1328798736
 10
91.4828278216
 20
82.1341169088
 10
91.5071806697
 20
82.1354449106
 10
91.5295404959
 20
82.1368569394
 10
91.5497904589
 20
82.1383456167
 10
91.5678247424
 20
82.1399031634
 10
91.5835491081
 20
82.1415214405
 10
91.5968813883
 20
82.1431919918
 10
91.6077519151
 20
82.1449060877
 10
91.6161038846
 20
82.1466547713
 10
91.6218936535
 20
82.1484289047
 10
91.6250909673
 20
82.1502192173
  0
LINE
  5
2DB
100
AcDbEntity
  8
SCRITTE
100
AcDbLine
 62
253
  6
CONTINUOUS
 10
169.3288706348
 20
77.4548346054
 11
170.0144516348
 21
75.6266806054
  0
LINE
  5
2DC
100
AcDbEntity
  8
SCRITTE
100
AcDbLine
 62
253
  6
CONTINUOUS
 10
170.0586246348
 20
76.8719796053
 11
169.4803886348
 21
78.4263836053
  0
LINE
  5
2DD
100
AcDbEntity
  8
SCRITTE
100
AcDbLine
 62
253
  6
CONTINUOUS
 10
165.2252706348
 20
78.4263836053
 11
166.1128316348
 21
75.6266806054
  0
LINE
  5
2DE
100
AcDbEntity
  8
SCRITTE
100
AcDbLine
 62
253
  6
CONTINUOUS
 10
166.3937926348
 20
76.4992616054
 11
165.8601186348
 21
78.4263836053
  0
LINE
  5
2DF
100
AcDbEntity
  8
SCRITTE
100
AcDbLine
 62
253
  6
CONTINUOUS
 10
171.4830506348
 20
75.6266806054
 11
171.2212466348
 21
78.4263836053
  0
LINE
  5
2E0
100
AcDbEntity
  8
SCRITTE
100
AcDbLine
 62
253
  6
CONTINUOUS
 10
170.7912756348
 20
77.4472126053
 11
170.9113446348
 21
75.6266806054
  0
LINE
  5
2E1
100
AcDbEntity
  8
SCRITTE
100
AcDbLine
 62
253
  6
CONTINUOUS
 10
167.7446536348
 20
75.6266806053
 11
167.7446536348
 21
78.4265516797
  0
LINE
  5
2E2
100
AcDbEntity
  8
SCRITTE
100
AcDbLine
 62
253
  6
CONTINUOUS
 10
168.3290616348
 20
78.4265516053
 11
168.3290616348
 21
75.6266805311
  0
LINE
  5
2E3
100
AcDbEntity
  8
RACCORDO
100
AcDbLine
 62
253
  6
CONTINUOUS
 10
91.3251570393
 20
81.9498073559
 11
91.3887073662
 21
81.9675301949
  0
LINE
  5
2E4
100
AcDbEntity
  8
ASSI
100
AcDbLine
 62
253
  6
CONTINUOUS
 10
91.3251570393
 20
81.9498073559
 11
91.3887073662
 21
81.9675301949
  0
LINE
  5
2E5
100
AcDbEntity
  8
RACCORDO
100
AcDbLine
 62
253
  6
CONTINUOUS
 10
250.1327200012
 20
127.0591556916
 11
250.0691695252
 21
127.0414328321
  0
LINE
  5
2E6
100
AcDbEntity
  8
ASSI
100
AcDbLine
 62
253
  6
CONTINUOUS
 10
250.1327200012
 20
127.0591556916
 11
250.0691695252
 21
127.0414328321
  0
LINE
  5
2E7
100
AcDbEntity
  8
RACCORDO
100
AcDbLine
 62
253
  6
CONTINUOUS
 10
91.2580220526
 20
81.9316619411
 11
91.3251570393
 21
81.9498073559
  0
LINE
  5
2E8
100
AcDbEntity
  8
ASSI
100
AcDbLine
 62
253
  6
CONTINUOUS
 10
91.2580220526
 20
81.9316619411
 11
91.3251570393
 21
81.9498073559
  0
LINE
  5
2E9
100
AcDbEntity
  8
RACCORDO
100
AcDbLine
 62
253
  6
CONTINUOUS
 10
250.1998551105
 20
127.0773011189
 11
250.1327200012
 21
127.0591556916
  0
LINE
  5
2EA
100
AcDbEntity
  8
ASSI
100
AcDbLine
 62
253
  6
CONTINUOUS
 10
250.1998551105
 20
127.0773011189
 11
250.1327200012
 21
127.0591556916
  0
LWPOLYLINE
  5
2EB
100
AcDbEntity
  8
RACCORDO
100
AcDbPolyline
 62
253
  6
CONTINUOUS
 90
3
 70
0
 10
91.1536817118
 20
81.9044817447
 10
91.1887058729
 20
81.9134732833
 10
91.2580220526
 20
81.9316619411
  0
LWPOLYLINE
  5
2EC
100
AcDbEntity
  8
ASSI
100
AcDbPolyline
 62
253
  6
CONTINUOUS
 90
3
 70
0
 10
91.1536817118
 20
81.9044817447
 10
91.1887058729
 20
81.9134732833
 10
91.2580220526
 20
81.9316619411
  0
LWPOLYLINE
  5
2ED
100
AcDbEntity
  8
RACCORDO
100
AcDbPolyline
 62
253
  6
CONTINUOUS
 90
3
 70
0
 10
250.3041955578
 20
127.1044813133
 10
250.2691713736
 20
127.0954897787
 10
250.1998551105
 20
127.0773011189
  0
LWPOLYLINE
  5
2EE
100
AcDbEntity
  8
ASSI
100
AcDbPolyline
 62
253
  6
CONTINUOUS
 90
3
 70
0
 10
250.3041955578
 20
127.1044813133
 10
250.2691713736
 20
127.0954897787
 10
250.1998551105
 20
127.0773011189
  0
LINE
  5
2EF
100
AcDbEntity
  8
RACCORDO
100
AcDbLine
 62
253
  6
CONTINUOUS
 10
250.3041955578
 20
81.9044819432
 11
250.2343304318
 21
81.9225493736
  0
LINE
  5
2F0
100
AcDbEntity
  8
ASSI
100
AcDbLine
 62
253
  6
CONTINUOUS
 10
250.3041955578
 20
81.9044819432
 11
250.2343304318
 21
81.9225493736
  0
LINE
  5
2F1
100
AcDbEntity
  8
RACCORDO
100
AcDbLine
 62
253
  6
CONTINUOUS
 10
91.1536817118
 20
127.1044812825
 11
91.2235468326
 21
127.0864138516
  0
LINE
  5
2F2
100
AcDbEntity
  8
ASSI
100
AcDbLine
 62
253
  6
CONTINUOUS
 10
91.1536817118
 20
127.1044812825
 11
91.2235468326
 21
127.0864138516
  0
LINE
  5
2F3
100
AcDbEntity
  8
RACCORDO
100
AcDbLine
 62
253
  6
CONTINUOUS
 10
250.2343304318
 20
81.9225493736
 11
250.1659257242
 21
81.9407640811
  0
LINE
  5
2F4
100
AcDbEntity
  8
ASSI
100
AcDbLine
 62
253
  6
CONTINUOUS
 10
250.2343304318
 20
81.9225493736
 11
250.1659257242
 21
81.9407640811
  0
LINE
  5
2F5
100
AcDbEntity
  8
RACCORDO
100
AcDbLine
 62
253
  6
CONTINUOUS
 10
91.2235468326
 20
127.0864138516
 11
91.2919515307
 21
127.0681991447
  0
LINE
  5
2F6
100
AcDbEntity
  8
ASSI
100
AcDbLine
 62
253
  6
CONTINUOUS
 10
91.2235468326
 20
127.0864138516
 11
91.2919515307
 21
127.0681991447
  0
LWPOLYLINE
  5
2F7
100
AcDbEntity
  8
RACCORDO
100
AcDbPolyline
 62
253
  6
CONTINUOUS
 90
17
 70
0
 10
250.1659257242
 20
81.9407640811
 10
250.1004114598
 20
81.958745281
 10
250.0691693979
 20
81.9675304389
 10
250.0391572371
 20
81.9761170701
 10
250.0105320366
 20
81.9844602393
 10
249.9834435973
 20
81.9925162851
 10
249.958033678
 20
82.0002430489
 10
249.9344352536
 20
82.0076000949
 10
249.9127718189
 20
82.0145489225
 10
249.8931567427
 20
82.0210531672
 10
249.8756926743
 20
82.0270787911
 10
249.8604710065
 20
82.032594261
 10
249.8475713969
 20
82.0375707134
 10
249.8370613517
 20
82.0419821057
 10
249.8289958718
 20
82.0458053523
 10
249.8234171655
 20
82.0490204454
 10
249.820354427
 20
82.0516105598
  0
LWPOLYLINE
  5
2F8
100
AcDbEntity
  8
ASSI
100
AcDbPolyline
 62
253
  6
CONTINUOUS
 90
17
 70
0
 10
250.1659257242
 20
81.9407640811
 10
250.1004114598
 20
81.958745281
 10
250.0691693979
 20
81.9675304389
 10
250.0391572371
 20
81.9761170701
 10
250.0105320366
 20
81.9844602393
 10
249.9834435973
 20
81.9925162851
 10
249.958033678
 20
82.0002430489
 10
249.9344352536
 20
82.0076000949
 10
249.9127718189
 20
82.0145489225
 10
249.8931567427
 20
82.0210531672
 10
249.8756926743
 20
82.0270787911
 10
249.8604710065
 20
82.032594261
 10
249.8475713969
 20
82.0375707134
 10
249.8370613517
 20
82.0419821057
 10
249.8289958718
 20
82.0458053523
 10
249.8234171655
 20
82.0490204454
 10
249.820354427
 20
82.0516105598
  0
LWPOLYLINE
  5
2F9
100
AcDbEntity
  8
RACCORDO
100
AcDbPolyline
 62
253
  6
CONTINUOUS
 90
17
 70
0
 10
91.2919515307
 20
127.0681991447
 10
91.3574657828
 20
127.0502179462
 10
91.3887078378
 20
127.0414327892
 10
91.4187199913
 20
127.032846159
 10
91.4473451844
 20
127.0245029909
 10
91.4744336162
 20
127.0164469462
 10
91.499843528
 20
127.0087201836
 10
91.5234419453
 20
127.0013631387
 10
91.5451053731
 20
126.9944143122
 10
91.5647204429
 20
126.9879100685
 10
91.5821845054
 20
126.9818844455
 10
91.597406168
 20
126.9763689764
 10
91.610305773
 20
126.9713925245
 10
91.6208158145
 20
126.9669811326
 10
91.6288812915
 20
126.9631578862
 10
91.6344599958
 20
126.9599427931
 10
91.6375227331
 20
126.9573526784
  0
LWPOLYLINE
  5
2FA
100
AcDbEntity
  8
ASSI
100
AcDbPolyline
 62
253
  6
CONTINUOUS
 90
17
 70
0
 10
91.2919515307
 20
127.0681991447
 10
91.3574657828
 20
127.0502179462
 10
91.3887078378
 20
127.0414327892
 10
91.4187199913
 20
127.032846159
 10
91.4473451844
 20
127.0245029909
 10
91.4744336162
 20
127.0164469462
 10
91.499843528
 20
127.0087201836
 10
91.5234419453
 20
127.0013631387
 10
91.5451053731
 20
126.9944143122
 10
91.5647204429
 20
126.9879100685
 10
91.5821845054
 20
126.9818844455
 10
91.597406168
 20
126.9763689764
 10
91.610305773
 20
126.9713925245
 10
91.6208158145
 20
126.9669811326
 10
91.6288812915
 20
126.9631578862
 10
91.6344599958
 20
126.9599427931
 10
91.6375227331
 20
126.9573526784
  0
LWPOLYLINE
  5
2FB
100
AcDbEntity
  8
SCRITTE
100
AcDbPolyline
 62
253
  6
CONTINUOUS
 90
46
 70
0
 10
175.2703187512
 20
76.4758771151
 10
175.2663754458
 20
76.4859998195
 10
175.2622539104
 20
76.4958809061
 10
175.2579631335
 20
76.5055229143
 10
175.2535121038
 20
76.5149283836
 10
175.2489098099
 20
76.5240998532
 10
175.2441652404
 20
76.5330398628
 10
175.2392873839
 20
76.5417509517
 10
175.234285229
 20
76.5502356593
 10
175.2291677644
 20
76.558496525
 10
175.2239439787
 20
76.5665360884
 10
175.2180240544
 20
76.5752125679
 10
175.2119845792
 20
76.5836230231
 10
175.2058261657
 20
76.5917715071
 10
175.1995494264
 20
76.5996620733
 10
175.1931549741
 20
76.607298775
 10
175.1866434214
 20
76.6146856655
 10
175.1800153809
 20
76.6218267982
 10
175.1732714653
 20
76.6287262263
 10
175.1664122871
 20
76.6353880032
 10
175.1594387558
 20
76.641814885
 10
175.152352968
 20
76.6480044393
 10
175.145157317
 20
76.6539529366
 10
175.1378541961
 20
76.6596566472
 10
175.1304459987
 20
76.6651118415
 10
175.1229351181
 20
76.67031479
 10
175.1153239477
 20
76.6752617631
 10
175.1076148807
 20
76.6799490312
 10
175.0998103106
 20
76.6843728646
 10
175.0919124294
 20
76.6885309948
 10
175.0839226243
 20
76.6924269967
 10
175.0758420811
 20
76.6960659063
 10
175.0676719857
 20
76.6994527594
 10
175.0594135239
 20
76.702592592
 10
175.0510678818
 20
76.7054904399
 10
175.0426362451
 20
76.7081513392
 10
175.0341197997
 20
76.7105803256
 10
175.0255197316
 20
76.7127824352
 10
175.0157458008
 20
76.7149931454
 10
175.0058669723
 20
76.7169197912
 10
174.9958826828
 20
76.7185590755
 10
174.9857923686
 20
76.7199077014
 10
174.9755954664
 20
76.7209623718
 10
174.9652914127
 20
76.7217197898
 10
174.9548796441
 20
76.7221766584
 10
174.9443595971
 20
76.7223296806
  0
LINE
  5
2FC
100
AcDbEntity
  8
SCRITTE
100
AcDbLine
 62
253
  6
CONTINUOUS
 10
173.8773466348
 20
75.6266806054
 11
173.0183286348
 21
78.4263836053
  0
LWPOLYLINE
  5
2FD
100
AcDbEntity
  8
SCRITTE
100
AcDbPolyline
 62
253
  6
CONTINUOUS
 90
9
 70
0
 10
175.3560417674
 20
76.2141501192
 10
175.3459420779
 20
76.248207285
 10
175.3357232769
 20
76.2818998703
 10
175.3253577525
 20
76.3152164547
 10
175.3148178928
 20
76.3481456175
 10
175.304076086
 20
76.3806759381
 10
175.2931047201
 20
76.4127959959
 10
175.2818761832
 20
76.4444943704
 10
175.2703628635
 20
76.4757596408
  0
LINE
  5
2FE
100
AcDbEntity
  8
SCRITTE
100
AcDbLine
 62
253
  6
CONTINUOUS
 10
175.5109336172
 20
75.678635364
 11
175.4373714077
 21
75.9299910158
  0
LINE
  5
2FF
100
AcDbEntity
  8
SCRITTE
100
AcDbLine
 62
253
  6
CONTINUOUS
 10
175.5259542567
 20
75.626680251
 11
175.5109336172
 21
75.678635364
  0
LWPOLYLINE
  5
300
100
AcDbEntity
  8
SCRITTE
100
AcDbPolyline
 62
253
  6
CONTINUOUS
 90
3
 70
0
 10
175.4373714077
 20
75.9299910158
 10
175.382670499
 20
76.121640629
 10
175.3560417674
 20
76.2141501192
  0
LINE
  5
301
100
AcDbEntity
  8
SCRITTE
100
AcDbLine
 62
253
  6
CONTINUOUS
 10
173.1100126348
 20
76.1856006054
 11
173.2614046348
 21
75.6266806054
  0
LINE
  5
302
100
AcDbEntity
  8
SCRITTE
100
AcDbLine
 62
253
  6
CONTINUOUS
 10
175.869487745
 20
76.4536222434
 11
175.9235167809
 21
76.2536319196
  0
LINE
  5
303
100
AcDbEntity
  8
SCRITTE
100
AcDbLine
 62
253
  6
CONTINUOUS
 10
176.0556713675
 20
75.7483398836
 11
176.0880868468
 21
75.626680251
  0
LINE
  5
304
100
AcDbEntity
  8
SCRITTE
100
AcDbLine
 62
253
  6
CONTINUOUS
 10
175.9235167809
 20
76.2536319196
 11
175.9908664344
 21
75.9973918809
  0
LINE
  5
305
100
AcDbEntity
  8
SCRITTE
100
AcDbLine
 62
253
  6
CONTINUOUS
 10
175.9908664344
 20
75.9973918809
 11
176.0556713675
 21
75.7483398836
  0
LINE
  5
306
100
AcDbEntity
  8
SCRITTE
100
AcDbLine
 62
253
  6
CONTINUOUS
 10
172.7246756348
 20
77.6570966054
 11
172.9932186348
 21
76.6180906053
  0
LWPOLYLINE
  5
307
100
AcDbEntity
  8
SCRITTE
100
AcDbPolyline
 62
253
  6
CONTINUOUS
 90
49
 70
0
 10
175.3995919329
 20
77.615619034
 10
175.3992763127
 20
77.6261182613
 10
175.3986412738
 20
77.6365596811
 10
175.3976899395
 20
77.646947112
 10
175.3964254333
 20
77.6572843725
 10
175.3948508787
 20
77.6675752811
 10
175.392969399
 20
77.6778236563
 10
175.3907841176
 20
77.6880333166
 10
175.3882981581
 20
77.6982080806
 10
175.3855141159
 20
77.7083492469
 10
175.3824324752
 20
77.7184480351
 10
175.3790531919
 20
77.728493145
 10
175.3753762224
 20
77.7384732765
 10
175.3714015226
 20
77.7483771291
 10
175.3671290488
 20
77.7581934029
 10
175.3625587572
 20
77.7679107974
 10
175.3576906038
 20
77.7775180126
 10
175.3525245253
 20
77.7870032478
 10
175.3470603802
 20
77.7963527006
 10
175.3412980075
 20
77.8055520685
 10
175.3352372462
 20
77.8145870487
 10
175.3288779352
 20
77.8234433387
 10
175.3222199137
 20
77.8321066356
 10
175.3152630205
 20
77.8405626368
 10
175.3080070947
 20
77.8487970397
 10
175.3004539299
 20
77.8567970125
 10
175.2926131387
 20
77.8645556074
 10
175.2844962885
 20
77.8720673477
 10
175.2761149465
 20
77.8793267564
 10
175.2674806798
 20
77.8863283567
 10
175.258605056
 20
77.8930666719
 10
175.2494996421
 20
77.899536225
 10
175.2401760055
 20
77.9057315393
 10
175.2306457257
 20
77.9116478838
 10
175.2209204308
 20
77.9172835113
 10
175.2110117614
 20
77.9226374205
 10
175.2009313578
 20
77.9277086101
 10
175.1906908606
 20
77.9324960786
 10
175.18030191
 20
77.9369988249
 10
175.1697761466
 20
77.9412158476
 10
175.1591252108
 20
77.9451461453
 10
175.1483580747
 20
77.9487882564
 10
175.1374730369
 20
77.9521388769
 10
175.1264657277
 20
77.9551942428
 10
175.1153317774
 20
77.9579505898
 10
175.1040668163
 20
77.9604041537
 10
175.0926664747
 20
77.9625511703
 10
175.0811263828
 20
77.9643878754
 10
175.069442171
 20
77.9659105047
  0
LINE
  5
308
100
AcDbEntity
  8
SCRITTE
100
AcDbLine
 62
253
  6
CONTINUOUS
 10
174.0489574371
 20
75.626680251
 11
174.0489574371
 21
78.3936741409
  0
LINE
  5
309
100
AcDbEntity
  8
SCRITTE
100
AcDbLine
 62
253
  6
CONTINUOUS
 10
174.6116358889
 20
77.9494268094
 11
174.6116358889
 21
77.1808534911
  0
LINE
  5
30A
100
AcDbEntity
  8
SCRITTE
100
AcDbLine
 62
253
  6
CONTINUOUS
 10
174.6310139797
 20
76.7223296806
 11
174.6310139797
 21
75.6266802631
  0
LINE
  5
30B
100
AcDbEntity
  8
SCRITTE
100
AcDbLine
 62
253
  6
CONTINUOUS
 10
175.5514417997
 20
76.9501009773
 11
175.5514417997
 21
76.9335571681
  0
LINE
  5
30C
100
AcDbEntity
  8
SCRITTE
100
AcDbLine
 62
253
  6
CONTINUOUS
 10
169.2027556348
 20
75.6266806053
 11
169.3288706348
 21
77.4548346054
  0
LINE
  5
30D
100
AcDbEntity
  8
SCRITTE
100
AcDbLine
 62
253
  6
CONTINUOUS
 10
168.8964636348
 20
78.4263836053
 11
168.6436666348
 21
75.6266806053
  0
LINE
  5
30E
100
AcDbEntity
  8
SCRITTE
100
AcDbLine
 62
253
  6
CONTINUOUS
 10
166.9437696348
 20
78.4263836053
 11
166.3937926348
 21
76.4992616053
  0
LINE
  5
30F
100
AcDbEntity
  8
SCRITTE
100
AcDbLine
 62
253
  6
CONTINUOUS
 10
166.6278416348
 20
75.6266806053
 11
167.5277786348
 21
78.4263836053
  0
LWPOLYLINE
  5
310
100
AcDbEntity
  8
RACCORDO
100
AcDbPolyline
 62
253
  6
CONTINUOUS
 90
15
 70
0
 10
91.3887073662
 20
81.9675301949
 10
91.4187194169
 20
81.976116809
 10
91.4473445043
 20
81.9844599598
 10
91.4744328295
 20
81.9925159867
 10
91.4998426357
 20
82.0002427313
 10
91.52344095
 20
82.0075997586
 10
91.5451042793
 20
82.0145485683
 10
91.5647192565
 20
82.0210527963
 10
91.5821832337
 20
82.0270784051
 10
91.5974048198
 20
82.032593862
 10
91.610304358
 20
82.0375703038
 10
91.6208143435
 20
82.0419816882
 10
91.628879776
 20
82.0458049298
 10
91.634458448
 20
82.049020021
 10
91.6375211657
 20
82.0516101369
  0
LWPOLYLINE
  5
311
100
AcDbEntity
  8
ASSI
100
AcDbPolyline
 62
253
  6
CONTINUOUS
 90
15
 70
0
 10
91.3887073662
 20
81.9675301949
 10
91.4187194169
 20
81.976116809
 10
91.4473445043
 20
81.9844599598
 10
91.4744328295
 20
81.9925159867
 10
91.4998426357
 20
82.0002427313
 10
91.52344095
 20
82.0075997586
 10
91.5451042793
 20
82.0145485683
 10
91.5647192565
 20
82.0210527963
 10
91.5821832337
 20
82.0270784051
 10
91.5974048198
 20
82.032593862
 10
91.610304358
 20
82.0375703038
 10
91.6208143435
 20
82.0419816882
 10
91.628879776
 20
82.0458049298
 10
91.634458448
 20
82.049020021
 10
91.6375211657
 20
82.0516101369
  0
LWPOLYLINE
  5
312
100
AcDbEntity
  8
RACCORDO
100
AcDbPolyline
 62
253
  6
CONTINUOUS
 90
15
 70
0
 10
250.0691695252
 20
127.0414328321
 10
250.039157394
 20
127.0328462059
 10
250.0105322241
 20
127.0245030421
 10
249.983443816
 20
127.0164470018
 10
249.958033928
 20
127.0087202437
 10
249.9344355344
 20
127.0013632033
 10
249.9127721295
 20
126.9944143811
 10
249.8931570817
 20
126.9879101415
 10
249.8756930398
 20
126.9818845224
 10
249.8604713963
 20
126.9763690568
 10
249.8475718085
 20
126.971392608
 10
249.8370617822
 20
126.9669812187
 10
249.8289963182
 20
126.9631579744
 10
249.8234176243
 20
126.9599428828
 10
249.820354895
 20
126.9573527689
  0
LWPOLYLINE
  5
313
100
AcDbEntity
  8
ASSI
100
AcDbPolyline
 62
253
  6
CONTINUOUS
 90
15
 70
0
 10
250.0691695252
 20
127.0414328321
 10
250.039157394
 20
127.0328462059
 10
250.0105322241
 20
127.0245030421
 10
249.983443816
 20
127.0164470018
 10
249.958033928
 20
127.0087202437
 10
249.9344355344
 20
127.0013632033
 10
249.9127721295
 20
126.9944143811
 10
249.8931570817
 20
126.9879101415
 10
249.8756930398
 20
126.9818845224
 10
249.8604713963
 20
126.9763690568
 10
249.8475718085
 20
126.971392608
 10
249.8370617822
 20
126.9669812187
 10
249.8289963182
 20
126.9631579744
 10
249.8234176243
 20
126.9599428828
 10
249.820354895
 20
126.9573527689
  0
LINE
  5
314
100
AcDbEntity
  8
SCRITTE
100
AcDbLine
 62
253
  6
CONTINUOUS
 10
172.4336896348
 20
76.6180906053
 11
172.7246756348
 21
77.6570966053
  0
LINE
  5
315
100
AcDbEntity
  8
SCRITTE
100
AcDbLine
 62
253
  6
CONTINUOUS
 10
172.1528856348
 20
75.6266806053
 11
172.3141456348
 21
76.1856006053
  0
LINE
  5
316
100
AcDbEntity
  8
SCRITTE
100
AcDbLine
 62
253
  6
CONTINUOUS
 10
172.4529836348
 20
78.4263836053
 11
171.5748186348
 21
75.6266806053
  0
LINE
  5
317
100
AcDbEntity
  8
SCRITTE
100
AcDbLine
 62
253
  6
CONTINUOUS
 10
170.6430326348
 20
78.4263836053
 11
170.0586246348
 21
76.8719796053
  0
LINE
  5
318
100
AcDbEntity
  8
SCRITTE
100
AcDbLine
 62
253
  6
CONTINUOUS
 10
170.0964146348
 20
75.6266806053
 11
170.7912756348
 21
77.4472126054
  0
LWPOLYLINE
  5
319
100
AcDbEntity
  8
RACCORDO
100
AcDbPolyline
 62
253
  6
CONTINUOUS
 90
16
 70
0
 10
250.1219291854
 20
126.8800003507
 10
250.08970404
 20
126.8791865789
 10
250.0587455324
 20
126.8782591605
 10
250.0292154366
 20
126.8772229416
 10
250.0012680621
 20
126.8760833371
 10
249.975049448
 20
126.8748463019
 10
249.9506966
 20
126.8735183001
 10
249.9283367737
 20
126.8721062713
 10
249.9080868108
 20
126.870617594
 10
249.8900525273
 20
126.8690600473
 10
249.8743281616
 20
126.8674417702
 10
249.8609958814
 20
126.8657712189
 10
249.8501253545
 20
126.864057123
 10
249.841773385
 20
126.8623084394
 10
249.8359836162
 20
126.860534306
 10
249.8327863024
 20
126.8587439934
  0
LWPOLYLINE
  5
31A
100
AcDbEntity
  8
ASSI
100
AcDbPolyline
 62
253
  6
CONTINUOUS
 90
16
 70
0
 10
250.1219291854
 20
126.8800003507
 10
250.08970404
 20
126.8791865789
 10
250.0587455324
 20
126.8782591605
 10
250.0292154366
 20
126.8772229416
 10
250.0012680621
 20
126.8760833371
 10
249.975049448
 20
126.8748463019
 10
249.9506966
 20
126.8735183001
 10
249.9283367737
 20
126.8721062713
 10
249.9080868108
 20
126.870617594
 10
249.8900525273
 20
126.8690600473
 10
249.8743281616
 20
126.8674417702
 10
249.8609958814
 20
126.8657712189
 10
249.8501253545
 20
126.864057123
 10
249.841773385
 20
126.8623084394
 10
249.8359836162
 20
126.860534306
 10
249.8327863024
 20
126.8587439934
  0
LWPOLYLINE
  5
31B
100
AcDbEntity
  8
RACCORDO
100
AcDbPolyline
 62
253
  6
CONTINUOUS
 90
3
 70
0
 10
250.2244927379
 20
126.8817203617
 10
250.1895000804
 20
126.8812705608
 10
250.1219291854
 20
126.8800003507
  0
LWPOLYLINE
  5
31C
100
AcDbEntity
  8
ASSI
100
AcDbPolyline
 62
253
  6
CONTINUOUS
 90
3
 70
0
 10
250.2244927379
 20
126.8817203617
 10
250.1895000804
 20
126.8812705608
 10
250.1219291854
 20
126.8800003507
  0
LWPOLYLINE
  5
31D
100
AcDbEntity
  8
RACCORDO
100
AcDbPolyline
 62
253
  6
CONTINUOUS
 90
18
 70
0
 10
91.2333845047
 20
126.8817203903
 10
91.3026246346
 20
126.880696247
 10
91.3359480063
 20
126.8800003719
 10
91.3681731314
 20
126.8791865979
 10
91.3991316177
 20
126.8782591774
 10
91.4286616917
 20
126.8772229565
 10
91.4566090443
 20
126.8760833501
 10
91.4828276365
 20
126.8748463132
 10
91.5071804634
 20
126.8735183098
 10
91.5295402694
 20
126.8721062795
 10
91.5497902133
 20
126.8706176007
 10
91.5678244793
 20
126.8690600527
 10
91.5835488293
 20
126.8674417744
 10
91.5968810959
 20
126.865771222
 10
91.6077516114
 20
126.864057125
 10
91.6161035718
 20
126.8623084404
 10
91.6218933342
 20
126.8605343061
 10
91.6250906441
 20
126.8587439926
  0
LWPOLYLINE
  5
31E
100
AcDbEntity
  8
ASSI
100
AcDbPolyline
 62
253
  6
CONTINUOUS
 90
18
 70
0
 10
91.2333845047
 20
126.8817203903
 10
91.3026246346
 20
126.880696247
 10
91.3359480063
 20
126.8800003719
 10
91.3681731314
 20
126.8791865979
 10
91.3991316177
 20
126.8782591774
 10
91.4286616917
 20
126.8772229565
 10
91.4566090443
 20
126.8760833501
 10
91.4828276365
 20
126.8748463132
 10
91.5071804634
 20
126.8735183098
 10
91.5295402694
 20
126.8721062795
 10
91.5497902133
 20
126.8706176007
 10
91.5678244793
 20
126.8690600527
 10
91.5835488293
 20
126.8674417744
 10
91.5968810959
 20
126.865771222
 10
91.6077516114
 20
126.864057125
 10
91.6161035718
 20
126.8623084404
 10
91.6218933342
 20
126.8605343061
 10
91.6250906441
 20
126.8587439926
  0
LWPOLYLINE
  5
31F
100
AcDbEntity
  8
RACCORDO
100
AcDbPolyline
 62
7
  6
CONTINUOUS
 90
25
 70
0
 10
92.0794433572
 20
127.2044816054
 10
92.053125701
 20
127.2035989482
 10
92.027143291
 20
127.2010531799
 10
92.0014961273
 20
127.1968442991
 10
91.9760831828
 20
127.1909426904
 10
91.9510054845
 20
127.1833779633
 10
91.9265661134
 20
127.1742389532
 10
91.9027837224
 20
127.1635221789
 10
91.8796396586
 20
127.1512311109
 10
91.857381044
 20
127.1374650111
 10
91.8359773295
 20
127.1221764852
 10
91.8154590643
 20
127.1054129127
 10
91.7961650181
 20
127.0874157166
 10
91.7781202669
 20
127.0681448344
 10
91.7612997346
 20
127.0476403129
 10
91.7459669631
 20
127.0262637413
 10
91.7321790475
 20
127.0040527512
 10
91.7198788927
 20
126.9809696986
 10
91.7091587557
 20
126.9572632632
 10
91.7000221365
 20
126.9329197289
 10
91.6924655351
 20
126.9079528019
 10
91.6865707078
 20
126.8826522998
 10
91.6823649067
 20
126.8571148275
 10
91.6798208798
 20
126.831243775
 10
91.678938627
 20
126.8050391396
  0
LWPOLYLINE
  5
320
100
AcDbEntity
  8
ASSI
100
AcDbPolyline
 62
7
  6
CONTINUOUS
 90
25
 70
0
 10
92.0794433572
 20
127.2044816054
 10
92.053125701
 20
127.2035989482
 10
92.027143291
 20
127.2010531799
 10
92.0014961273
 20
127.1968442991
 10
91.9760831828
 20
127.1909426904
 10
91.9510054845
 20
127.1833779633
 10
91.9265661134
 20
127.1742389532
 10
91.9027837224
 20
127.1635221789
 10
91.8796396586
 20
127.1512311109
 10
91.857381044
 20
127.1374650111
 10
91.8359773295
 20
127.1221764852
 10
91.8154590643
 20
127.1054129127
 10
91.7961650181
 20
127.0874157166
 10
91.7781202669
 20
127.0681448344
 10
91.7612997346
 20
127.0476403129
 10
91.7459669631
 20
127.0262637413
 10
91.7321790475
 20
127.0040527512
 10
91.7198788927
 20
126.9809696986
 10
91.7091587557
 20
126.9572632632
 10
91.7000221365
 20
126.9329197289
 10
91.6924655351
 20
126.9079528019
 10
91.6865707078
 20
126.8826522998
 10
91.6823649067
 20
126.8571148275
 10
91.6798208798
 20
126.831243775
 10
91.678938627
 20
126.8050391396
  0
LINE
  5
321
100
AcDbEntity
  8
RACCORDO
100
AcDbLine
 62
253
  6
CONTINUOUS
 10
66.098687951
 20
127.0389652834
 11
66.1630232385
 21
127.0404182558
  0
LINE
  5
322
100
AcDbEntity
  8
ASSI
100
AcDbLine
 62
253
  6
CONTINUOUS
 10
66.098687951
 20
127.0389652834
 11
66.1630232385
 21
127.0404182558
  0
LINE
  5
323
100
AcDbEntity
  8
RACCORDO
100
AcDbLine
 62
253
  6
CONTINUOUS
 10
66.098689612
 20
127.1014815857
 11
66.1630248402
 21
127.1029372519
  0
LINE
  5
324
100
AcDbEntity
  8
ASSI
100
AcDbLine
 62
253
  6
CONTINUOUS
 10
66.098689612
 20
127.1014815857
 11
66.1630248402
 21
127.1029372519
  0
LINE
  5
325
100
AcDbEntity
  8
RACCORDO
100
AcDbLine
 62
253
  6
CONTINUOUS
 10
66.1630232385
 20
127.0404182558
 11
66.2308047607
 21
127.0414029997
  0
LINE
  5
326
100
AcDbEntity
  8
ASSI
100
AcDbLine
 62
253
  6
CONTINUOUS
 10
66.1630232385
 20
127.0404182558
 11
66.2308047607
 21
127.0414029997
  0
LINE
  5
327
100
AcDbEntity
  8
RACCORDO
100
AcDbLine
 62
253
  6
CONTINUOUS
 10
66.1630248402
 20
127.1029372519
 11
66.2308062913
 21
127.1039233202
  0
LINE
  5
328
100
AcDbEntity
  8
ASSI
100
AcDbLine
 62
253
  6
CONTINUOUS
 10
66.1630248402
 20
127.1029372519
 11
66.2308062913
 21
127.1039233202
  0
LWPOLYLINE
  5
329
100
AcDbEntity
  8
RACCORDO
100
AcDbPolyline
 62
253
  6
CONTINUOUS
 90
3
 70
0
 10
66.2308047607
 20
127.0414029997
 10
66.3006818806
 20
127.0418998926
 10
66.3359720423
 20
127.0419619143
  0
LWPOLYLINE
  5
32A
100
AcDbEntity
  8
ASSI
100
AcDbPolyline
 62
253
  6
CONTINUOUS
 90
3
 70
0
 10
66.2308047607
 20
127.0414029997
 10
66.3006818806
 20
127.0418998926
 10
66.3359720423
 20
127.0419619143
  0
LINE
  5
32B
100
AcDbEntity
  8
RACCORDO
100
AcDbLine
 62
253
  6
CONTINUOUS
 10
66.2308062913
 20
127.1039233202
 11
66.3006833331
 21
127.104420142
  0
LINE
  5
32C
100
AcDbEntity
  8
ASSI
100
AcDbLine
 62
253
  6
CONTINUOUS
 10
66.2308062913
 20
127.1039233202
 11
66.3006833331
 21
127.104420142
  0
LWPOLYLINE
  5
32D
100
AcDbEntity
  8
RACCORDO
100
AcDbPolyline
 62
253
  6
CONTINUOUS
 90
3
 70
0
 10
250.3320993663
 20
126.8823023647
 10
250.2959791571
 20
126.8822376151
 10
250.2244927379
 20
126.8817203617
  0
LWPOLYLINE
  5
32E
100
AcDbEntity
  8
ASSI
100
AcDbPolyline
 62
253
  6
CONTINUOUS
 90
3
 70
0
 10
250.3320993663
 20
126.8823023647
 10
250.2959791571
 20
126.8822376151
 10
250.2244927379
 20
126.8817203617
  0
LINE
  5
32F
100
AcDbEntity
  8
RACCORDO
100
AcDbLine
 62
253
  6
CONTINUOUS
 10
275.7289386348
 20
127.0191038276
 11
275.6199977929
 21
127.0191038276
  0
LINE
  5
330
100
AcDbEntity
  8
ASSI
100
AcDbLine
 62
253
  6
CONTINUOUS
 10
275.7289386348
 20
127.0191038276
 11
275.6199977929
 21
127.0191038276
  0
LINE
  5
331
100
AcDbEntity
  8
RACCORDO
100
AcDbLine
 62
253
  6
CONTINUOUS
 10
65.7289386348
 20
127.0191038276
 11
65.8378794769
 21
127.0191115928
  0
LINE
  5
332
100
AcDbEntity
  8
ASSI
100
AcDbLine
 62
253
  6
CONTINUOUS
 10
65.7289386348
 20
127.0191038276
 11
65.8378794769
 21
127.0191115928
  0
LINE
  5
333
100
AcDbEntity
  8
RACCORDO
100
AcDbLine
 62
253
  6
CONTINUOUS
 10
91.1536817118
 20
127.1044816054
 11
66.3006833331
 21
127.104420142
  0
LINE
  5
334
100
AcDbEntity
  8
ASSI
100
AcDbLine
 62
253
  6
CONTINUOUS
 10
91.1536817118
 20
127.1044816054
 11
66.3006833331
 21
127.104420142
  0
LINE
  5
335
100
AcDbEntity
  8
RACCORDO
100
AcDbLine
 62
7
  6
CONTINUOUS
 10
249.3784339124
 20
127.2044816054
 11
92.0794433572
 21
127.2044816054
  0
LINE
  5
336
100
AcDbEntity
  8
ASSI
100
AcDbLine
 62
7
  6
CONTINUOUS
 10
249.3784339124
 20
127.2044816054
 11
92.0794433572
 21
127.2044816054
  0
LINE
  5
337
100
AcDbEntity
  8
RACCORDO
100
AcDbLine
 62
253
  6
CONTINUOUS
 10
92.0269875855
 20
127.2568031677
 11
249.4308896875
 21
127.2568031677
  0
LINE
  5
338
100
AcDbEntity
  8
ASSI
100
AcDbLine
 62
253
  6
CONTINUOUS
 10
92.0269875855
 20
127.2568031677
 11
249.4308896875
 21
127.2568031677
  0
LINE
  5
339
100
AcDbEntity
  8
RACCORDO
100
AcDbLine
 62
253
  6
CONTINUOUS
 10
92.0269851318
 20
127.7832477416
 11
249.4308921378
 21
127.7832477416
  0
LINE
  5
33A
100
AcDbEntity
  8
ASSI
100
AcDbLine
 62
253
  6
CONTINUOUS
 10
92.0269851318
 20
127.7832477416
 11
249.4308921378
 21
127.7832477416
  0
LINE
  5
33B
100
AcDbEntity
  8
RACCORDO
100
AcDbLine
 62
253
  6
CONTINUOUS
 10
275.1571939378
 20
127.1044201432
 11
250.3041955579
 21
127.1044816054
  0
LINE
  5
33C
100
AcDbEntity
  8
ASSI
100
AcDbLine
 62
253
  6
CONTINUOUS
 10
275.1571939378
 20
127.1044201432
 11
250.3041955579
 21
127.1044816054
  0
LWPOLYLINE
  5
33D
100
AcDbEntity
  8
RACCORDO
100
AcDbPolyline
 62
253
  6
CONTINUOUS
 90
3
 70
0
 10
91.1257779034
 20
126.8823024017
 10
91.1978295604
 20
126.8820433069
 10
91.2333845047
 20
126.8817203903
  0
LWPOLYLINE
  5
33E
100
AcDbEntity
  8
ASSI
100
AcDbPolyline
 62
253
  6
CONTINUOUS
 90
3
 70
0
 10
91.1257779034
 20
126.8823024017
 10
91.1978295604
 20
126.8820433069
 10
91.2333845047
 20
126.8817203903
  0
LINE
  5
33F
100
AcDbEntity
  8
RACCORDO
100
AcDbLine
 62
253
  6
CONTINUOUS
 10
275.1923095299
 20
127.0417055047
 11
275.1219052275
 21
127.0419541417
  0
LINE
  5
340
100
AcDbEntity
  8
ASSI
100
AcDbLine
 62
253
  6
CONTINUOUS
 10
275.1923095299
 20
127.0417055047
 11
275.1219052275
 21
127.0419541417
  0
LINE
  5
341
100
AcDbEntity
  8
RACCORDO
100
AcDbLine
 62
253
  6
CONTINUOUS
 10
275.2270709818
 20
127.1039233215
 11
275.1571939378
 21
127.1044201432
  0
LINE
  5
342
100
AcDbEntity
  8
ASSI
100
AcDbLine
 62
253
  6
CONTINUOUS
 10
275.2270709818
 20
127.1039233215
 11
275.1571939378
 21
127.1044201432
  0
LINE
  5
343
100
AcDbEntity
  8
RACCORDO
100
AcDbLine
 62
253
  6
CONTINUOUS
 10
275.2613109331
 20
127.0409628343
 11
275.1923095299
 21
127.0417055047
  0
LINE
  5
344
100
AcDbEntity
  8
ASSI
100
AcDbLine
 62
253
  6
CONTINUOUS
 10
275.2613109331
 20
127.0409628343
 11
275.1923095299
 21
127.0417055047
  0
LINE
  5
345
100
AcDbEntity
  8
RACCORDO
100
AcDbLine
 62
253
  6
CONTINUOUS
 10
275.294852435
 20
127.1029372531
 11
275.2270709818
 21
127.1039233215
  0
LINE
  5
346
100
AcDbEntity
  8
ASSI
100
AcDbLine
 62
253
  6
CONTINUOUS
 10
275.294852435
 20
127.1029372531
 11
275.2270709818
 21
127.1039233215
  0
LWPOLYLINE
  5
347
100
AcDbEntity
  8
RACCORDO
100
AcDbPolyline
 62
253
  6
CONTINUOUS
 90
25
 70
0
 10
249.4308896791
 20
127.2568031593
 10
249.453037259
 20
127.2562728009
 10
249.4751038613
 20
127.2545311457
 10
249.497023108
 20
127.2515860493
 10
249.5187249284
 20
127.2474504657
 10
249.5401488887
 20
127.2421384886
 10
249.5612437313
 20
127.2356627061
 10
249.5819497964
 20
127.2280413428
 10
249.6022008298
 20
127.2192987137
 10
249.6219366741
 20
127.209459041
 10
249.6410989102
 20
127.1985511538
 10
249.6596282833
 20
127.186608513
 10
249.6774659133
 20
127.1736670615
 10
249.694557806
 20
127.1597661053
 10
249.7108524283
 20
127.1449478308
 10
249.726298276
 20
127.1292573232
 10
249.7408477692
 20
127.1127435226
 10
249.7544582332
 20
127.0954556905
 10
249.7670893489
 20
127.077443009
 10
249.778703738
 20
127.0587579085
 10
249.7892646257
 20
127.0394589354
 10
249.7987373451
 20
127.0196075333
 10
249.8070927411
 20
126.9992651532
 10
249.8143066038
 20
126.9784927183
 10
249.8203573123
 20
126.9573533785
  0
LWPOLYLINE
  5
348
100
AcDbEntity
  8
ASSI
100
AcDbPolyline
 62
253
  6
CONTINUOUS
 90
25
 70
0
 10
249.4308896791
 20
127.2568031593
 10
249.453037259
 20
127.2562728009
 10
249.4751038613
 20
127.2545311457
 10
249.497023108
 20
127.2515860493
 10
249.5187249284
 20
127.2474504657
 10
249.5401488887
 20
127.2421384886
 10
249.5612437313
 20
127.2356627061
 10
249.5819497964
 20
127.2280413428
 10
249.6022008298
 20
127.2192987137
 10
249.6219366741
 20
127.209459041
 10
249.6410989102
 20
127.1985511538
 10
249.6596282833
 20
127.186608513
 10
249.6774659133
 20
127.1736670615
 10
249.694557806
 20
127.1597661053
 10
249.7108524283
 20
127.1449478308
 10
249.726298276
 20
127.1292573232
 10
249.7408477692
 20
127.1127435226
 10
249.7544582332
 20
127.0954556905
 10
249.7670893489
 20
127.077443009
 10
249.778703738
 20
127.0587579085
 10
249.7892646257
 20
127.0394589354
 10
249.7987373451
 20
127.0196075333
 10
249.8070927411
 20
126.9992651532
 10
249.8143066038
 20
126.9784927183
 10
249.8203573123
 20
126.9573533785
  0
LWPOLYLINE
  5
349
100
AcDbEntity
  8
RACCORDO
100
AcDbPolyline
 62
253
  6
CONTINUOUS
 90
25
 70
0
 10
249.4308921378
 20
127.7832477416
 10
249.480795627
 20
127.7818350409
 10
249.530224553
 20
127.7777390933
 10
249.5791789159
 20
127.7709598881
 10
249.6277922961
 20
127.7614622473
 10
249.6759311132
 20
127.7492813065
 10
249.7231946261
 20
127.734522516
 10
249.7695850604
 20
127.717163499
 10
249.8151001906
 20
127.6972265524
 10
249.8593325982
 20
127.6748841323
 10
249.9022756851
 20
127.6501114993
 10
249.9439360495
 20
127.6229332847
 10
249.9839260673
 20
127.5935960021
 10
250.0222301223
 20
127.5620773902
 10
250.0588638308
 20
127.5283995871
 10
250.0934864172
 20
127.4928757161
 10
250.1260742778
 20
127.4554940191
 10
250.1566510163
 20
127.4162661309
 10
250.1849466677
 20
127.375540283
 10
250.2109483647
 20
127.3332821595
 10
250.2346689746
 20
127.2895259652
 10
250.2558771352
 20
127.2447227409
 10
250.2744957255
 20
127.199022815
 10
250.2906018664
 20
127.1522757834
 10
250.3041955579
 20
127.1044816054
  0
LWPOLYLINE
  5
34A
100
AcDbEntity
  8
ASSI
100
AcDbPolyline
 62
253
  6
CONTINUOUS
 90
25
 70
0
 10
249.4308921378
 20
127.7832477416
 10
249.480795627
 20
127.7818350409
 10
249.530224553
 20
127.7777390933
 10
249.5791789159
 20
127.7709598881
 10
249.6277922961
 20
127.7614622473
 10
249.6759311132
 20
127.7492813065
 10
249.7231946261
 20
127.734522516
 10
249.7695850604
 20
127.717163499
 10
249.8151001906
 20
127.6972265524
 10
249.8593325982
 20
127.6748841323
 10
249.9022756851
 20
127.6501114993
 10
249.9439360495
 20
127.6229332847
 10
249.9839260673
 20
127.5935960021
 10
250.0222301223
 20
127.5620773902
 10
250.0588638308
 20
127.5283995871
 10
250.0934864172
 20
127.4928757161
 10
250.1260742778
 20
127.4554940191
 10
250.1566510163
 20
127.4162661309
 10
250.1849466677
 20
127.375540283
 10
250.2109483647
 20
127.3332821595
 10
250.2346689746
 20
127.2895259652
 10
250.2558771352
 20
127.2447227409
 10
250.2744957255
 20
127.199022815
 10
250.2906018664
 20
127.1522757834
 10
250.3041955579
 20
127.1044816054
  0
LINE
  5
34B
100
AcDbEntity
  8
RACCORDO
100
AcDbLine
 62
253
  6
CONTINUOUS
 10
66.6317538145
 20
148.9758769711
 11
274.8261234551
 21
148.9758769711
  0
LINE
  5
34C
100
AcDbEntity
  8
ASSI
100
AcDbLine
 62
253
  6
CONTINUOUS
 10
66.6317538145
 20
148.9758769711
 11
274.8261234551
 21
148.9758769711
  0
LINE
  5
34D
100
AcDbEntity
  8
RACCORDO
100
AcDbLine
 62
253
  6
CONTINUOUS
 10
66.6317538145
 20
149.3838162326
 11
274.8261234551
 21
149.3838162326
  0
LINE
  5
34E
100
AcDbEntity
  8
ASSI
100
AcDbLine
 62
253
  6
CONTINUOUS
 10
66.6317538145
 20
149.3838162326
 11
274.8261234551
 21
149.3838162326
  0
LINE
  5
34F
100
AcDbEntity
  8
RACCORDO
100
AcDbLine
 62
7
  6
CONTINUOUS
 10
66.5289386348
 20
149.5044816054
 11
274.9289386348
 21
149.5044816054
  0
LINE
  5
350
100
AcDbEntity
  8
ASSI
100
AcDbLine
 62
7
  6
CONTINUOUS
 10
66.5289386348
 20
149.5044816054
 11
274.9289386348
 21
149.5044816054
  0
LINE
  5
351
100
AcDbEntity
  8
RACCORDO
100
AcDbLine
 62
253
  6
CONTINUOUS
 10
249.4308894626
 20
81.752160043
 11
249.3784339124
 21
81.8044816054
  0
LINE
  5
352
100
AcDbEntity
  8
ASSI
100
AcDbLine
 62
253
  6
CONTINUOUS
 10
249.4308894626
 20
81.752160043
 11
249.3784339124
 21
81.8044816054
  0
LINE
  5
353
100
AcDbEntity
  8
RACCORDO
100
AcDbLine
 62
253
  6
CONTINUOUS
 10
249.8327863063
 20
82.150212427
 11
249.7789386427
 21
82.2039240711
  0
LINE
  5
354
100
AcDbEntity
  8
ASSI
100
AcDbLine
 62
253
  6
CONTINUOUS
 10
249.8327863063
 20
82.150212427
 11
249.7789386427
 21
82.2039240711
  0
LINE
  5
355
100
AcDbEntity
  8
RACCORDO
100
AcDbLine
 62
253
  6
CONTINUOUS
 10
274.8261234551
 20
59.6251469781
 11
274.9447014255
 21
59.5046369114
  0
LINE
  5
356
100
AcDbEntity
  8
ASSI
100
AcDbLine
 62
253
  6
CONTINUOUS
 10
274.8261234551
 20
59.6251469781
 11
274.9447014255
 21
59.5046369114
  0
LINE
  5
357
100
AcDbEntity
  8
RACCORDO
100
AcDbLine
 62
253
  6
CONTINUOUS
 10
275.6182854616
 20
148.5948386207
 11
275.728935913
 21
148.707341822
  0
LINE
  5
358
100
AcDbEntity
  8
ASSI
100
AcDbLine
 62
253
  6
CONTINUOUS
 10
275.6182854616
 20
148.5948386207
 11
275.728935913
 21
148.707341822
  0
LINE
  5
359
100
AcDbEntity
  8
RACCORDO
100
AcDbLine
 62
253
  6
CONTINUOUS
 10
274.8261234551
 20
149.3838162326
 11
274.9447014255
 21
149.5043262993
  0
LINE
  5
35A
100
AcDbEntity
  8
ASSI
100
AcDbLine
 62
253
  6
CONTINUOUS
 10
274.8261234551
 20
149.3838162326
 11
274.9447014255
 21
149.5043262993
  0
LINE
  5
35B
100
AcDbEntity
  8
RACCORDO
100
AcDbLine
 62
253
  6
CONTINUOUS
 10
249.7789386427
 20
126.8050391396
 11
249.8327863073
 21
126.8587522555
  0
LINE
  5
35C
100
AcDbEntity
  8
ASSI
100
AcDbLine
 62
253
  6
CONTINUOUS
 10
249.7789386427
 20
126.8050391396
 11
249.8327863073
 21
126.8587522555
  0
LINE
  5
35D
100
AcDbEntity
  8
RACCORDO
100
AcDbLine
 62
253
  6
CONTINUOUS
 10
249.3784339124
 20
127.2044816054
 11
249.4308896875
 21
127.2568031677
  0
LINE
  5
35E
100
AcDbEntity
  8
ASSI
100
AcDbLine
 62
253
  6
CONTINUOUS
 10
249.3784339124
 20
127.2044816054
 11
249.4308896875
 21
127.2568031677
  0
LWPOLYLINE
  5
35F
100
AcDbEntity
  8
RACCORDO
100
AcDbPolyline
 62
253
  6
CONTINUOUS
 90
28
 70
0
 10
274.8261234551
 20
148.9758769711
 10
274.8433732107
 20
148.9753659315
 10
274.8604397596
 20
148.9738696627
 10
274.8773231019
 20
148.9713881599
 10
274.8940757687
 20
148.967908798
 10
274.9106452289
 20
148.9634441824
 10
274.9268738891
 20
148.9580321493
 10
274.9427630932
 20
148.9516614448
 10
274.9583114973
 20
148.9443432856
 10
274.9733574759
 20
148.9361492119
 10
274.9878925011
 20
148.9270718014
 10
275.0019251009
 20
148.9171184261
 10
275.0153192331
 20
148.9063828179
 10
275.0280703352
 20
148.8948559576
 10
275.0401829698
 20
148.8825468065
 10
275.0515347824
 20
148.8695760731
 10
275.062117645
 20
148.8559376119
 10
275.0719396856
 20
148.8416375101
 10
275.0809029336
 20
148.8268148334
 10
275.0889990173
 20
148.8114641343
 10
275.0962363084
 20
148.7955908082
 10
275.1025419506
 20
148.7793501987
 10
275.107906996
 20
148.7627335226
 10
275.1123403926
 20
148.7457495233
 10
275.1157961272
 20
148.7285798519
 10
275.1182588622
 20
148.7112850566
 10
275.1197439353
 20
148.6938045708
 10
275.1202513464
 20
148.6761383842
  0
LWPOLYLINE
  5
360
100
AcDbEntity
  8
ASSI
100
AcDbPolyline
 62
253
  6
CONTINUOUS
 90
28
 70
0
 10
274.8261234551
 20
148.9758769711
 10
274.8433732107
 20
148.9753659315
 10
274.8604397596
 20
148.9738696627
 10
274.8773231019
 20
148.9713881599
 10
274.8940757687
 20
148.967908798
 10
274.9106452289
 20
148.9634441824
 10
274.9268738891
 20
148.9580321493
 10
274.9427630932
 20
148.9516614448
 10
274.9583114973
 20
148.9443432856
 10
274.9733574759
 20
148.9361492119
 10
274.9878925011
 20
148.9270718014
 10
275.0019251009
 20
148.9171184261
 10
275.0153192331
 20
148.9063828179
 10
275.0280703352
 20
148.8948559576
 10
275.0401829698
 20
148.8825468065
 10
275.0515347824
 20
148.8695760731
 10
275.062117645
 20
148.8559376119
 10
275.0719396856
 20
148.8416375101
 10
275.0809029336
 20
148.8268148334
 10
275.0889990173
 20
148.8114641343
 10
275.0962363084
 20
148.7955908082
 10
275.1025419506
 20
148.7793501987
 10
275.107906996
 20
148.7627335226
 10
275.1123403926
 20
148.7457495233
 10
275.1157961272
 20
148.7285798519
 10
275.1182588622
 20
148.7112850566
 10
275.1197439353
 20
148.6938045708
 10
275.1202513464
 20
148.6761383842
  0
LWPOLYLINE
  5
361
100
AcDbEntity
  8
RACCORDO
100
AcDbPolyline
 62
253
  6
CONTINUOUS
 90
28
 70
0
 10
274.8261234551
 20
149.3838162326
 10
274.8718489803
 20
149.3822857077
 10
274.9173737504
 20
149.3781277886
 10
274.9625494522
 20
149.3713610763
 10
275.0072106664
 20
149.3620170973
 10
275.0512317446
 20
149.3501287052
 10
275.0945244902
 20
149.3357193744
 10
275.1369719172
 20
149.3188198026
 10
275.1784062299
 20
149.2994887902
 10
275.2186659311
 20
149.2777990017
 10
275.2576083642
 20
149.2538271654
 10
275.2951164375
 20
149.2276459533
 10
275.3310743794
 20
149.1993361582
 10
275.3653639315
 20
149.1689869948
 10
275.397869556
 20
149.1366973888
 10
275.4284863073
 20
149.102571251
 10
275.4571109699
 20
149.0667183255
 10
275.4836473147
 20
149.0292541178
 10
275.5080095747
 20
148.9902991687
 10
275.5301150875
 20
148.9499770019
 10
275.5498866345
 20
148.9084199353
 10
275.5672574468
 20
148.865768589
 10
275.582166059
 20
148.8221642207
 10
275.5945612623
 20
148.7777461121
 10
275.6044031684
 20
148.7326568416
 10
275.6116562003
 20
148.6870426086
 10
275.6162902733
 20
148.6410530461
 10
275.6182854617
 20
148.5948386208
  0
LWPOLYLINE
  5
362
100
AcDbEntity
  8
ASSI
100
AcDbPolyline
 62
253
  6
CONTINUOUS
 90
28
 70
0
 10
274.8261234551
 20
149.3838162326
 10
274.8718489803
 20
149.3822857077
 10
274.9173737504
 20
149.3781277886
 10
274.9625494522
 20
149.3713610763
 10
275.0072106664
 20
149.3620170973
 10
275.0512317446
 20
149.3501287052
 10
275.0945244902
 20
149.3357193744
 10
275.1369719172
 20
149.3188198026
 10
275.1784062299
 20
149.2994887902
 10
275.2186659311
 20
149.2777990017
 10
275.2576083642
 20
149.2538271654
 10
275.2951164375
 20
149.2276459533
 10
275.3310743794
 20
149.1993361582
 10
275.3653639315
 20
149.1689869948
 10
275.397869556
 20
149.1366973888
 10
275.4284863073
 20
149.102571251
 10
275.4571109699
 20
149.0667183255
 10
275.4836473147
 20
149.0292541178
 10
275.5080095747
 20
148.9902991687
 10
275.5301150875
 20
148.9499770019
 10
275.5498866345
 20
148.9084199353
 10
275.5672574468
 20
148.865768589
 10
275.582166059
 20
148.8221642207
 10
275.5945612623
 20
148.7777461121
 10
275.6044031684
 20
148.7326568416
 10
275.6116562003
 20
148.6870426086
 10
275.6162902733
 20
148.6410530461
 10
275.6182854617
 20
148.5948386208
  0
LINE
  5
363
100
AcDbEntity
  8
RACCORDO
100
AcDbLine
 62
253
  6
CONTINUOUS
 10
275.6182854616
 20
60.4141245899
 11
275.728935913
 21
60.3016213887
  0
LINE
  5
364
100
AcDbEntity
  8
ASSI
100
AcDbLine
 62
253
  6
CONTINUOUS
 10
275.6182854616
 20
60.4141245899
 11
275.728935913
 21
60.3016213887
  0
LWPOLYLINE
  5
365
100
AcDbEntity
  8
RACCORDO
100
AcDbPolyline
 62
253
  6
CONTINUOUS
 90
17
 70
0
 10
275.6199977924
 20
127.0191038276
 10
275.6156760017
 20
127.0208590294
 10
275.6088913804
 20
127.0225945466
 10
275.5996777688
 20
127.024301723
 10
275.5880811226
 20
127.0259720435
 10
275.5741592836
 20
127.0275971767
 10
275.5579816911
 20
127.029169017
 10
275.5396290358
 20
127.0306797242
 10
275.5191928571
 20
127.0321217632
 10
275.4967750865
 20
127.0334879415
 10
275.4724875395
 20
127.0347714448
 10
275.4464513574
 20
127.0359658712
 10
275.4187964038
 20
127.0370652633
 10
275.3896606158
 20
127.0380641374
 10
275.3591893172
 20
127.0389575113
 10
275.3275344926
 20
127.0397409292
 10
275.2613109331
 20
127.0409628343
  0
LWPOLYLINE
  5
366
100
AcDbEntity
  8
ASSI
100
AcDbPolyline
 62
253
  6
CONTINUOUS
 90
17
 70
0
 10
275.6199977924
 20
127.0191038276
 10
275.6156760017
 20
127.0208590294
 10
275.6088913804
 20
127.0225945466
 10
275.5996777688
 20
127.024301723
 10
275.5880811226
 20
127.0259720435
 10
275.5741592836
 20
127.0275971767
 10
275.5579816911
 20
127.029169017
 10
275.5396290358
 20
127.0306797242
 10
275.5191928571
 20
127.0321217632
 10
275.4967750865
 20
127.0334879415
 10
275.4724875395
 20
127.0347714448
 10
275.4464513574
 20
127.0359658712
 10
275.4187964038
 20
127.0370652633
 10
275.3896606158
 20
127.0380641374
 10
275.3591893172
 20
127.0389575113
 10
275.3275344926
 20
127.0397409292
 10
275.2613109331
 20
127.0409628343
  0
LWPOLYLINE
  5
367
100
AcDbEntity
  8
RACCORDO
100
AcDbPolyline
 62
253
  6
CONTINUOUS
 90
16
 70
0
 10
275.6199963086
 20
127.0815782625
 10
275.6156744667
 20
127.083338242
 10
275.6088898002
 20
127.0850784312
 10
275.5996761497
 20
127.0867901504
 10
275.5880794709
 20
127.0884648618
 10
275.5741576055
 20
127.0900942125
 10
275.557979993
 20
127.0916700756
 10
275.5396273238
 20
127.0931845909
 10
275.5191911373
 20
127.0946302043
 10
275.4967733649
 20
127.0959997056
 10
275.4724858217
 20
127.0972862638
 10
275.4464496489
 20
127.0984834619
 10
275.4187947094
 20
127.0995853285
 10
275.3896589404
 20
127.1005863678
 10
275.3591876649
 20
127.1014815868
 10
275.294852435
 20
127.1029372531
  0
LWPOLYLINE
  5
368
100
AcDbEntity
  8
ASSI
100
AcDbPolyline
 62
253
  6
CONTINUOUS
 90
16
 70
0
 10
275.6199963086
 20
127.0815782625
 10
275.6156744667
 20
127.083338242
 10
275.6088898002
 20
127.0850784312
 10
275.5996761497
 20
127.0867901504
 10
275.5880794709
 20
127.0884648618
 10
275.5741576055
 20
127.0900942125
 10
275.557979993
 20
127.0916700756
 10
275.5396273238
 20
127.0931845909
 10
275.5191911373
 20
127.0946302043
 10
275.4967733649
 20
127.0959997056
 10
275.4724858217
 20
127.0972862638
 10
275.4464496489
 20
127.0984834619
 10
275.4187947094
 20
127.0995853285
 10
275.3896589404
 20
127.1005863678
 10
275.3591876649
 20
127.1014815868
 10
275.294852435
 20
127.1029372531
  0
LWPOLYLINE
  5
369
100
AcDbEntity
  8
RACCORDO
100
AcDbPolyline
 62
253
  6
CONTINUOUS
 90
15
 70
0
 10
275.6199963073
 20
81.9273849482
 10
275.6156744644
 20
81.9256249688
 10
275.608889797
 20
81.9238847796
 10
275.5996761456
 20
81.9221730605
 10
275.588079466
 20
81.9204983491
 10
275.5741576001
 20
81.9188689984
 10
275.5579799872
 20
81.9172931355
 10
275.5396273177
 20
81.9157786202
 10
275.519191131
 20
81.9143330068
 10
275.4967733586
 20
81.9129635056
 10
275.4724858154
 20
81.9116769474
 10
275.4464496428
 20
81.9104797494
 10
275.4187947036
 20
81.9093778828
 10
275.389658935
 20
81.9083768436
 10
275.35918766
 20
81.9074816247
  0
LWPOLYLINE
  5
36A
100
AcDbEntity
  8
ASSI
100
AcDbPolyline
 62
253
  6
CONTINUOUS
 90
15
 70
0
 10
275.6199963073
 20
81.9273849482
 10
275.6156744644
 20
81.9256249688
 10
275.608889797
 20
81.9238847796
 10
275.5996761456
 20
81.9221730605
 10
275.588079466
 20
81.9204983491
 10
275.5741576001
 20
81.9188689984
 10
275.5579799872
 20
81.9172931355
 10
275.5396273177
 20
81.9157786202
 10
275.519191131
 20
81.9143330068
 10
275.4967733586
 20
81.9129635056
 10
275.4724858154
 20
81.9116769474
 10
275.4464496428
 20
81.9104797494
 10
275.4187947036
 20
81.9093778828
 10
275.389658935
 20
81.9083768436
 10
275.35918766
 20
81.9074816247
  0
LWPOLYLINE
  5
36B
100
AcDbEntity
  8
RACCORDO
100
AcDbPolyline
 62
253
  6
CONTINUOUS
 90
15
 70
0
 10
275.6199977929
 20
81.9898593831
 10
275.6156760025
 20
81.9881041813
 10
275.6088913815
 20
81.986368664
 10
275.5996777702
 20
81.9846614876
 10
275.5880811243
 20
81.9829911672
 10
275.5741592854
 20
81.9813660339
 10
275.5579816931
 20
81.9797941936
 10
275.5396290379
 20
81.9782834864
 10
275.5191928592
 20
81.9768414474
 10
275.4967750886
 20
81.9754752691
 10
275.4724875415
 20
81.9741917657
 10
275.4464513595
 20
81.9729973393
 10
275.4187964057
 20
81.9718979472
 10
275.3896606176
 20
81.9708990731
 10
275.3591893188
 20
81.9700056991
  0
LWPOLYLINE
  5
36C
100
AcDbEntity
  8
ASSI
100
AcDbPolyline
 62
253
  6
CONTINUOUS
 90
15
 70
0
 10
275.6199977929
 20
81.9898593831
 10
275.6156760025
 20
81.9881041813
 10
275.6088913815
 20
81.986368664
 10
275.5996777702
 20
81.9846614876
 10
275.5880811243
 20
81.9829911672
 10
275.5741592854
 20
81.9813660339
 10
275.5579816931
 20
81.9797941936
 10
275.5396290379
 20
81.9782834864
 10
275.5191928592
 20
81.9768414474
 10
275.4967750886
 20
81.9754752691
 10
275.4724875415
 20
81.9741917657
 10
275.4464513595
 20
81.9729973393
 10
275.4187964057
 20
81.9718979472
 10
275.3896606176
 20
81.9708990731
 10
275.3591893188
 20
81.9700056991
  0
LWPOLYLINE
  5
36D
100
AcDbEntity
  8
RACCORDO
100
AcDbPolyline
 62
7
  6
CONTINUOUS
 90
25
 70
0
 10
249.7789386427
 20
126.8050391396
 10
249.7780563896
 20
126.8312437806
 10
249.7755123615
 20
126.8571148389
 10
249.7713065584
 20
126.8826523171
 10
249.7654117273
 20
126.9079528269
 10
249.7578551211
 20
126.9329197617
 10
249.748718499
 20
126.9572632994
 10
249.7379983609
 20
126.9809697318
 10
249.7256982069
 20
127.0040527772
 10
249.7119102959
 20
127.0262637573
 10
249.6965775382
 20
127.0476403126
 10
249.6797570235
 20
127.0681448152
 10
249.6617122805
 20
127.0874156877
 10
249.6424182245
 20
127.1054128921
 10
249.6218999402
 20
127.1221764822
 10
249.6004962099
 20
127.1374650216
 10
249.5782375862
 20
127.1512311255
 10
249.5550935164
 20
127.1635221935
 10
249.5313111249
 20
127.1742389661
 10
249.5068717622
 20
127.1833779725
 10
249.4817940776
 20
127.1909426942
 10
249.4563811432
 20
127.196844299
 10
249.4307339828
 20
127.2010531784
 10
249.4047515726
 20
127.2035989467
 10
249.3784339124
 20
127.2044816054
  0
LWPOLYLINE
  5
36E
100
AcDbEntity
  8
ASSI
100
AcDbPolyline
 62
7
  6
CONTINUOUS
 90
25
 70
0
 10
249.7789386427
 20
126.8050391396
 10
249.7780563896
 20
126.8312437806
 10
249.7755123615
 20
126.8571148389
 10
249.7713065584
 20
126.8826523171
 10
249.7654117273
 20
126.9079528269
 10
249.7578551211
 20
126.9329197617
 10
249.748718499
 20
126.9572632994
 10
249.7379983609
 20
126.9809697318
 10
249.7256982069
 20
127.0040527772
 10
249.7119102959
 20
127.0262637573
 10
249.6965775382
 20
127.0476403126
 10
249.6797570235
 20
127.0681448152
 10
249.6617122805
 20
127.0874156877
 10
249.6424182245
 20
127.1054128921
 10
249.6218999402
 20
127.1221764822
 10
249.6004962099
 20
127.1374650216
 10
249.5782375862
 20
127.1512311255
 10
249.5550935164
 20
127.1635221935
 10
249.5313111249
 20
127.1742389661
 10
249.5068717622
 20
127.1833779725
 10
249.4817940776
 20
127.1909426942
 10
249.4563811432
 20
127.196844299
 10
249.4307339828
 20
127.2010531784
 10
249.4047515726
 20
127.2035989467
 10
249.3784339124
 20
127.2044816054
  0
LINE
  5
36F
100
AcDbEntity
  8
RACCORDO
100
AcDbLine
 62
253
  6
CONTINUOUS
 10
249.4308921378
 20
127.7832477416
 11
249.4308921378
 21
127.2568031677
  0
LINE
  5
370
100
AcDbEntity
  8
ASSI
100
AcDbLine
 62
253
  6
CONTINUOUS
 10
249.4308921378
 20
127.7832477416
 11
249.4308921378
 21
127.2568031677
  0
LINE
  5
371
100
AcDbEntity
  8
RACCORDO
100
AcDbLine
 62
253
  6
CONTINUOUS
 10
249.4308921378
 20
81.2257154691
 11
249.4308921378
 21
81.752160043
  0
LINE
  5
372
100
AcDbEntity
  8
ASSI
100
AcDbLine
 62
253
  6
CONTINUOUS
 10
249.4308921378
 20
81.2257154691
 11
249.4308921378
 21
81.752160043
  0
LINE
  5
373
100
AcDbEntity
  8
RACCORDO
100
AcDbLine
 62
7
  6
CONTINUOUS
 10
249.7789386427
 20
82.2039240711
 11
249.7789386427
 21
126.8050391396
  0
LINE
  5
374
100
AcDbEntity
  8
ASSI
100
AcDbLine
 62
7
  6
CONTINUOUS
 10
249.7789386427
 20
82.2039240711
 11
249.7789386427
 21
126.8050391396
  0
LINE
  5
375
100
AcDbEntity
  8
RACCORDO
100
AcDbLine
 62
253
  6
CONTINUOUS
 10
249.8327863073
 20
126.8587522555
 11
249.8327863063
 21
82.150212427
  0
LINE
  5
376
100
AcDbEntity
  8
ASSI
100
AcDbLine
 62
253
  6
CONTINUOUS
 10
249.8327863073
 20
126.8587522555
 11
249.8327863063
 21
82.150212427
  0
LINE
  5
377
100
AcDbEntity
  8
RACCORDO
100
AcDbLine
 62
253
  6
CONTINUOUS
 10
250.3320993663
 20
126.8823023653
 11
250.3320993663
 21
82.1266608454
  0
LINE
  5
378
100
AcDbEntity
  8
ASSI
100
AcDbLine
 62
253
  6
CONTINUOUS
 10
250.3320993663
 20
126.8823023653
 11
250.3320993663
 21
82.1266608454
  0
LWPOLYLINE
  5
379
100
AcDbEntity
  8
RACCORDO
100
AcDbPolyline
 62
253
  6
CONTINUOUS
 90
7
 70
0
 10
249.8327863003
 20
82.150212433
 10
249.8324417326
 20
82.1336106347
 10
249.8314031796
 20
82.1170379382
 10
249.8296721593
 20
82.1005229964
 10
249.8272513808
 20
82.0840943888
 10
249.8241447395
 20
82.0677805725
 10
249.8203573123
 20
82.0516098322
  0
LWPOLYLINE
  5
37A
100
AcDbEntity
  8
ASSI
100
AcDbPolyline
 62
253
  6
CONTINUOUS
 90
7
 70
0
 10
249.8327863003
 20
82.150212433
 10
249.8324417326
 20
82.1336106347
 10
249.8314031796
 20
82.1170379382
 10
249.8296721593
 20
82.1005229964
 10
249.8272513808
 20
82.0840943888
 10
249.8241447395
 20
82.0677805725
 10
249.8203573123
 20
82.0516098322
  0
LWPOLYLINE
  5
37B
100
AcDbEntity
  8
RACCORDO
100
AcDbPolyline
 62
253
  6
CONTINUOUS
 90
7
 70
0
 10
250.3320993663
 20
82.1266608454
 10
250.331291669
 20
82.0890010494
 10
250.3289467968
 20
82.0515932262
 10
250.3250647495
 20
82.0144373731
 10
250.3196455273
 20
81.9775334872
 10
250.3126891301
 20
81.9408815655
 10
250.3041955579
 20
81.9044816053
  0
LWPOLYLINE
  5
37C
100
AcDbEntity
  8
ASSI
100
AcDbPolyline
 62
253
  6
CONTINUOUS
 90
7
 70
0
 10
250.3320993663
 20
82.1266608454
 10
250.331291669
 20
82.0890010494
 10
250.3289467968
 20
82.0515932262
 10
250.3250647495
 20
82.0144373731
 10
250.3196455273
 20
81.9775334872
 10
250.3126891301
 20
81.9408815655
 10
250.3041955579
 20
81.9044816053
  0
LWPOLYLINE
  5
37D
100
AcDbEntity
  8
RACCORDO
100
AcDbPolyline
 62
253
  6
CONTINUOUS
 90
7
 70
0
 10
249.8203573123
 20
126.9573533785
 10
249.8241396168
 20
126.9412068462
 10
249.8272447847
 20
126.9249079532
 10
249.829666552
 20
126.9084846839
 10
249.8313998158
 20
126.8919652944
 10
249.8324406467
 20
126.8753782643
 10
249.8327862999
 20
126.8587522482
  0
LWPOLYLINE
  5
37E
100
AcDbEntity
  8
ASSI
100
AcDbPolyline
 62
253
  6
CONTINUOUS
 90
7
 70
0
 10
249.8203573123
 20
126.9573533785
 10
249.8241396168
 20
126.9412068462
 10
249.8272447847
 20
126.9249079532
 10
249.829666552
 20
126.9084846839
 10
249.8313998158
 20
126.8919652944
 10
249.8324406467
 20
126.8753782643
 10
249.8327862999
 20
126.8587522482
  0
LWPOLYLINE
  5
37F
100
AcDbEntity
  8
RACCORDO
100
AcDbPolyline
 62
253
  6
CONTINUOUS
 90
7
 70
0
 10
250.3041955579
 20
127.1044816054
 10
250.3126819408
 20
127.0681391604
 10
250.3196340244
 20
127.0315217482
 10
250.3250518088
 20
126.9946293658
 10
250.3289352939
 20
126.9574620099
 10
250.3312844797
 20
126.9200196775
 10
250.3320993663
 20
126.8823023653
  0
LWPOLYLINE
  5
380
100
AcDbEntity
  8
ASSI
100
AcDbPolyline
 62
253
  6
CONTINUOUS
 90
7
 70
0
 10
250.3041955579
 20
127.1044816054
 10
250.3126819408
 20
127.0681391604
 10
250.3196340244
 20
127.0315217482
 10
250.3250518088
 20
126.9946293658
 10
250.3289352939
 20
126.9574620099
 10
250.3312844797
 20
126.9200196775
 10
250.3320993663
 20
126.8823023653
  0
LWPOLYLINE
  5
381
100
AcDbEntity
  8
RACCORDO
100
AcDbPolyline
 62
253
  6
CONTINUOUS
 90
25
 70
0
 10
250.3041955579
 20
81.9044816053
 10
250.2905988581
 20
81.8566801243
 10
250.27449043
 20
81.8099280216
 10
250.2558702739
 20
81.7642252563
 10
250.2346610271
 20
81.7194217393
 10
250.2109400523
 20
81.6756674837
 10
250.1849394362
 20
81.6334125856
 10
250.1566472121
 20
81.5926918167
 10
250.1260753469
 20
81.5534702941
 10
250.0934918279
 20
81.516093603
 10
250.0588728049
 20
81.4805724835
 10
250.0222421282
 20
81.4468960723
 10
249.983939336
 20
81.4153775317
 10
249.9439477995
 20
81.3860384228
 10
249.9022841475
 20
81.3588570613
 10
249.8593378054
 20
81.3340817305
 10
249.8151024051
 20
81.3117376315
 10
249.7695843147
 20
81.2917994551
 10
249.7231920631
 20
81.2744397175
 10
249.6759287187
 20
81.2596809398
 10
249.6277912131
 20
81.2475005209
 10
249.5791788699
 20
81.2380032989
 10
249.5302247968
 20
81.2312242049
 10
249.4807958862
 20
81.2271282652
 10
249.4308921378
 20
81.2257154691
  0
LWPOLYLINE
  5
382
100
AcDbEntity
  8
ASSI
100
AcDbPolyline
 62
253
  6
CONTINUOUS
 90
25
 70
0
 10
250.3041955579
 20
81.9044816053
 10
250.2905988581
 20
81.8566801243
 10
250.27449043
 20
81.8099280216
 10
250.2558702739
 20
81.7642252563
 10
250.2346610271
 20
81.7194217393
 10
250.2109400523
 20
81.6756674837
 10
250.1849394362
 20
81.6334125856
 10
250.1566472121
 20
81.5926918167
 10
250.1260753469
 20
81.5534702941
 10
250.0934918279
 20
81.516093603
 10
250.0588728049
 20
81.4805724835
 10
250.0222421282
 20
81.4468960723
 10
249.983939336
 20
81.4153775317
 10
249.9439477995
 20
81.3860384228
 10
249.9022841475
 20
81.3588570613
 10
249.8593378054
 20
81.3340817305
 10
249.8151024051
 20
81.3117376315
 10
249.7695843147
 20
81.2917994551
 10
249.7231920631
 20
81.2744397175
 10
249.6759287187
 20
81.2596809398
 10
249.6277912131
 20
81.2475005209
 10
249.5791788699
 20
81.2380032989
 10
249.5302247968
 20
81.2312242049
 10
249.4807958862
 20
81.2271282652
 10
249.4308921378
 20
81.2257154691
  0
LWPOLYLINE
  5
383
100
AcDbEntity
  8
RACCORDO
100
AcDbPolyline
 62
253
  6
CONTINUOUS
 90
25
 70
0
 10
249.8203573123
 20
82.0516098322
 10
249.8143063826
 20
82.030469795
 10
249.8070922001
 20
82.0096966321
 10
249.7987363786
 20
81.9893535032
 10
249.7892630003
 20
81.9695011076
 10
249.778701311
 20
81.9502011569
 10
249.767086415
 20
81.9315157698
 10
249.7544555978
 20
81.9135039744
 10
249.7408459904
 20
81.8962175433
 10
249.7262971566
 20
81.8797046698
 10
249.7108512171
 20
81.8640141946
 10
249.6945561239
 20
81.8491956322
 10
249.6774639499
 20
81.8352946127
 10
249.6596266195
 20
81.8223535365
 10
249.6410978212
 20
81.8104113823
 10
249.621935992
 20
81.7995037985
 10
249.6022000476
 20
81.7896641304
 10
249.581948687
 20
81.7809214244
 10
249.561242545
 20
81.7733001064
 10
249.5401482528
 20
81.7668245498
 10
249.5187251313
 20
81.7615127954
 10
249.4970238442
 20
81.7573772873
 10
249.4751046093
 20
81.75443215
 10
249.453037687
 20
81.7526904349
 10
249.4308894534
 20
81.7521600521
  0
LWPOLYLINE
  5
384
100
AcDbEntity
  8
ASSI
100
AcDbPolyline
 62
253
  6
CONTINUOUS
 90
25
 70
0
 10
249.8203573123
 20
82.0516098322
 10
249.8143063826
 20
82.030469795
 10
249.8070922001
 20
82.0096966321
 10
249.7987363786
 20
81.9893535032
 10
249.7892630003
 20
81.9695011076
 10
249.778701311
 20
81.9502011569
 10
249.767086415
 20
81.9315157698
 10
249.7544555978
 20
81.9135039744
 10
249.7408459904
 20
81.8962175433
 10
249.7262971566
 20
81.8797046698
 10
249.7108512171
 20
81.8640141946
 10
249.6945561239
 20
81.8491956322
 10
249.6774639499
 20
81.8352946127
 10
249.6596266195
 20
81.8223535365
 10
249.6410978212
 20
81.8104113823
 10
249.621935992
 20
81.7995037985
 10
249.6022000476
 20
81.7896641304
 10
249.581948687
 20
81.7809214244
 10
249.561242545
 20
81.7733001064
 10
249.5401482528
 20
81.7668245498
 10
249.5187251313
 20
81.7615127954
 10
249.4970238442
 20
81.7573772873
 10
249.4751046093
 20
81.75443215
 10
249.453037687
 20
81.7526904349
 10
249.4308894534
 20
81.7521600521
  0
LINE
  5
385
100
AcDbEntity
  8
RACCORDO
100
AcDbLine
 62
253
  6
CONTINUOUS
 10
274.8261234551
 20
149.3838162326
 11
274.8261234551
 21
148.9758769711
  0
LINE
  5
386
100
AcDbEntity
  8
ASSI
100
AcDbLine
 62
253
  6
CONTINUOUS
 10
274.8261234551
 20
149.3838162326
 11
274.8261234551
 21
148.9758769711
  0
LINE
  5
387
100
AcDbEntity
  8
RACCORDO
100
AcDbLine
 62
253
  6
CONTINUOUS
 10
274.8261234551
 20
59.6251469781
 11
274.8261234551
 21
60.0330862396
  0
LINE
  5
388
100
AcDbEntity
  8
ASSI
100
AcDbLine
 62
253
  6
CONTINUOUS
 10
274.8261234551
 20
59.6251469781
 11
274.8261234551
 21
60.0330862396
  0
LINE
  5
389
100
AcDbEntity
  8
RACCORDO
100
AcDbLine
 62
7
  6
CONTINUOUS
 10
275.7289386348
 20
148.7044816053
 11
275.7289386348
 21
127.0191038276
  0
LINE
  5
38A
100
AcDbEntity
  8
DRAFT
100
AcDbLine
 62
7
  6
CONTINUOUS
 10
275.7289386348
 20
127.0191038276
 11
275.7289386348
 21
81.9898593831
  0
LINE
  5
38B
100
AcDbEntity
  8
RACCORDO
100
AcDbLine
 62
7
  6
CONTINUOUS
 10
275.7289386348
 20
81.9898593831
 11
275.7289386348
 21
60.3044816054
  0
LINE
  5
38C
100
AcDbEntity
  8
ASSI
100
AcDbLine
 62
7
  6
CONTINUOUS
 10
275.7289386348
 20
148.7044816053
 11
275.7289386348
 21
60.3044816054
  0
LINE
  5
38D
100
AcDbEntity
  8
RACCORDO
100
AcDbLine
 62
253
  6
CONTINUOUS
 10
275.1202513464
 20
148.6761383842
 11
275.1202513464
 21
60.3328248265
  0
LINE
  5
38E
100
AcDbEntity
  8
ASSI
100
AcDbLine
 62
253
  6
CONTINUOUS
 10
275.1202513464
 20
148.6761383842
 11
275.1202513464
 21
60.3328248265
  0
LINE
  5
38F
100
AcDbEntity
  8
RACCORDO
100
AcDbLine
 62
253
  6
CONTINUOUS
 10
275.6182854616
 20
148.5948386207
 11
275.6182854616
 21
60.4141245899
  0
LINE
  5
390
100
AcDbEntity
  8
ASSI
100
AcDbLine
 62
253
  6
CONTINUOUS
 10
275.6182854616
 20
148.5948386207
 11
275.6182854616
 21
60.4141245899
  0
LWPOLYLINE
  5
391
100
AcDbEntity
  8
RACCORDO
100
AcDbPolyline
 62
253
  6
CONTINUOUS
 90
28
 70
0
 10
275.1202513464
 20
60.3328248265
 10
275.119741053
 20
60.3151500083
 10
275.1182558723
 20
60.2976689442
 10
275.1157958044
 20
60.2803816233
 10
275.112346934
 20
60.2632330004
 10
275.1079231763
 20
60.2462781012
 10
275.1025662771
 20
60.2296820121
 10
275.0962652137
 20
60.2134449435
 10
275.0890310088
 20
60.1975666465
 10
275.0809384764
 20
60.1822115003
 10
275.0719802525
 20
60.16738842
 10
275.0621637011
 20
60.1530884383
 10
275.0515857282
 20
60.1394490976
 10
275.0402379569
 20
60.1264758351
 10
275.0281287642
 20
60.1141631554
 10
275.0153801863
 20
60.1026321925
 10
275.0019870444
 20
60.0918916983
 10
274.9879545173
 20
60.0819328631
 10
274.9734201786
 20
60.0728504727
 10
274.9583791812
 20
60.0646529655
 10
274.9428363721
 20
60.0573318527
 10
274.9269438656
 20
60.0509565283
 10
274.9106940683
 20
60.0455359551
 10
274.8940945736
 20
60.0410611332
 10
274.8773202755
 20
60.037574514
 10
274.8604294721
 20
60.0350902412
 10
274.8433638653
 20
60.0335941513
 10
274.8261234551
 20
60.0330862396
  0
LWPOLYLINE
  5
392
100
AcDbEntity
  8
ASSI
100
AcDbPolyline
 62
253
  6
CONTINUOUS
 90
28
 70
0
 10
275.1202513464
 20
60.3328248265
 10
275.119741053
 20
60.3151500083
 10
275.1182558723
 20
60.2976689442
 10
275.1157958044
 20
60.2803816233
 10
275.112346934
 20
60.2632330004
 10
275.1079231763
 20
60.2462781012
 10
275.1025662771
 20
60.2296820121
 10
275.0962652137
 20
60.2134449435
 10
275.0890310088
 20
60.1975666465
 10
275.0809384764
 20
60.1822115003
 10
275.0719802525
 20
60.16738842
 10
275.0621637011
 20
60.1530884383
 10
275.0515857282
 20
60.1394490976
 10
275.0402379569
 20
60.1264758351
 10
275.0281287642
 20
60.1141631554
 10
275.0153801863
 20
60.1026321925
 10
275.0019870444
 20
60.0918916983
 10
274.9879545173
 20
60.0819328631
 10
274.9734201786
 20
60.0728504727
 10
274.9583791812
 20
60.0646529655
 10
274.9428363721
 20
60.0573318527
 10
274.9269438656
 20
60.0509565283
 10
274.9106940683
 20
60.0455359551
 10
274.8940945736
 20
60.0410611332
 10
274.8773202755
 20
60.037574514
 10
274.8604294721
 20
60.0350902412
 10
274.8433638653
 20
60.0335941513
 10
274.8261234551
 20
60.0330862396
  0
LWPOLYLINE
  5
393
100
AcDbEntity
  8
RACCORDO
100
AcDbPolyline
 62
253
  6
CONTINUOUS
 90
28
 70
0
 10
275.6182854617
 20
60.4141245898
 10
275.6162894923
 20
60.367899625
 10
275.6116558381
 20
60.321917914
 10
275.6044075508
 20
60.2763295245
 10
275.5945811009
 20
60.2312966927
 10
275.5822132043
 20
60.18695073
 10
275.5673320806
 20
60.1433939717
 10
275.5499761793
 20
60.1007463261
 10
275.5302098172
 20
60.0591715091
 10
275.5081087591
 20
60.0188333655
 10
275.4837554466
 20
59.9798715976
 10
275.4572287536
 20
59.9424016427
 10
275.4286134443
 20
59.9065423737
 10
275.3980052592
 20
59.872408822
 10
275.3655077795
 20
59.8401112966
 10
275.3312259709
 20
59.8097537855
 10
275.2952747991
 20
59.7814348237
 10
275.257773012
 20
59.7552441176
 10
275.2188382093
 20
59.7312635537
 10
275.1785961918
 20
59.7095697707
 10
275.1371816405
 20
59.6902339276
 10
275.094731117
 20
59.6733192671
 10
275.0513885176
 20
59.6588817757
 10
275.0072916083
 20
59.646965552
 10
274.9625713689
 20
59.6376060721
 10
274.9173691724
 20
59.6308348333
 10
274.8718369773
 20
59.6266767064
 10
274.8261234551
 20
59.6251469781
  0
LWPOLYLINE
  5
394
100
AcDbEntity
  8
ASSI
100
AcDbPolyline
 62
253
  6
CONTINUOUS
 90
28
 70
0
 10
275.6182854617
 20
60.4141245898
 10
275.6162894923
 20
60.367899625
 10
275.6116558381
 20
60.321917914
 10
275.6044075508
 20
60.2763295245
 10
275.5945811009
 20
60.2312966927
 10
275.5822132043
 20
60.18695073
 10
275.5673320806
 20
60.1433939717
 10
275.5499761793
 20
60.1007463261
 10
275.5302098172
 20
60.0591715091
 10
275.5081087591
 20
60.0188333655
 10
275.4837554466
 20
59.9798715976
 10
275.4572287536
 20
59.9424016427
 10
275.4286134443
 20
59.9065423737
 10
275.3980052592
 20
59.872408822
 10
275.3655077795
 20
59.8401112966
 10
275.3312259709
 20
59.8097537855
 10
275.2952747991
 20
59.7814348237
 10
275.257773012
 20
59.7552441176
 10
275.2188382093
 20
59.7312635537
 10
275.1785961918
 20
59.7095697707
 10
275.1371816405
 20
59.6902339276
 10
275.094731117
 20
59.6733192671
 10
275.0513885176
 20
59.6588817757
 10
275.0072916083
 20
59.646965552
 10
274.9625713689
 20
59.6376060721
 10
274.9173691724
 20
59.6308348333
 10
274.8718369773
 20
59.6266767064
 10
274.8261234551
 20
59.6251469781
  0
LWPOLYLINE
  5
395
100
AcDbEntity
  8
RACCORDO
100
AcDbPolyline
 62
253
  6
CONTINUOUS
 90
22
 70
0
 10
275.6182812332
 20
60.4141246475
 10
275.6139179332
 20
60.4078747569
 10
275.6070967333
 20
60.4016956507
 10
275.5978515955
 20
60.3956180937
 10
275.5862285496
 20
60.3896723453
 10
275.572285465
 20
60.3838880086
 10
275.5560917622
 20
60.3782938828
 10
275.537728067
 20
60.3729178205
 10
275.5172858092
 20
60.3677865882
 10
275.4948667677
 20
60.3629257336
 10
275.4705825633
 20
60.3583594583
 10
275.4445541032
 20
60.354110497
 10
275.416910979
 20
60.3502000048
 10
275.3877908214
 20
60.3466474514
 10
275.3573386149
 20
60.3434705244
 10
275.3257059764
 20
60.3406850414
 10
275.2930503997
 20
60.3383048707
 10
275.2595344717
 20
60.336341863
 10
275.2253250629
 20
60.3348057917
 10
275.1905924965
 20
60.3337043046
 10
275.1555097004
 20
60.3330428859
 10
275.1202513464
 20
60.3328248286
  0
LWPOLYLINE
  5
396
100
AcDbEntity
  8
ASSI
100
AcDbPolyline
 62
253
  6
CONTINUOUS
 90
22
 70
0
 10
275.6182812332
 20
60.4141246475
 10
275.6139179332
 20
60.4078747569
 10
275.6070967333
 20
60.4016956507
 10
275.5978515955
 20
60.3956180937
 10
275.5862285496
 20
60.3896723453
 10
275.572285465
 20
60.3838880086
 10
275.5560917622
 20
60.3782938828
 10
275.537728067
 20
60.3729178205
 10
275.5172858092
 20
60.3677865882
 10
275.4948667677
 20
60.3629257336
 10
275.4705825633
 20
60.3583594583
 10
275.4445541032
 20
60.354110497
 10
275.416910979
 20
60.3502000048
 10
275.3877908214
 20
60.3466474514
 10
275.3573386149
 20
60.3434705244
 10
275.3257059764
 20
60.3406850414
 10
275.2930503997
 20
60.3383048707
 10
275.2595344717
 20
60.336341863
 10
275.2253250629
 20
60.3348057917
 10
275.1905924965
 20
60.3337043046
 10
275.1555097004
 20
60.3330428859
 10
275.1202513464
 20
60.3328248286
  0
LWPOLYLINE
  5
397
100
AcDbEntity
  8
RACCORDO
100
AcDbPolyline
 62
253
  6
CONTINUOUS
 90
22
 70
0
 10
275.6182854586
 20
148.5948386308
 10
275.6139220984
 20
148.6010885102
 10
275.6071008165
 20
148.6072676061
 10
275.597855575
 20
148.6133451537
 10
275.5862324048
 20
148.6192908936
 10
275.5722891762
 20
148.6250752227
 10
275.5560953106
 20
148.6306693416
 10
275.5377314351
 20
148.636045398
 10
275.5172889812
 20
148.6411766252
 10
275.494869729
 20
148.6460374755
 10
275.4705853012
 20
148.6506037472
 10
275.4445566066
 20
148.6548527057
 10
275.4169132387
 20
148.6587631958
 10
275.3877928302
 20
148.6623157477
 10
275.3573403679
 20
148.6654926738
 10
275.3257074705
 20
148.6682781565
 10
275.293051634
 20
148.6706583274
 10
275.2595354476
 20
148.6726213358
 10
275.225325784
 20
148.6741574081
 10
275.1905929685
 20
148.6752588966
 10
275.1555099314
 20
148.675920317
 10
275.1202513464
 20
148.6761383761
  0
LWPOLYLINE
  5
398
100
AcDbEntity
  8
ASSI
100
AcDbPolyline
 62
253
  6
CONTINUOUS
 90
22
 70
0
 10
275.6182854586
 20
148.5948386308
 10
275.6139220984
 20
148.6010885102
 10
275.6071008165
 20
148.6072676061
 10
275.597855575
 20
148.6133451537
 10
275.5862324048
 20
148.6192908936
 10
275.5722891762
 20
148.6250752227
 10
275.5560953106
 20
148.6306693416
 10
275.5377314351
 20
148.636045398
 10
275.5172889812
 20
148.6411766252
 10
275.494869729
 20
148.6460374755
 10
275.4705853012
 20
148.6506037472
 10
275.4445566066
 20
148.6548527057
 10
275.4169132387
 20
148.6587631958
 10
275.3877928302
 20
148.6623157477
 10
275.3573403679
 20
148.6654926738
 10
275.3257074705
 20
148.6682781565
 10
275.293051634
 20
148.6706583274
 10
275.2595354476
 20
148.6726213358
 10
275.225325784
 20
148.6741574081
 10
275.1905929685
 20
148.6752588966
 10
275.1555099314
 20
148.675920317
 10
275.1202513464
 20
148.6761383761
  0
LINE
  5
399
100
AcDbEntity
  8
RACCORDO
100
AcDbLine
 62
253
  6
CONTINUOUS
 10
45.1721527412
 20
60.4141246475
 11
44.7237577856
 21
60.3328248286
  0
LINE
  5
39A
100
AcDbEntity
  8
ASSI
100
AcDbLine
 62
253
  6
CONTINUOUS
 10
45.1721527412
 20
60.4141246475
 11
44.7237577856
 21
60.3328248286
  0
LWPOLYLINE
  5
39B
100
AcDbEntity
  8
RACCORDO
100
AcDbPolyline
 62
253
  6
CONTINUOUS
 90
16
 70
0
 10
47.6888573535
 20
60.7952306963
 10
47.8107648914
 20
60.8133324832
 10
47.9323707882
 20
60.8341092733
 10
48.0536061325
 20
60.8575654784
 10
48.1741424559
 20
60.8835870706
 10
48.2941648971
 20
60.9122968076
 10
48.4143581603
 20
60.9440551912
 10
48.5345927409
 20
60.9787712393
 10
48.6547984777
 20
61.016546782
 10
48.7757085195
 20
61.0580340526
 10
48.8970467989
 20
61.1030005317
 10
49.0187963709
 20
61.1516931329
 10
49.1420122526
 20
61.2054882651
 10
49.2668969404
 20
61.264853742
 10
49.3928334208
 20
61.3293451112
 10
49.5195954064
 20
61.3989740816
  0
LINE
  5
39C
100
AcDbEntity
  8
RACCORDO
100
AcDbLine
 62
253
  6
CONTINUOUS
 10
49.5195954064
 20
61.3989740816
 11
47.5822709496
 21
61.387270093
  0
LINE
  5
39D
100
AcDbEntity
  8
RACCORDO
100
AcDbLine
 62
7
  6
CONTINUOUS
 10
46.605863478
 20
59.5044816054
 11
47.4200373721
 21
59.5044816054
  0
LINE
  5
39E
100
AcDbEntity
  8
ASSI
100
AcDbLine
 62
7
  6
CONTINUOUS
 10
46.605863478
 20
59.5044816054
 11
47.4200373721
 21
59.5044816054
  0
LINE
  5
39F
100
AcDbEntity
  8
RACCORDO
100
AcDbLine
 62
253
  6
CONTINUOUS
 10
46.4570416226
 20
60.3044816054
 11
47.270436239
 21
60.3044816054
  0
LINE
  5
3A0
100
AcDbEntity
  8
ASSI
100
AcDbLine
 62
253
  6
CONTINUOUS
 10
46.4570416226
 20
60.3044816054
 11
47.270436239
 21
60.3044816054
  0
LINE
  5
3A1
100
AcDbEntity
  8
RACCORDO
100
AcDbLine
 62
7
  6
CONTINUOUS
 10
45.226651956
 20
59.6251469781
 11
46.6040883217
 21
59.5046369114
  0
LINE
  5
3A2
100
AcDbEntity
  8
ASSI
100
AcDbLine
 62
7
  6
CONTINUOUS
 10
45.226651956
 20
59.6251469781
 11
46.6040883217
 21
59.5046369114
  0
LINE
  5
3A3
100
AcDbEntity
  8
RACCORDO
100
AcDbLine
 62
253
  6
CONTINUOUS
 10
45.1721523697
 20
60.4141245899
 11
46.4575032278
 21
60.3016213887
  0
LINE
  5
3A4
100
AcDbEntity
  8
ASSI
100
AcDbLine
 62
253
  6
CONTINUOUS
 10
45.1721523697
 20
60.4141245899
 11
46.4575032278
 21
60.3016213887
  0
LINE
  5
3A5
100
AcDbEntity
  8
0
100
AcDbLine
 62
7
  6
CONTINUOUS
 10
47.7236729834
 20
60.6044816054
 11
47.2071405843
 21
60.6496723346
  0
LINE
  5
3A6
100
AcDbEntity
  8
0
100
AcDbLine
 62
253
  6
CONTINUOUS
 10
47.5443464236
 20
61.6009598949
 11
47.0286667027
 21
61.6461009894
  0
LWPOLYLINE
  5
3A7
100
AcDbEntity
  8
RACCORDO
100
AcDbPolyline
 62
253
  6
CONTINUOUS
 90
19
 70
0
 10
45.226651956
 20
149.3838162326
 10
45.2241985252
 20
149.3822857077
 10
45.2217094979
 20
149.3781277886
 10
45.2191960148
 20
149.3713610763
 10
45.216670075
 20
149.3620170973
 10
45.2141391042
 20
149.3501287052
 10
45.2116070906
 20
149.3357193744
 10
45.2090790597
 20
149.3188198026
 10
45.206566672
 20
149.2994887902
 10
45.204083002
 20
149.2777990017
 10
45.2016307665
 20
149.2538271654
 10
45.199216539
 20
149.2276459533
 10
45.1968572999
 20
149.1993361582
 10
45.1945525675
 20
149.1689869948
 10
45.1923064905
 20
149.1366973888
 10
45.1901416663
 20
149.102571251
 10
45.1880553195
 20
149.0667183255
 10
45.1860476886
 20
149.0292541178
 10
45.1823393813
 20
148.9499770019
  0
LWPOLYLINE
  5
3A8
100
AcDbEntity
  8
ASSI
100
AcDbPolyline
 62
253
  6
CONTINUOUS
 90
19
 70
0
 10
45.226651956
 20
149.3838162326
 10
45.2241985252
 20
149.3822857077
 10
45.2217094979
 20
149.3781277886
 10
45.2191960148
 20
149.3713610763
 10
45.216670075
 20
149.3620170973
 10
45.2141391042
 20
149.3501287052
 10
45.2116070906
 20
149.3357193744
 10
45.2090790597
 20
149.3188198026
 10
45.206566672
 20
149.2994887902
 10
45.204083002
 20
149.2777990017
 10
45.2016307665
 20
149.2538271654
 10
45.199216539
 20
149.2276459533
 10
45.1968572999
 20
149.1993361582
 10
45.1945525675
 20
149.1689869948
 10
45.1923064905
 20
149.1366973888
 10
45.1901416663
 20
149.102571251
 10
45.1880553195
 20
149.0667183255
 10
45.1860476886
 20
149.0292541178
 10
45.1823393813
 20
148.9499770019
  0
LINE
  5
3A9
100
AcDbEntity
  8
RACCORDO
100
AcDbLine
 62
253
  6
CONTINUOUS
 10
42.6906679162
 20
81.9273849482
 11
42.2348763459
 21
81.9044816062
  0
LINE
  5
3AA
100
AcDbEntity
  8
ASSI
100
AcDbLine
 62
253
  6
CONTINUOUS
 10
42.6906679162
 20
81.9273849482
 11
42.2348763459
 21
81.9044816062
  0
LINE
  5
3AB
100
AcDbEntity
  8
RACCORDO
100
AcDbLine
 62
253
  6
CONTINUOUS
 10
42.6875315232
 20
81.9898593831
 11
42.2317364533
 21
81.9670090688
  0
LINE
  5
3AC
100
AcDbEntity
  8
ASSI
100
AcDbLine
 62
253
  6
CONTINUOUS
 10
42.6875315232
 20
81.9898593831
 11
42.2317364533
 21
81.9670090688
  0
LINE
  5
3AD
100
AcDbEntity
  8
0
100
AcDbLine
 62
253
  6
CONTINUOUS
 10
50.2370069113
 20
82.1358724128
 11
47.5055975405
 21
82.0905193107
  0
LINE
  5
3AE
100
AcDbEntity
  8
0
100
AcDbLine
 62
253
  6
CONTINUOUS
 10
47.5055975405
 20
82.0905193107
 11
45.2310905326
 21
82.055148272
  0
LINE
  5
3AF
100
AcDbEntity
  8
RACCORDO
100
AcDbLine
 62
253
  6
CONTINUOUS
 10
43.9327310442
 20
81.9898593831
 11
42.6875315232
 21
81.9898593831
  0
LINE
  5
3B0
100
AcDbEntity
  8
ASSI
100
AcDbLine
 62
253
  6
CONTINUOUS
 10
43.9327310442
 20
81.9898593831
 11
42.6875315232
 21
81.9898593831
  0
LINE
  5
3B1
100
AcDbEntity
  8
0
100
AcDbLine
 62
253
  6
CONTINUOUS
 10
44.7304594765
 20
82.055148272
 11
45.2310905326
 21
82.055148272
  0
LWPOLYLINE
  5
3B2
100
AcDbEntity
  8
RACCORDO
100
AcDbPolyline
 62
253
  6
CONTINUOUS
 90
19
 70
0
 10
49.5195952612
 20
61.3989740721
 10
49.5417654386
 20
61.3511592481
 10
49.561552666
 20
61.3034232988
 10
49.5788625819
 20
61.2559938685
 10
49.5936126381
 20
61.2090971401
 10
49.6057324942
 20
61.1629567556
 10
49.6151643528
 20
61.1177927497
 10
49.6218632349
 20
61.0738205017
 10
49.6257971944
 20
61.0312497077
 10
49.6269474707
 20
60.9902833801
 10
49.6253085781
 20
60.9511168803
 10
49.6208883319
 20
60.9139369868
 10
49.613707811
 20
60.8789210044
 10
49.6038012577
 20
60.8462359184
 10
49.5912159144
 20
60.8160375988
 10
49.576011798
 20
60.7884700566
 10
49.5582614142
 20
60.7636647572
 10
49.538049411
 20
60.7417399931
 10
49.5154721759
 20
60.7228003203
  0
LWPOLYLINE
  5
3B3
100
AcDbEntity
  8
RACCORDO
100
AcDbPolyline
 62
253
  6
CONTINUOUS
 90
10
 70
0
 10
45.1721523697
 20
148.5948386207
 10
44.7592801231
 20
146.2226127425
 10
44.3806527043
 20
143.8446914266
 10
44.0362705396
 20
141.4615758417
 10
43.7260779062
 20
139.0737772663
 10
43.4501313768
 20
136.6817864964
 10
43.2085998307
 20
134.2860736735
 10
43.0015398563
 20
131.8871291936
 10
42.8288957395
 20
129.4854638782
 10
42.6906679161
 20
127.0815782625
  0
LWPOLYLINE
  5
3B4
100
AcDbEntity
  8
ASSI
100
AcDbPolyline
 62
253
  6
CONTINUOUS
 90
10
 70
0
 10
45.1721523697
 20
148.5948386207
 10
44.7592801231
 20
146.2226127425
 10
44.3806527043
 20
143.8446914266
 10
44.0362705396
 20
141.4615758417
 10
43.7260779062
 20
139.0737772663
 10
43.4501313768
 20
136.6817864964
 10
43.2085998307
 20
134.2860736735
 10
43.0015398563
 20
131.8871291936
 10
42.8288957395
 20
129.4854638782
 10
42.6906679161
 20
127.0815782625
  0
LWPOLYLINE
  5
3B5
100
AcDbEntity
  8
RACCORDO
100
AcDbPolyline
 62
7
  6
CONTINUOUS
 90
10
 70
0
 10
46.4570416226
 20
148.7044816054
 10
46.0363502108
 20
146.3143125331
 10
45.6506338741
 20
143.9186717676
 10
45.2998926126
 20
141.5175593089
 10
44.9840223735
 20
139.1101186817
 10
44.7031272096
 20
136.6972063613
 10
44.4575192789
 20
134.2813917731
 10
44.2473026342
 20
131.8635313924
 10
44.0723732226
 20
129.4427687439
 10
43.9327310442
 20
127.0191038276
  0
LWPOLYLINE
  5
3B6
100
AcDbEntity
  8
ASSI
100
AcDbPolyline
 62
7
  6
CONTINUOUS
 90
10
 70
0
 10
46.4570416226
 20
148.7044816054
 10
46.0363502108
 20
146.3143125331
 10
45.6506338741
 20
143.9186717676
 10
45.2998926126
 20
141.5175593089
 10
44.9840223735
 20
139.1101186817
 10
44.7031272096
 20
136.6972063613
 10
44.4575192789
 20
134.2813917731
 10
44.2473026342
 20
131.8635313924
 10
44.0723732226
 20
129.4427687439
 10
43.9327310442
 20
127.0191038276
  0
LWPOLYLINE
  5
3B7
100
AcDbEntity
  8
RACCORDO
100
AcDbPolyline
 62
7
  6
CONTINUOUS
 90
17
 70
0
 10
46.4990270124
 20
59.9081329872
 10
46.5034754236
 20
59.8637312927
 10
46.5080045839
 20
59.8211989913
 10
46.5125983863
 20
59.7807002809
 10
46.5173941905
 20
59.7424340301
 10
46.5223970179
 20
59.7065535136
 10
46.527601847
 20
59.6732182288
 10
46.5331309733
 20
59.6426064805
 10
46.5389749633
 20
59.6148339231
 10
46.5451432505
 20
59.5900061437
 10
46.5517864318
 20
59.568243743
 10
46.5588743788
 20
59.5496045641
 10
46.5664372197
 20
59.5341457895
 10
46.5747159364
 20
59.5219292448
 10
46.5837908558
 20
59.5129582422
 10
46.5935816509
 20
59.5072042749
 10
46.6040883217
 20
59.5046369114
  0
LWPOLYLINE
  5
3B8
100
AcDbEntity
  8
ASSI
100
AcDbPolyline
 62
7
  6
CONTINUOUS
 90
17
 70
0
 10
46.4990270124
 20
59.9081329872
 10
46.5034754236
 20
59.8637312927
 10
46.5080045839
 20
59.8211989913
 10
46.5125983863
 20
59.7807002809
 10
46.5173941905
 20
59.7424340301
 10
46.5223970179
 20
59.7065535136
 10
46.527601847
 20
59.6732182288
 10
46.5331309733
 20
59.6426064805
 10
46.5389749633
 20
59.6148339231
 10
46.5451432505
 20
59.5900061437
 10
46.5517864318
 20
59.568243743
 10
46.5588743788
 20
59.5496045641
 10
46.5664372197
 20
59.5341457895
 10
46.5747159364
 20
59.5219292448
 10
46.5837908558
 20
59.5129582422
 10
46.5935816509
 20
59.5072042749
 10
46.6040883217
 20
59.5046369114
  0
LINE
  5
3B9
100
AcDbEntity
  8
RACCORDO
100
AcDbLine
 62
7
  6
CONTINUOUS
 10
46.4808779963
 20
60.099608411
 11
46.4990270124
 21
59.9081329872
  0
LINE
  5
3BA
100
AcDbEntity
  8
ASSI
100
AcDbLine
 62
7
  6
CONTINUOUS
 10
46.4808779963
 20
60.099608411
 11
46.4990270124
 21
59.9081329872
  0
LWPOLYLINE
  5
3BB
100
AcDbEntity
  8
RACCORDO
100
AcDbPolyline
 62
7
  6
CONTINUOUS
 90
10
 70
0
 10
43.9327310442
 20
81.9898593831
 10
44.0723732226
 20
79.5661944668
 10
44.2473026342
 20
77.1454318183
 10
44.4575192789
 20
74.7275714376
 10
44.7031272096
 20
72.3117568494
 10
44.9840223735
 20
69.898844529
 10
45.2998926126
 20
67.4914039018
 10
45.6506338741
 20
65.0902914431
 10
46.0363502108
 20
62.6946506776
 10
46.4570416226
 20
60.3044816054
  0
LWPOLYLINE
  5
3BC
100
AcDbEntity
  8
ASSI
100
AcDbPolyline
 62
7
  6
CONTINUOUS
 90
10
 70
0
 10
43.9327310442
 20
81.9898593831
 10
44.0723732226
 20
79.5661944668
 10
44.2473026342
 20
77.1454318183
 10
44.4575192789
 20
74.7275714376
 10
44.7031272096
 20
72.3117568494
 10
44.9840223735
 20
69.898844529
 10
45.2998926126
 20
67.4914039018
 10
45.6506338741
 20
65.0902914431
 10
46.0363502108
 20
62.6946506776
 10
46.4570416226
 20
60.3044816054
  0
LWPOLYLINE
  5
3BD
100
AcDbEntity
  8
RACCORDO
100
AcDbPolyline
 62
253
  6
CONTINUOUS
 90
10
 70
0
 10
42.6906679161
 20
81.9273849482
 10
42.8288957083
 20
79.5234997724
 10
43.0015398049
 20
77.1218347278
 10
43.2085997702
 20
74.7228903497
 10
43.4501313228
 20
72.3271773829
 10
43.7260778699
 20
69.9351863017
 10
44.0362705189
 20
67.5473874811
 10
44.3806526927
 20
65.1642717938
 10
44.7592801183
 20
62.7863504407
 10
45.1721523697
 20
60.4141245899
  0
LWPOLYLINE
  5
3BE
100
AcDbEntity
  8
ASSI
100
AcDbPolyline
 62
253
  6
CONTINUOUS
 90
10
 70
0
 10
42.6906679161
 20
81.9273849482
 10
42.8288957083
 20
79.5234997724
 10
43.0015398049
 20
77.1218347278
 10
43.2085997702
 20
74.7228903497
 10
43.4501313228
 20
72.3271773829
 10
43.7260778699
 20
69.9351863017
 10
44.0362705189
 20
67.5473874811
 10
44.3806526927
 20
65.1642717938
 10
44.7592801183
 20
62.7863504407
 10
45.1721523697
 20
60.4141245899
  0
LWPOLYLINE
  5
3BF
100
AcDbEntity
  8
RACCORDO
100
AcDbPolyline
 62
253
  6
CONTINUOUS
 90
18
 70
0
 10
45.1860388395
 20
59.9798715976
 10
45.1880457388
 20
59.9424016427
 10
45.1901314893
 20
59.9065423737
 10
45.1922959697
 20
59.872408822
 10
45.1945418567
 20
59.8401112966
 10
45.1968464823
 20
59.8097537855
 10
45.1992057309
 20
59.7814348237
 10
45.2016200672
 20
59.7552441176
 10
45.204072319
 20
59.7312635537
 10
45.2065555649
 20
59.7095697707
 10
45.2090672326
 20
59.6902339276
 10
45.2115952761
 20
59.6733192671
 10
45.2141296773
 20
59.6588817757
 10
45.2166649628
 20
59.646965552
 10
45.219194724
 20
59.6376060721
 10
45.2217101336
 20
59.6308348333
 10
45.224199698
 20
59.6266767064
 10
45.226651956
 20
59.6251469781
  0
LWPOLYLINE
  5
3C0
100
AcDbEntity
  8
ASSI
100
AcDbPolyline
 62
253
  6
CONTINUOUS
 90
18
 70
0
 10
45.1860388395
 20
59.9798715976
 10
45.1880457388
 20
59.9424016427
 10
45.1901314893
 20
59.9065423737
 10
45.1922959697
 20
59.872408822
 10
45.1945418567
 20
59.8401112966
 10
45.1968464823
 20
59.8097537855
 10
45.1992057309
 20
59.7814348237
 10
45.2016200672
 20
59.7552441176
 10
45.204072319
 20
59.7312635537
 10
45.2065555649
 20
59.7095697707
 10
45.2090672326
 20
59.6902339276
 10
45.2115952761
 20
59.6733192671
 10
45.2141296773
 20
59.6588817757
 10
45.2166649628
 20
59.646965552
 10
45.219194724
 20
59.6376060721
 10
45.2217101336
 20
59.6308348333
 10
45.224199698
 20
59.6266767064
 10
45.226651956
 20
59.6251469781
  0
LWPOLYLINE
  5
3C1
100
AcDbEntity
  8
RACCORDO
100
AcDbPolyline
 62
253
  6
CONTINUOUS
 90
3
 70
0
 10
45.1806222691
 20
60.1007463261
 10
45.1823313218
 20
60.0591715091
 10
45.1860388395
 20
59.9798715976
  0
LWPOLYLINE
  5
3C2
100
AcDbEntity
  8
ASSI
100
AcDbPolyline
 62
253
  6
CONTINUOUS
 90
3
 70
0
 10
45.1806222691
 20
60.1007463261
 10
45.1823313218
 20
60.0591715091
 10
45.1860388395
 20
59.9798715976
  0
LWPOLYLINE
  5
3C3
100
AcDbEntity
  8
RACCORDO
100
AcDbPolyline
 62
253
  6
CONTINUOUS
 90
12
 70
0
 10
42.5151791573
 20
123.2690673548
 10
42.3741609067
 20
119.5177197509
 10
42.2644767706
 20
115.7653241949
 10
42.186123472
 20
112.0121454458
 10
42.1391042858
 20
108.2584450969
 10
42.1234290399
 20
104.5044815739
 10
42.1391042869
 20
100.7505180415
 10
42.1861234742
 20
96.9968176772
 10
42.2644767733
 20
93.2436389258
 10
42.3741609091
 20
89.4912433868
 10
42.5151791588
 20
85.7398958129
 10
42.6906679161
 20
81.9273849482
  0
LWPOLYLINE
  5
3C4
100
AcDbEntity
  8
ASSI
100
AcDbPolyline
 62
253
  6
CONTINUOUS
 90
12
 70
0
 10
42.5151791573
 20
123.2690673548
 10
42.3741609067
 20
119.5177197509
 10
42.2644767706
 20
115.7653241949
 10
42.186123472
 20
112.0121454458
 10
42.1391042858
 20
108.2584450969
 10
42.1234290399
 20
104.5044815739
 10
42.1391042869
 20
100.7505180415
 10
42.1861234742
 20
96.9968176772
 10
42.2644767733
 20
93.2436389258
 10
42.3741609091
 20
89.4912433868
 10
42.5151791588
 20
85.7398958129
 10
42.6906679161
 20
81.9273849482
  0
LWPOLYLINE
  5
3C5
100
AcDbEntity
  8
DRAFT
100
AcDbPolyline
 62
7
  6
CONTINUOUS
 90
13
 70
0
 10
43.9327310442
 20
127.0191038276
 10
43.7599310958
 20
123.26958951
 10
43.6185441188
 20
119.5189061046
 10
43.5085701133
 20
115.7670536115
 10
43.4300027225
 20
112.0136423346
 10
43.3828483032
 20
108.25906197
 10
43.3671259256
 20
104.5044816053
 10
43.3828483032
 20
100.7499012407
 10
43.4300027225
 20
96.9953208761
 10
43.5085701133
 20
93.2419095992
 10
43.6185441188
 20
89.4900571061
 10
43.7599310958
 20
85.7393737007
 10
43.9327310442
 20
81.9898593831
  0
LWPOLYLINE
  5
3C6
100
AcDbEntity
  8
ASSI
100
AcDbPolyline
 62
7
  6
CONTINUOUS
 90
13
 70
0
 10
43.9327310442
 20
127.0191038276
 10
43.7599310958
 20
123.26958951
 10
43.6185441188
 20
119.5189061046
 10
43.5085701133
 20
115.7670536115
 10
43.4300027225
 20
112.0136423346
 10
43.3828483032
 20
108.25906197
 10
43.3671259256
 20
104.5044816053
 10
43.3828483032
 20
100.7499012407
 10
43.4300027225
 20
96.9953208761
 10
43.5085701133
 20
93.2419095992
 10
43.6185441188
 20
89.4900571061
 10
43.7599310958
 20
85.7393737007
 10
43.9327310442
 20
81.9898593831
  0
LINE
  5
3C7
100
AcDbEntity
  8
RACCORDO
100
AcDbLine
 62
253
  6
CONTINUOUS
 10
42.6906679161
 20
127.0815782625
 11
42.5151791573
 21
123.2690673548
  0
LINE
  5
3C8
100
AcDbEntity
  8
ASSI
100
AcDbLine
 62
253
  6
CONTINUOUS
 10
42.6906679161
 20
127.0815782625
 11
42.5151791573
 21
123.2690673548
  0
LWPOLYLINE
  5
3C9
100
AcDbEntity
  8
RACCORDO
100
AcDbPolyline
 62
7
  6
CONTINUOUS
 90
5
 70
0
 10
46.4808783567
 20
148.9093584766
 10
46.4757123589
 20
148.8589992491
 10
46.469953188
 20
148.8078980014
 10
46.4637188552
 20
148.7563202486
 10
46.4570093605
 20
148.7044816054
  0
LWPOLYLINE
  5
3CA
100
AcDbEntity
  8
ASSI
100
AcDbPolyline
 62
7
  6
CONTINUOUS
 90
5
 70
0
 10
46.4808783567
 20
148.9093584766
 10
46.4757123589
 20
148.8589992491
 10
46.469953188
 20
148.8078980014
 10
46.4637188552
 20
148.7563202486
 10
46.4570093605
 20
148.7044816054
  0
LINE
  5
3CB
100
AcDbEntity
  8
0
100
AcDbLine
 62
253
  6
CONTINUOUS
 10
48.2370069113
 20
104.5044816054
 11
44.6670069113
 21
104.5044816054
  0
LINE
  5
3CC
100
AcDbEntity
  8
RACCORDO
100
AcDbLine
 62
7
  6
CONTINUOUS
 10
50.2370069113
 20
100.6518276439
 11
48.4022772758
 21
100.975339981
  0
LWPOLYLINE
  5
3CD
100
AcDbEntity
  8
RACCORDO
100
AcDbPolyline
 62
7
  6
CONTINUOUS
 90
5
 70
0
 10
46.4570093605
 20
60.3044816054
 10
46.4637187636
 20
60.2526437685
 10
46.4699530104
 20
60.2010668447
 10
46.4757121011
 20
60.1499664375
 10
46.4808779963
 20
60.099608411
  0
LWPOLYLINE
  5
3CE
100
AcDbEntity
  8
ASSI
100
AcDbPolyline
 62
7
  6
CONTINUOUS
 90
5
 70
0
 10
46.4570093605
 20
60.3044816054
 10
46.4637187636
 20
60.2526437685
 10
46.4699530104
 20
60.2010668447
 10
46.4757121011
 20
60.1499664375
 10
46.4808779963
 20
60.099608411
  0
LINE
  5
3CF
100
AcDbEntity
  8
RACCORDO
100
AcDbLine
 62
253
  6
CONTINUOUS
 10
45.1775761153
 20
60.18695073
 11
45.1806222691
 21
60.1007463261
  0
LINE
  5
3D0
100
AcDbEntity
  8
ASSI
100
AcDbLine
 62
253
  6
CONTINUOUS
 10
45.1775761153
 20
60.18695073
 11
45.1806222691
 21
60.1007463261
  0
LINE
  5
3D1
100
AcDbEntity
  8
RACCORDO
100
AcDbLine
 62
253
  6
CONTINUOUS
 10
45.1750099788
 20
60.2763295245
 11
45.1775761153
 21
60.18695073
  0
LINE
  5
3D2
100
AcDbEntity
  8
ASSI
100
AcDbLine
 62
253
  6
CONTINUOUS
 10
45.1750099788
 20
60.2763295245
 11
45.1775761153
 21
60.18695073
  0
LWPOLYLINE
  5
3D3
100
AcDbEntity
  8
RACCORDO
100
AcDbPolyline
 62
253
  6
CONTINUOUS
 90
3
 70
0
 10
45.1721523712
 20
60.4141245898
 10
45.172991719
 20
60.367899625
 10
45.1750099788
 20
60.2763295245
  0
LWPOLYLINE
  5
3D4
100
AcDbEntity
  8
ASSI
100
AcDbPolyline
 62
253
  6
CONTINUOUS
 90
3
 70
0
 10
45.1721523712
 20
60.4141245898
 10
45.172991719
 20
60.367899625
 10
45.1750099788
 20
60.2763295245
  0
LINE
  5
3D5
100
AcDbEntity
  8
RACCORDO
100
AcDbLine
 62
253
  6
CONTINUOUS
 10
45.1739406178
 20
148.6870426086
 11
45.1721523712
 21
148.5948386208
  0
LINE
  5
3D6
100
AcDbEntity
  8
ASSI
100
AcDbLine
 62
253
  6
CONTINUOUS
 10
45.1739406178
 20
148.6870426086
 11
45.1721523712
 21
148.5948386208
  0
LINE
  5
3D7
100
AcDbEntity
  8
RACCORDO
100
AcDbLine
 62
253
  6
CONTINUOUS
 10
45.1762247069
 20
148.7777461121
 11
45.1739406178
 21
148.6870426086
  0
LINE
  5
3D8
100
AcDbEntity
  8
ASSI
100
AcDbLine
 62
253
  6
CONTINUOUS
 10
45.1762247069
 20
148.7777461121
 11
45.1739406178
 21
148.6870426086
  0
LINE
  5
3D9
100
AcDbEntity
  8
RACCORDO
100
AcDbLine
 62
253
  6
CONTINUOUS
 10
45.1790463777
 20
148.865768589
 11
45.1762247069
 21
148.7777461121
  0
LINE
  5
3DA
100
AcDbEntity
  8
ASSI
100
AcDbLine
 62
253
  6
CONTINUOUS
 10
45.1790463777
 20
148.865768589
 11
45.1762247069
 21
148.7777461121
  0
LINE
  5
3DB
100
AcDbEntity
  8
RACCORDO
100
AcDbLine
 62
253
  6
CONTINUOUS
 10
45.1823393813
 20
148.9499770019
 11
45.1790463777
 21
148.865768589
  0
LINE
  5
3DC
100
AcDbEntity
  8
ASSI
100
AcDbLine
 62
253
  6
CONTINUOUS
 10
45.1823393813
 20
148.9499770019
 11
45.1790463777
 21
148.865768589
  0
LINE
  5
3DD
100
AcDbEntity
  8
RACCORDO
100
AcDbLine
 62
7
  6
CONTINUOUS
 10
48.4022772758
 20
108.0336232297
 11
50.2370069113
 21
108.3571355668
  0
LINE
  5
3DE
100
AcDbEntity
  8
RACCORDO
100
AcDbLine
 62
7
  6
CONTINUOUS
 10
48.2370069113
 20
101.1723015316
 11
48.2370069113
 21
107.8366616791
  0
LINE
  5
3DF
100
AcDbEntity
  8
RACCORDO
100
AcDbLine
 62
7
  6
CONTINUOUS
 10
50.2370069113
 20
61.4044811633
 11
50.2370069113
 21
82.1358724128
  0
LINE
  5
3E0
100
AcDbEntity
  8
DRAFT
100
AcDbLine
 62
7
  6
CONTINUOUS
 10
50.2370069113
 20
82.1358724128
 11
50.2370069113
 21
100.6518276439
  0
LINE
  5
3E1
100
AcDbEntity
  8
DRAFT
100
AcDbLine
 62
7
  6
CONTINUOUS
 10
50.2370069113
 20
108.3571355668
 11
50.2370069113
 21
126.8730907979
  0
LINE
  5
3E2
100
AcDbEntity
  8
RACCORDO
100
AcDbLine
 62
7
  6
CONTINUOUS
 10
50.2370069113
 20
126.8730907979
 11
50.2370069113
 21
147.6044824393
  0
LINE
  5
3E3
100
AcDbEntity
  8
0
100
AcDbLine
 62
253
  6
CONTINUOUS
 10
44.7304594765
 20
126.9538149387
 11
45.2310905326
 21
126.9538149387
  0
LINE
  5
3E4
100
AcDbEntity
  8
RACCORDO
100
AcDbLine
 62
253
  6
CONTINUOUS
 10
43.9327310442
 20
127.0191038276
 11
42.6875315232
 21
127.0191038276
  0
LINE
  5
3E5
100
AcDbEntity
  8
ASSI
100
AcDbLine
 62
253
  6
CONTINUOUS
 10
43.9327310442
 20
127.0191038276
 11
42.6875315232
 21
127.0191038276
  0
LINE
  5
3E6
100
AcDbEntity
  8
0
100
AcDbLine
 62
253
  6
CONTINUOUS
 10
50.2370069113
 20
126.8730907979
 11
45.2310905326
 21
126.9538149387
  0
LINE
  5
3E7
100
AcDbEntity
  8
RACCORDO
100
AcDbLine
 62
253
  6
CONTINUOUS
 10
42.6875315232
 20
127.0191038276
 11
42.2317364589
 21
127.0419541417
  0
LINE
  5
3E8
100
AcDbEntity
  8
ASSI
100
AcDbLine
 62
253
  6
CONTINUOUS
 10
42.6875315232
 20
127.0191038276
 11
42.2317364589
 21
127.0419541417
  0
LINE
  5
3E9
100
AcDbEntity
  8
RACCORDO
100
AcDbLine
 62
253
  6
CONTINUOUS
 10
42.6906679161
 20
127.0815782625
 11
42.2348763287
 21
127.1044816054
  0
LINE
  5
3EA
100
AcDbEntity
  8
ASSI
100
AcDbLine
 62
253
  6
CONTINUOUS
 10
42.6906679161
 20
127.0815782625
 11
42.2348763287
 21
127.1044816054
  0
LWPOLYLINE
  5
3EB
100
AcDbEntity
  8
RACCORDO
100
AcDbPolyline
 62
253
  6
CONTINUOUS
 90
10
 70
0
 10
49.5195954064
 20
147.6099891291
 10
49.6122069415
 20
147.5545832308
 10
49.701229538
 20
147.4980693017
 10
49.786747369
 20
147.4404480504
 10
49.8686265659
 20
147.3818864322
 10
49.9471884598
 20
147.3222194005
 10
50.0231761123
 20
147.2609485811
 10
50.0968705308
 20
147.1979072374
 10
50.1681232548
 20
147.1332615931
 10
50.2370069672
 20
147.0670116593
  0
LWPOLYLINE
  5
3EC
100
AcDbEntity
  8
RACCORDO
100
AcDbPolyline
 62
253
  6
CONTINUOUS
 90
19
 70
0
 10
49.5154732652
 20
148.2861643746
 10
49.5380504558
 20
148.2672246114
 10
49.5582624068
 20
148.2452997518
 10
49.5760127316
 20
148.2204943531
 10
49.5912167829
 20
148.1929267093
 10
49.6038020563
 20
148.162728287
 10
49.6137085356
 20
148.130043099
 10
49.6208889797
 20
148.0950270167
 10
49.6253091477
 20
148.0578470264
 10
49.6269479618
 20
148.0186804337
 10
49.625797608
 20
147.9777140182
 10
49.6218635732
 20
147.935143142
 10
49.6151646191
 20
147.891170817
 10
49.6057326927
 20
147.8460067401
 10
49.5936127738
 20
147.7998662906
 10
49.5788626604
 20
147.7529695018
 10
49.561552693
 20
147.7055400151
 10
49.5417654202
 20
147.6578040139
 10
49.5195952042
 20
147.6099891423
  0
LINE
  5
3ED
100
AcDbEntity
  8
0
100
AcDbLine
 62
253
  6
CONTINUOUS
 10
47.0286667027
 20
147.3628622213
 11
47.5443464236
 21
147.4080033158
  0
LWPOLYLINE
  5
3EE
100
AcDbEntity
  8
RACCORDO
100
AcDbPolyline
 62
253
  6
CONTINUOUS
 90
10
 70
0
 10
49.5195954064
 20
61.3989740816
 10
49.6120631787
 20
61.4543182712
 10
49.7007843723
 20
61.510624527
 10
49.7858496135
 20
61.5678918158
 10
49.8668752908
 20
61.625737509
 10
49.9444525371
 20
61.6845413904
 10
50.020078087
 20
61.7454485711
 10
50.0942521053
 20
61.8088427621
 10
50.1665465255
 20
61.8743433608
 10
50.2370068977
 20
61.9419514868
  0
LWPOLYLINE
  5
3EF
100
AcDbEntity
  8
RACCORDO
100
AcDbPolyline
 62
7
  6
CONTINUOUS
 90
18
 70
0
 10
46.6040883217
 20
149.5043262993
 10
46.5935815972
 20
149.5017589303
 10
46.5837906741
 20
149.496004848
 10
46.5747155524
 20
149.4870334902
 10
46.5664364568
 20
149.4748160009
 10
46.5588731626
 20
149.4593556882
 10
46.5517849953
 20
149.4407152228
 10
46.5451420384
 20
149.4189528434
 10
46.5389742084
 20
149.3941261598
 10
46.5331305796
 20
149.3663547008
 10
46.5276015804
 20
149.3357433143
 10
46.5223967823
 20
149.3024080529
 10
46.5173939749
 20
149.2665275417
 10
46.5125981847
 20
149.228261224
 10
46.5080043852
 20
149.1877624037
 10
46.503475286
 20
149.1452305781
 10
46.4990270667
 20
149.1008307533
 10
46.4808783567
 20
148.9093584766
  0
LWPOLYLINE
  5
3F0
100
AcDbEntity
  8
ASSI
100
AcDbPolyline
 62
7
  6
CONTINUOUS
 90
18
 70
0
 10
46.6040883217
 20
149.5043262993
 10
46.5935815972
 20
149.5017589303
 10
46.5837906741
 20
149.496004848
 10
46.5747155524
 20
149.4870334902
 10
46.5664364568
 20
149.4748160009
 10
46.5588731626
 20
149.4593556882
 10
46.5517849953
 20
149.4407152228
 10
46.5451420384
 20
149.4189528434
 10
46.5389742084
 20
149.3941261598
 10
46.5331305796
 20
149.3663547008
 10
46.5276015804
 20
149.3357433143
 10
46.5223967823
 20
149.3024080529
 10
46.5173939749
 20
149.2665275417
 10
46.5125981847
 20
149.228261224
 10
46.5080043852
 20
149.1877624037
 10
46.503475286
 20
149.1452305781
 10
46.4990270667
 20
149.1008307533
 10
46.4808783567
 20
148.9093584766
  0
LINE
  5
3F1
100
AcDbEntity
  8
0
100
AcDbLine
 62
7
  6
CONTINUOUS
 10
47.2071405843
 20
148.3592908761
 11
47.7236729834
 21
148.4044816054
  0
LINE
  5
3F2
100
AcDbEntity
  8
RACCORDO
100
AcDbLine
 62
253
  6
CONTINUOUS
 10
45.1721523697
 20
148.5948386207
 11
46.4575032278
 21
148.707341822
  0
LINE
  5
3F3
100
AcDbEntity
  8
ASSI
100
AcDbLine
 62
253
  6
CONTINUOUS
 10
45.1721523697
 20
148.5948386207
 11
46.4575032278
 21
148.707341822
  0
LINE
  5
3F4
100
AcDbEntity
  8
RACCORDO
100
AcDbLine
 62
7
  6
CONTINUOUS
 10
45.226651956
 20
149.3838162326
 11
46.605863478
 21
149.5044816054
  0
LINE
  5
3F5
100
AcDbEntity
  8
ASSI
100
AcDbLine
 62
7
  6
CONTINUOUS
 10
45.226651956
 20
149.3838162326
 11
46.605863478
 21
149.5044816054
  0
LINE
  5
3F6
100
AcDbEntity
  8
RACCORDO
100
AcDbLine
 62
253
  6
CONTINUOUS
 10
46.4570416226
 20
148.7044816054
 11
47.270436239
 21
148.7044816054
  0
LINE
  5
3F7
100
AcDbEntity
  8
ASSI
100
AcDbLine
 62
253
  6
CONTINUOUS
 10
46.4570416226
 20
148.7044816054
 11
47.270436239
 21
148.7044816054
  0
LINE
  5
3F8
100
AcDbEntity
  8
RACCORDO
100
AcDbLine
 62
7
  6
CONTINUOUS
 10
46.605863478
 20
149.5044816054
 11
47.4200373721
 21
149.5044816054
  0
LINE
  5
3F9
100
AcDbEntity
  8
ASSI
100
AcDbLine
 62
7
  6
CONTINUOUS
 10
46.605863478
 20
149.5044816054
 11
47.4200373721
 21
149.5044816054
  0
LINE
  5
3FA
100
AcDbEntity
  8
RACCORDO
100
AcDbLine
 62
253
  6
CONTINUOUS
 10
49.5195954064
 20
147.6099891291
 11
47.5822709496
 21
147.6216931177
  0
LWPOLYLINE
  5
3FB
100
AcDbEntity
  8
RACCORDO
100
AcDbPolyline
 62
253
  6
CONTINUOUS
 90
16
 70
0
 10
47.6888573806
 20
148.2137325098
 10
47.811608795
 20
148.1954699714
 10
47.9338095294
 20
148.1745710806
 10
48.0553926122
 20
148.151031528
 10
48.1759573731
 20
148.1249754346
 10
48.2957697449
 20
148.096270234
 10
48.4157425498
 20
148.064525571
 10
48.5358222245
 20
148.0298205626
 10
48.6558626284
 20
147.9920652655
 10
48.7765922379
 20
147.950613109
 10
48.8977155847
 20
147.9057066718
 10
49.0192376211
 20
147.8570890925
 10
49.1422688891
 20
147.8033595587
 10
49.2670286675
 20
147.7440420667
 10
49.3928801785
 20
147.6795891742
 10
49.5195954064
 20
147.6099891291
  0
LINE
  5
3FC
100
AcDbEntity
  8
RACCORDO
100
AcDbLine
 62
253
  6
CONTINUOUS
 10
45.1721523716
 20
148.5948386308
 11
44.7237578187
 21
148.6761383761
  0
LINE
  5
3FD
100
AcDbEntity
  8
ASSI
100
AcDbLine
 62
253
  6
CONTINUOUS
 10
45.1721523716
 20
148.5948386308
 11
44.7237578187
 21
148.6761383761
  0
ARC
  5
3FE
100
AcDbEntity
  8
RACCORDO
100
AcDbCircle
 62
7
  6
CONTINUOUS
 10
274.9289386348
 20
148.7044816053
 40
0.8
100
AcDbArc
 50
0.0
 51
90.0
  0
ARC
  5
3FF
100
AcDbEntity
  8
RACCORDO
100
AcDbCircle
 62
7
  6
CONTINUOUS
 10
66.5289386348
 20
148.7044816053
 40
0.8
100
AcDbArc
 50
90.0
 51
180.0
  0
ARC
  5
400
100
AcDbEntity
  8
RACCORDO
100
AcDbCircle
 62
7
  6
CONTINUOUS
 10
66.5289386348
 20
60.3044816054
 40
0.8
100
AcDbArc
 50
180.0
 51
270.0
  0
ARC
  5
401
100
AcDbEntity
  8
RACCORDO
100
AcDbCircle
 62
7
  6
CONTINUOUS
 10
274.9289386348
 20
60.3044816054
 40
0.8
100
AcDbArc
 50
270.0
 51
360.0
  0
ARC
  5
402
100
AcDbEntity
  8
ASSI
100
AcDbCircle
 62
7
  6
CONTINUOUS
 10
274.9289386348
 20
148.7044816053
 40
0.8
100
AcDbArc
 50
0.0
 51
90.0
  0
ARC
  5
403
100
AcDbEntity
  8
ASSI
100
AcDbCircle
 62
7
  6
CONTINUOUS
 10
66.5289386348
 20
148.7044816053
 40
0.8
100
AcDbArc
 50
90.0
 51
180.0
  0
ARC
  5
404
100
AcDbEntity
  8
ASSI
100
AcDbCircle
 62
7
  6
CONTINUOUS
 10
66.5289386348
 20
60.3044816054
 40
0.8
100
AcDbArc
 50
180.0
 51
270.0
  0
ARC
  5
405
100
AcDbEntity
  8
ASSI
100
AcDbCircle
 62
7
  6
CONTINUOUS
 10
274.9289386348
 20
60.3044816054
 40
0.8
100
AcDbArc
 50
270.0
 51
360.0
  0
ARC
  5
406
100
AcDbEntity
  8
RACCORDO
100
AcDbCircle
 62
7
  6
CONTINUOUS
 10
210.1427203144
 20
90.3478416053
 40
168.12
100
AcDbArc
 50
182.8787323946
 51
190.3881766496
  0
ARC
  5
407
100
AcDbEntity
  8
ASSI
100
AcDbCircle
 62
7
  6
CONTINUOUS
 10
210.1427203144
 20
90.3478416053
 40
168.12
100
AcDbArc
 50
182.8787323946
 51
190.3881766496
  0
ARC
  5
408
100
AcDbEntity
  8
RACCORDO
100
AcDbCircle
 62
7
  6
CONTINUOUS
 10
210.1427203144
 20
90.3478416053
 40
165.62
100
AcDbArc
 50
182.8787323946
 51
190.7328340038
  0
ARC
  5
409
100
AcDbEntity
  8
ASSI
100
AcDbCircle
 62
7
  6
CONTINUOUS
 10
210.1427203144
 20
90.3478416053
 40
165.62
100
AcDbArc
 50
182.8787323946
 51
190.7328340038
  0
ARC
  5
40A
100
AcDbEntity
  8
0
100
AcDbCircle
 62
7
  6
CONTINUOUS
 10
210.1427203144
 20
90.3478416053
 40
165.12
100
AcDbArc
 50
182.8787323946
 51
190.1014160686
  0
ARC
  5
40B
100
AcDbEntity
  8
RACCORDO
100
AcDbCircle
 62
7
  6
CONTINUOUS
 10
210.1427203144
 20
90.3478416053
 40
165.12
100
AcDbArc
 50
190.1014160686
 51
190.5891670949
  0
ARC
  5
40C
100
AcDbEntity
  8
RACCORDO
100
AcDbCircle
 62
7
  6
CONTINUOUS
 10
47.1366257166
 20
63.9634323426
 40
4.0200239337
100
AcDbArc
 50
279.9999997997
 51
320.4648685262
  0
ARC
  5
40D
100
AcDbEntity
  8
RACCORDO
100
AcDbCircle
 62
7
  6
CONTINUOUS
 10
45.270229322
 20
60.123247049
 40
0.5
100
AcDbArc
 50
190.3884938804
 51
265.0000848831
  0
ARC
  5
40E
100
AcDbEntity
  8
ASSI
100
AcDbCircle
 62
7
  6
CONTINUOUS
 10
45.270229322
 20
60.123247049
 40
0.5
100
AcDbArc
 50
190.3884938804
 51
265.0000848831
  0
ARC
  5
40F
100
AcDbEntity
  8
RACCORDO
100
AcDbCircle
 62
7
  6
CONTINUOUS
 10
48.4370069113
 20
101.1723015316
 40
0.2
100
AcDbArc
 50
180.0
 51
260.0
  0
ARC
  5
410
100
AcDbEntity
  8
RACCORDO
100
AcDbCircle
 62
7
  6
CONTINUOUS
 10
210.1427203144
 20
118.6611216054
 40
168.12
100
AcDbArc
 50
169.6125188462
 51
177.1212824975
  0
ARC
  5
411
100
AcDbEntity
  8
ASSI
100
AcDbCircle
 62
7
  6
CONTINUOUS
 10
210.1427203144
 20
118.6611216054
 40
168.12
100
AcDbArc
 50
169.6125188462
 51
177.1212824975
  0
ARC
  5
412
100
AcDbEntity
  8
RACCORDO
100
AcDbCircle
 62
7
  6
CONTINUOUS
 10
210.1427203144
 20
118.6611216054
 40
165.62
100
AcDbArc
 50
169.2676317374
 51
177.1212676054
  0
ARC
  5
413
100
AcDbEntity
  8
ASSI
100
AcDbCircle
 62
7
  6
CONTINUOUS
 10
210.1427203144
 20
118.6611216054
 40
165.62
100
AcDbArc
 50
169.2676317374
 51
177.1212676054
  0
ARC
  5
414
100
AcDbEntity
  8
0
100
AcDbCircle
 62
7
  6
CONTINUOUS
 10
210.1427203144
 20
118.6611216054
 40
165.12
100
AcDbArc
 50
169.8985839314
 51
177.1212676054
  0
ARC
  5
415
100
AcDbEntity
  8
RACCORDO
100
AcDbCircle
 62
7
  6
CONTINUOUS
 10
210.1427203144
 20
118.6611216054
 40
165.12
100
AcDbArc
 50
169.4108329051
 51
169.8985839314
  0
ARC
  5
416
100
AcDbEntity
  8
RACCORDO
100
AcDbCircle
 62
7
  6
CONTINUOUS
 10
47.1366257166
 20
145.0455308681
 40
4.0200239337
100
AcDbArc
 50
39.5351387157
 51
80.0000000069
  0
ARC
  5
417
100
AcDbEntity
  8
RACCORDO
100
AcDbCircle
 62
7
  6
CONTINUOUS
 10
45.270229322
 20
148.8857161617
 40
0.5
100
AcDbArc
 50
94.9999151169
 51
169.6115061196
  0
ARC
  5
418
100
AcDbEntity
  8
ASSI
100
AcDbCircle
 62
7
  6
CONTINUOUS
 10
45.270229322
 20
148.8857161617
 40
0.5
100
AcDbArc
 50
94.9999151169
 51
169.6115061196
  0
ARC
  5
419
100
AcDbEntity
  8
RACCORDO
100
AcDbCircle
 62
7
  6
CONTINUOUS
 10
48.4370069113
 20
107.8366616791
 40
0.2
100
AcDbArc
 50
100.0
 51
180.0
  0
ARC
  5
41A
100
AcDbEntity
  8
RACCORDO
100
AcDbCircle
 62
7
  6
CONTINUOUS
 10
491.6670069113
 20
104.5044816054
 40
450.0
100
AcDbArc
 50
177.1212731691
 51
182.8787274802
  0
ARC
  5
41B
100
AcDbEntity
  8
ASSI
100
AcDbCircle
 62
7
  6
CONTINUOUS
 10
491.6670069113
 20
104.5044816054
 40
450.0
100
AcDbArc
 50
177.1212731691
 51
182.8787274802
  0
ARC
  5
41C
100
AcDbEntity
  8
DRAFT
100
AcDbCircle
 62
7
  6
CONTINUOUS
 10
491.6670069113
 20
104.5044816054
 40
447.5
100
AcDbArc
 50
177.1212676054
 51
182.8787323946
  0
ARC
  5
41D
100
AcDbEntity
  8
ASSI
100
AcDbCircle
 62
7
  6
CONTINUOUS
 10
491.6670069113
 20
104.5044816054
 40
447.5
100
AcDbArc
 50
177.1212676054
 51
182.8787323946
  0
ARC
  5
41E
100
AcDbEntity
  8
0
100
AcDbCircle
 62
7
  6
CONTINUOUS
 10
491.6670069113
 20
104.5044816054
 40
447.0
100
AcDbArc
 50
177.1212676054
 51
182.8787323946
  0
ENDSEC
  0
SECTION
  2
OBJECTS
  0
DICTIONARY
  5
C
100
AcDbDictionary
280
0
281
1
  3
ACAD_GROUP
350
D
  3
ACAD_MLINESTYLE
350
17
  3
ACAD_LAYOUT
350
1A
  3
ACAD_PLOTSETTINGS
350
19
  3
ACAD_PLOTSTYLENAME
350
E
  0
DICTIONARY
  5
D
102
{ACAD_REACTORS
330
C
102
}
100
AcDbDictionary
280
0
281
1
  0
ACDBDICTIONARYWDFLT
  5
E
102
{ACAD_REACTORS
330
C
102
}
100
AcDbDictionary
281
1
  3
Normal
350
F
100
AcDbDictionaryWithDefault
340
F
  0
DICTIONARY
  5
17
102
{ACAD_REACTORS
330
C
102
}
100
AcDbDictionary
280
0
281
1
  3
Standard
350
18
  0
DICTIONARY
  5
19
102
{ACAD_REACTORS
330
C
102
}
100
AcDbDictionary
281
1
  0
DICTIONARY
  5
1A
102
{ACAD_REACTORS
330
C
102
}
100
AcDbDictionary
281
1
  3
Model
350
41F
  3
Layout1
350
420
  0
ACDBPLACEHOLDER
  5
F
102
{ACAD_REACTORS
330
E
102
}
  0
MLINESTYLE
  5
18
102
{ACAD_REACTORS
330
17
102
}
100
AcDbMlineStyle
  2
STANDARD
 70
0
  3

 62
256
 51
90.0
 52
90.0
 71
2
 49
0.5
 62
256
  6
BYLAYER
 49
-0.5
 62
256
  6
BYLAYER
  0
LAYOUT
  5
41F
102
{ACAD_REACTORS
330
1A
102
}
100
AcDbPlotSettings
  1

  2
none_device
  4
ISO_A4_(297.00_x_210.00_MM)
  6

 40
0.0
 41
0.0
 42
0.0
 43
0.0
 44
297.0
 45
210.0
 46
0.0
 47
0.0
 48
0.0
 49
0.0
140
0.0
141
0.0
142
1.0
143
1.0
 70
1024
 72
1
 73
0
 74
0
  7

 75
0
147
1.0
148
0.0
149
0.0
100
AcDbLayout
  1
Model
 70
0
 71
0
 10
0.0
 20
0.0
 11
297.0
 21
210.0
 12
0.0
 22
0.0
 32
0.0
 14
0.0
 24
0.0
 34
0.0
 15
0.0
 25
0.0
 35
0.0
146
0.0
 13
0.0
 23
0.0
 33
0.0
 16
1.0
 26
0.0
 36
0.0
 17
0.0
 27
1.0
 37
0.0
 76
0
330
213
345
0
346
0
  0
LAYOUT
  5
420
102
{ACAD_REACTORS
330
1A
102
}
100
AcDbPlotSettings
  1

  2
none_device
  4
ISO_A4_(297.00_x_210.00_MM)
  6

 40
0.0
 41
0.0
 42
0.0
 43
0.0
 44
297.0
 45
210.0
 46
0.0
 47
0.0
 48
0.0
 49
0.0
140
0.0
141
0.0
142
1.0
143
1.0
 70
0
 72
1
 73
0
 74
0
  7

 75
0
147
1.0
148
0.0
149
0.0
100
AcDbLayout
  1
Layout1
 70
0
 71
1
 10
0.0
 20
0.0
 11
297.0
 21
210.0
 12
0.0
 22
0.0
 32
0.0
 14
0.0
 24
0.0
 34
0.0
 15
0.0
 25
0.0
 35
0.0
146
0.0
 13
0.0
 23
0.0
 33
0.0
 16
1.0
 26
0.0
 36
0.0
 17
0.0
 27
1.0
 37
0.0
 76
0
330
214
345
0
346
0
  0
ENDSEC
  0
EOF
