  0
SECTION
  2
HEADER
  9
$ACADVER
  1
AC1021
  9
$DWGCODEPAGE
  3
ANSI_1252
  9
$EXTMAX
 10
420.0
 20
297.0
 30
0.0
  9
$EXTMIN
 10
0.0
 20
0.0
 30
0.0
  9
$LIMMIN
 10
0.0
 20
0.0
  9
$LIMMAX
 10
420.0
 20
297.0
  9
$VIEWCTR
 10
210.0
 20
148.5
  9
$VIEWSIZE
 40
297.0
  9
$CLAYER
  8
0
  9
$LTSCALE
 40
23.1
  9
$CELTYPE
  6
BYLAYER
  9
$DIMSCALE
 40
1.0
  9
$DIMASZ
 40
3.0
  9
$DIMEXO
 40
2.625
  9
$DIMDLI
 40
15.96
  9
$DIMEXE
 40
7.56
  9
$DIMCEN
 40
3.78
  9
$DIMLFAC
 40
1.0
  9
$DIMBLK
  1
_FILLED
  9
$DIMTXT
 40
3.0
  9
$DIMTOL
 70
1
  9
$DIMLIM
 70
0
  9
$DIMTFAC
 40
1.0
  9
$DIMTP
 40
0.01
  9
$DIMTM
 40
0.01
  9
$PDMODE
 70
3
  9
$PDSIZE
 40
3.0
  9
$HANDSEED
  5
370
  9
$TILEMODE
 70
1
  9
$MEASUREMENT
 70
1
  9
$INSUNITS
 70
4
  0
ENDSEC
  0
SECTION
  2
CLASSES
  0
CLASS
  1
ACDBDICTIONARYWDFLT
  2
AcDbDictionaryWithDefault
  3
AutoCAD 2000
 90
0
 91
1
280
0
281
0
  0
CLASS
  1
ACDBPLACEHOLDER
  2
AcDbPlaceHolder
  3
AutoCAD 2000
 90
0
 91
1
280
0
281
0
  0
CLASS
  1
LAYOUT
  2
AcDbLayout
  3
AutoCAD 2000
 90
0
 91
0
280
0
281
0
  0
ENDSEC
  0
SECTION
  2
TABLES
  0
TABLE
  2
VPORT
  5
8
100
AcDbSymbolTable
 70
2
  0
VPORT
  5
1F4
100
AcDbSymbolTableRecord
100
AcDbViewportTableRecord
  2
*ACTIVE
 70
0
 10
0.0
 20
0.0
 11
1.0
 21
1.0
 12
210.0
 22
148.5
 13
0.0
 23
0.0
 14
1.0
 24
1.0
 15
0.0
 25
0.0
 16
0.0
 26
0.0
 36
1.0
 17
0.0
 27
0.0
 37
0.0
 40
297.0
 41
1.4141414141
 42
50.0
 43
0.0
 44
0.0
 50
0.0
 51
0.0
 71
0
 72
100
 73
1
 74
1
 75
0
 76
0
 77
0
 78
0
  0
ENDTAB
  0
TABLE
  2
LTYPE
  5
5
100
AcDbSymbolTable
 70
6
  0
LTYPE
  5
14
100
AcDbSymbolTableRecord
100
AcDbLinetypeTableRecord
  2
BYBLOCK
 70
0
  3

 72
65
 73
0
 40
0.0
  0
LTYPE
  5
15
100
AcDbSymbolTableRecord
100
AcDbLinetypeTableRecord
  2
BYLAYER
 70
0
  3

 72
65
 73
0
 40
0.0
  0
LTYPE
  5
16
100
AcDbSymbolTableRecord
100
AcDbLinetypeTableRecord
  2
CONTINUOUS
 70
64
  3
Solid line
 72
65
 73
0
 40
0.0
  0
LTYPE
  5
1F5
100
AcDbSymbolTableRecord
100
AcDbLinetypeTableRecord
  2
CENTER
 70
64
  3
____ _ ____ _ ____ _ ____ _ ____ _ ____ _ ____
 72
65
 73
4
 40
0.6
 49
0.375
 74
0
 49
-0.075
 74
0
 49
0.075
 74
0
 49
-0.075
 74
0
  0
LTYPE
  5
1F6
100
AcDbSymbolTableRecord
100
AcDbLinetypeTableRecord
  2
HIDDEN
 70
64
  3
- - - - - - - - - - - - - - - - - - - -
 72
65
 73
2
 40
0.2
 49
0.1
 74
0
 49
-0.1
 74
0
  0
LTYPE
  5
1F7
100
AcDbSymbolTableRecord
100
AcDbLinetypeTableRecord
  2
PHANTOM
 70
64
  3
_____ _ _ _____ _ _ _____ _ _ _____
 72
65
 73
6
 40
0.8
 49
0.45
 74
0
 49
-0.05
 74
0
 49
0.1
 74
0
 49
-0.05
 74
0
 49
0.1
 74
0
 49
-0.05
 74
0
  0
LTYPE
  5
1F8
100
AcDbSymbolTableRecord
100
AcDbLinetypeTableRecord
  2
DOT
 70
64
  3
. . . . . . . . . . . . . . . . . . . .
 72
65
 73
2
 40
0.2
 49
0.1
 74
0
 49
-0.1
 74
0
  0
LTYPE
  5
1F9
100
AcDbSymbolTableRecord
100
AcDbLinetypeTableRecord
  2
DASHED
 70
64
  3
- - - - - - - - - - - - - - - - - - - -
 72
65
 73
2
 40
0.2
 49
0.1
 74
0
 49
-0.1
 74
0
  0
ENDTAB
  0
TABLE
  2
LAYER
  5
2
100
AcDbSymbolTable
 70
36
  0
LAYER
  5
10
100
AcDbSymbolTableRecord
100
AcDbLayerTableRecord
  2
0
 70
0
 62
7
  6
CONTINUOUS
370
-3
390
F
  0
LAYER
  5
1FA
100
AcDbSymbolTableRecord
100
AcDbLayerTableRecord
  2
DEFAULT_1
 70
0
 62
7
  6
CENTER
370
-3
390
F
  0
LAYER
  5
1FB
100
AcDbSymbolTableRecord
100
AcDbLayerTableRecord
  2
DEFAULT_2
 70
0
 62
7
  6
HIDDEN
370
-3
390
F
  0
LAYER
  5
1FC
100
AcDbSymbolTableRecord
100
AcDbLayerTableRecord
  2
DEFAULT_3
 70
0
 62
7
  6
PHANTOM
370
-3
390
F
  0
LAYER
  5
1FD
100
AcDbSymbolTableRecord
100
AcDbLayerTableRecord
  2
ASSI
 70
0
 62
7
  6
CONTINUOUS
370
-3
390
F
  0
LAYER
  5
1FE
100
AcDbSymbolTableRecord
100
AcDbLayerTableRecord
  2
COORDINATE
 70
0
 62
7
  6
CONTINUOUS
370
-3
390
F
  0
LAYER
  5
1FF
100
AcDbSymbolTableRecord
100
AcDbLayerTableRecord
  2
COPY_PUBLISH
 70
0
 62
7
  6
CONTINUOUS
370
-3
390
F
  0
LAYER
  5
200
100
AcDbSymbolTableRecord
100
AcDbLayerTableRecord
  2
COSMETICI
 70
0
 62
7
  6
CONTINUOUS
370
-3
390
F
  0
LAYER
  5
201
100
AcDbSymbolTableRecord
100
AcDbLayerTableRecord
  2
CURVE
 70
0
 62
7
  6
CONTINUOUS
370
-3
390
F
  0
LAYER
  5
202
100
AcDbSymbolTableRecord
100
AcDbLayerTableRecord
  2
DRAFT
 70
0
 62
7
  6
CONTINUOUS
370
-3
390
F
  0
LAYER
  5
203
100
AcDbSymbolTableRecord
100
AcDbLayerTableRecord
  2
IMPORT_IGES
 70
0
 62
7
  6
CONTINUOUS
370
-3
390
F
  0
LAYER
  5
204
100
AcDbSymbolTableRecord
100
AcDbLayerTableRecord
  2
INTF_1
 70
0
 62
7
  6
CONTINUOUS
370
-3
390
F
  0
LAYER
  5
205
100
AcDbSymbolTableRecord
100
AcDbLayerTableRecord
  2
NOTE
 70
0
 62
7
  6
CONTINUOUS
370
-3
390
F
  0
LAYER
  5
206
100
AcDbSymbolTableRecord
100
AcDbLayerTableRecord
  2
PIANI
 70
0
 62
7
  6
CONTINUOUS
370
-3
390
F
  0
LAYER
  5
207
100
AcDbSymbolTableRecord
100
AcDbLayerTableRecord
  2
PUNTI
 70
0
 62
7
  6
CONTINUOUS
370
-3
390
F
  0
LAYER
  5
208
100
AcDbSymbolTableRecord
100
AcDbLayerTableRecord
  2
RACCORDO
 70
0
 62
7
  6
CONTINUOUS
370
-3
390
F
  0
LAYER
  5
209
100
AcDbSymbolTableRecord
100
AcDbLayerTableRecord
  2
SIMBOLI
 70
0
 62
7
  6
CONTINUOUS
370
-3
390
F
  0
LAYER
  5
20A
100
AcDbSymbolTableRecord
100
AcDbLayerTableRecord
  2
SMUSSO
 70
0
 62
7
  6
CONTINUOUS
370
-3
390
F
  0
LAYER
  5
20B
100
AcDbSymbolTableRecord
100
AcDbLayerTableRecord
  2
SNAPLINE
 70
0
 62
7
  6
CONTINUOUS
370
-3
390
F
  0
LAYER
  5
20C
100
AcDbSymbolTableRecord
100
AcDbLayerTableRecord
  2
SUPERFICI
 70
0
 62
7
  6
CONTINUOUS
370
-3
390
F
  0
LAYER
  5
20D
100
AcDbSymbolTableRecord
100
AcDbLayerTableRecord
  2
TRASH
 70
0
 62
7
  6
CONTINUOUS
370
-3
390
F
  0
ENDTAB
  0
TABLE
  2
STYLE
  5
3
100
AcDbSymbolTable
 70
1
  0
STYLE
  5
11
100
AcDbSymbolTableRecord
100
AcDbTextStyleTableRecord
  2
STANDARD
 70
0
 40
0.0
 41
0.8
 50
0.0
 71
0
 42
0.2
  3
txt
  4

  0
STYLE
  5
20E
100
AcDbSymbolTableRecord
100
AcDbTextStyleTableRecord
  2
TEXTSTYLE_1
 70
0
 40
0.0
 41
0.8
 50
0.0
 71
0
 42
0.2
  3
gdt
  4

  0
ENDTAB
  0
TABLE
  2
VIEW
  5
6
100
AcDbSymbolTable
 70
0
  0
ENDTAB
  0
TABLE
  2
UCS
  5
7
100
AcDbSymbolTable
 70
0
  0
ENDTAB
  0
TABLE
  2
APPID
  5
9
100
AcDbSymbolTable
 70
1
  0
APPID
  5
20F
100
AcDbSymbolTableRecord
100
AcDbRegAppTableRecord
  2
ACAD
 70
0
  0
ENDTAB
  0
TABLE
  2
BLOCK_RECORD
  5
1
100
AcDbSymbolTable
 70
0
  0
BLOCK_RECORD
  5
210
100
AcDbSymbolTableRecord
100
AcDbBlockTableRecord
  2
*Model_Space
  0
BLOCK_RECORD
  5
211
100
AcDbSymbolTableRecord
100
AcDbBlockTableRecord
  2
*Paper_Space
  0
BLOCK_RECORD
  5
212
100
AcDbSymbolTableRecord
100
AcDbBlockTableRecord
  2
_FILLED
  0
BLOCK_RECORD
  5
213
100
AcDbSymbolTableRecord
100
AcDbBlockTableRecord
  2
*D0
  0
BLOCK_RECORD
  5
214
100
AcDbSymbolTableRecord
100
AcDbBlockTableRecord
  2
*D1
  0
BLOCK_RECORD
  5
215
100
AcDbSymbolTableRecord
100
AcDbBlockTableRecord
  2
*D2
  0
ENDTAB
  0
TABLE
  2
DIMSTYLE
  5
A
100
AcDbSymbolTable
 70
1
100
AcDbDimStyleTable
 71
0
  0
DIMSTYLE
105
216
100
AcDbSymbolTableRecord
100
AcDbDimStyleTableRecord
  2
STANDARD
 70
0
  3

  4

 40
1.0
 41
3.0
 42
0.0625
 43
0.38
 44
0.18
 45
0.0
 46
0.0
 47
0.01
 48
0.01
140
3.0
141
0.09
142
0.0
143
25.4
144
1.0
145
0.0
146
1.0
147
0.09
 71
1.0
 72
0.0
 73
0
 74
0
 75
0
 76
0
 77
1
 78
8
170
0
171
2
172
0
173
0
174
0
175
0
176
0
177
0
178
0
270
2
271
2
272
2
273
2
274
2
275
0
280
0
281
0
282
0
283
1
284
8
285
0
286
0
287
3
288
0
340
11
341
212
342
212
343
212
344
212
  0
DIMSTYLE
105
217
100
AcDbSymbolTableRecord
100
AcDbDimStyleTableRecord
  2
DIMSTYLE_1
 70
0
  3

  4

 40
1.0
 41
3.0
 42
0.0625
 43
0.38
 44
0.18
 45
0.0
 46
0.0
 47
0.0
 48
0.0
140
3.0
141
0.09
142
0.0
143
25.4
144
1.0
145
0.0
146
1.0
147
0.09
 71
0.0
 72
0.0
 73
0
 74
0
 75
0
 76
0
 77
1
 78
8
170
0
171
2
172
0
173
0
174
0
175
0
176
0
177
0
178
0
270
2
271
2
272
2
273
2
274
2
275
0
280
0
281
0
282
0
283
1
284
8
285
0
286
0
287
3
288
0
340
11
341
212
342
212
343
212
344
212
  0
DIMSTYLE
105
218
100
AcDbSymbolTableRecord
100
AcDbDimStyleTableRecord
  2
DIMSTYLE_2
 70
0
  3

  4

 40
1.0
 41
3.0
 42
0.0625
 43
0.38
 44
0.18
 45
0.0
 46
0.0
 47
0.0
 48
0.0
140
3.0
141
0.09
142
0.0
143
25.4
144
1.0
145
0.0
146
1.0
147
0.09
 71
0.0
 72
0.0
 73
0
 74
0
 75
0
 76
0
 77
1
 78
8
170
0
171
2
172
0
173
0
174
0
175
0
176
0
177
0
178
0
270
2
271
1
272
1
273
2
274
2
275
0
280
0
281
0
282
0
283
1
284
8
285
0
286
0
287
3
288
0
340
11
341
212
342
212
343
212
344
212
  0
ENDTAB
  0
ENDSEC
  0
SECTION
  2
BLOCKS
  0
BLOCK
  5
20
100
AcDbEntity
  8
0
100
AcDbBlockBegin
  2
*Model_Space
 70
0
 10
0.0
 20
0.0
 30
0.0
  3
*Model_Space
  1

  0
ENDBLK
  5
21
100
AcDbEntity
  8
0
100
AcDbBlockEnd
  0
BLOCK
  5
1C
100
AcDbEntity
  8
0
100
AcDbBlockBegin
  2
*Paper_Space
 70
0
 10
0.0
 20
0.0
 30
0.0
  3
*Paper_Space
  1

  0
ENDBLK
  5
1D
100
AcDbEntity
  8
0
100
AcDbBlockEnd
  0
BLOCK
  5
219
100
AcDbEntity
  8
0
100
AcDbBlockBegin
  2
_FILLED
 70
64
 10
0.0
 20
0.0
  3
_FILLED
  1

  0
SOLID
  5
21A
100
AcDbEntity
  8
0
  6
BYBLOCK
 62
0
100
AcDbTrace
 10
0.0
 20
0.0
 11
-1.0
 21
0.3166666667
 12
-1.0
 22
-0.3166666667
 13
-1.0
 23
-0.3166666667
  0
ENDBLK
  5
21B
100
AcDbEntity
  8
0
  6
BYBLOCK
 62
0
100
AcDbBlockEnd
  0
BLOCK
  5
21C
100
AcDbEntity
  8
0
100
AcDbBlockBegin
 62
7
  6
CONTINUOUS
  2
*D0
 70
65
 10
0.0
 20
0.0
  3
*D0
  1

  0
MTEXT
  5
21D
100
AcDbEntity
  8
0
100
AcDbMText
 62
7
  6
CONTINUOUS
  7
STANDARD
 71
2
 72
1
 10
245.6685128638
 20
225.3887096628
 30
0.0
 11
1.0
 21
0.0
 31
0.0
 44
0.9
  1
210
 40
3.0
 41
6.4285714286
  0
LINE
  5
21E
100
AcDbEntity
  8
0
100
AcDbLine
 62
7
  6
CONTINUOUS
 10
140.6685128638
 20
174.828138125
 11
140.6685128638
 21
223.1387096628
  0
LINE
  5
21F
100
AcDbEntity
  8
0
100
AcDbLine
 62
7
  6
CONTINUOUS
 10
350.6685128638
 20
174.828138125
 11
350.6685128638
 21
223.1387096628
  0
LINE
  5
220
100
AcDbEntity
  8
0
100
AcDbLine
 62
7
  6
CONTINUOUS
 10
140.6685128638
 20
221.6387096628
 11
245.6685128638
 21
221.6387096628
  0
LINE
  5
221
100
AcDbEntity
  8
0
100
AcDbLine
 62
7
  6
CONTINUOUS
 10
350.6685128638
 20
221.6387096628
 11
245.6685128638
 21
221.6387096628
  0
INSERT
  5
222
100
AcDbEntity
  8
0
100
AcDbBlockReference
 62
7
  6
CONTINUOUS
  2
_FILLED
 10
140.6685128638
 20
221.6387096628
 41
3.0
 42
3.0
 43
3.0
 50
180.0
  0
INSERT
  5
223
100
AcDbEntity
  8
0
100
AcDbBlockReference
 62
7
  6
CONTINUOUS
  2
_FILLED
 10
350.6685128638
 20
221.6387096628
 41
3.0
 42
3.0
 43
3.0
  0
ENDBLK
  5
224
100
AcDbEntity
  8
0
  6
BYBLOCK
 62
0
100
AcDbBlockEnd
  0
BLOCK
  5
225
100
AcDbEntity
  8
0
100
AcDbBlockBegin
 62
7
  6
CONTINUOUS
  2
*D1
 70
65
 10
0.0
 20
0.0
  3
*D1
  1

  0
MTEXT
  5
226
100
AcDbEntity
  8
0
100
AcDbMText
 62
7
  6
CONTINUOUS
  7
STANDARD
 71
2
 72
1
 10
373.9016008316
 20
151.8589514598
 30
0.0
 11
0.0
 21
1.0
 31
0.0
 44
0.9
  1
90
 40
3.0
 41
4.7142857143
  0
LINE
  5
227
100
AcDbEntity
  8
0
100
AcDbLine
 62
7
  6
CONTINUOUS
 10
349.1180856253
 20
196.8589514598
 11
379.1516008316
 21
196.8589514598
  0
LINE
  5
228
100
AcDbEntity
  8
0
100
AcDbLine
 62
7
  6
CONTINUOUS
 10
351.5763049801
 20
106.8589514598
 11
379.1516008316
 21
106.8589514598
  0
LINE
  5
229
100
AcDbEntity
  8
0
100
AcDbLine
 62
7
  6
CONTINUOUS
 10
377.6516008316
 20
196.8589514598
 11
377.6516008316
 21
151.8589514598
  0
LINE
  5
22A
100
AcDbEntity
  8
0
100
AcDbLine
 62
7
  6
CONTINUOUS
 10
377.6516008316
 20
106.8589514598
 11
377.6516008316
 21
151.8589514598
  0
INSERT
  5
22B
100
AcDbEntity
  8
0
100
AcDbBlockReference
 62
7
  6
CONTINUOUS
  2
_FILLED
 10
377.6516008316
 20
196.8589514598
 41
3.0
 42
3.0
 43
3.0
 50
90.0
  0
INSERT
  5
22C
100
AcDbEntity
  8
0
100
AcDbBlockReference
 62
7
  6
CONTINUOUS
  2
_FILLED
 10
377.6516008316
 20
106.8589514598
 41
3.0
 42
3.0
 43
3.0
 50
270.0
  0
ENDBLK
  5
22D
100
AcDbEntity
  8
0
  6
BYBLOCK
 62
0
100
AcDbBlockEnd
  0
BLOCK
  5
22E
100
AcDbEntity
  8
0
100
AcDbBlockBegin
 62
7
  6
CONTINUOUS
  2
*D2
 70
65
 10
0.0
 20
0.0
  3
*D2
  1

  0
MTEXT
  5
22F
100
AcDbEntity
  8
0
100
AcDbMText
 62
7
  6
CONTINUOUS
  7
STANDARD
 71
3
 72
1
 10
109.7327654765
 20
225.3887096628
 30
0.0
 11
1.0
 21
0.0
 31
0.0
 44
0.9
  1
8,6
 40
3.0
 41
6.4285714286
  0
LINE
  5
230
100
AcDbEntity
  8
0
100
AcDbLine
 62
7
  6
CONTINUOUS
 10
119.8009190735
 20
194.9214823948
 11
119.8009190735
 21
223.1387096628
  0
LINE
  5
231
100
AcDbEntity
  8
0
100
AcDbLine
 62
7
  6
CONTINUOUS
 10
111.2328074765
 20
152.3589514598
 11
111.2328074765
 21
223.1387096628
  0
LINE
  5
232
100
AcDbEntity
  8
0
100
AcDbLine
 62
7
  6
CONTINUOUS
 10
119.8009190735
 20
221.6387096628
 11
115.516863275
 21
221.6387096628
  0
LINE
  5
233
100
AcDbEntity
  8
0
100
AcDbLine
 62
7
  6
CONTINUOUS
 10
111.2328074765
 20
221.6387096628
 11
115.516863275
 21
221.6387096628
  0
LINE
  5
234
100
AcDbEntity
  8
0
100
AcDbLine
 62
7
  6
CONTINUOUS
 10
115.516863275
 20
221.6387096628
 11
103.304194048
 21
221.6387096628
  0
INSERT
  5
235
100
AcDbEntity
  8
0
100
AcDbBlockReference
 62
7
  6
CONTINUOUS
  2
_FILLED
 10
119.8009190735
 20
221.6387096628
 41
3.0
 42
3.0
 43
3.0
  0
INSERT
  5
236
100
AcDbEntity
  8
0
100
AcDbBlockReference
 62
7
  6
CONTINUOUS
  2
_FILLED
 10
111.2328074765
 20
221.6387096628
 41
3.0
 42
3.0
 43
3.0
 50
180.0
  0
ENDBLK
  5
237
100
AcDbEntity
  8
0
  6
BYBLOCK
 62
0
100
AcDbBlockEnd
  0
ENDSEC
  0
SECTION
  2
ENTITIES
  0
DIMENSION
  5
238
100
AcDbEntity
  8
0
100
AcDbDimension
 62
7
  6
CONTINUOUS
  2
*D0
 10
350.6685128638
 20
221.6387096628
 11
242.4542271495
 21
223.8887096628
 70
160
 71
2
 42
210.0
  3
DIMSTYLE_1
100
AcDbAlignedDimension
 13
140.6685128638
 23
174.828138125
 14
350.6685128638
 24
174.828138125
100
AcDbRotatedDimension
  0
DIMENSION
  5
239
100
AcDbEntity
  8
0
100
AcDbDimension
 62
7
  6
CONTINUOUS
  2
*D1
 10
377.6516008316
 20
106.8589514598
 11
376.4577743553
 21
149.7516736099
 70
160
 71
2
 42
90.0
  3
DIMSTYLE_1
100
AcDbAlignedDimension
 13
349.1180856253
 23
196.8589514598
 14
351.5763049801
 24
106.8589514598
 50
270.0
100
AcDbRotatedDimension
  0
DIMENSION
  5
23A
100
AcDbEntity
  8
0
100
AcDbDimension
 62
7
  6
CONTINUOUS
  2
*D2
 10
111.2328074765
 20
221.6387096628
 11
100.0899083337
 21
223.8887096628
 70
160
 71
3
 42
8.5681115969
  3
DIMSTYLE_2
100
AcDbAlignedDimension
 13
119.8009190735
 23
194.9214823948
 14
111.2328074765
 24
152.3589514598
 50
180.0
100
AcDbRotatedDimension
  0
LWPOLYLINE
  5
23B
100
AcDbEntity
  8
0
100
AcDbPolyline
 62
253
  6
CONTINUOUS
 90
28
 70
0
 10
140.8031987429
 20
195.2589514273
 10
140.811480454
 20
195.2713492216
 10
140.823636814
 20
195.2836427798
 10
140.8396312132
 20
195.2957950794
 10
140.8594154829
 20
195.3077695236
 10
140.8829300412
 20
195.319530051
 10
140.910104072
 20
195.3310412445
 10
140.9408557386
 20
195.3422684376
 10
140.9750924296
 20
195.3531778196
 10
141.0127110385
 20
195.3637365366
 10
141.0535982736
 20
195.3739127907
 10
141.0976309996
 20
195.383675936
 10
141.1446766084
 20
195.3929965704
 10
141.194593418
 20
195.4018466247
 10
141.2472310999
 20
195.4101994467
 10
141.3024311313
 20
195.4180298817
 10
141.3600272727
 20
195.4253143482
 10
141.4198460685
 20
195.4320309088
 10
141.4817073693
 20
195.4381593364
 10
141.5454248749
 20
195.443681175
 10
141.6108066944
 20
195.4485797956
 10
141.6776559252
 20
195.4528404458
 10
141.7457712451
 20
195.4564502945
 10
141.8149475193
 20
195.4593984706
 10
141.8849764176
 20
195.4616760955
 10
141.955647042
 20
195.46327631
 10
142.0267465622
 20
195.4641942951
 10
142.098060856
 20
195.4644272861
  0
LWPOLYLINE
  5
23C
100
AcDbEntity
  8
0
100
AcDbPolyline
 62
253
  6
CONTINUOUS
 90
28
 70
0
 10
140.8031675705
 20
108.4610649141
 10
140.8114331998
 20
108.4486530052
 10
140.8235749386
 20
108.436339777
 10
140.8395562085
 20
108.4241623245
 10
140.8593288643
 20
108.4121573335
 10
140.8828333387
 20
108.4003609705
 10
140.9099988219
 20
108.3888087733
 10
140.940743475
 20
108.3775355442
 10
140.9749746762
 20
108.3665752449
 10
141.0125893005
 20
108.3559608946
 10
141.0534740297
 20
108.3457244702
 10
141.0975056941
 20
108.3358968101
 10
141.1445516435
 20
108.3265075211
 10
141.1944701469
 20
108.3175848896
 10
141.2471108194
 20
108.3091557959
 10
141.3023150752
 20
108.3012456337
 10
141.3599166055
 20
108.2938782331
 10
141.4197418795
 20
108.2870757893
 10
141.4816106671
 20
108.2808587954
 10
141.5453365817
 20
108.2752459807
 10
141.6107276422
 20
108.2702542546
 10
141.6775868509
 20
108.2658986551
 10
141.7457127871
 20
108.262192304
 10
141.8149002141
 20
108.2591463671
 10
141.8849406972
 20
108.2567700206
 10
141.955623232
 20
108.2550704235
 10
142.0267348794
 20
108.2540526961
 10
142.0980614082
 20
108.2537199044
  0
LWPOLYLINE
  5
23D
100
AcDbEntity
  8
0
100
AcDbPolyline
 62
7
  6
CONTINUOUS
 90
31
 70
0
 10
140.6685128638
 20
108.4589514598
 10
140.6707459817
 20
108.3744524075
 10
140.6774379172
 20
108.2901869601
 10
140.6885766164
 20
108.2063714892
 10
140.7041277822
 20
108.1232556663
 10
140.7240409457
 20
108.0410920058
 10
140.748265164
 20
107.9601112453
 10
140.7767157658
 20
107.8805582417
 10
140.8092983559
 20
107.8026802879
 10
140.8459146316
 20
107.7266869242
 10
140.8864541519
 20
107.6527792485
 10
140.9307885032
 20
107.5811775753
 10
140.9787641943
 20
107.5120911488
 10
141.0302322575
 20
107.4457072762
 10
141.0850508101
 20
107.3821870157
 10
141.1430706614
 20
107.3216830808
 10
141.2041271668
 20
107.264350555
 10
141.2680319652
 20
107.2103391537
 10
141.3346027253
 20
107.1597930034
 10
141.4036461839
 20
107.1128443276
 10
141.474957914
 20
107.0696097159
 10
141.5483444063
 20
107.030192048
 10
141.6236232112
 20
106.9946716332
 10
141.7005820743
 20
106.9631391348
 10
141.7789860847
 20
106.9356779606
 10
141.8586532876
 20
106.9123373661
 10
141.9393919028
 20
106.8931674478
 10
142.0209534286
 20
106.8782188969
 10
142.1031283182
 20
106.8675230868
 10
142.185725645
 20
106.8610963935
 10
142.2685128638
 20
106.8589514598
  0
LINE
  5
23E
100
AcDbEntity
  8
0
100
AcDbLine
 62
7
  6
CONTINUOUS
 10
140.6685128638
 20
195.2589514598
 11
140.6685128638
 21
108.4589514598
  0
LINE
  5
23F
100
AcDbEntity
  8
0
100
AcDbLine
 62
253
  6
CONTINUOUS
 10
140.8031675701
 20
108.4610651751
 11
140.800924254
 21
155.6053373438
  0
LINE
  5
240
100
AcDbEntity
  8
0
100
AcDbLine
 62
253
  6
CONTINUOUS
 10
142.0980614082
 20
108.253719904
 11
142.0960806906
 21
133.0827439929
  0
LINE
  5
241
100
AcDbEntity
  8
0
100
AcDbLine
 62
253
  6
CONTINUOUS
 10
142.2685128638
 20
106.8589514598
 11
142.2685128638
 21
108.082888354
  0
LINE
  5
242
100
AcDbEntity
  8
0
100
AcDbLine
 62
253
  6
CONTINUOUS
 10
142.2685128638
 20
195.6350145656
 11
142.2685128638
 21
196.8589514598
  0
LINE
  5
243
100
AcDbEntity
  8
0
100
AcDbLine
 62
253
  6
CONTINUOUS
 10
140.800924254
 20
155.6053373438
 11
140.803167598
 21
195.258553762
  0
LWPOLYLINE
  5
244
100
AcDbEntity
  8
0
100
AcDbPolyline
 62
253
  6
CONTINUOUS
 90
3
 70
0
 10
142.0960806906
 20
133.0827439929
 10
142.0962172854
 20
176.3562863138
 10
142.0980622264
 20
195.4644447046
  0
LWPOLYLINE
  5
245
100
AcDbEntity
  8
0
100
AcDbPolyline
 62
253
  6
CONTINUOUS
 90
31
 70
0
 10
142.0980622264
 20
195.4644447046
 10
142.0982988502
 20
195.4732397044
 10
142.0989871117
 20
195.4819870845
 10
142.100127011
 20
195.4906868463
 10
142.101722388
 20
195.4993662594
 10
142.1037694027
 20
195.5079980562
 10
142.1062565356
 20
195.5165004346
 10
142.1091878303
 20
195.5248698655
 10
142.1125592433
 20
195.533109885
 10
142.1163471237
 20
195.5411492926
 10
142.1205573908
 20
195.5489882252
 10
142.1251841253
 20
195.5566265562
 10
142.1301859188
 20
195.5639926935
 10
142.1355586919
 20
195.5710768649
 10
142.1413065239
 20
195.5778888554
 10
142.1474002448
 20
195.5843864113
 10
142.1538514286
 20
195.5905764324
 10
142.1606485014
 20
195.5964520317
 10
142.1677275714
 20
195.6019502764
 10
142.1750864134
 20
195.6070633838
 10
142.1827272526
 20
195.6117991497
 10
142.1905928733
 20
195.6161180104
 10
142.1986895395
 20
195.6200180822
 10
142.2070109872
 20
195.62350126
 10
142.2154812088
 20
195.6265336472
 10
142.2241030871
 20
195.6291105854
 10
142.2328737393
 20
195.6312367414
 10
142.2417085087
 20
195.6328922064
 10
142.2505791765
 20
195.6340703458
 10
142.2595139615
 20
195.6347777985
 10
142.2685128638
 20
195.6350145656
  0
LWPOLYLINE
  5
246
100
AcDbEntity
  8
0
100
AcDbPolyline
 62
253
  6
CONTINUOUS
 90
31
 70
0
 10
140.8031907857
 20
195.2585537001
 10
140.8063154645
 20
195.3344859769
 10
140.8133666347
 20
195.4101274616
 10
140.8243297326
 20
195.4852919338
 10
140.839170384
 20
195.5597421198
 10
140.8578400685
 20
195.6332842361
 10
140.8803045609
 20
195.7057886154
 10
140.9065053503
 20
195.7770577884
 10
140.936363208
 20
195.8468592108
 10
140.969801418
 20
195.9150273327
 10
141.0067341113
 20
195.9813838545
 10
141.0470605188
 20
196.0457306726
 10
141.0906604678
 20
196.1078982495
 10
141.1374217719
 20
196.1677236941
 10
141.1872250746
 20
196.225043861
 10
141.2399341877
 20
196.2797106927
 10
141.2954143199
 20
196.3315776498
 10
141.3535165601
 20
196.3805091407
 10
141.4140839623
 20
196.42637421
 10
141.4769556856
 20
196.4690411854
 10
141.5419553366
 20
196.5083912744
 10
141.608906877
 20
196.5443205471
 10
141.6776647349
 20
196.5767494134
 10
141.7480362599
 20
196.6055781376
 10
141.8197743121
 20
196.6307080296
 10
141.8927209182
 20
196.6520880936
 10
141.9667074775
 20
196.6696635093
 10
142.041468502
 20
196.6833744168
 10
142.1168021272
 20
196.6931883735
 10
142.1925534825
 20
196.6990881864
 10
142.2685128638
 20
196.7010575625
  0
LINE
  5
247
100
AcDbEntity
  8
0
100
AcDbLine
 62
253
  6
CONTINUOUS
 10
165.4685128638
 20
130.0459360821
 11
165.4685128638
 21
173.6719668376
  0
LINE
  5
248
100
AcDbEntity
  8
0
100
AcDbLine
 62
7
  6
CONTINUOUS
 10
166.7685128638
 20
130.1089510138
 11
166.7685128638
 21
173.6089518371
  0
LWPOLYLINE
  5
249
100
AcDbEntity
  8
0
100
AcDbPolyline
 62
253
  6
CONTINUOUS
 90
16
 70
0
 10
165.4685128638
 20
173.6719668376
 10
165.4687994599
 20
173.714633916
 10
165.4701729785
 20
173.7585900251
 10
165.4726334196
 20
173.8038351461
 10
165.4760577608
 20
173.8502435598
 10
165.4805690244
 20
173.8979409473
 10
165.4865362781
 20
173.9473043829
 10
165.4939402012
 20
173.9984846604
 10
165.5028001142
 20
174.0513309281
 10
165.5135430462
 20
174.1057677865
 10
165.5261565963
 20
174.1618394142
 10
165.5406531653
 20
174.2195015723
 10
165.5574969843
 20
174.2785462389
 10
165.5768427971
 20
174.3389040562
 10
165.59853586
 20
174.400644326
 10
165.622576173
 20
174.4637670184
  0
LWPOLYLINE
  5
24A
100
AcDbEntity
  8
0
100
AcDbPolyline
 62
253
  6
CONTINUOUS
 90
28
 70
0
 10
165.622576173
 20
174.4637670184
 10
165.6587283712
 20
174.548359654
 10
165.6985164466
 20
174.6312168765
 10
165.7419403992
 20
174.7123387967
 10
165.7890935228
 20
174.7919256172
 10
165.8398825235
 20
174.8697773463
 10
165.8940275201
 20
174.9452938467
 10
165.9515615054
 20
175.0184488694
 10
166.0124514866
 20
175.0892689649
 10
166.076318604
 20
175.1572332709
 10
166.1431893366
 20
175.2223119294
 10
166.2130372054
 20
175.284535148
 10
166.2854039143
 20
175.343472216
 10
166.3603091346
 20
175.3990912697
 10
166.437733195
 20
175.4514245341
 10
166.5171587848
 20
175.5001374623
 10
166.5986104473
 20
175.5451998887
 10
166.6820636393
 20
175.586642315
 10
166.7669274208
 20
175.6242212067
 10
166.8532276053
 20
175.6578990404
 10
166.9409383793
 20
175.6877136186
 10
167.0293913621
 20
175.7135343883
 10
167.1185802792
 20
175.7353129311
 10
167.2085114051
 20
175.7530978613
 10
167.2985351823
 20
175.7669041553
 10
167.3884350915
 20
175.7767368376
 10
167.478427652
 20
175.782590981
 10
167.5685128638
 20
175.7844666097
  0
LWPOLYLINE
  5
24B
100
AcDbEntity
  8
0
100
AcDbPolyline
 62
253
  6
CONTINUOUS
 90
16
 70
0
 10
165.622576173
 20
129.2541359013
 10
165.5991365371
 20
129.3154924678
 10
165.5779015683
 20
129.3757114915
 10
165.5588712665
 20
129.4347929486
 10
165.5421738429
 20
129.4928188972
 10
165.5276810863
 20
129.5497072339
 10
165.5150083629
 20
129.6052116875
 10
165.5041562878
 20
129.6592318626
 10
165.4951242458
 20
129.7118681018
 10
165.4875257577
 20
129.7631752388
 10
165.4813339835
 20
129.8130707729
 10
165.4765757631
 20
129.8616371585
 10
165.4729451369
 20
129.9091766685
 10
165.4703401184
 20
129.955790052
 10
165.468862694
 20
130.0013765284
 10
165.4685128638
 20
130.0459360821
  0
LINE
  5
24C
100
AcDbEntity
  8
0
100
AcDbLine
 62
253
  6
CONTINUOUS
 10
167.5685128637
 20
175.7844666097
 11
167.5685128638
 21
174.4089514598
  0
LINE
  5
24D
100
AcDbEntity
  8
0
100
AcDbLine
 62
253
  6
CONTINUOUS
 10
167.5685128638
 20
127.9334363099
 11
167.5685128638
 21
129.3089514598
  0
LWPOLYLINE
  5
24E
100
AcDbEntity
  8
0
100
AcDbPolyline
 62
253
  6
CONTINUOUS
 90
16
 70
0
 10
140.8010912505
 20
174.4042152476
 10
140.8092751512
 20
174.4077786609
 10
140.8213425269
 20
174.4113139651
 10
140.8372569605
 20
174.4148104914
 10
140.8569704255
 20
174.4182576879
 10
140.8804234306
 20
174.4216451517
 10
140.9075451993
 20
174.42496266
 10
140.9382538837
 20
174.4282002014
 10
140.9724568109
 20
174.4313480056
 10
141.0100507635
 20
174.434396573
 10
141.0509222905
 20
174.4373367038
 10
141.0949480498
 20
174.4401595253
 10
141.1419951804
 20
174.4428565187
 10
141.1919217036
 20
174.445419545
 10
141.2445769511
 20
174.4478408696
 10
141.2998020201
 20
174.4501131853
  0
LWPOLYLINE
  5
24F
100
AcDbEntity
  8
0
100
AcDbPolyline
 62
253
  6
CONTINUOUS
 90
16
 70
0
 10
140.8010889174
 20
174.328138125
 10
140.8092726886
 20
174.3316897324
 10
140.8213399464
 20
174.3352134242
 10
140.837254274
 20
174.3386985667
 10
140.8569676451
 20
174.3421346424
 10
140.8804205686
 20
174.3455112818
 10
140.907542268
 20
174.348818295
 10
140.9382508952
 20
174.3520457019
 10
140.9724537776
 20
174.355183763
 10
141.0100476973
 20
174.358223008
 10
141.0509192033
 20
174.3611542653
 10
141.0949449531
 20
174.3639686887
 10
141.1419920855
 20
174.3666577849
 10
141.1919186213
 20
174.3692134388
 10
141.2445738919
 20
174.3716279379
 10
141.2997989937
 20
174.3738939956
  0
LWPOLYLINE
  5
250
100
AcDbEntity
  8
0
100
AcDbPolyline
 62
253
  6
CONTINUOUS
 90
18
 70
0
 10
140.8010889179
 20
129.3897647946
 10
140.8092726894
 20
129.3862131873
 10
140.8213399474
 20
129.3826894955
 10
140.8372542752
 20
129.379204353
 10
140.8569676466
 20
129.3757682773
 10
140.8804205702
 20
129.3723916379
 10
140.9075422697
 20
129.3690846247
 10
140.9382508971
 20
129.3658572178
 10
140.9724537795
 20
129.3627191568
 10
141.0100476994
 20
129.3596799117
 10
141.0509192054
 20
129.3567486545
 10
141.0949449552
 20
129.3539342311
 10
141.1419920876
 20
129.3512451349
 10
141.1919186234
 20
129.348689481
 10
141.2445738939
 20
129.346274982
 10
141.2997989956
 20
129.3440089243
 10
141.3574272699
 20
129.3418981464
 10
141.4791909641
 20
129.3381674222
  0
LWPOLYLINE
  5
251
100
AcDbEntity
  8
0
100
AcDbPolyline
 62
253
  6
CONTINUOUS
 90
18
 70
0
 10
140.8010912501
 20
129.3136876721
 10
140.8092751507
 20
129.3101242587
 10
140.8213425261
 20
129.3065889545
 10
140.8372569596
 20
129.3030924282
 10
140.8569704244
 20
129.2996452317
 10
140.8804234294
 20
129.2962577679
 10
140.907545198
 20
129.2929402595
 10
140.9382538822
 20
129.2897027182
 10
140.9724568094
 20
129.286554914
 10
141.0100507619
 20
129.2835063465
 10
141.0509222889
 20
129.2805662157
 10
141.0949480481
 20
129.2777433942
 10
141.1419951787
 20
129.2750464008
 10
141.191921702
 20
129.2724833745
 10
141.2445769496
 20
129.2700620499
 10
141.2998020185
 20
129.2677897341
 10
141.3574302507
 20
129.2656732846
 10
141.4791938354
 20
129.2619330427
  0
LWPOLYLINE
  5
252
100
AcDbEntity
  8
0
100
AcDbPolyline
 62
7
  6
CONTINUOUS
 90
31
 70
0
 10
349.0685128638
 20
106.8589514598
 10
349.1513006876
 20
106.8610964154
 10
349.2338985941
 20
106.8675231997
 10
349.3160741204
 20
106.8782191994
 10
349.3976362666
 20
106.8931679982
 10
349.4783750362
 20
106.9123380558
 10
349.5580414867
 20
106.9356785067
 10
349.6364449478
 20
106.9631396024
 10
349.7134037653
 20
106.9946721881
 10
349.7886820363
 20
107.0301924108
 10
349.8620679761
 20
107.0696098098
 10
349.9333797605
 20
107.1128444294
 10
350.0024230795
 20
107.159793028
 10
350.0689933916
 20
107.2103388822
 10
350.1328981305
 20
107.2643502069
 10
350.1939550869
 20
107.3216831018
 10
350.2519752881
 20
107.382187457
 10
350.3067937579
 20
107.4457076619
 10
350.3582616231
 20
107.5120912386
 10
350.4062372969
 20
107.5811776332
 10
350.4505716409
 20
107.6527793584
 10
350.4911109271
 20
107.72668661
 10
350.5277270686
 20
107.8026796333
 10
350.5603097248
 20
107.8805575732
 10
350.5887601866
 20
107.9601099487
 10
350.6129842235
 20
108.0410899373
 10
350.6328974977
 20
108.1232537258
 10
350.64844886
 20
108.206370004
 10
350.6595877034
 20
108.2901858768
 10
350.6662797204
 20
108.3744517968
 10
350.6685128638
 20
108.4589514598
  0
LWPOLYLINE
  5
253
100
AcDbEntity
  8
0
100
AcDbPolyline
 62
253
  6
CONTINUOUS
 90
31
 70
0
 10
142.2685128638
 20
107.0168453571
 10
142.1924925897
 20
107.0188179157
 10
142.1166788141
 20
107.0247273977
 10
142.0412818641
 20
107.0345577563
 10
141.9664566588
 20
107.0482921501
 10
141.8924054824
 20
107.0658984876
 10
141.8193949775
 20
107.0873169127
 10
141.7475953413
 20
107.1124922682
 10
141.6771653885
 20
107.1413734556
 10
141.6083528802
 20
107.1738615437
 10
141.5413514653
 20
107.2098563329
 10
141.4763077416
 20
107.2492775587
 10
141.4133982333
 20
107.2920207703
 10
141.3527999025
 20
107.3379666037
 10
141.2946743227
 20
107.3869823442
 10
141.2391789257
 20
107.4389363894
 10
141.1864620944
 20
107.4936931175
 10
141.1366581458
 20
107.5511062913
 10
141.08990346
 20
107.6110275894
 10
141.046318014
 20
107.6732926308
 10
141.0060143713
 20
107.7377379958
 10
140.9691126111
 20
107.8041938819
 10
140.9357138739
 20
107.8724610081
 10
140.905904285
 20
107.9423602458
 10
140.8797601213
 20
108.0137258282
 10
140.8573569477
 20
108.0863381931
 10
140.8387586212
 20
108.1599845561
 10
140.8240064656
 20
108.2344917326
 10
140.8131438766
 20
108.3096502101
 10
140.8061945006
 20
108.385236801
 10
140.8031659748
 20
108.4610651501
  0
LWPOLYLINE
  5
254
100
AcDbEntity
  8
0
100
AcDbPolyline
 62
253
  6
CONTINUOUS
 90
31
 70
0
 10
142.2685128638
 20
108.082888354
 10
142.2595107255
 20
108.0831247457
 10
142.2505717277
 20
108.083832738
 10
142.2416958704
 20
108.0850123319
 10
142.2328546388
 20
108.0866701913
 10
142.2240765478
 20
108.0887996566
 10
142.2154471411
 20
108.0913807454
 10
142.2069694447
 20
108.0944180424
 10
142.1986404328
 20
108.0979069712
 10
142.1905365711
 20
108.1018138076
 10
142.1826640187
 20
108.1061407353
 10
142.1750166166
 20
108.1108855819
 10
142.1676523541
 20
108.1160080896
 10
142.1605693023
 20
108.1215158612
 10
142.15376939
 20
108.1274013069
 10
142.1473163933
 20
108.1336013788
 10
142.1412219637
 20
108.1401090463
 10
142.1354744497
 20
108.1469313528
 10
142.1301026733
 20
108.1540263588
 10
142.1251023032
 20
108.1614041442
 10
142.1204776707
 20
108.169054642
 10
142.1162705914
 20
108.1769056906
 10
142.1124871276
 20
108.1849571591
 10
142.109121217
 20
108.1932091887
 10
142.1061964879
 20
108.201590022
 10
142.1037170674
 20
108.2101022832
 10
142.1016788284
 20
108.2187433551
 10
142.1000930182
 20
108.2274336147
 10
142.098963386
 20
108.2361465208
 10
142.0982861827
 20
108.2449086168
 10
142.0980614082
 20
108.253719904
  0
LINE
  5
255
100
AcDbEntity
  8
0
100
AcDbLine
 62
253
  6
CONTINUOUS
 10
140.8031675701
 20
108.4610651751
 11
140.6685128638
 21
108.4589514598
  0
LINE
  5
256
100
AcDbEntity
  8
0
100
AcDbLine
 62
7
  6
CONTINUOUS
 10
142.2685128638
 20
106.8589514598
 11
349.0685128638
 21
106.8589514598
  0
LINE
  5
257
100
AcDbEntity
  8
0
100
AcDbLine
 62
253
  6
CONTINUOUS
 10
349.0685128638
 20
107.0168453571
 11
142.2685128638
 21
107.0168453571
  0
LINE
  5
258
100
AcDbEntity
  8
0
100
AcDbLine
 62
253
  6
CONTINUOUS
 10
349.0685128638
 20
108.082888354
 11
142.2685128638
 21
108.082888354
  0
LINE
  5
259
100
AcDbEntity
  8
0
100
AcDbLine
 62
253
  6
CONTINUOUS
 10
350.5338581302
 20
108.4593491576
 11
350.6685128638
 21
108.4589514598
  0
LWPOLYLINE
  5
25A
100
AcDbEntity
  8
0
100
AcDbPolyline
 62
7
  6
CONTINUOUS
 90
22
 70
0
 10
248.9885316661
 20
125.7481441188
 10
249.0768079217
 20
125.7608686232
 10
249.1630768964
 20
125.7722587814
 10
249.24733859
 20
125.782314574
 10
249.329564458
 20
125.7910779588
 10
249.409783045
 20
125.7985069464
 10
249.4880799853
 20
125.8044755991
 10
249.5644940026
 20
125.8089421242
 10
249.6389863731
 20
125.8119482948
 10
249.7115265593
 20
125.8134935249
 10
249.7820699219
 20
125.8135500275
 10
249.8506611001
 20
125.8121455866
 10
249.9174034746
 20
125.8093629773
 10
249.9823583144
 20
125.8052643186
 10
250.0454643504
 20
125.7997875034
 10
250.106641156
 20
125.7928289721
 10
250.1659458485
 20
125.7843945111
 10
250.2233213107
 20
125.7744783631
 10
250.2785157641
 20
125.7629596599
 10
250.3314452826
 20
125.7497981295
 10
250.3821937925
 20
125.7350340949
 10
250.4307612936
 20
125.7186675864
  0
LWPOLYLINE
  5
25B
100
AcDbEntity
  8
0
100
AcDbPolyline
 62
7
  6
CONTINUOUS
 90
31
 70
0
 10
249.885193507
 20
124.5353233732
 10
249.9105705489
 20
124.5361569837
 10
249.9357217223
 20
124.5378074222
 10
249.9606470272
 20
124.5402746907
 10
249.985472166
 20
124.5435281555
 10
250.0100714363
 20
124.5475984567
 10
250.0340677311
 20
124.5525775088
 10
250.0574050987
 20
124.5584682286
 10
250.0801394909
 20
124.5652677131
 10
250.1020616561
 20
124.5730591496
 10
250.1231494953
 20
124.5818333669
 10
250.1434251075
 20
124.591599559
 10
250.1627455377
 20
124.6024684657
 10
250.1810780575
 20
124.6144519167
 10
250.1984553954
 20
124.6275381176
 10
250.2148327815
 20
124.6418023764
 10
250.230175441
 20
124.6573015745
 10
250.2445181488
 20
124.6739788801
 10
250.2579204601
 20
124.6917390341
 10
250.2704130583
 20
124.7105944645
 10
250.2819652601
 20
124.7305327982
 10
250.2925445712
 20
124.7514215709
 10
250.3021827272
 20
124.7733101047
 10
250.3108479925
 20
124.796149134
 10
250.3184126659
 20
124.8196583022
 10
250.3248811383
 20
124.8438945623
 10
250.3302490187
 20
124.8688010055
 10
250.3343754334
 20
124.8939264587
 10
250.3372134243
 20
124.9191205285
 10
250.3388099495
 20
124.9445336188
 10
250.3391650089
 20
124.9701657365
  0
LWPOLYLINE
  5
25C
100
AcDbEntity
  8
0
100
AcDbPolyline
 62
253
  6
CONTINUOUS
 90
3
 70
0
 10
350.0372237081
 20
129.2677897343
 10
349.9197379911
 20
129.2637190885
 10
349.8578318914
 20
129.2619330428
  0
LWPOLYLINE
  5
25D
100
AcDbEntity
  8
0
100
AcDbPolyline
 62
253
  6
CONTINUOUS
 90
3
 70
0
 10
350.037226734
 20
129.3440089241
 10
349.9197409239
 20
129.3399490181
 10
349.8578347652
 20
129.3381674219
  0
LINE
  5
25E
100
AcDbEntity
  8
0
100
AcDbLine
 62
7
  6
CONTINUOUS
 10
241.0524058638
 20
122.9811504598
 11
241.5674158638
 21
122.9811504598
  0
LINE
  5
25F
100
AcDbEntity
  8
0
100
AcDbLine
 62
7
  6
CONTINUOUS
 10
242.6842278638
 20
122.9811504598
 11
243.2686358638
 21
122.9811504598
  0
LINE
  5
260
100
AcDbEntity
  8
0
100
AcDbLine
 62
7
  6
CONTINUOUS
 10
243.5832408638
 20
122.9811504598
 11
244.1423298638
 21
122.9811504598
  0
LINE
  5
261
100
AcDbEntity
  8
0
100
AcDbLine
 62
7
  6
CONTINUOUS
 10
244.9540258638
 20
122.9811504598
 11
245.0359888638
 21
122.9811504598
  0
LINE
  5
262
100
AcDbEntity
  8
0
100
AcDbLine
 62
7
  6
CONTINUOUS
 10
245.8509188638
 20
122.9811504598
 11
246.4226248638
 21
122.9811504598
  0
LINE
  5
263
100
AcDbEntity
  8
0
100
AcDbLine
 62
7
  6
CONTINUOUS
 10
246.5143928638
 20
122.9811504598
 11
247.0924598638
 21
122.9811504598
  0
LINE
  5
264
100
AcDbEntity
  8
0
100
AcDbLine
 62
7
  6
CONTINUOUS
 10
248.2009788638
 20
122.9811504598
 11
248.8169208638
 21
122.9811504598
  0
LINE
  5
265
100
AcDbEntity
  8
0
100
AcDbLine
 62
7
  6
CONTINUOUS
 10
248.9885316661
 20
122.9811501055
 11
249.5705882087
 21
122.9811501055
  0
LINE
  5
266
100
AcDbEntity
  8
0
100
AcDbLine
 62
7
  6
CONTINUOUS
 10
250.4655284857
 20
122.9811501055
 11
251.0276610758
 21
122.9811501055
  0
LINE
  5
267
100
AcDbEntity
  8
0
100
AcDbLine
 62
7
  6
CONTINUOUS
 10
247.2537198638
 20
123.5400704598
 11
248.0495868638
 21
123.5400704598
  0
LINE
  5
268
100
AcDbEntity
  8
0
100
AcDbLine
 62
7
  6
CONTINUOUS
 10
247.3732638638
 20
123.9725604598
 11
247.9327928638
 21
123.9725604598
  0
LINE
  5
269
100
AcDbEntity
  8
0
100
AcDbLine
 62
7
  6
CONTINUOUS
 10
249.5705882087
 20
124.0767995351
 11
249.8839338261
 21
124.0767995351
  0
LINE
  5
26A
100
AcDbEntity
  8
0
100
AcDbLine
 62
7
  6
CONTINUOUS
 10
249.5512101179
 20
124.5353233732
 11
249.885193507
 21
124.5353233732
  0
LINE
  5
26B
100
AcDbEntity
  8
0
100
AcDbLine
 62
7
  6
CONTINUOUS
 10
240.1648448638
 20
125.7808534598
 11
240.7996928638
 21
125.7808534598
  0
LINE
  5
26C
100
AcDbEntity
  8
0
100
AcDbLine
 62
7
  6
CONTINUOUS
 10
241.8833438638
 20
125.7808534598
 11
242.4673528638
 21
125.7808534598
  0
LINE
  5
26D
100
AcDbEntity
  8
0
100
AcDbLine
 62
7
  6
CONTINUOUS
 10
243.8360378638
 20
125.7808534598
 11
244.4199628638
 21
125.7808534598
  0
LINE
  5
26E
100
AcDbEntity
  8
0
100
AcDbLine
 62
7
  6
CONTINUOUS
 10
245.5826068638
 20
125.7808534598
 11
246.1608208638
 21
125.7808534598
  0
LINE
  5
26F
100
AcDbEntity
  8
0
100
AcDbLine
 62
7
  6
CONTINUOUS
 10
247.3925578638
 20
125.7808534598
 11
247.9579028638
 21
125.7808534598
  0
LINE
  5
270
100
AcDbEntity
  8
0
100
AcDbLine
 62
7
  6
CONTINUOUS
 10
242.6842278638
 20
125.7810214598
 11
243.2686358638
 21
125.7810214598
  0
LWPOLYLINE
  5
271
100
AcDbEntity
  8
0
100
AcDbPolyline
 62
253
  6
CONTINUOUS
 90
28
 70
0
 10
167.5685128638
 20
127.9334363099
 10
167.4784379547
 20
127.9353244406
 10
167.3885125262
 20
127.9411699182
 10
167.2987365784
 20
127.9509727669
 10
167.2089418436
 20
127.9647168473
 10
167.1192965894
 20
127.9824183952
 10
167.0303056191
 20
128.0041260222
 10
166.9418856518
 20
128.0299030047
 10
166.8541199684
 20
128.0596862627
 10
166.767763215
 20
128.093334893
 10
166.6828709057
 20
128.1308823556
 10
166.5993875264
 20
128.1722954695
 10
166.5179011812
 20
128.217333377
 10
166.4384346089
 20
128.2660272375
 10
166.3609650708
 20
128.318346228
 10
166.2860124547
 20
128.3739565075
 10
166.2135984991
 20
128.4328881075
 10
166.1437014655
 20
128.4951113583
 10
166.0767760264
 20
128.5602028353
 10
166.0128442992
 20
128.6281972342
 10
165.9518841665
 20
128.6990602109
 10
165.8942839485
 20
128.7722647281
 10
165.8400783195
 20
128.84783821
 10
165.7892326052
 20
128.9257535352
 10
165.7420311036
 20
129.0054017698
 10
165.6985685807
 20
129.08657999
 10
165.6587502705
 20
129.1694913302
 10
165.622576173
 20
129.2541359013
  0
LWPOLYLINE
  5
272
100
AcDbEntity
  8
0
100
AcDbPolyline
 62
7
  6
CONTINUOUS
 90
10
 70
0
 10
250.009026294
 20
125.3203792109
 10
249.9605327508
 20
125.3252901729
 10
249.9113859919
 20
125.3285346213
 10
249.8615860171
 20
125.3301125489
 10
249.8110535123
 20
125.3300493815
 10
249.7598677918
 20
125.3283196901
 10
249.7082667978
 20
125.3248471913
 10
249.6563298446
 20
125.319606464
 10
249.6039776179
 20
125.3126229495
 10
249.5512101179
 20
125.3038966639
  0
LWPOLYLINE
  5
273
100
AcDbEntity
  8
0
100
AcDbPolyline
 62
253
  6
CONTINUOUS
 90
17
 70
0
 10
166.2448190363
 20
130.0584053639
 10
166.3041367595
 20
130.0606788799
 10
166.360626996
 20
130.0631157351
 10
166.4140986007
 20
130.0657076839
 10
166.4643706424
 20
130.0684459559
 10
166.5112730167
 20
130.0713212857
 10
166.5546470207
 20
130.0743239441
 10
166.5943458905
 20
130.077443771
 10
166.6302352977
 20
130.08067021
 10
166.6621938039
 20
130.0839923438
 10
166.6901132717
 20
130.0873989314
 10
166.7138992305
 20
130.0908784458
 10
166.733471196
 20
130.0944191137
 10
166.748762943
 20
130.0980089544
 10
166.759722729
 20
130.101635821
 10
166.7663134696
 20
130.1052874415
 10
166.7685128638
 20
130.1089514598
  0
LINE
  5
274
100
AcDbEntity
  8
0
100
AcDbLine
 62
253
  6
CONTINUOUS
 10
166.1185128671
 20
130.0543785419
 11
166.2448190363
 21
130.0584053639
  0
LINE
  5
275
100
AcDbEntity
  8
0
100
AcDbLine
 62
253
  6
CONTINUOUS
 10
165.9834165627
 20
130.051089725
 11
166.1185128671
 21
130.0543785419
  0
LINE
  5
276
100
AcDbEntity
  8
0
100
AcDbLine
 62
253
  6
CONTINUOUS
 10
349.8578318914
 20
129.2619330428
 11
349.7286267467
 21
129.2588864393
  0
LINE
  5
277
100
AcDbEntity
  8
0
100
AcDbLine
 62
253
  6
CONTINUOUS
 10
349.8578347652
 20
129.3381674219
 11
349.7286294809
 21
129.3351278094
  0
LINE
  5
278
100
AcDbEntity
  8
0
100
AcDbLine
 62
253
  6
CONTINUOUS
 10
165.8413570688
 20
130.0485833888
 11
165.9834165627
 21
130.051089725
  0
LINE
  5
279
100
AcDbEntity
  8
0
100
AcDbLine
 62
253
  6
CONTINUOUS
 10
349.7286267467
 20
129.2588864393
 11
349.5935385259
 21
129.2565702227
  0
LINE
  5
27A
100
AcDbEntity
  8
0
100
AcDbLine
 62
253
  6
CONTINUOUS
 10
349.7286294809
 20
129.3351278094
 11
349.5935410971
 21
129.3328159727
  0
LINE
  5
27B
100
AcDbEntity
  8
0
100
AcDbLine
 62
253
  6
CONTINUOUS
 10
165.6942554965
 20
130.0468934272
 11
165.8413570688
 21
130.0485833888
  0
LINE
  5
27C
100
AcDbEntity
  8
0
100
AcDbLine
 62
253
  6
CONTINUOUS
 10
349.5935385259
 20
129.2565702227
 11
349.4541966754
 21
129.2550123314
  0
LINE
  5
27D
100
AcDbEntity
  8
0
100
AcDbLine
 62
253
  6
CONTINUOUS
 10
349.5935410971
 20
129.3328159727
 11
349.4541990663
 21
129.3312597977
  0
LINE
  5
27E
100
AcDbEntity
  8
0
100
AcDbLine
 62
253
  6
CONTINUOUS
 10
349.4541966754
 20
129.2550123314
 11
349.3122819493
 21
129.2542315568
  0
LWPOLYLINE
  5
27F
100
AcDbEntity
  8
0
100
AcDbPolyline
 62
253
  6
CONTINUOUS
 90
3
 70
0
 10
349.4541990663
 20
129.3312597977
 10
349.3122841494
 20
129.330478055
 10
349.2408961455
 20
129.3303809112
  0
LWPOLYLINE
  5
280
100
AcDbEntity
  8
0
100
AcDbPolyline
 62
253
  6
CONTINUOUS
 90
3
 70
0
 10
165.4685128638
 20
130.0459360821
 10
165.544101142
 20
130.0460426941
 10
165.6942554965
 20
130.0468934272
  0
LINE
  5
281
100
AcDbEntity
  8
0
100
AcDbLine
 62
253
  6
CONTINUOUS
 10
323.7685128638
 20
127.9334363099
 11
167.5685128638
 21
127.9334363099
  0
LINE
  5
282
100
AcDbEntity
  8
0
100
AcDbLine
 62
253
  6
CONTINUOUS
 10
349.3122819493
 20
129.2542315568
 11
325.7144495547
 21
129.2541359013
  0
LINE
  5
283
100
AcDbEntity
  8
0
100
AcDbLine
 62
7
  6
CONTINUOUS
 10
323.7685295327
 20
129.3089514598
 11
167.5685004805
 21
129.3089514598
  0
LINE
  5
284
100
AcDbEntity
  8
0
100
AcDbLine
 62
253
  6
CONTINUOUS
 10
350.6685128638
 20
129.3897647946
 11
350.5359368103
 21
129.3897647946
  0
LINE
  5
285
100
AcDbEntity
  8
0
100
AcDbLine
 62
253
  6
CONTINUOUS
 10
140.6685128638
 20
129.3897647946
 11
140.8010889174
 21
129.3897647946
  0
LINE
  5
286
100
AcDbEntity
  8
0
100
AcDbLine
 62
253
  6
CONTINUOUS
 10
141.9535713058
 20
129.2545239942
 11
165.622576173
 21
129.2541359013
  0
LINE
  5
287
100
AcDbEntity
  8
0
100
AcDbLine
 62
253
  6
CONTINUOUS
 10
141.95356901
 20
129.3307713124
 11
142.0961295821
 21
129.3303809115
  0
LINE
  5
288
100
AcDbEntity
  8
0
100
AcDbLine
 62
253
  6
CONTINUOUS
 10
325.8685128638
 20
130.0459360821
 11
325.717592075
 21
130.0463621695
  0
LINE
  5
289
100
AcDbEntity
  8
0
100
AcDbLine
 62
253
  6
CONTINUOUS
 10
141.8127305026
 20
129.2556950942
 11
141.9535713058
 21
129.2545239942
  0
LINE
  5
28A
100
AcDbEntity
  8
0
100
AcDbLine
 62
253
  6
CONTINUOUS
 10
141.8127280211
 20
129.3319420378
 11
141.95356901
 21
129.3307713124
  0
LINE
  5
28B
100
AcDbEntity
  8
0
100
AcDbLine
 62
253
  6
CONTINUOUS
 10
325.717592075
 20
130.0463621695
 11
325.568712231
 21
130.0476346697
  0
LINE
  5
28C
100
AcDbEntity
  8
0
100
AcDbLine
 62
253
  6
CONTINUOUS
 10
141.6753081102
 20
129.2576350754
 11
141.8127305026
 21
129.2556950942
  0
LINE
  5
28D
100
AcDbEntity
  8
0
100
AcDbLine
 62
253
  6
CONTINUOUS
 10
141.6753054567
 20
129.3338789662
 11
141.8127280211
 21
129.3319420378
  0
LINE
  5
28E
100
AcDbEntity
  8
0
100
AcDbLine
 62
253
  6
CONTINUOUS
 10
325.568712231
 20
130.0476346697
 11
325.4238866763
 21
130.0497363744
  0
LINE
  5
28F
100
AcDbEntity
  8
0
100
AcDbLine
 62
253
  6
CONTINUOUS
 10
325.4238866763
 20
130.0497363744
 11
325.2850739281
 21
130.0526388614
  0
LWPOLYLINE
  5
290
100
AcDbEntity
  8
0
100
AcDbPolyline
 62
253
  6
CONTINUOUS
 90
3
 70
0
 10
141.4791938354
 20
129.2619330427
 10
141.5429617299
 20
129.2603205376
 10
141.6753081102
 20
129.2576350754
  0
LWPOLYLINE
  5
291
100
AcDbEntity
  8
0
100
AcDbPolyline
 62
253
  6
CONTINUOUS
 90
3
 70
0
 10
141.4791909641
 20
129.3381674222
 10
141.5429589248
 20
129.3365587343
 10
141.6753054567
 20
129.3338789662
  0
LWPOLYLINE
  5
292
100
AcDbEntity
  8
0
100
AcDbPolyline
 62
253
  6
CONTINUOUS
 90
19
 70
0
 10
325.2850739281
 20
130.0526388614
 10
325.1541511908
 20
130.0563028798
 10
325.092206693
 20
130.0584053639
 10
325.0328889696
 20
130.0606788799
 10
324.976398733
 20
130.0631157351
 10
324.9229271283
 20
130.0657076839
 10
324.8726550863
 20
130.0684459559
 10
324.8257527119
 20
130.0713212857
 10
324.7823787078
 20
130.0743239441
 10
324.7426798379
 20
130.077443771
 10
324.7067904305
 20
130.08067021
 10
324.6748319241
 20
130.0839923438
 10
324.6469124562
 20
130.0873989314
 10
324.6231264974
 20
130.0908784458
 10
324.6035545318
 20
130.0944191137
 10
324.5882627847
 20
130.0980089544
 10
324.5773029987
 20
130.101635821
 10
324.5707122581
 20
130.1052874415
 10
324.5685128638
 20
130.1089514598
  0
LWPOLYLINE
  5
293
100
AcDbEntity
  8
0
100
AcDbPolyline
 62
7
  6
CONTINUOUS
 90
51
 70
0
 10
250.4307612936
 20
125.7186675864
 10
250.4602527671
 20
125.7068521583
 10
250.4900754958
 20
125.6925338658
 10
250.5202294795
 20
125.675712755
 10
250.5508449461
 20
125.6564868024
 10
250.5817916677
 20
125.6347581461
 10
250.6126789613
 20
125.6102330947
 10
250.6437675224
 20
125.5828095122
 10
250.6747966554
 20
125.5525897257
 10
250.7045935901
 20
125.5195867621
 10
250.7331561919
 20
125.4835340776
 10
250.7604865953
 20
125.4446984769
 10
250.7854184344
 20
125.4038929836
 10
250.8077427887
 20
125.3609554035
 10
250.8276685787
 20
125.3160481586
 10
250.8446561986
 20
125.270471088
 10
250.858398491
 20
125.2240921946
 10
250.8692026134
 20
125.1770435697
 10
250.8774504327
 20
125.1310210044
 10
250.8830172409
 20
125.0863623981
 10
250.886027746
 20
125.0427297198
 10
250.8872379391
 20
125.0008047202
 10
250.8867384616
 20
124.9608489648
 10
250.8844386721
 20
124.9226006939
 10
250.8808226368
 20
124.8859566408
 10
250.8759234746
 20
124.8509199382
 10
250.8697080667
 20
124.8174872994
 10
250.8625611232
 20
124.7855458437
 10
250.8545004523
 20
124.7550999518
 10
250.8455082458
 20
124.7261451168
 10
250.8359157893
 20
124.6985551416
 10
250.8257535855
 20
124.6723394349
 10
250.8149911317
 20
124.6474884871
 10
250.8038682061
 20
124.6238477377
 10
250.7924103744
 20
124.6014087658
 10
250.7805920708
 20
124.5801799154
 10
250.7685763766
 20
124.5600317855
 10
250.7563779072
 20
124.5409617475
 10
250.7439820471
 20
124.5229723711
 10
250.7315080314
 20
124.5059420618
 10
250.7189497873
 20
124.4898863644
 10
250.7063133876
 20
124.4747896896
 10
250.6937362864
 20
124.4604837502
 10
250.6812256678
 20
124.4469739839
 10
250.6687743478
 20
124.4342549222
 10
250.6564982284
 20
124.4221419273
 10
250.6444127374
 20
124.4106195344
 10
250.6325024471
 20
124.3997031883
 10
250.6208369763
 20
124.3892546214
 10
250.6094398374
 20
124.3792566764
 10
250.598287518
 20
124.3697264974
  0
LWPOLYLINE
  5
294
100
AcDbEntity
  8
0
100
AcDbPolyline
 62
7
  6
CONTINUOUS
 90
3
 70
0
 10
250.4910160287
 20
124.288027023
 10
250.5171507351
 20
124.275761166
 10
250.5418270688
 20
124.2619338404
  0
LWPOLYLINE
  5
295
100
AcDbEntity
  8
0
100
AcDbPolyline
 62
7
  6
CONTINUOUS
 90
22
 70
0
 10
250.5418270688
 20
124.2619338404
 10
250.5650450298
 20
124.2465450773
 10
250.5867892101
 20
124.2293115752
 10
250.6070750178
 20
124.2105167135
 10
250.6259486771
 20
124.1910105275
 10
250.6432859192
 20
124.1709857308
 10
250.6592110129
 20
124.1502496473
 10
250.6741429887
 20
124.1290741975
 10
250.6881612372
 20
124.107446953
 10
250.7011863679
 20
124.0853803705
 10
250.7133992393
 20
124.0631836798
 10
250.7248135369
 20
124.0408774825
 10
250.7354155752
 20
124.0184411859
 10
250.7453451574
 20
123.9961222104
 10
250.7545990885
 20
123.9739756479
 10
250.7631805634
 20
123.9519463986
 10
250.77123897
 20
123.930116585
 10
250.7787604162
 20
123.9085482728
 10
250.7857587941
 20
123.8871793829
 10
250.7924251678
 20
123.8659058216
 10
250.7987469814
 20
123.8447375936
 10
250.8047367908
 20
123.8236646887
  0
LWPOLYLINE
  5
296
100
AcDbEntity
  8
0
100
AcDbPolyline
 62
253
  6
CONTINUOUS
 90
16
 70
0
 10
166.4047544873
 20
129.5863156214
 10
166.4573248192
 20
129.6101715052
 10
166.5070023172
 20
129.6330198505
 10
166.5536148224
 20
129.6547814757
 10
166.5970007978
 20
129.6753809653
 10
166.6370098881
 20
129.6947469312
 10
166.6735034406
 20
129.71281226
 10
166.7063549858
 20
129.7295143458
 10
166.7354506757
 20
129.7447953072
 10
166.7606896785
 20
129.7586021875
 10
166.7819845275
 20
129.7708871387
 10
166.7992614249
 20
129.7816075868
 10
166.8124604971
 20
129.7907263798
 10
166.8215360023
 20
129.7982119164
 10
166.826456489
 20
129.8040382552
 10
166.8272049052
 20
129.8081852049
  0
LINE
  5
297
100
AcDbEntity
  8
0
100
AcDbLine
 62
253
  6
CONTINUOUS
 10
166.2916734513
 20
129.5359151362
 11
166.4047544873
 21
129.5863156214
  0
LINE
  5
298
100
AcDbEntity
  8
0
100
AcDbLine
 62
253
  6
CONTINUOUS
 10
165.622576173
 20
174.4637669521
 11
165.7641238914
 21
174.4060303748
  0
LINE
  5
299
100
AcDbEntity
  8
0
100
AcDbLine
 62
253
  6
CONTINUOUS
 10
165.7641238914
 20
174.4060303748
 11
165.9037111791
 21
174.3481889995
  0
LINE
  5
29A
100
AcDbEntity
  8
0
100
AcDbLine
 62
253
  6
CONTINUOUS
 10
165.9037111791
 20
174.3481889995
 11
166.0394047417
 21
174.2910439336
  0
LINE
  5
29B
100
AcDbEntity
  8
0
100
AcDbLine
 62
253
  6
CONTINUOUS
 10
166.0394047417
 20
174.2910439336
 11
166.1693252131
 21
174.2353866406
  0
LINE
  5
29C
100
AcDbEntity
  8
0
100
AcDbLine
 62
253
  6
CONTINUOUS
 10
166.1693252131
 20
174.2353866406
 11
166.2916731852
 21
174.181987978
  0
LWPOLYLINE
  5
29D
100
AcDbEntity
  8
0
100
AcDbPolyline
 62
253
  6
CONTINUOUS
 90
17
 70
0
 10
166.2916731852
 20
174.181987978
 10
166.4047541294
 20
174.1315875213
 10
166.4573244146
 20
174.1077316518
 10
166.5070018661
 20
174.0848833206
 10
166.5536143256
 20
174.063121709
 10
166.5970002566
 20
174.0425222325
 10
166.6370093043
 20
174.0231562789
 10
166.6735028165
 20
174.0050909613
 10
166.7063543241
 20
173.9883888855
 10
166.7354499795
 20
173.9731079328
 10
166.7606889511
 20
173.9593010598
 10
166.7819837728
 20
173.9470161144
 10
166.7992606469
 20
173.9362956704
 10
166.8124596999
 20
173.9271768797
 10
166.8215351904
 20
173.9196913436
 10
166.826455667
 20
173.9138650035
 10
166.8272040777
 20
173.9097180506
  0
LINE
  5
29E
100
AcDbEntity
  8
0
100
AcDbLine
 62
7
  6
CONTINUOUS
 10
244.2684448638
 20
124.8093044598
 11
244.9540258638
 21
122.9811504598
  0
LINE
  5
29F
100
AcDbEntity
  8
0
100
AcDbLine
 62
7
  6
CONTINUOUS
 10
244.4199628638
 20
125.7808534598
 11
244.9981988638
 21
124.2264494598
  0
LINE
  5
2A0
100
AcDbEntity
  8
0
100
AcDbLine
 62
7
  6
CONTINUOUS
 10
240.1648448638
 20
125.7808534598
 11
241.0524058638
 21
122.9811504598
  0
LINE
  5
2A1
100
AcDbEntity
  8
0
100
AcDbLine
 62
7
  6
CONTINUOUS
 10
240.7996928638
 20
125.7808534598
 11
241.3333668638
 21
123.8537314598
  0
LINE
  5
2A2
100
AcDbEntity
  8
0
100
AcDbLine
 62
7
  6
CONTINUOUS
 10
246.1608208638
 20
125.7808534598
 11
246.4226248638
 21
122.9811504598
  0
LINE
  5
2A3
100
AcDbEntity
  8
0
100
AcDbLine
 62
7
  6
CONTINUOUS
 10
245.7308498638
 20
124.8016824598
 11
245.8509188638
 21
122.9811504598
  0
LINE
  5
2A4
100
AcDbEntity
  8
0
100
AcDbLine
 62
7
  6
CONTINUOUS
 10
242.6842278638
 20
125.7810214598
 11
242.6842278638
 21
122.9811504598
  0
LINE
  5
2A5
100
AcDbEntity
  8
0
100
AcDbLine
 62
7
  6
CONTINUOUS
 10
243.2686358638
 20
125.7810214598
 11
243.2686358638
 21
122.9811504598
  0
LINE
  5
2A6
100
AcDbEntity
  8
0
100
AcDbLine
 62
7
  6
CONTINUOUS
 10
244.2684448638
 20
124.8093044598
 11
244.1423298638
 21
122.9811504598
  0
LINE
  5
2A7
100
AcDbEntity
  8
0
100
AcDbLine
 62
7
  6
CONTINUOUS
 10
243.8360378638
 20
125.7808534598
 11
243.5832408638
 21
122.9811504598
  0
LINE
  5
2A8
100
AcDbEntity
  8
0
100
AcDbLine
 62
253
  6
CONTINUOUS
 10
166.1693253935
 20
129.482516447
 11
166.2916734513
 21
129.5359151362
  0
LINE
  5
2A9
100
AcDbEntity
  8
0
100
AcDbLine
 62
253
  6
CONTINUOUS
 10
166.0394048476
 20
129.426859131
 11
166.1693253935
 21
129.482516447
  0
LINE
  5
2AA
100
AcDbEntity
  8
0
100
AcDbLine
 62
253
  6
CONTINUOUS
 10
165.9037112268
 20
129.369714048
 11
166.0394048476
 21
129.426859131
  0
LINE
  5
2AB
100
AcDbEntity
  8
0
100
AcDbLine
 62
253
  6
CONTINUOUS
 10
165.7641239022
 20
129.3118726632
 11
165.9037112268
 21
129.369714048
  0
LINE
  5
2AC
100
AcDbEntity
  8
0
100
AcDbLine
 62
253
  6
CONTINUOUS
 10
165.6225761729
 20
129.2541360857
 11
165.7641239022
 21
129.3118726632
  0
LWPOLYLINE
  5
2AD
100
AcDbEntity
  8
0
100
AcDbPolyline
 62
7
  6
CONTINUOUS
 90
19
 70
0
 10
250.2099149267
 20
123.8302885043
 10
250.20012348
 20
123.8541746351
 10
250.1891538113
 20
123.8772098048
 10
250.1770059208
 20
123.8993939838
 10
250.1636760811
 20
123.9208033559
 10
250.1491680194
 20
123.9413616836
 10
250.1334929179
 20
123.9608403001
 10
250.116554605
 20
123.9793492288
 10
250.0984492522
 20
123.9967783877
 10
250.0794765564
 20
124.0125689333
 10
250.0595875856
 20
124.0265957101
 10
250.0388312717
 20
124.0389838001
 10
250.0176541078
 20
124.0495497047
 10
249.9961572372
 20
124.0581400743
 10
249.9742395165
 20
124.0649082061
 10
249.9520440087
 20
124.0701305784
 10
249.9296184016
 20
124.073899345
 10
249.9069150074
 20
124.0761223322
 10
249.8839338261
 20
124.0767995351
  0
LINE
  5
2AE
100
AcDbEntity
  8
0
100
AcDbLine
 62
7
  6
CONTINUOUS
 10
247.9579028638
 20
125.7808534598
 11
248.8169208638
 21
122.9811504598
  0
LWPOLYLINE
  5
2AF
100
AcDbEntity
  8
0
100
AcDbPolyline
 62
7
  6
CONTINUOUS
 90
8
 70
0
 10
250.2994774333
 20
123.5555021277
 10
250.2877927281
 20
123.5950677537
 10
250.2758515703
 20
123.6345254723
 10
250.2636537374
 20
123.6738702324
 10
250.2509827996
 20
123.7131173872
 10
250.2377666136
 20
123.7522720497
 10
250.2240773226
 20
123.7913290914
 10
250.2099149267
 20
123.8302885043
  0
LINE
  5
2B0
100
AcDbEntity
  8
0
100
AcDbLine
 62
7
  6
CONTINUOUS
 10
250.4655284857
 20
122.9811501055
 11
250.3680711318
 21
123.3151887058
  0
LWPOLYLINE
  5
2B1
100
AcDbEntity
  8
0
100
AcDbPolyline
 62
7
  6
CONTINUOUS
 90
4
 70
0
 10
250.3680711318
 20
123.3151887058
 10
250.3449710072
 20
123.3959341562
 10
250.3336522504
 20
123.4360395642
 10
250.2994774333
 20
123.5555021277
  0
LWPOLYLINE
  5
2B2
100
AcDbEntity
  8
0
100
AcDbPolyline
 62
7
  6
CONTINUOUS
 90
3
 70
0
 10
250.8047367908
 20
123.8236646887
 10
250.8164828362
 20
123.7813578238
 10
250.8222390722
 20
123.7601238679
  0
LINE
  5
2B3
100
AcDbEntity
  8
0
100
AcDbLine
 62
7
  6
CONTINUOUS
 10
248.0495868638
 20
123.5400704598
 11
248.2009788638
 21
122.9811504598
  0
LINE
  5
2B4
100
AcDbEntity
  8
0
100
AcDbLine
 62
7
  6
CONTINUOUS
 10
250.8222390722
 20
123.7601238679
 11
250.8977142407
 21
123.4770611477
  0
LINE
  5
2B5
100
AcDbEntity
  8
0
100
AcDbLine
 62
7
  6
CONTINUOUS
 10
250.8977142407
 20
123.4770611477
 11
251.0276610758
 21
122.9811501055
  0
LINE
  5
2B6
100
AcDbEntity
  8
0
100
AcDbLine
 62
7
  6
CONTINUOUS
 10
247.6642498638
 20
125.0115664598
 11
247.9327928638
 21
123.9725604598
  0
LWPOLYLINE
  5
2B7
100
AcDbEntity
  8
0
100
AcDbPolyline
 62
7
  6
CONTINUOUS
 90
22
 70
0
 10
250.3391650089
 20
124.9701657365
 10
250.3380528066
 20
124.9931703229
 10
250.3353661564
 20
125.016148614
 10
250.3311050585
 20
125.0391006083
 10
250.3253014195
 20
125.0621267949
 10
250.3179233327
 20
125.0851266844
 10
250.3088750778
 20
125.1077987988
 10
250.2981391339
 20
125.1302375726
 10
250.2857330219
 20
125.1523485526
 10
250.2716135844
 20
125.1735469024
 10
250.2556262295
 20
125.1938386335
 10
250.237925549
 20
125.2132176834
 10
250.2189321605
 20
125.231081074
 10
250.1986053351
 20
125.2472497912
 10
250.1769858017
 20
125.2619027775
 10
250.1546163642
 20
125.2749739783
 10
250.1315561449
 20
125.286429177
 10
250.1077460215
 20
125.2963025383
 10
250.083551431
 20
125.3046305835
 10
250.0590941858
 20
125.3114254765
 10
250.0342524734
 20
125.3166750225
 10
250.009026294
 20
125.3203792109
  0
LINE
  5
2B8
100
AcDbEntity
  8
0
100
AcDbLine
 62
7
  6
CONTINUOUS
 10
250.3391650004
 20
124.9701656014
 11
250.3391614993
 21
124.9703961525
  0
LINE
  5
2B9
100
AcDbEntity
  8
0
100
AcDbLine
 62
7
  6
CONTINUOUS
 10
248.9885316661
 20
125.7481441188
 11
248.9885316661
 21
122.9811501055
  0
LINE
  5
2BA
100
AcDbEntity
  8
0
100
AcDbLine
 62
7
  6
CONTINUOUS
 10
249.5512101179
 20
125.3038966639
 11
249.5512101179
 21
124.5353233732
  0
LINE
  5
2BB
100
AcDbEntity
  8
0
100
AcDbLine
 62
7
  6
CONTINUOUS
 10
249.5705882087
 20
124.0767995351
 11
249.5705882087
 21
122.9811501055
  0
LINE
  5
2BC
100
AcDbEntity
  8
0
100
AcDbLine
 62
7
  6
CONTINUOUS
 10
250.4910160287
 20
124.3045708318
 11
250.4910160287
 21
124.288027023
  0
LINE
  5
2BD
100
AcDbEntity
  8
0
100
AcDbLine
 62
7
  6
CONTINUOUS
 10
247.6642498638
 20
125.0115664598
 11
247.3732638638
 21
123.9725604598
  0
LINE
  5
2BE
100
AcDbEntity
  8
0
100
AcDbLine
 62
7
  6
CONTINUOUS
 10
241.8833438638
 20
125.7808534598
 11
241.3333668638
 21
123.8537314598
  0
LINE
  5
2BF
100
AcDbEntity
  8
0
100
AcDbLine
 62
7
  6
CONTINUOUS
 10
247.2537198638
 20
123.5400704598
 11
247.0924598638
 21
122.9811504598
  0
LINE
  5
2C0
100
AcDbEntity
  8
0
100
AcDbLine
 62
7
  6
CONTINUOUS
 10
247.3925578638
 20
125.7808534598
 11
246.5143928638
 21
122.9811504598
  0
LINE
  5
2C1
100
AcDbEntity
  8
0
100
AcDbLine
 62
7
  6
CONTINUOUS
 10
242.4673528638
 20
125.7808534598
 11
241.5674158638
 21
122.9811504598
  0
LINE
  5
2C2
100
AcDbEntity
  8
0
100
AcDbLine
 62
7
  6
CONTINUOUS
 10
245.5826068638
 20
125.7808534598
 11
244.9981988638
 21
124.2264494598
  0
LINE
  5
2C3
100
AcDbEntity
  8
0
100
AcDbLine
 62
7
  6
CONTINUOUS
 10
245.7308498638
 20
124.8016824598
 11
245.0359888638
 21
122.9811504598
  0
LINE
  5
2C4
100
AcDbEntity
  8
0
100
AcDbLine
 62
253
  6
CONTINUOUS
 10
325.7144495547
 20
129.2541359805
 11
325.572901835
 21
129.3118725575
  0
LINE
  5
2C5
100
AcDbEntity
  8
0
100
AcDbLine
 62
253
  6
CONTINUOUS
 10
325.572901835
 20
129.3118725575
 11
325.4333145439
 21
129.3697139333
  0
LINE
  5
2C6
100
AcDbEntity
  8
0
100
AcDbLine
 62
253
  6
CONTINUOUS
 10
325.4333145439
 20
129.3697139333
 11
325.2976209762
 21
129.4268590003
  0
LINE
  5
2C7
100
AcDbEntity
  8
0
100
AcDbLine
 62
253
  6
CONTINUOUS
 10
325.2976209762
 20
129.4268590003
 11
325.1677004984
 21
129.482516295
  0
LINE
  5
2C8
100
AcDbEntity
  8
0
100
AcDbLine
 62
253
  6
CONTINUOUS
 10
325.1677004984
 20
129.482516295
 11
325.0453525191
 21
129.5359149596
  0
LWPOLYLINE
  5
2C9
100
AcDbEntity
  8
0
100
AcDbPolyline
 62
253
  6
CONTINUOUS
 90
17
 70
0
 10
325.0453525191
 20
129.5359149596
 10
324.9322715672
 20
129.5863154185
 10
324.8797012781
 20
129.6101712891
 10
324.8300238227
 20
129.6330196213
 10
324.7834113595
 20
129.6547812339
 10
324.7400254248
 20
129.6753807114
 10
324.7000163736
 20
129.6947466659
 10
324.6635228582
 20
129.7128119844
 10
324.6306713476
 20
129.7295140609
 10
324.6015756894
 20
129.7447950142
 10
324.5763367153
 20
129.7586018877
 10
324.5550418915
 20
129.7708868334
 10
324.5377650157
 20
129.7816072777
 10
324.5245659612
 20
129.7907260685
 10
324.5154904697
 20
129.7982116045
 10
324.5105699925
 20
129.8040379443
 10
324.5098215816
 20
129.8081848968
  0
LWPOLYLINE
  5
2CA
100
AcDbEntity
  8
0
100
AcDbPolyline
 62
253
  6
CONTINUOUS
 90
16
 70
0
 10
324.9322712454
 20
174.1315872925
 10
324.8797009138
 20
174.1077314092
 10
324.8300234161
 20
174.0848830644
 10
324.7834109111
 20
174.0631214397
 10
324.7400249359
 20
174.0425219507
 10
324.7000158458
 20
174.0231559854
 10
324.6635222934
 20
174.0050906571
 10
324.6306707483
 20
173.9883885718
 10
324.6015750583
 20
173.9731076109
 10
324.5763360554
 20
173.9593007311
 10
324.5550412062
 20
173.9470157805
 10
324.5377643086
 20
173.9362953329
 10
324.5245652362
 20
173.9271765404
 10
324.5154897306
 20
173.9196910042
 10
324.5105692435
 20
173.9138646658
 10
324.5098208267
 20
173.9097177165
  0
LINE
  5
2CB
100
AcDbEntity
  8
0
100
AcDbLine
 62
253
  6
CONTINUOUS
 10
325.0453522806
 20
174.1819877767
 11
324.9322712454
 21
174.1315872925
  0
LINE
  5
2CC
100
AcDbEntity
  8
0
100
AcDbLine
 62
253
  6
CONTINUOUS
 10
325.1677003375
 20
174.235386465
 11
325.0453522806
 21
174.1819877767
  0
LINE
  5
2CD
100
AcDbEntity
  8
0
100
AcDbLine
 62
253
  6
CONTINUOUS
 10
325.2976208825
 20
174.2910437802
 11
325.1677003375
 21
174.235386465
  0
LINE
  5
2CE
100
AcDbEntity
  8
0
100
AcDbLine
 62
253
  6
CONTINUOUS
 10
325.4333145024
 20
174.3481888626
 11
325.2976208825
 21
174.2910437802
  0
LINE
  5
2CF
100
AcDbEntity
  8
0
100
AcDbLine
 62
253
  6
CONTINUOUS
 10
325.5729018262
 20
174.406030247
 11
325.4333145024
 21
174.3481888626
  0
LINE
  5
2D0
100
AcDbEntity
  8
0
100
AcDbLine
 62
253
  6
CONTINUOUS
 10
325.7144495547
 20
174.4637668241
 11
325.5729018262
 21
174.406030247
  0
LWPOLYLINE
  5
2D1
100
AcDbEntity
  8
0
100
AcDbPolyline
 62
253
  6
CONTINUOUS
 90
17
 70
0
 10
325.092206696
 20
173.6594975559
 10
325.0328889726
 20
173.6572240399
 10
324.9763987359
 20
173.6547871847
 10
324.9229271309
 20
173.652195236
 10
324.8726550888
 20
173.649456964
 10
324.8257527142
 20
173.6465816341
 10
324.7823787098
 20
173.6435789757
 10
324.7426798396
 20
173.6404591488
 10
324.706790432
 20
173.6372327098
 10
324.6748319253
 20
173.633910576
 10
324.6469124572
 20
173.6305039884
 10
324.6231264981
 20
173.6270244739
 10
324.6035545322
 20
173.6234838061
 10
324.588262785
 20
173.6198939654
 10
324.5773029988
 20
173.6162670987
 10
324.5707122581
 20
173.6126154782
 10
324.5685128638
 20
173.6089514598
  0
LINE
  5
2D2
100
AcDbEntity
  8
0
100
AcDbLine
 62
253
  6
CONTINUOUS
 10
325.2185128652
 20
173.6635243779
 11
325.092206696
 21
173.6594975559
  0
LINE
  5
2D3
100
AcDbEntity
  8
0
100
AcDbLine
 62
253
  6
CONTINUOUS
 10
325.3536091693
 20
173.6668131947
 11
325.2185128652
 21
173.6635243779
  0
LINE
  5
2D4
100
AcDbEntity
  8
0
100
AcDbLine
 62
253
  6
CONTINUOUS
 10
325.4956686624
 20
173.6693195309
 11
325.3536091693
 21
173.6668131947
  0
LINE
  5
2D5
100
AcDbEntity
  8
0
100
AcDbLine
 62
253
  6
CONTINUOUS
 10
141.6083962467
 20
174.3827751103
 11
141.7434846306
 21
174.3850869469
  0
LINE
  5
2D6
100
AcDbEntity
  8
0
100
AcDbLine
 62
253
  6
CONTINUOUS
 10
141.6083989814
 20
174.4590164802
 11
141.7434872021
 21
174.4613326968
  0
LINE
  5
2D7
100
AcDbEntity
  8
0
100
AcDbLine
 62
253
  6
CONTINUOUS
 10
325.6427702336
 20
173.6710094924
 11
325.4956686624
 21
173.6693195309
  0
LINE
  5
2D8
100
AcDbEntity
  8
0
100
AcDbLine
 62
253
  6
CONTINUOUS
 10
141.7434846306
 20
174.3850869469
 11
141.8828266613
 21
174.386643122
  0
LINE
  5
2D9
100
AcDbEntity
  8
0
100
AcDbLine
 62
253
  6
CONTINUOUS
 10
141.7434872021
 20
174.4613326968
 11
141.8828290524
 21
174.4628905881
  0
LWPOLYLINE
  5
2DA
100
AcDbEntity
  8
0
100
AcDbPolyline
 62
253
  6
CONTINUOUS
 90
3
 70
0
 10
141.8828266613
 20
174.386643122
 10
142.0247415782
 20
174.3874248647
 10
142.0961295821
 20
174.3875220084
  0
LINE
  5
2DB
100
AcDbEntity
  8
0
100
AcDbLine
 62
253
  6
CONTINUOUS
 10
141.8828290524
 20
174.4628905881
 11
142.0247437784
 21
174.4636713627
  0
LWPOLYLINE
  5
2DC
100
AcDbEntity
  8
0
100
AcDbPolyline
 62
253
  6
CONTINUOUS
 90
3
 70
0
 10
325.8685128638
 20
173.6719668376
 10
325.7929245865
 20
173.6718602255
 10
325.6427702336
 20
173.6710094924
  0
LINE
  5
2DD
100
AcDbEntity
  8
0
100
AcDbLine
 62
253
  6
CONTINUOUS
 10
350.6685128638
 20
174.328138125
 11
350.5359368103
 21
174.328138125
  0
LINE
  5
2DE
100
AcDbEntity
  8
0
100
AcDbLine
 62
253
  6
CONTINUOUS
 10
140.6685128638
 20
174.328138125
 11
140.8010889174
 21
174.328138125
  0
LINE
  5
2DF
100
AcDbEntity
  8
0
100
AcDbLine
 62
7
  6
CONTINUOUS
 10
167.5684976152
 20
174.4089514598
 11
323.7685256605
 21
174.4089514598
  0
LINE
  5
2E0
100
AcDbEntity
  8
0
100
AcDbLine
 62
253
  6
CONTINUOUS
 10
165.622576173
 20
174.4637670184
 11
142.0247437784
 21
174.4636713627
  0
LINE
  5
2E1
100
AcDbEntity
  8
0
100
AcDbLine
 62
253
  6
CONTINUOUS
 10
167.5685128638
 20
175.7844666097
 11
323.7685128638
 21
175.7844666097
  0
LINE
  5
2E2
100
AcDbEntity
  8
0
100
AcDbLine
 62
253
  6
CONTINUOUS
 10
349.3834567176
 20
174.3871316073
 11
349.2408961455
 21
174.3875220081
  0
LINE
  5
2E3
100
AcDbEntity
  8
0
100
AcDbLine
 62
253
  6
CONTINUOUS
 10
349.3834544219
 20
174.4633789254
 11
325.7144495547
 21
174.4637670184
  0
LINE
  5
2E4
100
AcDbEntity
  8
0
100
AcDbLine
 62
253
  6
CONTINUOUS
 10
165.4685128638
 20
173.6719668376
 11
165.6194336526
 21
173.6715407501
  0
LINE
  5
2E5
100
AcDbEntity
  8
0
100
AcDbLine
 62
253
  6
CONTINUOUS
 10
349.5242977066
 20
174.3859608819
 11
349.3834567176
 21
174.3871316073
  0
LINE
  5
2E6
100
AcDbEntity
  8
0
100
AcDbLine
 62
253
  6
CONTINUOUS
 10
349.524295225
 20
174.4622078254
 11
349.3834544219
 21
174.4633789254
  0
LINE
  5
2E7
100
AcDbEntity
  8
0
100
AcDbLine
 62
253
  6
CONTINUOUS
 10
165.6194336526
 20
173.6715407501
 11
165.7683134966
 21
173.6702682499
  0
LINE
  5
2E8
100
AcDbEntity
  8
0
100
AcDbLine
 62
253
  6
CONTINUOUS
 10
165.7683134966
 20
173.6702682499
 11
165.9131390513
 21
173.6681665453
  0
LWPOLYLINE
  5
2E9
100
AcDbEntity
  8
0
100
AcDbPolyline
 62
253
  6
CONTINUOUS
 90
3
 70
0
 10
349.7286294796
 20
174.38277511
 10
349.6617202709
 20
174.3840239534
 10
349.5242977066
 20
174.3859608819
  0
LWPOLYLINE
  5
2EA
100
AcDbEntity
  8
0
100
AcDbPolyline
 62
253
  6
CONTINUOUS
 90
3
 70
0
 10
349.7286267473
 20
174.4590164804
 10
349.6617176174
 20
174.4602678442
 10
349.524295225
 20
174.4622078254
  0
LINE
  5
2EB
100
AcDbEntity
  8
0
100
AcDbLine
 62
253
  6
CONTINUOUS
 10
165.9131390513
 20
173.6681665453
 11
166.0519517995
 21
173.6652640582
  0
LWPOLYLINE
  5
2EC
100
AcDbEntity
  8
0
100
AcDbPolyline
 62
253
  6
CONTINUOUS
 90
19
 70
0
 10
166.0519517995
 20
173.6652640582
 10
166.1828745369
 20
173.6616000398
 10
166.2448190346
 20
173.6594975558
 10
166.304136758
 20
173.6572240397
 10
166.3606269946
 20
173.6547871845
 10
166.4140985994
 20
173.6521952358
 10
166.4643706413
 20
173.6494569638
 10
166.5112730157
 20
173.646581634
 10
166.5546470199
 20
173.6435789756
 10
166.5943458898
 20
173.6404591486
 10
166.6302352971
 20
173.6372327096
 10
166.6621938035
 20
173.6339105758
 10
166.6901132714
 20
173.6305039883
 10
166.7138992303
 20
173.6270244738
 10
166.7334711959
 20
173.623483806
 10
166.7487629429
 20
173.6198939653
 10
166.759722729
 20
173.6162670986
 10
166.7663134696
 20
173.6126154782
 10
166.7685128638
 20
173.6089514598
  0
LWPOLYLINE
  5
2ED
100
AcDbEntity
  8
0
100
AcDbPolyline
 62
7
  6
CONTINUOUS
 90
10
 70
0
 10
250.598287518
 20
124.3697264974
 10
250.5767929939
 20
124.3517102737
 10
250.5664507891
 20
124.3432242201
 10
250.5561163377
 20
124.3353284693
 10
250.5458140395
 20
124.3279519804
 10
250.5355194947
 20
124.3211657819
 10
250.5249233559
 20
124.3153923296
 10
250.5139225075
 20
124.3107724351
 10
250.5026200651
 20
124.3071652709
 10
250.4910160287
 20
124.3045708318
  0
LINE
  5
2EE
100
AcDbEntity
  8
0
100
AcDbLine
 62
253
  6
CONTINUOUS
 10
141.2998020201
 20
174.4501131853
 11
141.417287737
 21
174.4541838311
  0
LINE
  5
2EF
100
AcDbEntity
  8
0
100
AcDbLine
 62
253
  6
CONTINUOUS
 10
141.2997989937
 20
174.3738939956
 11
141.4172848038
 21
174.3779539015
  0
LWPOLYLINE
  5
2F0
100
AcDbEntity
  8
0
100
AcDbPolyline
 62
253
  6
CONTINUOUS
 90
3
 70
0
 10
141.417287737
 20
174.4541838311
 10
141.542961731
 20
174.4575823819
 10
141.6083989814
 20
174.4590164802
  0
LWPOLYLINE
  5
2F1
100
AcDbEntity
  8
0
100
AcDbPolyline
 62
253
  6
CONTINUOUS
 90
3
 70
0
 10
141.4172848038
 20
174.3779539015
 10
141.5429589233
 20
174.3813441855
 10
141.6083962467
 20
174.3827751103
  0
LWPOLYLINE
  5
2F2
100
AcDbEntity
  8
0
100
AcDbPolyline
 62
253
  6
CONTINUOUS
 90
28
 70
0
 10
323.7685128638
 20
175.7844666097
 10
323.8585110758
 20
175.7825945914
 10
323.9484175393
 20
175.776751666
 10
324.0382322544
 20
175.7669378095
 10
324.1281637344
 20
175.7531610686
 10
324.2180034659
 20
175.7354132996
 10
324.3071259087
 20
175.7136701674
 10
324.3955516385
 20
175.6878798686
 10
324.4832600796
 20
175.6580940108
 10
324.5695639645
 20
175.6244433551
 10
324.6544318383
 20
175.5868905578
 10
324.737895156
 20
175.5454726835
 10
324.8193610144
 20
175.5004320997
 10
324.8988048331
 20
175.4517380796
 10
324.9762511925
 20
175.3994210136
 10
325.0511809309
 20
175.3438149559
 10
325.1235735109
 20
175.2848885329
 10
325.1934494698
 20
175.2226727566
 10
325.2603512581
 20
175.1575952895
 10
325.3242530649
 20
175.0896257903
 10
325.385180701
 20
175.0187942498
 10
325.4427540493
 20
174.945618882
 10
325.4969406377
 20
174.8700726502
 10
325.5477729383
 20
174.7921822882
 10
325.5949682504
 20
174.7125467409
 10
325.6384323404
 20
174.6313656018
 10
325.6782594418
 20
174.5484390649
 10
325.7144495547
 20
174.4637670184
  0
LINE
  5
2F3
100
AcDbEntity
  8
0
100
AcDbLine
 62
253
  6
CONTINUOUS
 10
349.8578347635
 20
174.3797354975
 11
349.7286294796
 21
174.38277511
  0
LINE
  5
2F4
100
AcDbEntity
  8
0
100
AcDbLine
 62
253
  6
CONTINUOUS
 10
349.8578318923
 20
174.455969877
 11
349.7286267473
 21
174.4590164804
  0
LINE
  5
2F5
100
AcDbEntity
  8
0
100
AcDbLine
 62
253
  6
CONTINUOUS
 10
350.5338581576
 20
195.2568377445
 11
350.6685128638
 21
195.2589514598
  0
LINE
  5
2F6
100
AcDbEntity
  8
0
100
AcDbLine
 62
253
  6
CONTINUOUS
 10
142.2685128638
 20
195.6350145656
 11
349.0685128638
 21
195.6350145656
  0
LINE
  5
2F7
100
AcDbEntity
  8
0
100
AcDbLine
 62
253
  6
CONTINUOUS
 10
140.803167598
 20
195.258553762
 11
140.6685128638
 21
195.2589514598
  0
LWPOLYLINE
  5
2F8
100
AcDbEntity
  8
0
100
AcDbPolyline
 62
7
  6
CONTINUOUS
 90
31
 70
0
 10
142.2685128638
 20
196.8589514598
 10
142.18572504
 20
196.8568065042
 10
142.1031271335
 20
196.85037972
 10
142.0209516073
 20
196.8396837202
 10
141.939389461
 20
196.8247349214
 10
141.8586506914
 20
196.8055648638
 10
141.778984241
 20
196.7822244129
 10
141.7005807798
 20
196.7547633173
 10
141.6236219624
 20
196.7232307315
 10
141.5483436914
 20
196.6877105088
 10
141.4749577516
 20
196.6482931099
 10
141.4036459671
 20
196.6050584903
 10
141.3346026481
 20
196.5581098916
 10
141.2680323361
 20
196.5075640374
 10
141.2041275971
 20
196.4535527128
 10
141.1430706407
 20
196.3962198178
 10
141.0850504395
 20
196.3357154627
 10
141.0302319698
 20
196.2721952578
 10
140.9787641046
 20
196.205811681
 10
140.9307884307
 20
196.1367252864
 10
140.8864540868
 20
196.0651235612
 10
140.8459148005
 20
195.9912163097
 10
140.809298659
 20
195.9152232863
 10
140.7767160028
 20
195.8373453465
 10
140.7482655411
 20
195.757792971
 10
140.7240415041
 20
195.6768129824
 10
140.70412823
 20
195.5946491938
 10
140.6885768677
 20
195.5115329157
 10
140.6774380243
 20
195.4277170428
 10
140.6707460073
 20
195.3434511229
 10
140.6685128638
 20
195.2589514598
  0
LINE
  5
2F9
100
AcDbEntity
  8
0
100
AcDbLine
 62
253
  6
CONTINUOUS
 10
142.2685128638
 20
196.7010575625
 11
349.0685128638
 21
196.7010575625
  0
LINE
  5
2FA
100
AcDbEntity
  8
0
100
AcDbLine
 62
7
  6
CONTINUOUS
 10
142.2685128638
 20
196.8589514598
 11
349.0685128638
 21
196.8589514598
  0
LWPOLYLINE
  5
2FB
100
AcDbEntity
  8
0
100
AcDbPolyline
 62
253
  6
CONTINUOUS
 90
31
 70
0
 10
349.0685128638
 20
196.7010575625
 10
349.1445331387
 20
196.6990850039
 10
349.220346915
 20
196.6931755218
 10
349.2957438657
 20
196.683345163
 10
349.3705690716
 20
196.669610769
 10
349.4446202487
 20
196.6520044311
 10
349.5176307542
 20
196.6305860057
 10
349.589430391
 20
196.6054106497
 10
349.6598603443
 20
196.5765294617
 10
349.7286728531
 20
196.5440413731
 10
349.7956742685
 20
196.5080465832
 10
349.8607179926
 20
196.4686253568
 10
349.9236275013
 20
196.4258821444
 10
349.9842258324
 20
196.3799363102
 10
350.0423514123
 20
196.3309205688
 10
350.0978468094
 20
196.2789665228
 10
350.1505636408
 20
196.224209794
 10
350.2003675893
 20
196.1667966193
 10
350.247122275
 20
196.1068753203
 10
350.2907077209
 20
196.0446102778
 10
350.3310113636
 20
195.9801649115
 10
350.3679131236
 20
195.9137090242
 10
350.4013118606
 20
195.8454418966
 10
350.4311214491
 20
195.7755426576
 10
350.4572656121
 20
195.7041770744
 10
350.4796687848
 20
195.6315647092
 10
350.4982671103
 20
195.5579183465
 10
350.5130192647
 20
195.4834111718
 10
350.5238818524
 20
195.4082526979
 10
350.5308312275
 20
195.3326661121
 10
350.5338597528
 20
195.2568377696
  0
LWPOLYLINE
  5
2FC
100
AcDbEntity
  8
0
100
AcDbPolyline
 62
253
  6
CONTINUOUS
 90
31
 70
0
 10
349.0685128638
 20
195.6350145656
 10
349.0775150022
 20
195.6347781739
 10
349.0864540001
 20
195.6340701816
 10
349.0953298575
 20
195.6328905877
 10
349.1041710891
 20
195.6312327283
 10
349.1129491803
 20
195.6291032629
 10
349.121578587
 20
195.6265221741
 10
349.1300562835
 20
195.623484877
 10
349.1383852955
 20
195.6199959482
 10
349.1464891572
 20
195.6160891117
 10
349.1543617097
 20
195.6117621839
 10
349.1620091118
 20
195.6070173372
 10
349.1693733743
 20
195.6018948295
 10
349.1764564262
 20
195.5963870578
 10
349.1832563385
 20
195.5905016119
 10
349.1897093352
 20
195.58430154
 10
349.1958037648
 20
195.5777938724
 10
349.2015512788
 20
195.5709715658
 10
349.2069230552
 20
195.5638765596
 10
349.2119234253
 20
195.5564987742
 10
349.2165480578
 20
195.5488482762
 10
349.2207551371
 20
195.5409972275
 10
349.2245386008
 20
195.5329457588
 10
349.2279045113
 20
195.524693729
 10
349.2308292403
 20
195.5163128956
 10
349.2333086608
 20
195.5078006345
 10
349.2353468998
 20
195.4991595626
 10
349.2369327098
 20
195.4904693033
 10
349.2380623419
 20
195.4817563975
 10
349.2387395452
 20
195.4729943021
 10
349.2389643195
 20
195.4641830156
  0
LWPOLYLINE
  5
2FD
100
AcDbEntity
  8
0
100
AcDbPolyline
 62
253
  6
CONTINUOUS
 90
18
 70
0
 10
350.5359368098
 20
174.328138125
 10
350.5277530383
 20
174.3316897324
 10
350.5156857803
 20
174.3352134242
 10
350.4997714524
 20
174.3386985667
 10
350.4800580811
 20
174.3421346423
 10
350.4566051575
 20
174.3455112818
 10
350.4294834579
 20
174.3488182949
 10
350.3987748306
 20
174.3520457018
 10
350.3645719481
 20
174.3551837629
 10
350.3269780283
 20
174.3582230079
 10
350.2861065223
 20
174.3611542651
 10
350.2420807724
 20
174.3639686885
 10
350.19503364
 20
174.3666577848
 10
350.1451071042
 20
174.3692134386
 10
350.0924518337
 20
174.3716279377
 10
350.037226732
 20
174.3738939954
 10
349.9795984578
 20
174.3760047732
 10
349.8578347635
 20
174.3797354975
  0
LWPOLYLINE
  5
2FE
100
AcDbEntity
  8
0
100
AcDbPolyline
 62
253
  6
CONTINUOUS
 90
18
 70
0
 10
350.5359344775
 20
174.4042152476
 10
350.527750577
 20
174.4077786609
 10
350.5156832015
 20
174.4113139652
 10
350.4997687681
 20
174.4148104914
 10
350.4800553033
 20
174.4182576879
 10
350.4566022983
 20
174.4216451517
 10
350.4294805297
 20
174.4249626601
 10
350.3987718455
 20
174.4282002015
 10
350.3645689183
 20
174.4313480056
 10
350.3269749657
 20
174.4343965731
 10
350.2861034388
 20
174.437336704
 10
350.2420776795
 20
174.4401595254
 10
350.1950305489
 20
174.4428565188
 10
350.1451040257
 20
174.4454195452
 10
350.0924487781
 20
174.4478408697
 10
350.0372237091
 20
174.4501131855
 10
349.979595477
 20
174.452229635
 10
349.8578318923
 20
174.455969877
  0
LWPOLYLINE
  5
2FF
100
AcDbEntity
  8
0
100
AcDbPolyline
 62
253
  6
CONTINUOUS
 90
16
 70
0
 10
350.5359344773
 20
129.3136876721
 10
350.5277505766
 20
129.3101242587
 10
350.515683201
 20
129.3065889545
 10
350.4997687675
 20
129.3030924282
 10
350.4800553025
 20
129.2996452317
 10
350.4566022975
 20
129.2962577679
 10
350.4294805288
 20
129.2929402596
 10
350.3987718445
 20
129.2897027182
 10
350.3645689173
 20
129.2865549141
 10
350.3269749647
 20
129.2835063466
 10
350.2861034377
 20
129.2805662158
 10
350.2420776785
 20
129.2777433943
 10
350.1950305478
 20
129.2750464009
 10
350.1451040246
 20
129.2724833746
 10
350.0924487771
 20
129.27006205
 10
350.0372237081
 20
129.2677897343
  0
LWPOLYLINE
  5
300
100
AcDbEntity
  8
0
100
AcDbPolyline
 62
253
  6
CONTINUOUS
 90
16
 70
0
 10
350.5359368103
 20
129.3897647946
 10
350.527753039
 20
129.3862131873
 10
350.5156857813
 20
129.3826894954
 10
350.4997714537
 20
129.3792043529
 10
350.4800580825
 20
129.3757682772
 10
350.4566051591
 20
129.3723916378
 10
350.4294834597
 20
129.3690846246
 10
350.3987748324
 20
129.3658572177
 10
350.3645719501
 20
129.3627191567
 10
350.3269780303
 20
129.3596799116
 10
350.2861065244
 20
129.3567486544
 10
350.2420807745
 20
129.3539342309
 10
350.1950336421
 20
129.3512451347
 10
350.1451071063
 20
129.3486894808
 10
350.0924518358
 20
129.3462749818
 10
350.037226734
 20
129.3440089241
  0
LINE
  5
301
100
AcDbEntity
  8
0
100
AcDbLine
 62
253
  6
CONTINUOUS
 10
323.7685128638
 20
175.7844666097
 11
323.7685128638
 21
174.4089514598
  0
LINE
  5
302
100
AcDbEntity
  8
0
100
AcDbLine
 62
253
  6
CONTINUOUS
 10
323.768512864
 20
127.9334363099
 11
323.7685128638
 21
129.3089514598
  0
LINE
  5
303
100
AcDbEntity
  8
0
100
AcDbLine
 62
7
  6
CONTINUOUS
 10
324.5685128638
 20
173.6089516641
 11
324.5685128638
 21
130.1089510833
  0
LINE
  5
304
100
AcDbEntity
  8
0
100
AcDbLine
 62
253
  6
CONTINUOUS
 10
325.8685128638
 20
173.6719668376
 11
325.8685128638
 21
130.0459360821
  0
LWPOLYLINE
  5
305
100
AcDbEntity
  8
0
100
AcDbPolyline
 62
253
  6
CONTINUOUS
 90
16
 70
0
 10
325.8685128638
 20
130.0459360821
 10
325.8682022637
 20
130.0024197637
 10
325.8667803974
 20
129.9576977844
 10
325.8642472651
 20
129.9117701623
 10
325.8607108913
 20
129.864711515
 10
325.8560632514
 20
129.8164472615
 10
325.8499802715
 20
129.7667536261
 10
325.84249546
 20
129.7155916529
 10
325.8335753085
 20
129.6630003467
 10
325.8227952181
 20
129.6088728794
 10
325.8101528119
 20
129.5530810932
 10
325.7956504668
 20
129.4957532049
 10
325.7788707154
 20
129.437166946
 10
325.7596744016
 20
129.3774149089
 10
325.7382006814
 20
129.3164045517
 10
325.7144495547
 20
129.2541359013
  0
LWPOLYLINE
  5
306
100
AcDbEntity
  8
0
100
AcDbPolyline
 62
253
  6
CONTINUOUS
 90
28
 70
0
 10
325.7144495547
 20
129.2541359013
 10
325.678313542
 20
129.1695703675
 10
325.6385334224
 20
129.0867268602
 10
325.5951091957
 20
129.0056052696
 10
325.5479468158
 20
128.9260015383
 10
325.4971403288
 20
128.848119515
 10
325.4429718738
 20
128.7725709046
 10
325.3854058407
 20
128.6993824103
 10
325.3244778395
 20
128.6285270275
 10
325.2605768396
 20
128.5605358225
 10
325.19368099
 20
128.4954439915
 10
325.1238121415
 20
128.4332159873
 10
325.0514248164
 20
128.3742767059
 10
324.9764979077
 20
128.3186562746
 10
324.8990525222
 20
128.2663242046
 10
324.8196065026
 20
128.2176144371
 10
324.738137006
 20
128.1725574578
 10
324.6546668752
 20
128.1311224447
 10
324.5697824819
 20
128.0935513675
 10
324.4834378358
 20
128.0598784279
 10
324.3956789271
 20
128.0300691452
 10
324.3072300982
 20
128.0042624721
 10
324.2181470417
 20
127.9825162987
 10
324.128374065
 20
127.9647725386
 10
324.0384684324
 20
127.9509961999
 10
323.9486158987
 20
127.9411755867
 10
323.8586307092
 20
127.9353222981
 10
323.7685128638
 20
127.9334363099
  0
LWPOLYLINE
  5
307
100
AcDbEntity
  8
0
100
AcDbPolyline
 62
253
  6
CONTINUOUS
 90
16
 70
0
 10
325.7144495547
 20
174.4637670184
 10
325.738361984
 20
174.401018814
 10
325.7599565715
 20
174.3396066583
 10
325.7792333173
 20
174.27953058
 10
325.7960407601
 20
174.220733442
 10
325.8105303612
 20
174.1632724356
 10
325.8231565041
 20
174.1073190836
 10
325.833936011
 20
174.0528821841
 10
325.8428520598
 20
173.9999529958
 10
325.850308568
 20
173.9486767363
 10
325.8563176647
 20
173.8992520409
 10
325.8608672207
 20
173.8514803324
 10
325.8643247657
 20
173.8049110033
 10
325.8668128095
 20
173.7593938605
 10
325.8682088422
 20
173.7150791326
 10
325.8685128638
 20
173.6719668376
  0
LWPOLYLINE
  5
308
100
AcDbEntity
  8
0
100
AcDbPolyline
 62
7
  6
CONTINUOUS
 90
31
 70
0
 10
350.6685128638
 20
195.2589514598
 10
350.6662797459
 20
195.3434505121
 10
350.6595878105
 20
195.4277159595
 10
350.6484491112
 20
195.5115314304
 10
350.6328979455
 20
195.5946472534
 10
350.6129847819
 20
195.6768109139
 10
350.5887605636
 20
195.7577916743
 10
350.5603099619
 20
195.8373446779
 10
350.5277273718
 20
195.9152226318
 10
350.491111096
 20
195.9912159955
 10
350.4505715757
 20
196.0651236712
 10
350.4062372244
 20
196.1367253443
 10
350.3582615334
 20
196.2058117709
 10
350.3067934702
 20
196.2721956434
 10
350.2519749176
 20
196.3357159039
 10
350.1939550662
 20
196.3962198388
 10
350.1328985609
 20
196.4535523647
 10
350.0689937625
 20
196.5075637659
 10
350.0024230023
 20
196.5581099162
 10
349.9333795437
 20
196.605058592
 10
349.8620678136
 20
196.6482932037
 10
349.7886813214
 20
196.6877108716
 10
349.7134025165
 20
196.7232312865
 10
349.6364436534
 20
196.7547637848
 10
349.558039643
 20
196.7822249591
 10
349.4783724401
 20
196.8055655535
 10
349.3976338248
 20
196.8247354718
 10
349.316072299
 20
196.8396840227
 10
349.2338974095
 20
196.8503798328
 10
349.1513000827
 20
196.8568065261
 10
349.0685128638
 20
196.8589514598
  0
LINE
  5
309
100
AcDbEntity
  8
0
100
AcDbLine
 62
253
  6
CONTINUOUS
 10
349.0685128638
 20
106.8589514598
 11
349.0685128638
 21
108.082888354
  0
LINE
  5
30A
100
AcDbEntity
  8
0
100
AcDbLine
 62
253
  6
CONTINUOUS
 10
349.0685128638
 20
195.6350145656
 11
349.0685128638
 21
196.8589514598
  0
LINE
  5
30B
100
AcDbEntity
  8
0
100
AcDbLine
 62
253
  6
CONTINUOUS
 10
349.2389643195
 20
195.4641830156
 11
349.240853806
 21
128.3126832038
  0
LINE
  5
30C
100
AcDbEntity
  8
0
100
AcDbLine
 62
253
  6
CONTINUOUS
 10
350.5338581576
 20
195.2568377445
 11
350.5359344775
 21
129.3136876721
  0
LINE
  5
30D
100
AcDbEntity
  8
0
100
AcDbLine
 62
7
  6
CONTINUOUS
 10
350.6685128638
 20
108.4589514598
 11
350.6685128638
 21
195.2589514598
  0
LINE
  5
30E
100
AcDbEntity
  8
0
100
AcDbLine
 62
253
  6
CONTINUOUS
 10
349.240853806
 20
128.3126832038
 11
349.2389635012
 21
108.2534582147
  0
LINE
  5
30F
100
AcDbEntity
  8
0
100
AcDbLine
 62
253
  6
CONTINUOUS
 10
350.5359344775
 20
129.3136876721
 11
350.5338581302
 21
108.4593491576
  0
LWPOLYLINE
  5
310
100
AcDbEntity
  8
0
100
AcDbPolyline
 62
253
  6
CONTINUOUS
 90
31
 70
0
 10
349.2389635012
 20
108.2534582147
 10
349.2387268774
 20
108.2446632151
 10
349.2380386159
 20
108.2359158351
 10
349.2368987166
 20
108.2272160734
 10
349.2353033397
 20
108.2185366603
 10
349.233256325
 20
108.2099048634
 10
349.2307691921
 20
108.201402485
 10
349.2278378973
 20
108.1930330541
 10
349.2244664844
 20
108.1847930346
 10
349.2206786039
 20
108.176753627
 10
349.2164683369
 20
108.1689146944
 10
349.2118416023
 20
108.1612763634
 10
349.2068398088
 20
108.1539102262
 10
349.2014670358
 20
108.1468260548
 10
349.1957192038
 20
108.1400140642
 10
349.1896254828
 20
108.1335165083
 10
349.183174299
 20
108.1273264872
 10
349.1763772262
 20
108.121450888
 10
349.1692981562
 20
108.1159526433
 10
349.1619393143
 20
108.1108395359
 10
349.1542984751
 20
108.1061037699
 10
349.1464328544
 20
108.1017849093
 10
349.1383361882
 20
108.0978848374
 10
349.1300147404
 20
108.0944016597
 10
349.1215445189
 20
108.0913692724
 10
349.1129226405
 20
108.0887923342
 10
349.1041519884
 20
108.0866661782
 10
349.095317219
 20
108.0850107132
 10
349.0864465512
 20
108.0838325739
 10
349.0775117661
 20
108.0831251212
 10
349.0685128638
 20
108.082888354
  0
LWPOLYLINE
  5
311
100
AcDbEntity
  8
0
100
AcDbPolyline
 62
253
  6
CONTINUOUS
 90
31
 70
0
 10
350.533834942
 20
108.4593492195
 10
350.5307102631
 20
108.3834169427
 10
350.5236590929
 20
108.3077754581
 10
350.5126959951
 20
108.2326109858
 10
350.4978553437
 20
108.1581607998
 10
350.4791856591
 20
108.0846186836
 10
350.4567211667
 20
108.0121143042
 10
350.4305203773
 20
107.9408451313
 10
350.4006625196
 20
107.8710437088
 10
350.3672243096
 20
107.8028755869
 10
350.3302916164
 20
107.7365190652
 10
350.2899652088
 20
107.672172247
 10
350.2463652598
 20
107.6100046702
 10
350.1996039558
 20
107.5501792255
 10
350.1498006531
 20
107.4928590586
 10
350.09709154
 20
107.4381922269
 10
350.0416114078
 20
107.3863252699
 10
349.9835091676
 20
107.3373937789
 10
349.9229417654
 20
107.2915287096
 10
349.860070042
 20
107.2488617343
 10
349.795070391
 20
107.2095116452
 10
349.7281188507
 20
107.1735823725
 10
349.6593609928
 20
107.1411535063
 10
349.5889894678
 20
107.112324782
 10
349.5172514155
 20
107.08719489
 10
349.4443048095
 20
107.0658148261
 10
349.3703182502
 20
107.0482394104
 10
349.2955572256
 20
107.0345285028
 10
349.2202236005
 20
107.0247145462
 10
349.1444722452
 20
107.0188147332
 10
349.0685128638
 20
107.0168453571
  0
LWPOLYLINE
  5
312
100
AcDbEntity
  8
0
100
AcDbPolyline
 62
253
  6
CONTINUOUS
 90
28
 70
0
 10
350.5338581571
 20
195.2568380056
 10
350.5255925278
 20
195.2692499145
 10
350.5134507891
 20
195.2815631426
 10
350.4974695191
 20
195.2937405952
 10
350.4776968633
 20
195.3057455861
 10
350.4541923889
 20
195.3175419491
 10
350.4270269057
 20
195.3290941463
 10
350.3962822527
 20
195.3403673755
 10
350.3620510514
 20
195.3513276748
 10
350.3244364271
 20
195.361942025
 10
350.2835516979
 20
195.3721784494
 10
350.2395200336
 20
195.3820061096
 10
350.1924740842
 20
195.3913953985
 10
350.1425555808
 20
195.40031803
 10
350.0899149083
 20
195.4087471237
 10
350.0347106525
 20
195.416657286
 10
349.9771091221
 20
195.4240246866
 10
349.9172838481
 20
195.4308271304
 10
349.8554150606
 20
195.4370441243
 10
349.7916891459
 20
195.4426569389
 10
349.7262980855
 20
195.447648665
 10
349.6594388768
 20
195.4520042645
 10
349.5913129406
 20
195.4557106156
 10
349.5221255136
 20
195.4587565525
 10
349.4520850304
 20
195.461132899
 10
349.3814024957
 20
195.4628324961
 10
349.3102908482
 20
195.4638502235
 10
349.2389643195
 20
195.4641830152
  0
LWPOLYLINE
  5
313
100
AcDbEntity
  8
0
100
AcDbPolyline
 62
253
  6
CONTINUOUS
 90
28
 70
0
 10
350.5338269848
 20
108.4589514923
 10
350.5255452737
 20
108.446553698
 10
350.5133889136
 20
108.4342601399
 10
350.4973945145
 20
108.4221078403
 10
350.4776102448
 20
108.4101333961
 10
350.4540956865
 20
108.3983728686
 10
350.4269216556
 20
108.3868616752
 10
350.3961699891
 20
108.375634482
 10
350.361933298
 20
108.3647251
 10
350.3243146892
 20
108.354166383
 10
350.283427454
 20
108.3439901289
 10
350.239394728
 20
108.3342269837
 10
350.1923491193
 20
108.3249063493
 10
350.1424323097
 20
108.316056295
 10
350.0897946278
 20
108.3077034729
 10
350.0345945964
 20
108.2998730379
 10
349.976998455
 20
108.2925885714
 10
349.9171796592
 20
108.2858720109
 10
349.8553183583
 20
108.2797435833
 10
349.7916008528
 20
108.2742217446
 10
349.7262190332
 20
108.269323124
 10
349.6593698025
 20
108.2650624738
 10
349.5912544825
 20
108.2614526251
 10
349.5220782083
 20
108.258504449
 10
349.4520493101
 20
108.2562268242
 10
349.3813786856
 20
108.2546266096
 10
349.3102791654
 20
108.2537086246
 10
349.2389648717
 20
108.2534756335
  0
LINE
  5
314
100
AcDbEntity
  8
0
100
AcDbLine
 62
7
  6
CONTINUOUS
 10
116.8934977683
 20
108.4589514598
 11
116.963213823
 21
108.4714718732
  0
LWPOLYLINE
  5
315
100
AcDbEntity
  8
RACCORDO
100
AcDbPolyline
 62
253
  6
CONTINUOUS
 90
16
 70
0
 10
117.2527695157
 20
108.1497005508
 10
117.3746770536
 20
108.1678023377
 10
117.4962829504
 20
108.1885791278
 10
117.6175182946
 20
108.2120353329
 10
117.7380546181
 20
108.238056925
 10
117.8580770593
 20
108.2667666621
 10
117.9782703224
 20
108.2985250457
 10
118.098504903
 20
108.3332410938
 10
118.2187106398
 20
108.3710166364
 10
118.3396206817
 20
108.4125039071
 10
118.4609589611
 20
108.4574703862
 10
118.5827085331
 20
108.5061629874
 10
118.7059244147
 20
108.5599581196
 10
118.8308091026
 20
108.6193235965
 10
118.9567455829
 20
108.6838149657
 10
119.0835075686
 20
108.7534439361
  0
LINE
  5
316
100
AcDbEntity
  8
0
100
AcDbLine
 62
7
  6
CONTINUOUS
 10
115.3842384537
 20
107.0168453571
 11
117.1889739583
 21
106.8589514598
  0
LINE
  5
317
100
AcDbEntity
  8
0
100
AcDbLine
 62
253
  6
CONTINUOUS
 10
115.3540528852
 20
108.4589514923
 11
114.2354228103
 21
108.2614526251
  0
LWPOLYLINE
  5
318
100
AcDbEntity
  8
0
100
AcDbPolyline
 62
253
  6
CONTINUOUS
 90
5
 70
0
 10
114.2354228103
 20
108.2614526251
 10
114.204802937
 20
108.2562268242
 10
114.1951761306
 20
108.2546266096
 10
114.1893805504
 20
108.2537086246
 10
114.1874336505
 20
108.2534756335
  0
LINE
  5
319
100
AcDbEntity
  8
RACCORDO
100
AcDbLine
 62
253
  6
CONTINUOUS
 10
119.0835075686
 20
108.7534439361
 11
117.1461831117
 21
108.7417399475
  0
LINE
  5
31A
100
AcDbEntity
  8
0
100
AcDbLine
 62
253
  6
CONTINUOUS
 10
115.3543156972
 20
108.4593491576
 11
116.8934977683
 21
108.4589514598
  0
LINE
  5
31B
100
AcDbEntity
  8
RACCORDO
100
AcDbLine
 62
7
  6
CONTINUOUS
 10
117.2875851455
 20
107.9589514598
 11
117.1436012549
 21
107.971548418
  0
LINE
  5
31C
100
AcDbEntity
  8
RACCORDO
100
AcDbLine
 62
253
  6
CONTINUOUS
 10
117.1082585857
 20
108.9554297494
 11
116.8762706141
 21
108.9757372989
  0
LINE
  5
31D
100
AcDbEntity
  8
0
100
AcDbLine
 62
253
  6
CONTINUOUS
 10
114.4975104039
 20
129.3897647946
 11
114.5672343282
 21
129.3932716585
  0
LINE
  5
31E
100
AcDbEntity
  8
0
100
AcDbLine
 62
253
  6
CONTINUOUS
 10
112.9859765053
 20
129.3136876721
 11
111.8009190764
 21
129.2541359014
  0
LINE
  5
31F
100
AcDbEntity
  8
0
100
AcDbLine
 62
253
  6
CONTINUOUS
 10
112.9821591775
 20
129.3897647946
 11
111.797090706
 21
129.3303809112
  0
LINE
  5
320
100
AcDbEntity
  8
0
100
AcDbLine
 62
253
  6
CONTINUOUS
 10
119.8009190735
 20
129.4903422673
 11
117.0695097027
 21
129.4449891652
  0
LINE
  5
321
100
AcDbEntity
  8
0
100
AcDbLine
 62
253
  6
CONTINUOUS
 10
117.0695097027
 20
129.4449891652
 11
114.7950026948
 21
129.4096181264
  0
LINE
  5
322
100
AcDbEntity
  8
0
100
AcDbLine
 62
253
  6
CONTINUOUS
 10
114.4975104039
 20
129.3897647946
 11
112.9821591775
 21
129.3897647946
  0
LINE
  5
323
100
AcDbEntity
  8
RACCORDO
100
AcDbLine
 62
253
  6
CONTINUOUS
 10
114.5672343282
 20
129.4096181264
 11
114.7950026948
 21
129.4096181264
  0
LWPOLYLINE
  5
324
100
AcDbEntity
  8
RACCORDO
100
AcDbPolyline
 62
253
  6
CONTINUOUS
 90
19
 70
0
 10
119.0835074234
 20
108.7534439266
 10
119.1056776007
 20
108.7056291026
 10
119.1254648282
 20
108.6578931533
 10
119.1427747441
 20
108.610463723
 10
119.1575248002
 20
108.5635669946
 10
119.1696446563
 20
108.5174266101
 10
119.1790765149
 20
108.4722626042
 10
119.185775397
 20
108.4282903562
 10
119.1897093565
 20
108.3857195622
 10
119.1908596329
 20
108.3447532345
 10
119.1892207403
 20
108.3055867347
 10
119.1848004941
 20
108.2684068413
 10
119.1776199731
 20
108.2333908589
 10
119.1677134199
 20
108.2007057729
 10
119.1551280765
 20
108.1705074533
 10
119.1399239602
 20
108.1429399111
 10
119.1221735763
 20
108.1181346116
 10
119.1019615732
 20
108.0962098476
 10
119.0793843381
 20
108.0772701747
  0
LINE
  5
325
100
AcDbEntity
  8
0
100
AcDbLine
 62
7
  6
CONTINUOUS
 10
117.2586985525
 20
107.6559072183
 11
117.1099959643
 21
108.0642149326
  0
LINE
  5
326
100
AcDbEntity
  8
0
100
AcDbLine
 62
7
  6
CONTINUOUS
 10
117.1099959643
 20
108.0642149326
 11
116.9632138228
 21
108.4714718737
  0
LINE
  5
327
100
AcDbEntity
  8
0
100
AcDbLine
 62
7
  6
CONTINUOUS
 10
116.9632138205
 20
195.2464310171
 11
117.160289881
 21
195.7923039318
  0
LINE
  5
328
100
AcDbEntity
  8
0
100
AcDbLine
 62
7
  6
CONTINUOUS
 10
117.160289881
 20
195.7923039318
 11
117.2582747517
 21
196.0608417146
  0
LINE
  5
329
100
AcDbEntity
  8
RACCORDO
100
AcDbLine
 62
7
  6
CONTINUOUS
 10
119.8009190735
 20
148.0062974984
 11
117.9661894379
 21
148.3298098355
  0
LWPOLYLINE
  5
32A
100
AcDbEntity
  8
0
100
AcDbPolyline
 62
7
  6
CONTINUOUS
 90
10
 70
0
 10
116.8934977683
 20
195.2589514598
 10
116.4956705932
 20
192.9505680178
 10
116.1307042927
 20
190.6367804842
 10
115.798599273
 20
188.3180552989
 10
115.4993029178
 20
185.9948587671
 10
115.2328686556
 20
183.6676574696
 10
114.9994559604
 20
181.3369182644
 10
114.7991182606
 20
179.0031077392
 10
114.6318029398
 20
176.6666922083
 10
114.4975104039
 20
174.328138125
  0
LWPOLYLINE
  5
32B
100
AcDbEntity
  8
0
100
AcDbPolyline
 62
7
  6
CONTINUOUS
 90
10
 70
0
 10
116.963213823
 20
195.246431047
 10
116.5653879792
 20
192.9390648758
 10
116.2004228921
 20
190.6262892388
 10
115.8683189696
 20
188.3085711903
 10
115.5690235969
 20
185.9863776504
 10
115.3025902042
 20
183.6601758132
 10
115.0691782666
 20
181.3304331495
 10
114.8688412142
 20
178.9976168604
 10
114.7015264322
 20
176.6621938751
 10
114.5672343282
 20
174.3246312612
  0
LWPOLYLINE
  5
32C
100
AcDbEntity
  8
0
100
AcDbPolyline
 62
253
  6
CONTINUOUS
 90
22
 70
0
 10
115.3540078419
 20
195.2568377445
 10
115.171372162
 20
194.2090683789
 10
114.9962297474
 20
193.1664855312
 10
114.8285797097
 20
192.1291527937
 10
114.6685344756
 20
191.0971481077
 10
114.5159798529
 20
190.0705157233
 10
114.3705750376
 20
189.0492660715
 10
114.2323170531
 20
188.033454133
 10
114.1012071519
 20
187.0231371072
 10
113.976910893
 20
186.0183261499
 10
113.8594254061
 20
185.019071726
 10
113.7487518749
 20
184.0254261285
 10
113.6445619572
 20
183.0374008299
 10
113.546852829
 20
182.0550418952
 10
113.4556256638
 20
181.0783971065
 10
113.3705581306
 20
180.1074782469
 10
113.2916474599
 20
179.1423274541
 10
113.2188948053
 20
178.1829880071
 10
113.1519837364
 20
177.2294712786
 10
113.0908082504
 20
176.2818068483
 10
113.0354727684
 20
175.3400425664
 10
112.9859765053
 20
174.4042152476
  0
LINE
  5
32D
100
AcDbEntity
  8
0
100
AcDbLine
 62
7
  6
CONTINUOUS
 10
116.8934977683
 20
195.2589514598
 11
117.0267074768
 21
195.9912159955
  0
LINE
  5
32E
100
AcDbEntity
  8
0
100
AcDbLine
 62
7
  6
CONTINUOUS
 10
117.0267074768
 20
195.9912159955
 11
117.1632779931
 21
196.7232312865
  0
LINE
  5
32F
100
AcDbEntity
  8
0
100
AcDbLine
 62
7
  6
CONTINUOUS
 10
117.1632779931
 20
196.7232312865
 11
117.1889739583
 21
196.8589514598
  0
LINE
  5
330
100
AcDbEntity
  8
RACCORDO
100
AcDbLine
 62
7
  6
CONTINUOUS
 10
117.9661894379
 20
155.3880930842
 11
119.8009190735
 21
155.7116054212
  0
LINE
  5
331
100
AcDbEntity
  8
0
100
AcDbLine
 62
253
  6
CONTINUOUS
 10
117.8009190735
 20
151.8589514598
 11
114.2309190735
 21
151.8589514598
  0
LINE
  5
332
100
AcDbEntity
  8
0
100
AcDbLine
 62
7
  6
CONTINUOUS
 10
117.1889739583
 20
106.8589514598
 11
117.1824846277
 21
106.8931679982
  0
LINE
  5
333
100
AcDbEntity
  8
0
100
AcDbLine
 62
7
  6
CONTINUOUS
 10
117.1824846277
 20
106.8931679982
 11
117.0535833617
 21
107.5811776332
  0
LINE
  5
334
100
AcDbEntity
  8
0
100
AcDbLine
 62
7
  6
CONTINUOUS
 10
117.0535833617
 20
107.5811776332
 11
116.9238969539
 21
108.2901858768
  0
LINE
  5
335
100
AcDbEntity
  8
0
100
AcDbLine
 62
7
  6
CONTINUOUS
 10
116.9238969539
 20
108.2901858768
 11
116.8934977683
 21
108.4589514598
  0
LWPOLYLINE
  5
336
100
AcDbEntity
  8
0
100
AcDbPolyline
 62
253
  6
CONTINUOUS
 90
21
 70
0
 10
113.0354134348
 20
128.3788684521
 10
113.0906886373
 20
127.4380003854
 10
113.1518029115
 20
126.4911203055
 10
113.2186500152
 20
125.5382759983
 10
113.2913378004
 20
124.5794972101
 10
113.3701882174
 20
123.6147957115
 10
113.4552000548
 20
122.6442149695
 10
113.546376169
 20
121.667797172
 10
113.644044627
 20
120.6855543282
 10
113.7482042016
 20
119.6975344215
 10
113.8588578006
 20
118.7037837037
 10
113.9763397104
 20
117.704313892
 10
114.1006486936
 20
116.6991775675
 10
114.2317877053
 20
115.6884254586
 10
114.3700973378
 20
114.6720689721
 10
114.5155787968
 20
113.6501508819
 10
114.6682326345
 20
112.6227413525
 10
114.828398477
 20
111.5898954005
 10
114.9961901282
 20
110.5516722942
 10
115.1714955686
 20
109.5081355658
 10
115.3543156972
 20
108.4593491576
  0
LWPOLYLINE
  5
337
100
AcDbEntity
  8
0
100
AcDbPolyline
 62
7
  6
CONTINUOUS
 90
10
 70
0
 10
114.5672343282
 20
129.3932716585
 10
114.7015264324
 20
127.0557090429
 10
114.8688412147
 20
124.7202860561
 10
115.0691782673
 20
122.3874697654
 10
115.3025902052
 20
120.0577270996
 10
115.5690235982
 20
117.7315252604
 10
115.868318971
 20
115.4093317199
 10
116.2004228933
 20
113.091613673
 10
116.5653879798
 20
110.7788380392
 10
116.9632138229
 20
108.4714718726
  0
LWPOLYLINE
  5
338
100
AcDbEntity
  8
0
100
AcDbPolyline
 62
7
  6
CONTINUOUS
 90
10
 70
0
 10
114.4975104039
 20
129.3897647946
 10
114.6318029398
 20
127.0512107113
 10
114.7991182606
 20
124.7147951804
 10
114.9994559604
 20
122.3809846552
 10
115.2328686556
 20
120.0502454501
 10
115.4993029178
 20
117.7230441525
 10
115.798599273
 20
115.3998476208
 10
116.1307042927
 20
113.0811224355
 10
116.4956705932
 20
110.7673349018
 10
116.8934977683
 20
108.4589514598
  0
LINE
  5
339
100
AcDbEntity
  8
0
100
AcDbLine
 62
253
  6
CONTINUOUS
 10
112.9821591775
 20
129.3897647946
 11
113.0354134348
 21
128.3788684521
  0
LWPOLYLINE
  5
33A
100
AcDbEntity
  8
0
100
AcDbPolyline
 62
7
  6
CONTINUOUS
 90
13
 70
0
 10
114.4975104039
 20
129.3897647946
 10
114.3249737484
 20
133.13225687
 10
114.1838048969
 20
136.8760482498
 10
114.0740038468
 20
140.6208761618
 10
113.9955675364
 20
144.3664730084
 10
113.9484990212
 20
148.1125808599
 10
113.9328074765
 20
151.8589514598
 10
113.9484990212
 20
155.6053220597
 10
113.9955675364
 20
159.3514299113
 10
114.0740038468
 20
163.0970267578
 10
114.1838048969
 20
166.8418546698
 10
114.3249737484
 20
170.5856460497
 10
114.4975104039
 20
174.328138125
  0
LINE
  5
33B
100
AcDbEntity
  8
0
100
AcDbLine
 62
253
  6
CONTINUOUS
 10
115.3773906372
 20
107.3373937789
 11
115.3842053626
 21
107.0188147332
  0
LINE
  5
33C
100
AcDbEntity
  8
0
100
AcDbLine
 62
253
  6
CONTINUOUS
 10
115.3540446956
 20
108.4593492195
 11
115.3773906372
 21
107.3373937789
  0
LINE
  5
33D
100
AcDbEntity
  8
0
100
AcDbLine
 62
253
  6
CONTINUOUS
 10
115.3842053626
 20
107.0188147332
 11
115.3842384537
 21
107.0168453571
  0
LINE
  5
33E
100
AcDbEntity
  8
0
100
AcDbLine
 62
253
  6
CONTINUOUS
 10
115.3842051441
 20
196.6990850039
 11
115.3540086363
 21
195.2568377696
  0
LWPOLYLINE
  5
33F
100
AcDbEntity
  8
0
100
AcDbPolyline
 62
253
  6
CONTINUOUS
 90
12
 70
0
 10
112.810249311
 20
170.5856668166
 10
112.6695931149
 20
166.8418879052
 10
112.560190588
 20
163.0970641528
 10
112.4820384641
 20
159.3514603791
 10
112.4351400067
 20
155.6053372805
 10
112.419505011
 20
151.8589514274
 10
112.4351400078
 20
148.1125655649
 10
112.4820384663
 20
144.3664424511
 10
112.5601905908
 20
140.6208386754
 10
112.6695931173
 20
136.8760149403
 10
112.8102493125
 20
133.1322360595
 10
112.9821591775
 20
129.3897647946
  0
LWPOLYLINE
  5
340
100
AcDbEntity
  8
0
100
AcDbPolyline
 62
7
  6
CONTINUOUS
 90
13
 70
0
 10
114.5672343282
 20
174.3246312612
 10
114.3946978779
 20
170.5827247889
 10
114.2535291943
 20
166.8395183989
 10
114.1437282748
 20
163.0952749857
 10
114.0652920577
 20
159.3502622683
 10
114.0182235984
 20
155.6047382993
 10
114.0025320724
 20
151.8589514598
 10
114.0182235984
 20
148.1131646203
 10
114.0652920577
 20
144.3676406513
 10
114.1437282748
 20
140.622627934
 10
114.2535291943
 20
136.8783845207
 10
114.3946978779
 20
133.1351781308
 10
114.5672343282
 20
129.3932716585
  0
LINE
  5
341
100
AcDbEntity
  8
0
100
AcDbLine
 62
253
  6
CONTINUOUS
 10
112.9859765053
 20
174.4042152476
 11
112.810249311
 21
170.5856668166
  0
LINE
  5
342
100
AcDbEntity
  8
RACCORDO
100
AcDbLine
 62
7
  6
CONTINUOUS
 10
117.8009190735
 20
148.5267713861
 11
117.8009190735
 21
155.1911315336
  0
LINE
  5
343
100
AcDbEntity
  8
0
100
AcDbLine
 62
253
  6
CONTINUOUS
 10
115.3842384537
 20
196.7010575625
 11
115.3842051441
 21
196.6990850039
  0
LINE
  5
344
100
AcDbEntity
  8
0
100
AcDbLine
 62
7
  6
CONTINUOUS
 10
117.1889739583
 20
196.8589514598
 11
117.2586985525
 21
196.0619957013
  0
LINE
  5
345
100
AcDbEntity
  8
RACCORDO
100
AcDbLine
 62
7
  6
CONTINUOUS
 10
119.8009190735
 20
108.7589510177
 11
119.8009190735
 21
129.4903422673
  0
LINE
  5
346
100
AcDbEntity
  8
DRAFT
100
AcDbLine
 62
7
  6
CONTINUOUS
 10
119.8009190735
 20
129.4903422673
 11
119.8009190735
 21
148.0062974984
  0
LINE
  5
347
100
AcDbEntity
  8
DRAFT
100
AcDbLine
 62
7
  6
CONTINUOUS
 10
119.8009190735
 20
155.7116054212
 11
119.8009190735
 21
174.2275606524
  0
LINE
  5
348
100
AcDbEntity
  8
RACCORDO
100
AcDbLine
 62
7
  6
CONTINUOUS
 10
119.8009190735
 20
174.2275606524
 11
119.8009190735
 21
194.9589522938
  0
LINE
  5
349
100
AcDbEntity
  8
0
100
AcDbLine
 62
7
  6
CONTINUOUS
 10
117.1889739583
 20
106.8589514598
 11
117.2586985525
 21
107.6559072183
  0
LINE
  5
34A
100
AcDbEntity
  8
RACCORDO
100
AcDbLine
 62
253
  6
CONTINUOUS
 10
114.5672343282
 20
174.3082847932
 11
114.7950026948
 21
174.3082847932
  0
LINE
  5
34B
100
AcDbEntity
  8
0
100
AcDbLine
 62
253
  6
CONTINUOUS
 10
114.4975104039
 20
174.328138125
 11
112.9821591775
 21
174.328138125
  0
LINE
  5
34C
100
AcDbEntity
  8
0
100
AcDbLine
 62
253
  6
CONTINUOUS
 10
119.8009190735
 20
174.2275606524
 11
114.7950026948
 21
174.3082847932
  0
LINE
  5
34D
100
AcDbEntity
  8
0
100
AcDbLine
 62
253
  6
CONTINUOUS
 10
112.9821591775
 20
174.328138125
 11
111.7970907116
 21
174.3875220081
  0
LINE
  5
34E
100
AcDbEntity
  8
0
100
AcDbLine
 62
253
  6
CONTINUOUS
 10
114.4975104039
 20
174.328138125
 11
114.5672343282
 21
174.3246312612
  0
LINE
  5
34F
100
AcDbEntity
  8
0
100
AcDbLine
 62
253
  6
CONTINUOUS
 10
112.9859765053
 20
174.4042152476
 11
111.8009190735
 21
174.4637670184
  0
LINE
  5
350
100
AcDbEntity
  8
RACCORDO
100
AcDbLine
 62
253
  6
CONTINUOUS
 10
116.8762706155
 20
194.7421656282
 11
117.1082585857
 21
194.7624731702
  0
LINE
  5
351
100
AcDbEntity
  8
RACCORDO
100
AcDbLine
 62
7
  6
CONTINUOUS
 10
117.1436015848
 20
195.7463545305
 11
117.2875851455
 21
195.7589514598
  0
LINE
  5
352
100
AcDbEntity
  8
0
100
AcDbLine
 62
253
  6
CONTINUOUS
 10
115.3540078419
 20
195.2568377445
 11
116.8934977683
 21
195.2589514598
  0
LINE
  5
353
100
AcDbEntity
  8
RACCORDO
100
AcDbLine
 62
253
  6
CONTINUOUS
 10
119.0835075686
 20
194.9644589835
 11
117.1461831117
 21
194.9761629721
  0
LWPOLYLINE
  5
354
100
AcDbEntity
  8
RACCORDO
100
AcDbPolyline
 62
253
  6
CONTINUOUS
 90
10
 70
0
 10
119.0835075686
 20
194.9644589835
 10
119.1761191037
 20
194.9090530853
 10
119.2651417002
 20
194.8525391562
 10
119.3506595312
 20
194.7949179049
 10
119.4325387281
 20
194.7363562867
 10
119.511100622
 20
194.6766892549
 10
119.5870882745
 20
194.6154184355
 10
119.6607826929
 20
194.5523770918
 10
119.7320354169
 20
194.4877314476
 10
119.8009191294
 20
194.4214815137
  0
LWPOLYLINE
  5
355
100
AcDbEntity
  8
RACCORDO
100
AcDbPolyline
 62
253
  6
CONTINUOUS
 90
19
 70
0
 10
119.0793854274
 20
195.6406342291
 10
119.101962618
 20
195.6216944658
 10
119.1221745689
 20
195.5997696062
 10
119.1399248937
 20
195.5749642076
 10
119.1551289451
 20
195.5473965637
 10
119.1677142184
 20
195.5171981415
 10
119.1776206978
 20
195.4845129535
 10
119.1848011419
 20
195.4494968711
 10
119.1892213099
 20
195.4123168809
 10
119.190860124
 20
195.3731502882
 10
119.1897097702
 20
195.3321838727
 10
119.1857757354
 20
195.2896129965
 10
119.1790767812
 20
195.2456406715
 10
119.1696448548
 20
195.2004765946
 10
119.157524936
 20
195.1543361451
 10
119.1427748225
 20
195.1074393562
 10
119.1254648552
 20
195.0600098696
 10
119.1056775824
 20
195.0122738684
 10
119.0835073664
 20
194.9644589968
  0
LINE
  5
356
100
AcDbEntity
  8
0
100
AcDbLine
 62
7
  6
CONTINUOUS
 10
115.3842384537
 20
196.7010575625
 11
117.1889739583
 21
196.8589514598
  0
LWPOLYLINE
  5
357
100
AcDbEntity
  8
RACCORDO
100
AcDbPolyline
 62
253
  6
CONTINUOUS
 90
16
 70
0
 10
117.2527695428
 20
195.5682023643
 10
117.3755209572
 20
195.5499398259
 10
117.4977216916
 20
195.529040935
 10
117.6193047743
 20
195.5055013825
 10
117.7398695352
 20
195.4794452891
 10
117.8596819071
 20
195.4507400884
 10
117.9796547119
 20
195.4189954255
 10
118.0997343867
 20
195.3842904171
 10
118.2197747905
 20
195.34653512
 10
118.3405044001
 20
195.3050829635
 10
118.4616277469
 20
195.2601765263
 10
118.5831497833
 20
195.2115589469
 10
118.7061810512
 20
195.1578294132
 10
118.8309408297
 20
195.0985119212
 10
118.9567923407
 20
195.0340590287
 10
119.0835075686
 20
194.9644589835
  0
LINE
  5
358
100
AcDbEntity
  8
0
100
AcDbLine
 62
253
  6
CONTINUOUS
 10
114.2047122432
 20
195.461132899
 11
114.1873901954
 21
195.4641830152
  0
LINE
  5
359
100
AcDbEntity
  8
0
100
AcDbLine
 62
253
  6
CONTINUOUS
 10
115.3540078858
 20
195.2568380056
 11
114.2047122432
 21
195.461132899
  0
LINE
  5
35A
100
AcDbEntity
  8
0
100
AcDbLine
 62
7
  6
CONTINUOUS
 10
116.8934977683
 20
195.2589514598
 11
116.9632138207
 21
195.2464310325
  0
LWPOLYLINE
  5
35B
100
AcDbEntity
  8
RACCORDO
100
AcDbPolyline
 62
253
  6
CONTINUOUS
 90
10
 70
0
 10
119.0835075686
 20
108.7534439361
 10
119.1759753408
 20
108.8087881257
 10
119.2646965344
 20
108.8650943814
 10
119.3497617756
 20
108.9223616703
 10
119.430787453
 20
108.9802073635
 10
119.5083646993
 20
109.0390112449
 10
119.5839902492
 20
109.0999184255
 10
119.6581642674
 20
109.1633126166
 10
119.7304586877
 20
109.2288132152
 10
119.8009190598
 20
109.2964213413
  0
ARC
  5
35C
100
AcDbEntity
  8
0
100
AcDbCircle
 62
7
  6
CONTINUOUS
 10
323.7685128638
 20
173.6089514598
 40
0.8
100
AcDbArc
 50
0.0000146282
 51
89.9990835049
  0
ARC
  5
35D
100
AcDbEntity
  8
0
100
AcDbCircle
 62
7
  6
CONTINUOUS
 10
323.7685128638
 20
130.1089514598
 40
0.8
100
AcDbArc
 50
270.0011938174
 51
359.999973036
  0
ARC
  5
35E
100
AcDbEntity
  8
0
100
AcDbCircle
 62
7
  6
CONTINUOUS
 10
167.5685128638
 20
130.1089514598
 40
0.8
100
AcDbArc
 50
180.0000319431
 51
269.999113107
  0
ARC
  5
35F
100
AcDbEntity
  8
0
100
AcDbCircle
 62
7
  6
CONTINUOUS
 10
167.5685128638
 20
173.6089514598
 40
0.8
100
AcDbArc
 50
90.0010921037
 51
179.9999729823
  0
ARC
  5
360
100
AcDbEntity
  8
0
100
AcDbCircle
 62
7
  6
CONTINUOUS
 10
279.7095805455
 20
137.6993406613
 40
168.1209091124
100
AcDbArc
 50
182.8793442355
 51
190.1462645046
  0
ARC
  5
361
100
AcDbEntity
  8
0
100
AcDbCircle
 62
7
  6
CONTINUOUS
 10
279.7066324765
 20
137.7023114598
 40
165.12
100
AcDbArc
 50
182.8787323946
 51
190.1014160686
  0
ARC
  5
362
100
AcDbEntity
  8
RACCORDO
100
AcDbCircle
 62
7
  6
CONTINUOUS
 10
279.7066324765
 20
137.7023114598
 40
165.12
100
AcDbArc
 50
190.1014160686
 51
190.5891670949
  0
ARC
  5
363
100
AcDbEntity
  8
RACCORDO
100
AcDbCircle
 62
7
  6
CONTINUOUS
 10
116.7005378788
 20
111.317902197
 40
4.0200239337
100
AcDbArc
 50
279.9999997997
 51
320.4648685262
  0
ARC
  5
364
100
AcDbEntity
  8
0
100
AcDbCircle
 62
7
  6
CONTINUOUS
 10
115.4975404978
 20
108.3119008177
 40
1.3
100
AcDbArc
 50
190.1463698606
 51
265.0000275414
  0
ARC
  5
365
100
AcDbEntity
  8
RACCORDO
100
AcDbCircle
 62
7
  6
CONTINUOUS
 10
118.0009190735
 20
148.5267713861
 40
0.2
100
AcDbArc
 50
180.0
 51
260.0
  0
ARC
  5
366
100
AcDbEntity
  8
0
100
AcDbCircle
 62
7
  6
CONTINUOUS
 10
279.7095805455
 20
166.0185622583
 40
168.1209091124
100
AcDbArc
 50
169.8537354954
 51
177.1206560459
  0
ARC
  5
367
100
AcDbEntity
  8
0
100
AcDbCircle
 62
7
  6
CONTINUOUS
 10
279.7066324765
 20
166.0155914598
 40
165.12
100
AcDbArc
 50
169.8985839314
 51
177.1212676054
  0
ARC
  5
368
100
AcDbEntity
  8
RACCORDO
100
AcDbCircle
 62
7
  6
CONTINUOUS
 10
279.7066324765
 20
166.0155914598
 40
165.12
100
AcDbArc
 50
169.4108329051
 51
169.8985839314
  0
ARC
  5
369
100
AcDbEntity
  8
RACCORDO
100
AcDbCircle
 62
7
  6
CONTINUOUS
 10
116.7005378788
 20
192.4000007226
 40
4.0200239337
100
AcDbArc
 50
39.5351387157
 51
80.0000000069
  0
ARC
  5
36A
100
AcDbEntity
  8
0
100
AcDbCircle
 62
7
  6
CONTINUOUS
 10
115.4975409192
 20
195.406004455
 40
1.3
100
AcDbArc
 50
95.0
 51
169.8537354954
  0
ARC
  5
36B
100
AcDbEntity
  8
RACCORDO
100
AcDbCircle
 62
7
  6
CONTINUOUS
 10
118.0009190735
 20
155.1911315336
 40
0.2
100
AcDbArc
 50
100.0
 51
180.0
  0
ARC
  5
36C
100
AcDbEntity
  8
0
100
AcDbCircle
 62
7
  6
CONTINUOUS
 10
561.2328074765
 20
151.8589514598
 40
450.0
100
AcDbArc
 50
177.1206545731
 51
182.8793455321
  0
ARC
  5
36D
100
AcDbEntity
  8
0
100
AcDbCircle
 62
7
  6
CONTINUOUS
 10
561.2309190735
 20
151.8589514598
 40
447.0
100
AcDbArc
 50
177.1212676054
 51
182.8787323946
  0
ENDSEC
  0
SECTION
  2
OBJECTS
  0
DICTIONARY
  5
C
100
AcDbDictionary
280
0
281
1
  3
ACAD_GROUP
350
D
  3
ACAD_MLINESTYLE
350
17
  3
ACAD_LAYOUT
350
1A
  3
ACAD_PLOTSETTINGS
350
19
  3
ACAD_PLOTSTYLENAME
350
E
  0
DICTIONARY
  5
D
102
{ACAD_REACTORS
330
C
102
}
100
AcDbDictionary
280
0
281
1
  0
ACDBDICTIONARYWDFLT
  5
E
102
{ACAD_REACTORS
330
C
102
}
100
AcDbDictionary
281
1
  3
Normal
350
F
100
AcDbDictionaryWithDefault
340
F
  0
DICTIONARY
  5
17
102
{ACAD_REACTORS
330
C
102
}
100
AcDbDictionary
280
0
281
1
  3
Standard
350
18
  0
DICTIONARY
  5
19
102
{ACAD_REACTORS
330
C
102
}
100
AcDbDictionary
281
1
  0
DICTIONARY
  5
1A
102
{ACAD_REACTORS
330
C
102
}
100
AcDbDictionary
281
1
  3
Model
350
36E
  3
Layout1
350
36F
  0
ACDBPLACEHOLDER
  5
F
102
{ACAD_REACTORS
330
E
102
}
  0
MLINESTYLE
  5
18
102
{ACAD_REACTORS
330
17
102
}
100
AcDbMlineStyle
  2
STANDARD
 70
0
  3

 62
256
 51
90.0
 52
90.0
 71
2
 49
0.5
 62
256
  6
BYLAYER
 49
-0.5
 62
256
  6
BYLAYER
  0
LAYOUT
  5
36E
102
{ACAD_REACTORS
330
1A
102
}
100
AcDbPlotSettings
  1

  2
none_device
  4
ISO_A3_(420.00_x_297.00_MM)
  6

 40
0.0
 41
0.0
 42
0.0
 43
0.0
 44
420.0
 45
297.0
 46
0.0
 47
0.0
 48
0.0
 49
0.0
140
0.0
141
0.0
142
1.0
143
1.0
 70
1024
 72
1
 73
0
 74
0
  7

 75
0
147
1.0
148
0.0
149
0.0
100
AcDbLayout
  1
Model
 70
0
 71
0
 10
0.0
 20
0.0
 11
420.0
 21
297.0
 12
0.0
 22
0.0
 32
0.0
 14
0.0
 24
0.0
 34
0.0
 15
0.0
 25
0.0
 35
0.0
146
0.0
 13
0.0
 23
0.0
 33
0.0
 16
1.0
 26
0.0
 36
0.0
 17
0.0
 27
1.0
 37
0.0
 76
0
330
210
345
0
346
0
  0
LAYOUT
  5
36F
102
{ACAD_REACTORS
330
1A
102
}
100
AcDbPlotSettings
  1

  2
none_device
  4
ISO_A3_(420.00_x_297.00_MM)
  6

 40
0.0
 41
0.0
 42
0.0
 43
0.0
 44
420.0
 45
297.0
 46
0.0
 47
0.0
 48
0.0
 49
0.0
140
0.0
141
0.0
142
1.0
143
1.0
 70
0
 72
1
 73
0
 74
0
  7

 75
0
147
1.0
148
0.0
149
0.0
100
AcDbLayout
  1
Layout1
 70
0
 71
1
 10
0.0
 20
0.0
 11
420.0
 21
297.0
 12
0.0
 22
0.0
 32
0.0
 14
0.0
 24
0.0
 34
0.0
 15
0.0
 25
0.0
 35
0.0
146
0.0
 13
0.0
 23
0.0
 33
0.0
 16
1.0
 26
0.0
 36
0.0
 17
0.0
 27
1.0
 37
0.0
 76
0
330
211
345
0
346
0
  0
ENDSEC
  0
EOF
