  0
SECTION
  2
HEADER
  9
$ACADVER
  1
AC1021
  9
$DWGCODEPAGE
  3
ANSI_1252
  9
$EXTMAX
 10
297.0
 20
210.0
 30
0.0
  9
$EXTMIN
 10
0.0
 20
0.0
 30
0.0
  9
$LIMMIN
 10
0.0
 20
0.0
  9
$LIMMAX
 10
297.0
 20
210.0
  9
$VIEWCTR
 10
148.5
 20
105.0
  9
$VIEWSIZE
 40
210.0
  9
$CLAYER
  8
0
  9
$LTSCALE
 40
16.335
  9
$CELTYPE
  6
BYLAYER
  9
$DIMSCALE
 40
1.0
  9
$DIMASZ
 40
3.0
  9
$DIMEXO
 40
0.5
  9
$DIMDLI
 40
11.286
  9
$DIMEXE
 40
1.5
  9
$DIMCEN
 40
2.673
  9
$DIMLFAC
 40
1.0
  9
$DIMBLK
  1
_FILLED
  9
$DIMALT
 70
0
  9
$DIMALTF
 40
0.0393700787
  9
$DIMTXT
 40
3.0
  9
$DIMTOL
 70
1
  9
$DIMLIM
 70
0
  9
$DIMTFAC
 40
1.0
  9
$DIMTP
 40
0.01
  9
$DIMTM
 40
0.01
  9
$DIMGAP
 40
0.625
  9
$DIMDSEP
 70
44
  9
$AUNITS
 70
0
  9
$PDMODE
 70
3
  9
$PDSIZE
 40
3.0
  9
$HANDSEED
  5
455
  9
$TILEMODE
 70
1
  9
$MEASUREMENT
 70
1
  9
$INSUNITS
 70
4
  0
ENDSEC
  0
SECTION
  2
CLASSES
  0
CLASS
  1
ACDBDICTIONARYWDFLT
  2
AcDbDictionaryWithDefault
  3
AutoCAD 2000
 90
0
 91
1
280
0
281
0
  0
CLASS
  1
ACDBPLACEHOLDER
  2
AcDbPlaceHolder
  3
AutoCAD 2000
 90
0
 91
1
280
0
281
0
  0
CLASS
  1
LAYOUT
  2
AcDbLayout
  3
AutoCAD 2000
 90
0
 91
0
280
0
281
0
  0
ENDSEC
  0
SECTION
  2
TABLES
  0
TABLE
  2
VPORT
  5
8
100
AcDbSymbolTable
 70
2
  0
VPORT
  5
1F4
100
AcDbSymbolTableRecord
100
AcDbViewportTableRecord
  2
*ACTIVE
 70
0
 10
0.0
 20
0.0
 11
1.0
 21
1.0
 12
148.5
 22
105.0
 13
0.0
 23
0.0
 14
1.0
 24
1.0
 15
0.0
 25
0.0
 16
0.0
 26
0.0
 36
1.0
 17
0.0
 27
0.0
 37
0.0
 40
210.0
 41
1.4142857143
 42
50.0
 43
0.0
 44
0.0
 50
0.0
 51
0.0
 71
0
 72
100
 73
1
 74
1
 75
0
 76
0
 77
0
 78
0
  0
ENDTAB
  0
TABLE
  2
LTYPE
  5
5
100
AcDbSymbolTable
 70
6
  0
LTYPE
  5
14
100
AcDbSymbolTableRecord
100
AcDbLinetypeTableRecord
  2
BYBLOCK
 70
0
  3

 72
65
 73
0
 40
0.0
  0
LTYPE
  5
15
100
AcDbSymbolTableRecord
100
AcDbLinetypeTableRecord
  2
BYLAYER
 70
0
  3

 72
65
 73
0
 40
0.0
  0
LTYPE
  5
16
100
AcDbSymbolTableRecord
100
AcDbLinetypeTableRecord
  2
CONTINUOUS
 70
64
  3
Solid line
 72
65
 73
0
 40
0.0
  0
LTYPE
  5
1F5
100
AcDbSymbolTableRecord
100
AcDbLinetypeTableRecord
  2
CENTER
 70
64
  3
____ _ ____ _ ____ _ ____ _ ____ _ ____ _ ____
 72
65
 73
4
 40
0.6
 49
0.375
 74
0
 49
-0.075
 74
0
 49
0.075
 74
0
 49
-0.075
 74
0
  0
LTYPE
  5
1F6
100
AcDbSymbolTableRecord
100
AcDbLinetypeTableRecord
  2
HIDDEN
 70
64
  3
- - - - - - - - - - - - - - - - - - - -
 72
65
 73
2
 40
0.2
 49
0.1
 74
0
 49
-0.1
 74
0
  0
LTYPE
  5
1F7
100
AcDbSymbolTableRecord
100
AcDbLinetypeTableRecord
  2
PHANTOM
 70
64
  3
_____ _ _ _____ _ _ _____ _ _ _____
 72
65
 73
6
 40
0.8
 49
0.45
 74
0
 49
-0.05
 74
0
 49
0.1
 74
0
 49
-0.05
 74
0
 49
0.1
 74
0
 49
-0.05
 74
0
  0
LTYPE
  5
1F8
100
AcDbSymbolTableRecord
100
AcDbLinetypeTableRecord
  2
DOT
 70
64
  3
. . . . . . . . . . . . . . . . . . . .
 72
65
 73
2
 40
0.2
 49
0.1
 74
0
 49
-0.1
 74
0
  0
LTYPE
  5
1F9
100
AcDbSymbolTableRecord
100
AcDbLinetypeTableRecord
  2
DASHED
 70
64
  3
- - - - - - - - - - - - - - - - - - - -
 72
65
 73
2
 40
0.2
 49
0.1
 74
0
 49
-0.1
 74
0
  0
ENDTAB
  0
TABLE
  2
LAYER
  5
2
100
AcDbSymbolTable
 70
36
  0
LAYER
  5
10
100
AcDbSymbolTableRecord
100
AcDbLayerTableRecord
  2
0
 70
0
 62
7
  6
CONTINUOUS
370
-3
390
F
  0
LAYER
  5
1FA
100
AcDbSymbolTableRecord
100
AcDbLayerTableRecord
  2
DEFAULT_1
 70
0
 62
7
  6
CENTER
370
-3
390
F
  0
LAYER
  5
1FB
100
AcDbSymbolTableRecord
100
AcDbLayerTableRecord
  2
DEFAULT_2
 70
0
 62
7
  6
HIDDEN
370
-3
390
F
  0
LAYER
  5
1FC
100
AcDbSymbolTableRecord
100
AcDbLayerTableRecord
  2
DEFAULT_3
 70
0
 62
7
  6
PHANTOM
370
-3
390
F
  0
LAYER
  5
1FD
100
AcDbSymbolTableRecord
100
AcDbLayerTableRecord
  2
ASSI
 70
0
 62
7
  6
CONTINUOUS
370
-3
390
F
  0
LAYER
  5
1FE
100
AcDbSymbolTableRecord
100
AcDbLayerTableRecord
  2
COORDINATE
 70
0
 62
7
  6
CONTINUOUS
370
-3
390
F
  0
LAYER
  5
1FF
100
AcDbSymbolTableRecord
100
AcDbLayerTableRecord
  2
COPY_PUBLISH
 70
0
 62
7
  6
CONTINUOUS
370
-3
390
F
  0
LAYER
  5
200
100
AcDbSymbolTableRecord
100
AcDbLayerTableRecord
  2
COSMETICI
 70
0
 62
7
  6
CONTINUOUS
370
-3
390
F
  0
LAYER
  5
201
100
AcDbSymbolTableRecord
100
AcDbLayerTableRecord
  2
CURVE
 70
0
 62
7
  6
CONTINUOUS
370
-3
390
F
  0
LAYER
  5
202
100
AcDbSymbolTableRecord
100
AcDbLayerTableRecord
  2
DRAFT
 70
0
 62
7
  6
CONTINUOUS
370
-3
390
F
  0
LAYER
  5
203
100
AcDbSymbolTableRecord
100
AcDbLayerTableRecord
  2
IMPORT_IGES
 70
0
 62
7
  6
CONTINUOUS
370
-3
390
F
  0
LAYER
  5
204
100
AcDbSymbolTableRecord
100
AcDbLayerTableRecord
  2
INTF_1
 70
0
 62
7
  6
CONTINUOUS
370
-3
390
F
  0
LAYER
  5
205
100
AcDbSymbolTableRecord
100
AcDbLayerTableRecord
  2
INTF_11
 70
0
 62
7
  6
CONTINUOUS
370
-3
390
F
  0
LAYER
  5
206
100
AcDbSymbolTableRecord
100
AcDbLayerTableRecord
  2
NOTE
 70
0
 62
7
  6
CONTINUOUS
370
-3
390
F
  0
LAYER
  5
207
100
AcDbSymbolTableRecord
100
AcDbLayerTableRecord
  2
PIANI
 70
0
 62
7
  6
CONTINUOUS
370
-3
390
F
  0
LAYER
  5
208
100
AcDbSymbolTableRecord
100
AcDbLayerTableRecord
  2
PUNTI
 70
0
 62
7
  6
CONTINUOUS
370
-3
390
F
  0
LAYER
  5
209
100
AcDbSymbolTableRecord
100
AcDbLayerTableRecord
  2
RACCORDO
 70
0
 62
7
  6
CONTINUOUS
370
-3
390
F
  0
LAYER
  5
20A
100
AcDbSymbolTableRecord
100
AcDbLayerTableRecord
  2
RGB____0____0____0__
 70
0
 62
7
  6
CONTINUOUS
370
-3
390
F
  0
LAYER
  5
20B
100
AcDbSymbolTableRecord
100
AcDbLayerTableRecord
  2
SIMBOLI
 70
0
 62
7
  6
CONTINUOUS
370
-3
390
F
  0
LAYER
  5
20C
100
AcDbSymbolTableRecord
100
AcDbLayerTableRecord
  2
SMUSSO
 70
0
 62
7
  6
CONTINUOUS
370
-3
390
F
  0
LAYER
  5
20D
100
AcDbSymbolTableRecord
100
AcDbLayerTableRecord
  2
SNAPLINE
 70
0
 62
7
  6
CONTINUOUS
370
-3
390
F
  0
LAYER
  5
20E
100
AcDbSymbolTableRecord
100
AcDbLayerTableRecord
  2
SUPERFICI
 70
0
 62
7
  6
CONTINUOUS
370
-3
390
F
  0
LAYER
  5
20F
100
AcDbSymbolTableRecord
100
AcDbLayerTableRecord
  2
TRASH
 70
0
 62
7
  6
CONTINUOUS
370
-3
390
F
  0
ENDTAB
  0
TABLE
  2
STYLE
  5
3
100
AcDbSymbolTable
 70
1
  0
STYLE
  5
11
100
AcDbSymbolTableRecord
100
AcDbTextStyleTableRecord
  2
STANDARD
 70
0
 40
0.0
 41
0.8
 50
0.0
 71
0
 42
0.2
  3
txt
  4

  0
STYLE
  5
210
100
AcDbSymbolTableRecord
100
AcDbTextStyleTableRecord
  2
TEXTSTYLE_1
 70
0
 40
0.0
 41
0.8
 50
0.0
 71
0
 42
0.2
  3
gdt
  4

  0
ENDTAB
  0
TABLE
  2
VIEW
  5
6
100
AcDbSymbolTable
 70
0
  0
ENDTAB
  0
TABLE
  2
UCS
  5
7
100
AcDbSymbolTable
 70
0
  0
ENDTAB
  0
TABLE
  2
APPID
  5
9
100
AcDbSymbolTable
 70
1
  0
APPID
  5
211
100
AcDbSymbolTableRecord
100
AcDbRegAppTableRecord
  2
ACAD
 70
0
  0
ENDTAB
  0
TABLE
  2
BLOCK_RECORD
  5
1
100
AcDbSymbolTable
 70
0
  0
BLOCK_RECORD
  5
212
100
AcDbSymbolTableRecord
100
AcDbBlockTableRecord
  2
*Model_Space
  0
BLOCK_RECORD
  5
213
100
AcDbSymbolTableRecord
100
AcDbBlockTableRecord
  2
*Paper_Space
  0
BLOCK_RECORD
  5
214
100
AcDbSymbolTableRecord
100
AcDbBlockTableRecord
  2
_FILLED
  0
BLOCK_RECORD
  5
215
100
AcDbSymbolTableRecord
100
AcDbBlockTableRecord
  2
*D0
  0
BLOCK_RECORD
  5
216
100
AcDbSymbolTableRecord
100
AcDbBlockTableRecord
  2
*D1
  0
BLOCK_RECORD
  5
217
100
AcDbSymbolTableRecord
100
AcDbBlockTableRecord
  2
*D2
  0
ENDTAB
  0
TABLE
  2
DIMSTYLE
  5
A
100
AcDbSymbolTable
 70
1
100
AcDbDimStyleTable
 71
0
  0
DIMSTYLE
105
218
100
AcDbSymbolTableRecord
100
AcDbDimStyleTableRecord
  2
STANDARD
 70
0
  3

  4

 40
1.0
 41
3.0
 42
0.5
 43
0.38
 44
1.5
 45
0.0
 46
0.0
 47
0.01
 48
0.01
140
3.0
141
0.09
142
0.0
143
25.4
144
1.0
145
0.0
146
1.0
147
0.625
 71
1.0
 72
0.0
 73
0
 74
0
 75
0
 76
0
 77
1
 78
8
170
0
171
2
172
0
173
0
174
0
175
0
176
0
177
0
178
0
270
2
271
2
272
2
273
2
274
2
275
0
280
0
281
0
282
0
283
1
284
8
285
0
286
0
287
3
288
0
340
11
278
44
341
214
342
214
343
214
344
214
  0
DIMSTYLE
105
219
100
AcDbSymbolTableRecord
100
AcDbDimStyleTableRecord
  2
DIMSTYLE_1
 70
0
  3

  4

 40
1.0
 41
3.0
 42
0.5
 43
0.38
 44
1.5
 45
0.0
 46
0.0
 47
0.0
 48
0.0
140
3.0
141
0.09
142
0.0
143
25.4
144
1.0
145
0.0
146
1.0
147
0.75
 71
0.0
 72
0.0
 73
0
 74
0
 75
0
 76
0
 77
1
 78
8
170
0
171
2
172
0
173
0
174
0
175
0
176
0
177
0
178
0
270
2
271
2
272
2
273
2
274
2
275
0
280
0
281
0
282
0
283
1
284
8
285
0
286
0
287
3
288
0
340
11
278
44
341
214
342
214
343
214
344
214
  0
DIMSTYLE
105
21A
100
AcDbSymbolTableRecord
100
AcDbDimStyleTableRecord
  2
DIMSTYLE_2
 70
0
  3

  4

 40
1.0
 41
3.0
 42
0.5
 43
0.38
 44
1.5
 45
0.0
 46
0.0
 47
0.0
 48
0.0
140
3.0
141
0.09
142
0.0
143
25.4
144
1.0
145
0.0
146
1.0
147
0.75
 71
0.0
 72
0.0
 73
0
 74
0
 75
0
 76
0
 77
1
 78
8
170
0
171
2
172
0
173
0
174
0
175
0
176
0
177
0
178
0
270
2
271
1
272
1
273
2
274
2
275
0
280
0
281
0
282
0
283
1
284
8
285
0
286
0
287
3
288
0
340
11
278
44
341
214
342
214
343
214
344
214
  0
ENDTAB
  0
ENDSEC
  0
SECTION
  2
BLOCKS
  0
BLOCK
  5
20
100
AcDbEntity
  8
0
100
AcDbBlockBegin
  2
*Model_Space
 70
0
 10
0.0
 20
0.0
 30
0.0
  3
*Model_Space
  1

  0
ENDBLK
  5
21
100
AcDbEntity
  8
0
100
AcDbBlockEnd
  0
BLOCK
  5
1C
100
AcDbEntity
  8
0
100
AcDbBlockBegin
  2
*Paper_Space
 70
0
 10
0.0
 20
0.0
 30
0.0
  3
*Paper_Space
  1

  0
ENDBLK
  5
1D
100
AcDbEntity
  8
0
100
AcDbBlockEnd
  0
BLOCK
  5
21B
100
AcDbEntity
  8
0
100
AcDbBlockBegin
  2
_FILLED
 70
64
 10
0.0
 20
0.0
  3
_FILLED
  1

  0
SOLID
  5
21C
100
AcDbEntity
  8
0
  6
BYBLOCK
 62
0
100
AcDbTrace
 10
0.0
 20
0.0
 11
-1.0
 21
0.3166666667
 12
-1.0
 22
-0.3166666667
 13
-1.0
 23
-0.3166666667
  0
ENDBLK
  5
21D
100
AcDbEntity
  8
0
  6
BYBLOCK
 62
0
100
AcDbBlockEnd
  0
BLOCK
  5
21E
100
AcDbEntity
  8
0
100
AcDbBlockBegin
 62
7
  6
CONTINUOUS
  2
*D0
 70
65
 10
0.0
 20
0.0
  3
*D0
  1

  0
MTEXT
  5
21F
100
AcDbEntity
  8
0
100
AcDbMText
 62
7
  6
CONTINUOUS
  7
STANDARD
 71
2
 72
1
 10
154.9583783549
 20
0.0
 30
0.0
 11
0.0
 21
1.0
 31
0.0
 44
0.9
  1
90
 40
3.0
 41
7.0714285714
  0
LINE
  5
220
100
AcDbEntity
  8
0
100
AcDbLine
 62
7
  6
CONTINUOUS
 10
144.8204466441
 20
45.0
 11
160.2083783549
 21
45.0
  0
LINE
  5
221
100
AcDbEntity
  8
0
100
AcDbLine
 62
7
  6
CONTINUOUS
 10
144.8204466441
 20
-45.0
 11
160.2083783549
 21
-45.0
  0
LINE
  5
222
100
AcDbEntity
  8
0
100
AcDbLine
 62
7
  6
CONTINUOUS
 10
158.7083783549
 20
45.0
 11
158.7083783549
 21
0.0
  0
LINE
  5
223
100
AcDbEntity
  8
0
100
AcDbLine
 62
7
  6
CONTINUOUS
 10
158.7083783549
 20
-45.0
 11
158.7083783549
 21
0.0
  0
INSERT
  5
224
100
AcDbEntity
  8
0
100
AcDbBlockReference
 62
7
  6
CONTINUOUS
  2
_FILLED
 10
158.7083783549
 20
45.0
 41
3.0
 42
3.0
 43
3.0
 50
90.0
  0
INSERT
  5
225
100
AcDbEntity
  8
0
100
AcDbBlockReference
 62
7
  6
CONTINUOUS
  2
_FILLED
 10
158.7083783549
 20
-45.0
 41
3.0
 42
3.0
 43
3.0
 50
270.0
  0
ENDBLK
  5
226
100
AcDbEntity
  8
0
  6
BYBLOCK
 62
0
100
AcDbBlockEnd
  0
BLOCK
  5
227
100
AcDbEntity
  8
0
100
AcDbBlockBegin
 62
7
  6
CONTINUOUS
  2
*D1
 70
65
 10
0.0
 20
0.0
  3
*D1
  1

  0
MTEXT
  5
228
100
AcDbEntity
  8
0
100
AcDbMText
 62
7
  6
CONTINUOUS
  7
STANDARD
 71
3
 72
1
 10
135.8748414935
 20
61.75
 30
0.0
 11
1.0
 21
0.0
 31
0.0
 44
0.9
  1
9,1
 40
3.0
 41
8.6785714286
  0
LINE
  5
229
100
AcDbEntity
  8
0
100
AcDbLine
 62
7
  6
CONTINUOUS
 10
149.7777980747
 20
10.0186993872
 11
149.7777980747
 21
59.5
  0
LINE
  5
22A
100
AcDbEntity
  8
0
100
AcDbLine
 62
7
  6
CONTINUOUS
 10
140.70836775
 20
43.3782773439
 11
140.70836775
 21
59.5
  0
LINE
  5
22B
100
AcDbEntity
  8
0
100
AcDbLine
 62
7
  6
CONTINUOUS
 10
149.7777980747
 20
58.0
 11
153.7777980747
 21
58.0
  0
LINE
  5
22C
100
AcDbEntity
  8
0
100
AcDbLine
 62
7
  6
CONTINUOUS
 10
153.7777980747
 20
58.0
 11
145.2430829124
 21
58.0
  0
LINE
  5
22D
100
AcDbEntity
  8
0
100
AcDbLine
 62
7
  6
CONTINUOUS
 10
140.70836775
 20
58.0
 11
130.0891272078
 21
58.0
  0
LINE
  5
22E
100
AcDbEntity
  8
0
100
AcDbLine
 62
7
  6
CONTINUOUS
 10
130.0891272078
 20
58.0
 11
145.2430829124
 21
58.0
  0
INSERT
  5
22F
100
AcDbEntity
  8
0
100
AcDbBlockReference
 62
7
  6
CONTINUOUS
  2
_FILLED
 10
149.7777980747
 20
58.0
 41
3.0
 42
3.0
 43
3.0
 50
180.0
  0
INSERT
  5
230
100
AcDbEntity
  8
0
100
AcDbBlockReference
 62
7
  6
CONTINUOUS
  2
_FILLED
 10
140.70836775
 20
58.0
 41
3.0
 42
3.0
 43
3.0
  0
ENDBLK
  5
231
100
AcDbEntity
  8
0
  6
BYBLOCK
 62
0
100
AcDbBlockEnd
  0
BLOCK
  5
232
100
AcDbEntity
  8
0
100
AcDbBlockBegin
 62
7
  6
CONTINUOUS
  2
*D2
 70
65
 10
0.0
 20
0.0
  3
*D2
  1

  0
MTEXT
  5
233
100
AcDbEntity
  8
0
100
AcDbMText
 62
7
  6
CONTINUOUS
  7
STANDARD
 71
2
 72
1
 10
0.0
 20
61.75
 30
0.0
 11
1.0
 21
0.0
 31
0.0
 44
0.9
  1
210
 40
3.0
 41
9.6428571429
  0
LINE
  5
234
100
AcDbEntity
  8
0
100
AcDbLine
 62
7
  6
CONTINUOUS
 10
104.9999890968
 20
44.5035192549
 11
104.9999890968
 21
59.5
  0
LINE
  5
235
100
AcDbEntity
  8
0
100
AcDbLine
 62
7
  6
CONTINUOUS
 10
-104.9999890968
 20
44.5035192549
 11
-104.9999890968
 21
59.5
  0
LINE
  5
236
100
AcDbEntity
  8
0
100
AcDbLine
 62
7
  6
CONTINUOUS
 10
104.9999890968
 20
58.0
 11
0.0
 21
58.0
  0
LINE
  5
237
100
AcDbEntity
  8
0
100
AcDbLine
 62
7
  6
CONTINUOUS
 10
-104.9999890968
 20
58.0
 11
0.0
 21
58.0
  0
INSERT
  5
238
100
AcDbEntity
  8
0
100
AcDbBlockReference
 62
7
  6
CONTINUOUS
  2
_FILLED
 10
104.9999890968
 20
58.0
 41
3.0
 42
3.0
 43
3.0
  0
INSERT
  5
239
100
AcDbEntity
  8
0
100
AcDbBlockReference
 62
7
  6
CONTINUOUS
  2
_FILLED
 10
-104.9999890968
 20
58.0
 41
3.0
 42
3.0
 43
3.0
 50
180.0
  0
ENDBLK
  5
23A
100
AcDbEntity
  8
0
  6
BYBLOCK
 62
0
100
AcDbBlockEnd
  0
ENDSEC
  0
SECTION
  2
ENTITIES
  0
DIMENSION
  5
23B
100
AcDbEntity
  8
0
100
AcDbDimension
 62
7
  6
CONTINUOUS
  2
*D0
 10
158.7083783549
 20
-45.0
 11
158.7083783549
 21
-0.4285694909
 70
160
 71
2
 42
90.0
  3
DIMSTYLE_1
100
AcDbAlignedDimension
 13
144.3204466441
 23
45.0
 14
144.3204466441
 24
-45.0
 50
270.0
100
AcDbRotatedDimension
  0
DIMENSION
  5
23C
100
AcDbEntity
  8
0
100
AcDbDimension
 62
7
  6
CONTINUOUS
  2
*D1
 10
140.70836775
 20
58.0
 11
132.5534121552
 21
58.0
 70
160
 71
3
 42
9.0694303246
  3
DIMSTYLE_2
100
AcDbAlignedDimension
 13
149.7777980747
 23
9.5186993872
 14
140.70836775
 24
42.8782773439
 50
180.0
100
AcDbRotatedDimension
  0
DIMENSION
  5
23D
100
AcDbEntity
  8
0
100
AcDbDimension
 62
7
  6
CONTINUOUS
  2
*D2
 10
-104.9999890968
 20
58.0
 11
-0.4285714481
 21
58.0
 70
160
 71
2
 42
209.9999781935
  3
DIMSTYLE_1
100
AcDbAlignedDimension
 13
104.9999890968
 23
44.0035192549
 14
-104.9999890968
 24
44.0035192549
 50
180.0
100
AcDbRotatedDimension
  0
LWPOLYLINE
  5
23E
100
AcDbEntity
  8
RACCORDO
100
AcDbPolyline
 62
253
  6
CONTINUOUS
 90
28
 70
0
 10
-104.8448916334
 20
-43.8457940382
 10
-104.842554559
 20
-43.9038496315
 10
-104.8369019997
 20
-43.9616070225
 10
-104.8279609016
 20
-44.0188772596
 10
-104.8157723418
 20
-44.0754696849
 10
-104.8003819065
 20
-44.1312042337
 10
-104.7818362137
 20
-44.185911107
 10
-104.7601956357
 20
-44.2394243192
 10
-104.735540427
 20
-44.2915574935
 10
-104.7079624851
 20
-44.3421172861
 10
-104.6775652275
 20
-44.3909335563
 10
-104.6444518923
 20
-44.4378595476
 10
-104.6087298609
 20
-44.4827472027
 10
-104.5705222275
 20
-44.5254530921
 10
-104.5299595504
 20
-44.5658429607
 10
-104.4871699747
 20
-44.6037919516
 10
-104.4422974484
 20
-44.6391790959
 10
-104.3954918995
 20
-44.6718935528
 10
-104.3468979337
 20
-44.70183582
 10
-104.2966730121
 20
-44.7289115255
 10
-104.2449854781
 20
-44.7530334755
 10
-104.1920025624
 20
-44.7741251002
 10
-104.1379035556
 20
-44.7921174086
 10
-104.082860166
 20
-44.8069564251
 10
-104.0270322388
 20
-44.8185994301
 10
-103.970594547
 20
-44.8270076093
 10
-103.9137371922
 20
-44.8321499559
 10
-103.8566450886
 20
-44.8340076387
  0
LWPOLYLINE
  5
23F
100
AcDbEntity
  8
RACCORDO
100
AcDbPolyline
 62
253
  6
CONTINUOUS
 90
28
 70
0
 10
-104.346857488
 20
-43.9268006745
 10
-104.3459971562
 20
-43.9563671657
 10
-104.3435036001
 20
-43.985601025
 10
-104.3393768198
 20
-44.0145022836
 10
-104.3335907765
 20
-44.0431657865
 10
-104.326171509
 20
-44.0714967441
 10
-104.3171971331
 20
-44.0992107621
 10
-104.3066504007
 20
-44.1263021706
 10
-104.2945485599
 20
-44.1527767505
 10
-104.2810214701
 20
-44.1783673316
 10
-104.2660568287
 20
-44.2030602797
 10
-104.2496669383
 20
-44.2268693768
 10
-104.232018566
 20
-44.2495686139
 10
-104.2131007958
 20
-44.2711468137
 10
-104.1929245436
 20
-44.2916153175
 10
-104.1716893247
 20
-44.3107819198
 10
-104.1493861113
 20
-44.3286342874
 10
-104.1260239312
 20
-44.345184915
 10
-104.1018293826
 20
-44.3602788522
 10
-104.0767940196
 20
-44.3739028411
 10
-104.0509262882
 20
-44.3860702803
 10
-104.0244781242
 20
-44.3966662073
 10
-103.9974393893
 20
-44.4056757946
 10
-103.9698202217
 20
-44.4131139736
 10
-103.9419029728
 20
-44.418910414
 10
-103.9137817595
 20
-44.4230416916
 10
-103.8853624648
 20
-44.4255312856
 10
-103.8566450886
 20
-44.4263792099
  0
LINE
  5
240
100
AcDbEntity
  8
RACCORDO
100
AcDbLine
 62
7
  6
CONTINUOUS
 10
-104.9999996007
 20
-44.0035192549
 11
-105.0
 21
-22.5203789087
  0
LINE
  5
241
100
AcDbEntity
  8
RACCORDO
100
AcDbLine
 62
7
  6
CONTINUOUS
 10
-105.0
 20
22.5203789087
 11
-104.9999996007
 21
44.0035192549
  0
LINE
  5
242
100
AcDbEntity
  8
DRAFT
100
AcDbLine
 62
7
  6
CONTINUOUS
 10
-105.0
 20
-22.5203789087
 11
-105.0
 21
22.5203789087
  0
LINE
  5
243
100
AcDbEntity
  8
RACCORDO
100
AcDbLine
 62
253
  6
CONTINUOUS
 10
-104.8474462442
 20
0.0000001319
 11
-104.8448916333
 21
-43.845794038
  0
LINE
  5
244
100
AcDbEntity
  8
RACCORDO
100
AcDbLine
 62
253
  6
CONTINUOUS
 10
-104.3493488952
 20
0.0000000027
 11
-104.346857488
 21
-43.9268006745
  0
LINE
  5
245
100
AcDbEntity
  8
RACCORDO
100
AcDbLine
 62
253
  6
CONTINUOUS
 10
-103.8566450886
 20
-44.4263792099
 11
-103.8566450886
 21
-44.8340076387
  0
LINE
  5
246
100
AcDbEntity
  8
RACCORDO
100
AcDbLine
 62
253
  6
CONTINUOUS
 10
-103.8566450886
 20
44.4263792099
 11
-103.8566450889
 21
44.8340076387
  0
LINE
  5
247
100
AcDbEntity
  8
RACCORDO
100
AcDbLine
 62
253
  6
CONTINUOUS
 10
-104.8448916333
 20
43.8457940385
 11
-104.8474462442
 21
0.0000001319
  0
LINE
  5
248
100
AcDbEntity
  8
RACCORDO
100
AcDbLine
 62
253
  6
CONTINUOUS
 10
-104.346857488
 20
43.9268006745
 11
-104.3493488952
 21
0.0000000027
  0
LWPOLYLINE
  5
249
100
AcDbEntity
  8
RACCORDO
100
AcDbPolyline
 62
7
  6
CONTINUOUS
 90
28
 70
0
 10
-104.9999996007
 20
44.0035192549
 10
-104.9982508474
 20
44.0632408899
 10
-104.99314613
 20
44.1222945497
 10
-104.9846854486
 20
44.1806803605
 10
-104.9727769011
 20
44.2386673129
 10
-104.9575123896
 20
44.2959866303
 10
-104.9391676206
 20
44.3518319449
 10
-104.9177594647
 20
44.406038978
 10
-104.8932710513
 20
44.4587725744
 10
-104.8659274749
 20
44.5097202574
 10
-104.8357124582
 20
44.5589113297
 10
-104.8026422785
 20
44.6063170948
 10
-104.7669908621
 20
44.6515381854
 10
-104.7286215913
 20
44.6946403706
 10
-104.6876710837
 20
44.7355585396
 10
-104.6448231187
 20
44.7736971332
 10
-104.6001944544
 20
44.8088965316
 10
-104.5536683327
 20
44.8413170774
 10
-104.5055782576
 20
44.8708432141
 10
-104.4559155216
 20
44.8974915601
 10
-104.4046888324
 20
44.9212460649
 10
-104.3522578166
 20
44.9419421516
 10
-104.2984877502
 20
44.9595833458
 10
-104.2435133572
 20
44.9741665338
 10
-104.1880984368
 20
44.9855171539
 10
-104.1324975887
 20
44.9935770964
 10
-104.076456213
 20
44.9984046934
 10
-104.0199743099
 20
45.0
  0
LWPOLYLINE
  5
24A
100
AcDbEntity
  8
RACCORDO
100
AcDbPolyline
 62
253
  6
CONTINUOUS
 90
13
 70
0
 10
-79.4398863164
 20
21.8144316658
 10
-79.4380955195
 20
21.8858708067
 10
-79.4321482674
 20
21.9573603635
 10
-79.4220445601
 20
22.0289003334
 10
-79.4077700142
 20
22.1008904856
 10
-79.3893390131
 20
22.1729310385
 10
-79.3667947072
 20
22.2438226906
 10
-79.3399427996
 20
22.3135964281
 10
-79.3089775872
 20
22.3822213141
 10
-79.2745251108
 20
22.4484052204
 10
-79.2367940509
 20
22.5117174844
 10
-79.1955757271
 20
22.5725888775
 10
-79.1508701393
 20
22.6310194482
  0
LWPOLYLINE
  5
24B
100
AcDbEntity
  8
RACCORDO
100
AcDbPolyline
 62
253
  6
CONTINUOUS
 90
13
 70
0
 10
-78.9405731696
 20
21.7914778918
 10
-78.9393771606
 20
21.835193491
 10
-78.9357322721
 20
21.8792069796
 10
-78.9295774651
 20
21.9233780954
 10
-78.9208398831
 20
21.9676458435
 10
-78.9094844562
 20
22.0117666501
 10
-78.8955635601
 20
22.0553271719
 10
-78.8790758325
 20
22.0982192079
 10
-78.8600617406
 20
22.1402449168
 10
-78.8387585536
 20
22.1808959525
 10
-78.8153462434
 20
22.2199420883
 10
-78.7898752454
 20
22.2573993105
 10
-78.7624604562
 20
22.2931695584
  0
LWPOLYLINE
  5
24C
100
AcDbEntity
  8
RACCORDO
100
AcDbPolyline
 62
7
  6
CONTINUOUS
 90
28
 70
0
 10
-78.8500000304
 20
-21.7011338162
 10
-78.8486695732
 20
-21.7474146265
 10
-78.8446668598
 20
-21.7933561928
 10
-78.8379918902
 20
-21.8389585196
 10
-78.8285926175
 20
-21.8844361711
 10
-78.8165210886
 20
-21.9295745902
 10
-78.8019334442
 20
-21.9737301092
 10
-78.7848306183
 20
-22.0167940154
 10
-78.7652116769
 20
-22.0588750501
 10
-78.7432299584
 20
-22.0996557395
 10
-78.718882805
 20
-22.1391393267
 10
-78.6921728746
 20
-22.1773226025
 10
-78.6632614786
 20
-22.2138784232
 10
-78.632016258
 20
-22.2488849256
 10
-78.5985695718
 20
-22.2822640107
 10
-78.5634798093
 20
-22.3134541894
 10
-78.5268202151
 20
-22.3423254517
 10
-78.4885175445
 20
-22.3690078521
 10
-78.448910453
 20
-22.3933300047
 10
-78.4080045618
 20
-22.415285691
 10
-78.3657942496
 20
-22.4348811659
 10
-78.3226013079
 20
-22.4519637532
 10
-78.2783265966
 20
-22.4665338264
 10
-78.2330692557
 20
-22.4785910386
 10
-78.1874484968
 20
-22.4879816317
 10
-78.1416707237
 20
-22.4946543579
 10
-78.0955295326
 20
-22.4986604795
 10
-78.0490249234
 20
-22.5
  0
LINE
  5
24D
100
AcDbEntity
  8
RACCORDO
100
AcDbLine
 62
253
  6
CONTINUOUS
 10
-79.4398863164
 20
-21.8144316658
 11
-79.4398863164
 21
21.8144316658
  0
LINE
  5
24E
100
AcDbEntity
  8
RACCORDO
100
AcDbLine
 62
253
  6
CONTINUOUS
 10
-78.9405731813
 20
-21.7914824399
 11
-78.9405731783
 21
21.7914779004
  0
LINE
  5
24F
100
AcDbEntity
  8
RACCORDO
100
AcDbLine
 62
7
  6
CONTINUOUS
 10
-78.8500000304
 20
21.7011338162
 11
-78.8500000304
 21
-21.7011338162
  0
LINE
  5
250
100
AcDbEntity
  8
RACCORDO
100
AcDbLine
 62
253
  6
CONTINUOUS
 10
-78.1382398365
 20
23.1148987905
 11
-78.1382398365
 21
22.5889882007
  0
LINE
  5
251
100
AcDbEntity
  8
RACCORDO
100
AcDbLine
 62
253
  6
CONTINUOUS
 10
-78.1382398365
 20
-23.1148987905
 11
-78.1382398365
 21
-22.5889882007
  0
LWPOLYLINE
  5
252
100
AcDbEntity
  8
RACCORDO
100
AcDbPolyline
 62
253
  6
CONTINUOUS
 90
19
 70
0
 10
-79.1508701393
 20
22.6310194482
 10
-79.1092370427
 20
22.6800645487
 10
-79.0653716354
 20
22.7268463408
 10
-79.0192739176
 20
22.7713649177
 10
-78.9708251614
 20
22.8137336922
 10
-78.9201440947
 20
22.8538394237
 10
-78.8675869005
 20
22.8913422321
 10
-78.8131197444
 20
22.9262274848
 10
-78.756776461
 20
22.9585099874
 10
-78.699014737
 20
22.9878940305
 10
-78.6397911339
 20
23.0143507132
 10
-78.5791490902
 20
23.0379090883
 10
-78.5176766087
 20
23.0583603785
 10
-78.4553600119
 20
23.075653757
 10
-78.3922129772
 20
23.0898401623
 10
-78.3288645388
 20
23.1008634577
 10
-78.265524375
 20
23.1087049501
 10
-78.2019828075
 20
23.1133833896
 10
-78.1382398365
 20
23.1148987905
  0
LWPOLYLINE
  5
253
100
AcDbEntity
  8
RACCORDO
100
AcDbPolyline
 62
253
  6
CONTINUOUS
 90
19
 70
0
 10
-78.7624604562
 20
22.2931695584
 10
-78.7368397879
 20
22.3231629369
 10
-78.7097319701
 20
22.3518900933
 10
-78.6811981246
 20
22.379276313
 10
-78.6513070636
 20
22.4052458263
 10
-78.6201239194
 20
22.4297342225
 10
-78.5877083047
 20
22.4526865035
 10
-78.5541179367
 20
22.4740484538
 10
-78.5194460896
 20
22.4937479519
 10
-78.4838123882
 20
22.5117117726
 10
-78.4472886949
 20
22.5278985327
 10
-78.4099783896
 20
22.5422574776
 10
-78.3720597835
 20
22.5547254759
 10
-78.3336279073
 20
22.5652815537
 10
-78.2947818488
 20
22.5739086277
 10
-78.2557145497
 20
22.5805829348
 10
-78.2165571331
 20
22.5853092216
 10
-78.1773752331
 20
22.5881053341
 10
-78.1382641149
 20
22.5889882416
  0
LWPOLYLINE
  5
254
100
AcDbEntity
  8
RACCORDO
100
AcDbPolyline
 62
253
  6
CONTINUOUS
 90
16
 70
0
 10
-78.7624604562
 20
-22.2931695584
 10
-78.7843093259
 20
-22.2650077409
 10
-78.8050000532
 20
-22.2357128312
 10
-78.8244662086
 20
-22.2053264928
 10
-78.8426700433
 20
-22.1738446227
 10
-78.8595151369
 20
-22.1413642992
 10
-78.8748698097
 20
-22.1080956901
 10
-78.8886948931
 20
-22.0741051303
 10
-78.9009542268
 20
-22.0394620975
 10
-78.9115683034
 20
-22.0044030487
 10
-78.9205294495
 20
-21.9690085957
 10
-78.9278354586
 20
-21.9333543841
 10
-78.9334649907
 20
-21.8976809505
 10
-78.9374393701
 20
-21.8621217584
 10
-78.9397978635
 20
-21.8266981451
 10
-78.9405731695
 20
-21.7914824283
  0
LWPOLYLINE
  5
255
100
AcDbEntity
  8
RACCORDO
100
AcDbPolyline
 62
253
  6
CONTINUOUS
 90
16
 70
0
 10
-79.1509261497
 20
-22.6309398088
 10
-79.1864612369
 20
-22.5850772097
 10
-79.2199309117
 20
-22.5374873641
 10
-79.2513351739
 20
-22.4881702453
 10
-79.2808088828
 20
-22.4369385629
 10
-79.3082171792
 20
-22.3839795483
 10
-79.3331554857
 20
-22.3298549658
 10
-79.3555550558
 20
-22.2745459997
 10
-79.3754846361
 20
-22.2180714249
 10
-79.3927458891
 20
-22.1610494115
 10
-79.4072725371
 20
-22.1034721465
 10
-79.4191308579
 20
-22.0453474242
 10
-79.4283213466
 20
-21.9873168495
 10
-79.4348441685
 20
-21.9295942982
 10
-79.4386991584
 20
-21.8719659027
 10
-79.4398863164
 20
-21.8144316658
  0
LWPOLYLINE
  5
256
100
AcDbEntity
  8
RACCORDO
100
AcDbPolyline
 62
253
  6
CONTINUOUS
 90
28
 70
0
 10
103.8566450886
 20
-44.8340076387
 10
103.9136751892
 20
-44.8321538066
 10
103.9704757852
 20
-44.8270218653
 10
104.0268624521
 20
-44.8186297922
 10
104.0826418639
 20
-44.8070085986
 10
104.1376432713
 20
-44.7921957181
 10
104.191717561
 20
-44.774229062
 10
104.2447013166
 20
-44.7531560785
 10
104.2964050854
 20
-44.7290459579
 10
104.3466450133
 20
-44.7019815838
 10
104.3952471767
 20
-44.6720540731
 10
104.4420602684
 20
-44.6393550269
 10
104.4869417273
 20
-44.6039825974
 10
104.5297422733
 20
-44.5660468189
 10
104.5703170667
 20
-44.5256691293
 10
104.6085375099
 20
-44.4829746841
 10
104.6442731439
 20
-44.4380975078
 10
104.6774006599
 20
-44.391181165
 10
104.7078119867
 20
-44.3423747523
 10
104.7354011026
 20
-44.291830837
 10
104.76006831
 20
-44.2397141953
 10
104.7817281878
 20
-44.1862012064
 10
104.8003008856
 20
-44.1314670611
 10
104.8157188755
 20
-44.07568681
 10
104.8279300012
 20
-44.0190434404
 10
104.8368873973
 20
-43.9617219595
 10
104.8425504601
 20
-43.9039090097
 10
104.8448916334
 20
-43.8457940386
  0
LWPOLYLINE
  5
257
100
AcDbEntity
  8
RACCORDO
100
AcDbPolyline
 62
253
  6
CONTINUOUS
 90
28
 70
0
 10
103.8566450886
 20
-44.4263792099
 10
103.8853629129
 20
-44.4255295964
 10
103.9137774191
 20
-44.4230408519
 10
103.9418886073
 20
-44.4189129628
 10
103.9697861785
 20
-44.4131238617
 10
103.9973804318
 20
-44.405695561
 10
104.0244022632
 20
-44.3966941552
 10
104.0508488237
 20
-44.3861026273
 10
104.0767229624
 20
-44.3739378905
 10
104.1017641236
 20
-44.3603169283
 10
104.1259606349
 20
-44.3452272186
 10
104.1493241688
 20
-44.328681143
 10
104.1716291867
 20
-44.3108330429
 10
104.1928670977
 20
-44.2916701882
 10
104.2130464928
 20
-44.2712051476
 10
104.231967607
 20
-44.2496302243
 10
104.2496195282
 20
-44.2269339274
 10
104.2660131685
 20
-44.2031275838
 10
104.2809814986
 20
-44.1784377495
 10
104.2945115064
 20
-44.1528538301
 10
104.306616204
 20
-44.1263862725
 10
104.3171675985
 20
-44.0992932311
 10
104.3261505488
 20
-44.0715612095
 10
104.3335801959
 20
-44.0432035908
 10
104.3393739703
 20
-44.0145188974
 10
104.3435043489
 20
-43.9856066289
 10
104.3459988548
 20
-43.9563672315
 10
104.346857488
 20
-43.9268006745
  0
LWPOLYLINE
  5
258
100
AcDbEntity
  8
RACCORDO
100
AcDbPolyline
 62
7
  6
CONTINUOUS
 90
28
 70
0
 10
-104.0199743099
 20
-45.0
 10
-104.0764796275
 20
-44.9983984097
 10
-104.1325279765
 20
-44.9935696001
 10
-104.1881193568
 20
-44.985513516
 10
-104.2434996027
 20
-44.9741734187
 10
-104.2984228799
 20
-44.9596058251
 10
-104.3521516857
 20
-44.9419805178
 10
-104.4045601789
 20
-44.9213008268
 10
-104.4557742006
 20
-44.8975630105
 10
-104.5054337718
 20
-44.8709262165
 10
-104.5535341419
 20
-44.8414026277
 10
-104.6000800615
 20
-44.8089794921
 10
-104.644725804
 20
-44.7737785384
 10
-104.6875837275
 20
-44.7356410578
 10
-104.728541474
 20
-44.6947250367
 10
-104.766916242
 20
-44.6516273066
 10
-104.8025704216
 20
-44.6064154248
 10
-104.8356416227
 20
-44.5590211768
 10
-104.8658598742
 20
-44.5098378632
 10
-104.8932104307
 20
-44.4588949527
 10
-104.9177080375
 20
-44.4061623695
 10
-104.9391269589
 20
-44.3519442023
 10
-104.9574859133
 20
-44.2960644203
 10
-104.9727661823
 20
-44.2386984821
 10
-104.9846858746
 20
-44.1806779204
 10
-104.9931510266
 20
-44.1222799043
 10
-104.998255602
 20
-44.063227057
 10
-104.9999996007
 20
-44.0035192549
  0
LINE
  5
259
100
AcDbEntity
  8
RACCORDO
100
AcDbLine
 62
253
  6
CONTINUOUS
 10
-104.8448916333
 20
-43.845794038
 11
-104.9999996007
 21
-44.0035192549
  0
LINE
  5
25A
100
AcDbEntity
  8
RACCORDO
100
AcDbLine
 62
253
  6
CONTINUOUS
 10
-103.8566450886
 20
-44.8340076387
 11
-104.0199743099
 21
-45.0
  0
LINE
  5
25B
100
AcDbEntity
  8
RACCORDO
100
AcDbLine
 62
253
  6
CONTINUOUS
 10
-78.9405731813
 20
-21.7914824399
 11
-78.8500000304
 21
-21.7011338162
  0
LWPOLYLINE
  5
25C
100
AcDbEntity
  8
RACCORDO
100
AcDbPolyline
 62
253
  6
CONTINUOUS
 90
22
 70
0
 10
104.346857488
 20
-43.926800663
 10
104.3821160899
 20
-43.9265850593
 10
104.4171991436
 20
-43.9259275505
 10
104.4519319752
 20
-43.9248314104
 10
104.4861416542
 20
-43.9233020965
 10
104.519657855
 20
-43.9213472231
 10
104.5523137046
 20
-43.9189765232
 10
104.5839466137
 20
-43.9162018003
 10
104.6143990861
 20
-43.9130368693
 10
104.6435195027
 20
-43.909497488
 10
104.6711628767
 20
-43.9056012787
 10
104.6971915752
 20
-43.9013676399
 10
104.7214760047
 20
-43.8968176504
 10
104.7438952559
 20
-43.8919739642
 10
104.7643377064
 20
-43.8868606972
 10
104.7827015756
 20
-43.8815033078
 10
104.7988954324
 20
-43.8759284698
 10
104.8128386494
 20
-43.8701639395
 10
104.8244618052
 20
-43.8642384178
 10
104.8337070295
 20
-43.8581814072
 10
104.8405282916
 20
-43.8520230648
 10
104.8448916292
 20
-43.8457940521
  0
LINE
  5
25D
100
AcDbEntity
  8
RACCORDO
100
AcDbLine
 62
7
  6
CONTINUOUS
 10
-104.0199743099
 20
-45.0
 11
104.0199743099
 21
-45.0
  0
LINE
  5
25E
100
AcDbEntity
  8
RACCORDO
100
AcDbLine
 62
253
  6
CONTINUOUS
 10
-103.8566450886
 20
-44.8340076387
 11
103.8566450886
 21
-44.8340076387
  0
LINE
  5
25F
100
AcDbEntity
  8
RACCORDO
100
AcDbLine
 62
253
  6
CONTINUOUS
 10
-103.8566450886
 20
-44.4263792099
 11
103.8566450886
 21
-44.4263792099
  0
LWPOLYLINE
  5
260
100
AcDbEntity
  8
RACCORDO
100
AcDbPolyline
 62
253
  6
CONTINUOUS
 90
22
 70
0
 10
-104.346857488
 20
-43.9268006712
 10
-104.3821159115
 20
-43.9265850516
 10
-104.4171987769
 20
-43.9259275285
 10
-104.451931412
 20
-43.9248313756
 10
-104.4861408883
 20
-43.9233020505
 10
-104.5196568821
 20
-43.9213471675
 10
-104.5523125224
 20
-43.9189764594
 10
-104.5839452218
 20
-43.9162017299
 10
-104.6143974861
 20
-43.9130367937
 10
-104.6435176979
 20
-43.9094974087
 10
-104.6711608724
 20
-43.9056011969
 10
-104.6971893783
 20
-43.9013675568
 10
-104.7214736238
 20
-43.8968175673
 10
-104.7438927013
 20
-43.8919738819
 10
-104.7643349897
 20
-43.8868606168
 10
-104.78269871
 20
-43.8815032299
 10
-104.798892432
 20
-43.8759283951
 10
-104.8128355297
 20
-43.8701638684
 10
-104.8244585826
 20
-43.8642383508
 10
-104.8337037212
 20
-43.8581813443
 10
-104.8405249154
 20
-43.8520230061
 10
-104.8448882037
 20
-43.8457939974
  0
LINE
  5
261
100
AcDbEntity
  8
RACCORDO
100
AcDbLine
 62
253
  6
CONTINUOUS
 10
-78.9405731783
 20
21.7914779004
 11
-78.8500000304
 21
21.7011338162
  0
LINE
  5
262
100
AcDbEntity
  8
RACCORDO
100
AcDbLine
 62
253
  6
CONTINUOUS
 10
-103.8566450886
 20
44.8340076387
 11
-104.0199743099
 21
45.0
  0
LINE
  5
263
100
AcDbEntity
  8
RACCORDO
100
AcDbLine
 62
253
  6
CONTINUOUS
 10
-104.8448916333
 20
43.8457940385
 11
-104.9999996007
 21
44.0035192549
  0
LINE
  5
264
100
AcDbEntity
  8
RACCORDO
100
AcDbLine
 62
253
  6
CONTINUOUS
 10
-78.1382533976
 20
-22.5889882007
 11
-78.0490249234
 21
-22.5
  0
LWPOLYLINE
  5
265
100
AcDbEntity
  8
RACCORDO
100
AcDbPolyline
 62
253
  6
CONTINUOUS
 90
12
 70
0
 10
-78.8922097815
 20
-22.4156970144
 10
-78.8717866246
 20
-22.3979323788
 10
-78.8528417913
 20
-22.381269222
 10
-78.8354756345
 20
-22.3657958106
 10
-78.8197801449
 20
-22.3515941093
 10
-78.8058384633
 20
-22.3387393459
 10
-78.7937244405
 20
-22.3272996138
 10
-78.7835022458
 20
-22.3173355106
 10
-78.7752260275
 20
-22.3088998172
 10
-78.7689396257
 20
-22.3020372185
 10
-78.76467634
 20
-22.2967840665
 10
-78.7624587538
 20
-22.2931681878
  0
LINE
  5
266
100
AcDbEntity
  8
RACCORDO
100
AcDbLine
 62
253
  6
CONTINUOUS
 10
-78.9370510726
 20
-22.4541489803
 11
-78.8922097815
 21
-22.4156970144
  0
LINE
  5
267
100
AcDbEntity
  8
RACCORDO
100
AcDbLine
 62
253
  6
CONTINUOUS
 10
-78.9864168044
 20
-22.4958114603
 11
-78.9370510726
 21
-22.4541489803
  0
LINE
  5
268
100
AcDbEntity
  8
RACCORDO
100
AcDbLine
 62
253
  6
CONTINUOUS
 10
-79.0392623776
 20
-22.5398028592
 11
-78.9864168044
 21
-22.4958114603
  0
LINE
  5
269
100
AcDbEntity
  8
RACCORDO
100
AcDbLine
 62
253
  6
CONTINUOUS
 10
-79.0944695582
 20
-22.5851923009
 11
-79.0392623776
 21
-22.5398028592
  0
LINE
  5
26A
100
AcDbEntity
  8
RACCORDO
100
AcDbLine
 62
253
  6
CONTINUOUS
 10
-79.1508701393
 20
-22.6310193261
 11
-79.0944695582
 21
-22.5851923009
  0
LINE
  5
26B
100
AcDbEntity
  8
RACCORDO
100
AcDbLine
 62
253
  6
CONTINUOUS
 10
-79.1508701393
 20
22.6310192881
 11
-79.0944695243
 21
22.5851922369
  0
LINE
  5
26C
100
AcDbEntity
  8
RACCORDO
100
AcDbLine
 62
253
  6
CONTINUOUS
 10
-79.0944695243
 20
22.5851922369
 11
-79.0392622952
 21
22.5398027583
  0
LINE
  5
26D
100
AcDbEntity
  8
RACCORDO
100
AcDbLine
 62
253
  6
CONTINUOUS
 10
-79.0392622952
 20
22.5398027583
 11
-78.9864166629
 21
22.4958113146
  0
LINE
  5
26E
100
AcDbEntity
  8
RACCORDO
100
AcDbLine
 62
253
  6
CONTINUOUS
 10
-78.9864166629
 20
22.4958113146
 11
-78.9370508659
 21
22.4541487854
  0
LWPOLYLINE
  5
26F
100
AcDbEntity
  8
RACCORDO
100
AcDbPolyline
 62
253
  6
CONTINUOUS
 90
13
 70
0
 10
-78.9370508659
 20
22.4541487854
 10
-78.8922095076
 20
22.4156967692
 10
-78.8717863177
 20
22.397932109
 10
-78.8528414523
 20
22.3812689285
 10
-78.835475265
 20
22.3657954948
 10
-78.8197797467
 20
22.3515937725
 10
-78.8058380387
 20
22.3387389902
 10
-78.7937239921
 20
22.3272992412
 10
-78.7835017766
 20
22.3173351235
 10
-78.7752255405
 20
22.3088994181
 10
-78.7689391244
 20
22.3020368103
 10
-78.7646758281
 20
22.296783652
 10
-78.7624582349
 20
22.29316777
  0
LINE
  5
270
100
AcDbEntity
  8
RACCORDO
100
AcDbLine
 62
253
  6
CONTINUOUS
 10
-78.1382640735
 20
22.5889882007
 11
-78.0490249234
 21
22.5
  0
LWPOLYLINE
  5
271
100
AcDbEntity
  8
0
100
AcDbPolyline
 62
7
  6
CONTINUOUS
 90
19
 70
0
 10
3.3200188023
 20
-26.110807341
 10
3.421925505
 20
-26.0961548786
 10
3.5212300628
 20
-26.0833204676
 10
3.6179324756
 20
-26.0723041379
 10
3.7120016072
 20
-26.0630518461
 10
3.8034685939
 20
-26.0556176825
 10
3.8924268446
 20
-26.0501638725
 10
3.9789128704
 20
-26.0467606541
 10
4.0628901601
 20
-26.0453378119
 10
4.1443425894
 20
-26.0458468856
 10
4.2232380659
 20
-26.048263139
 10
4.2996086818
 20
-26.052611301
 10
4.3735345896
 20
-26.0589171009
 10
4.4451781749
 20
-26.0671012731
 10
4.514377052
 20
-26.0772430475
 10
4.5807242165
 20
-26.0896058851
 10
4.6440840002
 20
-26.104277579
 10
4.7045920713
 20
-26.1211702579
 10
4.7622484297
 20
-26.1402838735
  0
LWPOLYLINE
  5
272
100
AcDbEntity
  8
0
100
AcDbPolyline
 62
7
  6
CONTINUOUS
 90
31
 70
0
 10
4.2166806432
 20
-27.3236280866
 10
4.2412769093
 20
-27.3228426593
 10
4.2657579788
 20
-27.3212667115
 10
4.2901238519
 20
-27.3189002413
 10
4.3144689601
 20
-27.3157939913
 10
4.3386988718
 20
-27.3118972131
 10
4.3625302919
 20
-27.3070576657
 10
4.3859438482
 20
-27.3012849888
 10
4.4089589129
 20
-27.2945695288
 10
4.4313503065
 20
-27.2867301007
 10
4.4531580611
 20
-27.277749845
 10
4.4743421447
 20
-27.2676455944
 10
4.4945572822
 20
-27.2562866966
 10
4.5137544939
 20
-27.2436121125
 10
4.5319827594
 20
-27.229682838
 10
4.5490437433
 20
-27.2145512698
 10
4.5648511842
 20
-27.198145674
 10
4.5794913434
 20
-27.1805377303
 10
4.5930246687
 20
-27.1619949598
 10
4.6054572974
 20
-27.1425262187
 10
4.6167830922
 20
-27.1221226017
 10
4.6270440893
 20
-27.1010249996
 10
4.6362578074
 20
-27.0792427142
 10
4.6444067277
 20
-27.056766403
 10
4.6514803307
 20
-27.0338090029
 10
4.6574998172
 20
-27.0103526427
 10
4.6624439863
 20
-26.9864151631
 10
4.6662387158
 20
-26.9622630833
 10
4.6688592984
 20
-26.9379852427
 10
4.6703304414
 20
-26.9134927906
 10
4.6706521449
 20
-26.8887857204
  0
LWPOLYLINE
  5
273
100
AcDbEntity
  8
RACCORDO
100
AcDbPolyline
 62
253
  6
CONTINUOUS
 90
15
 70
0
 10
104.5864477259
 20
-22.6280185823
 10
104.6169189873
 20
-22.6271225553
 10
104.6460547448
 20
-22.6261205444
 10
104.6737096756
 20
-22.6250175474
 10
104.6997458428
 20
-22.623819066
 10
104.7240333837
 20
-22.6225310778
 10
104.7464511572
 20
-22.621160007
 10
104.7668873484
 20
-22.6197126924
 10
104.785240026
 20
-22.6181963526
 10
104.8014176507
 20
-22.616618551
 10
104.8153395321
 20
-22.6149871572
 10
104.8269362308
 20
-22.6133103084
 10
104.8361499051
 20
-22.6115963682
 10
104.842934599
 20
-22.6098538854
 10
104.8472564721
 20
-22.6080915512
  0
LWPOLYLINE
  5
274
100
AcDbEntity
  8
RACCORDO
100
AcDbPolyline
 62
253
  6
CONTINUOUS
 90
15
 70
0
 10
104.5864508739
 20
-22.5402363786
 10
104.6169221683
 20
-22.5393429264
 10
104.6460579528
 20
-22.5383439406
 10
104.6737129039
 20
-22.5372444039
 10
104.6997490842
 20
-22.5360498005
 10
104.7240366305
 20
-22.534766089
 10
104.7464544014
 20
-22.5333996722
 10
104.7668905816
 20
-22.5319573655
 10
104.7852432395
 20
-22.5304463629
 10
104.8014208356
 20
-22.5288742009
 10
104.8153426795
 20
-22.5272487212
 10
104.8269393317
 20
-22.5255780314
 10
104.8361529504
 20
-22.5238704644
 10
104.84293758
 20
-22.5221345374
 10
104.8472593802
 20
-22.5203789087
  0
LWPOLYLINE
  5
275
100
AcDbEntity
  8
RACCORDO
100
AcDbPolyline
 62
7
  6
CONTINUOUS
 90
28
 70
0
 10
78.0490249234
 20
-22.5
 10
78.0955000971
 20
-22.4986673673
 10
78.1416291883
 20
-22.4946633626
 10
78.187412197
 20
-22.4879879823
 10
78.2330650427
 20
-22.478588075
 10
78.2783718058
 20
-22.4665167775
 10
78.3226847277
 20
-22.4519335156
 10
78.3658934039
 20
-22.434839677
 10
78.4081082389
 20
-22.4152338473
 10
78.4490126876
 20
-22.3932712478
 10
78.4886112372
 20
-22.3689481248
 10
78.5268994005
 20
-22.3422681954
 10
78.5635471708
 20
-22.3133978873
 10
78.5986310647
 20
-22.2822058957
 10
78.6320745656
 20
-22.2488234806
 10
78.6633181175
 20
-22.2138109217
 10
78.6922306727
 20
-22.1772429369
 10
78.7189432789
 20
-22.1390447705
 10
78.7432895242
 20
-22.0995525006
 10
78.7652641284
 20
-22.0587706944
 10
78.7848723718
 20
-22.0166947511
 10
78.8019636831
 20
-21.9736470049
 10
78.8165380501
 20
-21.9295298178
 10
78.828595485
 20
-21.8844407999
 10
78.8379854539
 20
-21.8389951713
 10
78.8446577788
 20
-21.7933980062
 10
78.8486626376
 20
-21.7474442228
 10
78.8500000304
 20
-21.7011338162
  0
LINE
  5
276
100
AcDbEntity
  8
RACCORDO
100
AcDbLine
 62
253
  6
CONTINUOUS
 10
104.5221125309
 20
-22.6294753591
 11
104.5864477259
 21
-22.6280185823
  0
LINE
  5
277
100
AcDbEntity
  8
RACCORDO
100
AcDbLine
 62
253
  6
CONTINUOUS
 10
104.5221155973
 20
-22.5416894053
 11
104.5864508739
 21
-22.5402363786
  0
LINE
  5
278
100
AcDbEntity
  8
RACCORDO
100
AcDbLine
 62
253
  6
CONTINUOUS
 10
104.4543311194
 20
-22.6304618465
 11
104.5221125309
 21
-22.6294753591
  0
LINE
  5
279
100
AcDbEntity
  8
RACCORDO
100
AcDbLine
 62
253
  6
CONTINUOUS
 10
104.4543340882
 20
-22.5426740671
 11
104.5221155973
 21
-22.5416894053
  0
LINE
  5
27A
100
AcDbEntity
  8
RACCORDO
100
AcDbLine
 62
253
  6
CONTINUOUS
 10
104.3844541213
 20
-22.6309583876
 11
104.4543311194
 21
-22.6304618465
  0
LINE
  5
27B
100
AcDbEntity
  8
0
100
AcDbLine
 62
7
  6
CONTINUOUS
 10
-4.616107
 20
-28.877801
 11
-4.101097
 21
-28.877801
  0
LINE
  5
27C
100
AcDbEntity
  8
0
100
AcDbLine
 62
7
  6
CONTINUOUS
 10
-2.984285
 20
-28.877801
 11
-2.399877
 21
-28.877801
  0
LINE
  5
27D
100
AcDbEntity
  8
0
100
AcDbLine
 62
7
  6
CONTINUOUS
 10
-2.085272
 20
-28.877801
 11
-1.526183
 21
-28.877801
  0
LINE
  5
27E
100
AcDbEntity
  8
0
100
AcDbLine
 62
7
  6
CONTINUOUS
 10
-0.714487
 20
-28.877801
 11
-0.632524
 21
-28.877801
  0
LINE
  5
27F
100
AcDbEntity
  8
0
100
AcDbLine
 62
7
  6
CONTINUOUS
 10
0.182406
 20
-28.877801
 11
0.754112
 21
-28.877801
  0
LINE
  5
280
100
AcDbEntity
  8
0
100
AcDbLine
 62
7
  6
CONTINUOUS
 10
0.84588
 20
-28.877801
 11
1.423947
 21
-28.877801
  0
LINE
  5
281
100
AcDbEntity
  8
0
100
AcDbLine
 62
7
  6
CONTINUOUS
 10
2.532466
 20
-28.877801
 11
3.148408
 21
-28.877801
  0
LINE
  5
282
100
AcDbEntity
  8
0
100
AcDbLine
 62
7
  6
CONTINUOUS
 10
3.3200188023
 20
-28.8778013544
 11
3.9020753449
 21
-28.8778013544
  0
LINE
  5
283
100
AcDbEntity
  8
0
100
AcDbLine
 62
7
  6
CONTINUOUS
 10
4.7970156219
 20
-28.8778013544
 11
5.3591482119
 21
-28.8778013544
  0
LINE
  5
284
100
AcDbEntity
  8
0
100
AcDbLine
 62
7
  6
CONTINUOUS
 10
1.585207
 20
-28.318881
 11
2.381074
 21
-28.318881
  0
LINE
  5
285
100
AcDbEntity
  8
0
100
AcDbLine
 62
7
  6
CONTINUOUS
 10
1.704751
 20
-27.886391
 11
2.26428
 21
-27.886391
  0
LINE
  5
286
100
AcDbEntity
  8
0
100
AcDbLine
 62
7
  6
CONTINUOUS
 10
3.9020753449
 20
-27.7821519248
 11
4.2154209623
 21
-27.7821519248
  0
LINE
  5
287
100
AcDbEntity
  8
0
100
AcDbLine
 62
7
  6
CONTINUOUS
 10
3.8826972541
 20
-27.3236280866
 11
4.2166806432
 21
-27.3236280866
  0
LINE
  5
288
100
AcDbEntity
  8
0
100
AcDbLine
 62
7
  6
CONTINUOUS
 10
-5.503668
 20
-26.078098
 11
-4.86882
 21
-26.078098
  0
LINE
  5
289
100
AcDbEntity
  8
0
100
AcDbLine
 62
7
  6
CONTINUOUS
 10
-3.785169
 20
-26.078098
 11
-3.20116
 21
-26.078098
  0
LINE
  5
28A
100
AcDbEntity
  8
0
100
AcDbLine
 62
7
  6
CONTINUOUS
 10
-1.832475
 20
-26.078098
 11
-1.24855
 21
-26.078098
  0
LINE
  5
28B
100
AcDbEntity
  8
0
100
AcDbLine
 62
7
  6
CONTINUOUS
 10
-0.085906
 20
-26.078098
 11
0.492308
 21
-26.078098
  0
LINE
  5
28C
100
AcDbEntity
  8
0
100
AcDbLine
 62
7
  6
CONTINUOUS
 10
1.724045
 20
-26.078098
 11
2.28939
 21
-26.078098
  0
LINE
  5
28D
100
AcDbEntity
  8
0
100
AcDbLine
 62
7
  6
CONTINUOUS
 10
-2.984285
 20
-26.07793
 11
-2.399877
 21
-26.07793
  0
LINE
  5
28E
100
AcDbEntity
  8
RACCORDO
100
AcDbLine
 62
253
  6
CONTINUOUS
 10
78.1382398365
 20
-23.1148987905
 11
-78.1382398365
 21
-23.1148987905
  0
LINE
  5
28F
100
AcDbEntity
  8
RACCORDO
100
AcDbLine
 62
253
  6
CONTINUOUS
 10
-104.3844541204
 20
-22.6309583867
 11
-104.4543311169
 21
-22.6304618456
  0
LINE
  5
290
100
AcDbEntity
  8
RACCORDO
100
AcDbLine
 62
253
  6
CONTINUOUS
 10
-104.3844569829
 20
-22.5431707436
 11
-104.4543340889
 21
-22.5426740673
  0
LINE
  5
291
100
AcDbEntity
  8
RACCORDO
100
AcDbLine
 62
253
  6
CONTINUOUS
 10
-104.4543311169
 20
-22.6304618456
 11
-104.5221125269
 21
-22.6294753582
  0
LINE
  5
292
100
AcDbEntity
  8
RACCORDO
100
AcDbLine
 62
253
  6
CONTINUOUS
 10
-104.4543340889
 20
-22.5426740673
 11
-104.5221155985
 21
-22.5416894055
  0
LWPOLYLINE
  5
293
100
AcDbEntity
  8
RACCORDO
100
AcDbPolyline
 62
253
  6
CONTINUOUS
 90
19
 70
0
 10
-78.1382398365
 20
-23.1148987905
 10
-78.2006803976
 20
-23.11353482
 10
-78.2632880358
 20
-23.1089934849
 10
-78.326062751
 20
-23.1012747712
 10
-78.3892616139
 20
-23.0903959983
 10
-78.4526275539
 20
-23.0763397905
 10
-78.5153893588
 20
-23.0590540763
 10
-78.577568711
 20
-23.0384416934
 10
-78.6391439283
 20
-23.0145996869
 10
-78.6992787514
 20
-22.9877672875
 10
-78.7579154603
 20
-22.9578679959
 10
-78.8151117751
 20
-22.9249781515
 10
-78.8702045972
 20
-22.8895662507
 10
-78.9231327973
 20
-22.8515708007
 10
-78.9739575046
 20
-22.8110531236
 10
-79.0221990081
 20
-22.7686659705
 10
-79.067697404
 20
-22.7246268882
 10
-79.110612596
 20
-22.6787181927
 10
-79.1509445841
 20
-22.6309398089
  0
LWPOLYLINE
  5
294
100
AcDbEntity
  8
RACCORDO
100
AcDbPolyline
 62
253
  6
CONTINUOUS
 90
19
 70
0
 10
-78.1382534207
 20
-22.5889882237
 10
-78.1766053095
 20
-22.5881410787
 10
-78.215245082
 20
-22.5854339872
 10
-78.2540791587
 20
-22.5808193421
 10
-78.2930600903
 20
-22.5742446375
 10
-78.3320324649
 20
-22.5656758143
 10
-78.3707386198
 20
-22.5551225549
 10
-78.4090970366
 20
-22.5425710932
 10
-78.446975858
 20
-22.5280278563
 10
-78.4840567852
 20
-22.5115960305
 10
-78.5202349182
 20
-22.493324699
 10
-78.5554298408
 20
-22.47325742
 10
-78.5893906348
 20
-22.4515538124
 10
-78.6220438092
 20
-22.4282973899
 10
-78.6533297955
 20
-22.4035687459
 10
-78.6830575573
 20
-22.3775727665
 10
-78.71114987
 20
-22.3504569949
 10
-78.737624687
 20
-22.322288139
 10
-78.7624604562
 20
-22.2931695584
  0
LWPOLYLINE
  5
295
100
AcDbEntity
  8
RACCORDO
100
AcDbPolyline
 62
253
  6
CONTINUOUS
 90
16
 70
0
 10
-104.5221125269
 20
-22.6294753582
 10
-104.5864477207
 20
-22.6280185816
 10
-104.6169189816
 20
-22.6271225545
 10
-104.6460547387
 20
-22.6261205437
 10
-104.6737096692
 20
-22.6250175468
 10
-104.6997458362
 20
-22.6238190654
 10
-104.724033377
 20
-22.6225310773
 10
-104.7464511506
 20
-22.6211600066
 10
-104.766887342
 20
-22.6197126919
 10
-104.7852400199
 20
-22.6181963523
 10
-104.801417645
 20
-22.6166185507
 10
-104.815339527
 20
-22.614987157
 10
-104.8269362265
 20
-22.6133103082
 10
-104.8361499016
 20
-22.6115963681
 10
-104.8429345966
 20
-22.6098538854
 10
-104.8472564707
 20
-22.6080915512
  0
LWPOLYLINE
  5
296
100
AcDbEntity
  8
RACCORDO
100
AcDbPolyline
 62
253
  6
CONTINUOUS
 90
16
 70
0
 10
-104.5221155985
 20
-22.5416894055
 10
-104.5864508755
 20
-22.5402363788
 10
-104.6169221701
 20
-22.5393429266
 10
-104.6460579546
 20
-22.5383439408
 10
-104.6737129058
 20
-22.5372444041
 10
-104.6997490862
 20
-22.5360498007
 10
-104.7240366325
 20
-22.5347660892
 10
-104.7464544034
 20
-22.5333996723
 10
-104.7668905836
 20
-22.5319573656
 10
-104.7852432413
 20
-22.530446363
 10
-104.8014208374
 20
-22.528874201
 10
-104.815342681
 20
-22.5272487213
 10
-104.826939333
 20
-22.5255780314
 10
-104.8361529515
 20
-22.5238704645
 10
-104.8429375808
 20
-22.5221345374
 10
-104.8472593806
 20
-22.5203789087
  0
LWPOLYLINE
  5
297
100
AcDbEntity
  8
0
100
AcDbPolyline
 62
7
  6
CONTINUOUS
 90
10
 70
0
 10
4.3405134302
 20
-26.5385722489
 10
4.2917760082
 20
-26.5336513066
 10
4.2424478663
 20
-26.5304038765
 10
4.1925290043
 20
-26.5288299658
 10
4.141942143
 20
-26.5289101537
 10
4.0907645617
 20
-26.5306638642
 10
4.0392280983
 20
-26.5341493666
 10
3.9874100323
 20
-26.5393860768
 10
3.9352330842
 20
-26.5463545587
 10
3.8826972541
 20
-26.5550547959
  0
LWPOLYLINE
  5
298
100
AcDbEntity
  8
RACCORDO
100
AcDbPolyline
 62
253
  6
CONTINUOUS
 90
15
 70
0
 10
-79.1974905456
 20
-21.811395269
 10
-79.1665319962
 20
-21.8104913184
 10
-79.1370018668
 20
-21.8094813005
 10
-79.1090544678
 20
-21.8083704932
 10
-79.0828358391
 20
-21.8071647011
 10
-79.0584829867
 20
-21.8058702251
 10
-79.0361231672
 20
-21.8044938295
 10
-79.0158732222
 20
-21.8030427066
 10
-78.9978389685
 20
-21.8015244394
 10
-78.9821146445
 20
-21.7999469616
 10
-78.968782418
 20
-21.7983185164
 10
-78.9579119569
 20
-21.7966476132
 10
-78.9495600652
 20
-21.7949429834
 10
-78.9437703857
 20
-21.7932135346
 10
-78.9405731727
 20
-21.791468304
  0
LINE
  5
299
100
AcDbEntity
  8
RACCORDO
100
AcDbLine
 62
253
  6
CONTINUOUS
 10
-79.2630391866
 20
-21.8128666531
 11
-79.1974905456
 21
-21.811395269
  0
LINE
  5
29A
100
AcDbEntity
  8
RACCORDO
100
AcDbLine
 62
253
  6
CONTINUOUS
 10
-79.3322794753
 20
-21.8138647377
 11
-79.2630391866
 21
-21.8128666531
  0
LWPOLYLINE
  5
29B
100
AcDbEntity
  8
RACCORDO
100
AcDbPolyline
 62
253
  6
CONTINUOUS
 90
3
 70
0
 10
104.3491668284
 20
-22.5432326076
 10
104.3844569826
 20
-22.5431707434
 10
104.4543340882
 20
-22.5426740671
  0
LWPOLYLINE
  5
29C
100
AcDbEntity
  8
RACCORDO
100
AcDbPolyline
 62
253
  6
CONTINUOUS
 90
3
 70
0
 10
-79.4398863164
 20
-21.8144316653
 10
-79.4037660349
 20
-21.8143686882
 10
-79.3322794753
 20
-21.8138647377
  0
LINE
  5
29D
100
AcDbEntity
  8
RACCORDO
100
AcDbLine
 62
253
  6
CONTINUOUS
 10
79.1508701393
 20
-22.6310194482
 11
104.3844541213
 21
-22.6309583876
  0
LINE
  5
29E
100
AcDbEntity
  8
RACCORDO
100
AcDbLine
 62
253
  6
CONTINUOUS
 10
78.1382646945
 20
-22.5889882007
 11
-78.1382533976
 21
-22.5889882007
  0
LINE
  5
29F
100
AcDbEntity
  8
RACCORDO
100
AcDbLine
 62
253
  6
CONTINUOUS
 10
-104.8472593806
 20
-22.5203789087
 11
-105.0
 21
-22.5203789087
  0
LINE
  5
2A0
100
AcDbEntity
  8
RACCORDO
100
AcDbLine
 62
253
  6
CONTINUOUS
 10
104.8472593806
 20
-22.5203789087
 11
105.0
 21
-22.5203789087
  0
LINE
  5
2A1
100
AcDbEntity
  8
RACCORDO
100
AcDbLine
 62
7
  6
CONTINUOUS
 10
-78.0490249234
 20
-22.5
 11
78.0490249234
 21
-22.5
  0
LINE
  5
2A2
100
AcDbEntity
  8
RACCORDO
100
AcDbLine
 62
253
  6
CONTINUOUS
 10
-79.1509445841
 20
-22.6309398089
 11
-104.3844541204
 21
-22.6309583867
  0
LINE
  5
2A3
100
AcDbEntity
  8
RACCORDO
100
AcDbLine
 62
253
  6
CONTINUOUS
 10
-104.3491668284
 20
-22.5432326078
 11
-104.3844569829
 21
-22.5431707436
  0
LINE
  5
2A4
100
AcDbEntity
  8
RACCORDO
100
AcDbLine
 62
253
  6
CONTINUOUS
 10
79.4398863164
 20
-21.8144314823
 11
79.3678342561
 21
-21.8141792374
  0
LINE
  5
2A5
100
AcDbEntity
  8
RACCORDO
100
AcDbLine
 62
253
  6
CONTINUOUS
 10
79.3678342561
 20
-21.8141792374
 11
79.2972861758
 21
-21.8134262863
  0
LWPOLYLINE
  5
2A6
100
AcDbEntity
  8
RACCORDO
100
AcDbPolyline
 62
253
  6
CONTINUOUS
 90
17
 70
0
 10
79.2972861758
 20
-21.8134262863
 10
79.2297147724
 20
-21.8121883469
 10
79.197489368
 20
-21.8113952001
 10
79.1665306041
 20
-21.8104912613
 10
79.1370002588
 20
-21.8094812541
 10
79.1090526456
 20
-21.8083704563
 10
79.0828338076
 20
-21.8071646726
 10
79.0584807538
 20
-21.8058702039
 10
79.0361207435
 20
-21.8044938146
 10
79.015870621
 20
-21.8030426971
 10
78.9978362054
 20
-21.8015244344
 10
78.9821117371
 20
-21.7999469602
 10
78.968779386
 20
-21.798318518
 10
78.9579088215
 20
-21.7966476172
 10
78.9495568488
 20
-21.7949429893
 10
78.943767112
 20
-21.7932135419
 10
78.9405698658
 20
-21.7914683126
  0
LWPOLYLINE
  5
2A7
100
AcDbEntity
  8
0
100
AcDbPolyline
 62
7
  6
CONTINUOUS
 90
54
 70
0
 10
4.7622484297
 20
-26.1402838735
 10
4.7910096334
 20
-26.1518071583
 10
4.8200235014
 20
-26.1656461057
 10
4.849290034
 20
-26.1818006742
 10
4.8789075917
 20
-26.2001912399
 10
4.9087778139
 20
-26.2208973242
 10
4.9386056186
 20
-26.2441575866
 10
4.9686002842
 20
-26.2699931789
 10
4.9985525325
 20
-26.2983827849
 10
5.0275394458
 20
-26.3295013356
 10
5.0556367296
 20
-26.3636263573
 10
5.0827686785
 20
-26.4004800804
 10
5.1077852596
 20
-26.4394045023
 10
5.1305407079
 20
-26.4806667579
 10
5.1511807883
 20
-26.5239994789
 10
5.1689927624
 20
-26.5679430136
 10
5.1836297365
 20
-26.6125550157
 10
5.1954386042
 20
-26.6577777506
 10
5.204747309
 20
-26.7019786652
 10
5.2114016157
 20
-26.7448008728
 10
5.2155557594
 20
-26.7866013879
 10
5.2180003884
 20
-26.8268186381
 10
5.2188507911
 20
-26.8651870803
 10
5.217991679
 20
-26.9019724322
 10
5.215867835
 20
-26.9374100283
 10
5.2125195518
 20
-26.9715714103
 10
5.2079065366
 20
-27.0043851602
 10
5.202352695
 20
-27.0358721568
 10
5.1958706867
 20
-27.0660086209
 10
5.1884478519
 20
-27.0948184436
 10
5.1803701165
 20
-27.1223940022
 10
5.1716566791
 20
-27.1487236834
 10
5.1622883411
 20
-27.1738191922
 10
5.1524934325
 20
-27.1978078712
 10
5.1422905812
 20
-27.2207013137
 10
5.1316611593
 20
-27.2424879981
 10
5.1207776128
 20
-27.2632605844
 10
5.1096625944
 20
-27.2830113196
 10
5.0982934514
 20
-27.3017480143
 10
5.086774671
 20
-27.3195866659
 10
5.0751057601
 20
-27.3365364431
 10
5.0632872117
 20
-27.352588221
 10
5.0514249927
 20
-27.367830549
 10
5.0395160245
 20
-27.382240155
 10
5.0275633857
 20
-27.3958403455
 10
5.0156822778
 20
-27.4087895315
 10
5.0038801509
 20
-27.4210932229
 10
4.9921495549
 20
-27.4327459331
 10
4.9805833415
 20
-27.4438895717
 10
4.9691911256
 20
-27.4545375661
 10
4.9579632923
 20
-27.4646765045
 10
4.9469638485
 20
-27.4744080341
 10
4.9362213737
 20
-27.4837436019
 10
4.9257072885
 20
-27.4926717717
  0
LWPOLYLINE
  5
2A8
100
AcDbEntity
  8
0
100
AcDbPolyline
 62
7
  6
CONTINUOUS
 90
3
 70
0
 10
4.8225031649
 20
-27.5709244369
 10
4.8461781206
 20
-27.5818171322
 10
4.8686909838
 20
-27.5940859977
  0
LWPOLYLINE
  5
2A9
100
AcDbEntity
  8
0
100
AcDbPolyline
 62
7
  6
CONTINUOUS
 90
24
 70
0
 10
4.8686909838
 20
-27.5940859977
 10
4.8900417543
 20
-27.6077310087
 10
4.9102470773
 20
-27.6229839508
 10
4.9292903077
 20
-27.6396129774
 10
4.9471215101
 20
-27.6569226281
 10
4.9636359131
 20
-27.6747988625
 10
4.978938288
 20
-27.6933556876
 10
4.9932930137
 20
-27.7122397399
 10
5.0067083425
 20
-27.7313818522
 10
5.0191760221
 20
-27.7508511743
 10
5.0309356741
 20
-27.770501831
 10
5.0420268821
 20
-27.790344702
 10
5.0524100626
 20
-27.8103688963
 10
5.0622060858
 20
-27.8303958927
 10
5.0714218502
 20
-27.8504088976
 10
5.0800504573
 20
-27.870424704
 10
5.0881920826
 20
-27.890315179
 10
5.0958455127
 20
-27.9100476414
 10
5.103011961
 20
-27.9296547799
 10
5.1097952423
 20
-27.9491065208
 10
5.1161810216
 20
-27.9683659215
 10
5.1221836338
 20
-27.9874699338
 10
5.1279498986
 20
-28.0064993241
 10
5.1334731504
 20
-28.0254502684
  0
LINE
  5
2AA
100
AcDbEntity
  8
0
100
AcDbLine
 62
7
  6
CONTINUOUS
 10
-1.400068
 20
-27.049647
 11
-0.714487
 21
-28.877801
  0
LINE
  5
2AB
100
AcDbEntity
  8
0
100
AcDbLine
 62
7
  6
CONTINUOUS
 10
-1.24855
 20
-26.078098
 11
-0.670314
 21
-27.632502
  0
LINE
  5
2AC
100
AcDbEntity
  8
0
100
AcDbLine
 62
7
  6
CONTINUOUS
 10
-5.503668
 20
-26.078098
 11
-4.616107
 21
-28.877801
  0
LINE
  5
2AD
100
AcDbEntity
  8
0
100
AcDbLine
 62
7
  6
CONTINUOUS
 10
-4.86882
 20
-26.078098
 11
-4.335146
 21
-28.00522
  0
LINE
  5
2AE
100
AcDbEntity
  8
0
100
AcDbLine
 62
7
  6
CONTINUOUS
 10
0.492308
 20
-26.078098
 11
0.754112
 21
-28.877801
  0
LINE
  5
2AF
100
AcDbEntity
  8
0
100
AcDbLine
 62
7
  6
CONTINUOUS
 10
0.062337
 20
-27.057269
 11
0.182406
 21
-28.877801
  0
LINE
  5
2B0
100
AcDbEntity
  8
0
100
AcDbLine
 62
7
  6
CONTINUOUS
 10
-2.984285
 20
-26.07793
 11
-2.984285
 21
-28.877801
  0
LINE
  5
2B1
100
AcDbEntity
  8
0
100
AcDbLine
 62
7
  6
CONTINUOUS
 10
-2.399877
 20
-26.07793
 11
-2.399877
 21
-28.877801
  0
LINE
  5
2B2
100
AcDbEntity
  8
0
100
AcDbLine
 62
7
  6
CONTINUOUS
 10
-1.400068
 20
-27.049647
 11
-1.526183
 21
-28.877801
  0
LINE
  5
2B3
100
AcDbEntity
  8
0
100
AcDbLine
 62
7
  6
CONTINUOUS
 10
-1.832475
 20
-26.078098
 11
-2.085272
 21
-28.877801
  0
LWPOLYLINE
  5
2B4
100
AcDbEntity
  8
0
100
AcDbPolyline
 62
7
  6
CONTINUOUS
 90
19
 70
0
 10
4.5414020646
 20
-28.0286629605
 10
4.5313090833
 20
-28.0041653686
 10
4.5200490949
 20
-27.9806360032
 10
4.5076220996
 20
-27.9580748986
 10
4.4939898171
 20
-27.9363975254
 10
4.4791905277
 20
-27.9156884756
 10
4.4633390717
 20
-27.8962014716
 10
4.4464098791
 20
-27.8778919442
 10
4.4284285199
 20
-27.8608045306
 10
4.4095865459
 20
-27.8453267759
 10
4.3897969201
 20
-27.8315264345
 10
4.3691466794
 20
-27.8193358228
 10
4.3480884862
 20
-27.8089393362
 10
4.3267234757
 20
-27.8004893853
 10
4.3049505127
 20
-27.7938336107
 10
4.2829188542
 20
-27.788699246
 10
4.2606782524
 20
-27.7849953746
 10
4.2381789551
 20
-27.7828129326
 10
4.2154209623
 20
-27.7821519248
  0
LINE
  5
2B5
100
AcDbEntity
  8
0
100
AcDbLine
 62
7
  6
CONTINUOUS
 10
2.28939
 20
-26.078098
 11
3.148408
 21
-28.877801
  0
LWPOLYLINE
  5
2B6
100
AcDbEntity
  8
0
100
AcDbPolyline
 62
7
  6
CONTINUOUS
 90
8
 70
0
 10
4.6307932313
 20
-28.3028630702
 10
4.6191214106
 20
-28.2633522889
 10
4.6071965712
 20
-28.2239617382
 10
4.5950184316
 20
-28.1846953566
 10
4.5823714639
 20
-28.1455341773
 10
4.5691838255
 20
-28.1064718833
 10
4.5555273591
 20
-28.0675148083
 10
4.5414020646
 20
-28.0286629605
  0
LINE
  5
2B7
100
AcDbEntity
  8
0
100
AcDbLine
 62
7
  6
CONTINUOUS
 10
4.7970156219
 20
-28.8778013544
 11
4.6993646426
 21
-28.5430898424
  0
LWPOLYLINE
  5
2B8
100
AcDbEntity
  8
0
100
AcDbPolyline
 62
7
  6
CONTINUOUS
 90
4
 70
0
 10
4.6993646426
 20
-28.5430898424
 10
4.6762611104
 20
-28.4623245947
 10
4.6649456914
 20
-28.4222287754
 10
4.6307932313
 20
-28.3028630702
  0
LINE
  5
2B9
100
AcDbEntity
  8
0
100
AcDbLine
 62
7
  6
CONTINUOUS
 10
5.1334731504
 20
-28.0254502684
 11
5.1439774276
 21
-28.0632205414
  0
LINE
  5
2BA
100
AcDbEntity
  8
0
100
AcDbLine
 62
7
  6
CONTINUOUS
 10
2.381074
 20
-28.318881
 11
2.532466
 21
-28.877801
  0
LINE
  5
2BB
100
AcDbEntity
  8
0
100
AcDbLine
 62
7
  6
CONTINUOUS
 10
5.1439774276
 20
-28.0632205414
 11
5.15431479
 21
-28.1011227855
  0
LINE
  5
2BC
100
AcDbEntity
  8
0
100
AcDbLine
 62
7
  6
CONTINUOUS
 10
5.15431479
 20
-28.1011227855
 11
5.229070792
 21
-28.3813925458
  0
LINE
  5
2BD
100
AcDbEntity
  8
0
100
AcDbLine
 62
7
  6
CONTINUOUS
 10
5.229070792
 20
-28.3813925458
 11
5.3591482119
 21
-28.8778013544
  0
LINE
  5
2BE
100
AcDbEntity
  8
0
100
AcDbLine
 62
7
  6
CONTINUOUS
 10
1.995737
 20
-26.847385
 11
2.26428
 21
-27.886391
  0
LWPOLYLINE
  5
2BF
100
AcDbEntity
  8
0
100
AcDbPolyline
 62
7
  6
CONTINUOUS
 90
22
 70
0
 10
4.6706521449
 20
-26.8887857204
 10
4.6695980691
 20
-26.8661145297
 10
4.6669632849
 20
-26.8433753696
 10
4.6627477923
 20
-26.8205682386
 10
4.6569791496
 20
-26.7975566317
 10
4.6496297985
 20
-26.7744770475
 10
4.640617064
 20
-26.751739003
 10
4.6299229155
 20
-26.7292853521
 10
4.6175653835
 20
-26.7071732614
 10
4.6035158852
 20
-26.6859837469
 10
4.5876509622
 20
-26.6657283727
 10
4.5700940727
 20
-26.6463956269
 10
4.5511870089
 20
-26.6285319416
 10
4.5308447327
 20
-26.6122767946
 10
4.5091522822
 20
-26.5974907778
 10
4.4867065639
 20
-26.5843020057
 10
4.4635915105
 20
-26.5727678972
 10
4.4397231895
 20
-26.5628310871
 10
4.41544671
 20
-26.55444751
 10
4.3908771085
 20
-26.5476024881
 10
4.3658993485
 20
-26.5423107307
 10
4.3405134302
 20
-26.5385722489
  0
LINE
  5
2C0
100
AcDbEntity
  8
0
100
AcDbLine
 62
7
  6
CONTINUOUS
 10
3.3200188023
 20
-26.110807341
 11
3.3200188023
 21
-28.8778013544
  0
LINE
  5
2C1
100
AcDbEntity
  8
0
100
AcDbLine
 62
7
  6
CONTINUOUS
 10
3.8826972541
 20
-26.5550547959
 11
3.8826972541
 21
-27.3236280866
  0
LINE
  5
2C2
100
AcDbEntity
  8
0
100
AcDbLine
 62
7
  6
CONTINUOUS
 10
3.9020753449
 20
-27.7821519248
 11
3.9020753449
 21
-28.8778013544
  0
LINE
  5
2C3
100
AcDbEntity
  8
0
100
AcDbLine
 62
7
  6
CONTINUOUS
 10
4.8225031649
 20
-27.554380628
 11
4.8225031649
 21
-27.5709244369
  0
LINE
  5
2C4
100
AcDbEntity
  8
0
100
AcDbLine
 62
7
  6
CONTINUOUS
 10
-3.785169
 20
-26.078098
 11
-4.335146
 21
-28.00522
  0
LINE
  5
2C5
100
AcDbEntity
  8
0
100
AcDbLine
 62
7
  6
CONTINUOUS
 10
-3.20116
 20
-26.078098
 11
-4.101097
 21
-28.877801
  0
LINE
  5
2C6
100
AcDbEntity
  8
0
100
AcDbLine
 62
7
  6
CONTINUOUS
 10
-0.085906
 20
-26.078098
 11
-0.670314
 21
-27.632502
  0
LINE
  5
2C7
100
AcDbEntity
  8
0
100
AcDbLine
 62
7
  6
CONTINUOUS
 10
1.995737
 20
-26.847385
 11
1.704751
 21
-27.886391
  0
LINE
  5
2C8
100
AcDbEntity
  8
0
100
AcDbLine
 62
7
  6
CONTINUOUS
 10
1.585207
 20
-28.318881
 11
1.423947
 21
-28.877801
  0
LINE
  5
2C9
100
AcDbEntity
  8
0
100
AcDbLine
 62
7
  6
CONTINUOUS
 10
1.724045
 20
-26.078098
 11
0.84588
 21
-28.877801
  0
LINE
  5
2CA
100
AcDbEntity
  8
0
100
AcDbLine
 62
7
  6
CONTINUOUS
 10
0.062337
 20
-27.057269
 11
-0.632524
 21
-28.877801
  0
LWPOLYLINE
  5
2CB
100
AcDbEntity
  8
0
100
AcDbPolyline
 62
7
  6
CONTINUOUS
 90
10
 70
0
 10
4.9257072885
 20
-27.4926717717
 10
4.90537276
 20
-27.5095989347
 10
4.8955523168
 20
-27.5175979353
 10
4.8856957893
 20
-27.5250510275
 10
4.8758263455
 20
-27.5320197342
 10
4.8659208173
 20
-27.5384425433
 10
4.8556669597
 20
-27.5439290694
 10
4.8449606909
 20
-27.5483491898
 10
4.8339060926
 20
-27.5518330411
 10
4.8225031649
 20
-27.554380628
  0
LWPOLYLINE
  5
2CC
100
AcDbEntity
  8
RACCORDO
100
AcDbPolyline
 62
253
  6
CONTINUOUS
 90
15
 70
0
 10
79.1974905456
 20
21.811395269
 10
79.1665319962
 20
21.8104913184
 10
79.1370018668
 20
21.8094813005
 10
79.1090544678
 20
21.8083704932
 10
79.0828358391
 20
21.8071647011
 10
79.0584829867
 20
21.8058702251
 10
79.0361231672
 20
21.8044938295
 10
79.0158732222
 20
21.8030427066
 10
78.9978389685
 20
21.8015244394
 10
78.9821146445
 20
21.7999469616
 10
78.968782418
 20
21.7983185164
 10
78.9579119569
 20
21.7966476132
 10
78.9495600652
 20
21.7949429834
 10
78.9437703857
 20
21.7932135346
 10
78.9405731727
 20
21.791468304
  0
LWPOLYLINE
  5
2CD
100
AcDbEntity
  8
RACCORDO
100
AcDbPolyline
 62
7
  6
CONTINUOUS
 90
28
 70
0
 10
-78.0490249234
 20
22.5
 10
-78.0955000971
 20
22.4986673673
 10
-78.1416291883
 20
22.4946633626
 10
-78.187412197
 20
22.4879879823
 10
-78.2330650427
 20
22.478588075
 10
-78.2783718058
 20
22.4665167775
 10
-78.3226847277
 20
22.4519335156
 10
-78.3658934039
 20
22.434839677
 10
-78.4081082389
 20
22.4152338473
 10
-78.4490126876
 20
22.3932712478
 10
-78.4886112372
 20
22.3689481248
 10
-78.5268994005
 20
22.3422681954
 10
-78.5635471708
 20
22.3133978873
 10
-78.5986310647
 20
22.2822058957
 10
-78.6320745656
 20
22.2488234806
 10
-78.6633181175
 20
22.2138109217
 10
-78.6922306727
 20
22.1772429369
 10
-78.7189432789
 20
22.1390447705
 10
-78.7432895242
 20
22.0995525006
 10
-78.7652641284
 20
22.0587706944
 10
-78.7848723718
 20
22.0166947511
 10
-78.8019636831
 20
21.9736470049
 10
-78.8165380501
 20
21.9295298178
 10
-78.828595485
 20
21.8844407999
 10
-78.8379854539
 20
21.8389951713
 10
-78.8446577788
 20
21.7933980062
 10
-78.8486626376
 20
21.7474442228
 10
-78.8500000304
 20
21.7011338162
  0
LINE
  5
2CE
100
AcDbEntity
  8
RACCORDO
100
AcDbLine
 62
253
  6
CONTINUOUS
 10
-104.5221155973
 20
22.5416894053
 11
-104.5864508739
 21
22.5402363786
  0
LINE
  5
2CF
100
AcDbEntity
  8
RACCORDO
100
AcDbLine
 62
253
  6
CONTINUOUS
 10
-104.5221125309
 20
22.6294753591
 11
-104.5864477259
 21
22.6280185823
  0
LINE
  5
2D0
100
AcDbEntity
  8
RACCORDO
100
AcDbLine
 62
253
  6
CONTINUOUS
 10
79.2630391866
 20
21.8128666531
 11
79.1974905456
 21
21.811395269
  0
LINE
  5
2D1
100
AcDbEntity
  8
RACCORDO
100
AcDbLine
 62
253
  6
CONTINUOUS
 10
79.3322794753
 20
21.8138647377
 11
79.2630391866
 21
21.8128666531
  0
LINE
  5
2D2
100
AcDbEntity
  8
RACCORDO
100
AcDbLine
 62
253
  6
CONTINUOUS
 10
-104.4543340882
 20
22.5426740671
 11
-104.5221155973
 21
22.5416894053
  0
LINE
  5
2D3
100
AcDbEntity
  8
RACCORDO
100
AcDbLine
 62
253
  6
CONTINUOUS
 10
-104.4543311194
 20
22.6304618465
 11
-104.5221125309
 21
22.6294753591
  0
LINE
  5
2D4
100
AcDbEntity
  8
RACCORDO
100
AcDbLine
 62
253
  6
CONTINUOUS
 10
-104.3844541213
 20
22.6309583876
 11
-104.4543311194
 21
22.6304618465
  0
LWPOLYLINE
  5
2D5
100
AcDbEntity
  8
RACCORDO
100
AcDbPolyline
 62
253
  6
CONTINUOUS
 90
3
 70
0
 10
79.4398863164
 20
21.8144316653
 10
79.4037660349
 20
21.8143686882
 10
79.3322794753
 20
21.8138647377
  0
LWPOLYLINE
  5
2D6
100
AcDbEntity
  8
RACCORDO
100
AcDbPolyline
 62
253
  6
CONTINUOUS
 90
3
 70
0
 10
-104.3491668284
 20
22.5432326076
 10
-104.3844569826
 20
22.5431707434
 10
-104.4543340882
 20
22.5426740671
  0
LINE
  5
2D7
100
AcDbEntity
  8
RACCORDO
100
AcDbLine
 62
7
  6
CONTINUOUS
 10
78.0490249234
 20
22.5
 11
-78.0490249234
 21
22.5
  0
LINE
  5
2D8
100
AcDbEntity
  8
RACCORDO
100
AcDbLine
 62
253
  6
CONTINUOUS
 10
-104.8472593806
 20
22.5203789087
 11
-105.0
 21
22.5203789087
  0
LINE
  5
2D9
100
AcDbEntity
  8
RACCORDO
100
AcDbLine
 62
253
  6
CONTINUOUS
 10
104.8472593806
 20
22.5203789087
 11
105.0
 21
22.5203789087
  0
LINE
  5
2DA
100
AcDbEntity
  8
RACCORDO
100
AcDbLine
 62
253
  6
CONTINUOUS
 10
-78.1382640735
 20
22.5889882007
 11
78.1382534645
 21
22.5889882007
  0
LINE
  5
2DB
100
AcDbEntity
  8
RACCORDO
100
AcDbLine
 62
253
  6
CONTINUOUS
 10
-104.3844541213
 20
22.6309583876
 11
-79.1508701393
 21
22.6310194482
  0
LINE
  5
2DC
100
AcDbEntity
  8
RACCORDO
100
AcDbLine
 62
253
  6
CONTINUOUS
 10
-78.1382398365
 20
23.1148987905
 11
78.1382398365
 21
23.1148987905
  0
LINE
  5
2DD
100
AcDbEntity
  8
RACCORDO
100
AcDbLine
 62
253
  6
CONTINUOUS
 10
79.1508701393
 20
22.6310194482
 11
104.3844541205
 21
22.6309583868
  0
LINE
  5
2DE
100
AcDbEntity
  8
RACCORDO
100
AcDbLine
 62
253
  6
CONTINUOUS
 10
-79.4398863164
 20
21.8144314751
 11
-79.3678342464
 21
21.8141792317
  0
LINE
  5
2DF
100
AcDbEntity
  8
RACCORDO
100
AcDbLine
 62
253
  6
CONTINUOUS
 10
104.3491668284
 20
22.5432326078
 11
104.4195711171
 21
22.5429842534
  0
LINE
  5
2E0
100
AcDbEntity
  8
RACCORDO
100
AcDbLine
 62
253
  6
CONTINUOUS
 10
104.3844541205
 20
22.6309583868
 11
104.4543311172
 21
22.6304618457
  0
LINE
  5
2E1
100
AcDbEntity
  8
RACCORDO
100
AcDbLine
 62
253
  6
CONTINUOUS
 10
-79.3678342464
 20
21.8141792317
 11
-79.297286153
 21
21.813426282
  0
LINE
  5
2E2
100
AcDbEntity
  8
RACCORDO
100
AcDbLine
 62
253
  6
CONTINUOUS
 10
104.4195711171
 20
22.5429842534
 11
104.4885725075
 21
22.5422417326
  0
LINE
  5
2E3
100
AcDbEntity
  8
RACCORDO
100
AcDbLine
 62
253
  6
CONTINUOUS
 10
104.4543311172
 20
22.6304618457
 11
104.5221125273
 21
22.6294753583
  0
LWPOLYLINE
  5
2E4
100
AcDbEntity
  8
RACCORDO
100
AcDbPolyline
 62
253
  6
CONTINUOUS
 90
17
 70
0
 10
-79.297286153
 20
21.813426282
 10
-79.229714734
 20
21.8121883437
 10
-79.1974893213
 20
21.8113951975
 10
-79.1665305489
 20
21.8104912591
 10
-79.137000195
 20
21.8094812523
 10
-79.1090525733
 20
21.8083704549
 10
-79.082833727
 20
21.8071646715
 10
-79.0584806652
 20
21.8058702031
 10
-79.0361206473
 20
21.804493814
 10
-79.0158705177
 20
21.8030426967
 10
-78.9978360956
 20
21.8015244342
 10
-78.9821116216
 20
21.7999469602
 10
-78.9687792655
 20
21.7983185181
 10
-78.9579086969
 20
21.7966476174
 10
-78.9495567209
 20
21.7949429895
 10
-78.9437669817
 20
21.7932135422
 10
-78.9405697342
 20
21.7914683129
  0
LWPOLYLINE
  5
2E5
100
AcDbEntity
  8
RACCORDO
100
AcDbPolyline
 62
253
  6
CONTINUOUS
 90
17
 70
0
 10
104.4885725075
 20
22.5422417326
 10
104.5547960557
 20
22.541019841
 10
104.5864508755
 20
22.5402363788
 10
104.6169221701
 20
22.5393429266
 10
104.6460579546
 20
22.5383439408
 10
104.6737129058
 20
22.5372444041
 10
104.6997490862
 20
22.5360498007
 10
104.7240366325
 20
22.5347660892
 10
104.7464544034
 20
22.5333996723
 10
104.7668905836
 20
22.5319573656
 10
104.7852432413
 20
22.530446363
 10
104.8014208374
 20
22.528874201
 10
104.815342681
 20
22.5272487213
 10
104.826939333
 20
22.5255780314
 10
104.8361529515
 20
22.5238704645
 10
104.8429375808
 20
22.5221345374
 10
104.8472593806
 20
22.5203789087
  0
LWPOLYLINE
  5
2E6
100
AcDbEntity
  8
RACCORDO
100
AcDbPolyline
 62
253
  6
CONTINUOUS
 90
19
 70
0
 10
78.1382398365
 20
23.1148987905
 10
78.2006935909
 20
23.113534858
 10
78.26331666
 20
23.1089912791
 10
78.3261090439
 20
23.1012680398
 10
78.3893301483
 20
23.0903818369
 10
78.4527205675
 20
23.0763159172
 10
78.5155020839
 20
23.0590200764
 10
78.577693572
 20
23.0383973415
 10
78.6392761574
 20
23.0145445681
 10
78.6994149988
 20
22.9877022859
 10
78.7580530722
 20
22.9577935819
 10
78.8152474017
 20
22.924895209
 10
78.8703342184
 20
22.8894782039
 10
78.9232552169
 20
22.8514774275
 10
78.9740687026
 20
22.8109578482
 10
79.022285823
 20
22.7685856965
 10
79.0677436271
 20
22.7245830132
 10
79.1106050659
 20
22.6787276219
 10
79.1508701393
 20
22.6310194482
  0
LWPOLYLINE
  5
2E7
100
AcDbEntity
  8
RACCORDO
100
AcDbPolyline
 62
253
  6
CONTINUOUS
 90
19
 70
0
 10
78.1382534878
 20
22.5889882238
 10
78.1766112869
 20
22.5881408049
 10
78.2152589499
 20
22.5854326808
 10
78.2541028194
 20
22.5808159466
 10
78.2930968662
 20
22.5742375015
 10
78.332083975
 20
22.5656631409
 10
78.3708018276
 20
22.5551036152
 10
78.4091671941
 20
22.542546169
 10
78.4470500509
 20
22.5279971956
 10
78.4841329353
 20
22.5115599556
 10
78.5203116006
 20
22.4932835063
 10
78.5555051518
 20
22.4732119165
 10
78.5894618966
 20
22.4515057033
 10
78.6221085969
 20
22.4282487561
 10
78.6533859873
 20
22.4035220053
 10
78.6831025703
 20
22.377531397
 10
78.7111813276
 20
22.3504251161
 10
78.7376409713
 20
22.3222699586
 10
78.7624604562
 20
22.2931695584
  0
LWPOLYLINE
  5
2E8
100
AcDbEntity
  8
RACCORDO
100
AcDbPolyline
 62
253
  6
CONTINUOUS
 90
16
 70
0
 10
104.5221125273
 20
22.6294753583
 10
104.5864477213
 20
22.6280185816
 10
104.6169189822
 20
22.6271225546
 10
104.6460547393
 20
22.6261205438
 10
104.6737096698
 20
22.6250175469
 10
104.6997458369
 20
22.6238190655
 10
104.7240333777
 20
22.6225310773
 10
104.7464511513
 20
22.6211600066
 10
104.7668873427
 20
22.619712692
 10
104.7852400205
 20
22.6181963523
 10
104.8014176456
 20
22.6166185507
 10
104.8153395276
 20
22.614987157
 10
104.8269362269
 20
22.6133103082
 10
104.836149902
 20
22.6115963681
 10
104.8429345968
 20
22.6098538854
 10
104.8472564709
 20
22.6080915512
  0
LINE
  5
2E9
100
AcDbEntity
  8
RACCORDO
100
AcDbLine
 62
253
  6
CONTINUOUS
 10
79.0666428923
 20
22.5623823929
 11
79.0124730414
 21
22.5175732917
  0
LWPOLYLINE
  5
2EA
100
AcDbEntity
  8
RACCORDO
100
AcDbPolyline
 62
253
  6
CONTINUOUS
 90
3
 70
0
 10
79.1508701393
 20
22.6310193242
 10
79.1225949671
 20
22.6081117442
 10
79.0666428923
 20
22.5623823929
  0
LWPOLYLINE
  5
2EB
100
AcDbEntity
  8
RACCORDO
100
AcDbPolyline
 62
253
  6
CONTINUOUS
 90
15
 70
0
 10
-104.5864508739
 20
22.5402363786
 10
-104.6169221683
 20
22.5393429264
 10
-104.6460579528
 20
22.5383439406
 10
-104.6737129039
 20
22.5372444039
 10
-104.6997490842
 20
22.5360498005
 10
-104.7240366305
 20
22.534766089
 10
-104.7464544014
 20
22.5333996722
 10
-104.7668905816
 20
22.5319573655
 10
-104.7852432395
 20
22.5304463629
 10
-104.8014208356
 20
22.5288742009
 10
-104.8153426795
 20
22.5272487212
 10
-104.8269393317
 20
22.5255780314
 10
-104.8361529504
 20
22.5238704644
 10
-104.84293758
 20
22.5221345374
 10
-104.8472593802
 20
22.5203789087
  0
LWPOLYLINE
  5
2EC
100
AcDbEntity
  8
RACCORDO
100
AcDbPolyline
 62
253
  6
CONTINUOUS
 90
15
 70
0
 10
-104.5864477259
 20
22.6280185823
 10
-104.6169189873
 20
22.6271225553
 10
-104.6460547448
 20
22.6261205444
 10
-104.6737096756
 20
22.6250175474
 10
-104.6997458428
 20
22.623819066
 10
-104.7240333837
 20
22.6225310778
 10
-104.7464511572
 20
22.621160007
 10
-104.7668873484
 20
22.6197126924
 10
-104.785240026
 20
22.6181963526
 10
-104.8014176507
 20
22.616618551
 10
-104.8153395321
 20
22.6149871572
 10
-104.8269362308
 20
22.6133103084
 10
-104.8361499051
 20
22.6115963682
 10
-104.842934599
 20
22.6098538854
 10
-104.8472564721
 20
22.6080915512
  0
LINE
  5
2ED
100
AcDbEntity
  8
RACCORDO
100
AcDbLine
 62
253
  6
CONTINUOUS
 10
79.1508701393
 20
-22.6310192799
 11
79.0944695174
 21
-22.5851922243
  0
LWPOLYLINE
  5
2EE
100
AcDbEntity
  8
RACCORDO
100
AcDbPolyline
 62
253
  6
CONTINUOUS
 90
3
 70
0
 10
79.0944695174
 20
-22.5851922243
 10
79.0392622788
 20
-22.539802739
 10
79.0124729127
 20
-22.5175731506
  0
LINE
  5
2EF
100
AcDbEntity
  8
RACCORDO
100
AcDbLine
 62
253
  6
CONTINUOUS
 10
78.9405731819
 20
21.7914834817
 11
78.8500000304
 21
21.7011338162
  0
LINE
  5
2F0
100
AcDbEntity
  8
RACCORDO
100
AcDbLine
 62
253
  6
CONTINUOUS
 10
78.1382534645
 20
22.5889882007
 11
78.0490249234
 21
22.5
  0
LWPOLYLINE
  5
2F1
100
AcDbEntity
  8
RACCORDO
100
AcDbPolyline
 62
253
  6
CONTINUOUS
 90
12
 70
0
 10
78.8922097718
 20
22.4156970058
 10
78.8717866138
 20
22.3979323694
 10
78.8528417795
 20
22.3812692118
 10
78.8354756217
 20
22.3657957998
 10
78.8197801312
 20
22.3515940978
 10
78.8058384489
 20
22.3387393339
 10
78.7937244253
 20
22.3272996013
 10
78.7835022301
 20
22.3173354976
 10
78.7752260113
 20
22.3088998039
 10
78.768939609
 20
22.302037205
 10
78.7646763232
 20
22.2967840529
 10
78.7624587369
 20
22.2931681741
  0
LINE
  5
2F2
100
AcDbEntity
  8
RACCORDO
100
AcDbLine
 62
253
  6
CONTINUOUS
 10
78.9370510652
 20
22.4541489733
 11
78.8922097718
 21
22.4156970058
  0
LWPOLYLINE
  5
2F3
100
AcDbEntity
  8
RACCORDO
100
AcDbPolyline
 62
253
  6
CONTINUOUS
 90
3
 70
0
 10
79.0124730414
 20
22.5175732917
 10
78.9864167992
 20
22.4958114549
 10
78.9370510652
 20
22.4541489733
  0
LINE
  5
2F4
100
AcDbEntity
  8
RACCORDO
100
AcDbLine
 62
253
  6
CONTINUOUS
 10
79.0124729127
 20
-22.5175731506
 11
78.9612314698
 21
-22.4746324242
  0
LWPOLYLINE
  5
2F5
100
AcDbEntity
  8
RACCORDO
100
AcDbPolyline
 62
253
  6
CONTINUOUS
 90
14
 70
0
 10
78.9612314698
 20
-22.4746324242
 10
78.9140027914
 20
-22.4344687663
 10
78.892209455
 20
-22.4156967235
 10
78.871786259
 20
-22.3979320588
 10
78.8528413878
 20
-22.381268874
 10
78.8354751949
 20
-22.3657954361
 10
78.8197796714
 20
-22.35159371
 10
78.8058379587
 20
-22.3387389242
 10
78.7937239078
 20
-22.3272991721
 10
78.7835016886
 20
-22.3173350517
 10
78.7752254496
 20
-22.3088993442
 10
78.7689390311
 20
-22.3020367347
 10
78.7646757331
 20
-22.2967835753
 10
78.7624581389
 20
-22.2931676927
  0
LINE
  5
2F6
100
AcDbEntity
  8
RACCORDO
100
AcDbLine
 62
253
  6
CONTINUOUS
 10
78.1382646945
 20
-22.5889882007
 11
78.0490249234
 21
-22.5
  0
LINE
  5
2F7
100
AcDbEntity
  8
RACCORDO
100
AcDbLine
 62
253
  6
CONTINUOUS
 10
78.9405731786
 20
-21.791478323
 11
78.8500000304
 21
-21.7011338162
  0
LINE
  5
2F8
100
AcDbEntity
  8
RACCORDO
100
AcDbLine
 62
253
  6
CONTINUOUS
 10
104.8448916333
 20
43.845794038
 11
104.9999996007
 21
44.0035192549
  0
LINE
  5
2F9
100
AcDbEntity
  8
RACCORDO
100
AcDbLine
 62
253
  6
CONTINUOUS
 10
103.8566450886
 20
44.8340076387
 11
104.0199743099
 21
45.0
  0
LWPOLYLINE
  5
2FA
100
AcDbEntity
  8
RACCORDO
100
AcDbPolyline
 62
253
  6
CONTINUOUS
 90
28
 70
0
 10
-103.8566450886
 20
44.8340076387
 10
-103.9136751892
 20
44.8321538066
 10
-103.9704757852
 20
44.8270218653
 10
-104.0268624521
 20
44.8186297922
 10
-104.0826418639
 20
44.8070085986
 10
-104.1376432713
 20
44.7921957181
 10
-104.191717561
 20
44.774229062
 10
-104.2447013166
 20
44.7531560785
 10
-104.2964050854
 20
44.7290459579
 10
-104.3466450133
 20
44.7019815838
 10
-104.3952471767
 20
44.6720540731
 10
-104.4420602684
 20
44.6393550269
 10
-104.4869417273
 20
44.6039825974
 10
-104.5297422733
 20
44.5660468189
 10
-104.5703170667
 20
44.5256691293
 10
-104.6085375099
 20
44.4829746841
 10
-104.6442731439
 20
44.4380975078
 10
-104.6774006599
 20
44.391181165
 10
-104.7078119867
 20
44.3423747523
 10
-104.7354011026
 20
44.291830837
 10
-104.76006831
 20
44.2397141953
 10
-104.7817281878
 20
44.1862012064
 10
-104.8003008856
 20
44.1314670611
 10
-104.8157188755
 20
44.07568681
 10
-104.8279300012
 20
44.0190434404
 10
-104.8368873973
 20
43.9617219595
 10
-104.8425504601
 20
43.9039090097
 10
-104.8448916334
 20
43.8457940386
  0
LWPOLYLINE
  5
2FB
100
AcDbEntity
  8
RACCORDO
100
AcDbPolyline
 62
253
  6
CONTINUOUS
 90
28
 70
0
 10
-103.8566450886
 20
44.4263792099
 10
-103.8853629129
 20
44.4255295964
 10
-103.9137774191
 20
44.4230408519
 10
-103.9418886073
 20
44.4189129628
 10
-103.9697861785
 20
44.4131238617
 10
-103.9973804318
 20
44.405695561
 10
-104.0244022632
 20
44.3966941552
 10
-104.0508488237
 20
44.3861026273
 10
-104.0767229624
 20
44.3739378905
 10
-104.1017641236
 20
44.3603169283
 10
-104.1259606349
 20
44.3452272186
 10
-104.1493241688
 20
44.328681143
 10
-104.1716291867
 20
44.3108330429
 10
-104.1928670977
 20
44.2916701882
 10
-104.2130464928
 20
44.2712051476
 10
-104.231967607
 20
44.2496302243
 10
-104.2496195282
 20
44.2269339274
 10
-104.2660131685
 20
44.2031275838
 10
-104.2809814986
 20
44.1784377495
 10
-104.2945115064
 20
44.1528538301
 10
-104.306616204
 20
44.1263862725
 10
-104.3171675985
 20
44.0992932311
 10
-104.3261505488
 20
44.0715612095
 10
-104.3335801959
 20
44.0432035908
 10
-104.3393739703
 20
44.0145188974
 10
-104.3435043489
 20
43.9856066289
 10
-104.3459988548
 20
43.9563672315
 10
-104.346857488
 20
43.9268006745
  0
LWPOLYLINE
  5
2FC
100
AcDbEntity
  8
RACCORDO
100
AcDbPolyline
 62
253
  6
CONTINUOUS
 90
22
 70
0
 10
-104.346857488
 20
43.926800663
 10
-104.3821160899
 20
43.9265850593
 10
-104.4171991437
 20
43.9259275505
 10
-104.4519319752
 20
43.9248314104
 10
-104.4861416542
 20
43.9233020965
 10
-104.519657855
 20
43.9213472231
 10
-104.5523137046
 20
43.9189765232
 10
-104.5839466137
 20
43.9162018003
 10
-104.6143990861
 20
43.9130368693
 10
-104.6435195027
 20
43.909497488
 10
-104.6711628767
 20
43.9056012787
 10
-104.6971915752
 20
43.9013676399
 10
-104.7214760047
 20
43.8968176505
 10
-104.7438952559
 20
43.8919739642
 10
-104.7643377064
 20
43.8868606972
 10
-104.7827015757
 20
43.8815033078
 10
-104.7988954324
 20
43.8759284698
 10
-104.8128386494
 20
43.8701639395
 10
-104.8244618052
 20
43.8642384178
 10
-104.8337070295
 20
43.8581814072
 10
-104.8405282916
 20
43.8520230648
 10
-104.8448916292
 20
43.8457940521
  0
LINE
  5
2FD
100
AcDbEntity
  8
RACCORDO
100
AcDbLine
 62
253
  6
CONTINUOUS
 10
103.8566450886
 20
44.4263792099
 11
-103.8566450886
 21
44.4263792099
  0
LINE
  5
2FE
100
AcDbEntity
  8
RACCORDO
100
AcDbLine
 62
253
  6
CONTINUOUS
 10
103.8566450886
 20
44.8340076387
 11
-103.8566450886
 21
44.8340076387
  0
LINE
  5
2FF
100
AcDbEntity
  8
RACCORDO
100
AcDbLine
 62
7
  6
CONTINUOUS
 10
104.0199743099
 20
45.0
 11
-104.0199743099
 21
45.0
  0
LWPOLYLINE
  5
300
100
AcDbEntity
  8
RACCORDO
100
AcDbPolyline
 62
253
  6
CONTINUOUS
 90
22
 70
0
 10
104.346857488
 20
43.9268006712
 10
104.3821159115
 20
43.9265850516
 10
104.4171987769
 20
43.9259275285
 10
104.451931412
 20
43.9248313756
 10
104.4861408883
 20
43.9233020505
 10
104.5196568821
 20
43.9213471675
 10
104.5523125224
 20
43.9189764594
 10
104.5839452218
 20
43.9162017299
 10
104.6143974861
 20
43.9130367937
 10
104.6435176979
 20
43.9094974087
 10
104.6711608724
 20
43.9056011969
 10
104.6971893783
 20
43.9013675568
 10
104.7214736238
 20
43.8968175673
 10
104.7438927013
 20
43.8919738819
 10
104.7643349897
 20
43.8868606168
 10
104.78269871
 20
43.8815032299
 10
104.798892432
 20
43.8759283951
 10
104.8128355297
 20
43.8701638684
 10
104.8244585826
 20
43.8642383508
 10
104.8337037212
 20
43.8581813443
 10
104.8405249154
 20
43.8520230061
 10
104.8448882037
 20
43.8457939974
  0
LWPOLYLINE
  5
301
100
AcDbEntity
  8
RACCORDO
100
AcDbPolyline
 62
7
  6
CONTINUOUS
 90
28
 70
0
 10
104.0199743099
 20
45.0
 10
104.0764796275
 20
44.9983984097
 10
104.1325279765
 20
44.9935696001
 10
104.1881193568
 20
44.985513516
 10
104.2434996027
 20
44.9741734187
 10
104.2984228799
 20
44.9596058251
 10
104.3521516857
 20
44.9419805178
 10
104.4045601789
 20
44.9213008268
 10
104.4557742006
 20
44.8975630105
 10
104.5054337718
 20
44.8709262165
 10
104.5535341419
 20
44.8414026277
 10
104.6000800615
 20
44.8089794921
 10
104.644725804
 20
44.7737785384
 10
104.6875837275
 20
44.7356410578
 10
104.728541474
 20
44.6947250367
 10
104.766916242
 20
44.6516273066
 10
104.8025704216
 20
44.6064154248
 10
104.8356416227
 20
44.5590211768
 10
104.8658598742
 20
44.5098378632
 10
104.8932104307
 20
44.4588949527
 10
104.9177080375
 20
44.4061623695
 10
104.9391269589
 20
44.3519442023
 10
104.9574859133
 20
44.2960644203
 10
104.9727661823
 20
44.2386984821
 10
104.9846858746
 20
44.1806779204
 10
104.9931510266
 20
44.1222799043
 10
104.998255602
 20
44.063227057
 10
104.9999996007
 20
44.0035192549
  0
LINE
  5
302
100
AcDbEntity
  8
RACCORDO
100
AcDbLine
 62
253
  6
CONTINUOUS
 10
103.8566450886
 20
-44.8340076387
 11
104.0199743099
 21
-45.0
  0
LINE
  5
303
100
AcDbEntity
  8
RACCORDO
100
AcDbLine
 62
253
  6
CONTINUOUS
 10
104.8448916333
 20
-43.8457940385
 11
104.9999996007
 21
-44.0035192549
  0
LWPOLYLINE
  5
304
100
AcDbEntity
  8
RACCORDO
100
AcDbPolyline
 62
7
  6
CONTINUOUS
 90
28
 70
0
 10
78.8500000304
 20
21.7011338162
 10
78.8486695732
 20
21.7474146265
 10
78.8446668598
 20
21.7933561928
 10
78.8379918902
 20
21.8389585196
 10
78.8285926175
 20
21.8844361711
 10
78.8165210886
 20
21.9295745902
 10
78.8019334442
 20
21.9737301092
 10
78.7848306183
 20
22.0167940154
 10
78.7652116769
 20
22.0588750501
 10
78.7432299584
 20
22.0996557395
 10
78.718882805
 20
22.1391393267
 10
78.6921728746
 20
22.1773226025
 10
78.6632614786
 20
22.2138784232
 10
78.632016258
 20
22.2488849256
 10
78.5985695718
 20
22.2822640107
 10
78.5634798093
 20
22.3134541894
 10
78.5268202151
 20
22.3423254517
 10
78.4885175445
 20
22.3690078521
 10
78.448910453
 20
22.3933300047
 10
78.4080045618
 20
22.415285691
 10
78.3657942496
 20
22.4348811659
 10
78.3226013079
 20
22.4519637532
 10
78.2783265966
 20
22.4665338264
 10
78.2330692557
 20
22.4785910386
 10
78.1874484968
 20
22.4879816317
 10
78.1416707237
 20
22.4946543579
 10
78.0955295326
 20
22.4986604795
 10
78.0490249234
 20
22.5
  0
LINE
  5
305
100
AcDbEntity
  8
RACCORDO
100
AcDbLine
 62
253
  6
CONTINUOUS
 10
78.1382398365
 20
23.1148987905
 11
78.1382398365
 21
22.5889882007
  0
LINE
  5
306
100
AcDbEntity
  8
RACCORDO
100
AcDbLine
 62
253
  6
CONTINUOUS
 10
78.1382398365
 20
-23.1148987905
 11
78.1382398365
 21
-22.5889882007
  0
LINE
  5
307
100
AcDbEntity
  8
RACCORDO
100
AcDbLine
 62
7
  6
CONTINUOUS
 10
78.8500000304
 20
-21.7011338162
 11
78.8500000304
 21
21.7011338162
  0
LINE
  5
308
100
AcDbEntity
  8
RACCORDO
100
AcDbLine
 62
253
  6
CONTINUOUS
 10
78.9405731819
 20
21.7914834817
 11
78.9405731786
 21
-21.791478323
  0
LINE
  5
309
100
AcDbEntity
  8
RACCORDO
100
AcDbLine
 62
253
  6
CONTINUOUS
 10
79.4398863164
 20
21.8144316658
 11
79.4398863164
 21
-21.8144316658
  0
LWPOLYLINE
  5
30A
100
AcDbEntity
  8
RACCORDO
100
AcDbPolyline
 62
253
  6
CONTINUOUS
 90
13
 70
0
 10
79.4398863164
 20
-21.8144316658
 10
79.4380960837
 20
-21.8858793997
 10
79.4321468697
 20
-21.9573807282
 10
79.4220386743
 20
-22.0289356483
 10
79.4077556229
 20
-22.1009480075
 10
79.3893135903
 20
-22.1730139457
 10
79.3667602004
 20
-22.2439219269
 10
79.3399011972
 20
-22.3136982137
 10
79.3089308369
 20
-22.3823165933
 10
79.2744795117
 20
-22.4484868739
 10
79.2367573524
 20
-22.5117790389
 10
79.1955542283
 20
-22.5726232141
 10
79.1508701393
 20
-22.6310194482
  0
LWPOLYLINE
  5
30B
100
AcDbEntity
  8
RACCORDO
100
AcDbPolyline
 62
253
  6
CONTINUOUS
 90
13
 70
0
 10
78.9405731695
 20
-21.791478314
 10
78.9393770782
 20
-21.8351950726
 10
78.9357316239
 20
-21.8792128622
 10
78.9295752397
 20
-21.923391338
 10
78.9208338934
 20
-21.9676721977
 10
78.9094723185
 20
-22.0118087413
 10
78.8955453026
 20
-22.0553790931
 10
78.8790537098
 20
-22.0982721402
 10
78.8600379978
 20
-22.1402935786
 10
78.8387357052
 20
-22.1809366462
 10
78.8153271949
 20
-22.2199718949
 10
78.7898636444
 20
-22.2574153782
 10
78.7624604562
 20
-22.2931695584
  0
LWPOLYLINE
  5
30C
100
AcDbEntity
  8
RACCORDO
100
AcDbPolyline
 62
253
  6
CONTINUOUS
 90
19
 70
0
 10
79.1508701393
 20
-22.6310194482
 10
79.1092275098
 20
-22.6800753624
 10
79.0653512414
 20
-22.7268671046
 10
79.019241334
 20
-22.7713947682
 10
78.9707776497
 20
-22.8137725354
 10
78.9200803265
 20
-22.8538863962
 10
78.867509778
 20
-22.891394162
 10
78.8130333417
 20
-22.9262799056
 10
78.7566836801
 20
-22.9585597276
 10
78.6989191943
 20
-22.9879394939
 10
78.6396969844
 20
-23.0143902038
 10
78.5790599503
 20
-23.0379410102
 10
78.5175951923
 20
-23.058385012
 10
78.4552894774
 20
-23.0756716579
 10
78.3921560387
 20
-23.0898516111
 10
78.3288216753
 20
-23.1008697853
 10
78.2654953204
 20
-23.1087078376
 10
78.2019680408
 20
-23.1133841679
 10
78.1382398365
 20
-23.1148987905
  0
LWPOLYLINE
  5
30D
100
AcDbEntity
  8
RACCORDO
100
AcDbPolyline
 62
253
  6
CONTINUOUS
 90
19
 70
0
 10
78.7624604562
 20
-22.2931695584
 10
78.7368363424
 20
-22.3231667752
 10
78.7097237431
 20
-22.3518983899
 10
78.6811836656
 20
-22.3792895151
 10
78.6512838449
 20
-22.4052650038
 10
78.6200902333
 20
-22.4297593438
 10
78.5876655509
 20
-22.4527152027
 10
78.5540689038
 20
-22.4740779456
 10
78.519392754
 20
-22.4937765202
 10
78.483756832
 20
-22.5117380636
 10
78.4472333655
 20
-22.5279214217
 10
78.4099256794
 20
-22.5422762699
 10
78.372011462
 20
-22.5547400435
 10
78.3335860165
 20
-22.5652919502
 10
78.294748212
 20
-22.5739152305
 10
78.2556895042
 20
-22.580586582
 10
78.2165404585
 20
-22.5853108209
 10
78.1773671347
 20
-22.5881057137
 10
78.1382647369
 20
-22.5889882426
  0
LWPOLYLINE
  5
30E
100
AcDbEntity
  8
RACCORDO
100
AcDbPolyline
 62
253
  6
CONTINUOUS
 90
16
 70
0
 10
78.7624604562
 20
22.2931695584
 10
78.784320556
 20
22.2649925703
 10
78.8050190203
 20
22.2356846457
 10
78.8244897729
 20
22.2052878077
 10
78.842695173
 20
22.17379878
 10
78.8595395442
 20
22.1413144635
 10
78.8748923559
 20
22.108043723
 10
78.8887148333
 20
22.074052666
 10
78.9009709174
 20
22.0394112154
 10
78.9115815463
 20
22.0043553635
 10
78.9205392642
 20
21.9689657088
 10
78.9278420565
 20
21.9333179583
 10
78.9334688565
 20
21.8976522254
 10
78.9374411473
 20
21.8621018038
 10
78.9397983069
 20
21.8266881297
 10
78.9405731693
 20
21.7914834693
  0
LWPOLYLINE
  5
30F
100
AcDbEntity
  8
RACCORDO
100
AcDbPolyline
 62
253
  6
CONTINUOUS
 90
16
 70
0
 10
79.1508701393
 20
22.6310194482
 10
79.1864525802
 20
22.5850875189
 10
79.2199571955
 20
22.5374442731
 10
79.2513839851
 20
22.4880896839
 10
79.2808641194
 20
22.4368406287
 10
79.308266428
 20
22.3838801718
 10
79.3331974001
 20
22.3297575761
 10
79.3555914343
 20
22.2744502194
 10
79.3755141321
 20
22.2179806831
 10
79.3927687875
 20
22.1609660559
 10
79.4072893909
 20
22.1033984644
 10
79.4191419518
 20
22.0452857631
 10
79.4283277926
 20
21.9872686572
 10
79.434847354
 20
21.9295607223
 10
79.4387001953
 20
21.8719483909
 10
79.4398863164
 20
21.8144316658
  0
LWPOLYLINE
  5
310
100
AcDbEntity
  8
RACCORDO
100
AcDbPolyline
 62
253
  6
CONTINUOUS
 90
28
 70
0
 10
104.346857488
 20
43.9268006745
 10
104.3459971562
 20
43.9563671657
 10
104.3435036001
 20
43.985601025
 10
104.3393768198
 20
44.0145022836
 10
104.3335907765
 20
44.0431657865
 10
104.326171509
 20
44.0714967441
 10
104.3171971331
 20
44.0992107621
 10
104.3066504007
 20
44.1263021706
 10
104.2945485599
 20
44.1527767505
 10
104.2810214701
 20
44.1783673316
 10
104.2660568287
 20
44.2030602797
 10
104.2496669383
 20
44.2268693768
 10
104.232018566
 20
44.2495686139
 10
104.2131007958
 20
44.2711468137
 10
104.1929245436
 20
44.2916153175
 10
104.1716893247
 20
44.3107819198
 10
104.1493861113
 20
44.3286342874
 10
104.1260239312
 20
44.345184915
 10
104.1018293826
 20
44.3602788522
 10
104.0767940196
 20
44.3739028411
 10
104.0509262882
 20
44.3860702803
 10
104.0244781242
 20
44.3966662073
 10
103.9974393893
 20
44.4056757946
 10
103.9698202217
 20
44.4131139736
 10
103.9419029728
 20
44.418910414
 10
103.9137817595
 20
44.4230416916
 10
103.8853624648
 20
44.4255312856
 10
103.8566450886
 20
44.4263792099
  0
LINE
  5
311
100
AcDbEntity
  8
RACCORDO
100
AcDbLine
 62
253
  6
CONTINUOUS
 10
103.8566450886
 20
-44.4263792099
 11
103.8566450889
 21
-44.8340076387
  0
LINE
  5
312
100
AcDbEntity
  8
RACCORDO
100
AcDbLine
 62
253
  6
CONTINUOUS
 10
103.8566450886
 20
44.4263792099
 11
103.8566450886
 21
44.8340076387
  0
LINE
  5
313
100
AcDbEntity
  8
RACCORDO
100
AcDbLine
 62
253
  6
CONTINUOUS
 10
104.3481971776
 20
34.5017285393
 11
104.346857488
 21
43.9268006745
  0
LINE
  5
314
100
AcDbEntity
  8
RACCORDO
100
AcDbLine
 62
253
  6
CONTINUOUS
 10
104.8462670871
 20
34.446380284
 11
104.8448916333
 21
43.845794038
  0
LINE
  5
315
100
AcDbEntity
  8
DRAFT
100
AcDbLine
 62
7
  6
CONTINUOUS
 10
105.0
 20
22.5203789087
 11
105.0
 21
-22.5203789087
  0
LINE
  5
316
100
AcDbEntity
  8
RACCORDO
100
AcDbLine
 62
7
  6
CONTINUOUS
 10
104.9999996007
 20
44.0035192549
 11
105.0
 21
22.5203789087
  0
LINE
  5
317
100
AcDbEntity
  8
RACCORDO
100
AcDbLine
 62
7
  6
CONTINUOUS
 10
105.0
 20
-22.5203789087
 11
104.9999996007
 21
-44.0035192549
  0
LINE
  5
318
100
AcDbEntity
  8
RACCORDO
100
AcDbLine
 62
253
  6
CONTINUOUS
 10
104.346857488
 20
-43.9268006745
 11
104.3481971776
 21
34.5017285393
  0
LINE
  5
319
100
AcDbEntity
  8
RACCORDO
100
AcDbLine
 62
253
  6
CONTINUOUS
 10
104.8448916333
 20
-43.8457940385
 11
104.8462670871
 21
34.446380284
  0
LWPOLYLINE
  5
31A
100
AcDbEntity
  8
RACCORDO
100
AcDbPolyline
 62
253
  6
CONTINUOUS
 90
28
 70
0
 10
104.8448916334
 20
43.8457940382
 10
104.842554559
 20
43.9038496315
 10
104.8369019997
 20
43.9616070225
 10
104.8279609016
 20
44.0188772596
 10
104.8157723418
 20
44.0754696849
 10
104.8003819065
 20
44.1312042337
 10
104.7818362137
 20
44.185911107
 10
104.7601956357
 20
44.2394243192
 10
104.735540427
 20
44.2915574935
 10
104.7079624851
 20
44.3421172861
 10
104.6775652275
 20
44.3909335563
 10
104.6444518923
 20
44.4378595476
 10
104.6087298609
 20
44.4827472027
 10
104.5705222275
 20
44.5254530921
 10
104.5299595504
 20
44.5658429607
 10
104.4871699747
 20
44.6037919516
 10
104.4422974484
 20
44.6391790959
 10
104.3954918995
 20
44.6718935528
 10
104.3468979337
 20
44.70183582
 10
104.2966730121
 20
44.7289115255
 10
104.2449854781
 20
44.7530334755
 10
104.1920025624
 20
44.7741251002
 10
104.1379035556
 20
44.7921174086
 10
104.082860166
 20
44.8069564251
 10
104.0270322388
 20
44.8185994301
 10
103.970594547
 20
44.8270076093
 10
103.9137371922
 20
44.8321499559
 10
103.8566450886
 20
44.8340076387
  0
LWPOLYLINE
  5
31B
100
AcDbEntity
  8
RACCORDO
100
AcDbPolyline
 62
7
  6
CONTINUOUS
 90
28
 70
0
 10
104.9999996007
 20
-44.0035192549
 10
104.9982508474
 20
-44.0632408899
 10
104.99314613
 20
-44.1222945497
 10
104.9846854486
 20
-44.1806803605
 10
104.9727769011
 20
-44.2386673129
 10
104.9575123896
 20
-44.2959866303
 10
104.9391676206
 20
-44.3518319449
 10
104.9177594647
 20
-44.406038978
 10
104.8932710513
 20
-44.4587725744
 10
104.8659274749
 20
-44.5097202574
 10
104.8357124582
 20
-44.5589113297
 10
104.8026422785
 20
-44.6063170948
 10
104.7669908621
 20
-44.6515381854
 10
104.7286215913
 20
-44.6946403706
 10
104.6876710837
 20
-44.7355585396
 10
104.6448231187
 20
-44.7736971332
 10
104.6001944544
 20
-44.8088965316
 10
104.5536683327
 20
-44.8413170774
 10
104.5055782576
 20
-44.8708432141
 10
104.4559155216
 20
-44.8974915601
 10
104.4046888324
 20
-44.9212460649
 10
104.3522578166
 20
-44.9419421516
 10
104.2984877502
 20
-44.9595833458
 10
104.2435133572
 20
-44.9741665338
 10
104.1880984368
 20
-44.9855171539
 10
104.1324975887
 20
-44.9935770964
 10
104.076456213
 20
-44.9984046934
 10
104.0199743099
 20
-45.0
  0
LINE
  5
31C
100
AcDbEntity
  8
RACCORDO
100
AcDbLine
 62
7
  6
CONTINUOUS
 10
146.2177480157
 20
-44.8340076387
 11
144.3204466441
 21
-45.0
  0
LINE
  5
31D
100
AcDbEntity
  8
RACCORDO
100
AcDbLine
 62
253
  6
CONTINUOUS
 10
146.3085931769
 20
-43.845794038
 11
144.5067894336
 21
-44.0035192549
  0
LINE
  5
31E
100
AcDbEntity
  8
0
100
AcDbLine
 62
7
  6
CONTINUOUS
 10
143.8126094519
 20
-43.7
 11
143.8187754292
 21
-43.7
  0
LINE
  5
31F
100
AcDbEntity
  8
RACCORDO
100
AcDbLine
 62
253
  6
CONTINUOUS
 10
143.6159225287
 20
-43.6895035806
 11
143.8187754292
 21
-43.7
  0
LWPOLYLINE
  5
320
100
AcDbEntity
  8
RACCORDO
100
AcDbPolyline
 62
253
  6
CONTINUOUS
 90
4
 70
0
 10
143.2104590253
 20
-43.6623035801
 10
143.410904436
 20
-43.6787520429
 10
143.611675455
 20
-43.6913212624
 10
143.8126094519
 20
-43.7
  0
LWPOLYLINE
  5
321
100
AcDbEntity
  8
RACCORDO
100
AcDbPolyline
 62
253
  6
CONTINUOUS
 90
25
 70
0
 10
144.1710741979
 20
-44.6460653384
 10
144.1716232499
 20
-44.6461206387
 10
144.1722044569
 20
-44.6459928371
 10
144.1728219134
 20
-44.6456601564
 10
144.1734813623
 20
-44.6451002694
 10
144.1741857116
 20
-44.6442894795
 10
144.1749349641
 20
-44.6432030959
 10
144.1757335227
 20
-44.6418155151
 10
144.1765864133
 20
-44.6401021455
 10
144.1774943951
 20
-44.6380407504
 10
144.178461487
 20
-44.6356079135
 10
144.1794930724
 20
-44.6327769486
 10
144.1805916995
 20
-44.6295220175
 10
144.1817614841
 20
-44.6258217931
 10
144.183007905
 20
-44.6216462009
 10
144.1843362927
 20
-44.6169522928
 10
144.1857513083
 20
-44.6117157949
 10
144.187259731
 20
-44.6058995697
 10
144.1888724645
 20
-44.5994285403
 10
144.1905978944
 20
-44.592259451
 10
144.1924428739
 20
-44.5843534801
 10
144.1944191842
 20
-44.5756251349
 10
144.1965392278
 20
-44.5660120936
 10
144.1988091901
 20
-44.5554759674
 10
144.2038220161
 20
-44.5314026603
  0
LINE
  5
322
100
AcDbEntity
  8
RACCORDO
100
AcDbLine
 62
253
  6
CONTINUOUS
 10
143.0086735075
 20
-43.6413768146
 11
143.2091310384
 21
-43.6618743729
  0
LINE
  5
323
100
AcDbEntity
  8
RACCORDO
100
AcDbLine
 62
253
  6
CONTINUOUS
 10
142.8088703558
 20
-43.6170046179
 11
143.0104534627
 21
-43.6419818113
  0
LINE
  5
324
100
AcDbEntity
  8
RACCORDO
100
AcDbLine
 62
253
  6
CONTINUOUS
 10
144.1733724354
 20
-43.9490028907
 11
144.2132224922
 21
-43.9541025499
  0
LINE
  5
325
100
AcDbEntity
  8
RACCORDO
100
AcDbLine
 62
253
  6
CONTINUOUS
 10
144.2132224922
 20
-43.9541025499
 11
144.2998619579
 21
-43.9654829019
  0
LINE
  5
326
100
AcDbEntity
  8
RACCORDO
100
AcDbLine
 62
253
  6
CONTINUOUS
 10
142.6100441828
 20
-43.5887929605
 11
142.8111040391
 21
-43.6178021703
  0
LINE
  5
327
100
AcDbEntity
  8
RACCORDO
100
AcDbLine
 62
253
  6
CONTINUOUS
 10
142.4123150084
 20
-43.5567546138
 11
142.6127264431
 21
-43.5897991192
  0
LINE
  5
328
100
AcDbEntity
  8
RACCORDO
100
AcDbLine
 62
253
  6
CONTINUOUS
 10
142.2158986237
 20
-43.5209169234
 11
142.4154390882
 21
-43.5579852976
  0
LINE
  5
329
100
AcDbEntity
  8
RACCORDO
100
AcDbLine
 62
253
  6
CONTINUOUS
 10
144.188500413
 20
-43.867912051
 11
144.3116106921
 21
-43.8904819141
  0
LINE
  5
32A
100
AcDbEntity
  8
RACCORDO
100
AcDbLine
 62
253
  6
CONTINUOUS
 10
144.5067893915
 20
-44.0035194839
 11
144.299861958
 21
-43.9654829019
  0
LINE
  5
32B
100
AcDbEntity
  8
RACCORDO
100
AcDbLine
 62
253
  6
CONTINUOUS
 10
142.021253076
 20
-43.4813628875
 11
142.2194571117
 21
-43.5223879919
  0
LINE
  5
32C
100
AcDbEntity
  8
RACCORDO
100
AcDbLine
 62
7
  6
CONTINUOUS
 10
144.3772152435
 20
-44.7
 11
144.1710743165
 21
-44.6460653695
  0
LWPOLYLINE
  5
32D
100
AcDbEntity
  8
RACCORDO
100
AcDbPolyline
 62
7
  6
CONTINUOUS
 90
3
 70
0
 10
140.9035631279
 20
43.1759152938
 10
140.8836624388
 20
43.1676701209
 10
140.8632008103
 20
43.1573560935
  0
LINE
  5
32E
100
AcDbEntity
  8
RACCORDO
100
AcDbLine
 62
253
  6
CONTINUOUS
 10
140.9085489958
 20
43.1725894525
 11
140.9096007441
 21
43.1729962782
  0
LINE
  5
32F
100
AcDbEntity
  8
SUPERFICI
100
AcDbLine
 62
7
  6
CONTINUOUS
 10
141.0316016152
 20
43.2223488819
 11
140.9035625321
 21
43.1759160312
  0
LWPOLYLINE
  5
330
100
AcDbEntity
  8
RACCORDO
100
AcDbPolyline
 62
253
  6
CONTINUOUS
 90
15
 70
0
 10
140.8852044199
 20
43.1389329742
 10
141.0657061629
 20
43.2017213982
 10
141.2493350684
 20
43.2611645745
 10
141.435949267
 20
43.3172024702
 10
141.6255375552
 20
43.369809962
 10
141.8178223647
 20
43.4188851769
 10
142.0122451308
 20
43.4642752545
 10
142.2086109453
 20
43.5059351285
 10
142.4067855821
 20
43.5438332655
 10
142.6062796246
 20
43.5778785707
 10
142.8068832326
 20
43.6080453071
 10
143.0084628776
 20
43.6343200009
 10
143.2106338761
 20
43.65666098
 10
143.4131530589
 20
43.6750550017
 10
143.6159225995
 20
43.689503585
  0
LINE
  5
331
100
AcDbEntity
  8
RACCORDO
100
AcDbLine
 62
253
  6
CONTINUOUS
 10
140.9034317231
 20
43.1694647064
 11
141.0883985216
 21
43.2331310924
  0
LWPOLYLINE
  5
332
100
AcDbEntity
  8
RACCORDO
100
AcDbPolyline
 62
253
  6
CONTINUOUS
 90
13
 70
0
 10
140.8981022287
 20
42.6667703921
 10
141.1302766048
 20
42.742164902
 10
141.3670739016
 20
42.812297543
 10
141.6082093807
 20
42.8770648314
 10
141.8536433863
 20
42.9364194129
 10
142.1028370394
 20
42.9901867782
 10
142.3547224278
 20
43.0381236115
 10
142.6089511137
 20
43.0801723378
 10
142.8652182554
 20
43.1162831383
 10
143.1224792045
 20
43.1463266458
 10
143.3801573749
 20
43.1702799108
 10
143.6381624647
 20
43.1881712932
 10
143.8961719606
 20
43.1999994174
  0
LWPOLYLINE
  5
333
100
AcDbEntity
  8
RACCORDO
100
AcDbPolyline
 62
253
  6
CONTINUOUS
 90
13
 70
0
 10
140.8992608408
 20
42.4340277991
 10
141.1337020706
 20
42.507583756
 10
141.3727682476
 20
42.5758916958
 10
141.6161757202
 20
42.638848108
 10
141.8638820123
 20
42.6964024365
 10
142.1153529878
 20
42.74838362
 10
142.3695338326
 20
42.7945568408
 10
142.6260769439
 20
42.8348630782
 10
142.8846795262
 20
42.8692509084
 10
143.1443127751
 20
42.8975961652
 10
143.4044063363
 20
42.9198747866
 10
143.6648659741
 20
42.9361094455
 10
143.92536974
 20
42.9462954714
  0
LINE
  5
334
100
AcDbEntity
  8
RACCORDO
100
AcDbLine
 62
253
  6
CONTINUOUS
 10
141.0825481035
 20
43.2299301432
 11
141.2702401997
 21
43.2899627222
  0
LINE
  5
335
100
AcDbEntity
  8
RACCORDO
100
AcDbLine
 62
253
  6
CONTINUOUS
 10
144.1581329525
 20
44.6420438188
 11
144.1710741979
 21
44.6460653384
  0
LINE
  5
336
100
AcDbEntity
  8
RACCORDO
100
AcDbLine
 62
253
  6
CONTINUOUS
 10
141.2647279261
 20
43.287081137
 11
141.4549870315
 21
43.3434331663
  0
LWPOLYLINE
  5
337
100
AcDbEntity
  8
RACCORDO
100
AcDbPolyline
 62
253
  6
CONTINUOUS
 90
4
 70
0
 10
140.7083678417
 20
-42.4353099451
 10
140.7093250393
 20
-42.4352000811
 10
140.7121905382
 20
-42.4350909182
 10
140.7169460526
 20
-42.4349831529
  0
LWPOLYLINE
  5
338
100
AcDbEntity
  8
RACCORDO
100
AcDbPolyline
 62
253
  6
CONTINUOUS
 90
3
 70
0
 10
140.70836775
 20
-42.6674180674
 10
140.7093183415
 20
-42.6673626711
 10
140.7121640934
 20
-42.6673076258
  0
LINE
  5
339
100
AcDbEntity
  8
RACCORDO
100
AcDbLine
 62
253
  6
CONTINUOUS
 10
140.7169460526
 20
-42.4349831529
 11
140.7319938741
 21
-42.434774553
  0
LINE
  5
33A
100
AcDbEntity
  8
RACCORDO
100
AcDbLine
 62
253
  6
CONTINUOUS
 10
140.7121640934
 20
-42.6673076258
 11
140.7234570451
 21
-42.6671999795
  0
LINE
  5
33B
100
AcDbEntity
  8
RACCORDO
100
AcDbLine
 62
253
  6
CONTINUOUS
 10
140.7319938741
 20
-42.434774553
 11
140.7826564847
 21
-42.4344032545
  0
LINE
  5
33C
100
AcDbEntity
  8
RACCORDO
100
AcDbLine
 62
253
  6
CONTINUOUS
 10
140.7234570451
 20
-42.6671999795
 11
140.8162780511
 21
-42.6668831267
  0
LINE
  5
33D
100
AcDbEntity
  8
RACCORDO
100
AcDbLine
 62
253
  6
CONTINUOUS
 10
140.7826564847
 20
-42.4344032545
 11
140.8992608434
 21
-42.4340277992
  0
LINE
  5
33E
100
AcDbEntity
  8
RACCORDO
100
AcDbLine
 62
253
  6
CONTINUOUS
 10
140.8162780511
 20
-42.6668831267
 11
140.8981022251
 21
-42.6667703921
  0
LINE
  5
33F
100
AcDbEntity
  8
RACCORDO
100
AcDbLine
 62
253
  6
CONTINUOUS
 10
146.7570411908
 20
-43.9268006712
 11
146.7267178376
 21
-43.9213471675
  0
LINE
  5
340
100
AcDbEntity
  8
RACCORDO
100
AcDbLine
 62
253
  6
CONTINUOUS
 10
146.7267178376
 20
-43.9213471675
 11
146.3085928745
 21
-43.8457939974
  0
LINE
  5
341
100
AcDbEntity
  8
RACCORDO
100
AcDbLine
 62
253
  6
CONTINUOUS
 10
141.8285034645
 20
-43.4381218854
 11
142.0252332881
 21
-43.4830889717
  0
LINE
  5
342
100
AcDbEntity
  8
RACCORDO
100
AcDbLine
 62
253
  6
CONTINUOUS
 10
141.6378475395
 20
-43.3912388336
 11
141.8328908785
 21
-43.4401170966
  0
LINE
  5
343
100
AcDbEntity
  8
RACCORDO
100
AcDbLine
 62
253
  6
CONTINUOUS
 10
141.4498316888
 20
-43.3408592287
 11
141.6426274888
 21
-43.3935170575
  0
LINE
  5
344
100
AcDbEntity
  8
RACCORDO
100
AcDbLine
 62
253
  6
CONTINUOUS
 10
141.2647279411
 20
-43.2870811416
 11
141.454987028
 21
-43.3434331654
  0
LINE
  5
345
100
AcDbEntity
  8
RACCORDO
100
AcDbLine
 62
253
  6
CONTINUOUS
 10
144.1581329676
 20
-44.6420437685
 11
144.1710742119
 21
-44.6460652848
  0
LINE
  5
346
100
AcDbEntity
  8
RACCORDO
100
AcDbLine
 62
253
  6
CONTINUOUS
 10
141.0825481121
 20
-43.2299301461
 11
141.2702401969
 21
-43.2899627214
  0
LWPOLYLINE
  5
347
100
AcDbEntity
  8
RACCORDO
100
AcDbPolyline
 62
253
  6
CONTINUOUS
 90
13
 70
0
 10
140.8992608408
 20
-42.4340277991
 10
141.1337020636
 20
-42.5075837539
 10
141.3727682356
 20
-42.5758916925
 10
141.6161757052
 20
-42.6388481044
 10
141.8638819974
 20
-42.6964024332
 10
142.1153529751
 20
-42.7483836176
 10
142.3695338222
 20
-42.794556839
 10
142.6260769352
 20
-42.834863077
 10
142.8846795192
 20
-42.8692509075
 10
143.1443127698
 20
-42.8975961647
 10
143.4044063328
 20
-42.9198747863
 10
143.6648659723
 20
-42.9361094455
 10
143.92536974
 20
-42.9462954714
  0
LWPOLYLINE
  5
348
100
AcDbEntity
  8
RACCORDO
100
AcDbPolyline
 62
253
  6
CONTINUOUS
 90
13
 70
0
 10
140.8981022287
 20
-42.6667703921
 10
141.1302766082
 20
-42.7421649031
 10
141.3670739077
 20
-42.8122975447
 10
141.6082093882
 20
-42.8770648333
 10
141.8536433938
 20
-42.9364194147
 10
142.1028370458
 20
-42.9901867795
 10
142.3547224329
 20
-43.0381236124
 10
142.608951118
 20
-43.0801723385
 10
142.8652182589
 20
-43.1162831387
 10
143.1224792071
 20
-43.1463266461
 10
143.3801573767
 20
-43.170279911
 10
143.6381624656
 20
-43.1881712932
 10
143.8961719606
 20
-43.1999994174
  0
LINE
  5
349
100
AcDbEntity
  8
RACCORDO
100
AcDbLine
 62
253
  6
CONTINUOUS
 10
140.9034317231
 20
-43.1694647064
 11
141.08839852
 21
-43.2331310919
  0
LWPOLYLINE
  5
34A
100
AcDbEntity
  8
RACCORDO
100
AcDbPolyline
 62
253
  6
CONTINUOUS
 90
15
 70
0
 10
140.8852044199
 20
-43.1389329742
 10
141.0657058009
 20
-43.2017212767
 10
141.2493344421
 20
-43.2611643791
 10
141.435948479
 20
-43.3172022426
 10
141.6255367496
 20
-43.3698097475
 10
141.8178216537
 20
-43.4188850032
 10
142.0122445175
 20
-43.4642751179
 10
142.208610395
 20
-43.5059350175
 10
142.4067850969
 20
-43.5438331778
 10
142.6062792061
 20
-43.5778785035
 10
142.8068828821
 20
-43.6080452579
 10
143.0084625962
 20
-43.634319967
 10
143.2106336645
 20
-43.6566609587
 10
143.4131529175
 20
-43.6750549902
 10
143.6159225287
 20
-43.6895035806
  0
LWPOLYLINE
  5
34B
100
AcDbEntity
  8
SUPERFICI
100
AcDbPolyline
 62
7
  6
CONTINUOUS
 90
16
 70
0
 10
140.9035625334
 20
-43.1759160317
 10
141.0316016149
 20
-43.2223488818
 10
141.2323436882
 20
-43.290056681
 10
141.433307138
 20
-43.351903802
 10
141.6339052509
 20
-43.4079991193
 10
141.8340117006
 20
-43.4585812183
 10
142.0339875472
 20
-43.5039665679
 10
142.2336009236
 20
-43.5442895293
 10
142.4325455861
 20
-43.579666443
 10
142.6311351277
 20
-43.6103054393
 10
142.8290565741
 20
-43.636287905
 10
143.0261941321
 20
-43.6577228592
 10
143.2232043159
 20
-43.6747695839
 10
143.4201974586
 20
-43.6874840327
 10
143.6167205413
 20
-43.6958800544
 10
143.8126094519
 20
-43.7
  0
LWPOLYLINE
  5
34C
100
AcDbEntity
  8
RACCORDO
100
AcDbPolyline
 62
253
  6
CONTINUOUS
 90
6
 70
0
 10
140.9096007441
 20
-43.1729962782
 10
140.9085489902
 20
-43.1725894504
 10
140.907506673
 20
-43.1721105598
 10
140.90647379
 20
-43.1715591227
 10
140.905450339
 20
-43.1709346563
 10
140.9044363175
 20
-43.1702366782
  0
LWPOLYLINE
  5
34D
100
AcDbEntity
  8
RACCORDO
100
AcDbPolyline
 62
253
  6
CONTINUOUS
 90
6
 70
0
 10
140.9034317231
 20
43.1694647064
 10
140.9044363231
 20
43.1702366803
 10
140.905450348
 20
43.1709346597
 10
140.9064738002
 20
43.1715591265
 10
140.907506682
 20
43.1721105631
 10
140.9085489958
 20
43.1725894525
  0
LWPOLYLINE
  5
34E
100
AcDbEntity
  8
RACCORDO
100
AcDbPolyline
 62
253
  6
CONTINUOUS
 90
5
 70
0
 10
140.8195127729
 20
43.1216343481
 10
140.8389665817
 20
43.1360961594
 10
140.8595283985
 20
43.1489426504
 10
140.881063734
 20
43.1600897958
 10
140.9034317312
 20
43.169464685
  0
LWPOLYLINE
  5
34F
100
AcDbEntity
  8
RACCORDO
100
AcDbPolyline
 62
253
  6
CONTINUOUS
 90
4
 70
0
 10
140.8128204981
 20
43.0950624394
 10
140.8354414795
 20
43.1118659042
 10
140.8596431928
 20
43.1265341185
 10
140.8852044082
 20
43.138932999
  0
LWPOLYLINE
  5
350
100
AcDbEntity
  8
RACCORDO
100
AcDbPolyline
 62
7
  6
CONTINUOUS
 90
3
 70
0
 10
140.8632008103
 20
43.1573560935
 10
140.8439215852
 20
43.1457306256
 10
140.8258566511
 20
43.1329133194
  0
LWPOLYLINE
  5
351
100
AcDbEntity
  8
RACCORDO
100
AcDbPolyline
 62
7
  6
CONTINUOUS
 90
5
 70
0
 10
140.8259070291
 20
-43.132951934
 10
140.8439746915
 20
-43.1457654287
 10
140.8632538286
 20
-43.1573854076
 10
140.8837119151
 20
-43.1676927336
 10
140.9035631258
 20
-43.1759152982
  0
LWPOLYLINE
  5
352
100
AcDbEntity
  8
RACCORDO
100
AcDbPolyline
 62
253
  6
CONTINUOUS
 90
4
 70
0
 10
140.8128204787
 20
-43.0950625124
 10
140.835441451
 20
-43.1118659871
 10
140.8596431542
 20
-43.1265342116
 10
140.8852043591
 20
-43.1389331028
  0
LWPOLYLINE
  5
353
100
AcDbEntity
  8
RACCORDO
100
AcDbPolyline
 62
253
  6
CONTINUOUS
 90
5
 70
0
 10
140.8195127477
 20
-43.121634475
 10
140.8389665478
 20
-43.1360962966
 10
140.8595283554
 20
-43.1489427979
 10
140.8810636812
 20
-43.1600899534
 10
140.9034316685
 20
-43.1694648525
  0
LINE
  5
354
100
AcDbEntity
  8
RACCORDO
100
AcDbLine
 62
253
  6
CONTINUOUS
 10
140.9044363175
 20
-43.1702366782
 11
140.9034317231
 21
-43.1694647064
  0
LWPOLYLINE
  5
355
100
AcDbEntity
  8
RACCORDO
100
AcDbPolyline
 62
7
  6
CONTINUOUS
 90
6
 70
0
 10
140.8258566511
 20
43.1329133194
 10
140.8090864583
 20
43.1190648381
 10
140.7937373846
 20
43.1044211461
 10
140.7798369367
 20
43.0891716336
 10
140.7673360125
 20
43.0734331276
 10
140.7562066438
 20
43.0573431785
  0
LWPOLYLINE
  5
356
100
AcDbEntity
  8
RACCORDO
100
AcDbPolyline
 62
253
  6
CONTINUOUS
 90
12
 70
0
 10
140.9034317231
 20
-43.1694647064
 10
140.9017521504
 20
-43.1680070202
 10
140.9001044765
 20
-43.1663482139
 10
140.8984885322
 20
-43.1644900578
 10
140.8969055473
 20
-43.1624352972
 10
140.8953539656
 20
-43.1601848657
 10
140.8938294609
 20
-43.1577372564
 10
140.8923316644
 20
-43.1550936269
 10
140.8908606781
 20
-43.1522552759
 10
140.8894129153
 20
-43.1492197796
 10
140.8879871127
 20
-43.145986528
 10
140.8865843162
 20
-43.1425573616
  0
LWPOLYLINE
  5
357
100
AcDbEntity
  8
RACCORDO
100
AcDbPolyline
 62
253
  6
CONTINUOUS
 90
8
 70
0
 10
144.0846381594
 20
44.5844955144
 10
144.0926781348
 20
44.5954192665
 10
144.1016721112
 20
44.60556852
 10
144.1115463522
 20
44.614860067
 10
144.1222199044
 20
44.6232177317
 10
144.1336052616
 20
44.6305729941
 10
144.1456090818
 20
44.6368655529
 10
144.1581329525
 20
44.6420438188
  0
LINE
  5
358
100
AcDbEntity
  8
0
100
AcDbLine
 62
7
  6
CONTINUOUS
 10
148.7761485451
 20
-28.877801
 11
148.8765354274
 21
-28.877801
  0
LWPOLYLINE
  5
359
100
AcDbEntity
  8
RACCORDO
100
AcDbPolyline
 62
253
  6
CONTINUOUS
 90
8
 70
0
 10
144.0846381806
 20
-44.5844954919
 10
144.0926781553
 20
-44.5954192396
 10
144.101672131
 20
-44.6055684889
 10
144.1115463711
 20
-44.6148600318
 10
144.1222199224
 20
-44.6232176923
 10
144.1336052787
 20
-44.6305729509
 10
144.1456090979
 20
-44.636865506
 10
144.1581329676
 20
-44.6420437685
  0
LWPOLYLINE
  5
35A
100
AcDbEntity
  8
RACCORDO
100
AcDbPolyline
 62
7
  6
CONTINUOUS
 90
6
 70
0
 10
140.7562066408
 20
-43.0573431816
 10
140.7673491153
 20
-43.073450815
 10
140.7798624939
 20
-43.0892016878
 10
140.7937739392
 20
-43.1044585773
 10
140.8091314455
 20
-43.1191048148
 10
140.8259070291
 20
-43.132951934
  0
LINE
  5
35B
100
AcDbEntity
  8
0
100
AcDbLine
 62
7
  6
CONTINUOUS
 10
148.9990010315
 20
-26.078098
 11
149.0992535559
 21
-26.078098
  0
LINE
  5
35C
100
AcDbEntity
  8
SUPERFICI
100
AcDbLine
 62
7
  6
CONTINUOUS
 10
149.1015855793
 20
-26.0452484808
 11
149.0013344597
 21
-26.0452484808
  0
LINE
  5
35D
100
AcDbEntity
  8
RACCORDO
100
AcDbLine
 62
253
  6
CONTINUOUS
 10
146.5887242927
 20
-24.0537772144
 11
146.7138215832
 21
-24.0612645711
  0
LWPOLYLINE
  5
35E
100
AcDbEntity
  8
RACCORDO
100
AcDbPolyline
 62
253
  6
CONTINUOUS
 90
10
 70
0
 10
140.9476438231
 20
-22.7522186186
 10
141.5189906022
 20
-22.8536499203
 10
142.0950268828
 20
-22.9485131951
 10
142.6752182261
 20
-23.0367255587
 10
143.2594034938
 20
-23.1182539935
 10
143.8466845971
 20
-23.1929580854
 10
144.4354063365
 20
-23.2606332696
 10
145.0246521526
 20
-23.3212012746
 10
145.6142642307
 20
-23.3746668662
 10
146.2037190892
 20
-23.4209908606
  0
LWPOLYLINE
  5
35F
100
AcDbEntity
  8
RACCORDO
100
AcDbPolyline
 62
253
  6
CONTINUOUS
 90
6
 70
0
 10
140.7300565919
 20
42.9849924149
 10
140.7420241153
 20
43.0098302555
 10
140.7564263056
 20
43.033465561
 10
140.7731315112
 20
43.0556822792
 10
140.7919870286
 20
43.0762773257
 10
140.8128204981
 20
43.0950624394
  0
LINE
  5
360
100
AcDbEntity
  8
RACCORDO
100
AcDbLine
 62
253
  6
CONTINUOUS
 10
140.70836775
 20
-22.7524548554
 11
140.7096126351
 21
-22.7524329021
  0
LINE
  5
361
100
AcDbEntity
  8
RACCORDO
100
AcDbLine
 62
253
  6
CONTINUOUS
 10
140.70836775
 20
-21.8749224851
 11
140.7096174548
 21
-21.8749017178
  0
LINE
  5
362
100
AcDbEntity
  8
RACCORDO
100
AcDbLine
 62
253
  6
CONTINUOUS
 10
140.7083677504
 20
-21.233849763
 11
140.7096207681
 21
-21.233830032
  0
LINE
  5
363
100
AcDbEntity
  8
RACCORDO
100
AcDbLine
 62
253
  6
CONTINUOUS
 10
140.7096126351
 20
-22.7524329021
 11
140.7389762909
 21
-22.7523487012
  0
LINE
  5
364
100
AcDbEntity
  8
RACCORDO
100
AcDbLine
 62
253
  6
CONTINUOUS
 10
140.7096174548
 20
-21.8749017178
 11
140.7522735636
 21
-21.8748038568
  0
LINE
  5
365
100
AcDbEntity
  8
RACCORDO
100
AcDbLine
 62
253
  6
CONTINUOUS
 10
140.7096207681
 20
-21.233830032
 11
140.7851022471
 21
-21.2337054174
  0
LINE
  5
366
100
AcDbEntity
  8
RACCORDO
100
AcDbLine
 62
253
  6
CONTINUOUS
 10
140.7389762909
 20
-22.7523487012
 11
140.9476438231
 21
-22.7522186186
  0
LINE
  5
367
100
AcDbEntity
  8
RACCORDO
100
AcDbLine
 62
253
  6
CONTINUOUS
 10
140.7522735636
 20
-21.8748038568
 11
140.9484212441
 21
-21.8746993201
  0
LINE
  5
368
100
AcDbEntity
  8
RACCORDO
100
AcDbLine
 62
253
  6
CONTINUOUS
 10
140.7851022471
 20
-21.2337054174
 11
140.948955025
 21
-21.2336379366
  0
LINE
  5
369
100
AcDbEntity
  8
RACCORDO
100
AcDbLine
 62
253
  6
CONTINUOUS
 10
148.7569848999
 20
-22.5203789087
 11
147.0111516316
 21
-22.5203789087
  0
LINE
  5
36A
100
AcDbEntity
  8
RACCORDO
100
AcDbLine
 62
253
  6
CONTINUOUS
 10
149.21277965
 20
-22.5432326078
 11
148.7569848999
 21
-22.5203789087
  0
LINE
  5
36B
100
AcDbEntity
  8
RACCORDO
100
AcDbLine
 62
253
  6
CONTINUOUS
 10
149.2083677318
 20
-22.6310194473
 11
148.752577893
 21
-22.6080915512
  0
LINE
  5
36C
100
AcDbEntity
  8
RACCORDO
100
AcDbLine
 62
253
  6
CONTINUOUS
 10
146.676760175
 20
-22.4526827681
 11
146.8020327762
 21
-22.4589775839
  0
LINE
  5
36D
100
AcDbEntity
  8
RACCORDO
100
AcDbLine
 62
253
  6
CONTINUOUS
 10
146.67421104
 20
-22.5033850031
 11
147.0111516316
 21
-22.5203789087
  0
LWPOLYLINE
  5
36E
100
AcDbEntity
  8
RACCORDO
100
AcDbPolyline
 62
253
  6
CONTINUOUS
 90
10
 70
0
 10
140.948955025
 20
-21.2336379366
 10
141.5304758509
 20
-21.3290301411
 10
142.1163082371
 20
-21.4181941359
 10
142.7059405886
 20
-21.5010561947
 10
143.2992056822
 20
-21.5775851712
 10
143.8952587535
 20
-21.6476586996
 10
144.4925599866
 20
-21.7111001628
 10
145.0902503951
 20
-21.7678406331
 10
145.6881692745
 20
-21.8178818938
 10
146.2858199888
 20
-21.8611885197
  0
LWPOLYLINE
  5
36F
100
AcDbEntity
  8
RACCORDO
100
AcDbPolyline
 62
253
  6
CONTINUOUS
 90
10
 70
0
 10
140.9484212441
 20
-21.8746993201
 10
141.5257956241
 20
-21.9727305563
 10
142.1076407129
 20
-22.0643876396
 10
142.6934350841
 20
-22.1495930867
 10
143.283013752
 20
-22.2283150047
 10
143.8755094501
 20
-22.3004236128
 10
144.4693340391
 20
-22.3657307713
 10
145.0636043166
 20
-22.424163692
 10
145.6581605527
 20
-22.4757253996
 10
146.2524947084
 20
-22.5203789265
  0
LWPOLYLINE
  5
370
100
AcDbEntity
  8
RACCORDO
100
AcDbPolyline
 62
253
  6
CONTINUOUS
 90
6
 70
0
 10
140.7300565998
 20
-42.984992445
 10
140.7420241208
 20
-43.0098302935
 10
140.7564263069
 20
-43.0334656072
 10
140.7731315069
 20
-43.055682334
 10
140.7919870173
 20
-43.0762773894
 10
140.8128204787
 20
-43.0950625124
  0
LWPOLYLINE
  5
371
100
AcDbEntity
  8
RACCORDO
100
AcDbPolyline
 62
253
  6
CONTINUOUS
 90
13
 70
0
 10
140.8852044199
 20
43.1389329742
 10
140.8865847954
 20
43.1425585668
 10
140.887987995
 20
43.1459886005
 10
140.8894141237
 20
43.1492224182
 10
140.8908621394
 20
43.152258219
 10
140.8923333
 20
43.1550966459
 10
140.8938311781
 20
43.1577401502
 10
140.8953556731
 20
43.1601874735
 10
140.8969071505
 20
43.1624374952
 10
140.8984899157
 20
43.164491749
 10
140.900105517
 20
43.1663493393
 10
140.9017527302
 20
43.1680075676
 10
140.9034317231
 20
43.1694647064
  0
LINE
  5
372
100
AcDbEntity
  8
RACCORDO
100
AcDbLine
 62
253
  6
CONTINUOUS
 10
140.8865843162
 20
-43.1425573616
 11
140.8852044199
 21
-43.1389329742
  0
LWPOLYLINE
  5
373
100
AcDbEntity
  8
RACCORDO
100
AcDbPolyline
 62
253
  6
CONTINUOUS
 90
43
 70
0
 10
140.8852044199
 20
-43.1389329742
 10
140.8832682762
 20
-43.1337725115
 10
140.8814384993
 20
-43.12819384
 10
140.8797152073
 20
-43.1221902922
 10
140.8780970579
 20
-43.1157445141
 10
140.8765856655
 20
-43.1088600761
 10
140.8751855976
 20
-43.1015683856
 10
140.8738986774
 20
-43.0938741175
 10
140.8727234167
 20
-43.0857746052
 10
140.8716594175
 20
-43.0773011025
 10
140.8707071129
 20
-43.0684613175
 10
140.8698664483
 20
-43.0592588648
 10
140.8691362872
 20
-43.0497265872
 10
140.8685164663
 20
-43.0398792934
 10
140.8680075615
 20
-43.029720293
 10
140.8676095423
 20
-43.0192694815
 10
140.8673213542
 20
-43.0085477459
 10
140.8671445098
 20
-42.9975541909
 10
140.8670828575
 20
-42.9862748924
 10
140.8671371412
 20
-42.9747085685
 10
140.8673071897
 20
-42.9628707164
 10
140.8675955205
 20
-42.9507705523
 10
140.8680067639
 20
-42.9384112894
 10
140.8685364294
 20
-42.9258098089
 10
140.8691733344
 20
-42.9129972971
 10
140.8699142078
 20
-42.8999993309
 10
140.8707619222
 20
-42.8868188382
 10
140.8717144754
 20
-42.8734535092
 10
140.8727715634
 20
-42.8599015305
 10
140.8739330678
 20
-42.8461905574
 10
140.8751972473
 20
-42.8323628845
 10
140.8765634785
 20
-42.8184298446
 10
140.8780318868
 20
-42.8044082244
 10
140.8796018458
 20
-42.7903505244
 10
140.881273756
 20
-42.7762670082
 10
140.8830466609
 20
-42.7621762717
 10
140.884917918
 20
-42.7481449729
 10
140.8868897526
 20
-42.7341798427
 10
140.8889593649
 20
-42.7203022926
 10
140.8911166386
 20
-42.7066021281
 10
140.8933580616
 20
-42.6931181558
 10
140.8956866706
 20
-42.6798371452
 10
140.8981022287
 20
-42.6667703921
  0
LWPOLYLINE
  5
374
100
AcDbEntity
  8
RACCORDO
100
AcDbPolyline
 62
253
  6
CONTINUOUS
 90
3
 70
0
 10
140.7138398741
 20
42.9326262235
 10
140.7206331313
 20
42.9591790837
 10
140.7300565919
 20
42.9849924149
  0
LINE
  5
375
100
AcDbEntity
  8
RACCORDO
100
AcDbLine
 62
7
  6
CONTINUOUS
 10
143.8131068287
 20
43.7016791159
 11
144.0622510179
 21
44.5427758029
  0
LINE
  5
376
100
AcDbEntity
  8
RACCORDO
100
AcDbLine
 62
7
  6
CONTINUOUS
 10
143.8131068287
 20
-43.7016791159
 11
144.0622510179
 21
-44.5427758029
  0
LWPOLYLINE
  5
377
100
AcDbEntity
  8
RACCORDO
100
AcDbPolyline
 62
253
  6
CONTINUOUS
 90
3
 70
0
 10
140.7138398817
 20
-42.9326262384
 10
140.72063314
 20
-42.9591791061
 10
140.7300565998
 20
-42.984992445
  0
LWPOLYLINE
  5
378
100
AcDbEntity
  8
RACCORDO
100
AcDbPolyline
 62
253
  6
CONTINUOUS
 90
5
 70
0
 10
144.0632083852
 20
44.5349261822
 10
144.0668591095
 20
44.5480001395
 10
144.07167551
 20
44.5606883603
 10
144.0776180999
 20
44.5728868214
 10
144.0846381594
 20
44.5844955144
  0
LINE
  5
379
100
AcDbEntity
  8
RACCORDO
100
AcDbLine
 62
253
  6
CONTINUOUS
 10
143.92536974
 20
42.9462954714
 11
144.1885004108
 21
43.8679120506
  0
LINE
  5
37A
100
AcDbEntity
  8
RACCORDO
100
AcDbLine
 62
253
  6
CONTINUOUS
 10
146.2037190892
 20
23.4209908606
 11
146.5887242872
 21
24.053777214
  0
LINE
  5
37B
100
AcDbEntity
  8
RACCORDO
100
AcDbLine
 62
253
  6
CONTINUOUS
 10
146.2858199888
 20
21.8611885197
 11
146.6767601752
 21
22.4526827681
  0
LINE
  5
37C
100
AcDbEntity
  8
RACCORDO
100
AcDbLine
 62
253
  6
CONTINUOUS
 10
146.2858199888
 20
-21.8611885197
 11
146.6767601752
 21
-22.4526827681
  0
LINE
  5
37D
100
AcDbEntity
  8
RACCORDO
100
AcDbLine
 62
253
  6
CONTINUOUS
 10
146.2037190892
 20
-23.4209908606
 11
146.5887242872
 21
-24.053777214
  0
LINE
  5
37E
100
AcDbEntity
  8
RACCORDO
100
AcDbLine
 62
253
  6
CONTINUOUS
 10
143.92536974
 20
-42.9462954714
 11
144.1885004108
 21
-43.8679120506
  0
LWPOLYLINE
  5
37F
100
AcDbEntity
  8
RACCORDO
100
AcDbPolyline
 62
253
  6
CONTINUOUS
 90
5
 70
0
 10
144.0632084085
 20
-44.5349261768
 10
144.0668591323
 20
-44.5480001299
 10
144.0716755324
 20
-44.5606883465
 10
144.0776181218
 20
-44.5728868032
 10
144.0846381806
 20
-44.5844954919
  0
LWPOLYLINE
  5
380
100
AcDbEntity
  8
RACCORDO
100
AcDbPolyline
 62
253
  6
CONTINUOUS
 90
10
 70
0
 10
144.0622510179
 20
-44.5427758029
 10
144.061987508
 20
-44.5417546617
 10
144.0618147925
 20
-44.5407746096
 10
144.0617332663
 20
-44.5398335029
 10
144.0617424248
 20
-44.5389271107
 10
144.0618434987
 20
-44.5380557303
 10
144.0620397157
 20
-44.5372227951
 10
144.0623326637
 20
-44.5364267087
 10
144.0627220291
 20
-44.5356622421
 10
144.0632084147
 20
-44.5349261753
  0
LINE
  5
381
100
AcDbEntity
  8
RACCORDO
100
AcDbLine
 62
7
  6
CONTINUOUS
 10
140.709220366
 20
-42.9173913496
 11
140.7108460322
 21
-42.9332943195
  0
LWPOLYLINE
  5
382
100
AcDbEntity
  8
RACCORDO
100
AcDbPolyline
 62
253
  6
CONTINUOUS
 90
3
 70
0
 10
140.70836775
 20
-42.8782773439
 10
140.7097389227
 20
-42.9055765634
 10
140.7138398817
 20
-42.9326262384
  0
LWPOLYLINE
  5
383
100
AcDbEntity
  8
RACCORDO
100
AcDbPolyline
 62
253
  6
CONTINUOUS
 90
3
 70
0
 10
140.70836775
 20
42.8782773439
 10
140.709738918
 20
42.9055765559
 10
140.7138398741
 20
42.9326262235
  0
LWPOLYLINE
  5
384
100
AcDbEntity
  8
RACCORDO
100
AcDbPolyline
 62
7
  6
CONTINUOUS
 90
5
 70
0
 10
140.7108460357
 20
42.9332943157
 10
140.7092207701
 20
42.9173967316
 10
140.7085460463
 20
42.9050768278
 10
140.708369158
 20
42.8963859257
 10
140.70836775
 20
4.0204738953
  0
LWPOLYLINE
  5
385
100
AcDbEntity
  8
RACCORDO
100
AcDbPolyline
 62
253
  6
CONTINUOUS
 90
11
 70
0
 10
140.7093488586
 20
42.9133137399
 10
140.7122857703
 20
42.9373363176
 10
140.7171592755
 20
42.9610436106
 10
140.723937498
 20
42.9842805555
 10
140.7325761032
 20
43.0068951657
 10
140.7430185883
 20
43.0287395252
 10
140.7551966517
 20
43.0496707556
 10
140.76903064
 20
43.0695519515
 10
140.7844300687
 20
43.0882530752
 10
140.8012942143
 20
43.1056518075
 10
140.8195127729
 20
43.1216343481
  0
LWPOLYLINE
  5
386
100
AcDbEntity
  8
RACCORDO
100
AcDbPolyline
 62
253
  6
CONTINUOUS
 90
11
 70
0
 10
140.709348863
 20
-42.9133137528
 10
140.7122857776
 20
-42.9373363431
 10
140.7171592844
 20
-42.9610436483
 10
140.723937507
 20
-42.9842806051
 10
140.7325761109
 20
-43.006895227
 10
140.7430185933
 20
-43.0287395979
 10
140.7551966529
 20
-43.0496708395
 10
140.7690306361
 20
-43.0695520464
 10
140.7844300587
 20
-43.0882531809
 10
140.8012941971
 20
-43.1056519239
 10
140.8195127477
 20
-43.121634475
  0
LINE
  5
387
100
AcDbEntity
  8
RACCORDO
100
AcDbLine
 62
253
  6
CONTINUOUS
 10
140.70836775
 20
-42.8891330025
 11
140.709348863
 21
-42.9133137528
  0
LWPOLYLINE
  5
388
100
AcDbEntity
  8
RACCORDO
100
AcDbPolyline
 62
7
  6
CONTINUOUS
 90
3
 70
0
 10
140.7083691197
 20
-42.8963764959
 10
140.7085457609
 20
-42.9050682914
 10
140.709220366
 20
-42.9173913496
  0
LWPOLYLINE
  5
389
100
AcDbEntity
  8
RACCORDO
100
AcDbPolyline
 62
7
  6
CONTINUOUS
 90
3
 70
0
 10
140.70836775
 20
-42.8923412851
 10
140.7084809443
 20
-42.9018550123
 10
140.7090509754
 20
-42.9142970806
  0
LINE
  5
38A
100
AcDbEntity
  8
RACCORDO
100
AcDbLine
 62
253
  6
CONTINUOUS
 10
140.9090622903
 20
40.470519057
 11
140.8983071407
 21
42.6144258985
  0
LINE
  5
38B
100
AcDbEntity
  8
RACCORDO
100
AcDbLine
 62
253
  6
CONTINUOUS
 10
140.8983071407
 20
42.6144258985
 11
140.8981022287
 21
42.6667703921
  0
LINE
  5
38C
100
AcDbEntity
  8
RACCORDO
100
AcDbLine
 62
253
  6
CONTINUOUS
 10
140.9238864929
 20
36.3800715369
 11
140.9090622903
 21
40.470519057
  0
LINE
  5
38D
100
AcDbEntity
  8
RACCORDO
100
AcDbLine
 62
253
  6
CONTINUOUS
 10
140.9345254085
 20
32.0773856945
 11
140.9238864929
 21
36.3800715369
  0
LINE
  5
38E
100
AcDbEntity
  8
RACCORDO
100
AcDbLine
 62
253
  6
CONTINUOUS
 10
140.9450523364
 20
25.1750469121
 11
140.9345254085
 21
32.0773856945
  0
LINE
  5
38F
100
AcDbEntity
  8
RACCORDO
100
AcDbLine
 62
253
  6
CONTINUOUS
 10
140.9571171502
 20
4.0058275612
 11
140.9450523364
 21
25.1750469121
  0
LINE
  5
390
100
AcDbEntity
  8
RACCORDO
100
AcDbLine
 62
7
  6
CONTINUOUS
 10
140.7083691291
 20
-42.8963769572
 11
140.70836775
 21
-4.0204738976
  0
LINE
  5
391
100
AcDbEntity
  8
RACCORDO
100
AcDbLine
 62
253
  6
CONTINUOUS
 10
140.9476438231
 20
-22.7522186186
 11
140.9571171348
 21
-4.0058275648
  0
LINE
  5
392
100
AcDbEntity
  8
RACCORDO
100
AcDbLine
 62
253
  6
CONTINUOUS
 10
140.9387340962
 20
-29.7983334543
 11
140.9476438231
 21
-22.7522186186
  0
LINE
  5
393
100
AcDbEntity
  8
RACCORDO
100
AcDbLine
 62
253
  6
CONTINUOUS
 10
140.9296972768
 20
-34.2123331872
 11
140.9387340962
 21
-29.7983334543
  0
LWPOLYLINE
  5
394
100
AcDbEntity
  8
RACCORDO
100
AcDbPolyline
 62
253
  6
CONTINUOUS
 90
3
 70
0
 10
140.909155016
 20
-40.4535255865
 10
140.9172899277
 20
-38.4226041209
 10
140.9296972768
 20
-34.2123331872
  0
LINE
  5
395
100
AcDbEntity
  8
RACCORDO
100
AcDbLine
 62
253
  6
CONTINUOUS
 10
140.8981022287
 20
-42.6667703921
 11
140.909155016
 21
-40.4535255865
  0
LINE
  5
396
100
AcDbEntity
  8
RACCORDO
100
AcDbLine
 62
253
  6
CONTINUOUS
 10
140.70836775
 20
42.8891330025
 11
140.7093488586
 21
42.9133137399
  0
LWPOLYLINE
  5
397
100
AcDbEntity
  8
RACCORDO
100
AcDbPolyline
 62
253
  6
CONTINUOUS
 90
16
 70
0
 10
140.9571287321
 20
4.0058255405
 10
140.9538500491
 20
3.9856178586
 10
140.9509661445
 20
3.9656235511
 10
140.9485074284
 20
3.9460534553
 10
140.9464998277
 20
3.9271139349
 10
140.9449645122
 20
3.9090047044
 10
140.9439176717
 20
3.891916723
 10
140.9433703449
 20
3.876030181
 10
140.9433283033
 20
3.8615125997
 10
140.9437919902
 20
3.8485170649
 10
140.9447565161
 20
3.8371806125
 10
140.9462117103
 20
3.8276227839
 10
140.9481422278
 20
3.8199443649
 10
140.9505277117
 20
3.8142263233
 10
140.9533430074
 20
3.8105289551
 10
140.956558428
 20
3.8088912485
  0
LWPOLYLINE
  5
398
100
AcDbEntity
  8
RACCORDO
100
AcDbPolyline
 62
253
  6
CONTINUOUS
 90
16
 70
0
 10
142.4672009825
 20
3.7405395511
 10
142.4638475332
 20
3.7202722711
 10
142.4608266783
 20
3.7002214688
 10
142.4581704722
 20
3.6805999036
 10
142.4559070999
 20
3.6616157801
 10
142.4540605781
 20
3.6434705394
 10
142.4526505002
 20
3.6263567207
 10
142.4516918287
 20
3.6104559192
 10
142.4511947359
 20
3.5959368586
 10
142.4511644965
 20
3.5829536008
 10
142.4516014314
 20
3.5716439114
 10
142.4525009043
 20
3.5621277977
 10
142.4538533708
 20
3.5545062354
 10
142.4556444799
 20
3.548860097
 10
142.4578552261
 20
3.5452492937
 10
142.460462151
 20
3.5437121399
  0
LINE
  5
399
100
AcDbEntity
  8
RACCORDO
100
AcDbLine
 62
7
  6
CONTINUOUS
 10
142.4604640834
 20
-3.543712105
 11
140.8736380621
 21
-3.8235123463
  0
LINE
  5
39A
100
AcDbEntity
  8
RACCORDO
100
AcDbLine
 62
253
  6
CONTINUOUS
 10
142.4672009235
 20
-3.7405395508
 11
140.9571171348
 21
-4.0058275648
  0
LINE
  5
39B
100
AcDbEntity
  8
RACCORDO
100
AcDbLine
 62
253
  6
CONTINUOUS
 10
140.957117198
 20
-4.005826204
 11
140.7083676453
 21
-4.0204739313
  0
LINE
  5
39C
100
AcDbEntity
  8
RACCORDO
100
AcDbLine
 62
253
  6
CONTINUOUS
 10
142.7092875725
 20
-3.2482573573
 11
142.7083680268
 21
-3.2482701107
  0
LINE
  5
39D
100
AcDbEntity
  8
RACCORDO
100
AcDbLine
 62
253
  6
CONTINUOUS
 10
142.8820756236
 20
-3.2481381089
 11
142.7092875725
 21
-3.2482573573
  0
LWPOLYLINE
  5
39E
100
AcDbEntity
  8
RACCORDO
100
AcDbPolyline
 62
253
  6
CONTINUOUS
 90
16
 70
0
 10
142.4672009222
 20
-3.7405395508
 10
142.4638474829
 20
-3.7202722775
 10
142.4608266384
 20
-3.7002214865
 10
142.4581704426
 20
-3.6805999367
 10
142.4559070806
 20
-3.6616158321
 10
142.4540605687
 20
-3.6434706129
 10
142.4526505004
 20
-3.6263568179
 10
142.4516918379
 20
-3.6104560413
 10
142.4511947534
 20
-3.5959370062
 10
142.4511645217
 20
-3.582953774
 10
142.4516014634
 20
-3.5716441096
 10
142.4525009422
 20
-3.5621280197
 10
142.4538534136
 20
-3.5545064795
 10
142.4556445268
 20
-3.5488603612
 10
142.4578552761
 20
-3.5452495755
 10
142.4604622033
 20
-3.5437124366
  0
LWPOLYLINE
  5
39F
100
AcDbEntity
  8
RACCORDO
100
AcDbPolyline
 62
253
  6
CONTINUOUS
 90
16
 70
0
 10
140.9571287303
 20
-4.0058255442
 10
140.9538500476
 20
-3.9856178764
 10
140.9509661428
 20
-3.9656235827
 10
140.9485074264
 20
-3.9460534995
 10
140.9464998252
 20
-3.9271139904
 10
140.944964509
 20
-3.9090047694
 10
140.9439176675
 20
-3.8919167954
 10
140.9433703395
 20
-3.8760302583
 10
140.9433282965
 20
-3.861512679
 10
140.9437919818
 20
-3.8485171432
 10
140.9447565059
 20
-3.8371806867
 10
140.9462116982
 20
-3.8276228506
 10
140.9481422139
 20
-3.8199444207
 10
140.9505276959
 20
-3.814226365
 10
140.9533429898
 20
-3.8105289792
 10
140.9565584087
 20
-3.8088912519
  0
LINE
  5
3A0
100
AcDbEntity
  8
RACCORDO
100
AcDbLine
 62
7
  6
CONTINUOUS
 10
142.70836775
 20
3.2482658862
 11
142.70836775
 21
-3.2482659014
  0
LINE
  5
3A1
100
AcDbEntity
  8
RACCORDO
100
AcDbLine
 62
253
  6
CONTINUOUS
 10
142.8820756505
 20
3.248138109
 11
142.8820756505
 21
-3.248138109
  0
LWPOLYLINE
  5
3A2
100
AcDbEntity
  8
RACCORDO
100
AcDbPolyline
 62
253
  6
CONTINUOUS
 90
22
 70
0
 10
142.8820756505
 20
-3.248138109
 10
142.8809291644
 20
-3.2814489117
 10
142.8776420036
 20
-3.3143137517
 10
142.8722145707
 20
-3.3467313597
 10
142.8646122018
 20
-3.3788200943
 10
142.8548705162
 20
-3.4104590079
 10
142.8430954026
 20
-3.4412879883
 10
142.8292585111
 20
-3.4713172623
 10
142.8133893954
 20
-3.5005342969
 10
142.7956807872
 20
-3.5285452283
 10
142.7761111317
 20
-3.5553314811
 10
142.7547032525
 20
-3.5809099784
 10
142.7317163173
 20
-3.6049406993
 10
142.7071239381
 20
-3.6274094024
 10
142.6809536416
 20
-3.6483295784
 10
142.6535452082
 20
-3.6674035401
 10
142.6248857669
 20
-3.6846049685
 10
142.5949889849
 20
-3.699960533
 10
142.564234084
 20
-3.7132528093
 10
142.5327474942
 20
-3.7244099358
 10
142.5004030638
 20
-3.73350525
 10
142.4672009235
 20
-3.7405395508
  0
LINE
  5
3A3
100
AcDbEntity
  8
RACCORDO
100
AcDbLine
 62
253
  6
CONTINUOUS
 10
142.70836775
 20
-0.0
 11
147.3659381244
 21
-0.0
  0
LWPOLYLINE
  5
3A4
100
AcDbEntity
  8
0
100
AcDbPolyline
 62
7
  6
CONTINUOUS
 90
24
 70
0
 10
143.8940774051
 20
43.2290727522
 10
143.8916317071
 20
43.2589743417
 10
143.8888436826
 20
43.289585129
 10
143.885698666
 20
43.3209608681
 10
143.8822430755
 20
43.3527386967
 10
143.878597586
 20
43.3841686424
 10
143.8748423351
 20
43.4149230973
 10
143.8709818028
 20
43.4450028714
 10
143.8670385296
 20
43.4741745618
 10
143.8630573809
 20
43.502312488
 10
143.8590895725
 20
43.5291732519
 10
143.8551692196
 20
43.5543780441
 10
143.8513015571
 20
43.5777795216
 10
143.8475218814
 20
43.5993166581
 10
143.8439048953
 20
43.6188129176
 10
143.8404575001
 20
43.6362175904
 10
143.837157145
 20
43.651550464
 10
143.8340316877
 20
43.6647862977
 10
143.8310771336
 20
43.6759933524
 10
143.8282843372
 20
43.6850623685
 10
143.8256674565
 20
43.6918524817
 10
143.8232211245
 20
43.6964763688
 10
143.8209270271
 20
43.6991425156
 10
143.8187754292
 20
43.7
  0
LWPOLYLINE
  5
3A5
100
AcDbEntity
  8
RACCORDO
100
AcDbPolyline
 62
253
  6
CONTINUOUS
 90
21
 70
0
 10
146.509422644
 20
25.2990307254
 10
146.4229184914
 20
26.5132163145
 10
146.3299737991
 20
27.6958018106
 10
146.2313519849
 20
28.8460164874
 10
146.1277379487
 20
29.9637981353
 10
146.0197171572
 20
31.0497848663
 10
145.9079368512
 20
32.1036676878
 10
145.793006472
 20
33.1253090009
 10
145.6753797983
 20
34.1156804913
 10
145.5557105578
 20
35.0739553175
 10
145.4344916398
 20
36.0008154759
 10
145.3118228414
 20
36.8995283894
 10
145.1882009324
 20
37.7699514539
 10
145.064059652
 20
38.6122528942
 10
144.939261666
 20
39.4301519182
 10
144.8141652648
 20
40.2237025444
 10
144.6891144383
 20
40.9929546817
 10
144.5638252885
 20
41.7415813476
 10
144.4383576599
 20
42.4708341485
 10
144.3131673499
 20
43.1795829523
 10
144.1885004108
 20
43.8679120506
  0
LWPOLYLINE
  5
3A6
100
AcDbEntity
  8
RACCORDO
100
AcDbPolyline
 62
253
  6
CONTINUOUS
 90
22
 70
0
 10
146.7138215831
 20
24.0612645712
 10
146.6343608789
 20
25.3082170704
 10
146.54779945
 20
26.5231577138
 10
146.4548394943
 20
27.7060698779
 10
146.3561659763
 20
28.8569530811
 10
146.2524420513
 20
29.9758000254
 10
146.1443102885
 20
31.0625959237
 10
146.0324336341
 20
32.1171489348
 10
145.9173924616
 20
33.1396863723
 10
145.7996677705
 20
34.1308295291
 10
145.6799050687
 20
35.089771669
 10
145.5585757604
 20
36.017383549
 10
145.435808475
 20
36.9168011409
 10
145.3120985279
 20
37.7878647717
 10
145.187856717
 20
38.6308071752
 10
145.0629528162
 20
39.449342717
 10
144.9377589703
 20
40.2434979483
 10
144.8126167701
 20
41.0133168521
 10
144.6872238608
 20
41.762525705
 10
144.5616404498
 20
42.4923834464
 10
144.4363477699
 20
43.2016912672
 10
144.3116106921
 20
43.8904819141
  0
LWPOLYLINE
  5
3A7
100
AcDbEntity
  8
0
100
AcDbPolyline
 62
7
  6
CONTINUOUS
 90
9
 70
0
 10
146.2037190892
 20
23.4209908606
 10
146.0670145513
 20
25.5976144137
 10
145.9007893148
 20
27.775042038
 10
145.7052894003
 20
29.951753542
 10
145.4809400379
 20
32.1248185656
 10
145.2278641301
 20
34.2940862804
 10
144.9457117794
 20
36.4621302688
 10
144.6343878024
 20
38.6286715147
 10
144.2942222633
 20
40.7906339512
  0
LINE
  5
3A8
100
AcDbEntity
  8
RACCORDO
100
AcDbLine
 62
253
  6
CONTINUOUS
 10
146.5989253908
 20
23.8817951038
 11
146.509422644
 21
25.2990307254
  0
LINE
  5
3A9
100
AcDbEntity
  8
RACCORDO
100
AcDbLine
 62
253
  6
CONTINUOUS
 10
146.7631981405
 20
23.1989771855
 11
146.7138215831
 21
24.0612645712
  0
LINE
  5
3AA
100
AcDbEntity
  8
RACCORDO
100
AcDbLine
 62
253
  6
CONTINUOUS
 10
146.6473567735
 20
23.0197020673
 11
146.5989253908
 21
23.8817951038
  0
LINE
  5
3AB
100
AcDbEntity
  8
0
100
AcDbLine
 62
7
  6
CONTINUOUS
 10
146.256314901
 20
22.4467950742
 11
146.2037190892
 21
23.4209908606
  0
LINE
  5
3AC
100
AcDbEntity
  8
RACCORDO
100
AcDbLine
 62
253
  6
CONTINUOUS
 10
146.2994052745
 20
44.0190434404
 11
146.3085931752
 21
43.8457940386
  0
LINE
  5
3AD
100
AcDbEntity
  8
RACCORDO
100
AcDbLine
 62
253
  6
CONTINUOUS
 10
146.6767601752
 20
22.4526827681
 11
146.6473567735
 21
23.0197020673
  0
LINE
  5
3AE
100
AcDbEntity
  8
RACCORDO
100
AcDbLine
 62
253
  6
CONTINUOUS
 10
146.8020327763
 20
22.4589775838
 11
146.7631981405
 21
23.1989771855
  0
LINE
  5
3AF
100
AcDbEntity
  8
0
100
AcDbLine
 62
7
  6
CONTINUOUS
 10
146.2858199888
 20
21.8611885197
 11
146.256314901
 21
22.4467950742
  0
LWPOLYLINE
  5
3B0
100
AcDbEntity
  8
RACCORDO
100
AcDbPolyline
 62
253
  6
CONTINUOUS
 90
10
 70
0
 10
147.2404554274
 20
-0.0
 10
147.2334909271
 20
2.4954471289
 10
147.2126007024
 20
4.9910938674
 10
147.1777876192
 20
7.4867969909
 10
147.1290533907
 20
9.9824684128
 10
147.0664013774
 20
12.4779096268
 10
146.9898396681
 20
14.9728116568
 10
146.8993759095
 20
17.4669758769
 10
146.7950142258
 20
19.9603140562
 10
146.6767601752
 20
22.4526827681
  0
LWPOLYLINE
  5
3B1
100
AcDbEntity
  8
RACCORDO
100
AcDbPolyline
 62
253
  6
CONTINUOUS
 90
10
 70
0
 10
147.3659381244
 20
-0.0
 10
147.3589642922
 20
2.4962596781
 10
147.3380680136
 20
4.9925840023
 10
147.303247806
 20
7.4888971629
 10
147.2544995649
 20
9.9852448871
 10
147.1918231109
 20
12.4814296717
 10
147.115229856
 20
14.9770098469
 10
147.0247309851
 20
17.4717858302
 10
146.9203297691
 20
19.9658010884
 10
146.8020327763
 20
22.4589775838
  0
LWPOLYLINE
  5
3B2
100
AcDbEntity
  8
0
100
AcDbPolyline
 62
7
  6
CONTINUOUS
 90
10
 70
0
 10
146.8212712167
 20
-0.0
 10
146.8146608114
 20
2.4296411977
 10
146.7948245246
 20
4.8594175597
 10
146.7617635088
 20
7.2892233598
 10
146.7154776805
 20
9.7190107766
 10
146.6559688252
 20
12.1486160513
 10
146.5832437504
 20
14.5777595762
 10
146.4973086742
 20
17.0062776881
 10
146.3981660722
 20
19.4341225796
 10
146.2858199888
 20
21.8611885197
  0
LWPOLYLINE
  5
3B3
100
AcDbEntity
  8
0
100
AcDbPolyline
 62
7
  6
CONTINUOUS
 90
9
 70
0
 10
146.3981660722
 20
-19.4341225796
 10
146.4973086742
 20
-17.0062776881
 10
146.5832437504
 20
-14.5777595763
 10
146.6559688252
 20
-12.1486160513
 10
146.7154776805
 20
-9.7190107765
 10
146.7617635088
 20
-7.2892233597
 10
146.7948245246
 20
-4.8594175596
 10
146.8146608114
 20
-2.4296411977
 10
146.8212712167
 20
-0.0
  0
LWPOLYLINE
  5
3B4
100
AcDbEntity
  8
RACCORDO
100
AcDbPolyline
 62
253
  6
CONTINUOUS
 90
9
 70
0
 10
146.7950142393
 20
-19.9603137541
 10
146.8993759236
 20
-17.4669755166
 10
146.989839674
 20
-14.9728114825
 10
147.066401364
 20
-12.4779101077
 10
147.1290533598
 20
-9.9824697935
 10
147.1777875882
 20
-7.4867988411
 10
147.2126006838
 20
-4.9910955316
 10
147.2334909213
 20
-2.4954481763
 10
147.2404554274
 20
-0.0
  0
LWPOLYLINE
  5
3B5
100
AcDbEntity
  8
RACCORDO
100
AcDbPolyline
 62
253
  6
CONTINUOUS
 90
9
 70
0
 10
146.9203297826
 20
-19.9658007861
 10
147.0247309992
 20
-17.4717854698
 10
147.1152298618
 20
-14.9770096725
 10
147.1918230974
 20
-12.4814301528
 10
147.2544995341
 20
-9.9852462682
 10
147.303247775
 20
-7.4888990136
 10
147.3380679951
 20
-4.9925856669
 10
147.3589642863
 20
-2.4962607258
 10
147.3659381244
 20
-0.0
  0
LINE
  5
3B6
100
AcDbEntity
  8
0
100
AcDbLine
 62
7
  6
CONTINUOUS
 10
146.2675992346
 20
-22.2265478691
 11
146.3981660722
 21
-19.4341225796
  0
LINE
  5
3B7
100
AcDbEntity
  8
RACCORDO
100
AcDbLine
 62
253
  6
CONTINUOUS
 10
146.6654542542
 20
-22.6752108947
 11
146.7950142393
 21
-19.9603137541
  0
LINE
  5
3B8
100
AcDbEntity
  8
RACCORDO
100
AcDbLine
 62
253
  6
CONTINUOUS
 10
146.7906832526
 20
-22.6818069546
 11
146.9203297826
 21
-19.9658007861
  0
LINE
  5
3B9
100
AcDbEntity
  8
RACCORDO
100
AcDbLine
 62
253
  6
CONTINUOUS
 10
146.3085931752
 20
-43.8457940382
 11
146.2994142421
 21
-44.0188772596
  0
LINE
  5
3BA
100
AcDbEntity
  8
0
100
AcDbLine
 62
7
  6
CONTINUOUS
 10
146.2147006764
 20
-23.2240944002
 11
146.2675992346
 21
-22.2265478691
  0
LINE
  5
3BB
100
AcDbEntity
  8
0
100
AcDbLine
 62
7
  6
CONTINUOUS
 10
146.2037190892
 20
-23.4209908606
 11
146.2147006764
 21
-23.2240944002
  0
LINE
  5
3BC
100
AcDbEntity
  8
RACCORDO
100
AcDbLine
 62
253
  6
CONTINUOUS
 10
146.6188293433
 20
-23.5370893887
 11
146.6654542542
 21
-22.6752108947
  0
LINE
  5
3BD
100
AcDbEntity
  8
RACCORDO
100
AcDbLine
 62
253
  6
CONTINUOUS
 10
146.7439633658
 20
-23.5441905332
 11
146.7906832526
 21
-22.6818069546
  0
LINE
  5
3BE
100
AcDbEntity
  8
RACCORDO
100
AcDbLine
 62
253
  6
CONTINUOUS
 10
146.5887242872
 20
-24.053777214
 11
146.6188293433
 21
-23.5370893887
  0
LINE
  5
3BF
100
AcDbEntity
  8
RACCORDO
100
AcDbLine
 62
253
  6
CONTINUOUS
 10
146.7138215832
 20
-24.061264571
 11
146.7439633658
 21
-23.5441905332
  0
LWPOLYLINE
  5
3C0
100
AcDbEntity
  8
0
100
AcDbPolyline
 62
7
  6
CONTINUOUS
 90
8
 70
0
 10
143.8984367704
 20
-43.1678491821
 10
143.9009592445
 20
-43.1367927596
 10
143.9037304811
 20
-43.1068028649
 10
143.906734645
 20
-43.0779174713
 10
143.9099691477
 20
-43.050041636
 10
143.9134502887
 20
-43.0229667203
 10
143.9171835206
 20
-42.9966251009
 10
143.9211578053
 20
-42.9710709433
  0
LWPOLYLINE
  5
3C1
100
AcDbEntity
  8
RACCORDO
100
AcDbPolyline
 62
253
  6
CONTINUOUS
 90
3
 70
0
 10
142.8820756505
 20
3.248138109
 10
142.7092873064
 20
3.2482573564
 10
142.70836775
 20
3.2482701106
  0
LINE
  5
3C2
100
AcDbEntity
  8
RACCORDO
100
AcDbLine
 62
253
  6
CONTINUOUS
 10
140.7083676829
 20
4.0204739299
 11
140.9571171876
 21
4.0058261954
  0
LINE
  5
3C3
100
AcDbEntity
  8
RACCORDO
100
AcDbLine
 62
253
  6
CONTINUOUS
 10
140.9571171502
 20
4.0058275612
 11
142.4672009235
 21
3.7405395508
  0
LINE
  5
3C4
100
AcDbEntity
  8
RACCORDO
100
AcDbLine
 62
7
  6
CONTINUOUS
 10
140.8736381145
 20
3.823512337
 11
142.4604622033
 21
3.5437124366
  0
LWPOLYLINE
  5
3C5
100
AcDbEntity
  8
RACCORDO
100
AcDbPolyline
 62
253
  6
CONTINUOUS
 90
22
 70
0
 10
142.4672009235
 20
3.7405395508
 10
142.5004030515
 20
3.733505253
 10
142.5327474734
 20
3.7244099413
 10
142.5642340587
 20
3.7132528168
 10
142.5949889606
 20
3.699960542
 10
142.6248857476
 20
3.6846049785
 10
142.6535451928
 20
3.6674035512
 10
142.6809536268
 20
3.6483295908
 10
142.7071239227
 20
3.6274094162
 10
142.7317163018
 20
3.6049407143
 10
142.7547032379
 20
3.5809099941
 10
142.7761111184
 20
3.5553314972
 10
142.7956807752
 20
3.5285452452
 10
142.8133893846
 20
3.500534315
 10
142.8292585015
 20
3.4713172819
 10
142.8430953942
 20
3.4412880093
 10
142.8548705092
 20
3.410459031
 10
142.8646121963
 20
3.3788201194
 10
142.8722145666
 20
3.3467313838
 10
142.8776420009
 20
3.3143137707
 10
142.880929163
 20
3.2814489227
 10
142.8820756505
 20
3.248138109
  0
LWPOLYLINE
  5
3C6
100
AcDbEntity
  8
RACCORDO
100
AcDbPolyline
 62
253
  6
CONTINUOUS
 90
43
 70
0
 10
140.8981022287
 20
42.6667703921
 10
140.8956826621
 20
42.6798597452
 10
140.8933505186
 20
42.693162595
 10
140.8911060374
 20
42.7066675959
 10
140.888946271
 20
42.7203874671
 10
140.8868746466
 20
42.7342838211
 10
140.8849010213
 20
42.7482681846
 10
140.8830281425
 20
42.7623191
 10
140.8812538391
 20
42.7764297476
 10
140.8795806524
 20
42.7905346903
 10
140.8780095012
 20
42.804615139
 10
140.8765400246
 20
42.8186607906
 10
140.8751728634
 20
42.8326205138
 10
140.8739078266
 20
42.8464776071
 10
140.8727456061
 20
42.8602202329
 10
140.8716881588
 20
42.8738064945
 10
140.8707354769
 20
42.8872116978
 10
140.8698879959
 20
42.9004340135
 10
140.8691483157
 20
42.9134666505
 10
140.8685138673
 20
42.9263078507
 10
140.8679876171
 20
42.9389311791
 10
140.8675804255
 20
42.9512945335
 10
140.8672971234
 20
42.9633768484
 10
140.8671326984
 20
42.9751817763
 10
140.8670832297
 20
42.9867061689
 10
140.8671484633
 20
42.9979337492
 10
140.8673280775
 20
43.0088683546
 10
140.867618103
 20
43.0195337984
 10
140.8680168858
 20
43.0299329393
 10
140.8685256293
 20
43.0400429737
 10
140.869144684
 20
43.0498469467
 10
140.8698734452
 20
43.0593419191
 10
140.8707121118
 20
43.0685121703
 10
140.8716622375
 20
43.0773254403
 10
140.8727238295
 20
43.0857776386
 10
140.8738965063
 20
43.0938607316
 10
140.8751812309
 20
43.1015440023
 10
140.8765793754
 20
43.1088293739
 10
140.8780892345
 20
43.1157117302
 10
140.8797071555
 20
43.1221602847
 10
140.8814318281
 20
43.1281710154
 10
140.8832642892
 20
43.1337599795
 10
140.8852044199
 20
43.1389329742
  0
LINE
  5
3C7
100
AcDbEntity
  8
RACCORDO
100
AcDbLine
 62
253
  6
CONTINUOUS
 10
146.2634476599
 20
44.5256691293
 11
146.2709316566
 21
44.4380975078
  0
LINE
  5
3C8
100
AcDbEntity
  8
RACCORDO
100
AcDbLine
 62
253
  6
CONTINUOUS
 10
146.2709316566
 20
44.4380975078
 11
146.2783783409
 21
44.3423747523
  0
LINE
  5
3C9
100
AcDbEntity
  8
RACCORDO
100
AcDbLine
 62
253
  6
CONTINUOUS
 10
146.2783783409
 20
44.3423747523
 11
146.2856799816
 21
44.2397141953
  0
LINE
  5
3CA
100
AcDbEntity
  8
RACCORDO
100
AcDbLine
 62
253
  6
CONTINUOUS
 10
146.2856799816
 20
44.2397141953
 11
146.2927068482
 21
44.1314670611
  0
LINE
  5
3CB
100
AcDbEntity
  8
RACCORDO
100
AcDbLine
 62
253
  6
CONTINUOUS
 10
146.2927068482
 20
44.1314670611
 11
146.2994052745
 21
44.0190434404
  0
LWPOLYLINE
  5
3CC
100
AcDbEntity
  8
RACCORDO
100
AcDbPolyline
 62
253
  6
CONTINUOUS
 90
12
 70
0
 10
148.7525778931
 20
22.6080915512
 10
148.9294254233
 20
18.7693858765
 10
149.0705158054
 20
15.0170795117
 10
149.1802560475
 20
11.2637237866
 10
149.2586494305
 20
7.509584833
 10
149.3056926762
 20
3.754924456
 10
149.321375946
 20
0.0000001319
 10
149.3056926811
 20
-3.7549241486
 10
149.2586494402
 20
-7.5095844529
 10
149.1802560595
 20
-11.2637233922
 10
149.0705158161
 20
-15.0170791905
 10
148.92942543
 20
-18.7693856868
  0
LINE
  5
3CD
100
AcDbEntity
  8
RACCORDO
100
AcDbLine
 62
253
  6
CONTINUOUS
 10
148.92942543
 20
-18.7693856868
 11
148.7525778931
 21
-22.6080915512
  0
LWPOLYLINE
  5
3CE
100
AcDbEntity
  8
RACCORDO
100
AcDbPolyline
 62
253
  6
CONTINUOUS
 90
10
 70
0
 10
148.7525778931
 20
-22.6080915512
 10
148.6160513543
 20
-24.9810868824
 10
148.4457259718
 20
-27.3519082004
 10
148.2416021706
 20
-29.7200634304
 10
148.0036256721
 20
-32.0850471668
 10
147.7318516079
 20
-34.4463804566
 10
147.4264445051
 20
-36.8036105772
 10
147.0874594751
 20
-39.1562580461
 10
146.7148422283
 20
-41.5038168431
 10
146.3085931769
 20
-43.845794038
  0
LINE
  5
3CF
100
AcDbEntity
  8
RACCORDO
100
AcDbLine
 62
253
  6
CONTINUOUS
 10
146.2994142421
 20
-44.0188772596
 11
146.2927213068
 21
-44.1312042337
  0
LINE
  5
3D0
100
AcDbEntity
  8
RACCORDO
100
AcDbLine
 62
253
  6
CONTINUOUS
 10
146.2927213068
 20
-44.1312042337
 11
146.2856977755
 21
-44.2394243192
  0
LINE
  5
3D1
100
AcDbEntity
  8
RACCORDO
100
AcDbLine
 62
7
  6
CONTINUOUS
 10
149.0013345054
 20
-26.0452478368
 11
149.0018428239
 21
-26.0380796398
  0
LINE
  5
3D2
100
AcDbEntity
  8
RACCORDO
100
AcDbLine
 62
253
  6
CONTINUOUS
 10
146.2856977755
 20
-44.2394243192
 11
146.2783957363
 21
-44.3421172861
  0
LINE
  5
3D3
100
AcDbEntity
  8
RACCORDO
100
AcDbLine
 62
253
  6
CONTINUOUS
 10
146.2783957363
 20
-44.3421172861
 11
146.2709492276
 21
-44.4378595476
  0
LWPOLYLINE
  5
3D4
100
AcDbEntity
  8
RACCORDO
100
AcDbPolyline
 62
253
  6
CONTINUOUS
 90
16
 70
0
 10
146.2709492276
 20
-44.4378595476
 10
146.2634653498
 20
-44.5254530921
 10
146.2597237095
 20
-44.5658429607
 10
146.256016817
 20
-44.6037919516
 10
146.2523505913
 20
-44.6391790959
 10
146.2487241319
 20
-44.6718935528
 10
146.245164777
 20
-44.70183582
 10
146.2416822843
 20
-44.7289115255
 10
146.2382790589
 20
-44.7530334755
 10
146.2349730156
 20
-44.7741251002
 10
146.2317778342
 20
-44.7921174086
 10
146.2286992933
 20
-44.8069564251
 10
146.2257447907
 20
-44.8185994301
 10
146.2229251012
 20
-44.8270076093
 10
146.2202547524
 20
-44.8321499559
 10
146.2177480157
 20
-44.8340076387
  0
LWPOLYLINE
  5
3D5
100
AcDbEntity
  8
RACCORDO
100
AcDbPolyline
 62
253
  6
CONTINUOUS
 90
10
 70
0
 10
144.299861958
 20
-43.9654829019
 10
144.300994359
 20
-43.9570926343
 10
144.3021691998
 20
-43.9487147108
 10
144.3033864821
 20
-43.9403491247
 10
144.3046451295
 20
-43.9319933658
 10
144.305946222
 20
-43.9236499313
 10
144.3072929978
 20
-43.915326325
 10
144.3086865386
 20
-43.9070250432
 10
144.310125769
 20
-43.8987435753
 10
144.3116106921
 20
-43.8904819141
  0
LWPOLYLINE
  5
3D6
100
AcDbEntity
  8
RACCORDO
100
AcDbPolyline
 62
253
  6
CONTINUOUS
 90
3
 70
0
 10
144.2801055008
 20
-44.0972524285
 10
144.2865320501
 20
-44.0553651148
 10
144.299861958
 20
-43.9654829019
  0
LINE
  5
3D7
100
AcDbEntity
  8
RACCORDO
100
AcDbLine
 62
253
  6
CONTINUOUS
 10
144.267613842
 20
-44.1753069898
 11
144.2801055008
 21
-44.0972524285
  0
LINE
  5
3D8
100
AcDbEntity
  8
RACCORDO
100
AcDbLine
 62
253
  6
CONTINUOUS
 10
144.1551995018
 20
-44.061291223
 11
144.1748172417
 21
-43.940007607
  0
LWPOLYLINE
  5
3D9
100
AcDbEntity
  8
RACCORDO
100
AcDbPolyline
 62
253
  6
CONTINUOUS
 90
9
 70
0
 10
144.1748172417
 20
-43.940007607
 10
144.1763192909
 20
-43.9310081928
 10
144.1778786956
 20
-43.922004193
 10
144.1794934458
 20
-43.9129931999
 10
144.1811656989
 20
-43.9039767884
 10
144.1829018047
 20
-43.8949603837
 10
144.1847039479
 20
-43.8859454169
 10
144.186570123
 20
-43.8769294573
 10
144.1885004108
 20
-43.8679120506
  0
LINE
  5
3DA
100
AcDbEntity
  8
RACCORDO
100
AcDbLine
 62
253
  6
CONTINUOUS
 10
144.2560047333
 20
-44.2453266809
 11
144.267613842
 21
-44.1753069898
  0
LINE
  5
3DB
100
AcDbEntity
  8
RACCORDO
100
AcDbLine
 62
253
  6
CONTINUOUS
 10
144.1389765305
 20
-44.1575892003
 11
144.1551995018
 21
-44.061291223
  0
LWPOLYLINE
  5
3DC
100
AcDbEntity
  8
0
100
AcDbPolyline
 62
7
  6
CONTINUOUS
 90
10
 70
0
 10
143.9211578053
 20
-42.9710709433
 10
144.2942222633
 20
-40.7906339512
 10
144.6343878024
 20
-38.6286715147
 10
144.9457117794
 20
-36.4621302688
 10
145.2278641301
 20
-34.2940862804
 10
145.4809400379
 20
-32.1248185656
 10
145.7052894003
 20
-29.951753542
 10
145.9007893148
 20
-27.775042038
 10
146.0670145513
 20
-25.5976144137
 10
146.2037190892
 20
-23.4209908606
  0
LINE
  5
3DD
100
AcDbEntity
  8
RACCORDO
100
AcDbLine
 62
253
  6
CONTINUOUS
 10
144.2454119743
 20
-44.3072637722
 11
144.2560047333
 21
-44.2453266809
  0
LINE
  5
3DE
100
AcDbEntity
  8
RACCORDO
100
AcDbLine
 62
253
  6
CONTINUOUS
 10
144.1250121055
 20
-44.2379222555
 11
144.1389765305
 21
-44.1575892003
  0
LWPOLYLINE
  5
3DF
100
AcDbEntity
  8
RACCORDO
100
AcDbPolyline
 62
253
  6
CONTINUOUS
 90
3
 70
0
 10
144.2313565185
 20
-44.386691496
 10
144.2357969203
 20
-44.3619408798
 10
144.2454119743
 20
-44.3072637722
  0
LWPOLYLINE
  5
3E0
100
AcDbEntity
  8
RACCORDO
100
AcDbPolyline
 62
253
  6
CONTINUOUS
 90
22
 70
0
 10
144.1885004108
 20
-43.8679120506
 10
144.3131389957
 20
-43.1797414425
 10
144.4383035467
 20
-42.4711444834
 10
144.56374799
 20
-41.7420367629
 10
144.6890165149
 20
-40.9935481867
 10
144.8140492306
 20
-40.2244271247
 10
144.9391299692
 20
-39.4310007479
 10
145.06391471
 20
-38.613219026
 10
145.1880451282
 20
-37.771027811
 10
145.3116585011
 20
-36.9007080782
 10
145.4343207022
 20
-36.0020941159
 10
145.5555352974
 20
-35.075325771
 10
145.6752034001
 20
-34.117127839
 10
145.7928307503
 20
-33.1268280246
 10
145.9077646072
 20
-32.1052431313
 10
146.0195548156
 20
-31.0513638285
 10
146.1275907016
 20
-29.9653298662
 10
146.2312242285
 20
-28.8474475798
 10
146.3298725016
 20
-27.6970337905
 10
146.4228495608
 20
-26.5141356987
 10
146.5093883075
 20
-25.2995392668
 10
146.5887242872
 20
-24.053777214
  0
LWPOLYLINE
  5
3E1
100
AcDbEntity
  8
RACCORDO
100
AcDbPolyline
 62
253
  6
CONTINUOUS
 90
3
 70
0
 10
144.1096042145
 20
-44.3236327738
 10
144.1131291002
 20
-44.3043085184
 10
144.1250121055
 20
-44.2379222555
  0
LWPOLYLINE
  5
3E2
100
AcDbEntity
  8
RACCORDO
100
AcDbPolyline
 62
253
  6
CONTINUOUS
 90
10
 70
0
 10
144.3116106921
 20
43.8904819141
 10
144.3101270202
 20
43.8987361524
 10
144.3086886627
 20
43.9070123569
 10
144.3072956163
 20
43.9153105346
 10
144.305948868
 20
43.9236336009
 10
144.3046474237
 20
43.9319786547
 10
144.3033883095
 20
43.9403369777
 10
144.3021705333
 20
43.9487056679
 10
144.3009950835
 20
43.9570876405
 10
144.2998619579
 20
43.965482902
  0
LINE
  5
3E3
100
AcDbEntity
  8
RACCORDO
100
AcDbLine
 62
253
  6
CONTINUOUS
 10
144.122916024
 20
44.2497674491
 11
144.1106850253
 21
44.3177214618
  0
LINE
  5
3E4
100
AcDbEntity
  8
RACCORDO
100
AcDbLine
 62
253
  6
CONTINUOUS
 10
144.2429457264
 20
44.321423867
 11
144.2321023584
 21
44.382552687
  0
LINE
  5
3E5
100
AcDbEntity
  8
RACCORDO
100
AcDbLine
 62
253
  6
CONTINUOUS
 10
144.136785055
 20
44.1703771503
 11
144.122916024
 21
44.2497674491
  0
LINE
  5
3E6
100
AcDbEntity
  8
RACCORDO
100
AcDbLine
 62
253
  6
CONTINUOUS
 10
144.2529816202
 20
44.2631952333
 11
144.2429457264
 21
44.321423867
  0
LWPOLYLINE
  5
3E7
100
AcDbEntity
  8
0
100
AcDbPolyline
 62
7
  6
CONTINUOUS
 90
10
 70
0
 10
144.2942222633
 20
40.7906339512
 10
143.9211578053
 20
42.9710709433
 10
143.9171835206
 20
42.9966251009
 10
143.9134502887
 20
43.0229667203
 10
143.9099691477
 20
43.050041636
 10
143.906734645
 20
43.0779174713
 10
143.9037304811
 20
43.1068028649
 10
143.9009592445
 20
43.1367927596
 10
143.8984367704
 20
43.1678491821
 10
143.8940774051
 20
43.2290727522
  0
LINE
  5
3E8
100
AcDbEntity
  8
RACCORDO
100
AcDbLine
 62
253
  6
CONTINUOUS
 10
144.1511787918
 20
44.085429823
 11
144.136785055
 21
44.1703771503
  0
LINE
  5
3E9
100
AcDbEntity
  8
RACCORDO
100
AcDbLine
 62
253
  6
CONTINUOUS
 10
144.2649436458
 20
44.1916014568
 11
144.2529816202
 21
44.2631952333
  0
LINE
  5
3EA
100
AcDbEntity
  8
RACCORDO
100
AcDbLine
 62
253
  6
CONTINUOUS
 10
144.163436136
 20
44.0110505298
 11
144.1511787918
 21
44.085429823
  0
LINE
  5
3EB
100
AcDbEntity
  8
RACCORDO
100
AcDbLine
 62
253
  6
CONTINUOUS
 10
144.2755741568
 20
44.1258429428
 11
144.2649436458
 21
44.1916014568
  0
LINE
  5
3EC
100
AcDbEntity
  8
RACCORDO
100
AcDbLine
 62
253
  6
CONTINUOUS
 10
144.1748181538
 20
43.9400022539
 11
144.163436136
 21
44.0110505298
  0
LINE
  5
3ED
100
AcDbEntity
  8
RACCORDO
100
AcDbLine
 62
253
  6
CONTINUOUS
 10
144.2849774536
 20
44.0657619272
 11
144.2755741568
 21
44.1258429428
  0
LINE
  5
3EE
100
AcDbEntity
  8
RACCORDO
100
AcDbLine
 62
253
  6
CONTINUOUS
 10
144.2930823503
 20
44.0120873436
 11
144.2849774536
 21
44.0657619272
  0
LINE
  5
3EF
100
AcDbEntity
  8
RACCORDO
100
AcDbLine
 62
253
  6
CONTINUOUS
 10
144.2998619579
 20
43.965482902
 11
144.2930823503
 21
44.0120873436
  0
LWPOLYLINE
  5
3F0
100
AcDbEntity
  8
RACCORDO
100
AcDbPolyline
 62
253
  6
CONTINUOUS
 90
22
 70
0
 10
144.3116106921
 20
-43.8904819141
 10
144.4363193692
 20
-43.2018500544
 10
144.5615862749
 20
-42.4926941593
 10
144.6871465025
 20
-41.7629814664
 10
144.8125187735
 20
-41.0139107705
 10
144.9376428371
 20
-40.244223112
 10
145.0628210163
 20
-39.4501921893
 10
145.1877116644
 20
-38.6317740026
 10
145.3119425889
 20
-37.7889419799
 10
145.4356440031
 20
-36.9179817251
 10
145.5584047026
 20
-36.0186631491
 10
145.6797296774
 20
-35.091143241
 10
145.7994912176
 20
-34.1322779871
 10
145.9172165568
 20
-33.1412065299
 10
146.0322612093
 20
-32.1187256387
 10
146.1441478029
 20
-31.0641760839
 10
146.2522946991
 20
-29.9773327238
 10
146.3560381328
 20
-28.8583850094
 10
146.4547381086
 20
-27.7073027924
 10
146.5477304217
 20
-26.5240782536
 10
146.6343264535
 20
-25.3087266745
 10
146.7138215832
 20
-24.061264571
  0
LINE
  5
3F1
100
AcDbEntity
  8
RACCORDO
100
AcDbLine
 62
253
  6
CONTINUOUS
 10
144.2231882424
 20
-44.431332475
 11
144.2313565185
 21
-44.386691496
  0
LINE
  5
3F2
100
AcDbEntity
  8
RACCORDO
100
AcDbLine
 62
253
  6
CONTINUOUS
 10
144.1002331504
 20
-44.3739702287
 11
144.1096042145
 21
-44.3236327738
  0
LINE
  5
3F3
100
AcDbEntity
  8
RACCORDO
100
AcDbLine
 62
253
  6
CONTINUOUS
 10
144.2159354405
 20
-44.4699029921
 11
144.2231882424
 21
-44.431332475
  0
LINE
  5
3F4
100
AcDbEntity
  8
RACCORDO
100
AcDbLine
 62
253
  6
CONTINUOUS
 10
144.0924604415
 20
-44.4143246874
 11
144.1002331504
 21
-44.3739702287
  0
LINE
  5
3F5
100
AcDbEntity
  8
RACCORDO
100
AcDbLine
 62
253
  6
CONTINUOUS
 10
144.209519306
 20
-44.5029863489
 11
144.2159354405
 21
-44.4699029921
  0
LINE
  5
3F6
100
AcDbEntity
  8
RACCORDO
100
AcDbLine
 62
253
  6
CONTINUOUS
 10
144.0880212462
 20
-44.436638216
 11
144.0924604415
 21
-44.4143246874
  0
LINE
  5
3F7
100
AcDbEntity
  8
RACCORDO
100
AcDbLine
 62
253
  6
CONTINUOUS
 10
144.2038220161
 20
-44.5314026603
 11
144.209519306
 21
-44.5029863489
  0
LINE
  5
3F8
100
AcDbEntity
  8
RACCORDO
100
AcDbLine
 62
253
  6
CONTINUOUS
 10
144.0841306199
 20
-44.4556282899
 11
144.0880212462
 21
-44.436638216
  0
LINE
  5
3F9
100
AcDbEntity
  8
RACCORDO
100
AcDbLine
 62
253
  6
CONTINUOUS
 10
144.0807363412
 20
-44.4716520941
 11
144.0841306199
 21
-44.4556282899
  0
LWPOLYLINE
  5
3FA
100
AcDbEntity
  8
RACCORDO
100
AcDbPolyline
 62
253
  6
CONTINUOUS
 90
4
 70
0
 10
144.0751939332
 20
-44.4962725119
 10
144.0764433443
 20
-44.4909301134
 10
144.0777801493
 20
-44.4850641859
 10
144.0807363412
 20
-44.4716520941
  0
LWPOLYLINE
  5
3FB
100
AcDbEntity
  8
RACCORDO
100
AcDbPolyline
 62
253
  6
CONTINUOUS
 90
18
 70
0
 10
144.0805033325
 20
44.4727261322
 10
144.0788432191
 20
44.4803095045
 10
144.0773106298
 20
44.4871361191
 10
144.0758854702
 20
44.4933313251
 10
144.0745605913
 20
44.4989356947
 10
144.0733307717
 20
44.5039754996
 10
144.07218263
 20
44.5085339939
 10
144.0711099522
 20
44.5126463335
 10
144.0701102264
 20
44.5163242616
 10
144.0691776083
 20
44.5196052282
 10
144.0683074266
 20
44.5225130023
 10
144.0674965538
 20
44.5250656437
 10
144.0667420056
 20
44.5272891017
 10
144.0660400155
 20
44.5292003026
 10
144.0653869006
 20
44.5308221991
 10
144.0647802438
 20
44.5321874036
 10
144.0642172234
 20
44.5333175648
 10
144.0625714733
 20
44.5359126903
  0
LWPOLYLINE
  5
3FC
100
AcDbEntity
  8
RACCORDO
100
AcDbPolyline
 62
253
  6
CONTINUOUS
 90
22
 70
0
 10
144.1992199743
 20
44.5535391182
 10
144.1966930325
 20
44.5653114676
 10
144.1943374334
 20
44.5759834404
 10
144.1921599332
 20
44.58557569
 10
144.1901567443
 20
44.5941199492
 10
144.1883052637
 20
44.6017270368
 10
144.1865853984
 20
44.608528606
 10
144.1849878601
 20
44.6145781066
 10
144.1835031049
 20
44.6199232132
 10
144.1821161745
 20
44.6246572644
 10
144.1808188505
 20
44.6288250359
 10
144.1796067068
 20
44.6324495755
 10
144.1784737517
 20
44.6355741035
 10
144.1774129683
 20
44.638233725
 10
144.1764203232
 20
44.6404523435
 10
144.1754945277
 20
44.6422551214
 10
144.1746291914
 20
44.6436727082
 10
144.1738188919
 20
44.6447373595
 10
144.1730632762
 20
44.645479377
 10
144.1723584523
 20
44.6459289451
 10
144.1716972075
 20
44.6461149692
 10
144.1710742941
 20
44.6460653636
  0
LWPOLYLINE
  5
3FD
100
AcDbEntity
  8
RACCORDO
100
AcDbPolyline
 62
253
  6
CONTINUOUS
 90
9
 70
0
 10
144.1885004108
 20
43.8679120506
 10
144.1865717585
 20
43.8769213665
 10
144.184706713
 20
43.8859316391
 10
144.1829051985
 20
43.8949432928
 10
144.1811691107
 20
43.903959152
 10
144.1794963858
 20
43.9129773269
 10
144.1778810224
 20
43.9219911017
 10
144.1763209793
 20
43.9309984717
 10
144.1748181538
 20
43.9400022539
  0
LINE
  5
3FE
100
AcDbEntity
  8
RACCORDO
100
AcDbLine
 62
253
  6
CONTINUOUS
 10
144.0842578801
 20
44.4550216263
 11
144.0805033325
 21
44.4727261322
  0
LINE
  5
3FF
100
AcDbEntity
  8
RACCORDO
100
AcDbLine
 62
253
  6
CONTINUOUS
 10
144.2048662522
 20
44.526268299
 11
144.1992199743
 21
44.5535391182
  0
LINE
  5
400
100
AcDbEntity
  8
RACCORDO
100
AcDbLine
 62
253
  6
CONTINUOUS
 10
144.088613864
 20
44.433687152
 11
144.0842578801
 21
44.4550216263
  0
LINE
  5
401
100
AcDbEntity
  8
RACCORDO
100
AcDbLine
 62
253
  6
CONTINUOUS
 10
144.2110875393
 20
44.4949913332
 11
144.2048662522
 21
44.526268299
  0
LINE
  5
402
100
AcDbEntity
  8
RACCORDO
100
AcDbLine
 62
253
  6
CONTINUOUS
 10
144.0935702538
 20
44.4086491038
 11
144.088613864
 21
44.433687152
  0
LINE
  5
403
100
AcDbEntity
  8
RACCORDO
100
AcDbLine
 62
253
  6
CONTINUOUS
 10
144.0989460545
 20
44.3807417018
 11
144.0935702538
 21
44.4086491038
  0
LINE
  5
404
100
AcDbEntity
  8
RACCORDO
100
AcDbLine
 62
253
  6
CONTINUOUS
 10
144.2177802494
 20
44.4601915369
 11
144.2110875393
 21
44.4949913332
  0
LINE
  5
405
100
AcDbEntity
  8
RACCORDO
100
AcDbLine
 62
253
  6
CONTINUOUS
 10
144.2248316983
 20
44.4224485438
 11
144.2177802494
 21
44.4601915369
  0
LWPOLYLINE
  5
406
100
AcDbEntity
  8
RACCORDO
100
AcDbPolyline
 62
253
  6
CONTINUOUS
 90
3
 70
0
 10
144.1106850253
 20
44.3177214618
 10
144.1076599403
 20
44.33419237
 10
144.0989460545
 20
44.3807417018
  0
LINE
  5
407
100
AcDbEntity
  8
RACCORDO
100
AcDbLine
 62
253
  6
CONTINUOUS
 10
144.2321023584
 20
44.382552687
 11
144.2248316983
 21
44.4224485438
  0
LWPOLYLINE
  5
408
100
AcDbEntity
  8
RACCORDO
100
AcDbPolyline
 62
253
  6
CONTINUOUS
 90
10
 70
0
 10
146.3085931768
 20
43.8457940385
 10
146.7148421722
 20
41.5038172084
 10
147.0874593849
 20
39.1562586394
 10
147.4264444025
 20
36.8036112606
 10
147.7318515249
 20
34.446381028
 10
148.0036256304
 20
32.0850474864
 10
148.2416021609
 20
29.7200635476
 10
148.4457259745
 20
27.3519082284
 10
148.6160513602
 20
24.9810868712
 10
148.7525778931
 20
22.6080915512
  0
LWPOLYLINE
  5
409
100
AcDbEntity
  8
RACCORDO
100
AcDbPolyline
 62
253
  6
CONTINUOUS
 90
11
 70
0
 10
144.0625714733
 20
44.5359126903
 10
144.0623164905
 20
44.5364562866
 10
144.0621032391
 20
44.5370222901
 10
144.0619339925
 20
44.5376129046
 10
144.0618142327
 20
44.5382418701
 10
144.0617444131
 20
44.5389030551
 10
144.0617258407
 20
44.5395932272
 10
144.0617655211
 20
44.5403291838
 10
144.0618665566
 20
44.5411124484
 10
144.062028017
 20
44.5419299608
 10
144.0622510179
 20
44.5427758029
  0
LWPOLYLINE
  5
40A
100
AcDbEntity
  8
RACCORDO
100
AcDbPolyline
 62
253
  6
CONTINUOUS
 90
10
 70
0
 10
140.9476438231
 20
22.7522186186
 10
141.518990602
 20
22.8536499202
 10
142.0950268824
 20
22.948513195
 10
142.6752182256
 20
23.0367255586
 10
143.2594034933
 20
23.1182539934
 10
143.8466845967
 20
23.1929580853
 10
144.4354063363
 20
23.2606332696
 10
145.0246521525
 20
23.3212012746
 10
145.6142642306
 20
23.3746668662
 10
146.2037190892
 20
23.4209908606
  0
LWPOLYLINE
  5
40B
100
AcDbEntity
  8
RACCORDO
100
AcDbPolyline
 62
253
  6
CONTINUOUS
 90
10
 70
0
 10
140.9484212441
 20
21.8746993201
 10
141.5257956241
 20
21.9727305563
 10
142.1076407129
 20
22.0643876396
 10
142.6934350841
 20
22.1495930867
 10
143.283013752
 20
22.2283150047
 10
143.8755094501
 20
22.3004236128
 10
144.4693340391
 20
22.3657307713
 10
145.0636043166
 20
22.424163692
 10
145.6581605527
 20
22.4757253996
 10
146.2524947084
 20
22.5203789265
  0
LWPOLYLINE
  5
40C
100
AcDbEntity
  8
RACCORDO
100
AcDbPolyline
 62
253
  6
CONTINUOUS
 90
10
 70
0
 10
140.948955025
 20
21.2336379366
 10
141.5304757006
 20
21.3290301173
 10
142.1163079846
 20
21.4181940989
 10
142.7059402835
 20
21.5010561536
 10
143.2992053926
 20
21.5775851355
 10
143.8952585314
 20
21.6476586747
 10
144.4925598326
 20
21.7111001473
 10
145.0902502923
 20
21.7678406239
 10
145.6881692231
 20
21.8178818897
 10
146.2858199888
 20
21.8611885197
  0
LINE
  5
40D
100
AcDbEntity
  8
RACCORDO
100
AcDbLine
 62
253
  6
CONTINUOUS
 10
146.5887242874
 20
24.053777214
 11
146.713821583
 21
24.0612645711
  0
LINE
  5
40E
100
AcDbEntity
  8
RACCORDO
100
AcDbLine
 62
253
  6
CONTINUOUS
 10
147.0111516316
 20
22.5203789087
 11
146.6742110577
 21
22.5033849929
  0
LINE
  5
40F
100
AcDbEntity
  8
RACCORDO
100
AcDbLine
 62
253
  6
CONTINUOUS
 10
149.20836775
 20
22.6310194482
 11
148.7525778931
 21
22.6080915512
  0
LINE
  5
410
100
AcDbEntity
  8
RACCORDO
100
AcDbLine
 62
253
  6
CONTINUOUS
 10
149.2127796446
 20
22.5432326076
 11
148.7569848999
 21
22.5203789087
  0
LINE
  5
411
100
AcDbEntity
  8
RACCORDO
100
AcDbLine
 62
253
  6
CONTINUOUS
 10
146.6767601752
 20
22.4526827681
 11
146.8020327763
 21
22.4589775839
  0
LINE
  5
412
100
AcDbEntity
  8
RACCORDO
100
AcDbLine
 62
253
  6
CONTINUOUS
 10
148.7569848999
 20
22.5203789087
 11
147.0111516316
 21
22.5203789087
  0
LWPOLYLINE
  5
413
100
AcDbEntity
  8
RACCORDO
100
AcDbPolyline
 62
253
  6
CONTINUOUS
 90
4
 70
0
 10
140.70836775
 20
21.233849763
 10
140.7096207679
 20
21.233830032
 10
140.7133693543
 20
21.2338104659
 10
140.948955025
 20
21.2336379366
  0
LWPOLYLINE
  5
414
100
AcDbEntity
  8
RACCORDO
100
AcDbPolyline
 62
253
  6
CONTINUOUS
 90
4
 70
0
 10
140.70836775
 20
21.8749224851
 10
140.7096174548
 20
21.8749017178
 10
140.7133561572
 20
21.8748811235
 10
140.9484212441
 20
21.8746993201
  0
LWPOLYLINE
  5
415
100
AcDbEntity
  8
RACCORDO
100
AcDbPolyline
 62
253
  6
CONTINUOUS
 90
4
 70
0
 10
140.7083677721
 20
22.7524548554
 10
140.7096126564
 20
22.7524329021
 10
140.7133369791
 20
22.752411131
 10
140.947643826
 20
22.7522186186
  0
LWPOLYLINE
  5
416
100
AcDbEntity
  8
RACCORDO
100
AcDbPolyline
 62
253
  6
CONTINUOUS
 90
17
 70
0
 10
144.0632084147
 20
-44.5349261753
 10
144.0636364873
 20
-44.5343143234
 10
144.0640953662
 20
-44.533539157
 10
144.0645874581
 20
-44.5325878204
 10
144.0651155881
 20
-44.5314509146
 10
144.0656818934
 20
-44.5301113183
 10
144.0662880357
 20
-44.5285430536
 10
144.0669367166
 20
-44.5267293176
 10
144.0676310071
 20
-44.524656027
 10
144.0683735473
 20
-44.5222990019
 10
144.0691674845
 20
-44.5196401011
 10
144.0700160601
 20
-44.5166632327
 10
144.0709223553
 20
-44.513345673
 10
144.0718893154
 20
-44.5096729626
 10
144.0729207329
 20
-44.5056233871
 10
144.0740214604
 20
-44.501160638
 10
144.0751939332
 20
-44.4962725119
  0
LINE
  5
417
100
AcDbEntity
  8
RACCORDO
100
AcDbLine
 62
253
  6
CONTINUOUS
 10
144.0632084147
 20
44.5349261753
 11
144.0628690175
 21
44.5354013946
  0
LINE
  5
418
100
AcDbEntity
  8
RACCORDO
100
AcDbLine
 62
253
  6
CONTINUOUS
 10
144.0636943104
 20
44.5342249853
 11
144.0632084147
 21
44.5349261753
  0
LINE
  5
419
100
AcDbEntity
  8
RACCORDO
100
AcDbLine
 62
7
  6
CONTINUOUS
 10
140.9064827472
 20
-43.1747047249
 11
140.9096007441
 21
-43.1729962782
  0
LINE
  5
41A
100
AcDbEntity
  8
RACCORDO
100
AcDbLine
 62
7
  6
CONTINUOUS
 10
140.9096007441
 20
43.1729962782
 11
140.9035798954
 21
43.1759112549
  0
LWPOLYLINE
  5
41B
100
AcDbEntity
  8
RACCORDO
100
AcDbPolyline
 62
253
  6
CONTINUOUS
 90
15
 70
0
 10
146.2177480157
 20
44.8340076387
 10
146.2202514657
 20
44.8321538066
 10
146.2229187479
 20
44.8270218653
 10
146.2257355584
 20
44.8186297922
 10
146.2286868917
 20
44.8070085986
 10
146.2317623992
 20
44.7921957181
 10
146.2349557882
 20
44.774229062
 10
146.2382615645
 20
44.7531560785
 10
146.2416650493
 20
44.7290459579
 10
146.2451476243
 20
44.7019815838
 10
146.2487067849
 20
44.6720540731
 10
146.2523330232
 20
44.6393550269
 10
146.2559991236
 20
44.6039825974
 10
146.2597059952
 20
44.5660468189
 10
146.2634476599
 20
44.5256691293
  0
LINE
  5
41C
100
AcDbEntity
  8
RACCORDO
100
AcDbLine
 62
7
  6
CONTINUOUS
 10
140.9035388836
 20
-43.1759072002
 11
140.9064827472
 21
-43.1747047249
  0
LWPOLYLINE
  5
41D
100
AcDbEntity
  8
0
100
AcDbPolyline
 62
7
  6
CONTINUOUS
 90
25
 70
0
 10
143.8187754292
 20
-43.7
 10
143.8209358701
 20
-43.6991353306
 10
143.8232386331
 20
-43.6964488634
 10
143.8256934438
 20
-43.6917933666
 10
143.8283189977
 20
-43.6849611405
 10
143.8311202629
 20
-43.6758421656
 10
143.834081773
 20
-43.6645846005
 10
143.8372121288
 20
-43.651304595
 10
143.8405154737
 20
-43.6359364054
 10
143.8439635629
 20
-43.6185077214
 10
143.8475780775
 20
-43.5990040744
 10
143.8513525209
 20
-43.5774778401
 10
143.855213859
 20
-43.5540995327
 10
143.8591264801
 20
-43.5289321521
 10
143.8630849673
 20
-43.5021230364
 10
143.8670574691
 20
-43.4740371337
 10
143.8709936519
 20
-43.4449119911
 10
143.8748483226
 20
-43.4148747947
 10
143.8785993402
 20
-43.3841539189
 10
143.8822425667
 20
-43.3527433945
 10
143.8856973817
 20
-43.3209732108
 10
143.8888422295
 20
-43.2896002051
 10
143.8916303835
 20
-43.2589895794
 10
143.8940766184
 20
-43.2290829629
 10
143.8984367704
 20
-43.1678491821
  0
LINE
  5
41E
100
AcDbEntity
  8
RACCORDO
100
AcDbLine
 62
253
  6
CONTINUOUS
 10
141.4498316699
 20
43.3408592234
 11
141.6426274923
 21
43.3935170584
  0
LINE
  5
41F
100
AcDbEntity
  8
RACCORDO
100
AcDbLine
 62
7
  6
CONTINUOUS
 10
144.3772152435
 20
44.7
 11
144.1710743165
 21
44.6460653695
  0
LINE
  5
420
100
AcDbEntity
  8
RACCORDO
100
AcDbLine
 62
253
  6
CONTINUOUS
 10
141.6378475202
 20
43.3912388286
 11
141.8328908816
 21
43.4401170973
  0
LINE
  5
421
100
AcDbEntity
  8
RACCORDO
100
AcDbLine
 62
253
  6
CONTINUOUS
 10
141.8285034475
 20
43.4381218814
 11
142.0252332908
 21
43.4830889723
  0
LINE
  5
422
100
AcDbEntity
  8
RACCORDO
100
AcDbLine
 62
253
  6
CONTINUOUS
 10
142.0212530613
 20
43.4813628843
 11
142.2194571141
 21
43.5223879923
  0
LINE
  5
423
100
AcDbEntity
  8
RACCORDO
100
AcDbLine
 62
253
  6
CONTINUOUS
 10
144.5067893915
 20
44.0035194839
 11
144.2998619579
 21
43.965482902
  0
LINE
  5
424
100
AcDbEntity
  8
RACCORDO
100
AcDbLine
 62
253
  6
CONTINUOUS
 10
144.188500407
 20
43.8679120499
 11
144.3116106921
 21
43.8904819141
  0
LINE
  5
425
100
AcDbEntity
  8
RACCORDO
100
AcDbLine
 62
253
  6
CONTINUOUS
 10
142.2158986106
 20
43.5209169209
 11
142.4154390904
 21
43.557985298
  0
LWPOLYLINE
  5
426
100
AcDbEntity
  8
RACCORDO
100
AcDbPolyline
 62
253
  6
CONTINUOUS
 90
3
 70
0
 10
146.7570411455
 20
43.926800663
 10
146.7558152278
 20
43.9265850593
 10
146.3085931743
 20
43.8457940521
  0
LINE
  5
427
100
AcDbEntity
  8
RACCORDO
100
AcDbLine
 62
253
  6
CONTINUOUS
 10
142.4123149968
 20
43.5567546118
 11
142.6127264449
 21
43.5897991195
  0
LINE
  5
428
100
AcDbEntity
  8
RACCORDO
100
AcDbLine
 62
253
  6
CONTINUOUS
 10
142.6100441728
 20
43.588792959
 11
142.8111040407
 21
43.6178021705
  0
LINE
  5
429
100
AcDbEntity
  8
RACCORDO
100
AcDbLine
 62
253
  6
CONTINUOUS
 10
144.186276196
 20
43.9506319037
 11
144.2998619604
 21
43.9654829024
  0
LINE
  5
42A
100
AcDbEntity
  8
RACCORDO
100
AcDbLine
 62
253
  6
CONTINUOUS
 10
144.1733724625
 20
43.9490028943
 11
144.186276196
 21
43.9506319037
  0
LINE
  5
42B
100
AcDbEntity
  8
RACCORDO
100
AcDbLine
 62
253
  6
CONTINUOUS
 10
142.8088703474
 20
43.6170046168
 11
143.0104534639
 21
43.6419818114
  0
LWPOLYLINE
  5
42C
100
AcDbEntity
  8
RACCORDO
100
AcDbPolyline
 62
253
  6
CONTINUOUS
 90
5
 70
0
 10
143.0086735008
 20
43.6413768138
 10
143.2091310334
 20
43.6618743724
 10
143.410023542
 20
43.6784819556
 10
143.6112375855
 20
43.6911941504
 10
143.8126094519
 20
43.7
  0
LINE
  5
42D
100
AcDbEntity
  8
RACCORDO
100
AcDbLine
 62
7
  6
CONTINUOUS
 10
140.9035798954
 20
43.1759112549
 11
140.9035388889
 21
43.175907202
  0
LINE
  5
42E
100
AcDbEntity
  8
RACCORDO
100
AcDbLine
 62
253
  6
CONTINUOUS
 10
143.6159225995
 20
43.689503585
 11
143.8187754292
 21
43.7
  0
LWPOLYLINE
  5
42F
100
AcDbEntity
  8
SUPERFICI
100
AcDbPolyline
 62
7
  6
CONTINUOUS
 90
15
 70
0
 10
143.8126094519
 20
43.7
 10
143.6167205413
 20
43.6958800544
 10
143.4201974587
 20
43.6874840327
 10
143.2232043161
 20
43.6747695839
 10
143.0261941323
 20
43.6577228592
 10
142.8290565745
 20
43.6362879051
 10
142.6311351281
 20
43.6103054393
 10
142.4325455865
 20
43.579666443
 10
142.2336009239
 20
43.5442895293
 10
142.0339875475
 20
43.503966568
 10
141.8340117009
 20
43.4585812183
 10
141.6339052511
 20
43.4079991194
 10
141.4333071382
 20
43.3519038021
 10
141.2323436885
 20
43.2900566811
 10
141.0316016152
 20
43.2223488819
  0
LINE
  5
430
100
AcDbEntity
  8
0
100
AcDbLine
 62
7
  6
CONTINUOUS
 10
143.8187754292
 20
43.7
 11
143.8126094519
 21
43.7
  0
LINE
  5
431
100
AcDbEntity
  8
RACCORDO
100
AcDbLine
 62
253
  6
CONTINUOUS
 10
140.731832722
 20
42.6671480288
 11
140.8981022448
 21
42.6667703922
  0
LINE
  5
432
100
AcDbEntity
  8
RACCORDO
100
AcDbLine
 62
253
  6
CONTINUOUS
 10
140.7676025028
 20
42.4344888068
 11
140.8992608381
 21
42.4340277991
  0
LINE
  5
433
100
AcDbEntity
  8
RACCORDO
100
AcDbLine
 62
253
  6
CONTINUOUS
 10
140.731993815
 20
42.4347745536
 11
140.7676025028
 21
42.4344888068
  0
LWPOLYLINE
  5
434
100
AcDbEntity
  8
RACCORDO
100
AcDbPolyline
 62
253
  6
CONTINUOUS
 90
5
 70
0
 10
140.70836775
 20
42.6674180674
 10
140.7093183534
 20
42.6673626622
 10
140.7121641156
 20
42.6673076094
 10
140.7168870023
 20
42.6672532576
 10
140.731832722
 20
42.6671480288
  0
LINE
  5
435
100
AcDbEntity
  8
RACCORDO
100
AcDbLine
 62
253
  6
CONTINUOUS
 10
146.3085931768
 20
43.8457940385
 11
144.5067894336
 21
44.0035192549
  0
LWPOLYLINE
  5
436
100
AcDbEntity
  8
RACCORDO
100
AcDbPolyline
 62
253
  6
CONTINUOUS
 90
5
 70
0
 10
140.70836775
 20
42.4353099451
 10
140.7093249542
 20
42.4352000812
 10
140.7121904597
 20
42.4350909185
 10
140.7169459807
 20
42.4349831533
 10
140.731993815
 20
42.4347745536
  0
LINE
  5
437
100
AcDbEntity
  8
RACCORDO
100
AcDbLine
 62
7
  6
CONTINUOUS
 10
146.2177480157
 20
44.8340076387
 11
144.3204466441
 21
45.0
  0
ARC
  5
438
100
AcDbEntity
  8
RACCORDO
100
AcDbCircle
 62
7
  6
CONTINUOUS
 10
-300.2222019253
 20
-0.0
 40
450.0
100
AcDbArc
 50
357.1173180382
 51
2.882682159
  0
ARC
  5
439
100
AcDbEntity
  8
DRAFT
100
AcDbCircle
 62
7
  6
CONTINUOUS
 10
-300.2222019253
 20
-0.0
 40
447.8
100
AcDbArc
 50
357.1173130894
 51
2.8826869106
  0
ARC
  5
43A
100
AcDbEntity
  8
0
100
AcDbCircle
 62
7
  6
CONTINUOUS
 10
-17.4072619735
 20
-14.2411105033
 40
166.926732391
100
AcDbArc
 50
354.9696557406
 51
355.9449433456
  0
ARC
  5
43B
100
AcDbEntity
  8
RACCORDO
100
AcDbCircle
 62
7
  6
CONTINUOUS
 10
-17.4072619735
 20
-14.2411105033
 40
166.826732391
100
AcDbArc
 50
349.5756088776
 51
357.1173264383
  0
ARC
  5
43C
100
AcDbEntity
  8
RACCORDO
100
AcDbCircle
 62
7
  6
CONTINUOUS
 10
-17.4072619735
 20
-14.2411105033
 40
164.626732391
100
AcDbArc
 50
349.2315617336
 51
357.1173130894
  0
ARC
  5
43D
100
AcDbEntity
  8
RACCORDO
100
AcDbCircle
 62
7
  6
CONTINUOUS
 10
141.00836775
 20
-42.8897202654
 40
0.3
100
AcDbArc
 50
180.0000797545
 51
250.7783812117
  0
ARC
  5
43E
100
AcDbEntity
  8
RACCORDO
100
AcDbCircle
 62
7
  6
CONTINUOUS
 10
141.00836775
 20
-42.8833544107
 40
0.2999999956
100
AcDbArc
 50
184.8150578608
 51
228.1505756381
  0
ARC
  5
43F
100
AcDbEntity
  8
RACCORDO
100
AcDbCircle
 62
7
  6
CONTINUOUS
 10
140.90836775
 20
-42.4113525438
 40
0.2
100
AcDbArc
 50
162.1
 51
180.0
  0
ARC
  5
440
100
AcDbEntity
  8
RACCORDO
100
AcDbCircle
 62
7
  6
CONTINUOUS
 10
140.90836775
 20
-32.1386474562
 40
0.2
100
AcDbArc
 50
180.0
 51
185.5307150641
  0
ARC
  5
441
100
AcDbEntity
  8
RACCORDO
100
AcDbCircle
 62
7
  6
CONTINUOUS
 10
140.90836775
 20
-24.1534605474
 40
0.2
100
AcDbArc
 50
180.0000000001
 51
185.933379764
  0
ARC
  5
442
100
AcDbEntity
  8
RACCORDO
100
AcDbCircle
 62
7
  6
CONTINUOUS
 10
146.1741701443
 20
-44.3359102896
 40
0.5
100
AcDbArc
 50
275.0
 51
349.5756088776
  0
ARC
  5
443
100
AcDbEntity
  8
RACCORDO
100
AcDbCircle
 62
7
  6
CONTINUOUS
 10
144.2060739525
 20
-44.5001734944
 40
0.15
100
AcDbArc
 50
196.5000052497
 51
255.3378351335
  0
ARC
  5
444
100
AcDbEntity
  8
RACCORDO
100
AcDbCircle
 62
7
  6
CONTINUOUS
 10
142.40836775
 20
-3.2482701106
 40
0.3
100
AcDbArc
 50
280.0003646127
 51
0.0008039164
  0
ARC
  5
445
100
AcDbEntity
  8
RACCORDO
100
AcDbCircle
 62
7
  6
CONTINUOUS
 10
140.90836775
 20
-23.8465394526
 40
0.2
100
AcDbArc
 50
174.066624133
 51
180.0
  0
ARC
  5
446
100
AcDbEntity
  8
RACCORDO
100
AcDbCircle
 62
7
  6
CONTINUOUS
 10
140.90836775
 20
-8.1386474562
 40
0.2
100
AcDbArc
 50
180.0
 51
185.5307150641
  0
ARC
  5
447
100
AcDbEntity
  8
RACCORDO
100
AcDbCircle
 62
7
  6
CONTINUOUS
 10
140.90836775
 20
-4.0204738877
 40
0.2
100
AcDbArc
 50
100.0000152443
 51
180.000002855
  0
ARC
  5
448
100
AcDbEntity
  8
RACCORDO
100
AcDbCircle
 62
7
  6
CONTINUOUS
 10
-17.4072619735
 20
14.2411105033
 40
166.826732391
100
AcDbArc
 50
2.8826740936
 51
10.4243911224
  0
ARC
  5
449
100
AcDbEntity
  8
RACCORDO
100
AcDbCircle
 62
7
  6
CONTINUOUS
 10
-17.4072619735
 20
14.2411105033
 40
164.626732391
100
AcDbArc
 50
2.8826869106
 51
10.7684382664
  0
ARC
  5
44A
100
AcDbEntity
  8
RACCORDO
100
AcDbCircle
 62
7
  6
CONTINUOUS
 10
142.40836775
 20
3.2482701106
 40
0.3
100
AcDbArc
 50
359.9991931949
 51
79.9996358964
  0
ARC
  5
44B
100
AcDbEntity
  8
RACCORDO
100
AcDbCircle
 62
7
  6
CONTINUOUS
 10
140.90836775
 20
7.8613525438
 40
0.2
100
AcDbArc
 50
180.0
 51
185.5307150641
  0
ARC
  5
44C
100
AcDbEntity
  8
RACCORDO
100
AcDbCircle
 62
7
  6
CONTINUOUS
 10
140.9083675057
 20
4.0204739307
 40
0.2
100
AcDbArc
 50
180.0000101591
 51
260.0000613137
  0
ARC
  5
44D
100
AcDbEntity
  8
RACCORDO
100
AcDbCircle
 62
7
  6
CONTINUOUS
 10
140.90836775
 20
24.1534605474
 40
0.2
100
AcDbArc
 50
174.0666241331
 51
180.0
  0
ARC
  5
44E
100
AcDbEntity
  8
RACCORDO
100
AcDbCircle
 62
7
  6
CONTINUOUS
 10
141.00836775
 20
42.8897206797
 40
0.2999999954
100
AcDbArc
 50
109.2216446123
 51
179.9999996721
  0
ARC
  5
44F
100
AcDbEntity
  8
RACCORDO
100
AcDbCircle
 62
7
  6
CONTINUOUS
 10
141.00836775
 20
42.8833544107
 40
0.2999999956
100
AcDbArc
 50
131.8494243619
 51
175.1849421392
  0
ARC
  5
450
100
AcDbEntity
  8
RACCORDO
100
AcDbCircle
 62
7
  6
CONTINUOUS
 10
140.90836775
 20
42.4113525438
 40
0.2
100
AcDbArc
 50
180.0
 51
197.9000321746
  0
ARC
  5
451
100
AcDbEntity
  8
RACCORDO
100
AcDbCircle
 62
7
  6
CONTINUOUS
 10
146.1741706496
 20
44.3359075975
 40
0.5
100
AcDbArc
 50
10.4247050048
 51
85.000084574
  0
ARC
  5
452
100
AcDbEntity
  8
RACCORDO
100
AcDbCircle
 62
7
  6
CONTINUOUS
 10
144.2060739525
 20
44.5001734944
 40
0.15
100
AcDbArc
 50
104.6621648616
 51
163.4999947478
  0
ENDSEC
  0
SECTION
  2
OBJECTS
  0
DICTIONARY
  5
C
100
AcDbDictionary
280
0
281
1
  3
ACAD_GROUP
350
D
  3
ACAD_MLINESTYLE
350
17
  3
ACAD_LAYOUT
350
1A
  3
ACAD_PLOTSETTINGS
350
19
  3
ACAD_PLOTSTYLENAME
350
E
  0
DICTIONARY
  5
D
102
{ACAD_REACTORS
330
C
102
}
100
AcDbDictionary
280
0
281
1
  0
ACDBDICTIONARYWDFLT
  5
E
102
{ACAD_REACTORS
330
C
102
}
100
AcDbDictionary
281
1
  3
Normal
350
F
100
AcDbDictionaryWithDefault
340
F
  0
DICTIONARY
  5
17
102
{ACAD_REACTORS
330
C
102
}
100
AcDbDictionary
280
0
281
1
  3
Standard
350
18
  0
DICTIONARY
  5
19
102
{ACAD_REACTORS
330
C
102
}
100
AcDbDictionary
281
1
  0
DICTIONARY
  5
1A
102
{ACAD_REACTORS
330
C
102
}
100
AcDbDictionary
281
1
  3
Model
350
453
  3
Layout1
350
454
  0
ACDBPLACEHOLDER
  5
F
102
{ACAD_REACTORS
330
E
102
}
  0
MLINESTYLE
  5
18
102
{ACAD_REACTORS
330
17
102
}
100
AcDbMlineStyle
  2
STANDARD
 70
0
  3

 62
256
 51
90.0
 52
90.0
 71
2
 49
0.5
 62
256
  6
BYLAYER
 49
-0.5
 62
256
  6
BYLAYER
  0
LAYOUT
  5
453
102
{ACAD_REACTORS
330
1A
102
}
100
AcDbPlotSettings
  1

  2
none_device
  4
ISO_A4_(297.00_x_210.00_MM)
  6

 40
0.0
 41
0.0
 42
0.0
 43
0.0
 44
297.0
 45
210.0
 46
0.0
 47
0.0
 48
0.0
 49
0.0
140
0.0
141
0.0
142
1.0
143
1.0
 70
1024
 72
1
 73
0
 74
0
  7

 75
0
147
1.0
148
0.0
149
0.0
100
AcDbLayout
  1
Model
 70
0
 71
0
 10
0.0
 20
0.0
 11
297.0
 21
210.0
 12
0.0
 22
0.0
 32
0.0
 14
0.0
 24
0.0
 34
0.0
 15
0.0
 25
0.0
 35
0.0
146
0.0
 13
0.0
 23
0.0
 33
0.0
 16
1.0
 26
0.0
 36
0.0
 17
0.0
 27
1.0
 37
0.0
 76
0
330
212
345
0
346
0
  0
LAYOUT
  5
454
102
{ACAD_REACTORS
330
1A
102
}
100
AcDbPlotSettings
  1

  2
none_device
  4
ISO_A4_(297.00_x_210.00_MM)
  6

 40
0.0
 41
0.0
 42
0.0
 43
0.0
 44
297.0
 45
210.0
 46
0.0
 47
0.0
 48
0.0
 49
0.0
140
0.0
141
0.0
142
1.0
143
1.0
 70
0
 72
1
 73
0
 74
0
  7

 75
0
147
1.0
148
0.0
149
0.0
100
AcDbLayout
  1
Layout1
 70
0
 71
1
 10
0.0
 20
0.0
 11
297.0
 21
210.0
 12
0.0
 22
0.0
 32
0.0
 14
0.0
 24
0.0
 34
0.0
 15
0.0
 25
0.0
 35
0.0
146
0.0
 13
0.0
 23
0.0
 33
0.0
 16
1.0
 26
0.0
 36
0.0
 17
0.0
 27
1.0
 37
0.0
 76
0
330
213
345
0
346
0
  0
ENDSEC
  0
EOF
