  0
SECTION
  2
HEADER
  9
$ACADVER
  1
AC1024
  9
$DWGCODEPAGE
  3
ANSI_1252
  9
$EXTMAX
 10
297.0
 20
210.0
 30
0.0
  9
$EXTMIN
 10
0.0
 20
0.0
 30
0.0
  9
$LIMMIN
 10
0.0
 20
0.0
  9
$LIMMAX
 10
297.0
 20
210.0
  9
$VIEWCTR
 10
148.5
 20
105.0
  9
$VIEWSIZE
 40
210.0
  9
$CLAYER
  8
0
  9
$LTSCALE
 40
16.335
  9
$CELTYPE
  6
BYLAYER
  9
$DIMSCALE
 40
1.0
  9
$DIMASZ
 40
3.0
  9
$DIMEXO
 40
0.5
  9
$DIMDLI
 40
11.286
  9
$DIMEXE
 40
1.5
  9
$DIMCEN
 40
2.673
  9
$DIMLFAC
 40
1.0
  9
$DIMBLK
  1
_FILLED
  9
$DIMALT
 70
0
  9
$DIMALTF
 40
0.0393700787
  9
$DIMTXT
 40
3.0
  9
$DIMTOL
 70
1
  9
$DIMLIM
 70
0
  9
$DIMTFAC
 40
1.0
  9
$DIMTP
 40
0.01
  9
$DIMTM
 40
0.01
  9
$DIMGAP
 40
0.625
  9
$DIMDSEP
 70
44
  9
$AUNITS
 70
0
  9
$PDMODE
 70
3
  9
$PDSIZE
 40
3.0
  9
$HANDSEED
  5
49D
  9
$TILEMODE
 70
1
  9
$MEASUREMENT
 70
1
  9
$INSUNITS
 70
4
  0
ENDSEC
  0
SECTION
  2
CLASSES
  0
CLASS
  1
ACDBDICTIONARYWDFLT
  2
AcDbDictionaryWithDefault
  3
AutoCAD 2000
 90
0
 91
1
280
0
281
0
  0
CLASS
  1
ACDBPLACEHOLDER
  2
AcDbPlaceHolder
  3
AutoCAD 2000
 90
0
 91
1
280
0
281
0
  0
CLASS
  1
LAYOUT
  2
AcDbLayout
  3
AutoCAD 2000
 90
0
 91
0
280
0
281
0
  0
ENDSEC
  0
SECTION
  2
TABLES
  0
TABLE
  2
VPORT
  5
8
100
AcDbSymbolTable
 70
2
  0
VPORT
  5
1F4
100
AcDbSymbolTableRecord
100
AcDbViewportTableRecord
  2
*ACTIVE
 70
0
 10
0.0
 20
0.0
 11
1.0
 21
1.0
 12
148.5
 22
105.0
 13
0.0
 23
0.0
 14
1.0
 24
1.0
 15
0.0
 25
0.0
 16
0.0
 26
0.0
 36
1.0
 17
0.0
 27
0.0
 37
0.0
 40
210.0
 41
1.4142857143
 42
50.0
 43
0.0
 44
0.0
 50
0.0
 51
0.0
 71
0
 72
100
 73
1
 74
1
 75
0
 76
0
 77
0
 78
0
  0
ENDTAB
  0
TABLE
  2
LTYPE
  5
5
100
AcDbSymbolTable
 70
6
  0
LTYPE
  5
14
100
AcDbSymbolTableRecord
100
AcDbLinetypeTableRecord
  2
BYBLOCK
 70
0
  3

 72
65
 73
0
 40
0.0
  0
LTYPE
  5
15
100
AcDbSymbolTableRecord
100
AcDbLinetypeTableRecord
  2
BYLAYER
 70
0
  3

 72
65
 73
0
 40
0.0
  0
LTYPE
  5
16
100
AcDbSymbolTableRecord
100
AcDbLinetypeTableRecord
  2
CONTINUOUS
 70
64
  3
Solid line
 72
65
 73
0
 40
0.0
  0
LTYPE
  5
1F5
100
AcDbSymbolTableRecord
100
AcDbLinetypeTableRecord
  2
CENTER
 70
64
  3
____ _ ____ _ ____ _ ____ _ ____ _ ____ _ ____
 72
65
 73
4
 40
0.6
 49
0.375
 74
0
 49
-0.075
 74
0
 49
0.075
 74
0
 49
-0.075
 74
0
  0
LTYPE
  5
1F6
100
AcDbSymbolTableRecord
100
AcDbLinetypeTableRecord
  2
HIDDEN
 70
64
  3
- - - - - - - - - - - - - - - - - - - -
 72
65
 73
2
 40
0.2
 49
0.1
 74
0
 49
-0.1
 74
0
  0
LTYPE
  5
1F7
100
AcDbSymbolTableRecord
100
AcDbLinetypeTableRecord
  2
PHANTOM
 70
64
  3
_____ _ _ _____ _ _ _____ _ _ _____
 72
65
 73
6
 40
0.8
 49
0.45
 74
0
 49
-0.05
 74
0
 49
0.1
 74
0
 49
-0.05
 74
0
 49
0.1
 74
0
 49
-0.05
 74
0
  0
LTYPE
  5
1F8
100
AcDbSymbolTableRecord
100
AcDbLinetypeTableRecord
  2
DOT
 70
64
  3
. . . . . . . . . . . . . . . . . . . .
 72
65
 73
2
 40
0.2
 49
0.1
 74
0
 49
-0.1
 74
0
  0
LTYPE
  5
1F9
100
AcDbSymbolTableRecord
100
AcDbLinetypeTableRecord
  2
DASHED
 70
64
  3
- - - - - - - - - - - - - - - - - - - -
 72
65
 73
2
 40
0.2
 49
0.1
 74
0
 49
-0.1
 74
0
  0
ENDTAB
  0
TABLE
  2
LAYER
  5
2
100
AcDbSymbolTable
 70
36
  0
LAYER
  5
10
100
AcDbSymbolTableRecord
100
AcDbLayerTableRecord
  2
0
 70
0
 62
7
  6
CONTINUOUS
370
-3
390
F
  0
LAYER
  5
1FA
100
AcDbSymbolTableRecord
100
AcDbLayerTableRecord
  2
DEFAULT_1
 70
0
 62
7
  6
CENTER
370
-3
390
F
  0
LAYER
  5
1FB
100
AcDbSymbolTableRecord
100
AcDbLayerTableRecord
  2
DEFAULT_2
 70
0
 62
7
  6
HIDDEN
370
-3
390
F
  0
LAYER
  5
1FC
100
AcDbSymbolTableRecord
100
AcDbLayerTableRecord
  2
DEFAULT_3
 70
0
 62
7
  6
PHANTOM
370
-3
390
F
  0
LAYER
  5
1FD
100
AcDbSymbolTableRecord
100
AcDbLayerTableRecord
  2
ASSI
 70
0
 62
7
  6
CONTINUOUS
370
-3
390
F
  0
LAYER
  5
1FE
100
AcDbSymbolTableRecord
100
AcDbLayerTableRecord
  2
COORDINATE
 70
0
 62
7
  6
CONTINUOUS
370
-3
390
F
  0
LAYER
  5
1FF
100
AcDbSymbolTableRecord
100
AcDbLayerTableRecord
  2
COPY_PUBLISH
 70
0
 62
7
  6
CONTINUOUS
370
-3
390
F
  0
LAYER
  5
200
100
AcDbSymbolTableRecord
100
AcDbLayerTableRecord
  2
COSMETIC
 70
0
 62
7
  6
CONTINUOUS
370
-3
390
F
  0
LAYER
  5
201
100
AcDbSymbolTableRecord
100
AcDbLayerTableRecord
  2
COSMETICI
 70
0
 62
7
  6
CONTINUOUS
370
-3
390
F
  0
LAYER
  5
202
100
AcDbSymbolTableRecord
100
AcDbLayerTableRecord
  2
CURVE
 70
0
 62
7
  6
CONTINUOUS
370
-3
390
F
  0
LAYER
  5
203
100
AcDbSymbolTableRecord
100
AcDbLayerTableRecord
  2
CURVE_VERNICE
 70
0
 62
7
  6
CONTINUOUS
370
-3
390
F
  0
LAYER
  5
204
100
AcDbSymbolTableRecord
100
AcDbLayerTableRecord
  2
DRAFT
 70
0
 62
7
  6
CONTINUOUS
370
-3
390
F
  0
LAYER
  5
205
100
AcDbSymbolTableRecord
100
AcDbLayerTableRecord
  2
IMPORT_IGES
 70
0
 62
7
  6
CONTINUOUS
370
-3
390
F
  0
LAYER
  5
206
100
AcDbSymbolTableRecord
100
AcDbLayerTableRecord
  2
INTFCLR_1
 70
0
 62
7
  6
CONTINUOUS
370
-3
390
F
  0
LAYER
  5
207
100
AcDbSymbolTableRecord
100
AcDbLayerTableRecord
  2
INTF_1
 70
0
 62
7
  6
CONTINUOUS
370
-3
390
F
  0
LAYER
  5
208
100
AcDbSymbolTableRecord
100
AcDbLayerTableRecord
  2
NOTE
 70
0
 62
7
  6
CONTINUOUS
370
-3
390
F
  0
LAYER
  5
209
100
AcDbSymbolTableRecord
100
AcDbLayerTableRecord
  2
PIANI
 70
0
 62
7
  6
CONTINUOUS
370
-3
390
F
  0
LAYER
  5
20A
100
AcDbSymbolTableRecord
100
AcDbLayerTableRecord
  2
PUNTI
 70
0
 62
7
  6
CONTINUOUS
370
-3
390
F
  0
LAYER
  5
20B
100
AcDbSymbolTableRecord
100
AcDbLayerTableRecord
  2
RACCORDO
 70
0
 62
7
  6
CONTINUOUS
370
-3
390
F
  0
LAYER
  5
20C
100
AcDbSymbolTableRecord
100
AcDbLayerTableRecord
  2
SIMBOLI
 70
0
 62
7
  6
CONTINUOUS
370
-3
390
F
  0
LAYER
  5
20D
100
AcDbSymbolTableRecord
100
AcDbLayerTableRecord
  2
SMUSSO
 70
0
 62
7
  6
CONTINUOUS
370
-3
390
F
  0
LAYER
  5
20E
100
AcDbSymbolTableRecord
100
AcDbLayerTableRecord
  2
SNAPLINE
 70
0
 62
7
  6
CONTINUOUS
370
-3
390
F
  0
LAYER
  5
20F
100
AcDbSymbolTableRecord
100
AcDbLayerTableRecord
  2
SUPERFICI
 70
0
 62
7
  6
CONTINUOUS
370
-3
390
F
  0
LAYER
  5
210
100
AcDbSymbolTableRecord
100
AcDbLayerTableRecord
  2
TRASH
 70
0
 62
7
  6
CONTINUOUS
370
-3
390
F
  0
LAYER
  5
211
100
AcDbSymbolTableRecord
100
AcDbLayerTableRecord
  2
XSEC_DATUMS
 70
0
 62
7
  6
CONTINUOUS
370
-3
390
F
  0
ENDTAB
  0
TABLE
  2
STYLE
  5
3
100
AcDbSymbolTable
 70
1
  0
STYLE
  5
11
100
AcDbSymbolTableRecord
100
AcDbTextStyleTableRecord
  2
STANDARD
 70
0
 40
0.0
 41
0.8
 50
0.0
 71
0
 42
0.2
  3
txt
  4

  0
STYLE
  5
212
100
AcDbSymbolTableRecord
100
AcDbTextStyleTableRecord
  2
TEXTSTYLE_1
 70
0
 40
0.0
 41
0.8
 50
0.0
 71
0
 42
0.2
  3
gdt
  4

  0
ENDTAB
  0
TABLE
  2
VIEW
  5
6
100
AcDbSymbolTable
 70
0
  0
ENDTAB
  0
TABLE
  2
UCS
  5
7
100
AcDbSymbolTable
 70
0
  0
ENDTAB
  0
TABLE
  2
APPID
  5
9
100
AcDbSymbolTable
 70
1
  0
APPID
  5
213
100
AcDbSymbolTableRecord
100
AcDbRegAppTableRecord
  2
ACAD
 70
0
  0
ENDTAB
  0
TABLE
  2
BLOCK_RECORD
  5
1
100
AcDbSymbolTable
 70
0
  0
BLOCK_RECORD
  5
214
100
AcDbSymbolTableRecord
100
AcDbBlockTableRecord
  2
*Model_Space
  0
BLOCK_RECORD
  5
215
100
AcDbSymbolTableRecord
100
AcDbBlockTableRecord
  2
*Paper_Space
  0
BLOCK_RECORD
  5
216
100
AcDbSymbolTableRecord
100
AcDbBlockTableRecord
  2
_FILLED
  0
BLOCK_RECORD
  5
217
100
AcDbSymbolTableRecord
100
AcDbBlockTableRecord
  2
*D0
  0
BLOCK_RECORD
  5
218
100
AcDbSymbolTableRecord
100
AcDbBlockTableRecord
  2
*D1
  0
BLOCK_RECORD
  5
219
100
AcDbSymbolTableRecord
100
AcDbBlockTableRecord
  2
*D2
  0
ENDTAB
  0
TABLE
  2
DIMSTYLE
  5
A
100
AcDbSymbolTable
 70
1
100
AcDbDimStyleTable
 71
0
  0
DIMSTYLE
105
21A
100
AcDbSymbolTableRecord
100
AcDbDimStyleTableRecord
  2
STANDARD
 70
0
  3

  4

 40
1.0
 41
3.0
 42
0.5
 43
0.38
 44
1.5
 45
0.0
 46
0.0
 47
0.01
 48
0.01
140
3.0
141
0.09
142
0.0
143
25.4
144
1.0
145
0.0
146
1.0
147
0.625
 71
1
 72
0
 73
0
 74
0
 75
0
 76
0
 77
1
 78
8
 79
2
170
0
171
1
172
0
173
0
174
0
175
0
176
0
177
0
178
0
270
2
179
2
271
2
272
2
273
2
274
2
275
0
280
0
281
0
282
0
283
1
284
8
285
0
286
0
287
3
288
0
340
11
278
44
341
216
342
216
343
216
344
216
  0
DIMSTYLE
105
21B
100
AcDbSymbolTableRecord
100
AcDbDimStyleTableRecord
  2
DIMSTYLE_1
 70
0
  3

  4

 40
1.0
 41
3.0
 42
0.5
 43
0.38
 44
1.5
 45
0.0
 46
0.0
 47
0.0
 48
0.0
140
3.0
141
0.09
142
0.0
143
25.4
144
1.0
145
0.0
146
1.0
147
0.75
 71
0
 72
0
 73
0
 74
0
 75
0
 76
0
 77
1
 78
8
 79
2
170
0
171
1
172
0
173
0
174
0
175
0
176
0
177
0
178
0
270
2
179
2
271
2
272
2
273
2
274
2
275
0
280
0
281
0
282
0
283
1
284
8
285
0
286
0
287
3
288
0
340
11
278
44
341
216
342
216
343
216
344
216
  0
DIMSTYLE
105
21C
100
AcDbSymbolTableRecord
100
AcDbDimStyleTableRecord
  2
DIMSTYLE_2
 70
0
  3

  4

 40
1.0
 41
3.0
 42
0.5
 43
0.38
 44
1.5
 45
0.0
 46
0.0
 47
0.0
 48
0.0
140
3.0
141
0.09
142
0.0
143
25.4
144
1.0
145
0.0
146
1.0
147
0.75
 71
0
 72
0
 73
0
 74
0
 75
0
 76
0
 77
1
 78
8
 79
2
170
0
171
1
172
0
173
0
174
0
175
0
176
0
177
0
178
0
270
2
179
2
271
1
272
2
273
2
274
2
275
0
280
0
281
0
282
0
283
1
284
8
285
0
286
0
287
3
288
0
340
11
278
44
341
216
342
216
343
216
344
216
  0
ENDTAB
  0
ENDSEC
  0
SECTION
  2
BLOCKS
  0
BLOCK
  5
20
100
AcDbEntity
  8
0
100
AcDbBlockBegin
  2
*Model_Space
 70
0
 10
0.0
 20
0.0
 30
0.0
  3
*Model_Space
  1

  0
ENDBLK
  5
21
100
AcDbEntity
  8
0
100
AcDbBlockEnd
  0
BLOCK
  5
1C
100
AcDbEntity
  8
0
100
AcDbBlockBegin
  2
*Paper_Space
 70
0
 10
0.0
 20
0.0
 30
0.0
  3
*Paper_Space
  1

  0
ENDBLK
  5
1D
100
AcDbEntity
  8
0
100
AcDbBlockEnd
  0
BLOCK
  5
21D
100
AcDbEntity
  8
0
100
AcDbBlockBegin
  2
_FILLED
 70
64
 10
0.0
 20
0.0
  3
_FILLED
  1

  0
SOLID
  5
21E
100
AcDbEntity
  8
0
  6
BYBLOCK
 62
0
100
AcDbTrace
 10
0.0
 20
0.0
 11
-1.0
 21
0.3166666667
 12
-1.0
 22
-0.3166666667
 13
-1.0
 23
-0.3166666667
  0
ENDBLK
  5
21F
100
AcDbEntity
  8
0
  6
BYBLOCK
 62
0
100
AcDbBlockEnd
  0
BLOCK
  5
220
100
AcDbEntity
  8
0
100
AcDbBlockBegin
 62
7
  6
CONTINUOUS
  2
*D0
 70
65
 10
0.0
 20
0.0
  3
*D0
  1

  0
LINE
  5
221
100
AcDbEntity
  8
0
100
AcDbLine
 62
7
  6
CONTINUOUS
 10
-105.0
 20
44.5013704652
 11
-105.0
 21
59.5
  0
LINE
  5
222
100
AcDbEntity
  8
0
100
AcDbLine
 62
7
  6
CONTINUOUS
 10
105.0
 20
44.5013704652
 11
105.0
 21
59.5
  0
LINE
  5
223
100
AcDbEntity
  8
0
100
AcDbLine
 62
7
  6
CONTINUOUS
 10
-105.0
 20
58.0
 11
0.0
 21
58.0
  0
LINE
  5
224
100
AcDbEntity
  8
0
100
AcDbLine
 62
7
  6
CONTINUOUS
 10
105.0
 20
58.0
 11
0.0
 21
58.0
  0
INSERT
  5
225
100
AcDbEntity
  8
0
100
AcDbBlockReference
 62
7
  6
CONTINUOUS
  2
_FILLED
 10
-105.0
 20
58.0
 41
3.0
 42
3.0
 43
3.0
 50
180.0
  0
INSERT
  5
226
100
AcDbEntity
  8
0
100
AcDbBlockReference
 62
7
  6
CONTINUOUS
  2
_FILLED
 10
105.0
 20
58.0
 41
3.0
 42
3.0
 43
3.0
  0
ENDBLK
  5
227
100
AcDbEntity
  8
0
  6
BYBLOCK
 62
0
100
AcDbBlockEnd
  0
BLOCK
  5
228
100
AcDbEntity
  8
0
100
AcDbBlockBegin
 62
7
  6
CONTINUOUS
  2
*D1
 70
65
 10
0.0
 20
0.0
  3
*D1
  1

  0
LINE
  5
229
100
AcDbEntity
  8
0
100
AcDbLine
 62
7
  6
CONTINUOUS
 10
104.5013704652
 20
45.0
 11
159.5
 21
45.0
  0
LINE
  5
22A
100
AcDbEntity
  8
0
100
AcDbLine
 62
7
  6
CONTINUOUS
 10
104.5013704652
 20
-45.0
 11
159.5
 21
-45.0
  0
LINE
  5
22B
100
AcDbEntity
  8
0
100
AcDbLine
 62
7
  6
CONTINUOUS
 10
158.0
 20
45.0
 11
158.0
 21
-0.0
  0
LINE
  5
22C
100
AcDbEntity
  8
0
100
AcDbLine
 62
7
  6
CONTINUOUS
 10
158.0
 20
-45.0
 11
158.0
 21
-0.0
  0
INSERT
  5
22D
100
AcDbEntity
  8
0
100
AcDbBlockReference
 62
7
  6
CONTINUOUS
  2
_FILLED
 10
158.0
 20
45.0
 41
3.0
 42
3.0
 43
3.0
 50
90.0
  0
INSERT
  5
22E
100
AcDbEntity
  8
0
100
AcDbBlockReference
 62
7
  6
CONTINUOUS
  2
_FILLED
 10
158.0
 20
-45.0
 41
3.0
 42
3.0
 43
3.0
 50
270.0
  0
ENDBLK
  5
22F
100
AcDbEntity
  8
0
  6
BYBLOCK
 62
0
100
AcDbBlockEnd
  0
BLOCK
  5
230
100
AcDbEntity
  8
0
100
AcDbBlockBegin
 62
7
  6
CONTINUOUS
  2
*D2
 70
65
 10
0.0
 20
0.0
  3
*D2
  1

  0
LINE
  5
231
100
AcDbEntity
  8
0
100
AcDbLine
 62
7
  6
CONTINUOUS
 10
-125.1705053734
 20
43.5970753632
 11
-125.1705053658
 21
59.499999998
  0
LINE
  5
232
100
AcDbEntity
  8
0
100
AcDbLine
 62
7
  6
CONTINUOUS
 10
-133.7417845086
 20
0.5000002129
 11
-133.7417844807
 21
59.500000002
  0
LINE
  5
233
100
AcDbEntity
  8
0
100
AcDbLine
 62
7
  6
CONTINUOUS
 10
-125.1705053666
 20
57.999999998
 11
-121.1705053666
 21
57.9999999961
  0
LINE
  5
234
100
AcDbEntity
  8
0
100
AcDbLine
 62
7
  6
CONTINUOUS
 10
-121.1705053666
 20
57.9999999961
 11
-129.456144924
 21
58.0
  0
LINE
  5
235
100
AcDbEntity
  8
0
100
AcDbLine
 62
7
  6
CONTINUOUS
 10
-133.7417844814
 20
58.000000002
 11
-137.7417844814
 21
58.0000000039
  0
LINE
  5
236
100
AcDbEntity
  8
0
100
AcDbLine
 62
7
  6
CONTINUOUS
 10
-137.7417844814
 20
58.0000000039
 11
-129.456144924
 21
58.0
  0
INSERT
  5
237
100
AcDbEntity
  8
0
100
AcDbBlockReference
 62
7
  6
CONTINUOUS
  2
_FILLED
 10
-125.1705053666
 20
57.999999998
 41
3.0
 42
3.0
 43
3.0
 50
179.9999999729
  0
INSERT
  5
238
100
AcDbEntity
  8
0
100
AcDbBlockReference
 62
7
  6
CONTINUOUS
  2
_FILLED
 10
-133.7417844814
 20
58.000000002
 41
3.0
 42
3.0
 43
3.0
 50
359.9999999729
  0
ENDBLK
  5
239
100
AcDbEntity
  8
0
  6
BYBLOCK
 62
0
100
AcDbBlockEnd
  0
ENDSEC
  0
SECTION
  2
ENTITIES
  0
DIMENSION
  5
23A
100
AcDbEntity
  8
0
100
AcDbDimension
 62
7
  6
CONTINUOUS
  2
*D0
 10
105.0
 20
58.0
 11
-3.2142857143
 21
58.0
 70
160
 71
2
 72
2
 41
0.9
 42
210.0
  3
DIMSTYLE_1
100
AcDbAlignedDimension
 13
-105.0
 23
44.0013704652
 14
105.0
 24
44.0013704652
100
AcDbRotatedDimension
  0
DIMENSION
  5
23B
100
AcDbEntity
  8
0
100
AcDbDimension
 62
7
  6
CONTINUOUS
  2
*D1
 10
158.0
 20
-45.0
 11
158.0
 21
-2.3571428571
 70
160
 71
2
 72
2
 41
0.9
 42
90.0
  3
DIMSTYLE_1
100
AcDbAlignedDimension
 13
104.0013704652
 23
45.0
 14
104.0013704652
 24
-45.0
 50
270.0
100
AcDbRotatedDimension
  0
DIMENSION
  5
23C
100
AcDbEntity
  8
0
100
AcDbDimension
 62
7
  6
CONTINUOUS
  2
*D2
 10
-133.7417844814
 20
58.000000002
 11
-132.6704306375
 21
58.0000000015
 70
160
 71
2
 72
2
 41
0.9
 42
8.5712791148
  3
DIMSTYLE_2
100
AcDbAlignedDimension
 13
-125.1705053736
 23
43.0970753632
 14
-133.7417845088
 24
0.0000002129
 50
179.9999999729
100
AcDbRotatedDimension
  0
LINE
  5
23D
100
AcDbEntity
  8
RACCORDO
100
AcDbLine
 62
7
  6
CONTINUOUS
 10
-105.0
 20
-44.0013704652
 11
-105.0
 21
44.0013704652
  0
LINE
  5
23E
100
AcDbEntity
  8
ASSI
100
AcDbLine
 62
7
  6
CONTINUOUS
 10
-105.0
 20
-44.0013704652
 11
-105.0
 21
44.0013704652
  0
LINE
  5
23F
100
AcDbEntity
  8
RACCORDO
100
AcDbLine
 62
250
  6
CONTINUOUS
 10
-103.8781758769
 20
-44.6316825048
 11
-103.8781758769
 21
-44.8768054117
  0
LINE
  5
240
100
AcDbEntity
  8
ASSI
100
AcDbLine
 62
250
  6
CONTINUOUS
 10
-103.8781758769
 20
-44.6316825048
 11
-103.8781758769
 21
-44.8768054117
  0
LINE
  5
241
100
AcDbEntity
  8
RACCORDO
100
AcDbLine
 62
250
  6
CONTINUOUS
 10
-103.8781758769
 20
44.6316825048
 11
-103.8781758772
 21
44.8768054117
  0
LINE
  5
242
100
AcDbEntity
  8
ASSI
100
AcDbLine
 62
250
  6
CONTINUOUS
 10
-103.8781758769
 20
44.6316825048
 11
-103.8781758772
 21
44.8768054117
  0
LINE
  5
243
100
AcDbEntity
  8
0
100
AcDbLine
 62
250
  6
CONTINUOUS
 10
-81.498283
 20
28.14927
 11
-81.498283
 21
26.4507299861
  0
LINE
  5
244
100
AcDbEntity
  8
0
100
AcDbLine
 62
250
  6
CONTINUOUS
 10
-81.398369
 20
28.049356
 11
-81.398369
 21
26.5506439811
  0
LINE
  5
245
100
AcDbEntity
  8
0
100
AcDbLine
 62
250
  6
CONTINUOUS
 10
-81.298454
 20
27.949442
 11
-81.298454
 21
26.6505579787
  0
LINE
  5
246
100
AcDbEntity
  8
0
100
AcDbLine
 62
250
  6
CONTINUOUS
 10
-80.34927
 20
29.298283
 11
-80.34927
 21
28.1492700125
  0
LINE
  5
247
100
AcDbEntity
  8
0
100
AcDbLine
 62
250
  6
CONTINUOUS
 10
-80.34927
 20
26.45073
 11
-80.34927
 21
25.3017170125
  0
LINE
  5
248
100
AcDbEntity
  8
0
100
AcDbLine
 62
250
  6
CONTINUOUS
 10
-80.249356
 20
29.198369
 11
-80.249356
 21
28.0493560119
  0
LINE
  5
249
100
AcDbEntity
  8
0
100
AcDbLine
 62
250
  6
CONTINUOUS
 10
-80.249356
 20
26.550644
 11
-80.249356
 21
25.4016309866
  0
LINE
  5
24A
100
AcDbEntity
  8
0
100
AcDbLine
 62
250
  6
CONTINUOUS
 10
-80.149442
 20
29.098454
 11
-80.149442
 21
27.9494419761
  0
LINE
  5
24B
100
AcDbEntity
  8
0
100
AcDbLine
 62
250
  6
CONTINUOUS
 10
-80.149442
 20
26.650558
 11
-80.149442
 21
25.5015460004
  0
LINE
  5
24C
100
AcDbEntity
  8
0
100
AcDbLine
 62
250
  6
CONTINUOUS
 10
-78.850558
 20
25.501546
 11
-78.850558
 21
26.6505579996
  0
LINE
  5
24D
100
AcDbEntity
  8
0
100
AcDbLine
 62
250
  6
CONTINUOUS
 10
-78.850558
 20
27.949442
 11
-78.850558
 21
29.0984540239
  0
LINE
  5
24E
100
AcDbEntity
  8
0
100
AcDbLine
 62
7
  6
CONTINUOUS
 10
-78.85
 20
-21.7010963722
 11
-78.85
 21
21.7010963722
  0
LINE
  5
24F
100
AcDbEntity
  8
ASSI
100
AcDbLine
 62
7
  6
CONTINUOUS
 10
-78.85
 20
-21.7010963722
 11
-78.85
 21
21.7010963722
  0
LINE
  5
250
100
AcDbEntity
  8
0
100
AcDbLine
 62
250
  6
CONTINUOUS
 10
-78.750644
 20
25.401631
 11
-78.750644
 21
26.5506440134
  0
LINE
  5
251
100
AcDbEntity
  8
0
100
AcDbLine
 62
250
  6
CONTINUOUS
 10
-78.750644
 20
28.049356
 11
-78.750644
 21
29.1983689882
  0
LINE
  5
252
100
AcDbEntity
  8
ASSI
100
AcDbLine
 62
250
  6
CONTINUOUS
 10
-78.75
 20
-21.5
 11
-78.75
 21
21.5
  0
LINE
  5
253
100
AcDbEntity
  8
0
100
AcDbLine
 62
250
  6
CONTINUOUS
 10
-78.65073
 20
25.301717
 11
-78.65073
 21
26.4507299876
  0
LINE
  5
254
100
AcDbEntity
  8
0
100
AcDbLine
 62
250
  6
CONTINUOUS
 10
-78.65073
 20
28.14927
 11
-78.65073
 21
29.2982829875
  0
LINE
  5
255
100
AcDbEntity
  8
RACCORDO
100
AcDbLine
 62
250
  6
CONTINUOUS
 10
-78.1926456448
 20
23.1675430277
 11
-78.1926456448
 21
22.6415492726
  0
LINE
  5
256
100
AcDbEntity
  8
ASSI
100
AcDbLine
 62
250
  6
CONTINUOUS
 10
-78.1926456448
 20
23.1675430277
 11
-78.1926456448
 21
22.6415492726
  0
LINE
  5
257
100
AcDbEntity
  8
RACCORDO
100
AcDbLine
 62
250
  6
CONTINUOUS
 10
-78.1926456448
 20
-23.1675430277
 11
-78.1926456448
 21
-22.6415492726
  0
LINE
  5
258
100
AcDbEntity
  8
ASSI
100
AcDbLine
 62
250
  6
CONTINUOUS
 10
-78.1926456448
 20
-23.1675430277
 11
-78.1926456448
 21
-22.6415492726
  0
LINE
  5
259
100
AcDbEntity
  8
0
100
AcDbLine
 62
250
  6
CONTINUOUS
 10
-77.701546
 20
26.650558
 11
-77.701546
 21
27.9494420213
  0
LINE
  5
25A
100
AcDbEntity
  8
0
100
AcDbLine
 62
250
  6
CONTINUOUS
 10
-77.601631
 20
26.550644
 11
-77.601631
 21
28.0493560189
  0
LINE
  5
25B
100
AcDbEntity
  8
0
100
AcDbLine
 62
250
  6
CONTINUOUS
 10
-77.501717
 20
26.45073
 11
-77.501717
 21
28.1492700139
  0
LINE
  5
25C
100
AcDbEntity
  8
0
100
AcDbLine
 62
250
  6
CONTINUOUS
 10
-74.104637
 20
28.698798
 11
-74.104637
 21
25.9012020459
  0
LINE
  5
25D
100
AcDbEntity
  8
0
100
AcDbLine
 62
250
  6
CONTINUOUS
 10
-72.705839
 20
28.698798
 11
-72.705839
 21
25.9012020459
  0
LINE
  5
25E
100
AcDbEntity
  8
0
100
AcDbLine
 62
250
  6
CONTINUOUS
 10
-75.703263
 20
28.698798
 11
-76.502576
 21
25.901202
  0
LINE
  5
25F
100
AcDbEntity
  8
0
100
AcDbLine
 62
250
  6
CONTINUOUS
 10
-71.107212
 20
28.698798
 11
-71.107212
 21
25.9012020459
  0
LINE
  5
260
100
AcDbEntity
  8
0
100
AcDbLine
 62
250
  6
CONTINUOUS
 10
-68.975711
 20
28.698798
 11
-68.975711
 21
25.9012020459
  0
LINE
  5
261
100
AcDbEntity
  8
0
100
AcDbLine
 62
250
  6
CONTINUOUS
 10
-67.765116
 20
28.698798
 11
-68.009874
 21
25.901202
  0
LINE
  5
262
100
AcDbEntity
  8
0
100
AcDbLine
 62
250
  6
CONTINUOUS
 10
-67.550815
 20
27.151192
 11
-67.628929
 21
26.258342
  0
LINE
  5
263
100
AcDbEntity
  8
0
100
AcDbLine
 62
250
  6
CONTINUOUS
 10
-67.519569
 20
27.508332
 11
-67.446663
 21
28.341658
  0
LINE
  5
264
100
AcDbEntity
  8
0
100
AcDbLine
 62
250
  6
CONTINUOUS
 10
-66.020827
 20
27.984518
 11
-66.031242
 21
27.865471
  0
LINE
  5
265
100
AcDbEntity
  8
0
100
AcDbLine
 62
250
  6
CONTINUOUS
 10
-66.140602
 20
26.615482
 11
-66.12498
 21
26.794052
  0
LINE
  5
266
100
AcDbEntity
  8
0
100
AcDbLine
 62
250
  6
CONTINUOUS
 10
-65.686751
 20
27.805948
 11
-65.66592
 21
28.044042
  0
LINE
  5
267
100
AcDbEntity
  8
0
100
AcDbLine
 62
250
  6
CONTINUOUS
 10
-65.79611
 20
26.555959
 11
-65.770072
 21
26.853575
  0
LINE
  5
268
100
AcDbEntity
  8
0
100
AcDbLine
 62
250
  6
CONTINUOUS
 10
-62.428096
 20
27.746425
 11
-62.506211
 21
26.853575
  0
LINE
  5
269
100
AcDbEntity
  8
0
100
AcDbLine
 62
250
  6
CONTINUOUS
 10
-62.156511
 20
26.853575
 11
-62.078397
 21
27.746425
  0
LINE
  5
26A
100
AcDbEntity
  8
0
100
AcDbLine
 62
250
  6
CONTINUOUS
 10
-59.605462
 20
28.698798
 11
-59.6315
 21
28.401181
  0
LINE
  5
26B
100
AcDbEntity
  8
0
100
AcDbLine
 62
250
  6
CONTINUOUS
 10
-62.343775
 20
28.044042
 11
-62.428096
 21
27.746425
  0
LINE
  5
26C
100
AcDbEntity
  8
0
100
AcDbLine
 62
250
  6
CONTINUOUS
 10
-60.338316
 20
26.317865
 11
-60.253994
 21
26.615482
  0
LINE
  5
26D
100
AcDbEntity
  8
0
100
AcDbLine
 62
250
  6
CONTINUOUS
 10
-62.078397
 20
27.746425
 11
-61.999283
 21
27.984518
  0
LINE
  5
26E
100
AcDbEntity
  8
0
100
AcDbLine
 62
250
  6
CONTINUOUS
 10
-66.031242
 20
27.865471
 11
-66.105148
 21
27.686902
  0
LINE
  5
26F
100
AcDbEntity
  8
0
100
AcDbLine
 62
250
  6
CONTINUOUS
 10
-65.760657
 20
27.627378
 11
-65.686751
 21
27.805948
  0
LINE
  5
270
100
AcDbEntity
  8
0
100
AcDbLine
 62
250
  6
CONTINUOUS
 10
-66.214508
 20
26.436912
 11
-66.140602
 21
26.615482
  0
LINE
  5
271
100
AcDbEntity
  8
0
100
AcDbLine
 62
250
  6
CONTINUOUS
 10
-65.870017
 20
26.377389
 11
-65.79611
 21
26.555959
  0
LINE
  5
272
100
AcDbEntity
  8
0
100
AcDbLine
 62
250
  6
CONTINUOUS
 10
-63.997536
 20
28.460705
 11
-64.662691
 21
26.853575
  0
LINE
  5
273
100
AcDbEntity
  8
0
100
AcDbLine
 62
250
  6
CONTINUOUS
 10
-65.037429
 20
25.901202
 11
-64.741804
 21
26.615482
  0
LINE
  5
274
100
AcDbEntity
  8
0
100
AcDbLine
 62
250
  6
CONTINUOUS
 10
-60.603694
 20
26.615482
 11
-60.6776
 21
26.436912
  0
LINE
  5
275
100
AcDbEntity
  8
0
100
AcDbLine
 62
250
  6
CONTINUOUS
 10
-64.209838
 20
28.698798
 11
-65.387128
 21
25.901202
  0
LINE
  5
276
100
AcDbEntity
  8
0
100
AcDbLine
 62
250
  6
CONTINUOUS
 10
-62.206378
 20
28.282135
 11
-62.343775
 21
28.044042
  0
LINE
  5
277
100
AcDbEntity
  8
0
100
AcDbLine
 62
250
  6
CONTINUOUS
 10
-61.999283
 20
27.984518
 11
-61.867094
 21
28.163088
  0
LINE
  5
278
100
AcDbEntity
  8
0
100
AcDbLine
 62
250
  6
CONTINUOUS
 10
-65.956337
 20
27.389285
 11
-65.760657
 21
27.627378
  0
LINE
  5
279
100
AcDbEntity
  8
0
100
AcDbLine
 62
250
  6
CONTINUOUS
 10
-66.065697
 20
26.139295
 11
-65.870017
 21
26.377389
  0
LINE
  5
27A
100
AcDbEntity
  8
0
100
AcDbLine
 62
250
  6
CONTINUOUS
 10
-66.105148
 20
27.686902
 11
-66.23213
 21
27.567855
  0
LINE
  5
27B
100
AcDbEntity
  8
0
100
AcDbLine
 62
250
  6
CONTINUOUS
 10
-66.34149
 20
26.317865
 11
-66.214508
 21
26.436912
  0
LINE
  5
27C
100
AcDbEntity
  8
0
100
AcDbLine
 62
250
  6
CONTINUOUS
 10
-61.952415
 20
28.520228
 11
-62.206378
 21
28.282135
  0
LINE
  5
27D
100
AcDbEntity
  8
0
100
AcDbLine
 62
250
  6
CONTINUOUS
 10
-74.90395
 20
25.901202
 11
-75.703263
 21
28.698798
  0
LINE
  5
27E
100
AcDbEntity
  8
0
100
AcDbLine
 62
250
  6
CONTINUOUS
 10
-62.506211
 20
26.853575
 11
-62.473965
 21
26.555959
  0
LINE
  5
27F
100
AcDbEntity
  8
0
100
AcDbLine
 62
250
  6
CONTINUOUS
 10
-60.134219
 20
27.984518
 11
-60.166464
 21
28.282135
  0
LINE
  5
280
100
AcDbEntity
  8
0
100
AcDbLine
 62
250
  6
CONTINUOUS
 10
-58.698968
 20
28.401181
 11
-58.917688
 21
25.901202
  0
LINE
  5
281
100
AcDbEntity
  8
0
100
AcDbLine
 62
250
  6
CONTINUOUS
 10
-58.567988
 20
25.901202
 11
-58.349269
 21
28.401181
  0
LINE
  5
282
100
AcDbEntity
  8
0
100
AcDbLine
 62
250
  6
CONTINUOUS
 10
-57.416737
 20
28.401181
 11
-57.390699
 21
28.698798
  0
LINE
  5
283
100
AcDbEntity
  8
0
100
AcDbLine
 62
250
  6
CONTINUOUS
 10
-56.924433
 20
28.698798
 11
-57.169191
 21
25.901202
  0
LINE
  5
284
100
AcDbEntity
  8
0
100
AcDbLine
 62
250
  6
CONTINUOUS
 10
-56.673678
 20
27.567855
 11
-56.605979
 21
28.341658
  0
LINE
  5
285
100
AcDbEntity
  8
0
100
AcDbLine
 62
250
  6
CONTINUOUS
 10
-56.788245
 20
26.258342
 11
-56.704924
 21
27.210715
  0
LINE
  5
286
100
AcDbEntity
  8
0
100
AcDbLine
 62
250
  6
CONTINUOUS
 10
-55.18956
 20
27.210715
 11
-55.158314
 21
27.567855
  0
LINE
  5
287
100
AcDbEntity
  8
0
100
AcDbLine
 62
250
  6
CONTINUOUS
 10
-55.070994
 20
25.901202
 11
-55.039748
 21
26.258342
  0
LINE
  5
288
100
AcDbEntity
  8
0
100
AcDbLine
 62
250
  6
CONTINUOUS
 10
-54.857481
 20
28.341658
 11
-54.826236
 21
28.698798
  0
LINE
  5
289
100
AcDbEntity
  8
0
100
AcDbLine
 62
250
  6
CONTINUOUS
 10
-54.604728
 20
25.901202
 11
-54.35997
 21
28.698798
  0
LINE
  5
28A
100
AcDbEntity
  8
0
100
AcDbLine
 62
250
  6
CONTINUOUS
 10
-54.145669
 20
27.151192
 11
-54.255029
 21
25.901202
  0
LINE
  5
28B
100
AcDbEntity
  8
0
100
AcDbLine
 62
250
  6
CONTINUOUS
 10
-54.114423
 20
27.508332
 11
-54.036309
 21
28.401181
  0
LINE
  5
28C
100
AcDbEntity
  8
0
100
AcDbLine
 62
250
  6
CONTINUOUS
 10
-52.610473
 20
28.044042
 11
-52.626096
 21
27.865471
  0
LINE
  5
28D
100
AcDbEntity
  8
0
100
AcDbLine
 62
250
  6
CONTINUOUS
 10
-52.260773
 20
28.044042
 11
-52.281604
 21
27.805948
  0
LINE
  5
28E
100
AcDbEntity
  8
0
100
AcDbLine
 62
250
  6
CONTINUOUS
 10
-51.67894
 20
28.698798
 11
-51.923698
 21
25.901202
  0
LINE
  5
28F
100
AcDbEntity
  8
0
100
AcDbLine
 62
250
  6
CONTINUOUS
 10
-51.573999
 20
25.901202
 11
-51.329241
 21
28.698798
  0
LINE
  5
290
100
AcDbEntity
  8
0
100
AcDbLine
 62
250
  6
CONTINUOUS
 10
-52.626096
 20
27.865471
 11
-52.700002
 21
27.686902
  0
LINE
  5
291
100
AcDbEntity
  8
0
100
AcDbLine
 62
250
  6
CONTINUOUS
 10
-52.281604
 20
27.805948
 11
-52.35551
 21
27.627378
  0
LINE
  5
292
100
AcDbEntity
  8
0
100
AcDbLine
 62
250
  6
CONTINUOUS
 10
-49.71814
 20
28.460705
 11
-50.383295
 21
26.853575
  0
LINE
  5
293
100
AcDbEntity
  8
0
100
AcDbLine
 62
250
  6
CONTINUOUS
 10
-50.758034
 20
25.901202
 11
-50.462409
 21
26.615482
  0
LINE
  5
294
100
AcDbEntity
  8
0
100
AcDbLine
 62
250
  6
CONTINUOUS
 10
-49.930443
 20
28.698798
 11
-51.107733
 21
25.901202
  0
LINE
  5
295
100
AcDbEntity
  8
0
100
AcDbLine
 62
250
  6
CONTINUOUS
 10
-52.35551
 20
27.627378
 11
-52.551191
 21
27.389285
  0
LINE
  5
296
100
AcDbEntity
  8
0
100
AcDbLine
 62
250
  6
CONTINUOUS
 10
-60.592279
 20
26.079772
 11
-60.338316
 21
26.317865
  0
LINE
  5
297
100
AcDbEntity
  8
0
100
AcDbLine
 62
250
  6
CONTINUOUS
 10
-52.700002
 20
27.686902
 11
-52.826984
 21
27.567855
  0
LINE
  5
298
100
AcDbEntity
  8
0
100
AcDbLine
 62
250
  6
CONTINUOUS
 10
-66.314453
 20
25.960725
 11
-66.065697
 21
26.139295
  0
LINE
  5
299
100
AcDbEntity
  8
0
100
AcDbLine
 62
250
  6
CONTINUOUS
 10
-61.867094
 20
28.163088
 11
-61.681829
 21
28.282135
  0
LINE
  5
29A
100
AcDbEntity
  8
0
100
AcDbLine
 62
250
  6
CONTINUOUS
 10
-60.6776
 20
26.436912
 11
-60.862865
 21
26.317865
  0
LINE
  5
29B
100
AcDbEntity
  8
0
100
AcDbLine
 62
250
  6
CONTINUOUS
 10
-66.078111
 20
27.329762
 11
-65.956337
 21
27.389285
  0
LINE
  5
29C
100
AcDbEntity
  8
0
100
AcDbLine
 62
250
  6
CONTINUOUS
 10
-61.708866
 20
28.639275
 11
-61.952415
 21
28.520228
  0
LINE
  5
29D
100
AcDbEntity
  8
0
100
AcDbLine
 62
250
  6
CONTINUOUS
 10
-72.705839
 20
25.901202
 11
-74.104637
 21
28.698798
  0
LINE
  5
29E
100
AcDbEntity
  8
0
100
AcDbLine
 62
250
  6
CONTINUOUS
 10
-63.055798
 20
25.901202
 11
-63.743572
 21
28.698798
  0
LINE
  5
29F
100
AcDbEntity
  8
0
100
AcDbLine
 62
250
  6
CONTINUOUS
 10
-66.12498
 20
26.794052
 11
-66.16764
 21
26.972622
  0
LINE
  5
2A0
100
AcDbEntity
  8
0
100
AcDbLine
 62
250
  6
CONTINUOUS
 10
-65.770072
 20
26.853575
 11
-65.812733
 21
27.032145
  0
LINE
  5
2A1
100
AcDbEntity
  8
0
100
AcDbLine
 62
250
  6
CONTINUOUS
 10
-66.063488
 20
28.163088
 11
-66.020827
 21
27.984518
  0
LINE
  5
2A2
100
AcDbEntity
  8
0
100
AcDbLine
 62
250
  6
CONTINUOUS
 10
-65.66592
 20
28.044042
 11
-65.70858
 21
28.222611
  0
LINE
  5
2A3
100
AcDbEntity
  8
0
100
AcDbLine
 62
250
  6
CONTINUOUS
 10
-63.576139
 20
26.615482
 11
-63.405498
 21
25.901202
  0
LINE
  5
2A4
100
AcDbEntity
  8
0
100
AcDbLine
 62
250
  6
CONTINUOUS
 10
-63.613592
 20
26.853575
 11
-63.997536
 21
28.460705
  0
LINE
  5
2A5
100
AcDbEntity
  8
0
100
AcDbLine
 62
250
  6
CONTINUOUS
 10
-60.526579
 20
28.163088
 11
-60.483919
 21
27.984518
  0
LINE
  5
2A6
100
AcDbEntity
  8
0
100
AcDbLine
 62
250
  6
CONTINUOUS
 10
-62.119059
 20
26.615482
 11
-62.156511
 21
26.853575
  0
LINE
  5
2A7
100
AcDbEntity
  8
0
100
AcDbLine
 62
250
  6
CONTINUOUS
 10
-48.06538
 20
28.698798
 11
-48.310138
 21
25.901202
  0
LINE
  5
2A8
100
AcDbEntity
  8
0
100
AcDbLine
 62
250
  6
CONTINUOUS
 10
-47.929192
 20
26.258342
 11
-47.71568
 21
28.698798
  0
LINE
  5
2A9
100
AcDbEntity
  8
0
100
AcDbLine
 62
250
  6
CONTINUOUS
 10
-46.211941
 20
25.901202
 11
-46.180695
 21
26.258342
  0
LWPOLYLINE
  5
2AA
100
AcDbEntity
  8
0
100
AcDbPolyline
 62
7
  6
CONTINUOUS
 90
3
 70
0
 43
0.3500000006
 10
-0.8571428254
 20
60.8928533936
 10
0.0
 20
61.7500003967
 10
0.0
 20
58.7499994812
  0
LINE
  5
2AB
100
AcDbEntity
  8
RACCORDO
100
AcDbLine
 62
250
  6
CONTINUOUS
 10
-104.8700585586
 20
-43.8714290238
 11
-105.0
 21
-44.0013704652
  0
LINE
  5
2AC
100
AcDbEntity
  8
ASSI
100
AcDbLine
 62
250
  6
CONTINUOUS
 10
-104.8700585586
 20
-43.8714290238
 11
-105.0
 21
-44.0013704652
  0
LINE
  5
2AD
100
AcDbEntity
  8
RACCORDO
100
AcDbLine
 62
250
  6
CONTINUOUS
 10
-103.8781758769
 20
-44.8768054117
 11
-104.0013704652
 21
-45.0
  0
LINE
  5
2AE
100
AcDbEntity
  8
ASSI
100
AcDbLine
 62
250
  6
CONTINUOUS
 10
-103.8781758769
 20
-44.8768054117
 11
-104.0013704652
 21
-45.0
  0
LINE
  5
2AF
100
AcDbEntity
  8
0
100
AcDbLine
 62
250
  6
CONTINUOUS
 10
-60.835827
 20
25.960725
 11
-60.592279
 21
26.079772
  0
LINE
  5
2B0
100
AcDbEntity
  8
0
100
AcDbLine
 62
250
  6
CONTINUOUS
 10
-52.551191
 20
27.389285
 11
-52.794738
 21
27.270238
  0
LINE
  5
2B1
100
AcDbEntity
  8
0
100
AcDbLine
 62
250
  6
CONTINUOUS
 10
-66.23213
 20
27.567855
 11
-66.412188
 21
27.508332
  0
LINE
  5
2B2
100
AcDbEntity
  8
0
100
AcDbLine
 62
250
  6
CONTINUOUS
 10
-66.521548
 20
26.258342
 11
-66.34149
 21
26.317865
  0
LINE
  5
2B3
100
AcDbEntity
  8
0
100
AcDbLine
 62
250
  6
CONTINUOUS
 10
-52.826984
 20
27.567855
 11
-53.007041
 21
27.508332
  0
LINE
  5
2B4
100
AcDbEntity
  8
RACCORDO
100
AcDbLine
 62
7
  6
CONTINUOUS
 10
-104.0013704652
 20
-45.0
 11
104.0013704652
 21
-45.0
  0
LINE
  5
2B5
100
AcDbEntity
  8
ASSI
100
AcDbLine
 62
7
  6
CONTINUOUS
 10
-104.0013704652
 20
-45.0
 11
104.0013704652
 21
-45.0
  0
LINE
  5
2B6
100
AcDbEntity
  8
RACCORDO
100
AcDbLine
 62
250
  6
CONTINUOUS
 10
-103.8781758769
 20
-44.8768054117
 11
103.8781758769
 21
-44.8768054117
  0
LINE
  5
2B7
100
AcDbEntity
  8
ASSI
100
AcDbLine
 62
250
  6
CONTINUOUS
 10
-103.8781758769
 20
-44.8768054117
 11
103.8781758769
 21
-44.8768054117
  0
LINE
  5
2B8
100
AcDbEntity
  8
RACCORDO
100
AcDbLine
 62
250
  6
CONTINUOUS
 10
-103.8781758769
 20
-44.6316825048
 11
103.8781758769
 21
-44.6316825048
  0
LINE
  5
2B9
100
AcDbEntity
  8
ASSI
100
AcDbLine
 62
250
  6
CONTINUOUS
 10
-103.8781758769
 20
-44.6316825048
 11
103.8781758769
 21
-44.6316825048
  0
LINE
  5
2BA
100
AcDbEntity
  8
RACCORDO
100
AcDbLine
 62
250
  6
CONTINUOUS
 10
-104.8700585586
 20
43.8714290238
 11
-105.0
 21
44.0013704652
  0
LINE
  5
2BB
100
AcDbEntity
  8
ASSI
100
AcDbLine
 62
250
  6
CONTINUOUS
 10
-104.8700585586
 20
43.8714290238
 11
-105.0
 21
44.0013704652
  0
LINE
  5
2BC
100
AcDbEntity
  8
RACCORDO
100
AcDbLine
 62
250
  6
CONTINUOUS
 10
-103.8781758769
 20
44.8768054117
 11
-104.0013704652
 21
45.0
  0
LINE
  5
2BD
100
AcDbEntity
  8
ASSI
100
AcDbLine
 62
250
  6
CONTINUOUS
 10
-103.8781758769
 20
44.8768054117
 11
-104.0013704652
 21
45.0
  0
LINE
  5
2BE
100
AcDbEntity
  8
0
100
AcDbLine
 62
250
  6
CONTINUOUS
 10
-62.018115
 20
26.436912
 11
-62.119059
 21
26.615482
  0
LINE
  5
2BF
100
AcDbEntity
  8
0
100
AcDbLine
 62
250
  6
CONTINUOUS
 10
-62.473965
 20
26.555959
 11
-62.378229
 21
26.317865
  0
LINE
  5
2C0
100
AcDbEntity
  8
0
100
AcDbLine
 62
250
  6
CONTINUOUS
 10
-52.794738
 20
27.270238
 11
-52.389964
 21
25.901202
  0
LINE
  5
2C1
100
AcDbEntity
  8
0
100
AcDbLine
 62
250
  6
CONTINUOUS
 10
-52.797947
 20
25.901202
 11
-53.154853
 21
27.151192
  0
LINE
  5
2C2
100
AcDbEntity
  8
0
100
AcDbLine
 62
250
  6
CONTINUOUS
 10
-48.776403
 20
25.901202
 11
-49.464178
 21
28.698798
  0
LINE
  5
2C3
100
AcDbEntity
  8
0
100
AcDbLine
 62
250
  6
CONTINUOUS
 10
-52.653134
 20
28.222611
 11
-52.610473
 21
28.044042
  0
LINE
  5
2C4
100
AcDbEntity
  8
0
100
AcDbLine
 62
250
  6
CONTINUOUS
 10
-52.303434
 20
28.222611
 11
-52.260773
 21
28.044042
  0
LINE
  5
2C5
100
AcDbEntity
  8
0
100
AcDbLine
 62
250
  6
CONTINUOUS
 10
-49.296745
 20
26.615482
 11
-49.126103
 21
25.901202
  0
LINE
  5
2C6
100
AcDbEntity
  8
0
100
AcDbLine
 62
250
  6
CONTINUOUS
 10
-49.334197
 20
26.853575
 11
-49.71814
 21
28.460705
  0
LINE
  5
2C7
100
AcDbEntity
  8
0
100
AcDbLine
 62
250
  6
CONTINUOUS
 10
-78.9949737704
 20
-21.846081448
 11
-78.85
 21
-21.7010963722
  0
LINE
  5
2C8
100
AcDbEntity
  8
ASSI
100
AcDbLine
 62
250
  6
CONTINUOUS
 10
-78.9949737704
 20
-21.846081448
 11
-78.85
 21
-21.7010963722
  0
LINE
  5
2C9
100
AcDbEntity
  8
0
100
AcDbLine
 62
250
  6
CONTINUOUS
 10
-78.1926541173
 20
-22.6415492726
 11
-78.0510963722
 21
-22.5
  0
LINE
  5
2CA
100
AcDbEntity
  8
ASSI
100
AcDbLine
 62
250
  6
CONTINUOUS
 10
-78.1926541173
 20
-22.6415492726
 11
-78.0510963722
 21
-22.5
  0
LINE
  5
2CB
100
AcDbEntity
  8
0
100
AcDbLine
 62
250
  6
CONTINUOUS
 10
-78.1926713554
 20
22.6415492726
 11
-78.0510963722
 21
22.5
  0
LINE
  5
2CC
100
AcDbEntity
  8
ASSI
100
AcDbLine
 62
250
  6
CONTINUOUS
 10
-78.1926713554
 20
22.6415492726
 11
-78.0510963722
 21
22.5
  0
LINE
  5
2CD
100
AcDbEntity
  8
0
100
AcDbLine
 62
250
  6
CONTINUOUS
 10
-78.9949737654
 20
21.846084038
 11
-78.85
 21
21.7010963722
  0
LINE
  5
2CE
100
AcDbEntity
  8
ASSI
100
AcDbLine
 62
250
  6
CONTINUOUS
 10
-78.9949737654
 20
21.846084038
 11
-78.85
 21
21.7010963722
  0
LINE
  5
2CF
100
AcDbEntity
  8
0
100
AcDbLine
 62
250
  6
CONTINUOUS
 10
-66.16764
 20
26.972622
 11
-66.273791
 21
27.091668
  0
LINE
  5
2D0
100
AcDbEntity
  8
0
100
AcDbLine
 62
250
  6
CONTINUOUS
 10
-66.169639
 20
28.282135
 11
-66.063488
 21
28.163088
  0
LINE
  5
2D1
100
AcDbEntity
  8
0
100
AcDbLine
 62
250
  6
CONTINUOUS
 10
-65.812733
 20
27.032145
 11
-65.966752
 21
27.270238
  0
LINE
  5
2D2
100
AcDbEntity
  8
0
100
AcDbLine
 62
250
  6
CONTINUOUS
 10
-65.70858
 20
28.222611
 11
-65.8626
 21
28.460705
  0
LINE
  5
2D3
100
AcDbEntity
  8
0
100
AcDbLine
 62
7
  6
CONTINUOUS
 10
5.6391482119
 20
-28.8778013544
 11
5.0770156219
 21
-28.8778013544
  0
LINE
  5
2D4
100
AcDbEntity
  8
ASSI
100
AcDbLine
 62
7
  6
CONTINUOUS
 10
5.6391482119
 20
-28.8778013544
 11
5.0770156219
 21
-28.8778013544
  0
LINE
  5
2D5
100
AcDbEntity
  8
0
100
AcDbLine
 62
7
  6
CONTINUOUS
 10
4.1820753449
 20
-28.8778013544
 11
3.6000188023
 21
-28.8778013544
  0
LINE
  5
2D6
100
AcDbEntity
  8
ASSI
100
AcDbLine
 62
7
  6
CONTINUOUS
 10
4.1820753449
 20
-28.8778013544
 11
3.6000188023
 21
-28.8778013544
  0
LINE
  5
2D7
100
AcDbEntity
  8
0
100
AcDbLine
 62
7
  6
CONTINUOUS
 10
3.298408
 20
-28.877801
 11
2.682466
 21
-28.877801
  0
LINE
  5
2D8
100
AcDbEntity
  8
ASSI
100
AcDbLine
 62
7
  6
CONTINUOUS
 10
3.298408
 20
-28.877801
 11
2.682466
 21
-28.877801
  0
LINE
  5
2D9
100
AcDbEntity
  8
0
100
AcDbLine
 62
7
  6
CONTINUOUS
 10
1.573947
 20
-28.877801
 11
0.99588
 21
-28.877801
  0
LINE
  5
2DA
100
AcDbEntity
  8
ASSI
100
AcDbLine
 62
7
  6
CONTINUOUS
 10
1.573947
 20
-28.877801
 11
0.99588
 21
-28.877801
  0
LINE
  5
2DB
100
AcDbEntity
  8
0
100
AcDbLine
 62
7
  6
CONTINUOUS
 10
0.694112
 20
-28.877801
 11
0.122406
 21
-28.877801
  0
LINE
  5
2DC
100
AcDbEntity
  8
ASSI
100
AcDbLine
 62
7
  6
CONTINUOUS
 10
0.694112
 20
-28.877801
 11
0.122406
 21
-28.877801
  0
LINE
  5
2DD
100
AcDbEntity
  8
0
100
AcDbLine
 62
7
  6
CONTINUOUS
 10
-0.692524
 20
-28.877801
 11
-0.774487
 21
-28.877801
  0
LINE
  5
2DE
100
AcDbEntity
  8
ASSI
100
AcDbLine
 62
7
  6
CONTINUOUS
 10
-0.692524
 20
-28.877801
 11
-0.774487
 21
-28.877801
  0
LINE
  5
2DF
100
AcDbEntity
  8
0
100
AcDbLine
 62
7
  6
CONTINUOUS
 10
-1.586183
 20
-28.877801
 11
-2.145272
 21
-28.877801
  0
LINE
  5
2E0
100
AcDbEntity
  8
ASSI
100
AcDbLine
 62
7
  6
CONTINUOUS
 10
-1.586183
 20
-28.877801
 11
-2.145272
 21
-28.877801
  0
LINE
  5
2E1
100
AcDbEntity
  8
0
100
AcDbLine
 62
7
  6
CONTINUOUS
 10
-2.449877
 20
-28.877801
 11
-3.034285
 21
-28.877801
  0
LINE
  5
2E2
100
AcDbEntity
  8
ASSI
100
AcDbLine
 62
7
  6
CONTINUOUS
 10
-2.449877
 20
-28.877801
 11
-3.034285
 21
-28.877801
  0
LINE
  5
2E3
100
AcDbEntity
  8
0
100
AcDbLine
 62
7
  6
CONTINUOUS
 10
-4.231097
 20
-28.877801
 11
-4.746107
 21
-28.877801
  0
LINE
  5
2E4
100
AcDbEntity
  8
ASSI
100
AcDbLine
 62
7
  6
CONTINUOUS
 10
-4.231097
 20
-28.877801
 11
-4.746107
 21
-28.877801
  0
LINE
  5
2E5
100
AcDbEntity
  8
0
100
AcDbLine
 62
7
  6
CONTINUOUS
 10
2.531074
 20
-28.318881
 11
1.735207
 21
-28.318881
  0
LINE
  5
2E6
100
AcDbEntity
  8
ASSI
100
AcDbLine
 62
7
  6
CONTINUOUS
 10
2.531074
 20
-28.318881
 11
1.735207
 21
-28.318881
  0
LINE
  5
2E7
100
AcDbEntity
  8
0
100
AcDbLine
 62
7
  6
CONTINUOUS
 10
2.41428
 20
-27.886391
 11
1.854751
 21
-27.886391
  0
LINE
  5
2E8
100
AcDbEntity
  8
ASSI
100
AcDbLine
 62
7
  6
CONTINUOUS
 10
2.41428
 20
-27.886391
 11
1.854751
 21
-27.886391
  0
LINE
  5
2E9
100
AcDbEntity
  8
0
100
AcDbLine
 62
7
  6
CONTINUOUS
 10
4.4954209623
 20
-27.7821519248
 11
4.1820753449
 21
-27.7821519248
  0
LINE
  5
2EA
100
AcDbEntity
  8
ASSI
100
AcDbLine
 62
7
  6
CONTINUOUS
 10
4.4954209623
 20
-27.7821519248
 11
4.1820753449
 21
-27.7821519248
  0
LINE
  5
2EB
100
AcDbEntity
  8
0
100
AcDbLine
 62
7
  6
CONTINUOUS
 10
4.4966806432
 20
-27.3236280866
 11
4.1626972541
 21
-27.3236280866
  0
LINE
  5
2EC
100
AcDbEntity
  8
ASSI
100
AcDbLine
 62
7
  6
CONTINUOUS
 10
4.4966806432
 20
-27.3236280866
 11
4.1626972541
 21
-27.3236280866
  0
LINE
  5
2ED
100
AcDbEntity
  8
0
100
AcDbLine
 62
7
  6
CONTINUOUS
 10
2.43939
 20
-26.078098
 11
1.874045
 21
-26.078098
  0
LINE
  5
2EE
100
AcDbEntity
  8
ASSI
100
AcDbLine
 62
7
  6
CONTINUOUS
 10
2.43939
 20
-26.078098
 11
1.874045
 21
-26.078098
  0
LINE
  5
2EF
100
AcDbEntity
  8
0
100
AcDbLine
 62
7
  6
CONTINUOUS
 10
0.432308
 20
-26.078098
 11
-0.145906
 21
-26.078098
  0
LINE
  5
2F0
100
AcDbEntity
  8
ASSI
100
AcDbLine
 62
7
  6
CONTINUOUS
 10
0.432308
 20
-26.078098
 11
-0.145906
 21
-26.078098
  0
LINE
  5
2F1
100
AcDbEntity
  8
0
100
AcDbLine
 62
7
  6
CONTINUOUS
 10
-1.30855
 20
-26.078098
 11
-1.892475
 21
-26.078098
  0
LINE
  5
2F2
100
AcDbEntity
  8
ASSI
100
AcDbLine
 62
7
  6
CONTINUOUS
 10
-1.30855
 20
-26.078098
 11
-1.892475
 21
-26.078098
  0
LINE
  5
2F3
100
AcDbEntity
  8
0
100
AcDbLine
 62
7
  6
CONTINUOUS
 10
-3.33116
 20
-26.078098
 11
-3.915169
 21
-26.078098
  0
LINE
  5
2F4
100
AcDbEntity
  8
ASSI
100
AcDbLine
 62
7
  6
CONTINUOUS
 10
-3.33116
 20
-26.078098
 11
-3.915169
 21
-26.078098
  0
LINE
  5
2F5
100
AcDbEntity
  8
0
100
AcDbLine
 62
7
  6
CONTINUOUS
 10
-4.99882
 20
-26.078098
 11
-5.633668
 21
-26.078098
  0
LINE
  5
2F6
100
AcDbEntity
  8
ASSI
100
AcDbLine
 62
7
  6
CONTINUOUS
 10
-4.99882
 20
-26.078098
 11
-5.633668
 21
-26.078098
  0
LINE
  5
2F7
100
AcDbEntity
  8
0
100
AcDbLine
 62
7
  6
CONTINUOUS
 10
-2.449877
 20
-26.07793
 11
-3.034285
 21
-26.07793
  0
LINE
  5
2F8
100
AcDbEntity
  8
ASSI
100
AcDbLine
 62
7
  6
CONTINUOUS
 10
-2.449877
 20
-26.07793
 11
-3.034285
 21
-26.07793
  0
LINE
  5
2F9
100
AcDbEntity
  8
RACCORDO
100
AcDbLine
 62
250
  6
CONTINUOUS
 10
78.1926456448
 20
-23.1675430277
 11
-78.1926456448
 21
-23.1675430277
  0
LINE
  5
2FA
100
AcDbEntity
  8
ASSI
100
AcDbLine
 62
250
  6
CONTINUOUS
 10
78.1926456448
 20
-23.1675430277
 11
-78.1926456448
 21
-23.1675430277
  0
LINE
  5
2FB
100
AcDbEntity
  8
RACCORDO
100
AcDbLine
 62
250
  6
CONTINUOUS
 10
104.4427701044
 20
-22.6676475367
 11
79.2179615936
 21
-22.6677048937
  0
LINE
  5
2FC
100
AcDbEntity
  8
ASSI
100
AcDbLine
 62
250
  6
CONTINUOUS
 10
104.4427701044
 20
-22.6676475367
 11
79.2179615936
 21
-22.6677048937
  0
LINE
  5
2FD
100
AcDbEntity
  8
RACCORDO
100
AcDbLine
 62
250
  6
CONTINUOUS
 10
-79.2179709811
 20
-22.6676911416
 11
-104.4427701041
 21
-22.6676473889
  0
LINE
  5
2FE
100
AcDbEntity
  8
ASSI
100
AcDbLine
 62
250
  6
CONTINUOUS
 10
-79.2179709811
 20
-22.6676911416
 11
-104.4427701041
 21
-22.6676473889
  0
LINE
  5
2FF
100
AcDbEntity
  8
RACCORDO
100
AcDbLine
 62
250
  6
CONTINUOUS
 10
78.1926713554
 20
-22.6415492726
 11
-78.1926541173
 21
-22.6415492726
  0
LINE
  5
300
100
AcDbEntity
  8
ASSI
100
AcDbLine
 62
250
  6
CONTINUOUS
 10
78.1926713554
 20
-22.6415492726
 11
-78.1926541173
 21
-22.6415492726
  0
LINE
  5
301
100
AcDbEntity
  8
0
100
AcDbLine
 62
7
  6
CONTINUOUS
 10
78.0510963722
 20
-22.5
 11
-78.0510963722
 21
-22.5
  0
LINE
  5
302
100
AcDbEntity
  8
ASSI
100
AcDbLine
 62
7
  6
CONTINUOUS
 10
78.0510963722
 20
-22.5
 11
-78.0510963722
 21
-22.5
  0
LINE
  5
303
100
AcDbEntity
  8
ASSI
100
AcDbLine
 62
250
  6
CONTINUOUS
 10
77.85
 20
-22.4
 11
-77.85
 21
-22.4
  0
LINE
  5
304
100
AcDbEntity
  8
0
100
AcDbLine
 62
250
  6
CONTINUOUS
 10
-65.8626
 20
28.460705
 11
-66.08011
 21
28.639275
  0
LINE
  5
305
100
AcDbEntity
  8
0
100
AcDbLine
 62
250
  6
CONTINUOUS
 10
-62.378229
 20
26.317865
 11
-62.165927
 21
26.079772
  0
LINE
  5
306
100
AcDbEntity
  8
0
100
AcDbLine
 62
250
  6
CONTINUOUS
 10
-60.166464
 20
28.282135
 11
-60.378767
 21
28.520228
  0
LINE
  5
307
100
AcDbEntity
  8
0
100
AcDbLine
 62
250
  6
CONTINUOUS
 10
-52.759285
 20
28.341658
 11
-52.653134
 21
28.222611
  0
LINE
  5
308
100
AcDbEntity
  8
0
100
AcDbLine
 62
250
  6
CONTINUOUS
 10
-52.457454
 20
28.460705
 11
-52.303434
 21
28.222611
  0
LINE
  5
309
100
AcDbEntity
  8
0
100
AcDbLine
 62
250
  6
CONTINUOUS
 10
-61.85368
 20
26.317865
 11
-62.018115
 21
26.436912
  0
LINE
  5
30A
100
AcDbEntity
  8
0
100
AcDbLine
 62
250
  6
CONTINUOUS
 10
-60.691013
 20
28.282135
 11
-60.526579
 21
28.163088
  0
LINE
  5
30B
100
AcDbEntity
  8
0
100
AcDbLine
 62
250
  6
CONTINUOUS
 10
-52.674963
 20
28.639275
 11
-52.457454
 21
28.460705
  0
LINE
  5
30C
100
AcDbEntity
  8
0
100
AcDbLine
 62
7
  6
CONTINUOUS
 10
-0.774487
 20
-28.877801
 11
-1.460068
 21
-27.049647
  0
LINE
  5
30D
100
AcDbEntity
  8
ASSI
100
AcDbLine
 62
7
  6
CONTINUOUS
 10
-0.774487
 20
-28.877801
 11
-1.460068
 21
-27.049647
  0
LINE
  5
30E
100
AcDbEntity
  8
0
100
AcDbLine
 62
7
  6
CONTINUOUS
 10
-0.730314
 20
-27.632502
 11
-1.30855
 21
-26.078098
  0
LINE
  5
30F
100
AcDbEntity
  8
ASSI
100
AcDbLine
 62
7
  6
CONTINUOUS
 10
-0.730314
 20
-27.632502
 11
-1.30855
 21
-26.078098
  0
LINE
  5
310
100
AcDbEntity
  8
0
100
AcDbLine
 62
7
  6
CONTINUOUS
 10
-4.746107
 20
-28.877801
 11
-5.633668
 21
-26.078098
  0
LINE
  5
311
100
AcDbEntity
  8
ASSI
100
AcDbLine
 62
7
  6
CONTINUOUS
 10
-4.746107
 20
-28.877801
 11
-5.633668
 21
-26.078098
  0
LINE
  5
312
100
AcDbEntity
  8
0
100
AcDbLine
 62
7
  6
CONTINUOUS
 10
-4.465146
 20
-28.00522
 11
-4.99882
 21
-26.078098
  0
LINE
  5
313
100
AcDbEntity
  8
ASSI
100
AcDbLine
 62
7
  6
CONTINUOUS
 10
-4.465146
 20
-28.00522
 11
-4.99882
 21
-26.078098
  0
LINE
  5
314
100
AcDbEntity
  8
0
100
AcDbLine
 62
7
  6
CONTINUOUS
 10
0.694112
 20
-28.877801
 11
0.432308
 21
-26.078098
  0
LINE
  5
315
100
AcDbEntity
  8
ASSI
100
AcDbLine
 62
7
  6
CONTINUOUS
 10
0.694112
 20
-28.877801
 11
0.432308
 21
-26.078098
  0
LINE
  5
316
100
AcDbEntity
  8
0
100
AcDbLine
 62
7
  6
CONTINUOUS
 10
0.122406
 20
-28.877801
 11
0.002337
 21
-27.057269
  0
LINE
  5
317
100
AcDbEntity
  8
ASSI
100
AcDbLine
 62
7
  6
CONTINUOUS
 10
0.122406
 20
-28.877801
 11
0.002337
 21
-27.057269
  0
LINE
  5
318
100
AcDbEntity
  8
0
100
AcDbLine
 62
7
  6
CONTINUOUS
 10
-3.034285
 20
-28.877801
 11
-3.034285
 21
-26.07793
  0
LINE
  5
319
100
AcDbEntity
  8
ASSI
100
AcDbLine
 62
7
  6
CONTINUOUS
 10
-3.034285
 20
-28.877801
 11
-3.034285
 21
-26.07793
  0
LINE
  5
31A
100
AcDbEntity
  8
0
100
AcDbLine
 62
7
  6
CONTINUOUS
 10
-2.449877
 20
-28.877801
 11
-2.449877
 21
-26.07793
  0
LINE
  5
31B
100
AcDbEntity
  8
ASSI
100
AcDbLine
 62
7
  6
CONTINUOUS
 10
-2.449877
 20
-28.877801
 11
-2.449877
 21
-26.07793
  0
LWPOLYLINE
  5
31C
100
AcDbEntity
  8
0
100
AcDbPolyline
 62
7
  6
CONTINUOUS
 90
13
 70
0
 43
0.3500000006
 10
0.8571428254
 20
59.6071464844
 10
0.8571428254
 20
60.8928533936
 10
1.0714285848
 20
61.321431427
 10
1.5000000329
 20
61.7500003967
 10
1.7142856507
 20
61.7500003967
 10
2.1428571696
 20
61.321431427
 10
2.3571427875
 20
60.8928533936
 10
2.3571427875
 20
59.6071464844
 10
2.1428571696
 20
59.1785684509
 10
1.7142856507
 20
58.7499994812
 10
1.5000000329
 20
58.7499994812
 10
1.0714285848
 20
59.1785684509
 10
0.8571428254
 20
59.6071464844
  0
LINE
  5
31D
100
AcDbEntity
  8
0
100
AcDbLine
 62
7
  6
CONTINUOUS
 10
-1.586183
 20
-28.877801
 11
-1.460068
 21
-27.049647
  0
LINE
  5
31E
100
AcDbEntity
  8
ASSI
100
AcDbLine
 62
7
  6
CONTINUOUS
 10
-1.586183
 20
-28.877801
 11
-1.460068
 21
-27.049647
  0
LINE
  5
31F
100
AcDbEntity
  8
0
100
AcDbLine
 62
7
  6
CONTINUOUS
 10
-2.145272
 20
-28.877801
 11
-1.892475
 21
-26.078098
  0
LINE
  5
320
100
AcDbEntity
  8
ASSI
100
AcDbLine
 62
7
  6
CONTINUOUS
 10
-2.145272
 20
-28.877801
 11
-1.892475
 21
-26.078098
  0
LWPOLYLINE
  5
321
100
AcDbEntity
  8
0
100
AcDbPolyline
 62
7
  6
CONTINUOUS
 90
13
 70
0
 43
0.3500000006
 10
156.3928511353
 20
-0.0000003204
 10
155.1071442261
 20
-0.0000003204
 10
154.6785752563
 20
0.2142864304
 10
154.2500062866
 20
0.642857666
 10
154.2500062866
 20
0.8571421509
 10
154.6785752563
 20
1.2857133865
 10
155.1071442261
 20
1.5000001373
 10
156.3928511353
 20
1.5000001373
 10
156.821420105
 20
1.2857133865
 10
157.2500072021
 20
0.8571421509
 10
157.2500072021
 20
0.642857666
 10
156.821420105
 20
0.2142864304
 10
156.3928511353
 20
-0.0000003204
  0
LINE
  5
322
100
AcDbEntity
  8
0
100
AcDbLine
 62
250
  6
CONTINUOUS
 10
-65.966752
 20
27.270238
 11
-66.078111
 21
27.329762
  0
LINE
  5
323
100
AcDbEntity
  8
0
100
AcDbLine
 62
250
  6
CONTINUOUS
 10
-62.165927
 20
26.079772
 11
-61.943209
 21
25.960725
  0
LINE
  5
324
100
AcDbEntity
  8
0
100
AcDbLine
 62
250
  6
CONTINUOUS
 10
-60.378767
 20
28.520228
 11
-60.601485
 21
28.639275
  0
LINE
  5
325
100
AcDbEntity
  8
0
100
AcDbLine
 62
7
  6
CONTINUOUS
 10
3.298408
 20
-28.877801
 11
2.43939
 21
-26.078098
  0
LINE
  5
326
100
AcDbEntity
  8
ASSI
100
AcDbLine
 62
7
  6
CONTINUOUS
 10
3.298408
 20
-28.877801
 11
2.43939
 21
-26.078098
  0
LINE
  5
327
100
AcDbEntity
  8
0
100
AcDbLine
 62
7
  6
CONTINUOUS
 10
2.682466
 20
-28.877801
 11
2.531074
 21
-28.318881
  0
LINE
  5
328
100
AcDbEntity
  8
ASSI
100
AcDbLine
 62
7
  6
CONTINUOUS
 10
2.682466
 20
-28.877801
 11
2.531074
 21
-28.318881
  0
LINE
  5
329
100
AcDbEntity
  8
0
100
AcDbLine
 62
7
  6
CONTINUOUS
 10
2.41428
 20
-27.886391
 11
2.145737
 21
-26.847385
  0
LINE
  5
32A
100
AcDbEntity
  8
ASSI
100
AcDbLine
 62
7
  6
CONTINUOUS
 10
2.41428
 20
-27.886391
 11
2.145737
 21
-26.847385
  0
LINE
  5
32B
100
AcDbEntity
  8
0
100
AcDbLine
 62
7
  6
CONTINUOUS
 10
3.6000188023
 20
-28.8778013544
 11
3.6000188023
 21
-26.110807341
  0
LINE
  5
32C
100
AcDbEntity
  8
ASSI
100
AcDbLine
 62
7
  6
CONTINUOUS
 10
3.6000188023
 20
-28.8778013544
 11
3.6000188023
 21
-26.110807341
  0
LINE
  5
32D
100
AcDbEntity
  8
0
100
AcDbLine
 62
7
  6
CONTINUOUS
 10
4.1626972541
 20
-27.3236280866
 11
4.1626972541
 21
-26.5550547959
  0
LINE
  5
32E
100
AcDbEntity
  8
ASSI
100
AcDbLine
 62
7
  6
CONTINUOUS
 10
4.1626972541
 20
-27.3236280866
 11
4.1626972541
 21
-26.5550547959
  0
LINE
  5
32F
100
AcDbEntity
  8
0
100
AcDbLine
 62
7
  6
CONTINUOUS
 10
4.1820753449
 20
-28.8778013544
 11
4.1820753449
 21
-27.7821519248
  0
LINE
  5
330
100
AcDbEntity
  8
ASSI
100
AcDbLine
 62
7
  6
CONTINUOUS
 10
4.1820753449
 20
-28.8778013544
 11
4.1820753449
 21
-27.7821519248
  0
LINE
  5
331
100
AcDbEntity
  8
0
100
AcDbLine
 62
7
  6
CONTINUOUS
 10
5.1025031649
 20
-27.5709244369
 11
5.1025031649
 21
-27.554380628
  0
LINE
  5
332
100
AcDbEntity
  8
ASSI
100
AcDbLine
 62
7
  6
CONTINUOUS
 10
5.1025031649
 20
-27.5709244369
 11
5.1025031649
 21
-27.554380628
  0
LINE
  5
333
100
AcDbEntity
  8
0
100
AcDbLine
 62
7
  6
CONTINUOUS
 10
1.854751
 20
-27.886391
 11
2.145737
 21
-26.847385
  0
LINE
  5
334
100
AcDbEntity
  8
ASSI
100
AcDbLine
 62
7
  6
CONTINUOUS
 10
1.854751
 20
-27.886391
 11
2.145737
 21
-26.847385
  0
LINE
  5
335
100
AcDbEntity
  8
0
100
AcDbLine
 62
7
  6
CONTINUOUS
 10
-4.465146
 20
-28.00522
 11
-3.915169
 21
-26.078098
  0
LINE
  5
336
100
AcDbEntity
  8
ASSI
100
AcDbLine
 62
7
  6
CONTINUOUS
 10
-4.465146
 20
-28.00522
 11
-3.915169
 21
-26.078098
  0
LINE
  5
337
100
AcDbEntity
  8
0
100
AcDbLine
 62
7
  6
CONTINUOUS
 10
1.573947
 20
-28.877801
 11
1.735207
 21
-28.318881
  0
LINE
  5
338
100
AcDbEntity
  8
ASSI
100
AcDbLine
 62
7
  6
CONTINUOUS
 10
1.573947
 20
-28.877801
 11
1.735207
 21
-28.318881
  0
LINE
  5
339
100
AcDbEntity
  8
0
100
AcDbLine
 62
7
  6
CONTINUOUS
 10
0.99588
 20
-28.877801
 11
1.874045
 21
-26.078098
  0
LINE
  5
33A
100
AcDbEntity
  8
ASSI
100
AcDbLine
 62
7
  6
CONTINUOUS
 10
0.99588
 20
-28.877801
 11
1.874045
 21
-26.078098
  0
LINE
  5
33B
100
AcDbEntity
  8
0
100
AcDbLine
 62
7
  6
CONTINUOUS
 10
-4.231097
 20
-28.877801
 11
-3.33116
 21
-26.078098
  0
LINE
  5
33C
100
AcDbEntity
  8
ASSI
100
AcDbLine
 62
7
  6
CONTINUOUS
 10
-4.231097
 20
-28.877801
 11
-3.33116
 21
-26.078098
  0
LINE
  5
33D
100
AcDbEntity
  8
0
100
AcDbLine
 62
7
  6
CONTINUOUS
 10
-0.730314
 20
-27.632502
 11
-0.145906
 21
-26.078098
  0
LINE
  5
33E
100
AcDbEntity
  8
ASSI
100
AcDbLine
 62
7
  6
CONTINUOUS
 10
-0.730314
 20
-27.632502
 11
-0.145906
 21
-26.078098
  0
LINE
  5
33F
100
AcDbEntity
  8
0
100
AcDbLine
 62
7
  6
CONTINUOUS
 10
-0.692524
 20
-28.877801
 11
0.002337
 21
-27.057269
  0
LINE
  5
340
100
AcDbEntity
  8
ASSI
100
AcDbLine
 62
7
  6
CONTINUOUS
 10
-0.692524
 20
-28.877801
 11
0.002337
 21
-27.057269
  0
LINE
  5
341
100
AcDbEntity
  8
0
100
AcDbLine
 62
250
  6
CONTINUOUS
 10
-61.625755
 20
26.258342
 11
-61.85368
 21
26.317865
  0
LINE
  5
342
100
AcDbEntity
  8
0
100
AcDbLine
 62
250
  6
CONTINUOUS
 10
-66.273791
 20
27.091668
 11
-66.443433
 21
27.151192
  0
LINE
  5
343
100
AcDbEntity
  8
0
100
AcDbLine
 62
250
  6
CONTINUOUS
 10
-66.339281
 20
28.341658
 11
-66.169639
 21
28.282135
  0
LINE
  5
344
100
AcDbEntity
  8
0
100
AcDbLine
 62
250
  6
CONTINUOUS
 10
-52.928927
 20
28.401181
 11
-52.759285
 21
28.341658
  0
LINE
  5
345
100
AcDbEntity
  8
ASSI
100
AcDbLine
 62
250
  6
CONTINUOUS
 10
-77.85
 20
22.4
 11
77.85
 21
22.4
  0
LINE
  5
346
100
AcDbEntity
  8
0
100
AcDbLine
 62
250
  6
CONTINUOUS
 10
-61.943209
 20
25.960725
 11
-61.657001
 21
25.901202
  0
LINE
  5
347
100
AcDbEntity
  8
0
100
AcDbLine
 62
250
  6
CONTINUOUS
 10
-66.08011
 20
28.639275
 11
-66.366318
 21
28.698798
  0
LINE
  5
348
100
AcDbEntity
  8
0
100
AcDbLine
 62
250
  6
CONTINUOUS
 10
-60.601485
 20
28.639275
 11
-60.887694
 21
28.698798
  0
LINE
  5
349
100
AcDbEntity
  8
0
100
AcDbLine
 62
250
  6
CONTINUOUS
 10
-52.961172
 20
28.698798
 11
-52.674963
 21
28.639275
  0
LINE
  5
34A
100
AcDbEntity
  8
0
100
AcDbLine
 62
250
  6
CONTINUOUS
 10
-60.918939
 20
28.341658
 11
-60.691013
 21
28.282135
  0
LINE
  5
34B
100
AcDbEntity
  8
0
100
AcDbLine
 62
7
  6
CONTINUOUS
 10
-78.0510963722
 20
22.5
 11
78.0510963722
 21
22.5
  0
LINE
  5
34C
100
AcDbEntity
  8
ASSI
100
AcDbLine
 62
7
  6
CONTINUOUS
 10
-78.0510963722
 20
22.5
 11
78.0510963722
 21
22.5
  0
LINE
  5
34D
100
AcDbEntity
  8
RACCORDO
100
AcDbLine
 62
250
  6
CONTINUOUS
 10
-78.1926713554
 20
22.6415492726
 11
78.1926541173
 21
22.6415492726
  0
LINE
  5
34E
100
AcDbEntity
  8
ASSI
100
AcDbLine
 62
250
  6
CONTINUOUS
 10
-78.1926713554
 20
22.6415492726
 11
78.1926541173
 21
22.6415492726
  0
LINE
  5
34F
100
AcDbEntity
  8
RACCORDO
100
AcDbLine
 62
250
  6
CONTINUOUS
 10
-104.4427701042
 20
22.6676474049
 11
-79.2179615936
 21
22.6677048937
  0
LINE
  5
350
100
AcDbEntity
  8
ASSI
100
AcDbLine
 62
250
  6
CONTINUOUS
 10
-104.4427701042
 20
22.6676474049
 11
-79.2179615936
 21
22.6677048937
  0
LINE
  5
351
100
AcDbEntity
  8
RACCORDO
100
AcDbLine
 62
250
  6
CONTINUOUS
 10
79.2179615936
 20
22.6677048937
 11
104.4427701039
 21
22.667647257
  0
LINE
  5
352
100
AcDbEntity
  8
ASSI
100
AcDbLine
 62
250
  6
CONTINUOUS
 10
79.2179615936
 20
22.6677048937
 11
104.4427701039
 21
22.667647257
  0
LINE
  5
353
100
AcDbEntity
  8
RACCORDO
100
AcDbLine
 62
250
  6
CONTINUOUS
 10
-78.1926456448
 20
23.1675430277
 11
78.1926456448
 21
23.1675430277
  0
LINE
  5
354
100
AcDbEntity
  8
ASSI
100
AcDbLine
 62
250
  6
CONTINUOUS
 10
-78.1926456448
 20
23.1675430277
 11
78.1926456448
 21
23.1675430277
  0
LINE
  5
355
100
AcDbEntity
  8
0
100
AcDbLine
 62
250
  6
CONTINUOUS
 10
-80.34927
 20
25.301717
 11
-78.65073
 21
25.301717
  0
LINE
  5
356
100
AcDbEntity
  8
0
100
AcDbLine
 62
250
  6
CONTINUOUS
 10
-80.249356
 20
25.401631
 11
-78.750644
 21
25.401631
  0
LINE
  5
357
100
AcDbEntity
  8
0
100
AcDbLine
 62
250
  6
CONTINUOUS
 10
-80.149442
 20
25.501546
 11
-78.850558
 21
25.501546
  0
LINE
  5
358
100
AcDbEntity
  8
0
100
AcDbLine
 62
250
  6
CONTINUOUS
 10
-68.009874
 20
25.901202
 11
-66.611076
 21
25.901202
  0
LINE
  5
359
100
AcDbEntity
  8
0
100
AcDbLine
 62
250
  6
CONTINUOUS
 10
-65.387128
 20
25.901202
 11
-65.037429
 21
25.901202
  0
LINE
  5
35A
100
AcDbEntity
  8
0
100
AcDbLine
 62
250
  6
CONTINUOUS
 10
-63.405498
 20
25.901202
 11
-63.055798
 21
25.901202
  0
LINE
  5
35B
100
AcDbEntity
  8
0
100
AcDbLine
 62
250
  6
CONTINUOUS
 10
-61.657001
 20
25.901202
 11
-61.132451
 21
25.901202
  0
LINE
  5
35C
100
AcDbEntity
  8
0
100
AcDbLine
 62
250
  6
CONTINUOUS
 10
-58.917688
 20
25.901202
 11
-58.567988
 21
25.901202
  0
LINE
  5
35D
100
AcDbEntity
  8
0
100
AcDbLine
 62
250
  6
CONTINUOUS
 10
-57.169191
 20
25.901202
 11
-55.070994
 21
25.901202
  0
LINE
  5
35E
100
AcDbEntity
  8
0
100
AcDbLine
 62
250
  6
CONTINUOUS
 10
-51.923698
 20
25.901202
 11
-51.573999
 21
25.901202
  0
LINE
  5
35F
100
AcDbEntity
  8
0
100
AcDbLine
 62
250
  6
CONTINUOUS
 10
-51.107733
 20
25.901202
 11
-50.758034
 21
25.901202
  0
LINE
  5
360
100
AcDbEntity
  8
0
100
AcDbLine
 62
250
  6
CONTINUOUS
 10
-49.126103
 20
25.901202
 11
-48.776403
 21
25.901202
  0
LINE
  5
361
100
AcDbEntity
  8
0
100
AcDbLine
 62
250
  6
CONTINUOUS
 10
-48.310138
 20
25.901202
 11
-46.211941
 21
25.901202
  0
LINE
  5
362
100
AcDbEntity
  8
0
100
AcDbLine
 62
250
  6
CONTINUOUS
 10
-52.389964
 20
25.901202
 11
-52.797947
 21
25.901202
  0
LINE
  5
363
100
AcDbEntity
  8
0
100
AcDbLine
 62
250
  6
CONTINUOUS
 10
-54.255029
 20
25.901202
 11
-54.604728
 21
25.901202
  0
LINE
  5
364
100
AcDbEntity
  8
0
100
AcDbLine
 62
250
  6
CONTINUOUS
 10
-67.628929
 20
26.258342
 11
-66.521548
 21
26.258342
  0
LINE
  5
365
100
AcDbEntity
  8
0
100
AcDbLine
 62
250
  6
CONTINUOUS
 10
-46.180695
 20
26.258342
 11
-47.929192
 21
26.258342
  0
LINE
  5
366
100
AcDbEntity
  8
0
100
AcDbLine
 62
250
  6
CONTINUOUS
 10
-55.039748
 20
26.258342
 11
-56.788245
 21
26.258342
  0
LINE
  5
367
100
AcDbEntity
  8
0
100
AcDbLine
 62
250
  6
CONTINUOUS
 10
-61.101206
 20
26.258342
 11
-61.625755
 21
26.258342
  0
LINE
  5
368
100
AcDbEntity
  8
0
100
AcDbLine
 62
250
  6
CONTINUOUS
 10
-81.498283
 20
26.45073
 11
-80.34927
 21
26.45073
  0
LINE
  5
369
100
AcDbEntity
  8
0
100
AcDbLine
 62
250
  6
CONTINUOUS
 10
-78.65073
 20
26.45073
 11
-77.501717
 21
26.45073
  0
LINE
  5
36A
100
AcDbEntity
  8
0
100
AcDbLine
 62
250
  6
CONTINUOUS
 10
-81.398369
 20
26.550644
 11
-80.249356
 21
26.550644
  0
LINE
  5
36B
100
AcDbEntity
  8
0
100
AcDbLine
 62
250
  6
CONTINUOUS
 10
-78.750644
 20
26.550644
 11
-77.601631
 21
26.550644
  0
LINE
  5
36C
100
AcDbEntity
  8
0
100
AcDbLine
 62
250
  6
CONTINUOUS
 10
-64.741804
 20
26.615482
 11
-63.576139
 21
26.615482
  0
LINE
  5
36D
100
AcDbEntity
  8
0
100
AcDbLine
 62
250
  6
CONTINUOUS
 10
-50.462409
 20
26.615482
 11
-49.296745
 21
26.615482
  0
LINE
  5
36E
100
AcDbEntity
  8
0
100
AcDbLine
 62
250
  6
CONTINUOUS
 10
-60.253994
 20
26.615482
 11
-60.603694
 21
26.615482
  0
LINE
  5
36F
100
AcDbEntity
  8
0
100
AcDbLine
 62
250
  6
CONTINUOUS
 10
-81.298454
 20
26.650558
 11
-80.149442
 21
26.650558
  0
LINE
  5
370
100
AcDbEntity
  8
0
100
AcDbLine
 62
250
  6
CONTINUOUS
 10
-78.850558
 20
26.650558
 11
-77.701546
 21
26.650558
  0
LINE
  5
371
100
AcDbEntity
  8
0
100
AcDbLine
 62
250
  6
CONTINUOUS
 10
-75.170387
 20
26.700515
 11
-76.236138
 21
26.700515
  0
LINE
  5
372
100
AcDbEntity
  8
0
100
AcDbLine
 62
250
  6
CONTINUOUS
 10
-64.662691
 20
26.853575
 11
-63.613592
 21
26.853575
  0
LINE
  5
373
100
AcDbEntity
  8
0
100
AcDbLine
 62
250
  6
CONTINUOUS
 10
-50.383295
 20
26.853575
 11
-49.334197
 21
26.853575
  0
LINE
  5
374
100
AcDbEntity
  8
0
100
AcDbLine
 62
250
  6
CONTINUOUS
 10
-53.154853
 20
27.151192
 11
-54.145669
 21
27.151192
  0
LINE
  5
375
100
AcDbEntity
  8
0
100
AcDbLine
 62
250
  6
CONTINUOUS
 10
-66.443433
 20
27.151192
 11
-67.550815
 21
27.151192
  0
LINE
  5
376
100
AcDbEntity
  8
0
100
AcDbLine
 62
250
  6
CONTINUOUS
 10
-56.704924
 20
27.210715
 11
-55.18956
 21
27.210715
  0
LINE
  5
377
100
AcDbEntity
  8
0
100
AcDbLine
 62
250
  6
CONTINUOUS
 10
-53.007041
 20
27.508332
 11
-54.114423
 21
27.508332
  0
LINE
  5
378
100
AcDbEntity
  8
0
100
AcDbLine
 62
250
  6
CONTINUOUS
 10
-66.412188
 20
27.508332
 11
-67.519569
 21
27.508332
  0
LINE
  5
379
100
AcDbEntity
  8
0
100
AcDbLine
 62
250
  6
CONTINUOUS
 10
-55.158314
 20
27.567855
 11
-56.673678
 21
27.567855
  0
LINE
  5
37A
100
AcDbEntity
  8
0
100
AcDbLine
 62
250
  6
CONTINUOUS
 10
-77.701546
 20
27.949442
 11
-78.850558
 21
27.949442
  0
LINE
  5
37B
100
AcDbEntity
  8
0
100
AcDbLine
 62
250
  6
CONTINUOUS
 10
-80.149442
 20
27.949442
 11
-81.298454
 21
27.949442
  0
LINE
  5
37C
100
AcDbEntity
  8
0
100
AcDbLine
 62
250
  6
CONTINUOUS
 10
-60.483919
 20
27.984518
 11
-60.134219
 21
27.984518
  0
LINE
  5
37D
100
AcDbEntity
  8
0
100
AcDbLine
 62
250
  6
CONTINUOUS
 10
-77.601631
 20
28.049356
 11
-78.750644
 21
28.049356
  0
LINE
  5
37E
100
AcDbEntity
  8
0
100
AcDbLine
 62
250
  6
CONTINUOUS
 10
-80.249356
 20
28.049356
 11
-81.398369
 21
28.049356
  0
LINE
  5
37F
100
AcDbEntity
  8
0
100
AcDbLine
 62
250
  6
CONTINUOUS
 10
-77.501717
 20
28.14927
 11
-78.65073
 21
28.14927
  0
LINE
  5
380
100
AcDbEntity
  8
0
100
AcDbLine
 62
250
  6
CONTINUOUS
 10
-80.34927
 20
28.14927
 11
-81.498283
 21
28.14927
  0
LINE
  5
381
100
AcDbEntity
  8
0
100
AcDbLine
 62
250
  6
CONTINUOUS
 10
-67.446663
 20
28.341658
 11
-66.339281
 21
28.341658
  0
LINE
  5
382
100
AcDbEntity
  8
0
100
AcDbLine
 62
250
  6
CONTINUOUS
 10
-61.443488
 20
28.341658
 11
-60.918939
 21
28.341658
  0
LINE
  5
383
100
AcDbEntity
  8
0
100
AcDbLine
 62
250
  6
CONTINUOUS
 10
-56.605979
 20
28.341658
 11
-54.857481
 21
28.341658
  0
LINE
  5
384
100
AcDbEntity
  8
0
100
AcDbLine
 62
250
  6
CONTINUOUS
 10
-59.6315
 20
28.401181
 11
-58.698968
 21
28.401181
  0
LINE
  5
385
100
AcDbEntity
  8
0
100
AcDbLine
 62
250
  6
CONTINUOUS
 10
-58.349269
 20
28.401181
 11
-57.416737
 21
28.401181
  0
LINE
  5
386
100
AcDbEntity
  8
0
100
AcDbLine
 62
250
  6
CONTINUOUS
 10
-54.036309
 20
28.401181
 11
-52.928927
 21
28.401181
  0
LINE
  5
387
100
AcDbEntity
  8
0
100
AcDbLine
 62
250
  6
CONTINUOUS
 10
-54.35997
 20
28.698798
 11
-52.961172
 21
28.698798
  0
LINE
  5
388
100
AcDbEntity
  8
0
100
AcDbLine
 62
250
  6
CONTINUOUS
 10
-47.71568
 20
28.698798
 11
-48.06538
 21
28.698798
  0
LINE
  5
389
100
AcDbEntity
  8
0
100
AcDbLine
 62
250
  6
CONTINUOUS
 10
-49.464178
 20
28.698798
 11
-49.930443
 21
28.698798
  0
LINE
  5
38A
100
AcDbEntity
  8
0
100
AcDbLine
 62
250
  6
CONTINUOUS
 10
-51.329241
 20
28.698798
 11
-51.67894
 21
28.698798
  0
LINE
  5
38B
100
AcDbEntity
  8
0
100
AcDbLine
 62
250
  6
CONTINUOUS
 10
-54.826236
 20
28.698798
 11
-56.924433
 21
28.698798
  0
LINE
  5
38C
100
AcDbEntity
  8
0
100
AcDbLine
 62
250
  6
CONTINUOUS
 10
-57.390699
 20
28.698798
 11
-59.605462
 21
28.698798
  0
LINE
  5
38D
100
AcDbEntity
  8
0
100
AcDbLine
 62
250
  6
CONTINUOUS
 10
-60.887694
 20
28.698798
 11
-61.412243
 21
28.698798
  0
LINE
  5
38E
100
AcDbEntity
  8
0
100
AcDbLine
 62
250
  6
CONTINUOUS
 10
-63.743572
 20
28.698798
 11
-64.209838
 21
28.698798
  0
LINE
  5
38F
100
AcDbEntity
  8
0
100
AcDbLine
 62
250
  6
CONTINUOUS
 10
-66.366318
 20
28.698798
 11
-67.765116
 21
28.698798
  0
LINE
  5
390
100
AcDbEntity
  8
0
100
AcDbLine
 62
250
  6
CONTINUOUS
 10
-70.3079
 20
28.698798
 11
-71.906525
 21
28.698798
  0
LINE
  5
391
100
AcDbEntity
  8
0
100
AcDbLine
 62
250
  6
CONTINUOUS
 10
-78.850558
 20
29.098454
 11
-80.149442
 21
29.098454
  0
LINE
  5
392
100
AcDbEntity
  8
0
100
AcDbLine
 62
250
  6
CONTINUOUS
 10
-78.750644
 20
29.198369
 11
-80.249356
 21
29.198369
  0
LINE
  5
393
100
AcDbEntity
  8
0
100
AcDbLine
 62
250
  6
CONTINUOUS
 10
-78.65073
 20
29.298283
 11
-80.34927
 21
29.298283
  0
LINE
  5
394
100
AcDbEntity
  8
0
100
AcDbLine
 62
250
  6
CONTINUOUS
 10
78.1926541173
 20
22.6415492726
 11
78.0510963722
 21
22.5
  0
LINE
  5
395
100
AcDbEntity
  8
ASSI
100
AcDbLine
 62
250
  6
CONTINUOUS
 10
78.1926541173
 20
22.6415492726
 11
78.0510963722
 21
22.5
  0
LINE
  5
396
100
AcDbEntity
  8
0
100
AcDbLine
 62
250
  6
CONTINUOUS
 10
78.9949737683
 20
21.8460825235
 11
78.85
 21
21.7010963722
  0
LINE
  5
397
100
AcDbEntity
  8
ASSI
100
AcDbLine
 62
250
  6
CONTINUOUS
 10
78.9949737683
 20
21.8460825235
 11
78.85
 21
21.7010963722
  0
LINE
  5
398
100
AcDbEntity
  8
RACCORDO
100
AcDbLine
 62
250
  6
CONTINUOUS
 10
103.8781758769
 20
44.8768054117
 11
104.0013704652
 21
45.0
  0
LINE
  5
399
100
AcDbEntity
  8
ASSI
100
AcDbLine
 62
250
  6
CONTINUOUS
 10
103.8781758769
 20
44.8768054117
 11
104.0013704652
 21
45.0
  0
LINE
  5
39A
100
AcDbEntity
  8
RACCORDO
100
AcDbLine
 62
250
  6
CONTINUOUS
 10
104.8700585586
 20
43.8714290238
 11
105.0
 21
44.0013704652
  0
LINE
  5
39B
100
AcDbEntity
  8
ASSI
100
AcDbLine
 62
250
  6
CONTINUOUS
 10
104.8700585586
 20
43.8714290238
 11
105.0
 21
44.0013704652
  0
LINE
  5
39C
100
AcDbEntity
  8
0
100
AcDbLine
 62
250
  6
CONTINUOUS
 10
-60.862865
 20
26.317865
 11
-61.101206
 21
26.258342
  0
LINE
  5
39D
100
AcDbEntity
  8
0
100
AcDbLine
 62
250
  6
CONTINUOUS
 10
-61.681829
 20
28.282135
 11
-61.443488
 21
28.341658
  0
LINE
  5
39E
100
AcDbEntity
  8
0
100
AcDbLine
 62
250
  6
CONTINUOUS
 10
-61.132451
 20
25.901202
 11
-60.835827
 21
25.960725
  0
LINE
  5
39F
100
AcDbEntity
  8
0
100
AcDbLine
 62
250
  6
CONTINUOUS
 10
-66.611076
 20
25.901202
 11
-66.314453
 21
25.960725
  0
LINE
  5
3A0
100
AcDbEntity
  8
0
100
AcDbLine
 62
250
  6
CONTINUOUS
 10
-61.412243
 20
28.698798
 11
-61.708866
 21
28.639275
  0
LINE
  5
3A1
100
AcDbEntity
  8
0
100
AcDbLine
 62
250
  6
CONTINUOUS
 10
78.1926713554
 20
-22.6415492726
 11
78.0510963722
 21
-22.5
  0
LINE
  5
3A2
100
AcDbEntity
  8
ASSI
100
AcDbLine
 62
250
  6
CONTINUOUS
 10
78.1926713554
 20
-22.6415492726
 11
78.0510963722
 21
-22.5
  0
LINE
  5
3A3
100
AcDbEntity
  8
RACCORDO
100
AcDbLine
 62
250
  6
CONTINUOUS
 10
103.8781758769
 20
-44.8768054117
 11
104.0013704652
 21
-45.0
  0
LINE
  5
3A4
100
AcDbEntity
  8
ASSI
100
AcDbLine
 62
250
  6
CONTINUOUS
 10
103.8781758769
 20
-44.8768054117
 11
104.0013704652
 21
-45.0
  0
LINE
  5
3A5
100
AcDbEntity
  8
RACCORDO
100
AcDbLine
 62
250
  6
CONTINUOUS
 10
104.8700585586
 20
-43.8714290238
 11
105.0
 21
-44.0013704652
  0
LINE
  5
3A6
100
AcDbEntity
  8
ASSI
100
AcDbLine
 62
250
  6
CONTINUOUS
 10
104.8700585586
 20
-43.8714290238
 11
105.0
 21
-44.0013704652
  0
LINE
  5
3A7
100
AcDbEntity
  8
0
100
AcDbLine
 62
250
  6
CONTINUOUS
 10
78.9949737656
 20
-21.8460839501
 11
78.85
 21
-21.7010963722
  0
LINE
  5
3A8
100
AcDbEntity
  8
ASSI
100
AcDbLine
 62
250
  6
CONTINUOUS
 10
78.9949737656
 20
-21.8460839501
 11
78.85
 21
-21.7010963722
  0
LINE
  5
3A9
100
AcDbEntity
  8
RACCORDO
100
AcDbLine
 62
250
  6
CONTINUOUS
 10
103.8781758769
 20
44.6316825048
 11
-103.8781758769
 21
44.6316825048
  0
LINE
  5
3AA
100
AcDbEntity
  8
ASSI
100
AcDbLine
 62
250
  6
CONTINUOUS
 10
103.8781758769
 20
44.6316825048
 11
-103.8781758769
 21
44.6316825048
  0
LINE
  5
3AB
100
AcDbEntity
  8
RACCORDO
100
AcDbLine
 62
250
  6
CONTINUOUS
 10
103.8781758769
 20
44.8768054117
 11
-103.8781758769
 21
44.8768054117
  0
LINE
  5
3AC
100
AcDbEntity
  8
ASSI
100
AcDbLine
 62
250
  6
CONTINUOUS
 10
103.8781758769
 20
44.8768054117
 11
-103.8781758769
 21
44.8768054117
  0
LINE
  5
3AD
100
AcDbEntity
  8
RACCORDO
100
AcDbLine
 62
7
  6
CONTINUOUS
 10
-104.0013704652
 20
45.0
 11
104.0013704652
 21
45.0
  0
LINE
  5
3AE
100
AcDbEntity
  8
ASSI
100
AcDbLine
 62
7
  6
CONTINUOUS
 10
-104.0013704652
 20
45.0
 11
104.0013704652
 21
45.0
  0
LWPOLYLINE
  5
3AF
100
AcDbEntity
  8
0
100
AcDbPolyline
 62
7
  6
CONTINUOUS
 90
7
 70
0
 43
0.3500000006
 10
-1.7142856507
 20
58.7499994812
 10
-3.2142856836
 20
58.7499994812
 10
-1.7142856507
 20
60.8928533936
 10
-1.7142856507
 20
61.321431427
 10
-2.1428571696
 20
61.7500003967
 10
-2.7857141647
 20
61.7500003967
 10
-3.2142856836
 20
61.1071469421
  0
LINE
  5
3B0
100
AcDbEntity
  8
RACCORDO
100
AcDbLine
 62
250
  6
CONTINUOUS
 10
78.1926456448
 20
23.1675430277
 11
78.1926456448
 21
22.6415492726
  0
LINE
  5
3B1
100
AcDbEntity
  8
ASSI
100
AcDbLine
 62
250
  6
CONTINUOUS
 10
78.1926456448
 20
23.1675430277
 11
78.1926456448
 21
22.6415492726
  0
LINE
  5
3B2
100
AcDbEntity
  8
RACCORDO
100
AcDbLine
 62
250
  6
CONTINUOUS
 10
78.1926456448
 20
-23.1675430277
 11
78.1926456448
 21
-22.6415492726
  0
LINE
  5
3B3
100
AcDbEntity
  8
ASSI
100
AcDbLine
 62
250
  6
CONTINUOUS
 10
78.1926456448
 20
-23.1675430277
 11
78.1926456448
 21
-22.6415492726
  0
LINE
  5
3B4
100
AcDbEntity
  8
ASSI
100
AcDbLine
 62
250
  6
CONTINUOUS
 10
78.75
 20
21.5
 11
78.75
 21
-21.5
  0
LINE
  5
3B5
100
AcDbEntity
  8
0
100
AcDbLine
 62
7
  6
CONTINUOUS
 10
78.85
 20
21.7010963722
 11
78.85
 21
-21.7010963722
  0
LINE
  5
3B6
100
AcDbEntity
  8
ASSI
100
AcDbLine
 62
7
  6
CONTINUOUS
 10
78.85
 20
21.7010963722
 11
78.85
 21
-21.7010963722
  0
LINE
  5
3B7
100
AcDbEntity
  8
RACCORDO
100
AcDbLine
 62
250
  6
CONTINUOUS
 10
103.8781758769
 20
-44.6316825048
 11
103.8781758772
 21
-44.8768054117
  0
LINE
  5
3B8
100
AcDbEntity
  8
ASSI
100
AcDbLine
 62
250
  6
CONTINUOUS
 10
103.8781758769
 20
-44.6316825048
 11
103.8781758772
 21
-44.8768054117
  0
LINE
  5
3B9
100
AcDbEntity
  8
RACCORDO
100
AcDbLine
 62
250
  6
CONTINUOUS
 10
103.8781758769
 20
44.6316825048
 11
103.8781758769
 21
44.8768054117
  0
LINE
  5
3BA
100
AcDbEntity
  8
ASSI
100
AcDbLine
 62
250
  6
CONTINUOUS
 10
103.8781758769
 20
44.6316825048
 11
103.8781758769
 21
44.8768054117
  0
LINE
  5
3BB
100
AcDbEntity
  8
RACCORDO
100
AcDbLine
 62
7
  6
CONTINUOUS
 10
105.0
 20
-44.0013704652
 11
105.0
 21
44.0013704652
  0
LINE
  5
3BC
100
AcDbEntity
  8
ASSI
100
AcDbLine
 62
7
  6
CONTINUOUS
 10
105.0
 20
-44.0013704652
 11
105.0
 21
44.0013704652
  0
LWPOLYLINE
  5
3BD
100
AcDbEntity
  8
0
100
AcDbPolyline
 62
7
  6
CONTINUOUS
 90
10
 70
0
 43
0.3500000006
 10
157.2500072021
 20
-1.9285708809
 10
156.3928511353
 20
-1.0714295425
 10
155.5357131958
 20
-0.8571427917
 10
154.6785752563
 20
-0.8571427917
 10
154.2500062866
 20
-1.2857140274
 10
154.2500062866
 20
-1.9285708809
 10
154.6785752563
 20
-2.3571432495
 10
155.5357131958
 20
-2.3571432495
 10
155.9642821655
 20
-1.9285708809
 10
155.9642821655
 20
-1.0000006256
  0
LINE
  5
3BE
100
AcDbEntity
  8
RACCORDO
100
AcDbLine
 62
7
  6
CONTINUOUS
 10
-130.3211981714
 20
-44.8768054117
 11
-127.9705053922
 21
-45.0
  0
LINE
  5
3BF
100
AcDbEntity
  8
ASSI
100
AcDbLine
 62
7
  6
CONTINUOUS
 10
-130.3211981714
 20
-44.8768054117
 11
-127.9705053922
 21
-45.0
  0
LINE
  5
3C0
100
AcDbEntity
  8
RACCORDO
100
AcDbLine
 62
250
  6
CONTINUOUS
 10
-130.449935797
 20
-43.8714290238
 11
-127.9705053922
 21
-44.0013704652
  0
LINE
  5
3C1
100
AcDbEntity
  8
ASSI
100
AcDbLine
 62
250
  6
CONTINUOUS
 10
-130.449935797
 20
-43.8714290238
 11
-127.9705053922
 21
-44.0013704652
  0
LWPOLYLINE
  5
3C2
100
AcDbEntity
  8
0
100
AcDbPolyline
 62
7
  6
CONTINUOUS
 90
10
 70
0
 43
0.3500000006
 10
-127.5275744934
 20
61.7500003967
 10
-128.170427948
 20
61.1071469421
 10
-128.5990059814
 20
60.249999939
 10
-128.5990059814
 20
59.1785684509
 10
-128.170427948
 20
58.7499994812
 10
-127.5275744934
 20
58.7499994812
 10
-127.0990055237
 20
59.1785684509
 10
-127.0990055237
 20
60.0357154541
 10
-127.5275744934
 20
60.4642844238
 10
-128.4561436157
 20
60.4642844238
  0
LWPOLYLINE
  5
3C3
100
AcDbEntity
  8
0
100
AcDbPolyline
 62
7
  6
CONTINUOUS
 90
3
 70
0
 43
0.3500000006
 10
-129.5990062866
 20
59.0357151489
 10
-129.6704284058
 20
58.8214306641
 10
-129.8132907715
 20
58.5357149963
  0
LWPOLYLINE
  5
3C4
100
AcDbEntity
  8
0
100
AcDbPolyline
 62
7
  6
CONTINUOUS
 90
4
 70
0
 43
0.3500000006
 10
-132.6704293213
 20
59.1785684509
 10
-132.6704293213
 20
60.0357154541
 10
-132.2418603516
 20
60.4642844238
 10
-131.5989978333
 20
60.4642844238
  0
LINE
  5
3C5
100
AcDbEntity
  8
DRAFT
100
AcDbLine
 62
7
  6
CONTINUOUS
 10
-125.1705053922
 20
-3.8526539614
 11
-127.1705053922
 21
-3.5
  0
LINE
  5
3C6
100
AcDbEntity
  8
ASSI
100
AcDbLine
 62
7
  6
CONTINUOUS
 10
-125.1705053922
 20
-3.8526539614
 11
-127.1705053922
 21
-3.5
  0
LINE
  5
3C7
100
AcDbEntity
  8
RACCORDO
100
AcDbLine
 62
7
  6
CONTINUOUS
 10
-127.9705053922
 20
-45.0
 11
-127.9705053922
 21
45.0
  0
LINE
  5
3C8
100
AcDbEntity
  8
ASSI
100
AcDbLine
 62
7
  6
CONTINUOUS
 10
-127.9705053922
 20
-45.0
 11
-127.9705053922
 21
45.0
  0
LINE
  5
3C9
100
AcDbEntity
  8
DRAFT
100
AcDbLine
 62
7
  6
CONTINUOUS
 10
-127.1705053922
 20
3.5
 11
-127.1705053922
 21
-3.5
  0
LINE
  5
3CA
100
AcDbEntity
  8
ASSI
100
AcDbLine
 62
7
  6
CONTINUOUS
 10
-127.1705053922
 20
3.5
 11
-127.1705053922
 21
-3.5
  0
LINE
  5
3CB
100
AcDbEntity
  8
DRAFT
100
AcDbLine
 62
7
  6
CONTINUOUS
 10
-125.1705053922
 20
3.8526539614
 11
-127.1705053922
 21
3.5
  0
LINE
  5
3CC
100
AcDbEntity
  8
ASSI
100
AcDbLine
 62
7
  6
CONTINUOUS
 10
-125.1705053922
 20
3.8526539614
 11
-127.1705053922
 21
3.5
  0
LINE
  5
3CD
100
AcDbEntity
  8
DRAFT
100
AcDbLine
 62
7
  6
CONTINUOUS
 10
-125.1705053922
 20
43.0970755118
 11
-125.1705053922
 21
3.8526539614
  0
LINE
  5
3CE
100
AcDbEntity
  8
RACCORDO
100
AcDbLine
 62
7
  6
CONTINUOUS
 10
-125.1705053922
 20
43.499999972
 11
-125.1705053922
 21
43.0970755118
  0
LINE
  5
3CF
100
AcDbEntity
  8
ASSI
100
AcDbLine
 62
7
  6
CONTINUOUS
 10
-125.1705053922
 20
43.499999972
 11
-125.1705053922
 21
3.8526539614
  0
LINE
  5
3D0
100
AcDbEntity
  8
ASSI
100
AcDbLine
 62
250
  6
CONTINUOUS
 10
-125.1705053922
 20
3.8526539614
 11
-125.1705053922
 21
-3.8526539614
  0
LINE
  5
3D1
100
AcDbEntity
  8
DRAFT
100
AcDbLine
 62
7
  6
CONTINUOUS
 10
-125.1705053922
 20
-3.8526539614
 11
-125.1705053922
 21
-43.0970748075
  0
LINE
  5
3D2
100
AcDbEntity
  8
RACCORDO
100
AcDbLine
 62
7
  6
CONTINUOUS
 10
-125.1705053922
 20
-43.0970748075
 11
-125.1705053922
 21
-43.5000000254
  0
LINE
  5
3D3
100
AcDbEntity
  8
ASSI
100
AcDbLine
 62
7
  6
CONTINUOUS
 10
-125.1705053922
 20
-3.8526539614
 11
-125.1705053922
 21
-43.5000000254
  0
LWPOLYLINE
  5
3D4
100
AcDbEntity
  8
0
100
AcDbPolyline
 62
7
  6
CONTINUOUS
 90
10
 70
0
 43
0.3500000006
 10
-129.6704284058
 20
59.2499996338
 10
-129.5990062866
 20
59.1071463318
 10
-129.5990062866
 20
59.0357151489
 10
-129.7418595886
 20
58.8928527832
 10
-129.8132907715
 20
58.8928527832
 10
-129.8847128906
 20
58.9642839661
 10
-129.8847128906
 20
59.0357151489
 10
-129.8132907715
 20
59.1785684509
 10
-129.7418595886
 20
59.2499996338
 10
-129.6704284058
 20
59.2499996338
  0
LINE
  5
3D5
100
AcDbEntity
  8
RACCORDO
100
AcDbLine
 62
250
  6
CONTINUOUS
 10
-130.449935797
 20
43.8714290238
 11
-127.9705053922
 21
44.0013704652
  0
LINE
  5
3D6
100
AcDbEntity
  8
ASSI
100
AcDbLine
 62
250
  6
CONTINUOUS
 10
-130.449935797
 20
43.8714290238
 11
-127.9705053922
 21
44.0013704652
  0
LINE
  5
3D7
100
AcDbEntity
  8
RACCORDO
100
AcDbLine
 62
7
  6
CONTINUOUS
 10
-130.3211981714
 20
44.8768054117
 11
-127.9705053922
 21
45.0
  0
LINE
  5
3D8
100
AcDbEntity
  8
ASSI
100
AcDbLine
 62
7
  6
CONTINUOUS
 10
-130.3211981714
 20
44.8768054117
 11
-127.9705053922
 21
45.0
  0
LWPOLYLINE
  5
3D9
100
AcDbEntity
  8
0
100
AcDbPolyline
 62
7
  6
CONTINUOUS
 90
13
 70
0
 43
0.3500000006
 10
-132.2418603516
 20
60.4642844238
 10
-132.5275760193
 20
60.6785689087
 10
-132.5275760193
 20
61.321431427
 10
-132.2418603516
 20
61.7500003967
 10
-131.5989978333
 20
61.7500003967
 10
-131.3132912292
 20
61.321431427
 10
-131.3132912292
 20
60.6785689087
 10
-131.5989978333
 20
60.4642844238
 10
-131.1704288635
 20
60.0357154541
 10
-131.1704288635
 20
59.1785684509
 10
-131.5989978333
 20
58.7499994812
 10
-132.2418603516
 20
58.7499994812
 10
-132.6704293213
 20
59.1785684509
  0
ARC
  5
3DA
100
AcDbEntity
  8
RACCORDO
100
AcDbCircle
 62
250
  6
CONTINUOUS
 10
-3250.3785846226
 20
-14.3975510408
 40
3145.9466848954
100
AcDbArc
 50
359.4622280965
 51
359.8493801039
  0
ARC
  5
3DB
100
AcDbEntity
  8
ASSI
100
AcDbCircle
 62
250
  6
CONTINUOUS
 10
-3250.3785846226
 20
-14.3975510408
 40
3145.9466848954
100
AcDbArc
 50
359.4622280965
 51
359.8493801039
  0
ARC
  5
3DC
100
AcDbEntity
  8
RACCORDO
100
AcDbCircle
 62
250
  6
CONTINUOUS
 10
-3239.4054391696
 20
-14.3973243559
 40
3134.6739503732
100
AcDbArc
 50
359.4612624109
 51
359.8491094731
  0
ARC
  5
3DD
100
AcDbEntity
  8
ASSI
100
AcDbCircle
 62
250
  6
CONTINUOUS
 10
-3239.4054391696
 20
-14.3973243559
 40
3134.6739503732
100
AcDbArc
 50
359.4612624109
 51
359.8491094731
  0
ARC
  5
3DE
100
AcDbEntity
  8
RACCORDO
100
AcDbCircle
 62
250
  6
CONTINUOUS
 10
-78.1926480439
 20
-21.8660133597
 40
1.301529668
100
AcDbArc
 50
218.0210140299
 51
270.0001056157
  0
ARC
  5
3DF
100
AcDbEntity
  8
ASSI
100
AcDbCircle
 62
250
  6
CONTINUOUS
 10
-78.1926480439
 20
-21.8660133597
 40
1.301529668
100
AcDbArc
 50
218.0210140299
 51
270.0001056157
  0
ARC
  5
3E0
100
AcDbEntity
  8
RACCORDO
100
AcDbCircle
 62
250
  6
CONTINUOUS
 10
-78.1959839774
 20
-21.8669734057
 40
1.2983090265
100
AcDbArc
 50
180.14992096
 51
218.0783838849
  0
ARC
  5
3E1
100
AcDbEntity
  8
ASSI
100
AcDbCircle
 62
250
  6
CONTINUOUS
 10
-78.1959839774
 20
-21.8669734057
 40
1.2983090265
100
AcDbArc
 50
180.14992096
 51
218.0783838849
  0
ARC
  5
3E2
100
AcDbEntity
  8
ASSI
100
AcDbCircle
 62
250
  6
CONTINUOUS
 10
-77.85
 20
-21.5
 40
0.9
100
AcDbArc
 50
180.0
 51
270.0
  0
ARC
  5
3E3
100
AcDbEntity
  8
RACCORDO
100
AcDbCircle
 62
250
  6
CONTINUOUS
 10
-78.1947056232
 20
-21.8394297666
 40
0.8021221438
100
AcDbArc
 50
218.243531069
 51
270.1465386962
  0
ARC
  5
3E4
100
AcDbEntity
  8
ASSI
100
AcDbCircle
 62
250
  6
CONTINUOUS
 10
-78.1947056232
 20
-21.8394297666
 40
0.8021221438
100
AcDbArc
 50
218.243531069
 51
270.1465386962
  0
ARC
  5
3E5
100
AcDbEntity
  8
RACCORDO
100
AcDbCircle
 62
250
  6
CONTINUOUS
 10
-78.1995800728
 20
-21.8441114083
 40
0.7953961279
100
AcDbArc
 50
180.141909852
 51
218.1960180045
  0
ARC
  5
3E6
100
AcDbEntity
  8
ASSI
100
AcDbCircle
 62
250
  6
CONTINUOUS
 10
-78.1995800728
 20
-21.8441114083
 40
0.7953961279
100
AcDbArc
 50
180.141909852
 51
218.1960180045
  0
ARC
  5
3E7
100
AcDbEntity
  8
RACCORDO
100
AcDbCircle
 62
250
  6
CONTINUOUS
 10
-8510.2088322873
 20
0.0
 40
8589.730963039
100
AcDbArc
 50
359.8541186808
 51
0.1458813192
  0
ARC
  5
3E8
100
AcDbEntity
  8
ASSI
100
AcDbCircle
 62
250
  6
CONTINUOUS
 10
-8510.2088322873
 20
0.0
 40
8589.730963039
100
AcDbArc
 50
359.8541186808
 51
0.1458813192
  0
ARC
  5
3E9
100
AcDbEntity
  8
RACCORDO
100
AcDbCircle
 62
250
  6
CONTINUOUS
 10
-8689.8389455969
 20
0.000000002
 40
8585.4260996414
100
AcDbArc
 50
359.8487248017
 51
0.1512751984
  0
ARC
  5
3EA
100
AcDbEntity
  8
ASSI
100
AcDbCircle
 62
250
  6
CONTINUOUS
 10
-8689.8389455969
 20
0.000000002
 40
8585.4260996414
100
AcDbArc
 50
359.8487248017
 51
0.1512751984
  0
ARC
  5
3EB
100
AcDbEntity
  8
RACCORDO
100
AcDbCircle
 62
250
  6
CONTINUOUS
 10
-8678.7096061141
 20
-0.0
 40
8573.9971712856
100
AcDbArc
 50
359.8486237559
 51
0.1513762441
  0
ARC
  5
3EC
100
AcDbEntity
  8
ASSI
100
AcDbCircle
 62
250
  6
CONTINUOUS
 10
-8678.7096061141
 20
-0.0
 40
8573.9971712856
100
AcDbArc
 50
359.8486237559
 51
0.1513762441
  0
ARC
  5
3ED
100
AcDbEntity
  8
RACCORDO
100
AcDbCircle
 62
250
  6
CONTINUOUS
 10
-8491.633823559
 20
-0.0000001783
 40
8570.6566395409
100
AcDbArc
 50
359.8539563762
 51
0.1460436167
  0
ARC
  5
3EE
100
AcDbEntity
  8
ASSI
100
AcDbCircle
 62
250
  6
CONTINUOUS
 10
-8491.633823559
 20
-0.0000001783
 40
8570.6566395409
100
AcDbArc
 50
359.8539563762
 51
0.1460436167
  0
ARC
  5
3EF
100
AcDbEntity
  8
RACCORDO
100
AcDbCircle
 62
250
  6
CONTINUOUS
 10
-3227.3960594839
 20
14.5356168163
 40
3122.9638771854
100
AcDbArc
 50
0.1491953082
 51
0.5391964915
  0
ARC
  5
3F0
100
AcDbEntity
  8
ASSI
100
AcDbCircle
 62
250
  6
CONTINUOUS
 10
-3227.3960594839
 20
14.5356168163
 40
3122.9638771854
100
AcDbArc
 50
0.1491953082
 51
0.5391964915
  0
ARC
  5
3F1
100
AcDbEntity
  8
RACCORDO
100
AcDbCircle
 62
250
  6
CONTINUOUS
 10
-3216.5115870711
 20
14.5351044406
 40
3111.7798157812
100
AcDbArc
 50
0.1494637779
 51
0.5401643381
  0
ARC
  5
3F2
100
AcDbEntity
  8
ASSI
100
AcDbCircle
 62
250
  6
CONTINUOUS
 10
-3216.5115870711
 20
14.5351044406
 40
3111.7798157812
100
AcDbArc
 50
0.1494637779
 51
0.5401643381
  0
ARC
  5
3F3
100
AcDbEntity
  8
RACCORDO
100
AcDbCircle
 62
250
  6
CONTINUOUS
 10
-78.192645265
 20
21.8660099459
 40
1.3015330818
100
AcDbArc
 50
90.0000167161
 51
141.9781442319
  0
ARC
  5
3F4
100
AcDbEntity
  8
ASSI
100
AcDbCircle
 62
250
  6
CONTINUOUS
 10
-78.192645265
 20
21.8660099459
 40
1.3015330818
100
AcDbArc
 50
90.0000167161
 51
141.9781442319
  0
ARC
  5
3F5
100
AcDbEntity
  8
RACCORDO
100
AcDbCircle
 62
250
  6
CONTINUOUS
 10
-78.1959674701
 20
21.8669694631
 40
1.298325544
100
AcDbArc
 50
141.9211952134
 51
179.8499069555
  0
ARC
  5
3F6
100
AcDbEntity
  8
ASSI
100
AcDbCircle
 62
250
  6
CONTINUOUS
 10
-78.1959674701
 20
21.8669694631
 40
1.298325544
100
AcDbArc
 50
141.9211952134
 51
179.8499069555
  0
ARC
  5
3F7
100
AcDbEntity
  8
ASSI
100
AcDbCircle
 62
250
  6
CONTINUOUS
 10
-77.85
 20
21.5
 40
0.9
100
AcDbArc
 50
90.0
 51
180.0
  0
ARC
  5
3F8
100
AcDbEntity
  8
RACCORDO
100
AcDbCircle
 62
250
  6
CONTINUOUS
 10
-78.194705788
 20
21.8394300676
 40
0.8021218281
100
AcDbArc
 50
89.8546828902
 51
141.7564785309
  0
ARC
  5
3F9
100
AcDbEntity
  8
ASSI
100
AcDbCircle
 62
250
  6
CONTINUOUS
 10
-78.194705788
 20
21.8394300676
 40
0.8021218281
100
AcDbArc
 50
89.8546828902
 51
141.7564785309
  0
ARC
  5
3FA
100
AcDbEntity
  8
RACCORDO
100
AcDbCircle
 62
250
  6
CONTINUOUS
 10
-78.199580316
 20
21.8441114939
 40
0.7953958838
100
AcDbArc
 50
141.8039760113
 51
179.8579098538
  0
ARC
  5
3FB
100
AcDbEntity
  8
ASSI
100
AcDbCircle
 62
250
  6
CONTINUOUS
 10
-78.199580316
 20
21.8441114939
 40
0.7953958838
100
AcDbArc
 50
141.8039760113
 51
179.8579098538
  0
ARC
  5
3FC
100
AcDbEntity
  8
RACCORDO
100
AcDbCircle
 62
250
  6
CONTINUOUS
 10
3227.39605102
 20
-14.5356168894
 40
3122.9638687213
100
AcDbArc
 50
180.1491953097
 51
180.5391964917
  0
ARC
  5
3FD
100
AcDbEntity
  8
ASSI
100
AcDbCircle
 62
250
  6
CONTINUOUS
 10
3227.39605102
 20
-14.5356168894
 40
3122.9638687213
100
AcDbArc
 50
180.1491953097
 51
180.5391964917
  0
ARC
  5
3FE
100
AcDbEntity
  8
RACCORDO
100
AcDbCircle
 62
250
  6
CONTINUOUS
 10
3216.511587071
 20
-14.5351044406
 40
3111.7798157812
100
AcDbArc
 50
180.1494637779
 51
180.5401643381
  0
ARC
  5
3FF
100
AcDbEntity
  8
ASSI
100
AcDbCircle
 62
250
  6
CONTINUOUS
 10
3216.511587071
 20
-14.5351044406
 40
3111.7798157812
100
AcDbArc
 50
180.1494637779
 51
180.5401643381
  0
ARC
  5
400
100
AcDbEntity
  8
RACCORDO
100
AcDbCircle
 62
250
  6
CONTINUOUS
 10
78.1926452651
 20
-21.8660099459
 40
1.3015330817
100
AcDbArc
 50
270.0000167156
 51
321.9781442324
  0
ARC
  5
401
100
AcDbEntity
  8
ASSI
100
AcDbCircle
 62
250
  6
CONTINUOUS
 10
78.1926452651
 20
-21.8660099459
 40
1.3015330817
100
AcDbArc
 50
270.0000167156
 51
321.9781442324
  0
ARC
  5
402
100
AcDbEntity
  8
RACCORDO
100
AcDbCircle
 62
250
  6
CONTINUOUS
 10
78.1959691805
 20
-21.8669700558
 40
1.2983238321
100
AcDbArc
 50
321.9211692526
 51
359.8499329163
  0
ARC
  5
403
100
AcDbEntity
  8
ASSI
100
AcDbCircle
 62
250
  6
CONTINUOUS
 10
78.1959691805
 20
-21.8669700558
 40
1.2983238321
100
AcDbArc
 50
321.9211692526
 51
359.8499329163
  0
ARC
  5
404
100
AcDbEntity
  8
ASSI
100
AcDbCircle
 62
250
  6
CONTINUOUS
 10
77.85
 20
-21.5
 40
0.9
100
AcDbArc
 50
270.0
 51
360.0
  0
ARC
  5
405
100
AcDbEntity
  8
RACCORDO
100
AcDbCircle
 62
250
  6
CONTINUOUS
 10
78.194705788
 20
-21.8394300676
 40
0.8021218281
100
AcDbArc
 50
269.8546828894
 51
321.7564785309
  0
ARC
  5
406
100
AcDbEntity
  8
ASSI
100
AcDbCircle
 62
250
  6
CONTINUOUS
 10
78.194705788
 20
-21.8394300676
 40
0.8021218281
100
AcDbArc
 50
269.8546828894
 51
321.7564785309
  0
ARC
  5
407
100
AcDbEntity
  8
RACCORDO
100
AcDbCircle
 62
250
  6
CONTINUOUS
 10
78.199580214
 20
-21.8441114584
 40
0.7953959859
100
AcDbArc
 50
321.8039785446
 51
359.857913645
  0
ARC
  5
408
100
AcDbEntity
  8
ASSI
100
AcDbCircle
 62
250
  6
CONTINUOUS
 10
78.199580214
 20
-21.8441114584
 40
0.7953959859
100
AcDbArc
 50
321.8039785446
 51
359.857913645
  0
ARC
  5
409
100
AcDbEntity
  8
RACCORDO
100
AcDbCircle
 62
250
  6
CONTINUOUS
 10
8510.2088322944
 20
0.0
 40
8589.7309630461
100
AcDbArc
 50
179.8541186808
 51
180.1458813192
  0
ARC
  5
40A
100
AcDbEntity
  8
ASSI
100
AcDbCircle
 62
250
  6
CONTINUOUS
 10
8510.2088322944
 20
0.0
 40
8589.7309630461
100
AcDbArc
 50
179.8541186808
 51
180.1458813192
  0
ARC
  5
40B
100
AcDbEntity
  8
RACCORDO
100
AcDbCircle
 62
250
  6
CONTINUOUS
 10
8689.8389799928
 20
-0.0000000349
 40
8585.4261340373
100
AcDbArc
 50
179.8487248029
 51
180.1512751985
  0
ARC
  5
40C
100
AcDbEntity
  8
ASSI
100
AcDbCircle
 62
250
  6
CONTINUOUS
 10
8689.8389799928
 20
-0.0000000349
 40
8585.4261340373
100
AcDbArc
 50
179.8487248029
 51
180.1512751985
  0
ARC
  5
40D
100
AcDbEntity
  8
RACCORDO
100
AcDbCircle
 62
250
  6
CONTINUOUS
 10
8678.7096238767
 20
-0.0
 40
8573.9971890481
100
AcDbArc
 50
179.8486237562
 51
180.1513762438
  0
ARC
  5
40E
100
AcDbEntity
  8
ASSI
100
AcDbCircle
 62
250
  6
CONTINUOUS
 10
8678.7096238767
 20
-0.0
 40
8573.9971890481
100
AcDbArc
 50
179.8486237562
 51
180.1513762438
  0
ARC
  5
40F
100
AcDbEntity
  8
RACCORDO
100
AcDbCircle
 62
250
  6
CONTINUOUS
 10
8491.6336185427
 20
0.0000003237
 40
8570.6564345249
100
AcDbArc
 50
179.853956373
 51
180.146043614
  0
ARC
  5
410
100
AcDbEntity
  8
ASSI
100
AcDbCircle
 62
250
  6
CONTINUOUS
 10
8491.6336185427
 20
0.0000003237
 40
8570.6564345249
100
AcDbArc
 50
179.853956373
 51
180.146043614
  0
ARC
  5
411
100
AcDbEntity
  8
RACCORDO
100
AcDbCircle
 62
250
  6
CONTINUOUS
 10
3250.3786072437
 20
14.397550883
 40
3145.946707517
100
AcDbArc
 50
179.4622280975
 51
179.8493801046
  0
ARC
  5
412
100
AcDbEntity
  8
ASSI
100
AcDbCircle
 62
250
  6
CONTINUOUS
 10
3250.3786072437
 20
14.397550883
 40
3145.946707517
100
AcDbArc
 50
179.4622280975
 51
179.8493801046
  0
ARC
  5
413
100
AcDbEntity
  8
RACCORDO
100
AcDbCircle
 62
250
  6
CONTINUOUS
 10
3239.4054391696
 20
14.3973243559
 40
3134.6739503732
100
AcDbArc
 50
179.4612624109
 51
179.8491094731
  0
ARC
  5
414
100
AcDbEntity
  8
ASSI
100
AcDbCircle
 62
250
  6
CONTINUOUS
 10
3239.4054391696
 20
14.3973243559
 40
3134.6739503732
100
AcDbArc
 50
179.4612624109
 51
179.8491094731
  0
ARC
  5
415
100
AcDbEntity
  8
RACCORDO
100
AcDbCircle
 62
250
  6
CONTINUOUS
 10
78.1926490462
 20
21.8660177021
 40
1.3015253255
100
AcDbArc
 50
38.0216893153
 51
90.000149737
  0
ARC
  5
416
100
AcDbEntity
  8
ASSI
100
AcDbCircle
 62
250
  6
CONTINUOUS
 10
78.1926490462
 20
21.8660177021
 40
1.3015253255
100
AcDbArc
 50
38.0216893153
 51
90.000149737
  0
ARC
  5
417
100
AcDbEntity
  8
RACCORDO
100
AcDbCircle
 62
250
  6
CONTINUOUS
 10
78.1959709581
 20
21.8669706719
 40
1.2983220529
100
AcDbArc
 50
0.1500401024
 51
38.078857729
  0
ARC
  5
418
100
AcDbEntity
  8
ASSI
100
AcDbCircle
 62
250
  6
CONTINUOUS
 10
78.1959709581
 20
21.8669706719
 40
1.2983220529
100
AcDbArc
 50
0.1500401024
 51
38.078857729
  0
ARC
  5
419
100
AcDbEntity
  8
ASSI
100
AcDbCircle
 62
250
  6
CONTINUOUS
 10
77.85
 20
21.5
 40
0.9
100
AcDbArc
 50
0.0
 51
90.0
  0
ARC
  5
41A
100
AcDbEntity
  8
RACCORDO
100
AcDbCircle
 62
250
  6
CONTINUOUS
 10
78.1947056232
 20
21.8394297666
 40
0.8021221438
100
AcDbArc
 50
38.243531069
 51
90.1465386959
  0
ARC
  5
41B
100
AcDbEntity
  8
ASSI
100
AcDbCircle
 62
250
  6
CONTINUOUS
 10
78.1947056232
 20
21.8394297666
 40
0.8021221438
100
AcDbArc
 50
38.243531069
 51
90.1465386959
  0
ARC
  5
41C
100
AcDbEntity
  8
RACCORDO
100
AcDbCircle
 62
250
  6
CONTINUOUS
 10
78.1995802204
 20
21.84411146
 40
0.7953959799
100
AcDbArc
 50
0.1419835553
 51
38.1960216462
  0
ARC
  5
41D
100
AcDbEntity
  8
ASSI
100
AcDbCircle
 62
250
  6
CONTINUOUS
 10
78.1995802204
 20
21.84411146
 40
0.7953959799
100
AcDbArc
 50
0.1419835553
 51
38.1960216462
  0
ARC
  5
41E
100
AcDbEntity
  8
RACCORDO
100
AcDbCircle
 62
7
  6
CONTINUOUS
 10
-130.3054981439
 20
-44.5772125487
 40
0.3
100
AcDbArc
 50
190.4610191987
 51
267.0001848343
  0
ARC
  5
41F
100
AcDbEntity
  8
ASSI
100
AcDbCircle
 62
7
  6
CONTINUOUS
 10
-130.3054981439
 20
-44.5772125487
 40
0.3
100
AcDbArc
 50
190.4610191987
 51
267.0001848343
  0
ARC
  5
420
100
AcDbEntity
  8
RACCORDO
100
AcDbCircle
 62
250
  6
CONTINUOUS
 10
-128.2336168814
 20
-38.3436591145
 40
5.6631415448
100
AcDbArc
 50
272.662940086
 51
287.2574611509
  0
ARC
  5
421
100
AcDbEntity
  8
ASSI
100
AcDbCircle
 62
250
  6
CONTINUOUS
 10
-128.2336168814
 20
-38.3436591145
 40
5.6631415448
100
AcDbArc
 50
272.662940086
 51
287.2574611509
  0
ARC
  5
422
100
AcDbEntity
  8
RACCORDO
100
AcDbCircle
 62
7
  6
CONTINUOUS
 10
-128.2419852087
 20
-39.3198565139
 40
5.1872524353
100
AcDbArc
 50
273.000000003
 51
306.307647643
  0
ARC
  5
423
100
AcDbEntity
  8
ASSI
100
AcDbCircle
 62
7
  6
CONTINUOUS
 10
-128.2419852087
 20
-39.3198565139
 40
5.1872524353
100
AcDbArc
 50
273.000000003
 51
306.307647643
  0
ARC
  5
424
100
AcDbEntity
  8
RACCORDO
100
AcDbCircle
 62
7
  6
CONTINUOUS
 10
34.0501863754
 20
-14.2336437913
 40
167.4332498099
100
AcDbArc
 50
182.8873441217
 51
190.4602411505
  0
ARC
  5
425
100
AcDbEntity
  8
0
100
AcDbCircle
 62
7
  6
CONTINUOUS
 10
34.0501863754
 20
-14.2336437913
 40
167.4332498099
100
AcDbArc
 50
184.0677903884
 51
185.0176525292
  0
ARC
  5
426
100
AcDbEntity
  8
ASSI
100
AcDbCircle
 62
7
  6
CONTINUOUS
 10
34.0501863754
 20
-14.2336437913
 40
167.4332498099
100
AcDbArc
 50
182.8873441217
 51
190.4602411505
  0
ARC
  5
427
100
AcDbEntity
  8
RACCORDO
100
AcDbCircle
 62
250
  6
CONTINUOUS
 10
34.0336523745
 20
-14.2337394729
 40
167.1324128339
100
AcDbArc
 50
182.8873454031
 51
190.2143127298
  0
ARC
  5
428
100
AcDbEntity
  8
ASSI
100
AcDbCircle
 62
250
  6
CONTINUOUS
 10
34.0336523745
 20
-14.2337394729
 40
167.1324128339
100
AcDbArc
 50
182.8873454031
 51
190.2143127298
  0
ARC
  5
429
100
AcDbEntity
  8
RACCORDO
100
AcDbCircle
 62
7
  6
CONTINUOUS
 10
-130.3054973845
 20
44.5772165512
 40
0.3
100
AcDbArc
 50
93.0
 51
169.5397588495
  0
ARC
  5
42A
100
AcDbEntity
  8
ASSI
100
AcDbCircle
 62
7
  6
CONTINUOUS
 10
-130.3054973845
 20
44.5772165512
 40
0.3
100
AcDbArc
 50
93.0
 51
169.5397588495
  0
ARC
  5
42B
100
AcDbEntity
  8
RACCORDO
100
AcDbCircle
 62
250
  6
CONTINUOUS
 10
-128.2383850072
 20
38.316510055
 40
5.6904838925
100
AcDbArc
 50
72.777419598
 51
87.3018029169
  0
ARC
  5
42C
100
AcDbEntity
  8
ASSI
100
AcDbCircle
 62
250
  6
CONTINUOUS
 10
-128.2383850072
 20
38.316510055
 40
5.6904838925
100
AcDbArc
 50
72.777419598
 51
87.3018029169
  0
ARC
  5
42D
100
AcDbEntity
  8
RACCORDO
100
AcDbCircle
 62
7
  6
CONTINUOUS
 10
-128.2419852087
 20
39.3198565139
 40
5.1872524353
100
AcDbArc
 50
53.6923513618
 51
86.9999997664
  0
ARC
  5
42E
100
AcDbEntity
  8
ASSI
100
AcDbCircle
 62
7
  6
CONTINUOUS
 10
-128.2419852087
 20
39.3198565139
 40
5.1872524353
100
AcDbArc
 50
53.6923513618
 51
86.9999997664
  0
ARC
  5
42F
100
AcDbEntity
  8
RACCORDO
100
AcDbCircle
 62
7
  6
CONTINUOUS
 10
34.0501863754
 20
14.2336437913
 40
167.4332498099
100
AcDbArc
 50
169.5397588495
 51
177.1126559741
  0
ARC
  5
430
100
AcDbEntity
  8
ASSI
100
AcDbCircle
 62
7
  6
CONTINUOUS
 10
34.0501863754
 20
14.2336437913
 40
167.4332498099
100
AcDbArc
 50
169.5397588495
 51
177.1126559741
  0
ARC
  5
431
100
AcDbEntity
  8
0
100
AcDbCircle
 62
250
  6
CONTINUOUS
 10
34.0501863754
 20
14.2336437913
 40
167.4332498099
100
AcDbArc
 50
174.8378886711
 51
176.2097334504
  0
ARC
  5
432
100
AcDbEntity
  8
RACCORDO
100
AcDbCircle
 62
250
  6
CONTINUOUS
 10
34.0336422901
 20
14.2337406309
 40
167.1324027039
100
AcDbArc
 50
169.7856870479
 51
177.1126548193
  0
ARC
  5
433
100
AcDbEntity
  8
ASSI
100
AcDbCircle
 62
250
  6
CONTINUOUS
 10
34.0336422901
 20
14.2337406309
 40
167.1324027039
100
AcDbArc
 50
169.7856870479
 51
177.1126548193
  0
ARC
  5
434
100
AcDbEntity
  8
RACCORDO
100
AcDbCircle
 62
7
  6
CONTINUOUS
 10
316.2582154912
 20
-0.0
 40
450.0
100
AcDbArc
 50
177.1126435736
 51
182.8873564621
  0
ARC
  5
435
100
AcDbEntity
  8
ASSI
100
AcDbCircle
 62
7
  6
CONTINUOUS
 10
316.2582154912
 20
-0.0
 40
450.0
100
AcDbArc
 50
177.1126435736
 51
182.8873564621
  0
ARC
  5
436
100
AcDbEntity
  8
RACCORDO
100
AcDbCircle
 62
250
  6
CONTINUOUS
 10
316.2425147046
 20
-0.0
 40
449.7000000003
100
AcDbArc
 50
177.1126362257
 51
182.8873637743
  0
ARC
  5
437
100
AcDbEntity
  8
ASSI
100
AcDbCircle
 62
250
  6
CONTINUOUS
 10
316.2425147046
 20
-0.0
 40
449.7000000003
100
AcDbArc
 50
177.1126362257
 51
182.8873637743
  0
SPLINE
  5
438
100
AcDbEntity
  8
0
100
AcDbSpline
 62
7
  6
CONTINUOUS
 70
0
 71
3
 72
9
 73
5
 74
0
 42
0.0000001
 43
0.0000001
 44
0.0000000001
 40
0.0
 40
0.0
 40
0.0
 40
0.0
 40
0.7295958321
 40
1.0
 40
1.0
 40
1.0
 40
1.0
 10
4.6205134302
 20
-26.538572249
 30
0.0
 10
4.5096111281
 20
-26.5257006641
 30
0.0
 10
4.3548035222
 20
-26.5252045035
 30
0.0
 10
4.2034864135
 20
-26.5480947605
 30
0.0
 10
4.1626972541
 20
-26.5550547959
 30
0.0
  0
SPLINE
  5
439
100
AcDbEntity
  8
0
100
AcDbSpline
 62
7
  6
CONTINUOUS
 70
0
 71
3
 72
9
 73
5
 74
0
 42
0.0000001
 43
0.0000001
 44
0.0000000001
 40
0.0
 40
0.0
 40
0.0
 40
0.0
 40
0.4988583551
 40
1.0
 40
1.0
 40
1.0
 40
1.0
 10
4.9506521589
 20
-26.8887857286
 30
0.0
 10
4.9493698449
 20
-26.8029633
 30
0.0
 10
4.8794958723
 20
-26.6239753856
 30
0.0
 10
4.7061699303
 20
-26.5485137461
 30
0.0
 10
4.6205134302
 20
-26.5385722488
 30
0.0
  0
SPLINE
  5
43A
100
AcDbEntity
  8
0
100
AcDbSpline
 62
7
  6
CONTINUOUS
 70
0
 71
3
 72
9
 73
5
 74
0
 42
0.0000001
 43
0.0000001
 44
0.0000000001
 40
0.0
 40
0.0
 40
0.0
 40
0.0
 40
0.479537546
 40
1.0
 40
1.0
 40
1.0
 40
1.0
 10
4.4966806432
 20
-27.3236280866
 30
0.0
 10
4.6081111271
 20
-27.3211392056
 30
0.0
 10
4.8669268807
 20
-27.2739986463
 30
0.0
 10
4.9524596962
 20
-27.0097627726
 30
0.0
 10
4.9506521347
 20
-26.8887857289
 30
0.0
  0
SPLINE
  5
43B
100
AcDbEntity
  8
0
100
AcDbSpline
 62
7
  6
CONTINUOUS
 70
0
 71
3
 72
9
 73
5
 74
0
 42
0.0000001
 43
0.0000001
 44
0.0000000001
 40
0.0
 40
0.0
 40
0.0
 40
0.0
 40
0.6439294728
 40
1.0
 40
1.0
 40
1.0
 40
1.0
 10
4.8214020872
 20
-28.0286629464
 30
0.0
 10
4.7890022498
 20
-27.9424410079
 30
0.0
 10
4.692786726
 20
-27.8129762619
 30
0.0
 10
4.5463479047
 20
-27.7821519248
 30
0.0
 10
4.4954209623
 20
-27.7821519248
 30
0.0
  0
SPLINE
  5
43C
100
AcDbEntity
  8
0
100
AcDbSpline
 62
7
  6
CONTINUOUS
 70
0
 71
3
 72
9
 73
5
 74
0
 42
0.0000001
 43
0.0000001
 44
0.0000000001
 40
0.0
 40
0.0
 40
0.0
 40
0.0
 40
0.4412847549
 40
1.0
 40
1.0
 40
1.0
 40
1.0
 10
5.0770156219
 20
-28.8778013544
 30
0.0
 10
5.0409723412
 20
-28.7524351727
 30
0.0
 10
4.9558677839
 20
-28.4695061624
 30
0.0
 10
4.8794973829
 20
-28.183265594
 30
0.0
 10
4.8214020565
 20
-28.028662958
 30
0.0
  0
SPLINE
  5
43D
100
AcDbEntity
  8
0
100
AcDbSpline
 62
7
  6
CONTINUOUS
 70
0
 71
3
 72
9
 73
5
 74
0
 42
0.0000001
 43
0.0000001
 44
0.0000000001
 40
0.0
 40
0.0
 40
0.0
 40
0.0
 40
0.8019701125
 40
1.0
 40
1.0
 40
1.0
 40
1.0
 10
5.4393791724
 20
-28.1201003266
 30
0.0
 10
5.4944413604
 20
-28.3222068213
 30
0.0
 10
5.5592396863
 20
-28.5752516924
 30
0.0
 10
5.6255909827
 20
-28.8278846732
 30
0.0
 10
5.6391482119
 20
-28.8778013544
 30
0.0
  0
SPLINE
  5
43E
100
AcDbEntity
  8
0
100
AcDbSpline
 62
7
  6
CONTINUOUS
 70
0
 71
3
 72
9
 73
5
 74
0
 42
0.0000001
 43
0.0000001
 44
0.0000000001
 40
0.0
 40
0.0
 40
0.0
 40
0.0
 40
0.7572691378
 40
1.0
 40
1.0
 40
1.0
 40
1.0
 10
5.1025031649
 20
-27.5709244369
 30
0.0
 10
5.255367936
 20
-27.6318792643
 30
0.0
 10
5.3725710822
 20
-27.8637401448
 30
0.0
 10
5.4255129545
 20
-28.0692041948
 30
0.0
 10
5.439379172
 20
-28.1201003267
 30
0.0
  0
SPLINE
  5
43F
100
AcDbEntity
  8
0
100
AcDbSpline
 62
7
  6
CONTINUOUS
 70
0
 71
3
 72
17
 73
13
 74
0
 42
0.0000001
 43
0.0000001
 44
0.0000000001
 40
0.0
 40
0.0
 40
0.0
 40
0.0
 40
0.0799595168
 40
0.1896577306
 40
0.3223977561
 40
0.3986068941
 40
0.483386777
 40
0.5877249163
 40
0.678993766
 40
0.8312459613
 40
0.9440219048
 40
1.0
 40
1.0
 40
1.0
 40
1.0
 10
5.0422484297
 20
-26.1402838735
 30
0.0
 10
5.0859795369
 20
-26.1560600248
 30
0.0
 10
5.183634306
 20
-26.2099201326
 30
0.0
 10
5.325664752
 20
-26.3348013094
 30
0.0
 10
5.4262584299
 20
-26.4944905445
 30
0.0
 10
5.4798168525
 20
-26.6574351189
 30
0.0
 10
5.5019150414
 20
-26.8107834593
 30
0.0
 10
5.4977219253
 20
-26.9749694039
 30
0.0
 10
5.4530896147
 20
-27.1727887701
 30
0.0
 10
5.352899701
 20
-27.3624114407
 30
0.0
 10
5.2168310745
 20
-27.4855954586
 30
0.0
 10
5.1347821269
 20
-27.5502156007
 30
0.0
 10
5.1025031649
 20
-27.554380628
 30
0.0
  0
SPLINE
  5
440
100
AcDbEntity
  8
0
100
AcDbSpline
 62
7
  6
CONTINUOUS
 70
0
 71
3
 72
9
 73
5
 74
0
 42
0.0000001
 43
0.0000001
 44
0.0000000001
 40
0.0
 40
0.0
 40
0.0
 40
0.0
 40
0.7042582166
 40
1.0
 40
1.0
 40
1.0
 40
1.0
 10
3.6000188023
 20
-26.110807341
 30
0.0
 10
3.9372644821
 20
-26.0611927589
 30
0.0
 10
4.423711295
 20
-26.0123623732
 30
0.0
 10
4.9076197825
 20
-26.091645622
 30
0.0
 10
5.0422484297
 20
-26.1402838735
 30
0.0
  0
SPLINE
  5
441
100
AcDbEntity
  8
RACCORDO
100
AcDbSpline
 62
250
  6
CONTINUOUS
 70
0
 71
3
 72
13
 73
9
 74
0
 42
0.0000001
 43
0.0000001
 44
0.0000000001
 40
0.0
 40
0.0
 40
0.0
 40
0.0
 40
0.3594637566
 40
0.6696706049
 40
0.7929532182
 40
0.8896584024
 40
0.9579009014
 40
1.0
 40
1.0
 40
1.0
 40
1.0
 10
-104.5704696982
 20
43.9246280943
 30
0.0
 10
-104.6075786548
 20
43.9242886885
 30
0.0
 10
-104.6766879744
 20
43.921433029
 30
0.0
 10
-104.758216094
 20
43.9122812798
 30
0.0
 10
-104.811827142
 20
43.9013605335
 30
0.0
 10
-104.8405061231
 20
43.8927080344
 30
0.0
 10
-104.8597828577
 20
43.8840331218
 30
0.0
 10
-104.8688477969
 20
43.8756032227
 30
0.0
 10
-104.8700585586
 20
43.8714290238
 30
0.0
  0
SPLINE
  5
442
100
AcDbEntity
  8
RACCORDO
100
AcDbSpline
 62
250
  6
CONTINUOUS
 70
0
 71
3
 72
16
 73
12
 74
0
 42
0.0000001
 43
0.0000001
 44
0.0000000001
 40
0.0
 40
0.0
 40
0.0
 40
0.0
 40
0.3699259212
 40
0.5382268072
 40
0.6873077625
 40
0.811788968
 40
0.9072712504
 40
0.9430816484
 40
0.9705150828
 40
0.9894318306
 40
1.0
 40
1.0
 40
1.0
 40
1.0
 10
-104.4427702181
 20
22.6677048931
 30
0.0
 10
-104.4798325001
 20
22.6676071759
 30
0.0
 10
-104.5337585933
 20
22.6669863745
 30
0.0
 10
-104.6025921866
 20
22.6650633263
 30
0.0
 10
-104.6468295931
 20
22.6632539588
 30
0.0
 10
-104.683734442
 20
22.6610920538
 30
0.0
 10
-104.7092953101
 20
22.6589748912
 30
0.0
 10
-104.7250577244
 20
22.6570214455
 30
0.0
 10
-104.7332280536
 20
22.6557085357
 30
0.0
 10
-104.738691397
 20
22.6543605061
 30
0.0
 10
-104.7415971833
 20
22.6533283439
 30
0.0
 10
-104.7423590785
 20
22.6525930904
 30
0.0
  0
SPLINE
  5
443
100
AcDbEntity
  8
RACCORDO
100
AcDbSpline
 62
250
  6
CONTINUOUS
 70
0
 71
3
 72
16
 73
12
 74
0
 42
0.0000001
 43
0.0000001
 44
0.0000000001
 40
0.0
 40
0.0
 40
0.0
 40
0.0
 40
0.3699259182
 40
0.5382268031
 40
0.6873077578
 40
0.8117889634
 40
0.9072712467
 40
0.9430816454
 40
0.9705150807
 40
0.9894318295
 40
1.0
 40
1.0
 40
1.0
 40
1.0
 10
-104.4427702181
 20
-22.6677048929
 30
0.0
 10
-104.4798324998
 20
-22.6676071756
 30
0.0
 10
-104.5337585925
 20
-22.6669863743
 30
0.0
 10
-104.6025921854
 20
-22.6650633262
 30
0.0
 10
-104.6468295917
 20
-22.6632539587
 30
0.0
 10
-104.6837344406
 20
-22.6610920537
 30
0.0
 10
-104.7092953089
 20
-22.6589748911
 30
0.0
 10
-104.7250577235
 20
-22.6570214455
 30
0.0
 10
-104.7332280529
 20
-22.6557085357
 30
0.0
 10
-104.7386913967
 20
-22.654360506
 30
0.0
 10
-104.7415971831
 20
-22.6533283438
 30
0.0
 10
-104.7423590785
 20
-22.6525930904
 30
0.0
  0
SPLINE
  5
444
100
AcDbEntity
  8
RACCORDO
100
AcDbSpline
 62
250
  6
CONTINUOUS
 70
0
 71
3
 72
13
 73
9
 74
0
 42
0.0000001
 43
0.0000001
 44
0.0000000001
 40
0.0
 40
0.0
 40
0.0
 40
0.0
 40
0.3594649058
 40
0.6696715907
 40
0.7929538468
 40
0.8896586569
 40
0.9579009009
 40
1.0
 40
1.0
 40
1.0
 40
1.0
 10
-104.5704696982
 20
-43.9246280998
 30
0.0
 10
-104.6075782578
 20
-43.9242886228
 30
0.0
 10
-104.676686715
 20
-43.9214328697
 30
0.0
 10
-104.7582137487
 20
-43.9122810668
 30
0.0
 10
-104.811823934
 20
-43.901360334
 30
0.0
 10
-104.8405023822
 20
-43.8927078764
 30
0.0
 10
-104.85977876
 20
-43.8840330105
 30
0.0
 10
-104.868843474
 20
-43.8756031714
 30
0.0
 10
-104.8700541966
 20
-43.871429024
 30
0.0
  0
SPLINE
  5
445
100
AcDbEntity
  8
RACCORDO
100
AcDbSpline
 62
250
  6
CONTINUOUS
 70
0
 71
3
 72
13
 73
9
 74
0
 42
0.0000001
 43
0.0000001
 44
0.0000000001
 40
0.0
 40
0.0
 40
0.0
 40
0.0
 40
0.3594637566
 40
0.6696706049
 40
0.7929532182
 40
0.8896584024
 40
0.9579009014
 40
1.0
 40
1.0
 40
1.0
 40
1.0
 10
104.5704696982
 20
-43.9246280943
 30
0.0
 10
104.6075786548
 20
-43.9242886885
 30
0.0
 10
104.6766879744
 20
-43.921433029
 30
0.0
 10
104.758216094
 20
-43.9122812798
 30
0.0
 10
104.811827142
 20
-43.9013605335
 30
0.0
 10
104.8405061231
 20
-43.8927080344
 30
0.0
 10
104.8597828577
 20
-43.8840331218
 30
0.0
 10
104.8688477969
 20
-43.8756032227
 30
0.0
 10
104.8700585586
 20
-43.8714290238
 30
0.0
  0
SPLINE
  5
446
100
AcDbEntity
  8
RACCORDO
100
AcDbSpline
 62
250
  6
CONTINUOUS
 70
0
 71
3
 72
16
 73
12
 74
0
 42
0.0000001
 43
0.0000001
 44
0.0000000001
 40
0.0
 40
0.0
 40
0.0
 40
0.0
 40
0.3699259219
 40
0.5382268082
 40
0.6873077635
 40
0.811788969
 40
0.9072712513
 40
0.9430816491
 40
0.9705150833
 40
0.9894318309
 40
1.0
 40
1.0
 40
1.0
 40
1.0
 10
104.4427702181
 20
-22.6677048932
 30
0.0
 10
104.4798325002
 20
-22.6676071759
 30
0.0
 10
104.5337585935
 20
-22.6669863746
 30
0.0
 10
104.6025921869
 20
-22.6650633264
 30
0.0
 10
104.6468295934
 20
-22.6632539589
 30
0.0
 10
104.6837344423
 20
-22.6610920539
 30
0.0
 10
104.7092953104
 20
-22.6589748912
 30
0.0
 10
104.7250577246
 20
-22.6570214455
 30
0.0
 10
104.7332280537
 20
-22.6557085357
 30
0.0
 10
104.7386913971
 20
-22.6543605061
 30
0.0
 10
104.7415971833
 20
-22.6533283439
 30
0.0
 10
104.7423590785
 20
-22.6525930904
 30
0.0
  0
SPLINE
  5
447
100
AcDbEntity
  8
RACCORDO
100
AcDbSpline
 62
250
  6
CONTINUOUS
 70
0
 71
3
 72
16
 73
12
 74
0
 42
0.0000001
 43
0.0000001
 44
0.0000000001
 40
0.0
 40
0.0
 40
0.0
 40
0.0
 40
0.3699259182
 40
0.5382268031
 40
0.6873077578
 40
0.8117889634
 40
0.9072712467
 40
0.9430816454
 40
0.9705150807
 40
0.9894318295
 40
1.0
 40
1.0
 40
1.0
 40
1.0
 10
104.4427702181
 20
22.6677048929
 30
0.0
 10
104.4798324998
 20
22.6676071756
 30
0.0
 10
104.5337585925
 20
22.6669863743
 30
0.0
 10
104.6025921854
 20
22.6650633262
 30
0.0
 10
104.6468295917
 20
22.6632539587
 30
0.0
 10
104.6837344406
 20
22.6610920537
 30
0.0
 10
104.7092953089
 20
22.6589748911
 30
0.0
 10
104.7250577235
 20
22.6570214455
 30
0.0
 10
104.7332280529
 20
22.6557085357
 30
0.0
 10
104.7386913967
 20
22.654360506
 30
0.0
 10
104.7415971831
 20
22.6533283438
 30
0.0
 10
104.7423590785
 20
22.6525930904
 30
0.0
  0
SPLINE
  5
448
100
AcDbEntity
  8
RACCORDO
100
AcDbSpline
 62
250
  6
CONTINUOUS
 70
0
 71
3
 72
13
 73
9
 74
0
 42
0.0000001
 43
0.0000001
 44
0.0000000001
 40
0.0
 40
0.0
 40
0.0
 40
0.0
 40
0.3594649058
 40
0.6696715907
 40
0.7929538468
 40
0.8896586569
 40
0.9579009009
 40
1.0
 40
1.0
 40
1.0
 40
1.0
 10
104.5704696982
 20
43.9246280998
 30
0.0
 10
104.6075782578
 20
43.9242886228
 30
0.0
 10
104.676686715
 20
43.9214328697
 30
0.0
 10
104.7582137487
 20
43.9122810668
 30
0.0
 10
104.811823934
 20
43.901360334
 30
0.0
 10
104.8405023822
 20
43.8927078764
 30
0.0
 10
104.85977876
 20
43.8840330105
 30
0.0
 10
104.868843474
 20
43.8756031714
 30
0.0
 10
104.8700541966
 20
43.871429024
 30
0.0
  0
SPLINE
  5
449
100
AcDbEntity
  8
RACCORDO
100
AcDbSpline
 62
250
  6
CONTINUOUS
 70
0
 71
3
 72
18
 73
14
 74
0
 42
0.0000001
 43
0.0000001
 44
0.0000000001
 40
0.0
 40
0.0
 40
0.0
 40
0.0
 40
0.1883463324
 40
0.3699892274
 40
0.5383412517
 40
0.6874366252
 40
0.8119298363
 40
0.8635379862
 40
0.9074203854
 40
0.9432085359
 40
0.9706252854
 40
0.9895041222
 40
1.0
 40
1.0
 40
1.0
 40
1.0
 10
79.4942885593
 20
-21.8703705168
 30
0.0
 10
79.4628449288
 20
-21.8702905282
 30
0.0
 10
79.4010770523
 20
-21.869852581
 30
0.0
 10
79.3112139743
 20
-21.8683699864
 30
0.0
 10
79.2279205486
 20
-21.8661251448
 30
0.0
 10
79.1541972691
 20
-21.8632048282
 30
0.0
 10
79.0999841909
 20
-21.8601697357
 30
0.0
 10
79.0633689183
 20
-21.8573672682
 30
0.0
 10
79.0415369783
 20
-21.8553171899
 30
0.0
 10
79.0238111005
 20
-21.8531883935
 30
0.0
 10
79.010197405
 20
-21.8510852532
 30
0.0
 10
79.0010960462
 20
-21.8489110577
 30
0.0
 10
78.9962552102
 20
-21.8472641569
 30
0.0
 10
78.9949727297
 20
-21.8460701642
 30
0.0
  0
SPLINE
  5
44A
100
AcDbEntity
  8
RACCORDO
100
AcDbSpline
 62
250
  6
CONTINUOUS
 70
0
 71
3
 72
16
 73
12
 74
0
 42
0.0000001
 43
0.0000001
 44
0.0000000001
 40
0.0
 40
0.0
 40
0.0
 40
0.0
 40
0.3639833711
 40
0.5310228043
 40
0.6798904541
 40
0.8051666826
 40
0.9023359832
 40
0.9392533408
 40
0.9679530841
 40
0.9882103495
 40
1.0
 40
1.0
 40
1.0
 40
1.0
 10
79.2179615936
 20
-22.6677047264
 30
0.0
 10
79.1687401389
 20
-22.6292018759
 30
0.0
 10
79.0973259307
 20
-22.572518011
 30
0.0
 10
79.0068259816
 20
-22.4987915314
 30
0.0
 10
78.9485764481
 20
-22.4503660286
 30
0.0
 10
78.9001051058
 20
-22.4089632196
 30
0.0
 10
78.8667610689
 20
-22.3794242715
 30
0.0
 10
78.8464067906
 20
-22.360288956
 30
0.0
 10
78.8359028325
 20
-22.3499013775
 30
0.0
 10
78.8289517517
 20
-22.3421906109
 30
0.0
 10
78.8254892526
 20
-22.3378008701
 30
0.0
 10
78.8246794363
 20
-22.3359457767
 30
0.0
  0
SPLINE
  5
44B
100
AcDbEntity
  8
RACCORDO
100
AcDbSpline
 62
250
  6
CONTINUOUS
 70
0
 71
3
 72
16
 73
12
 74
0
 42
0.0000001
 43
0.0000001
 44
0.0000000001
 40
0.0
 40
0.0
 40
0.0
 40
0.0
 40
0.3639837397
 40
0.531023201
 40
0.6798907987
 40
0.8051669263
 40
0.9023361133
 40
0.9392534207
 40
0.9679531234
 40
0.9882103613
 40
1.0
 40
1.0
 40
1.0
 40
1.0
 10
-79.2179615936
 20
-22.6677047803
 30
0.0
 10
-79.1687401785
 20
-22.6292019573
 30
0.0
 10
-79.0973260473
 20
-22.5725181469
 30
0.0
 10
-79.0068262216
 20
-22.4987917515
 30
0.0
 10
-78.9485768155
 20
-22.4503663401
 30
0.0
 10
-78.9001056027
 20
-22.4089636247
 30
0.0
 10
-78.8667616675
 20
-22.3794247499
 30
0.0
 10
-78.8464074586
 20
-22.3602894845
 30
0.0
 10
-78.8359035391
 20
-22.3499019332
 30
0.0
 10
-78.8289524853
 20
-22.3421911858
 30
0.0
 10
-78.8254900012
 20
-22.337801454
 30
0.0
 10
-78.8246801902
 20
-22.3359463644
 30
0.0
  0
SPLINE
  5
44C
100
AcDbEntity
  8
RACCORDO
100
AcDbSpline
 62
250
  6
CONTINUOUS
 70
0
 71
3
 72
18
 73
14
 74
0
 42
0.0000001
 43
0.0000001
 44
0.0000000001
 40
0.0
 40
0.0
 40
0.0
 40
0.0
 40
0.1883466092
 40
0.3699896528
 40
0.5383417084
 40
0.6874370204
 40
0.8119301133
 40
0.8635381963
 40
0.9074205308
 40
0.9432086237
 40
0.9706253271
 40
0.9895041336
 40
1.0
 40
1.0
 40
1.0
 40
1.0
 10
-79.4942885593
 20
-21.8703705753
 30
0.0
 10
-79.4628449489
 20
-21.8702905811
 30
0.0
 10
-79.4010771317
 20
-21.8698526237
 30
0.0
 10
-79.3112141671
 20
-21.8683700152
 30
0.0
 10
-79.2279208977
 20
-21.8661251619
 30
0.0
 10
-79.1541977989
 20
-21.8632048364
 30
0.0
 10
-79.099984877
 20
-21.8601697385
 30
0.0
 10
-79.063369724
 20
-21.8573672681
 30
0.0
 10
-79.0415378623
 20
-21.8553171887
 30
0.0
 10
-79.0238120507
 20
-21.8531883922
 30
0.0
 10
-79.0101984073
 20
-21.8510852514
 30
0.0
 10
-79.0010970834
 20
-21.8489110571
 30
0.0
 10
-78.9962562664
 20
-21.8472641552
 30
0.0
 10
-78.994973792
 20
-21.8460701642
 30
0.0
  0
SPLINE
  5
44D
100
AcDbEntity
  8
RACCORDO
100
AcDbSpline
 62
250
  6
CONTINUOUS
 70
0
 71
3
 72
18
 73
14
 74
0
 42
0.0000001
 43
0.0000001
 44
0.0000000001
 40
0.0
 40
0.0
 40
0.0
 40
0.0
 40
0.1883463165
 40
0.369989203
 40
0.5383412253
 40
0.6874366023
 40
0.8119298201
 40
0.8635379738
 40
0.9074203768
 40
0.9432085306
 40
0.9706252828
 40
0.9895041215
 40
1.0
 40
1.0
 40
1.0
 40
1.0
 10
-79.4942885593
 20
21.8703705135
 30
0.0
 10
-79.4628449277
 20
21.8702905251
 30
0.0
 10
-79.4010770479
 20
21.8698525785
 30
0.0
 10
-79.3112139634
 20
21.8683699847
 30
0.0
 10
-79.227920529
 20
21.8661251438
 30
0.0
 10
-79.1541972392
 20
21.8632048277
 30
0.0
 10
-79.0999841522
 20
21.8601697355
 30
0.0
 10
-79.0633688727
 20
21.8573672681
 30
0.0
 10
-79.0415369283
 20
21.8553171899
 30
0.0
 10
-79.0238110467
 20
21.8531883936
 30
0.0
 10
-79.0101973482
 20
21.8510852533
 30
0.0
 10
-79.0010959873
 20
21.8489110577
 30
0.0
 10
-78.9962551502
 20
21.847264157
 30
0.0
 10
-78.9949726693
 20
21.8460701642
 30
0.0
  0
SPLINE
  5
44E
100
AcDbEntity
  8
RACCORDO
100
AcDbSpline
 62
250
  6
CONTINUOUS
 70
0
 71
3
 72
16
 73
12
 74
0
 42
0.0000001
 43
0.0000001
 44
0.0000000001
 40
0.0
 40
0.0
 40
0.0
 40
0.0
 40
0.3639833711
 40
0.5310228043
 40
0.6798904541
 40
0.8051666826
 40
0.9023359832
 40
0.9392533408
 40
0.9679530841
 40
0.9882103495
 40
1.0
 40
1.0
 40
1.0
 40
1.0
 10
-79.2179615936
 20
22.6677047264
 30
0.0
 10
-79.1687401389
 20
22.6292018759
 30
0.0
 10
-79.0973259307
 20
22.572518011
 30
0.0
 10
-79.0068259816
 20
22.4987915314
 30
0.0
 10
-78.9485764481
 20
22.4503660286
 30
0.0
 10
-78.9001051058
 20
22.4089632196
 30
0.0
 10
-78.8667610689
 20
22.3794242715
 30
0.0
 10
-78.8464067906
 20
22.360288956
 30
0.0
 10
-78.8359028325
 20
22.3499013775
 30
0.0
 10
-78.8289517517
 20
22.3421906109
 30
0.0
 10
-78.8254892526
 20
22.3378008701
 30
0.0
 10
-78.8246794363
 20
22.3359457767
 30
0.0
  0
SPLINE
  5
44F
100
AcDbEntity
  8
RACCORDO
100
AcDbSpline
 62
250
  6
CONTINUOUS
 70
0
 71
3
 72
16
 73
12
 74
0
 42
0.0000001
 43
0.0000001
 44
0.0000000001
 40
0.0
 40
0.0
 40
0.0
 40
0.0
 40
0.3639837297
 40
0.53102319
 40
0.6798907892
 40
0.8051669197
 40
0.90233611
 40
0.9392534188
 40
0.9679531227
 40
0.9882103611
 40
1.0
 40
1.0
 40
1.0
 40
1.0
 10
79.2179615936
 20
22.6677047787
 30
0.0
 10
79.1687401782
 20
22.6292019557
 30
0.0
 10
79.0973260462
 20
22.5725181449
 30
0.0
 10
79.0068262187
 20
22.4987917485
 30
0.0
 10
78.9485768103
 20
22.4503663355
 30
0.0
 10
78.9001055948
 20
22.4089636182
 30
0.0
 10
78.8667616574
 20
22.3794247418
 30
0.0
 10
78.846407447
 20
22.3602894753
 30
0.0
 10
78.8359035267
 20
22.3499019234
 30
0.0
 10
78.8289524723
 20
22.3421911756
 30
0.0
 10
78.825489988
 20
22.3378014436
 30
0.0
 10
78.8246801768
 20
22.335946354
 30
0.0
  0
SPLINE
  5
450
100
AcDbEntity
  8
RACCORDO
100
AcDbSpline
 62
250
  6
CONTINUOUS
 70
0
 71
3
 72
18
 73
14
 74
0
 42
0.0000001
 43
0.0000001
 44
0.0000000001
 40
0.0
 40
0.0
 40
0.0
 40
0.0
 40
0.1883466092
 40
0.3699896528
 40
0.5383417084
 40
0.6874370204
 40
0.8119301133
 40
0.8635381963
 40
0.9074205308
 40
0.9432086237
 40
0.9706253271
 40
0.9895041336
 40
1.0
 40
1.0
 40
1.0
 40
1.0
 10
79.4942885593
 20
21.8703705753
 30
0.0
 10
79.4628449489
 20
21.8702905811
 30
0.0
 10
79.4010771317
 20
21.8698526237
 30
0.0
 10
79.3112141671
 20
21.8683700152
 30
0.0
 10
79.2279208977
 20
21.8661251619
 30
0.0
 10
79.1541977989
 20
21.8632048364
 30
0.0
 10
79.099984877
 20
21.8601697385
 30
0.0
 10
79.063369724
 20
21.8573672681
 30
0.0
 10
79.0415378623
 20
21.8553171887
 30
0.0
 10
79.0238120507
 20
21.8531883922
 30
0.0
 10
79.0101984073
 20
21.8510852514
 30
0.0
 10
79.0010970834
 20
21.8489110571
 30
0.0
 10
78.9962562664
 20
21.8472641552
 30
0.0
 10
78.994973792
 20
21.8460701642
 30
0.0
  0
SPLINE
  5
451
100
AcDbEntity
  8
RACCORDO
100
AcDbSpline
 62
250
  6
CONTINUOUS
 70
0
 71
3
 72
11
 73
7
 74
0
 42
0.0000001
 43
0.0000001
 44
0.0000000001
 40
0.0
 40
0.0
 40
0.0
 40
0.0
 40
0.251813733
 40
0.5024880662
 40
0.7516925309
 40
1.0
 40
1.0
 40
1.0
 40
1.0
 10
-103.8781758769
 20
44.6316825048
 30
0.0
 10
-103.9700019115
 20
44.6316874027
 30
0.0
 10
-104.155386865
 20
44.5942222397
 30
0.0
 10
-104.3868742123
 20
44.4343326763
 30
0.0
 10
-104.537893894
 20
44.1988618105
 30
0.0
 10
-104.5713205148
 20
44.0151715547
 30
0.0
 10
-104.5704696982
 20
43.9246281065
 30
0.0
  0
SPLINE
  5
452
100
AcDbEntity
  8
RACCORDO
100
AcDbSpline
 62
250
  6
CONTINUOUS
 70
0
 71
3
 72
11
 73
7
 74
0
 42
0.0000001
 43
0.0000001
 44
0.0000000001
 40
0.0
 40
0.0
 40
0.0
 40
0.0
 40
0.2483069938
 40
0.4975115121
 40
0.7481857209
 40
1.0
 40
1.0
 40
1.0
 40
1.0
 10
104.5704696982
 20
43.9246281065
 30
0.0
 10
104.5713268456
 20
44.0151713227
 30
0.0
 10
104.5378914043
 20
44.1988618411
 30
0.0
 10
104.3868754531
 20
44.4343313315
 30
0.0
 10
104.1553869113
 20
44.5942253453
 30
0.0
 10
103.9700021118
 20
44.6316795999
 30
0.0
 10
103.8781758769
 20
44.6316825048
 30
0.0
  0
SPLINE
  5
453
100
AcDbEntity
  8
RACCORDO
100
AcDbSpline
 62
250
  6
CONTINUOUS
 70
0
 71
3
 72
11
 73
7
 74
0
 42
0.0000001
 43
0.0000001
 44
0.0000000001
 40
0.0
 40
0.0
 40
0.0
 40
0.0
 40
0.251813733
 40
0.5024880662
 40
0.7516925309
 40
1.0
 40
1.0
 40
1.0
 40
1.0
 10
103.8781758769
 20
-44.6316825048
 30
0.0
 10
103.9700019115
 20
-44.6316874027
 30
0.0
 10
104.155386865
 20
-44.5942222397
 30
0.0
 10
104.3868742123
 20
-44.4343326763
 30
0.0
 10
104.537893894
 20
-44.1988618105
 30
0.0
 10
104.5713205148
 20
-44.0151715547
 30
0.0
 10
104.5704696982
 20
-43.9246281065
 30
0.0
  0
SPLINE
  5
454
100
AcDbEntity
  8
RACCORDO
100
AcDbSpline
 62
250
  6
CONTINUOUS
 70
0
 71
3
 72
11
 73
7
 74
0
 42
0.0000001
 43
0.0000001
 44
0.0000000001
 40
0.0
 40
0.0
 40
0.0
 40
0.0
 40
0.2483069938
 40
0.4975115121
 40
0.7481857209
 40
1.0
 40
1.0
 40
1.0
 40
1.0
 10
-104.5704696982
 20
-43.9246281065
 30
0.0
 10
-104.5713268456
 20
-44.0151713227
 30
0.0
 10
-104.5378914043
 20
-44.1988618411
 30
0.0
 10
-104.3868754531
 20
-44.4343313315
 30
0.0
 10
-104.1553869113
 20
-44.5942253453
 30
0.0
 10
-103.9700021118
 20
-44.6316795999
 30
0.0
 10
-103.8781758769
 20
-44.6316825048
 30
0.0
  0
SPLINE
  5
455
100
AcDbEntity
  8
RACCORDO
100
AcDbSpline
 62
250
  6
CONTINUOUS
 70
0
 71
3
 72
11
 73
7
 74
0
 42
0.0000001
 43
0.0000001
 44
0.0000000001
 40
0.0
 40
0.0
 40
0.0
 40
0.0
 40
0.2494342821
 40
0.4990859201
 40
0.7492755754
 40
1.0
 40
1.0
 40
1.0
 40
1.0
 10
-104.8700585586
 20
-43.8714290238
 30
0.0
 10
-104.8708158676
 20
-44.0011459746
 30
0.0
 10
-104.8213324216
 20
-44.2638091584
 30
0.0
 10
-104.6028485125
 20
-44.5982903515
 30
0.0
 10
-104.2719853971
 20
-44.8238258383
 30
0.0
 10
-104.0085659357
 20
-44.8766962815
 30
0.0
 10
-103.8781758769
 20
-44.8768054117
 30
0.0
  0
SPLINE
  5
456
100
AcDbEntity
  8
RACCORDO
100
AcDbSpline
 62
250
  6
CONTINUOUS
 70
0
 71
3
 72
11
 73
7
 74
0
 42
0.0000001
 43
0.0000001
 44
0.0000000001
 40
0.0
 40
0.0
 40
0.0
 40
0.0
 40
0.2507236805
 40
0.5009133911
 40
0.7505649812
 40
1.0
 40
1.0
 40
1.0
 40
1.0
 10
-103.8781758769
 20
44.8768054117
 30
0.0
 10
-104.008565551
 20
44.8767020516
 30
0.0
 10
-104.2719847796
 20
44.8238234812
 30
0.0
 10
-104.6028471531
 20
44.5982918822
 30
0.0
 10
-104.8213339269
 20
44.2638096851
 30
0.0
 10
-104.8708119043
 20
44.0011463784
 30
0.0
 10
-104.8700585586
 20
43.8714290238
 30
0.0
  0
SPLINE
  5
457
100
AcDbEntity
  8
RACCORDO
100
AcDbSpline
 62
250
  6
CONTINUOUS
 70
0
 71
3
 72
11
 73
7
 74
0
 42
0.0000001
 43
0.0000001
 44
0.0000000001
 40
0.0
 40
0.0
 40
0.0
 40
0.0
 40
0.2507236805
 40
0.5009133911
 40
0.7505649812
 40
1.0
 40
1.0
 40
1.0
 40
1.0
 10
103.8781758769
 20
-44.8768054117
 30
0.0
 10
104.008565551
 20
-44.8767020516
 30
0.0
 10
104.2719847796
 20
-44.8238234812
 30
0.0
 10
104.6028471531
 20
-44.5982918822
 30
0.0
 10
104.8213339269
 20
-44.2638096851
 30
0.0
 10
104.8708119043
 20
-44.0011463784
 30
0.0
 10
104.8700585586
 20
-43.8714290238
 30
0.0
  0
SPLINE
  5
458
100
AcDbEntity
  8
RACCORDO
100
AcDbSpline
 62
250
  6
CONTINUOUS
 70
0
 71
3
 72
11
 73
7
 74
0
 42
0.0000001
 43
0.0000001
 44
0.0000000001
 40
0.0
 40
0.0
 40
0.0
 40
0.0
 40
0.2494342821
 40
0.4990859201
 40
0.7492755754
 40
1.0
 40
1.0
 40
1.0
 40
1.0
 10
104.8700585586
 20
43.8714290238
 30
0.0
 10
104.8708158676
 20
44.0011459746
 30
0.0
 10
104.8213324216
 20
44.2638091584
 30
0.0
 10
104.6028485125
 20
44.5982903515
 30
0.0
 10
104.2719853971
 20
44.8238258383
 30
0.0
 10
104.0085659357
 20
44.8766962815
 30
0.0
 10
103.8781758769
 20
44.8768054117
 30
0.0
  0
SPLINE
  5
459
100
AcDbEntity
  8
ASSI
100
AcDbSpline
 62
7
  6
CONTINUOUS
 70
0
 71
3
 72
9
 73
5
 74
0
 42
0.0000001
 43
0.0000001
 44
0.0000000001
 40
0.0
 40
0.0
 40
0.0
 40
0.0
 40
0.7295958321
 40
1.0
 40
1.0
 40
1.0
 40
1.0
 10
4.6205134302
 20
-26.538572249
 30
0.0
 10
4.5096111281
 20
-26.5257006641
 30
0.0
 10
4.3548035222
 20
-26.5252045035
 30
0.0
 10
4.2034864135
 20
-26.5480947605
 30
0.0
 10
4.1626972541
 20
-26.5550547959
 30
0.0
  0
SPLINE
  5
45A
100
AcDbEntity
  8
ASSI
100
AcDbSpline
 62
7
  6
CONTINUOUS
 70
0
 71
3
 72
9
 73
5
 74
0
 42
0.0000001
 43
0.0000001
 44
0.0000000001
 40
0.0
 40
0.0
 40
0.0
 40
0.0
 40
0.4988583551
 40
1.0
 40
1.0
 40
1.0
 40
1.0
 10
4.9506521589
 20
-26.8887857286
 30
0.0
 10
4.9493698449
 20
-26.8029633
 30
0.0
 10
4.8794958723
 20
-26.6239753856
 30
0.0
 10
4.7061699303
 20
-26.5485137461
 30
0.0
 10
4.6205134302
 20
-26.5385722488
 30
0.0
  0
SPLINE
  5
45B
100
AcDbEntity
  8
ASSI
100
AcDbSpline
 62
7
  6
CONTINUOUS
 70
0
 71
3
 72
9
 73
5
 74
0
 42
0.0000001
 43
0.0000001
 44
0.0000000001
 40
0.0
 40
0.0
 40
0.0
 40
0.0
 40
0.479537546
 40
1.0
 40
1.0
 40
1.0
 40
1.0
 10
4.4966806432
 20
-27.3236280866
 30
0.0
 10
4.6081111271
 20
-27.3211392056
 30
0.0
 10
4.8669268807
 20
-27.2739986463
 30
0.0
 10
4.9524596962
 20
-27.0097627726
 30
0.0
 10
4.9506521347
 20
-26.8887857289
 30
0.0
  0
SPLINE
  5
45C
100
AcDbEntity
  8
ASSI
100
AcDbSpline
 62
7
  6
CONTINUOUS
 70
0
 71
3
 72
9
 73
5
 74
0
 42
0.0000001
 43
0.0000001
 44
0.0000000001
 40
0.0
 40
0.0
 40
0.0
 40
0.0
 40
0.6439294728
 40
1.0
 40
1.0
 40
1.0
 40
1.0
 10
4.8214020872
 20
-28.0286629464
 30
0.0
 10
4.7890022498
 20
-27.9424410079
 30
0.0
 10
4.692786726
 20
-27.8129762619
 30
0.0
 10
4.5463479047
 20
-27.7821519248
 30
0.0
 10
4.4954209623
 20
-27.7821519248
 30
0.0
  0
SPLINE
  5
45D
100
AcDbEntity
  8
ASSI
100
AcDbSpline
 62
7
  6
CONTINUOUS
 70
0
 71
3
 72
9
 73
5
 74
0
 42
0.0000001
 43
0.0000001
 44
0.0000000001
 40
0.0
 40
0.0
 40
0.0
 40
0.0
 40
0.4412847549
 40
1.0
 40
1.0
 40
1.0
 40
1.0
 10
5.0770156219
 20
-28.8778013544
 30
0.0
 10
5.0409723412
 20
-28.7524351727
 30
0.0
 10
4.9558677839
 20
-28.4695061624
 30
0.0
 10
4.8794973829
 20
-28.183265594
 30
0.0
 10
4.8214020565
 20
-28.028662958
 30
0.0
  0
SPLINE
  5
45E
100
AcDbEntity
  8
ASSI
100
AcDbSpline
 62
7
  6
CONTINUOUS
 70
0
 71
3
 72
9
 73
5
 74
0
 42
0.0000001
 43
0.0000001
 44
0.0000000001
 40
0.0
 40
0.0
 40
0.0
 40
0.0
 40
0.8019701125
 40
1.0
 40
1.0
 40
1.0
 40
1.0
 10
5.4393791724
 20
-28.1201003266
 30
0.0
 10
5.4944413604
 20
-28.3222068213
 30
0.0
 10
5.5592396863
 20
-28.5752516924
 30
0.0
 10
5.6255909827
 20
-28.8278846732
 30
0.0
 10
5.6391482119
 20
-28.8778013544
 30
0.0
  0
SPLINE
  5
45F
100
AcDbEntity
  8
ASSI
100
AcDbSpline
 62
7
  6
CONTINUOUS
 70
0
 71
3
 72
9
 73
5
 74
0
 42
0.0000001
 43
0.0000001
 44
0.0000000001
 40
0.0
 40
0.0
 40
0.0
 40
0.0
 40
0.7572691378
 40
1.0
 40
1.0
 40
1.0
 40
1.0
 10
5.1025031649
 20
-27.5709244369
 30
0.0
 10
5.255367936
 20
-27.6318792643
 30
0.0
 10
5.3725710822
 20
-27.8637401448
 30
0.0
 10
5.4255129545
 20
-28.0692041948
 30
0.0
 10
5.439379172
 20
-28.1201003267
 30
0.0
  0
SPLINE
  5
460
100
AcDbEntity
  8
ASSI
100
AcDbSpline
 62
7
  6
CONTINUOUS
 70
0
 71
3
 72
17
 73
13
 74
0
 42
0.0000001
 43
0.0000001
 44
0.0000000001
 40
0.0
 40
0.0
 40
0.0
 40
0.0
 40
0.0799595168
 40
0.1896577306
 40
0.3223977561
 40
0.3986068941
 40
0.483386777
 40
0.5877249163
 40
0.678993766
 40
0.8312459613
 40
0.9440219048
 40
1.0
 40
1.0
 40
1.0
 40
1.0
 10
5.0422484297
 20
-26.1402838735
 30
0.0
 10
5.0859795369
 20
-26.1560600248
 30
0.0
 10
5.183634306
 20
-26.2099201326
 30
0.0
 10
5.325664752
 20
-26.3348013094
 30
0.0
 10
5.4262584299
 20
-26.4944905445
 30
0.0
 10
5.4798168525
 20
-26.6574351189
 30
0.0
 10
5.5019150414
 20
-26.8107834593
 30
0.0
 10
5.4977219253
 20
-26.9749694039
 30
0.0
 10
5.4530896147
 20
-27.1727887701
 30
0.0
 10
5.352899701
 20
-27.3624114407
 30
0.0
 10
5.2168310745
 20
-27.4855954586
 30
0.0
 10
5.1347821269
 20
-27.5502156007
 30
0.0
 10
5.1025031649
 20
-27.554380628
 30
0.0
  0
SPLINE
  5
461
100
AcDbEntity
  8
ASSI
100
AcDbSpline
 62
7
  6
CONTINUOUS
 70
0
 71
3
 72
9
 73
5
 74
0
 42
0.0000001
 43
0.0000001
 44
0.0000000001
 40
0.0
 40
0.0
 40
0.0
 40
0.0
 40
0.7042582166
 40
1.0
 40
1.0
 40
1.0
 40
1.0
 10
3.6000188023
 20
-26.110807341
 30
0.0
 10
3.9372644821
 20
-26.0611927589
 30
0.0
 10
4.423711295
 20
-26.0123623732
 30
0.0
 10
4.9076197825
 20
-26.091645622
 30
0.0
 10
5.0422484297
 20
-26.1402838735
 30
0.0
  0
SPLINE
  5
462
100
AcDbEntity
  8
ASSI
100
AcDbSpline
 62
250
  6
CONTINUOUS
 70
0
 71
3
 72
16
 73
12
 74
0
 42
0.0000001
 43
0.0000001
 44
0.0000000001
 40
0.0
 40
0.0
 40
0.0
 40
0.0
 40
0.3699259182
 40
0.5382268031
 40
0.6873077578
 40
0.8117889634
 40
0.9072712467
 40
0.9430816454
 40
0.9705150807
 40
0.9894318295
 40
1.0
 40
1.0
 40
1.0
 40
1.0
 10
-104.4427702181
 20
-22.6677048929
 30
0.0
 10
-104.4798324998
 20
-22.6676071756
 30
0.0
 10
-104.5337585925
 20
-22.6669863743
 30
0.0
 10
-104.6025921854
 20
-22.6650633262
 30
0.0
 10
-104.6468295917
 20
-22.6632539587
 30
0.0
 10
-104.6837344406
 20
-22.6610920537
 30
0.0
 10
-104.7092953089
 20
-22.6589748911
 30
0.0
 10
-104.7250577235
 20
-22.6570214455
 30
0.0
 10
-104.7332280529
 20
-22.6557085357
 30
0.0
 10
-104.7386913967
 20
-22.654360506
 30
0.0
 10
-104.7415971831
 20
-22.6533283438
 30
0.0
 10
-104.7423590785
 20
-22.6525930904
 30
0.0
  0
SPLINE
  5
463
100
AcDbEntity
  8
ASSI
100
AcDbSpline
 62
250
  6
CONTINUOUS
 70
0
 71
3
 72
13
 73
9
 74
0
 42
0.0000001
 43
0.0000001
 44
0.0000000001
 40
0.0
 40
0.0
 40
0.0
 40
0.0
 40
0.3594649058
 40
0.6696715907
 40
0.7929538468
 40
0.8896586569
 40
0.9579009009
 40
1.0
 40
1.0
 40
1.0
 40
1.0
 10
-104.5704696982
 20
-43.9246280998
 30
0.0
 10
-104.6075782578
 20
-43.9242886228
 30
0.0
 10
-104.676686715
 20
-43.9214328697
 30
0.0
 10
-104.7582137487
 20
-43.9122810668
 30
0.0
 10
-104.811823934
 20
-43.901360334
 30
0.0
 10
-104.8405023822
 20
-43.8927078764
 30
0.0
 10
-104.85977876
 20
-43.8840330105
 30
0.0
 10
-104.868843474
 20
-43.8756031714
 30
0.0
 10
-104.8700541966
 20
-43.871429024
 30
0.0
  0
SPLINE
  5
464
100
AcDbEntity
  8
ASSI
100
AcDbSpline
 62
250
  6
CONTINUOUS
 70
0
 71
3
 72
11
 73
7
 74
0
 42
0.0000001
 43
0.0000001
 44
0.0000000001
 40
0.0
 40
0.0
 40
0.0
 40
0.0
 40
0.2483069938
 40
0.4975115121
 40
0.7481857209
 40
1.0
 40
1.0
 40
1.0
 40
1.0
 10
-104.5704696982
 20
-43.9246281065
 30
0.0
 10
-104.5713268456
 20
-44.0151713227
 30
0.0
 10
-104.5378914043
 20
-44.1988618411
 30
0.0
 10
-104.3868754531
 20
-44.4343313315
 30
0.0
 10
-104.1553869113
 20
-44.5942253453
 30
0.0
 10
-103.9700021118
 20
-44.6316795999
 30
0.0
 10
-103.8781758769
 20
-44.6316825048
 30
0.0
  0
SPLINE
  5
465
100
AcDbEntity
  8
ASSI
100
AcDbSpline
 62
250
  6
CONTINUOUS
 70
0
 71
3
 72
11
 73
7
 74
0
 42
0.0000001
 43
0.0000001
 44
0.0000000001
 40
0.0
 40
0.0
 40
0.0
 40
0.0
 40
0.251813733
 40
0.5024880662
 40
0.7516925309
 40
1.0
 40
1.0
 40
1.0
 40
1.0
 10
103.8781758769
 20
-44.6316825048
 30
0.0
 10
103.9700019115
 20
-44.6316874027
 30
0.0
 10
104.155386865
 20
-44.5942222397
 30
0.0
 10
104.3868742123
 20
-44.4343326763
 30
0.0
 10
104.537893894
 20
-44.1988618105
 30
0.0
 10
104.5713205148
 20
-44.0151715547
 30
0.0
 10
104.5704696982
 20
-43.9246281065
 30
0.0
  0
SPLINE
  5
466
100
AcDbEntity
  8
ASSI
100
AcDbSpline
 62
250
  6
CONTINUOUS
 70
0
 71
3
 72
11
 73
7
 74
0
 42
0.0000001
 43
0.0000001
 44
0.0000000001
 40
0.0
 40
0.0
 40
0.0
 40
0.0
 40
0.251813733
 40
0.5024880662
 40
0.7516925309
 40
1.0
 40
1.0
 40
1.0
 40
1.0
 10
-103.8781758769
 20
44.6316825048
 30
0.0
 10
-103.9700019115
 20
44.6316874027
 30
0.0
 10
-104.155386865
 20
44.5942222397
 30
0.0
 10
-104.3868742123
 20
44.4343326763
 30
0.0
 10
-104.537893894
 20
44.1988618105
 30
0.0
 10
-104.5713205148
 20
44.0151715547
 30
0.0
 10
-104.5704696982
 20
43.9246281065
 30
0.0
  0
SPLINE
  5
467
100
AcDbEntity
  8
ASSI
100
AcDbSpline
 62
250
  6
CONTINUOUS
 70
0
 71
3
 72
11
 73
7
 74
0
 42
0.0000001
 43
0.0000001
 44
0.0000000001
 40
0.0
 40
0.0
 40
0.0
 40
0.0
 40
0.2483069938
 40
0.4975115121
 40
0.7481857209
 40
1.0
 40
1.0
 40
1.0
 40
1.0
 10
104.5704696982
 20
43.9246281065
 30
0.0
 10
104.5713268456
 20
44.0151713227
 30
0.0
 10
104.5378914043
 20
44.1988618411
 30
0.0
 10
104.3868754531
 20
44.4343313315
 30
0.0
 10
104.1553869113
 20
44.5942253453
 30
0.0
 10
103.9700021118
 20
44.6316795999
 30
0.0
 10
103.8781758769
 20
44.6316825048
 30
0.0
  0
SPLINE
  5
468
100
AcDbEntity
  8
ASSI
100
AcDbSpline
 62
250
  6
CONTINUOUS
 70
0
 71
3
 72
18
 73
14
 74
0
 42
0.0000001
 43
0.0000001
 44
0.0000000001
 40
0.0
 40
0.0
 40
0.0
 40
0.0
 40
0.1883463324
 40
0.3699892274
 40
0.5383412517
 40
0.6874366252
 40
0.8119298363
 40
0.8635379862
 40
0.9074203854
 40
0.9432085359
 40
0.9706252854
 40
0.9895041222
 40
1.0
 40
1.0
 40
1.0
 40
1.0
 10
79.4942885593
 20
-21.8703705168
 30
0.0
 10
79.4628449288
 20
-21.8702905282
 30
0.0
 10
79.4010770523
 20
-21.869852581
 30
0.0
 10
79.3112139743
 20
-21.8683699864
 30
0.0
 10
79.2279205486
 20
-21.8661251448
 30
0.0
 10
79.1541972691
 20
-21.8632048282
 30
0.0
 10
79.0999841909
 20
-21.8601697357
 30
0.0
 10
79.0633689183
 20
-21.8573672682
 30
0.0
 10
79.0415369783
 20
-21.8553171899
 30
0.0
 10
79.0238111005
 20
-21.8531883935
 30
0.0
 10
79.010197405
 20
-21.8510852532
 30
0.0
 10
79.0010960462
 20
-21.8489110577
 30
0.0
 10
78.9962552102
 20
-21.8472641569
 30
0.0
 10
78.9949727297
 20
-21.8460701642
 30
0.0
  0
SPLINE
  5
469
100
AcDbEntity
  8
ASSI
100
AcDbSpline
 62
250
  6
CONTINUOUS
 70
0
 71
3
 72
16
 73
12
 74
0
 42
0.0000001
 43
0.0000001
 44
0.0000000001
 40
0.0
 40
0.0
 40
0.0
 40
0.0
 40
0.3639833711
 40
0.5310228043
 40
0.6798904541
 40
0.8051666826
 40
0.9023359832
 40
0.9392533408
 40
0.9679530841
 40
0.9882103495
 40
1.0
 40
1.0
 40
1.0
 40
1.0
 10
79.2179615936
 20
-22.6677047264
 30
0.0
 10
79.1687401389
 20
-22.6292018759
 30
0.0
 10
79.0973259307
 20
-22.572518011
 30
0.0
 10
79.0068259816
 20
-22.4987915314
 30
0.0
 10
78.9485764481
 20
-22.4503660286
 30
0.0
 10
78.9001051058
 20
-22.4089632196
 30
0.0
 10
78.8667610689
 20
-22.3794242715
 30
0.0
 10
78.8464067906
 20
-22.360288956
 30
0.0
 10
78.8359028325
 20
-22.3499013775
 30
0.0
 10
78.8289517517
 20
-22.3421906109
 30
0.0
 10
78.8254892526
 20
-22.3378008701
 30
0.0
 10
78.8246794363
 20
-22.3359457767
 30
0.0
  0
SPLINE
  5
46A
100
AcDbEntity
  8
ASSI
100
AcDbSpline
 62
250
  6
CONTINUOUS
 70
0
 71
3
 72
16
 73
12
 74
0
 42
0.0000001
 43
0.0000001
 44
0.0000000001
 40
0.0
 40
0.0
 40
0.0
 40
0.0
 40
0.3639837397
 40
0.531023201
 40
0.6798907987
 40
0.8051669263
 40
0.9023361133
 40
0.9392534207
 40
0.9679531234
 40
0.9882103613
 40
1.0
 40
1.0
 40
1.0
 40
1.0
 10
-79.2179615936
 20
-22.6677047803
 30
0.0
 10
-79.1687401785
 20
-22.6292019573
 30
0.0
 10
-79.0973260473
 20
-22.5725181469
 30
0.0
 10
-79.0068262216
 20
-22.4987917515
 30
0.0
 10
-78.9485768155
 20
-22.4503663401
 30
0.0
 10
-78.9001056027
 20
-22.4089636247
 30
0.0
 10
-78.8667616675
 20
-22.3794247499
 30
0.0
 10
-78.8464074586
 20
-22.3602894845
 30
0.0
 10
-78.8359035391
 20
-22.3499019332
 30
0.0
 10
-78.8289524853
 20
-22.3421911858
 30
0.0
 10
-78.8254900012
 20
-22.337801454
 30
0.0
 10
-78.8246801902
 20
-22.3359463644
 30
0.0
  0
SPLINE
  5
46B
100
AcDbEntity
  8
ASSI
100
AcDbSpline
 62
250
  6
CONTINUOUS
 70
0
 71
3
 72
18
 73
14
 74
0
 42
0.0000001
 43
0.0000001
 44
0.0000000001
 40
0.0
 40
0.0
 40
0.0
 40
0.0
 40
0.1883466092
 40
0.3699896528
 40
0.5383417084
 40
0.6874370204
 40
0.8119301133
 40
0.8635381963
 40
0.9074205308
 40
0.9432086237
 40
0.9706253271
 40
0.9895041336
 40
1.0
 40
1.0
 40
1.0
 40
1.0
 10
-79.4942885593
 20
-21.8703705753
 30
0.0
 10
-79.4628449489
 20
-21.8702905811
 30
0.0
 10
-79.4010771317
 20
-21.8698526237
 30
0.0
 10
-79.3112141671
 20
-21.8683700152
 30
0.0
 10
-79.2279208977
 20
-21.8661251619
 30
0.0
 10
-79.1541977989
 20
-21.8632048364
 30
0.0
 10
-79.099984877
 20
-21.8601697385
 30
0.0
 10
-79.063369724
 20
-21.8573672681
 30
0.0
 10
-79.0415378623
 20
-21.8553171887
 30
0.0
 10
-79.0238120507
 20
-21.8531883922
 30
0.0
 10
-79.0101984073
 20
-21.8510852514
 30
0.0
 10
-79.0010970834
 20
-21.8489110571
 30
0.0
 10
-78.9962562664
 20
-21.8472641552
 30
0.0
 10
-78.994973792
 20
-21.8460701642
 30
0.0
  0
SPLINE
  5
46C
100
AcDbEntity
  8
ASSI
100
AcDbSpline
 62
250
  6
CONTINUOUS
 70
0
 71
3
 72
18
 73
14
 74
0
 42
0.0000001
 43
0.0000001
 44
0.0000000001
 40
0.0
 40
0.0
 40
0.0
 40
0.0
 40
0.1883463165
 40
0.369989203
 40
0.5383412253
 40
0.6874366023
 40
0.8119298201
 40
0.8635379738
 40
0.9074203768
 40
0.9432085306
 40
0.9706252828
 40
0.9895041215
 40
1.0
 40
1.0
 40
1.0
 40
1.0
 10
-79.4942885593
 20
21.8703705135
 30
0.0
 10
-79.4628449277
 20
21.8702905251
 30
0.0
 10
-79.4010770479
 20
21.8698525785
 30
0.0
 10
-79.3112139634
 20
21.8683699847
 30
0.0
 10
-79.227920529
 20
21.8661251438
 30
0.0
 10
-79.1541972392
 20
21.8632048277
 30
0.0
 10
-79.0999841522
 20
21.8601697355
 30
0.0
 10
-79.0633688727
 20
21.8573672681
 30
0.0
 10
-79.0415369283
 20
21.8553171899
 30
0.0
 10
-79.0238110467
 20
21.8531883936
 30
0.0
 10
-79.0101973482
 20
21.8510852533
 30
0.0
 10
-79.0010959873
 20
21.8489110577
 30
0.0
 10
-78.9962551502
 20
21.847264157
 30
0.0
 10
-78.9949726693
 20
21.8460701642
 30
0.0
  0
SPLINE
  5
46D
100
AcDbEntity
  8
ASSI
100
AcDbSpline
 62
250
  6
CONTINUOUS
 70
0
 71
3
 72
16
 73
12
 74
0
 42
0.0000001
 43
0.0000001
 44
0.0000000001
 40
0.0
 40
0.0
 40
0.0
 40
0.0
 40
0.3639833711
 40
0.5310228043
 40
0.6798904541
 40
0.8051666826
 40
0.9023359832
 40
0.9392533408
 40
0.9679530841
 40
0.9882103495
 40
1.0
 40
1.0
 40
1.0
 40
1.0
 10
-79.2179615936
 20
22.6677047264
 30
0.0
 10
-79.1687401389
 20
22.6292018759
 30
0.0
 10
-79.0973259307
 20
22.572518011
 30
0.0
 10
-79.0068259816
 20
22.4987915314
 30
0.0
 10
-78.9485764481
 20
22.4503660286
 30
0.0
 10
-78.9001051058
 20
22.4089632196
 30
0.0
 10
-78.8667610689
 20
22.3794242715
 30
0.0
 10
-78.8464067906
 20
22.360288956
 30
0.0
 10
-78.8359028325
 20
22.3499013775
 30
0.0
 10
-78.8289517517
 20
22.3421906109
 30
0.0
 10
-78.8254892526
 20
22.3378008701
 30
0.0
 10
-78.8246794363
 20
22.3359457767
 30
0.0
  0
SPLINE
  5
46E
100
AcDbEntity
  8
ASSI
100
AcDbSpline
 62
250
  6
CONTINUOUS
 70
0
 71
3
 72
16
 73
12
 74
0
 42
0.0000001
 43
0.0000001
 44
0.0000000001
 40
0.0
 40
0.0
 40
0.0
 40
0.0
 40
0.3639837297
 40
0.53102319
 40
0.6798907892
 40
0.8051669197
 40
0.90233611
 40
0.9392534188
 40
0.9679531227
 40
0.9882103611
 40
1.0
 40
1.0
 40
1.0
 40
1.0
 10
79.2179615936
 20
22.6677047787
 30
0.0
 10
79.1687401782
 20
22.6292019557
 30
0.0
 10
79.0973260462
 20
22.5725181449
 30
0.0
 10
79.0068262187
 20
22.4987917485
 30
0.0
 10
78.9485768103
 20
22.4503663355
 30
0.0
 10
78.9001055948
 20
22.4089636182
 30
0.0
 10
78.8667616574
 20
22.3794247418
 30
0.0
 10
78.846407447
 20
22.3602894753
 30
0.0
 10
78.8359035267
 20
22.3499019234
 30
0.0
 10
78.8289524723
 20
22.3421911756
 30
0.0
 10
78.825489988
 20
22.3378014436
 30
0.0
 10
78.8246801768
 20
22.335946354
 30
0.0
  0
SPLINE
  5
46F
100
AcDbEntity
  8
ASSI
100
AcDbSpline
 62
250
  6
CONTINUOUS
 70
0
 71
3
 72
18
 73
14
 74
0
 42
0.0000001
 43
0.0000001
 44
0.0000000001
 40
0.0
 40
0.0
 40
0.0
 40
0.0
 40
0.1883466092
 40
0.3699896528
 40
0.5383417084
 40
0.6874370204
 40
0.8119301133
 40
0.8635381963
 40
0.9074205308
 40
0.9432086237
 40
0.9706253271
 40
0.9895041336
 40
1.0
 40
1.0
 40
1.0
 40
1.0
 10
79.4942885593
 20
21.8703705753
 30
0.0
 10
79.4628449489
 20
21.8702905811
 30
0.0
 10
79.4010771317
 20
21.8698526237
 30
0.0
 10
79.3112141671
 20
21.8683700152
 30
0.0
 10
79.2279208977
 20
21.8661251619
 30
0.0
 10
79.1541977989
 20
21.8632048364
 30
0.0
 10
79.099984877
 20
21.8601697385
 30
0.0
 10
79.063369724
 20
21.8573672681
 30
0.0
 10
79.0415378623
 20
21.8553171887
 30
0.0
 10
79.0238120507
 20
21.8531883922
 30
0.0
 10
79.0101984073
 20
21.8510852514
 30
0.0
 10
79.0010970834
 20
21.8489110571
 30
0.0
 10
78.9962562664
 20
21.8472641552
 30
0.0
 10
78.994973792
 20
21.8460701642
 30
0.0
  0
SPLINE
  5
470
100
AcDbEntity
  8
ASSI
100
AcDbSpline
 62
250
  6
CONTINUOUS
 70
0
 71
3
 72
13
 73
9
 74
0
 42
0.0000001
 43
0.0000001
 44
0.0000000001
 40
0.0
 40
0.0
 40
0.0
 40
0.0
 40
0.3594637566
 40
0.6696706049
 40
0.7929532182
 40
0.8896584024
 40
0.9579009014
 40
1.0
 40
1.0
 40
1.0
 40
1.0
 10
104.5704696982
 20
-43.9246280943
 30
0.0
 10
104.6075786548
 20
-43.9242886885
 30
0.0
 10
104.6766879744
 20
-43.921433029
 30
0.0
 10
104.758216094
 20
-43.9122812798
 30
0.0
 10
104.811827142
 20
-43.9013605335
 30
0.0
 10
104.8405061231
 20
-43.8927080344
 30
0.0
 10
104.8597828577
 20
-43.8840331218
 30
0.0
 10
104.8688477969
 20
-43.8756032227
 30
0.0
 10
104.8700585586
 20
-43.8714290238
 30
0.0
  0
SPLINE
  5
471
100
AcDbEntity
  8
ASSI
100
AcDbSpline
 62
250
  6
CONTINUOUS
 70
0
 71
3
 72
16
 73
12
 74
0
 42
0.0000001
 43
0.0000001
 44
0.0000000001
 40
0.0
 40
0.0
 40
0.0
 40
0.0
 40
0.3699259219
 40
0.5382268082
 40
0.6873077635
 40
0.811788969
 40
0.9072712513
 40
0.9430816491
 40
0.9705150833
 40
0.9894318309
 40
1.0
 40
1.0
 40
1.0
 40
1.0
 10
104.4427702181
 20
-22.6677048932
 30
0.0
 10
104.4798325002
 20
-22.6676071759
 30
0.0
 10
104.5337585935
 20
-22.6669863746
 30
0.0
 10
104.6025921869
 20
-22.6650633264
 30
0.0
 10
104.6468295934
 20
-22.6632539589
 30
0.0
 10
104.6837344423
 20
-22.6610920539
 30
0.0
 10
104.7092953104
 20
-22.6589748912
 30
0.0
 10
104.7250577246
 20
-22.6570214455
 30
0.0
 10
104.7332280537
 20
-22.6557085357
 30
0.0
 10
104.7386913971
 20
-22.6543605061
 30
0.0
 10
104.7415971833
 20
-22.6533283439
 30
0.0
 10
104.7423590785
 20
-22.6525930904
 30
0.0
  0
SPLINE
  5
472
100
AcDbEntity
  8
ASSI
100
AcDbSpline
 62
250
  6
CONTINUOUS
 70
0
 71
3
 72
16
 73
12
 74
0
 42
0.0000001
 43
0.0000001
 44
0.0000000001
 40
0.0
 40
0.0
 40
0.0
 40
0.0
 40
0.3699259182
 40
0.5382268031
 40
0.6873077578
 40
0.8117889634
 40
0.9072712467
 40
0.9430816454
 40
0.9705150807
 40
0.9894318295
 40
1.0
 40
1.0
 40
1.0
 40
1.0
 10
104.4427702181
 20
22.6677048929
 30
0.0
 10
104.4798324998
 20
22.6676071756
 30
0.0
 10
104.5337585925
 20
22.6669863743
 30
0.0
 10
104.6025921854
 20
22.6650633262
 30
0.0
 10
104.6468295917
 20
22.6632539587
 30
0.0
 10
104.6837344406
 20
22.6610920537
 30
0.0
 10
104.7092953089
 20
22.6589748911
 30
0.0
 10
104.7250577235
 20
22.6570214455
 30
0.0
 10
104.7332280529
 20
22.6557085357
 30
0.0
 10
104.7386913967
 20
22.654360506
 30
0.0
 10
104.7415971831
 20
22.6533283438
 30
0.0
 10
104.7423590785
 20
22.6525930904
 30
0.0
  0
SPLINE
  5
473
100
AcDbEntity
  8
ASSI
100
AcDbSpline
 62
250
  6
CONTINUOUS
 70
0
 71
3
 72
13
 73
9
 74
0
 42
0.0000001
 43
0.0000001
 44
0.0000000001
 40
0.0
 40
0.0
 40
0.0
 40
0.0
 40
0.3594649058
 40
0.6696715907
 40
0.7929538468
 40
0.8896586569
 40
0.9579009009
 40
1.0
 40
1.0
 40
1.0
 40
1.0
 10
104.5704696982
 20
43.9246280998
 30
0.0
 10
104.6075782578
 20
43.9242886228
 30
0.0
 10
104.676686715
 20
43.9214328697
 30
0.0
 10
104.7582137487
 20
43.9122810668
 30
0.0
 10
104.811823934
 20
43.901360334
 30
0.0
 10
104.8405023822
 20
43.8927078764
 30
0.0
 10
104.85977876
 20
43.8840330105
 30
0.0
 10
104.868843474
 20
43.8756031714
 30
0.0
 10
104.8700541966
 20
43.871429024
 30
0.0
  0
SPLINE
  5
474
100
AcDbEntity
  8
ASSI
100
AcDbSpline
 62
250
  6
CONTINUOUS
 70
0
 71
3
 72
13
 73
9
 74
0
 42
0.0000001
 43
0.0000001
 44
0.0000000001
 40
0.0
 40
0.0
 40
0.0
 40
0.0
 40
0.3594637566
 40
0.6696706049
 40
0.7929532182
 40
0.8896584024
 40
0.9579009014
 40
1.0
 40
1.0
 40
1.0
 40
1.0
 10
-104.5704696982
 20
43.9246280943
 30
0.0
 10
-104.6075786548
 20
43.9242886885
 30
0.0
 10
-104.6766879744
 20
43.921433029
 30
0.0
 10
-104.758216094
 20
43.9122812798
 30
0.0
 10
-104.811827142
 20
43.9013605335
 30
0.0
 10
-104.8405061231
 20
43.8927080344
 30
0.0
 10
-104.8597828577
 20
43.8840331218
 30
0.0
 10
-104.8688477969
 20
43.8756032227
 30
0.0
 10
-104.8700585586
 20
43.8714290238
 30
0.0
  0
SPLINE
  5
475
100
AcDbEntity
  8
ASSI
100
AcDbSpline
 62
250
  6
CONTINUOUS
 70
0
 71
3
 72
16
 73
12
 74
0
 42
0.0000001
 43
0.0000001
 44
0.0000000001
 40
0.0
 40
0.0
 40
0.0
 40
0.0
 40
0.3699259212
 40
0.5382268072
 40
0.6873077625
 40
0.811788968
 40
0.9072712504
 40
0.9430816484
 40
0.9705150828
 40
0.9894318306
 40
1.0
 40
1.0
 40
1.0
 40
1.0
 10
-104.4427702181
 20
22.6677048931
 30
0.0
 10
-104.4798325001
 20
22.6676071759
 30
0.0
 10
-104.5337585933
 20
22.6669863745
 30
0.0
 10
-104.6025921866
 20
22.6650633263
 30
0.0
 10
-104.6468295931
 20
22.6632539588
 30
0.0
 10
-104.683734442
 20
22.6610920538
 30
0.0
 10
-104.7092953101
 20
22.6589748912
 30
0.0
 10
-104.7250577244
 20
22.6570214455
 30
0.0
 10
-104.7332280536
 20
22.6557085357
 30
0.0
 10
-104.738691397
 20
22.6543605061
 30
0.0
 10
-104.7415971833
 20
22.6533283439
 30
0.0
 10
-104.7423590785
 20
22.6525930904
 30
0.0
  0
SPLINE
  5
476
100
AcDbEntity
  8
ASSI
100
AcDbSpline
 62
250
  6
CONTINUOUS
 70
0
 71
3
 72
11
 73
7
 74
0
 42
0.0000001
 43
0.0000001
 44
0.0000000001
 40
0.0
 40
0.0
 40
0.0
 40
0.0
 40
0.2494342821
 40
0.4990859201
 40
0.7492755754
 40
1.0
 40
1.0
 40
1.0
 40
1.0
 10
-104.8700585586
 20
-43.8714290238
 30
0.0
 10
-104.8708158676
 20
-44.0011459746
 30
0.0
 10
-104.8213324216
 20
-44.2638091584
 30
0.0
 10
-104.6028485125
 20
-44.5982903515
 30
0.0
 10
-104.2719853971
 20
-44.8238258383
 30
0.0
 10
-104.0085659357
 20
-44.8766962815
 30
0.0
 10
-103.8781758769
 20
-44.8768054117
 30
0.0
  0
SPLINE
  5
477
100
AcDbEntity
  8
ASSI
100
AcDbSpline
 62
250
  6
CONTINUOUS
 70
0
 71
3
 72
11
 73
7
 74
0
 42
0.0000001
 43
0.0000001
 44
0.0000000001
 40
0.0
 40
0.0
 40
0.0
 40
0.0
 40
0.2507236805
 40
0.5009133911
 40
0.7505649812
 40
1.0
 40
1.0
 40
1.0
 40
1.0
 10
-103.8781758769
 20
44.8768054117
 30
0.0
 10
-104.008565551
 20
44.8767020516
 30
0.0
 10
-104.2719847796
 20
44.8238234812
 30
0.0
 10
-104.6028471531
 20
44.5982918822
 30
0.0
 10
-104.8213339269
 20
44.2638096851
 30
0.0
 10
-104.8708119043
 20
44.0011463784
 30
0.0
 10
-104.8700585586
 20
43.8714290238
 30
0.0
  0
SPLINE
  5
478
100
AcDbEntity
  8
ASSI
100
AcDbSpline
 62
250
  6
CONTINUOUS
 70
0
 71
3
 72
11
 73
7
 74
0
 42
0.0000001
 43
0.0000001
 44
0.0000000001
 40
0.0
 40
0.0
 40
0.0
 40
0.0
 40
0.2507236805
 40
0.5009133911
 40
0.7505649812
 40
1.0
 40
1.0
 40
1.0
 40
1.0
 10
103.8781758769
 20
-44.8768054117
 30
0.0
 10
104.008565551
 20
-44.8767020516
 30
0.0
 10
104.2719847796
 20
-44.8238234812
 30
0.0
 10
104.6028471531
 20
-44.5982918822
 30
0.0
 10
104.8213339269
 20
-44.2638096851
 30
0.0
 10
104.8708119043
 20
-44.0011463784
 30
0.0
 10
104.8700585586
 20
-43.8714290238
 30
0.0
  0
SPLINE
  5
479
100
AcDbEntity
  8
ASSI
100
AcDbSpline
 62
250
  6
CONTINUOUS
 70
0
 71
3
 72
11
 73
7
 74
0
 42
0.0000001
 43
0.0000001
 44
0.0000000001
 40
0.0
 40
0.0
 40
0.0
 40
0.0
 40
0.2494342821
 40
0.4990859201
 40
0.7492755754
 40
1.0
 40
1.0
 40
1.0
 40
1.0
 10
104.8700585586
 20
43.8714290238
 30
0.0
 10
104.8708158676
 20
44.0011459746
 30
0.0
 10
104.8213324216
 20
44.2638091584
 30
0.0
 10
104.6028485125
 20
44.5982903515
 30
0.0
 10
104.2719853971
 20
44.8238258383
 30
0.0
 10
104.0085659357
 20
44.8766962815
 30
0.0
 10
103.8781758769
 20
44.8768054117
 30
0.0
  0
SPLINE
  5
47A
100
AcDbEntity
  8
RACCORDO
100
AcDbSpline
 62
250
  6
CONTINUOUS
 70
0
 71
3
 72
21
 73
17
 74
0
 42
0.0000001
 43
0.0000001
 44
0.0000000001
 40
0.0
 40
0.0
 40
0.0
 40
0.0
 40
0.0011992043
 40
0.0047679412
 40
0.010695841
 40
0.0189692261
 40
0.0424947786
 40
0.0751477294
 40
0.1166032418
 40
0.1665157432
 40
0.2244273066
 40
0.2898075252
 40
0.4406068219
 40
0.6134317262
 40
0.8022453641
 40
1.0
 40
1.0
 40
1.0
 40
1.0
 10
-133.1705053814
 20
-22.6677048932
 30
0.0
 10
-133.1705111066
 20
-22.6675913833
 30
0.0
 10
-133.1697801836
 20
-22.6677432199
 30
0.0
 10
-133.1690403313
 20
-22.6674671981
 30
0.0
 10
-133.1672079237
 20
-22.6674564947
 30
0.0
 10
-133.1637322888
 20
-22.6671564874
 30
0.0
 10
-133.1575668036
 20
-22.6668362603
 30
0.0
 10
-133.1483615648
 20
-22.6662785721
 30
0.0
 10
-133.1366134869
 20
-22.6656291271
 30
0.0
 10
-133.1224912979
 20
-22.6648495728
 30
0.0
 10
-133.1060984336
 20
-22.6639635232
 30
0.0
 10
-133.0801592027
 20
-22.6625760189
 30
0.0
 10
-133.0433421068
 20
-22.6606372128
 30
0.0
 10
-132.9948414931
 20
-22.6581178614
 30
0.0
 10
-132.941894888
 20
-22.6553993665
 30
0.0
 10
-132.9053052388
 20
-22.6535397682
 30
0.0
 10
-132.8865870318
 20
-22.6525930904
 30
0.0
  0
SPLINE
  5
47B
100
AcDbEntity
  8
RACCORDO
100
AcDbSpline
 62
250
  6
CONTINUOUS
 70
0
 71
3
 72
21
 73
17
 74
0
 42
0.0000001
 43
0.0000001
 44
0.0000000001
 40
0.0
 40
0.0
 40
0.0
 40
0.0
 40
0.0011992042
 40
0.0047679411
 40
0.0106958408
 40
0.0189692258
 40
0.0424947782
 40
0.0751477288
 40
0.116603241
 40
0.1665157422
 40
0.2244273054
 40
0.2898075238
 40
0.4406068203
 40
0.6134317246
 40
0.8022453631
 40
1.0
 40
1.0
 40
1.0
 40
1.0
 10
-133.170505376
 20
22.6677048929
 30
0.0
 10
-133.1705111012
 20
22.667591383
 30
0.0
 10
-133.1697801782
 20
22.6677432196
 30
0.0
 10
-133.169040326
 20
22.6674671978
 30
0.0
 10
-133.1672079184
 20
22.6674564945
 30
0.0
 10
-133.1637322836
 20
22.6671564871
 30
0.0
 10
-133.1575667986
 20
22.66683626
 30
0.0
 10
-133.14836156
 20
22.6662785719
 30
0.0
 10
-133.1366134824
 20
22.6656291268
 30
0.0
 10
-133.1224912937
 20
22.6648495726
 30
0.0
 10
-133.1060984297
 20
22.663963523
 30
0.0
 10
-133.0801591994
 20
22.6625760188
 30
0.0
 10
-133.0433421042
 20
22.6606372127
 30
0.0
 10
-132.9948414914
 20
22.6581178613
 30
0.0
 10
-132.9418948872
 20
22.6553993664
 30
0.0
 10
-132.9053052385
 20
22.6535397682
 30
0.0
 10
-132.8865870318
 20
22.6525930904
 30
0.0
  0
SPLINE
  5
47C
100
AcDbEntity
  8
RACCORDO
100
AcDbSpline
 62
250
  6
CONTINUOUS
 70
0
 71
3
 72
21
 73
17
 74
0
 42
0.0000001
 43
0.0000001
 44
0.0000000001
 40
0.0
 40
0.0
 40
0.0
 40
0.0
 40
0.0012796176
 40
0.0048765021
 40
0.0108214743
 40
0.0191070658
 40
0.0426494185
 40
0.0753136207
 40
0.116776669
 40
0.1666936232
 40
0.2246066554
 40
0.2899851878
 40
0.4407702832
 40
0.613563548
 40
0.8023241027
 40
1.0
 40
1.0
 40
1.0
 40
1.0
 10
-130.7294803924
 20
43.9246280998
 30
0.0
 10
-130.7295017668
 20
43.9245085999
 30
0.0
 10
-130.7288250501
 20
43.9243761733
 30
0.0
 10
-130.7280700406
 20
43.9240450314
 30
0.0
 10
-130.7263035155
 20
43.9236466828
 30
0.0
 10
-130.722892741
 20
43.9228114854
 30
0.0
 10
-130.7168560562
 20
43.9215241885
 30
0.0
 10
-130.7078101159
 20
43.9196398233
 30
0.0
 10
-130.6962618536
 20
43.9173251465
 30
0.0
 10
-130.6823682852
 20
43.9145920738
 30
0.0
 10
-130.6662342905
 20
43.9114696549
 30
0.0
 10
-130.6406959668
 20
43.9065864525
 30
0.0
 10
-130.6044326773
 20
43.8997589887
 30
0.0
 10
-130.5566440337
 20
43.8908872985
 30
0.0
 10
-130.5044612646
 20
43.8813131894
 30
0.0
 10
-130.468390129
 20
43.874763412
 30
0.0
 10
-130.4499355684
 20
43.871429024
 30
0.0
  0
SPLINE
  5
47D
100
AcDbEntity
  8
RACCORDO
100
AcDbSpline
 62
250
  6
CONTINUOUS
 70
0
 71
3
 72
9
 73
5
 74
0
 42
0.0000001
 43
0.0000001
 44
0.0000000001
 40
0.0
 40
0.0
 40
0.0
 40
0.0
 40
0.5136167015
 40
1.0
 40
1.0
 40
1.0
 40
1.0
 10
-126.5535209033
 20
43.7518426007
 30
0.0
 10
-126.3027358765
 20
43.6738306852
 30
0.0
 10
-125.8245310982
 20
43.4871700312
 30
0.0
 10
-125.3777063595
 20
43.2346462491
 30
0.0
 10
-125.1705053736
 20
43.0970753632
 30
0.0
  0
SPLINE
  5
47E
100
AcDbEntity
  8
RACCORDO
100
AcDbSpline
 62
250
  6
CONTINUOUS
 70
0
 71
3
 72
23
 73
19
 74
0
 42
0.0000001
 43
0.0000001
 44
0.0000000001
 40
0.0
 40
0.0
 40
0.0
 40
0.0
 40
0.0015337445
 40
0.0053670767
 40
0.0115825066
 40
0.0201853587
 40
0.0311601645
 40
0.0444777683
 40
0.0780139252
 40
0.1204573244
 40
0.1713743697
 40
0.2302368309
 40
0.2964486987
 40
0.3693316502
 40
0.4481605991
 40
0.6204931926
 40
0.8067721891
 40
1.0
 40
1.0
 40
1.0
 40
1.0
 10
-130.3211981714
 20
-44.8768054117
 30
0.0
 10
-130.3217159048
 20
-44.8767791451
 30
0.0
 10
-130.322426728
 20
-44.8745063803
 30
0.0
 10
-130.3235612417
 20
-44.8712734201
 30
0.0
 10
-130.3249552244
 20
-44.8648404887
 30
0.0
 10
-130.3266680498
 20
-44.8564150639
 30
0.0
 10
-130.3286430623
 20
-44.8454257513
 30
0.0
 10
-130.3318933012
 20
-44.826174022
 30
0.0
 10
-130.3365170249
 20
-44.796332774
 30
0.0
 10
-130.3426956288
 20
-44.7538955377
 30
0.0
 10
-130.3497721562
 20
-44.7029312958
 30
0.0
 10
-130.3576711911
 20
-44.643974303
 30
0.0
 10
-130.3663032639
 20
-44.5776243457
 30
0.0
 10
-130.3755775375
 20
-44.5045531783
 30
0.0
 10
-130.3890748685
 20
-44.3958621876
 30
0.0
 10
-130.406762751
 20
-44.2490704007
 30
0.0
 10
-130.4283475744
 20
-44.0638037052
 30
0.0
 10
-130.4427253434
 20
-43.9363399796
 30
0.0
 10
-130.449935797
 20
-43.8714290238
 30
0.0
  0
SPLINE
  5
47F
100
AcDbEntity
  8
RACCORDO
100
AcDbSpline
 62
250
  6
CONTINUOUS
 70
0
 71
3
 72
23
 73
19
 74
0
 42
0.0000001
 43
0.0000001
 44
0.0000000001
 40
0.0
 40
0.0
 40
0.0
 40
0.0
 40
0.1932272652
 40
0.3795058349
 40
0.5518385955
 40
0.6306675983
 40
0.7035505981
 40
0.7697625421
 40
0.8286251208
 40
0.8795421563
 40
0.9219855824
 40
0.9555220979
 40
0.9688399407
 40
0.9798147026
 40
0.9884169877
 40
0.9946316775
 40
0.9984649032
 40
1.0
 40
1.0
 40
1.0
 40
1.0
 10
-130.449935797
 20
43.8714290238
 30
0.0
 10
-130.4427253021
 20
43.9363397896
 30
0.0
 10
-130.4283475119
 20
44.0638031832
 30
0.0
 10
-130.4067618231
 20
44.2490695031
 30
0.0
 10
-130.3890745093
 20
44.3958612885
 30
0.0
 10
-130.375577023
 20
44.504552352
 30
0.0
 10
-130.3663027689
 20
44.577623583
 30
0.0
 10
-130.3576707776
 20
44.6439736323
 30
0.0
 10
-130.3497718136
 20
44.702930701
 30
0.0
 10
-130.3426953914
 20
44.7538949926
 30
0.0
 10
-130.3365169484
 20
44.7963324112
 30
0.0
 10
-130.3318932274
 20
44.8261738029
 30
0.0
 10
-130.3286429609
 20
44.8454258268
 30
0.0
 10
-130.3266680617
 20
44.8564147971
 30
0.0
 10
-130.3249554138
 20
44.8648404136
 30
0.0
 10
-130.3235618882
 20
44.8712715077
 30
0.0
 10
-130.3224270439
 20
44.8745071508
 30
0.0
 10
-130.321716287
 20
44.8767776963
 30
0.0
 10
-130.3211981714
 20
44.8768054117
 30
0.0
  0
SPLINE
  5
480
100
AcDbEntity
  8
RACCORDO
100
AcDbSpline
 62
250
  6
CONTINUOUS
 70
0
 71
3
 72
9
 73
5
 74
0
 42
0.0000001
 43
0.0000001
 44
0.0000000001
 40
0.0
 40
0.0
 40
0.0
 40
0.0
 40
0.4863773839
 40
1.0
 40
1.0
 40
1.0
 40
1.0
 10
-125.1705054691
 20
-43.0970754232
 30
0.0
 10
-125.377708316
 20
-43.2346486563
 30
0.0
 10
-125.8245449049
 20
-43.4871762401
 30
0.0
 10
-126.302761212
 20
-43.6738409091
 30
0.0
 10
-126.5535556902
 20
-43.7518535036
 30
0.0
  0
SPLINE
  5
481
100
AcDbEntity
  8
RACCORDO
100
AcDbSpline
 62
250
  6
CONTINUOUS
 70
0
 71
3
 72
21
 73
17
 74
0
 42
0.0000001
 43
0.0000001
 44
0.0000000001
 40
0.0
 40
0.0
 40
0.0
 40
0.0
 40
0.0012790813
 40
0.0048754235
 40
0.0108198821
 40
0.0191049931
 40
0.0426464913
 40
0.0753099907
 40
0.1167724955
 40
0.166689072
 40
0.2246018962
 40
0.2899803913
 40
0.4407659148
 40
0.6135602147
 40
0.8023222888
 40
1.0
 40
1.0
 40
1.0
 40
1.0
 10
-130.7294803616
 20
-43.9246280943
 30
0.0
 10
-130.7295018799
 20
-43.924508672
 30
0.0
 10
-130.7288250398
 20
-43.9243760883
 30
0.0
 10
-130.7280704278
 20
-43.9240451342
 30
0.0
 10
-130.7263038985
 20
-43.9236467241
 30
0.0
 10
-130.722893395
 20
-43.9228116057
 30
0.0
 10
-130.7168568354
 20
-43.9215243029
 30
0.0
 10
-130.7078111342
 20
-43.9196399882
 30
0.0
 10
-130.6962630209
 20
-43.9173253295
 30
0.0
 10
-130.6823695752
 20
-43.9145922762
 30
0.0
 10
-130.6662356515
 20
-43.9114698657
 30
0.0
 10
-130.640697334
 20
-43.9065866594
 30
0.0
 10
-130.6044339425
 20
-43.8997591726
 30
0.0
 10
-130.5566450614
 20
-43.8908874372
 30
0.0
 10
-130.5044619285
 20
-43.8813132632
 30
0.0
 10
-130.4683905117
 20
-43.8747634377
 30
0.0
 10
-130.449935797
 20
-43.8714290238
 30
0.0
  0
SPLINE
  5
482
100
AcDbEntity
  8
ASSI
100
AcDbSpline
 62
250
  6
CONTINUOUS
 70
0
 71
3
 72
9
 73
5
 74
0
 42
0.0000001
 43
0.0000001
 44
0.0000000001
 40
0.0
 40
0.0
 40
0.0
 40
0.0
 40
0.4863773839
 40
1.0
 40
1.0
 40
1.0
 40
1.0
 10
-125.1705054691
 20
-43.0970754232
 30
0.0
 10
-125.377708316
 20
-43.2346486563
 30
0.0
 10
-125.8245449049
 20
-43.4871762401
 30
0.0
 10
-126.302761212
 20
-43.6738409091
 30
0.0
 10
-126.5535556902
 20
-43.7518535036
 30
0.0
  0
SPLINE
  5
483
100
AcDbEntity
  8
ASSI
100
AcDbSpline
 62
250
  6
CONTINUOUS
 70
0
 71
3
 72
9
 73
5
 74
0
 42
0.0000001
 43
0.0000001
 44
0.0000000001
 40
0.0
 40
0.0
 40
0.0
 40
0.0
 40
0.5136167015
 40
1.0
 40
1.0
 40
1.0
 40
1.0
 10
-126.5535209033
 20
43.7518426007
 30
0.0
 10
-126.3027358765
 20
43.6738306852
 30
0.0
 10
-125.8245310982
 20
43.4871700312
 30
0.0
 10
-125.3777063595
 20
43.2346462491
 30
0.0
 10
-125.1705053736
 20
43.0970753632
 30
0.0
  0
SPLINE
  5
484
100
AcDbEntity
  8
ASSI
100
AcDbSpline
 62
250
  6
CONTINUOUS
 70
0
 71
3
 72
23
 73
19
 74
0
 42
0.0000001
 43
0.0000001
 44
0.0000000001
 40
0.0
 40
0.0
 40
0.0
 40
0.0
 40
0.0015337445
 40
0.0053670767
 40
0.0115825066
 40
0.0201853587
 40
0.0311601645
 40
0.0444777683
 40
0.0780139252
 40
0.1204573244
 40
0.1713743697
 40
0.2302368309
 40
0.2964486987
 40
0.3693316502
 40
0.4481605991
 40
0.6204931926
 40
0.8067721891
 40
1.0
 40
1.0
 40
1.0
 40
1.0
 10
-130.3211981714
 20
-44.8768054117
 30
0.0
 10
-130.3217159048
 20
-44.8767791451
 30
0.0
 10
-130.322426728
 20
-44.8745063803
 30
0.0
 10
-130.3235612417
 20
-44.8712734201
 30
0.0
 10
-130.3249552244
 20
-44.8648404887
 30
0.0
 10
-130.3266680498
 20
-44.8564150639
 30
0.0
 10
-130.3286430623
 20
-44.8454257513
 30
0.0
 10
-130.3318933012
 20
-44.826174022
 30
0.0
 10
-130.3365170249
 20
-44.796332774
 30
0.0
 10
-130.3426956288
 20
-44.7538955377
 30
0.0
 10
-130.3497721562
 20
-44.7029312958
 30
0.0
 10
-130.3576711911
 20
-44.643974303
 30
0.0
 10
-130.3663032639
 20
-44.5776243457
 30
0.0
 10
-130.3755775375
 20
-44.5045531783
 30
0.0
 10
-130.3890748685
 20
-44.3958621876
 30
0.0
 10
-130.406762751
 20
-44.2490704007
 30
0.0
 10
-130.4283475744
 20
-44.0638037052
 30
0.0
 10
-130.4427253434
 20
-43.9363399796
 30
0.0
 10
-130.449935797
 20
-43.8714290238
 30
0.0
  0
SPLINE
  5
485
100
AcDbEntity
  8
ASSI
100
AcDbSpline
 62
250
  6
CONTINUOUS
 70
0
 71
3
 72
23
 73
19
 74
0
 42
0.0000001
 43
0.0000001
 44
0.0000000001
 40
0.0
 40
0.0
 40
0.0
 40
0.0
 40
0.1932272652
 40
0.3795058349
 40
0.5518385955
 40
0.6306675983
 40
0.7035505981
 40
0.7697625421
 40
0.8286251208
 40
0.8795421563
 40
0.9219855824
 40
0.9555220979
 40
0.9688399407
 40
0.9798147026
 40
0.9884169877
 40
0.9946316775
 40
0.9984649032
 40
1.0
 40
1.0
 40
1.0
 40
1.0
 10
-130.449935797
 20
43.8714290238
 30
0.0
 10
-130.4427253021
 20
43.9363397896
 30
0.0
 10
-130.4283475119
 20
44.0638031832
 30
0.0
 10
-130.4067618231
 20
44.2490695031
 30
0.0
 10
-130.3890745093
 20
44.3958612885
 30
0.0
 10
-130.375577023
 20
44.504552352
 30
0.0
 10
-130.3663027689
 20
44.577623583
 30
0.0
 10
-130.3576707776
 20
44.6439736323
 30
0.0
 10
-130.3497718136
 20
44.702930701
 30
0.0
 10
-130.3426953914
 20
44.7538949926
 30
0.0
 10
-130.3365169484
 20
44.7963324112
 30
0.0
 10
-130.3318932274
 20
44.8261738029
 30
0.0
 10
-130.3286429609
 20
44.8454258268
 30
0.0
 10
-130.3266680617
 20
44.8564147971
 30
0.0
 10
-130.3249554138
 20
44.8648404136
 30
0.0
 10
-130.3235618882
 20
44.8712715077
 30
0.0
 10
-130.3224270439
 20
44.8745071508
 30
0.0
 10
-130.321716287
 20
44.8767776963
 30
0.0
 10
-130.3211981714
 20
44.8768054117
 30
0.0
  0
SPLINE
  5
486
100
AcDbEntity
  8
ASSI
100
AcDbSpline
 62
250
  6
CONTINUOUS
 70
0
 71
3
 72
21
 73
17
 74
0
 42
0.0000001
 43
0.0000001
 44
0.0000000001
 40
0.0
 40
0.0
 40
0.0
 40
0.0
 40
0.0012790813
 40
0.0048754235
 40
0.0108198821
 40
0.0191049931
 40
0.0426464913
 40
0.0753099907
 40
0.1167724955
 40
0.166689072
 40
0.2246018962
 40
0.2899803913
 40
0.4407659148
 40
0.6135602147
 40
0.8023222888
 40
1.0
 40
1.0
 40
1.0
 40
1.0
 10
-130.7294803616
 20
-43.9246280943
 30
0.0
 10
-130.7295018799
 20
-43.924508672
 30
0.0
 10
-130.7288250398
 20
-43.9243760883
 30
0.0
 10
-130.7280704278
 20
-43.9240451342
 30
0.0
 10
-130.7263038985
 20
-43.9236467241
 30
0.0
 10
-130.722893395
 20
-43.9228116057
 30
0.0
 10
-130.7168568354
 20
-43.9215243029
 30
0.0
 10
-130.7078111342
 20
-43.9196399882
 30
0.0
 10
-130.6962630209
 20
-43.9173253295
 30
0.0
 10
-130.6823695752
 20
-43.9145922762
 30
0.0
 10
-130.6662356515
 20
-43.9114698657
 30
0.0
 10
-130.640697334
 20
-43.9065866594
 30
0.0
 10
-130.6044339425
 20
-43.8997591726
 30
0.0
 10
-130.5566450614
 20
-43.8908874372
 30
0.0
 10
-130.5044619285
 20
-43.8813132632
 30
0.0
 10
-130.4683905117
 20
-43.8747634377
 30
0.0
 10
-130.449935797
 20
-43.8714290238
 30
0.0
  0
SPLINE
  5
487
100
AcDbEntity
  8
ASSI
100
AcDbSpline
 62
250
  6
CONTINUOUS
 70
0
 71
3
 72
21
 73
17
 74
0
 42
0.0000001
 43
0.0000001
 44
0.0000000001
 40
0.0
 40
0.0
 40
0.0
 40
0.0
 40
0.0011992043
 40
0.0047679412
 40
0.010695841
 40
0.0189692261
 40
0.0424947786
 40
0.0751477294
 40
0.1166032418
 40
0.1665157432
 40
0.2244273066
 40
0.2898075252
 40
0.4406068219
 40
0.6134317262
 40
0.8022453641
 40
1.0
 40
1.0
 40
1.0
 40
1.0
 10
-133.1705053814
 20
-22.6677048932
 30
0.0
 10
-133.1705111066
 20
-22.6675913833
 30
0.0
 10
-133.1697801836
 20
-22.6677432199
 30
0.0
 10
-133.1690403313
 20
-22.6674671981
 30
0.0
 10
-133.1672079237
 20
-22.6674564947
 30
0.0
 10
-133.1637322888
 20
-22.6671564874
 30
0.0
 10
-133.1575668036
 20
-22.6668362603
 30
0.0
 10
-133.1483615648
 20
-22.6662785721
 30
0.0
 10
-133.1366134869
 20
-22.6656291271
 30
0.0
 10
-133.1224912979
 20
-22.6648495728
 30
0.0
 10
-133.1060984336
 20
-22.6639635232
 30
0.0
 10
-133.0801592027
 20
-22.6625760189
 30
0.0
 10
-133.0433421068
 20
-22.6606372128
 30
0.0
 10
-132.9948414931
 20
-22.6581178614
 30
0.0
 10
-132.941894888
 20
-22.6553993665
 30
0.0
 10
-132.9053052388
 20
-22.6535397682
 30
0.0
 10
-132.8865870318
 20
-22.6525930904
 30
0.0
  0
SPLINE
  5
488
100
AcDbEntity
  8
ASSI
100
AcDbSpline
 62
250
  6
CONTINUOUS
 70
0
 71
3
 72
21
 73
17
 74
0
 42
0.0000001
 43
0.0000001
 44
0.0000000001
 40
0.0
 40
0.0
 40
0.0
 40
0.0
 40
0.0011992042
 40
0.0047679411
 40
0.0106958408
 40
0.0189692258
 40
0.0424947782
 40
0.0751477288
 40
0.116603241
 40
0.1665157422
 40
0.2244273054
 40
0.2898075238
 40
0.4406068203
 40
0.6134317246
 40
0.8022453631
 40
1.0
 40
1.0
 40
1.0
 40
1.0
 10
-133.170505376
 20
22.6677048929
 30
0.0
 10
-133.1705111012
 20
22.667591383
 30
0.0
 10
-133.1697801782
 20
22.6677432196
 30
0.0
 10
-133.169040326
 20
22.6674671978
 30
0.0
 10
-133.1672079184
 20
22.6674564945
 30
0.0
 10
-133.1637322836
 20
22.6671564871
 30
0.0
 10
-133.1575667986
 20
22.66683626
 30
0.0
 10
-133.14836156
 20
22.6662785719
 30
0.0
 10
-133.1366134824
 20
22.6656291268
 30
0.0
 10
-133.1224912937
 20
22.6648495726
 30
0.0
 10
-133.1060984297
 20
22.663963523
 30
0.0
 10
-133.0801591994
 20
22.6625760188
 30
0.0
 10
-133.0433421042
 20
22.6606372127
 30
0.0
 10
-132.9948414914
 20
22.6581178613
 30
0.0
 10
-132.9418948872
 20
22.6553993664
 30
0.0
 10
-132.9053052385
 20
22.6535397682
 30
0.0
 10
-132.8865870318
 20
22.6525930904
 30
0.0
  0
SPLINE
  5
489
100
AcDbEntity
  8
ASSI
100
AcDbSpline
 62
250
  6
CONTINUOUS
 70
0
 71
3
 72
21
 73
17
 74
0
 42
0.0000001
 43
0.0000001
 44
0.0000000001
 40
0.0
 40
0.0
 40
0.0
 40
0.0
 40
0.0012796176
 40
0.0048765021
 40
0.0108214743
 40
0.0191070658
 40
0.0426494185
 40
0.0753136207
 40
0.116776669
 40
0.1666936232
 40
0.2246066554
 40
0.2899851878
 40
0.4407702832
 40
0.613563548
 40
0.8023241027
 40
1.0
 40
1.0
 40
1.0
 40
1.0
 10
-130.7294803924
 20
43.9246280998
 30
0.0
 10
-130.7295017668
 20
43.9245085999
 30
0.0
 10
-130.7288250501
 20
43.9243761733
 30
0.0
 10
-130.7280700406
 20
43.9240450314
 30
0.0
 10
-130.7263035155
 20
43.9236466828
 30
0.0
 10
-130.722892741
 20
43.9228114854
 30
0.0
 10
-130.7168560562
 20
43.9215241885
 30
0.0
 10
-130.7078101159
 20
43.9196398233
 30
0.0
 10
-130.6962618536
 20
43.9173251465
 30
0.0
 10
-130.6823682852
 20
43.9145920738
 30
0.0
 10
-130.6662342905
 20
43.9114696549
 30
0.0
 10
-130.6406959668
 20
43.9065864525
 30
0.0
 10
-130.6044326773
 20
43.8997589887
 30
0.0
 10
-130.5566440337
 20
43.8908872985
 30
0.0
 10
-130.5044612646
 20
43.8813131894
 30
0.0
 10
-130.468390129
 20
43.874763412
 30
0.0
 10
-130.4499355684
 20
43.871429024
 30
0.0
  0
ELLIPSE
  5
48A
100
AcDbEntity
  8
RACCORDO
100
AcDbEllipse
 62
7
  6
CONTINUOUS
 10
-103.998627654
 20
-43.998627654
 30
0.0
 11
0.7090462434
 21
0.7090462434
 31
0.0
 40
0.9972646886
 41
2.3575640181
 42
3.9256212891
  0
ELLIPSE
  5
48B
100
AcDbEntity
  8
RACCORDO
100
AcDbEllipse
 62
7
  6
CONTINUOUS
 10
103.998627654
 20
-43.998627654
 30
0.0
 11
0.7090462434
 21
-0.7090462434
 31
0.0
 40
0.9972646886
 41
-0.7840286355
 42
0.7840286355
  0
ELLIPSE
  5
48C
100
AcDbEntity
  8
RACCORDO
100
AcDbEllipse
 62
7
  6
CONTINUOUS
 10
103.998627654
 20
43.998627654
 30
0.0
 11
0.7090462434
 21
0.7090462434
 31
0.0
 40
0.9972646886
 41
-0.7840286355
 42
0.7840286355
  0
ELLIPSE
  5
48D
100
AcDbEntity
  8
RACCORDO
100
AcDbEllipse
 62
7
  6
CONTINUOUS
 10
-103.998627654
 20
43.998627654
 30
0.0
 11
0.7090462434
 21
-0.7090462434
 31
0.0
 40
0.9972646886
 41
2.3575640181
 42
3.9256212891
  0
ELLIPSE
  5
48E
100
AcDbEntity
  8
0
100
AcDbEllipse
 62
7
  6
CONTINUOUS
 10
78.0489021232
 20
-21.6989021232
 30
0.0
 11
0.5672369947
 21
-0.5672369947
 31
0.0
 40
0.9972646886
 41
-0.7840286355
 42
0.7840286355
  0
ELLIPSE
  5
48F
100
AcDbEntity
  8
0
100
AcDbEllipse
 62
7
  6
CONTINUOUS
 10
78.0489021232
 20
21.6989021232
 30
0.0
 11
0.5672369947
 21
0.5672369947
 31
0.0
 40
0.9972646886
 41
-0.7840286355
 42
0.7840286355
  0
ELLIPSE
  5
490
100
AcDbEntity
  8
0
100
AcDbEllipse
 62
7
  6
CONTINUOUS
 10
-78.0489021232
 20
21.6989021232
 30
0.0
 11
0.5672369947
 21
-0.5672369947
 31
0.0
 40
0.9972646886
 41
2.3575640181
 42
3.9256212891
  0
ELLIPSE
  5
491
100
AcDbEntity
  8
0
100
AcDbEllipse
 62
7
  6
CONTINUOUS
 10
-78.0489021232
 20
-21.6989021232
 30
0.0
 11
0.5672369947
 21
0.5672369947
 31
0.0
 40
0.9972646886
 41
-3.9256212891
 42
-2.3575640181
  0
ELLIPSE
  5
492
100
AcDbEntity
  8
ASSI
100
AcDbEllipse
 62
7
  6
CONTINUOUS
 10
-103.998627654
 20
-43.998627654
 30
0.0
 11
0.7090462434
 21
0.7090462434
 31
0.0
 40
0.9972646886
 41
2.3575640181
 42
3.9256212891
  0
ELLIPSE
  5
493
100
AcDbEntity
  8
ASSI
100
AcDbEllipse
 62
7
  6
CONTINUOUS
 10
103.998627654
 20
-43.998627654
 30
0.0
 11
0.7090462434
 21
-0.7090462434
 31
0.0
 40
0.9972646886
 41
-0.7840286355
 42
0.7840286355
  0
ELLIPSE
  5
494
100
AcDbEntity
  8
ASSI
100
AcDbEllipse
 62
7
  6
CONTINUOUS
 10
103.998627654
 20
43.998627654
 30
0.0
 11
0.7090462434
 21
0.7090462434
 31
0.0
 40
0.9972646886
 41
-0.7840286355
 42
0.7840286355
  0
ELLIPSE
  5
495
100
AcDbEntity
  8
ASSI
100
AcDbEllipse
 62
7
  6
CONTINUOUS
 10
-103.998627654
 20
43.998627654
 30
0.0
 11
0.7090462434
 21
-0.7090462434
 31
0.0
 40
0.9972646886
 41
2.3575640181
 42
3.9256212891
  0
ELLIPSE
  5
496
100
AcDbEntity
  8
ASSI
100
AcDbEllipse
 62
7
  6
CONTINUOUS
 10
78.0489021232
 20
-21.6989021232
 30
0.0
 11
0.5672369947
 21
-0.5672369947
 31
0.0
 40
0.9972646886
 41
-0.7840286355
 42
0.7840286355
  0
ELLIPSE
  5
497
100
AcDbEntity
  8
ASSI
100
AcDbEllipse
 62
7
  6
CONTINUOUS
 10
78.0489021232
 20
21.6989021232
 30
0.0
 11
0.5672369947
 21
0.5672369947
 31
0.0
 40
0.9972646886
 41
-0.7840286355
 42
0.7840286355
  0
ELLIPSE
  5
498
100
AcDbEntity
  8
ASSI
100
AcDbEllipse
 62
7
  6
CONTINUOUS
 10
-78.0489021232
 20
21.6989021232
 30
0.0
 11
0.5672369947
 21
-0.5672369947
 31
0.0
 40
0.9972646886
 41
2.3575640181
 42
3.9256212891
  0
ELLIPSE
  5
499
100
AcDbEntity
  8
ASSI
100
AcDbEllipse
 62
7
  6
CONTINUOUS
 10
-78.0489021232
 20
-21.6989021232
 30
0.0
 11
0.5672369947
 21
0.5672369947
 31
0.0
 40
0.9972646886
 41
-3.9256212891
 42
-2.3575640181
  0
ELLIPSE
  5
49A
100
AcDbEntity
  8
0
100
AcDbEllipse
 62
250
  6
CONTINUOUS
 10
34.0501863754
 20
14.2336437913
 30
0.0
 11
167.4332498099
 21
0.0
 31
0.0
 40
1.0
 41
9.3382765686
 42
9.3550366053
  0
ENDSEC
  0
SECTION
  2
OBJECTS
  0
DICTIONARY
  5
C
100
AcDbDictionary
280
0
281
1
  3
ACAD_GROUP
350
D
  3
ACAD_MLINESTYLE
350
17
  3
ACAD_LAYOUT
350
1A
  3
ACAD_PLOTSETTINGS
350
19
  3
ACAD_PLOTSTYLENAME
350
E
  0
DICTIONARY
  5
D
102
{ACAD_REACTORS
330
C
102
}
100
AcDbDictionary
280
0
281
1
  0
ACDBDICTIONARYWDFLT
  5
E
102
{ACAD_REACTORS
330
C
102
}
100
AcDbDictionary
281
1
  3
Normal
350
F
100
AcDbDictionaryWithDefault
340
F
  0
DICTIONARY
  5
17
102
{ACAD_REACTORS
330
C
102
}
100
AcDbDictionary
280
0
281
1
  3
Standard
350
18
  0
DICTIONARY
  5
19
102
{ACAD_REACTORS
330
C
102
}
100
AcDbDictionary
281
1
  0
DICTIONARY
  5
1A
102
{ACAD_REACTORS
330
C
102
}
100
AcDbDictionary
281
1
  3
Model
350
49B
  3
Layout1
350
49C
  0
ACDBPLACEHOLDER
  5
F
102
{ACAD_REACTORS
330
E
102
}
  0
MLINESTYLE
  5
18
102
{ACAD_REACTORS
330
17
102
}
100
AcDbMlineStyle
  2
STANDARD
 70
0
  3

 62
256
 51
90.0
 52
90.0
 71
2
 49
0.5
 62
256
  6
BYLAYER
 49
-0.5
 62
256
  6
BYLAYER
  0
LAYOUT
  5
49B
102
{ACAD_REACTORS
330
1A
102
}
100
AcDbPlotSettings
  1

  2
none_device
  4
ISO_A4_(297.00_x_210.00_MM)
  6

 40
0.0
 41
0.0
 42
0.0
 43
0.0
 44
297.0
 45
210.0
 46
0.0
 47
0.0
 48
0.0
 49
0.0
140
0.0
141
0.0
142
1.0
143
1.0
 70
1024
 72
1
 73
0
 74
0
  7

 75
0
147
1.0
148
0.0
149
0.0
100
AcDbLayout
  1
Model
 70
0
 71
0
 10
0.0
 20
0.0
 11
297.0
 21
210.0
 12
0.0
 22
0.0
 32
0.0
 14
0.0
 24
0.0
 34
0.0
 15
0.0
 25
0.0
 35
0.0
146
0.0
 13
0.0
 23
0.0
 33
0.0
 16
1.0
 26
0.0
 36
0.0
 17
0.0
 27
1.0
 37
0.0
 76
0
330
214
345
0
346
0
  0
LAYOUT
  5
49C
102
{ACAD_REACTORS
330
1A
102
}
100
AcDbPlotSettings
  1

  2
none_device
  4
ISO_A4_(297.00_x_210.00_MM)
  6

 40
0.0
 41
0.0
 42
0.0
 43
0.0
 44
297.0
 45
210.0
 46
0.0
 47
0.0
 48
0.0
 49
0.0
140
0.0
141
0.0
142
1.0
143
1.0
 70
0
 72
1
 73
0
 74
0
  7

 75
0
147
1.0
148
0.0
149
0.0
100
AcDbLayout
  1
Layout1
 70
0
 71
1
 10
0.0
 20
0.0
 11
297.0
 21
210.0
 12
0.0
 22
0.0
 32
0.0
 14
0.0
 24
0.0
 34
0.0
 15
0.0
 25
0.0
 35
0.0
146
0.0
 13
0.0
 23
0.0
 33
0.0
 16
1.0
 26
0.0
 36
0.0
 17
0.0
 27
1.0
 37
0.0
 76
0
330
215
345
0
346
0
  0
ENDSEC
  0
EOF
