  0
SECTION
  2
HEADER
  9
$ACADVER
  1
AC1024
  9
$DWGCODEPAGE
  3
ANSI_1252
  9
$EXTMAX
 10
297.0
 20
210.0
 30
0.0
  9
$EXTMIN
 10
0.0
 20
0.0
 30
0.0
  9
$LIMMIN
 10
0.0
 20
0.0
  9
$LIMMAX
 10
297.0
 20
210.0
  9
$VIEWCTR
 10
148.5
 20
105.0
  9
$VIEWSIZE
 40
210.0
  9
$CLAYER
  8
0
  9
$LTSCALE
 40
16.335
  9
$CELTYPE
  6
BYLAYER
  9
$DIMSCALE
 40
1.0
  9
$DIMASZ
 40
3.0
  9
$DIMEXO
 40
0.5
  9
$DIMDLI
 40
11.286
  9
$DIMEXE
 40
1.5
  9
$DIMCEN
 40
2.673
  9
$DIMLFAC
 40
1.0
  9
$DIMBLK
  1
_FILLED
  9
$DIMALT
 70
0
  9
$DIMALTF
 40
0.0393700787
  9
$DIMTXT
 40
3.0
  9
$DIMTOL
 70
1
  9
$DIMLIM
 70
0
  9
$DIMTFAC
 40
1.0
  9
$DIMTP
 40
0.01
  9
$DIMTM
 40
0.01
  9
$DIMGAP
 40
0.625
  9
$DIMDSEP
 70
44
  9
$AUNITS
 70
0
  9
$PDMODE
 70
3
  9
$PDSIZE
 40
3.0
  9
$HANDSEED
  5
569
  9
$TILEMODE
 70
1
  9
$MEASUREMENT
 70
1
  9
$INSUNITS
 70
4
  0
ENDSEC
  0
SECTION
  2
CLASSES
  0
CLASS
  1
ACDBDICTIONARYWDFLT
  2
AcDbDictionaryWithDefault
  3
AutoCAD 2000
 90
0
 91
1
280
0
281
0
  0
CLASS
  1
ACDBPLACEHOLDER
  2
AcDbPlaceHolder
  3
AutoCAD 2000
 90
0
 91
1
280
0
281
0
  0
CLASS
  1
LAYOUT
  2
AcDbLayout
  3
AutoCAD 2000
 90
0
 91
0
280
0
281
0
  0
ENDSEC
  0
SECTION
  2
TABLES
  0
TABLE
  2
VPORT
  5
8
100
AcDbSymbolTable
 70
2
  0
VPORT
  5
1F4
100
AcDbSymbolTableRecord
100
AcDbViewportTableRecord
  2
*ACTIVE
 70
0
 10
0.0
 20
0.0
 11
1.0
 21
1.0
 12
148.5
 22
105.0
 13
0.0
 23
0.0
 14
1.0
 24
1.0
 15
0.0
 25
0.0
 16
0.0
 26
0.0
 36
1.0
 17
0.0
 27
0.0
 37
0.0
 40
210.0
 41
1.4142857143
 42
50.0
 43
0.0
 44
0.0
 50
0.0
 51
0.0
 71
0
 72
100
 73
1
 74
1
 75
0
 76
0
 77
0
 78
0
  0
ENDTAB
  0
TABLE
  2
LTYPE
  5
5
100
AcDbSymbolTable
 70
6
  0
LTYPE
  5
14
100
AcDbSymbolTableRecord
100
AcDbLinetypeTableRecord
  2
BYBLOCK
 70
0
  3

 72
65
 73
0
 40
0.0
  0
LTYPE
  5
15
100
AcDbSymbolTableRecord
100
AcDbLinetypeTableRecord
  2
BYLAYER
 70
0
  3

 72
65
 73
0
 40
0.0
  0
LTYPE
  5
16
100
AcDbSymbolTableRecord
100
AcDbLinetypeTableRecord
  2
CONTINUOUS
 70
64
  3
Solid line
 72
65
 73
0
 40
0.0
  0
LTYPE
  5
1F5
100
AcDbSymbolTableRecord
100
AcDbLinetypeTableRecord
  2
CENTER
 70
64
  3
____ _ ____ _ ____ _ ____ _ ____ _ ____ _ ____
 72
65
 73
4
 40
0.6
 49
0.375
 74
0
 49
-0.075
 74
0
 49
0.075
 74
0
 49
-0.075
 74
0
  0
LTYPE
  5
1F6
100
AcDbSymbolTableRecord
100
AcDbLinetypeTableRecord
  2
HIDDEN
 70
64
  3
- - - - - - - - - - - - - - - - - - - -
 72
65
 73
2
 40
0.2
 49
0.1
 74
0
 49
-0.1
 74
0
  0
LTYPE
  5
1F7
100
AcDbSymbolTableRecord
100
AcDbLinetypeTableRecord
  2
PHANTOM
 70
64
  3
_____ _ _ _____ _ _ _____ _ _ _____
 72
65
 73
6
 40
0.8
 49
0.45
 74
0
 49
-0.05
 74
0
 49
0.1
 74
0
 49
-0.05
 74
0
 49
0.1
 74
0
 49
-0.05
 74
0
  0
LTYPE
  5
1F8
100
AcDbSymbolTableRecord
100
AcDbLinetypeTableRecord
  2
DOT
 70
64
  3
. . . . . . . . . . . . . . . . . . . .
 72
65
 73
2
 40
0.2
 49
0.1
 74
0
 49
-0.1
 74
0
  0
LTYPE
  5
1F9
100
AcDbSymbolTableRecord
100
AcDbLinetypeTableRecord
  2
DASHED
 70
64
  3
- - - - - - - - - - - - - - - - - - - -
 72
65
 73
2
 40
0.2
 49
0.1
 74
0
 49
-0.1
 74
0
  0
ENDTAB
  0
TABLE
  2
LAYER
  5
2
100
AcDbSymbolTable
 70
36
  0
LAYER
  5
10
100
AcDbSymbolTableRecord
100
AcDbLayerTableRecord
  2
0
 70
0
 62
7
  6
CONTINUOUS
370
-3
390
F
  0
LAYER
  5
1FA
100
AcDbSymbolTableRecord
100
AcDbLayerTableRecord
  2
DEFAULT_1
 70
0
 62
7
  6
CENTER
370
-3
390
F
  0
LAYER
  5
1FB
100
AcDbSymbolTableRecord
100
AcDbLayerTableRecord
  2
DEFAULT_2
 70
0
 62
7
  6
HIDDEN
370
-3
390
F
  0
LAYER
  5
1FC
100
AcDbSymbolTableRecord
100
AcDbLayerTableRecord
  2
DEFAULT_3
 70
0
 62
7
  6
PHANTOM
370
-3
390
F
  0
LAYER
  5
1FD
100
AcDbSymbolTableRecord
100
AcDbLayerTableRecord
  2
ASSI
 70
0
 62
7
  6
CONTINUOUS
370
-3
390
F
  0
LAYER
  5
1FE
100
AcDbSymbolTableRecord
100
AcDbLayerTableRecord
  2
COORDINATE
 70
0
 62
7
  6
CONTINUOUS
370
-3
390
F
  0
LAYER
  5
1FF
100
AcDbSymbolTableRecord
100
AcDbLayerTableRecord
  2
COPY_PUBLISH
 70
0
 62
7
  6
CONTINUOUS
370
-3
390
F
  0
LAYER
  5
200
100
AcDbSymbolTableRecord
100
AcDbLayerTableRecord
  2
COSMETIC
 70
0
 62
7
  6
CONTINUOUS
370
-3
390
F
  0
LAYER
  5
201
100
AcDbSymbolTableRecord
100
AcDbLayerTableRecord
  2
COSMETICI
 70
0
 62
7
  6
CONTINUOUS
370
-3
390
F
  0
LAYER
  5
202
100
AcDbSymbolTableRecord
100
AcDbLayerTableRecord
  2
CURVE
 70
0
 62
7
  6
CONTINUOUS
370
-3
390
F
  0
LAYER
  5
203
100
AcDbSymbolTableRecord
100
AcDbLayerTableRecord
  2
CURVE_VERNICE
 70
0
 62
7
  6
CONTINUOUS
370
-3
390
F
  0
LAYER
  5
204
100
AcDbSymbolTableRecord
100
AcDbLayerTableRecord
  2
DRAFT
 70
0
 62
7
  6
CONTINUOUS
370
-3
390
F
  0
LAYER
  5
205
100
AcDbSymbolTableRecord
100
AcDbLayerTableRecord
  2
IMPORT_IGES
 70
0
 62
7
  6
CONTINUOUS
370
-3
390
F
  0
LAYER
  5
206
100
AcDbSymbolTableRecord
100
AcDbLayerTableRecord
  2
INTFCLR_1
 70
0
 62
7
  6
CONTINUOUS
370
-3
390
F
  0
LAYER
  5
207
100
AcDbSymbolTableRecord
100
AcDbLayerTableRecord
  2
INTF_1
 70
0
 62
7
  6
CONTINUOUS
370
-3
390
F
  0
LAYER
  5
208
100
AcDbSymbolTableRecord
100
AcDbLayerTableRecord
  2
NOTE
 70
0
 62
7
  6
CONTINUOUS
370
-3
390
F
  0
LAYER
  5
209
100
AcDbSymbolTableRecord
100
AcDbLayerTableRecord
  2
PIANI
 70
0
 62
7
  6
CONTINUOUS
370
-3
390
F
  0
LAYER
  5
20A
100
AcDbSymbolTableRecord
100
AcDbLayerTableRecord
  2
PUNTI
 70
0
 62
7
  6
CONTINUOUS
370
-3
390
F
  0
LAYER
  5
20B
100
AcDbSymbolTableRecord
100
AcDbLayerTableRecord
  2
RACCORDO
 70
0
 62
7
  6
CONTINUOUS
370
-3
390
F
  0
LAYER
  5
20C
100
AcDbSymbolTableRecord
100
AcDbLayerTableRecord
  2
SIMBOLI
 70
0
 62
7
  6
CONTINUOUS
370
-3
390
F
  0
LAYER
  5
20D
100
AcDbSymbolTableRecord
100
AcDbLayerTableRecord
  2
SMUSSO
 70
0
 62
7
  6
CONTINUOUS
370
-3
390
F
  0
LAYER
  5
20E
100
AcDbSymbolTableRecord
100
AcDbLayerTableRecord
  2
SNAPLINE
 70
0
 62
7
  6
CONTINUOUS
370
-3
390
F
  0
LAYER
  5
20F
100
AcDbSymbolTableRecord
100
AcDbLayerTableRecord
  2
SUPERFICI
 70
0
 62
7
  6
CONTINUOUS
370
-3
390
F
  0
LAYER
  5
210
100
AcDbSymbolTableRecord
100
AcDbLayerTableRecord
  2
TRASH
 70
0
 62
7
  6
CONTINUOUS
370
-3
390
F
  0
LAYER
  5
211
100
AcDbSymbolTableRecord
100
AcDbLayerTableRecord
  2
XSEC_DATUMS
 70
0
 62
7
  6
CONTINUOUS
370
-3
390
F
  0
ENDTAB
  0
TABLE
  2
STYLE
  5
3
100
AcDbSymbolTable
 70
1
  0
STYLE
  5
11
100
AcDbSymbolTableRecord
100
AcDbTextStyleTableRecord
  2
STANDARD
 70
0
 40
0.0
 41
0.8
 50
0.0
 71
0
 42
0.2
  3
txt
  4

  0
STYLE
  5
212
100
AcDbSymbolTableRecord
100
AcDbTextStyleTableRecord
  2
TEXTSTYLE_1
 70
0
 40
0.0
 41
0.8
 50
0.0
 71
0
 42
0.2
  3
gdt
  4

  0
ENDTAB
  0
TABLE
  2
VIEW
  5
6
100
AcDbSymbolTable
 70
0
  0
ENDTAB
  0
TABLE
  2
UCS
  5
7
100
AcDbSymbolTable
 70
0
  0
ENDTAB
  0
TABLE
  2
APPID
  5
9
100
AcDbSymbolTable
 70
1
  0
APPID
  5
213
100
AcDbSymbolTableRecord
100
AcDbRegAppTableRecord
  2
ACAD
 70
0
  0
ENDTAB
  0
TABLE
  2
BLOCK_RECORD
  5
1
100
AcDbSymbolTable
 70
0
  0
BLOCK_RECORD
  5
214
100
AcDbSymbolTableRecord
100
AcDbBlockTableRecord
  2
*Model_Space
  0
BLOCK_RECORD
  5
215
100
AcDbSymbolTableRecord
100
AcDbBlockTableRecord
  2
*Paper_Space
  0
BLOCK_RECORD
  5
216
100
AcDbSymbolTableRecord
100
AcDbBlockTableRecord
  2
_FILLED
  0
BLOCK_RECORD
  5
217
100
AcDbSymbolTableRecord
100
AcDbBlockTableRecord
  2
*D0
  0
BLOCK_RECORD
  5
218
100
AcDbSymbolTableRecord
100
AcDbBlockTableRecord
  2
*D1
  0
BLOCK_RECORD
  5
219
100
AcDbSymbolTableRecord
100
AcDbBlockTableRecord
  2
*D2
  0
ENDTAB
  0
TABLE
  2
DIMSTYLE
  5
A
100
AcDbSymbolTable
 70
1
100
AcDbDimStyleTable
 71
0
  0
DIMSTYLE
105
21A
100
AcDbSymbolTableRecord
100
AcDbDimStyleTableRecord
  2
STANDARD
 70
0
  3

  4

 40
1.0
 41
3.0
 42
0.5
 43
0.38
 44
1.5
 45
0.0
 46
0.0
 47
0.01
 48
0.01
140
3.0
141
0.09
142
0.0
143
25.4
144
1.0
145
0.0
146
1.0
147
0.625
 71
1
 72
0
 73
0
 74
0
 75
0
 76
0
 77
1
 78
8
 79
2
170
0
171
1
172
0
173
0
174
0
175
0
176
0
177
0
178
0
270
2
179
2
271
2
272
2
273
2
274
2
275
0
280
0
281
0
282
0
283
1
284
8
285
0
286
0
287
3
288
0
340
11
278
44
341
216
342
216
343
216
344
216
  0
DIMSTYLE
105
21B
100
AcDbSymbolTableRecord
100
AcDbDimStyleTableRecord
  2
DIMSTYLE_1
 70
0
  3

  4

 40
1.0
 41
3.0
 42
0.5
 43
0.38
 44
1.5
 45
0.0
 46
0.0
 47
0.0
 48
0.0
140
3.0
141
0.09
142
0.0
143
25.4
144
1.0
145
0.0
146
1.0
147
0.75
 71
0
 72
0
 73
0
 74
0
 75
0
 76
0
 77
1
 78
8
 79
2
170
0
171
1
172
0
173
0
174
0
175
0
176
0
177
0
178
0
270
2
179
2
271
2
272
2
273
2
274
2
275
0
280
0
281
0
282
0
283
1
284
8
285
0
286
0
287
3
288
0
340
11
278
44
341
216
342
216
343
216
344
216
  0
DIMSTYLE
105
21C
100
AcDbSymbolTableRecord
100
AcDbDimStyleTableRecord
  2
DIMSTYLE_2
 70
0
  3

  4

 40
1.0
 41
3.0
 42
0.5
 43
0.38
 44
1.5
 45
0.0
 46
0.0
 47
0.0
 48
0.0
140
3.0
141
0.09
142
0.0
143
25.4
144
1.0
145
0.0
146
1.0
147
0.75
 71
0
 72
0
 73
0
 74
0
 75
0
 76
0
 77
1
 78
8
 79
2
170
0
171
1
172
0
173
0
174
0
175
0
176
0
177
0
178
0
270
2
179
2
271
1
272
2
273
2
274
2
275
0
280
0
281
0
282
0
283
1
284
8
285
0
286
0
287
3
288
0
340
11
278
44
341
216
342
216
343
216
344
216
  0
ENDTAB
  0
ENDSEC
  0
SECTION
  2
BLOCKS
  0
BLOCK
  5
20
100
AcDbEntity
  8
0
100
AcDbBlockBegin
  2
*Model_Space
 70
0
 10
0.0
 20
0.0
 30
0.0
  3
*Model_Space
  1

  0
ENDBLK
  5
21
100
AcDbEntity
  8
0
100
AcDbBlockEnd
  0
BLOCK
  5
1C
100
AcDbEntity
  8
0
100
AcDbBlockBegin
  2
*Paper_Space
 70
0
 10
0.0
 20
0.0
 30
0.0
  3
*Paper_Space
  1

  0
ENDBLK
  5
1D
100
AcDbEntity
  8
0
100
AcDbBlockEnd
  0
BLOCK
  5
21D
100
AcDbEntity
  8
0
100
AcDbBlockBegin
  2
_FILLED
 70
64
 10
0.0
 20
0.0
  3
_FILLED
  1

  0
SOLID
  5
21E
100
AcDbEntity
  8
0
  6
BYBLOCK
 62
0
100
AcDbTrace
 10
0.0
 20
0.0
 11
-1.0
 21
0.3166666667
 12
-1.0
 22
-0.3166666667
 13
-1.0
 23
-0.3166666667
  0
ENDBLK
  5
21F
100
AcDbEntity
  8
0
  6
BYBLOCK
 62
0
100
AcDbBlockEnd
  0
BLOCK
  5
220
100
AcDbEntity
  8
0
100
AcDbBlockBegin
 62
7
  6
CONTINUOUS
  2
*D0
 70
65
 10
0.0
 20
0.0
  3
*D0
  1

  0
LINE
  5
221
100
AcDbEntity
  8
0
100
AcDbLine
 62
7
  6
CONTINUOUS
 10
-105.0
 20
44.5013704652
 11
-105.0
 21
59.5
  0
LINE
  5
222
100
AcDbEntity
  8
0
100
AcDbLine
 62
7
  6
CONTINUOUS
 10
105.0
 20
44.5013704652
 11
105.0
 21
59.5
  0
LINE
  5
223
100
AcDbEntity
  8
0
100
AcDbLine
 62
7
  6
CONTINUOUS
 10
-105.0
 20
58.0
 11
0.0
 21
58.0
  0
LINE
  5
224
100
AcDbEntity
  8
0
100
AcDbLine
 62
7
  6
CONTINUOUS
 10
105.0
 20
58.0
 11
0.0
 21
58.0
  0
INSERT
  5
225
100
AcDbEntity
  8
0
100
AcDbBlockReference
 62
7
  6
CONTINUOUS
  2
_FILLED
 10
-105.0
 20
58.0
 41
3.0
 42
3.0
 43
3.0
 50
180.0
  0
INSERT
  5
226
100
AcDbEntity
  8
0
100
AcDbBlockReference
 62
7
  6
CONTINUOUS
  2
_FILLED
 10
105.0
 20
58.0
 41
3.0
 42
3.0
 43
3.0
  0
ENDBLK
  5
227
100
AcDbEntity
  8
0
  6
BYBLOCK
 62
0
100
AcDbBlockEnd
  0
BLOCK
  5
228
100
AcDbEntity
  8
0
100
AcDbBlockBegin
 62
7
  6
CONTINUOUS
  2
*D1
 70
65
 10
0.0
 20
0.0
  3
*D1
  1

  0
LINE
  5
229
100
AcDbEntity
  8
0
100
AcDbLine
 62
7
  6
CONTINUOUS
 10
104.5013704652
 20
45.0
 11
159.5
 21
45.0
  0
LINE
  5
22A
100
AcDbEntity
  8
0
100
AcDbLine
 62
7
  6
CONTINUOUS
 10
104.5013704652
 20
-45.0
 11
159.5
 21
-45.0
  0
LINE
  5
22B
100
AcDbEntity
  8
0
100
AcDbLine
 62
7
  6
CONTINUOUS
 10
158.0
 20
45.0
 11
158.0
 21
-0.0
  0
LINE
  5
22C
100
AcDbEntity
  8
0
100
AcDbLine
 62
7
  6
CONTINUOUS
 10
158.0
 20
-45.0
 11
158.0
 21
-0.0
  0
INSERT
  5
22D
100
AcDbEntity
  8
0
100
AcDbBlockReference
 62
7
  6
CONTINUOUS
  2
_FILLED
 10
158.0
 20
45.0
 41
3.0
 42
3.0
 43
3.0
 50
90.0
  0
INSERT
  5
22E
100
AcDbEntity
  8
0
100
AcDbBlockReference
 62
7
  6
CONTINUOUS
  2
_FILLED
 10
158.0
 20
-45.0
 41
3.0
 42
3.0
 43
3.0
 50
270.0
  0
ENDBLK
  5
22F
100
AcDbEntity
  8
0
  6
BYBLOCK
 62
0
100
AcDbBlockEnd
  0
BLOCK
  5
230
100
AcDbEntity
  8
0
100
AcDbBlockBegin
 62
7
  6
CONTINUOUS
  2
*D2
 70
65
 10
0.0
 20
0.0
  3
*D2
  1

  0
LINE
  5
231
100
AcDbEntity
  8
0
100
AcDbLine
 62
7
  6
CONTINUOUS
 10
-125.1705053734
 20
43.5970753632
 11
-125.1705053658
 21
59.499999998
  0
LINE
  5
232
100
AcDbEntity
  8
0
100
AcDbLine
 62
7
  6
CONTINUOUS
 10
-133.7417845086
 20
0.5000002129
 11
-133.7417844807
 21
59.500000002
  0
LINE
  5
233
100
AcDbEntity
  8
0
100
AcDbLine
 62
7
  6
CONTINUOUS
 10
-125.1705053666
 20
57.999999998
 11
-121.1705053666
 21
57.9999999961
  0
LINE
  5
234
100
AcDbEntity
  8
0
100
AcDbLine
 62
7
  6
CONTINUOUS
 10
-121.1705053666
 20
57.9999999961
 11
-129.456144924
 21
58.0
  0
LINE
  5
235
100
AcDbEntity
  8
0
100
AcDbLine
 62
7
  6
CONTINUOUS
 10
-133.7417844814
 20
58.000000002
 11
-137.7417844814
 21
58.0000000039
  0
LINE
  5
236
100
AcDbEntity
  8
0
100
AcDbLine
 62
7
  6
CONTINUOUS
 10
-137.7417844814
 20
58.0000000039
 11
-129.456144924
 21
58.0
  0
INSERT
  5
237
100
AcDbEntity
  8
0
100
AcDbBlockReference
 62
7
  6
CONTINUOUS
  2
_FILLED
 10
-125.1705053666
 20
57.999999998
 41
3.0
 42
3.0
 43
3.0
 50
179.9999999729
  0
INSERT
  5
238
100
AcDbEntity
  8
0
100
AcDbBlockReference
 62
7
  6
CONTINUOUS
  2
_FILLED
 10
-133.7417844814
 20
58.000000002
 41
3.0
 42
3.0
 43
3.0
 50
359.9999999729
  0
ENDBLK
  5
239
100
AcDbEntity
  8
0
  6
BYBLOCK
 62
0
100
AcDbBlockEnd
  0
ENDSEC
  0
SECTION
  2
ENTITIES
  0
DIMENSION
  5
23A
100
AcDbEntity
  8
0
100
AcDbDimension
 62
7
  6
CONTINUOUS
  2
*D0
 10
105.0
 20
58.0
 11
-3.2142857143
 21
58.0
 70
160
 71
2
 72
2
 41
0.9
 42
210.0
  3
DIMSTYLE_1
100
AcDbAlignedDimension
 13
-105.0
 23
44.0013704652
 14
105.0
 24
44.0013704652
100
AcDbRotatedDimension
  0
DIMENSION
  5
23B
100
AcDbEntity
  8
0
100
AcDbDimension
 62
7
  6
CONTINUOUS
  2
*D1
 10
158.0
 20
-45.0
 11
158.0
 21
-2.3571428571
 70
160
 71
2
 72
2
 41
0.9
 42
90.0
  3
DIMSTYLE_1
100
AcDbAlignedDimension
 13
104.0013704652
 23
45.0
 14
104.0013704652
 24
-45.0
 50
270.0
100
AcDbRotatedDimension
  0
DIMENSION
  5
23C
100
AcDbEntity
  8
0
100
AcDbDimension
 62
7
  6
CONTINUOUS
  2
*D2
 10
-133.7417844814
 20
58.000000002
 11
-132.6704306375
 21
58.0000000015
 70
160
 71
2
 72
2
 41
0.9
 42
8.5712791148
  3
DIMSTYLE_2
100
AcDbAlignedDimension
 13
-125.1705053736
 23
43.0970753632
 14
-133.7417845088
 24
0.0000002129
 50
179.9999999729
100
AcDbRotatedDimension
  0
LWPOLYLINE
  5
23D
100
AcDbEntity
  8
RACCORDO
100
AcDbPolyline
 62
250
  6
CONTINUOUS
 90
28
 70
0
 10
-104.8700585586
 20
-43.8714290238
 10
-104.8686881559
 20
-43.930404659
 10
-104.863890799
 20
-43.9891293049
 10
-104.8556914589
 20
-44.0474040146
 10
-104.8441293465
 20
-44.1050285906
 10
-104.8292501648
 20
-44.1618126557
 10
-104.8111030301
 20
-44.2175755305
 10
-104.7897486426
 20
-44.2721449935
 10
-104.7652699892
 20
-44.3253223099
 10
-104.7377684947
 20
-44.3768955349
 10
-104.7073548702
 20
-44.426684228
 10
-104.6741364567
 20
-44.4745382505
 10
-104.6382282535
 20
-44.520303288
 10
-104.599760775
 20
-44.5638300968
 10
-104.5588708001
 20
-44.6049806892
 10
-104.5156926382
 20
-44.6436280055
 10
-104.4703775911
 20
-44.6796477316
 10
-104.423082596
 20
-44.7129264419
 10
-104.3739576264
 20
-44.743363996
 10
-104.3231672173
 20
-44.7708645503
 10
-104.2708870046
 20
-44.7953396286
 10
-104.2172895892
 20
-44.8167126207
 10
-104.1625605491
 20
-44.8349147836
 10
-104.10687934
 20
-44.849892191
 10
-104.0504131687
 20
-44.8616025001
 10
-103.993343731
 20
-44.8700084074
 10
-103.9358675486
 20
-44.8750814005
 10
-103.8781758769
 20
-44.8768054117
  0
LWPOLYLINE
  5
23E
100
AcDbEntity
  8
ASSI
100
AcDbPolyline
 62
250
  6
CONTINUOUS
 90
28
 70
0
 10
-104.8700585586
 20
-43.8714290238
 10
-104.8686881559
 20
-43.930404659
 10
-104.863890799
 20
-43.9891293049
 10
-104.8556914589
 20
-44.0474040146
 10
-104.8441293465
 20
-44.1050285906
 10
-104.8292501648
 20
-44.1618126557
 10
-104.8111030301
 20
-44.2175755305
 10
-104.7897486426
 20
-44.2721449935
 10
-104.7652699892
 20
-44.3253223099
 10
-104.7377684947
 20
-44.3768955349
 10
-104.7073548702
 20
-44.426684228
 10
-104.6741364567
 20
-44.4745382505
 10
-104.6382282535
 20
-44.520303288
 10
-104.599760775
 20
-44.5638300968
 10
-104.5588708001
 20
-44.6049806892
 10
-104.5156926382
 20
-44.6436280055
 10
-104.4703775911
 20
-44.6796477316
 10
-104.423082596
 20
-44.7129264419
 10
-104.3739576264
 20
-44.743363996
 10
-104.3231672173
 20
-44.7708645503
 10
-104.2708870046
 20
-44.7953396286
 10
-104.2172895892
 20
-44.8167126207
 10
-104.1625605491
 20
-44.8349147836
 10
-104.10687934
 20
-44.849892191
 10
-104.0504131687
 20
-44.8616025001
 10
-103.993343731
 20
-44.8700084074
 10
-103.9358675486
 20
-44.8750814005
 10
-103.8781758769
 20
-44.8768054117
  0
LWPOLYLINE
  5
23F
100
AcDbEntity
  8
RACCORDO
100
AcDbPolyline
 62
250
  6
CONTINUOUS
 90
28
 70
0
 10
-104.5704696982
 20
-43.9246281065
 10
-104.569627635
 20
-43.9663052582
 10
-104.5664296626
 20
-44.007546129
 10
-104.5608757811
 20
-44.0483507751
 10
-104.5529280557
 20
-44.0888575385
 10
-104.5426244211
 20
-44.1289281764
 10
-104.5300786815
 20
-44.1681479222
 10
-104.5152634356
 20
-44.2065107593
 10
-104.4982060847
 20
-44.2440229185
 10
-104.4791026373
 20
-44.280288105
 10
-104.4579354039
 20
-44.3152832963
 10
-104.4347220739
 20
-44.3490318082
 10
-104.4097117235
 20
-44.381206932
 10
-104.3828891152
 20
-44.4117914742
 10
-104.3542694865
 20
-44.4408029562
 10
-104.3241476257
 20
-44.4679667926
 10
-104.2925112557
 20
-44.4932647268
 10
-104.2593726536
 20
-44.5167153391
 10
-104.2250634396
 20
-44.5380993262
 10
-104.1895715849
 20
-44.5573976116
 10
-104.1529091183
 20
-44.5746295539
 10
-104.1154437467
 20
-44.5896335076
 10
-104.0771628556
 20
-44.6023878343
 10
-104.0380790595
 20
-44.6129143806
 10
-103.9985979086
 20
-44.6211167166
 10
-103.9588545862
 20
-44.6269627369
 10
-103.918713909
 20
-44.6304846572
 10
-103.8781758769
 20
-44.6316825048
  0
LWPOLYLINE
  5
240
100
AcDbEntity
  8
ASSI
100
AcDbPolyline
 62
250
  6
CONTINUOUS
 90
28
 70
0
 10
-104.5704696982
 20
-43.9246281065
 10
-104.569627635
 20
-43.9663052582
 10
-104.5664296626
 20
-44.007546129
 10
-104.5608757811
 20
-44.0483507751
 10
-104.5529280557
 20
-44.0888575385
 10
-104.5426244211
 20
-44.1289281764
 10
-104.5300786815
 20
-44.1681479222
 10
-104.5152634356
 20
-44.2065107593
 10
-104.4982060847
 20
-44.2440229185
 10
-104.4791026373
 20
-44.280288105
 10
-104.4579354039
 20
-44.3152832963
 10
-104.4347220739
 20
-44.3490318082
 10
-104.4097117235
 20
-44.381206932
 10
-104.3828891152
 20
-44.4117914742
 10
-104.3542694865
 20
-44.4408029562
 10
-104.3241476257
 20
-44.4679667926
 10
-104.2925112557
 20
-44.4932647268
 10
-104.2593726536
 20
-44.5167153391
 10
-104.2250634396
 20
-44.5380993262
 10
-104.1895715849
 20
-44.5573976116
 10
-104.1529091183
 20
-44.5746295539
 10
-104.1154437467
 20
-44.5896335076
 10
-104.0771628556
 20
-44.6023878343
 10
-104.0380790595
 20
-44.6129143806
 10
-103.9985979086
 20
-44.6211167166
 10
-103.9588545862
 20
-44.6269627369
 10
-103.918713909
 20
-44.6304846572
 10
-103.8781758769
 20
-44.6316825048
  0
LWPOLYLINE
  5
241
100
AcDbEntity
  8
RACCORDO
100
AcDbPolyline
 62
250
  6
CONTINUOUS
 90
9
 70
0
 10
-104.8700585586
 20
43.8714290238
 10
-104.8488539353
 20
41.530635219
 10
-104.8294010733
 20
39.1852651697
 10
-104.8116999728
 20
36.8353188758
 10
-104.7957477181
 20
34.4803128887
 10
-104.7815472247
 20
32.1207306571
 10
-104.7691072395
 20
29.7580225269
 10
-104.7584306778
 20
27.3926719467
 10
-104.7495146241
 20
25.0241954679
  0
LWPOLYLINE
  5
242
100
AcDbEntity
  8
ASSI
100
AcDbPolyline
 62
250
  6
CONTINUOUS
 90
9
 70
0
 10
-104.8700585586
 20
43.8714290238
 10
-104.8488539353
 20
41.530635219
 10
-104.8294010733
 20
39.1852651697
 10
-104.8116999728
 20
36.8353188758
 10
-104.7957477181
 20
34.4803128887
 10
-104.7815472247
 20
32.1207306571
 10
-104.7691072395
 20
29.7580225269
 10
-104.7584306778
 20
27.3926719467
 10
-104.7495146241
 20
25.0241954679
  0
LWPOLYLINE
  5
243
100
AcDbEntity
  8
RACCORDO
100
AcDbPolyline
 62
250
  6
CONTINUOUS
 90
9
 70
0
 10
-104.5704696982
 20
43.9246281065
 10
-104.5492646814
 20
41.5803705021
 10
-104.5298115775
 20
39.2305985388
 10
-104.5121103866
 20
36.8757866537
 10
-104.4961582719
 20
34.5164144648
 10
-104.4819580701
 20
32.1529541779
 10
-104.4695182913
 20
29.7858704217
 10
-104.4588417721
 20
27.4156368628
 10
-104.4499256757
 20
25.0427361763
  0
LWPOLYLINE
  5
244
100
AcDbEntity
  8
ASSI
100
AcDbPolyline
 62
250
  6
CONTINUOUS
 90
9
 70
0
 10
-104.5704696982
 20
43.9246281065
 10
-104.5492646814
 20
41.5803705021
 10
-104.5298115775
 20
39.2305985388
 10
-104.5121103866
 20
36.8757866537
 10
-104.4961582719
 20
34.5164144648
 10
-104.4819580701
 20
32.1529541779
 10
-104.4695182913
 20
29.7858704217
 10
-104.4588417721
 20
27.4156368628
 10
-104.4499256757
 20
25.0427361763
  0
LINE
  5
245
100
AcDbEntity
  8
RACCORDO
100
AcDbLine
 62
250
  6
CONTINUOUS
 10
-104.7495146241
 20
25.0241954679
 11
-104.7332181219
 21
18.8795044447
  0
LINE
  5
246
100
AcDbEntity
  8
ASSI
100
AcDbLine
 62
250
  6
CONTINUOUS
 10
-104.7495146241
 20
25.0241954679
 11
-104.7332181219
 21
18.8795044447
  0
LINE
  5
247
100
AcDbEntity
  8
RACCORDO
100
AcDbLine
 62
250
  6
CONTINUOUS
 10
-104.4499256757
 20
25.0427361763
 11
-104.4336291884
 21
18.8925039473
  0
LINE
  5
248
100
AcDbEntity
  8
ASSI
100
AcDbLine
 62
250
  6
CONTINUOUS
 10
-104.4499256757
 20
25.0427361763
 11
-104.4336291884
 21
18.8925039473
  0
LINE
  5
249
100
AcDbEntity
  8
RACCORDO
100
AcDbLine
 62
250
  6
CONTINUOUS
 10
-104.7332181219
 20
18.8795044447
 11
-104.7199214545
 21
11.3305150114
  0
LINE
  5
24A
100
AcDbEntity
  8
ASSI
100
AcDbLine
 62
250
  6
CONTINUOUS
 10
-104.7332181219
 20
18.8795044447
 11
-104.7199214545
 21
11.3305150114
  0
LINE
  5
24B
100
AcDbEntity
  8
RACCORDO
100
AcDbLine
 62
250
  6
CONTINUOUS
 10
-104.4336291884
 20
18.8925039473
 11
-104.4203325766
 21
11.3380604683
  0
LINE
  5
24C
100
AcDbEntity
  8
ASSI
100
AcDbLine
 62
250
  6
CONTINUOUS
 10
-104.4336291884
 20
18.8925039473
 11
-104.4203325766
 21
11.3380604683
  0
LINE
  5
24D
100
AcDbEntity
  8
RACCORDO
100
AcDbLine
 62
250
  6
CONTINUOUS
 10
-104.7199214545
 20
11.3305150114
 11
-104.7132711867
 21
3.77715111
  0
LINE
  5
24E
100
AcDbEntity
  8
ASSI
100
AcDbLine
 62
250
  6
CONTINUOUS
 10
-104.7199214545
 20
11.3305150114
 11
-104.7132711867
 21
3.77715111
  0
LINE
  5
24F
100
AcDbEntity
  8
RACCORDO
100
AcDbLine
 62
250
  6
CONTINUOUS
 10
-104.4203325766
 20
11.3380604683
 11
-104.4136823257
 21
3.7797559319
  0
LINE
  5
250
100
AcDbEntity
  8
ASSI
100
AcDbLine
 62
250
  6
CONTINUOUS
 10
-104.4203325766
 20
11.3380604683
 11
-104.4136823257
 21
3.7797559319
  0
LINE
  5
251
100
AcDbEntity
  8
RACCORDO
100
AcDbLine
 62
7
  6
CONTINUOUS
 10
-105.0
 20
-44.0013704652
 11
-105.0
 21
44.0013704652
  0
LINE
  5
252
100
AcDbEntity
  8
ASSI
100
AcDbLine
 62
7
  6
CONTINUOUS
 10
-105.0
 20
-44.0013704652
 11
-105.0
 21
44.0013704652
  0
LINE
  5
253
100
AcDbEntity
  8
RACCORDO
100
AcDbLine
 62
250
  6
CONTINUOUS
 10
-104.7132711867
 20
3.77715111
 11
-104.713271186
 21
-3.7771499691
  0
LINE
  5
254
100
AcDbEntity
  8
ASSI
100
AcDbLine
 62
250
  6
CONTINUOUS
 10
-104.7132711867
 20
3.77715111
 11
-104.713271186
 21
-3.7771499691
  0
LINE
  5
255
100
AcDbEntity
  8
RACCORDO
100
AcDbLine
 62
250
  6
CONTINUOUS
 10
-104.4136823257
 20
3.7797559319
 11
-104.4136823261
 21
-3.7797569659
  0
LINE
  5
256
100
AcDbEntity
  8
ASSI
100
AcDbLine
 62
250
  6
CONTINUOUS
 10
-104.4136823257
 20
3.7797559319
 11
-104.4136823261
 21
-3.7797569659
  0
LINE
  5
257
100
AcDbEntity
  8
RACCORDO
100
AcDbLine
 62
250
  6
CONTINUOUS
 10
-104.713271186
 20
-3.7771499691
 11
-104.7199214528
 21
-11.3305136537
  0
LINE
  5
258
100
AcDbEntity
  8
ASSI
100
AcDbLine
 62
250
  6
CONTINUOUS
 10
-104.713271186
 20
-3.7771499691
 11
-104.7199214528
 21
-11.3305136537
  0
LINE
  5
259
100
AcDbEntity
  8
RACCORDO
100
AcDbLine
 62
250
  6
CONTINUOUS
 10
-104.4136823261
 20
-3.7797569659
 11
-104.4203325776
 21
-11.3380611962
  0
LINE
  5
25A
100
AcDbEntity
  8
ASSI
100
AcDbLine
 62
250
  6
CONTINUOUS
 10
-104.4136823261
 20
-3.7797569659
 11
-104.4203325776
 21
-11.3380611962
  0
LINE
  5
25B
100
AcDbEntity
  8
RACCORDO
100
AcDbLine
 62
250
  6
CONTINUOUS
 10
-104.7199214528
 20
-11.3305136537
 11
-104.7332181209
 21
-18.8795038031
  0
LINE
  5
25C
100
AcDbEntity
  8
ASSI
100
AcDbLine
 62
250
  6
CONTINUOUS
 10
-104.7199214528
 20
-11.3305136537
 11
-104.7332181209
 21
-18.8795038031
  0
LINE
  5
25D
100
AcDbEntity
  8
RACCORDO
100
AcDbLine
 62
250
  6
CONTINUOUS
 10
-104.4203325776
 20
-11.3380611962
 11
-104.433629189
 21
-18.892504222
  0
LINE
  5
25E
100
AcDbEntity
  8
ASSI
100
AcDbLine
 62
250
  6
CONTINUOUS
 10
-104.4203325776
 20
-11.3380611962
 11
-104.433629189
 21
-18.892504222
  0
LWPOLYLINE
  5
25F
100
AcDbEntity
  8
RACCORDO
100
AcDbPolyline
 62
250
  6
CONTINUOUS
 90
10
 70
0
 10
-104.433629189
 20
-18.892504222
 10
-104.449925677
 20
-25.0427362954
 10
-104.4588417737
 20
-27.4156370147
 10
-104.4695182923
 20
-29.7858705046
 10
-104.4819580688
 20
-32.1529539987
 10
-104.4961582673
 20
-34.516413923
 10
-104.5121103802
 20
-36.8757859222
 10
-104.5298115717
 20
-39.2305978808
 10
-104.5492646777
 20
-41.5803700883
 10
-104.5704696982
 20
-43.9246281065
  0
LWPOLYLINE
  5
260
100
AcDbEntity
  8
ASSI
100
AcDbPolyline
 62
250
  6
CONTINUOUS
 90
10
 70
0
 10
-104.433629189
 20
-18.892504222
 10
-104.449925677
 20
-25.0427362954
 10
-104.4588417737
 20
-27.4156370147
 10
-104.4695182923
 20
-29.7858705046
 10
-104.4819580688
 20
-32.1529539987
 10
-104.4961582673
 20
-34.516413923
 10
-104.5121103802
 20
-36.8757859222
 10
-104.5298115717
 20
-39.2305978808
 10
-104.5492646777
 20
-41.5803700883
 10
-104.5704696982
 20
-43.9246281065
  0
LWPOLYLINE
  5
261
100
AcDbEntity
  8
RACCORDO
100
AcDbPolyline
 62
250
  6
CONTINUOUS
 90
10
 70
0
 10
-104.7332181209
 20
-18.8795038031
 10
-104.7495146367
 20
-25.0241988665
 10
-104.7584307064
 20
-27.3926785798
 10
-104.7691072875
 20
-29.7580322302
 10
-104.7815473045
 20
-32.1207441804
 10
-104.7957478329
 20
-34.4803300678
 10
-104.8117000999
 20
-36.8353368046
 10
-104.829401181
 20
-39.1852800282
 10
-104.8488540005
 20
-41.5306441013
 10
-104.8700585586
 20
-43.8714290238
  0
LWPOLYLINE
  5
262
100
AcDbEntity
  8
ASSI
100
AcDbPolyline
 62
250
  6
CONTINUOUS
 90
10
 70
0
 10
-104.7332181209
 20
-18.8795038031
 10
-104.7495146367
 20
-25.0241988665
 10
-104.7584307064
 20
-27.3926785798
 10
-104.7691072875
 20
-29.7580322302
 10
-104.7815473045
 20
-32.1207441804
 10
-104.7957478329
 20
-34.4803300678
 10
-104.8117000999
 20
-36.8353368046
 10
-104.829401181
 20
-39.1852800282
 10
-104.8488540005
 20
-41.5306441013
 10
-104.8700585586
 20
-43.8714290238
  0
LINE
  5
263
100
AcDbEntity
  8
RACCORDO
100
AcDbLine
 62
250
  6
CONTINUOUS
 10
-103.8781758769
 20
-44.6316825048
 11
-103.8781758769
 21
-44.8768054117
  0
LINE
  5
264
100
AcDbEntity
  8
ASSI
100
AcDbLine
 62
250
  6
CONTINUOUS
 10
-103.8781758769
 20
-44.6316825048
 11
-103.8781758769
 21
-44.8768054117
  0
LINE
  5
265
100
AcDbEntity
  8
RACCORDO
100
AcDbLine
 62
250
  6
CONTINUOUS
 10
-103.8781758769
 20
44.6316825048
 11
-103.8781758772
 21
44.8768054117
  0
LINE
  5
266
100
AcDbEntity
  8
ASSI
100
AcDbLine
 62
250
  6
CONTINUOUS
 10
-103.8781758769
 20
44.6316825048
 11
-103.8781758772
 21
44.8768054117
  0
LINE
  5
267
100
AcDbEntity
  8
RACCORDO
100
AcDbLine
 62
250
  6
CONTINUOUS
 10
-79.4942885593
 20
-21.8703705759
 11
-79.5097532489
 21
-14.5834397175
  0
LINE
  5
268
100
AcDbEntity
  8
ASSI
100
AcDbLine
 62
250
  6
CONTINUOUS
 10
-79.4942885593
 20
-21.8703705759
 11
-79.5097532489
 21
-14.5834397175
  0
LINE
  5
269
100
AcDbEntity
  8
RACCORDO
100
AcDbLine
 62
250
  6
CONTINUOUS
 10
-78.9949737704
 20
-21.846081448
 11
-79.0104384624
 21
-14.5669313808
  0
LINE
  5
26A
100
AcDbEntity
  8
ASSI
100
AcDbLine
 62
250
  6
CONTINUOUS
 10
-78.9949737704
 20
-21.846081448
 11
-79.0104384624
 21
-14.5669313808
  0
LINE
  5
26B
100
AcDbEntity
  8
RACCORDO
100
AcDbLine
 62
250
  6
CONTINUOUS
 10
-79.5097532489
 20
-14.5834397175
 11
-79.5190327639
 21
-7.2926778504
  0
LINE
  5
26C
100
AcDbEntity
  8
ASSI
100
AcDbLine
 62
250
  6
CONTINUOUS
 10
-79.5097532489
 20
-14.5834397175
 11
-79.5190327639
 21
-7.2926778504
  0
LINE
  5
26D
100
AcDbEntity
  8
RACCORDO
100
AcDbLine
 62
250
  6
CONTINUOUS
 10
-79.0104384624
 20
-14.5669313808
 11
-79.0197179866
 21
-7.2846627828
  0
LINE
  5
26E
100
AcDbEntity
  8
ASSI
100
AcDbLine
 62
250
  6
CONTINUOUS
 10
-79.0104384624
 20
-14.5669313808
 11
-79.0197179866
 21
-7.2846627828
  0
LINE
  5
26F
100
AcDbEntity
  8
RACCORDO
100
AcDbLine
 62
250
  6
CONTINUOUS
 10
-79.5190327639
 20
-7.2926778504
 11
-79.5221266469
 21
-0.0000000449
  0
LINE
  5
270
100
AcDbEntity
  8
ASSI
100
AcDbLine
 62
250
  6
CONTINUOUS
 10
-79.5190327639
 20
-7.2926778504
 11
-79.5221266469
 21
-0.0000000449
  0
LINE
  5
271
100
AcDbEntity
  8
RACCORDO
100
AcDbLine
 62
250
  6
CONTINUOUS
 10
-79.0197179866
 20
-7.2846627828
 11
-79.0228118795
 21
0.0000046778
  0
LINE
  5
272
100
AcDbEntity
  8
ASSI
100
AcDbLine
 62
250
  6
CONTINUOUS
 10
-79.0197179866
 20
-7.2846627828
 11
-79.0228118795
 21
0.0000046778
  0
LINE
  5
273
100
AcDbEntity
  8
0
100
AcDbLine
 62
250
  6
CONTINUOUS
 10
-81.498283
 20
28.14927
 11
-81.498283
 21
26.4507299861
  0
LINE
  5
274
100
AcDbEntity
  8
0
100
AcDbLine
 62
250
  6
CONTINUOUS
 10
-81.398369
 20
28.049356
 11
-81.398369
 21
26.5506439811
  0
LINE
  5
275
100
AcDbEntity
  8
0
100
AcDbLine
 62
250
  6
CONTINUOUS
 10
-81.298454
 20
27.949442
 11
-81.298454
 21
26.6505579787
  0
LINE
  5
276
100
AcDbEntity
  8
0
100
AcDbLine
 62
250
  6
CONTINUOUS
 10
-80.34927
 20
29.298283
 11
-80.34927
 21
28.1492700125
  0
LINE
  5
277
100
AcDbEntity
  8
0
100
AcDbLine
 62
250
  6
CONTINUOUS
 10
-80.34927
 20
26.45073
 11
-80.34927
 21
25.3017170125
  0
LINE
  5
278
100
AcDbEntity
  8
0
100
AcDbLine
 62
250
  6
CONTINUOUS
 10
-80.249356
 20
29.198369
 11
-80.249356
 21
28.0493560119
  0
LINE
  5
279
100
AcDbEntity
  8
0
100
AcDbLine
 62
250
  6
CONTINUOUS
 10
-80.249356
 20
26.550644
 11
-80.249356
 21
25.4016309866
  0
LINE
  5
27A
100
AcDbEntity
  8
0
100
AcDbLine
 62
250
  6
CONTINUOUS
 10
-80.149442
 20
29.098454
 11
-80.149442
 21
27.9494419761
  0
LINE
  5
27B
100
AcDbEntity
  8
0
100
AcDbLine
 62
250
  6
CONTINUOUS
 10
-80.149442
 20
26.650558
 11
-80.149442
 21
25.5015460004
  0
LINE
  5
27C
100
AcDbEntity
  8
0
100
AcDbLine
 62
250
  6
CONTINUOUS
 10
-78.850558
 20
25.501546
 11
-78.850558
 21
26.6505579996
  0
LINE
  5
27D
100
AcDbEntity
  8
0
100
AcDbLine
 62
250
  6
CONTINUOUS
 10
-78.850558
 20
27.949442
 11
-78.850558
 21
29.0984540239
  0
LINE
  5
27E
100
AcDbEntity
  8
0
100
AcDbLine
 62
7
  6
CONTINUOUS
 10
-78.85
 20
-21.7010963722
 11
-78.85
 21
21.7010963722
  0
LINE
  5
27F
100
AcDbEntity
  8
ASSI
100
AcDbLine
 62
7
  6
CONTINUOUS
 10
-78.85
 20
-21.7010963722
 11
-78.85
 21
21.7010963722
  0
LINE
  5
280
100
AcDbEntity
  8
0
100
AcDbLine
 62
250
  6
CONTINUOUS
 10
-78.750644
 20
25.401631
 11
-78.750644
 21
26.5506440134
  0
LINE
  5
281
100
AcDbEntity
  8
0
100
AcDbLine
 62
250
  6
CONTINUOUS
 10
-78.750644
 20
28.049356
 11
-78.750644
 21
29.1983689882
  0
LINE
  5
282
100
AcDbEntity
  8
CURVE_VERNICE
100
AcDbLine
 62
250
  6
CONTINUOUS
 10
-78.75
 20
-21.5
 11
-78.75
 21
21.5
  0
LINE
  5
283
100
AcDbEntity
  8
ASSI
100
AcDbLine
 62
250
  6
CONTINUOUS
 10
-78.75
 20
-21.5
 11
-78.75
 21
21.5
  0
LINE
  5
284
100
AcDbEntity
  8
0
100
AcDbLine
 62
250
  6
CONTINUOUS
 10
-78.65073
 20
25.301717
 11
-78.65073
 21
26.4507299876
  0
LINE
  5
285
100
AcDbEntity
  8
0
100
AcDbLine
 62
250
  6
CONTINUOUS
 10
-78.65073
 20
28.14927
 11
-78.65073
 21
29.2982829875
  0
LINE
  5
286
100
AcDbEntity
  8
RACCORDO
100
AcDbLine
 62
250
  6
CONTINUOUS
 10
-78.1926456448
 20
23.1675430277
 11
-78.1926456448
 21
22.6415492726
  0
LINE
  5
287
100
AcDbEntity
  8
ASSI
100
AcDbLine
 62
250
  6
CONTINUOUS
 10
-78.1926456448
 20
23.1675430277
 11
-78.1926456448
 21
22.6415492726
  0
LINE
  5
288
100
AcDbEntity
  8
RACCORDO
100
AcDbLine
 62
250
  6
CONTINUOUS
 10
-78.1926456448
 20
-23.1675430277
 11
-78.1926456448
 21
-22.6415492726
  0
LINE
  5
289
100
AcDbEntity
  8
ASSI
100
AcDbLine
 62
250
  6
CONTINUOUS
 10
-78.1926456448
 20
-23.1675430277
 11
-78.1926456448
 21
-22.6415492726
  0
LINE
  5
28A
100
AcDbEntity
  8
0
100
AcDbLine
 62
250
  6
CONTINUOUS
 10
-77.701546
 20
26.650558
 11
-77.701546
 21
27.9494420213
  0
LINE
  5
28B
100
AcDbEntity
  8
0
100
AcDbLine
 62
250
  6
CONTINUOUS
 10
-77.601631
 20
26.550644
 11
-77.601631
 21
28.0493560189
  0
LINE
  5
28C
100
AcDbEntity
  8
0
100
AcDbLine
 62
250
  6
CONTINUOUS
 10
-77.501717
 20
26.45073
 11
-77.501717
 21
28.1492700139
  0
LINE
  5
28D
100
AcDbEntity
  8
0
100
AcDbLine
 62
250
  6
CONTINUOUS
 10
-74.104637
 20
28.698798
 11
-74.104637
 21
25.9012020459
  0
LINE
  5
28E
100
AcDbEntity
  8
0
100
AcDbLine
 62
250
  6
CONTINUOUS
 10
-72.705839
 20
28.698798
 11
-72.705839
 21
25.9012020459
  0
LINE
  5
28F
100
AcDbEntity
  8
RACCORDO
100
AcDbLine
 62
250
  6
CONTINUOUS
 10
-79.5221266469
 20
-0.0000000449
 11
-79.5190327641
 21
7.2926777695
  0
LINE
  5
290
100
AcDbEntity
  8
ASSI
100
AcDbLine
 62
250
  6
CONTINUOUS
 10
-79.5221266469
 20
-0.0000000449
 11
-79.5190327641
 21
7.2926777695
  0
LINE
  5
291
100
AcDbEntity
  8
RACCORDO
100
AcDbLine
 62
250
  6
CONTINUOUS
 10
-79.0228118795
 20
0.0000046778
 11
-79.0197179775
 21
7.2846725872
  0
LINE
  5
292
100
AcDbEntity
  8
ASSI
100
AcDbLine
 62
250
  6
CONTINUOUS
 10
-79.0228118795
 20
0.0000046778
 11
-79.0197179775
 21
7.2846725872
  0
LINE
  5
293
100
AcDbEntity
  8
RACCORDO
100
AcDbLine
 62
250
  6
CONTINUOUS
 10
-79.5190327641
 20
7.2926777695
 11
-79.5097532492
 21
14.5834396663
  0
LINE
  5
294
100
AcDbEntity
  8
ASSI
100
AcDbLine
 62
250
  6
CONTINUOUS
 10
-79.5190327641
 20
7.2926777695
 11
-79.5097532492
 21
14.5834396663
  0
LINE
  5
295
100
AcDbEntity
  8
RACCORDO
100
AcDbLine
 62
250
  6
CONTINUOUS
 10
-79.0197179775
 20
7.2846725872
 11
-79.010438451
 21
14.5669391701
  0
LINE
  5
296
100
AcDbEntity
  8
ASSI
100
AcDbLine
 62
250
  6
CONTINUOUS
 10
-79.0197179775
 20
7.2846725872
 11
-79.010438451
 21
14.5669391701
  0
LINE
  5
297
100
AcDbEntity
  8
RACCORDO
100
AcDbLine
 62
250
  6
CONTINUOUS
 10
-79.5097532492
 20
14.5834396663
 11
-79.4942885593
 21
21.8703705759
  0
LINE
  5
298
100
AcDbEntity
  8
ASSI
100
AcDbLine
 62
250
  6
CONTINUOUS
 10
-79.5097532492
 20
14.5834396663
 11
-79.4942885593
 21
21.8703705759
  0
LINE
  5
299
100
AcDbEntity
  8
RACCORDO
100
AcDbLine
 62
250
  6
CONTINUOUS
 10
-79.010438451
 20
14.5669391701
 11
-78.9949737654
 21
21.846084038
  0
LINE
  5
29A
100
AcDbEntity
  8
ASSI
100
AcDbLine
 62
250
  6
CONTINUOUS
 10
-79.010438451
 20
14.5669391701
 11
-78.9949737654
 21
21.846084038
  0
LWPOLYLINE
  5
29B
100
AcDbEntity
  8
RACCORDO
100
AcDbPolyline
 62
250
  6
CONTINUOUS
 90
16
 70
0
 10
-79.4942885593
 20
21.8703705759
 10
-79.4930696482
 20
21.9256977643
 10
-79.4893491109
 20
21.9812203203
 10
-79.4831269474
 20
22.0369382395
 10
-79.4744189504
 20
22.0930452931
 10
-79.4632093273
 20
22.1493476987
 10
-79.4494506998
 20
22.2052641322
 10
-79.4330759225
 20
22.2608089846
 10
-79.4141521409
 20
22.3159678772
 10
-79.3928334134
 20
22.3701163535
 10
-79.3690590079
 20
22.4232253812
 10
-79.3428896567
 20
22.4753240274
 10
-79.3146616141
 20
22.5258750061
 10
-79.2844869652
 20
22.5746992426
 10
-79.252253625
 20
22.6219758638
 10
-79.2179615936
 20
22.6677048937
  0
LWPOLYLINE
  5
29C
100
AcDbEntity
  8
ASSI
100
AcDbPolyline
 62
250
  6
CONTINUOUS
 90
16
 70
0
 10
-79.4942885593
 20
21.8703705759
 10
-79.4930696482
 20
21.9256977643
 10
-79.4893491109
 20
21.9812203203
 10
-79.4831269474
 20
22.0369382395
 10
-79.4744189504
 20
22.0930452931
 10
-79.4632093273
 20
22.1493476987
 10
-79.4494506998
 20
22.2052641322
 10
-79.4330759225
 20
22.2608089846
 10
-79.4141521409
 20
22.3159678772
 10
-79.3928334134
 20
22.3701163535
 10
-79.3690590079
 20
22.4232253812
 10
-79.3428896567
 20
22.4753240274
 10
-79.3146616141
 20
22.5258750061
 10
-79.2844869652
 20
22.5746992426
 10
-79.252253625
 20
22.6219758638
 10
-79.2179615936
 20
22.6677048937
  0
LWPOLYLINE
  5
29D
100
AcDbEntity
  8
RACCORDO
100
AcDbPolyline
 62
250
  6
CONTINUOUS
 90
16
 70
0
 10
-78.9949737539
 20
21.8460840266
 10
-78.9941682721
 20
21.8799863143
 10
-78.9918904158
 20
21.9141382241
 10
-78.988103488
 20
21.9484744684
 10
-78.9827654961
 20
21.9829719617
 10
-78.9758492896
 20
22.0175125085
 10
-78.9673627526
 20
22.0518868095
 10
-78.9572944116
 20
22.0860358836
 10
-78.9456445297
 20
22.119870507
 10
-78.9324850269
 20
22.1531455608
 10
-78.9178449774
 20
22.1857888154
 10
-78.9017521356
 20
22.2177406585
 10
-78.8843240961
 20
22.2487946642
 10
-78.8656455063
 20
22.2788538116
 10
-78.8457457478
 20
22.3079194772
 10
-78.8246817863
 20
22.3359476087
  0
LWPOLYLINE
  5
29E
100
AcDbEntity
  8
ASSI
100
AcDbPolyline
 62
250
  6
CONTINUOUS
 90
16
 70
0
 10
-78.9949737539
 20
21.8460840266
 10
-78.9941682721
 20
21.8799863143
 10
-78.9918904158
 20
21.9141382241
 10
-78.988103488
 20
21.9484744684
 10
-78.9827654961
 20
21.9829719617
 10
-78.9758492896
 20
22.0175125085
 10
-78.9673627526
 20
22.0518868095
 10
-78.9572944116
 20
22.0860358836
 10
-78.9456445297
 20
22.119870507
 10
-78.9324850269
 20
22.1531455608
 10
-78.9178449774
 20
22.1857888154
 10
-78.9017521356
 20
22.2177406585
 10
-78.8843240961
 20
22.2487946642
 10
-78.8656455063
 20
22.2788538116
 10
-78.8457457478
 20
22.3079194772
 10
-78.8246817863
 20
22.3359476087
  0
LINE
  5
29F
100
AcDbEntity
  8
0
100
AcDbLine
 62
250
  6
CONTINUOUS
 10
-75.703263
 20
28.698798
 11
-76.502576
 21
25.901202
  0
LWPOLYLINE
  5
2A0
100
AcDbEntity
  8
RACCORDO
100
AcDbPolyline
 62
250
  6
CONTINUOUS
 90
19
 70
0
 10
-79.2179615936
 20
22.6677048937
 10
-79.1763515819
 20
22.7182633631
 10
-79.1323970285
 20
22.7665090906
 10
-79.0860979334
 20
22.8124421741
 10
-79.0373275136
 20
22.856185478
 10
-78.9862125521
 20
22.8976163188
 10
-78.9331333978
 20
22.9363664805
 10
-78.8780583149
 20
22.9724168283
 10
-78.8210190391
 20
23.0057866808
 10
-78.7624911261
 20
23.0361655172
 10
-78.7024288641
 20
23.0635235532
 10
-78.6408779649
 20
23.0878907349
 10
-78.5784511205
 20
23.1090461402
 10
-78.5151331148
 20
23.126936511
 10
-78.4509391638
 20
23.141615225
 10
-78.3865276073
 20
23.1530213053
 10
-78.3221178919
 20
23.1611344469
 10
-78.2574905711
 20
23.165975016
 10
-78.1926456448
 20
23.1675430277
  0
LWPOLYLINE
  5
2A1
100
AcDbEntity
  8
ASSI
100
AcDbPolyline
 62
250
  6
CONTINUOUS
 90
19
 70
0
 10
-79.2179615936
 20
22.6677048937
 10
-79.1763515819
 20
22.7182633631
 10
-79.1323970285
 20
22.7665090906
 10
-79.0860979334
 20
22.8124421741
 10
-79.0373275136
 20
22.856185478
 10
-78.9862125521
 20
22.8976163188
 10
-78.9331333978
 20
22.9363664805
 10
-78.8780583149
 20
22.9724168283
 10
-78.8210190391
 20
23.0057866808
 10
-78.7624911261
 20
23.0361655172
 10
-78.7024288641
 20
23.0635235532
 10
-78.6408779649
 20
23.0878907349
 10
-78.5784511205
 20
23.1090461402
 10
-78.5151331148
 20
23.126936511
 10
-78.4509391638
 20
23.141615225
 10
-78.3865276073
 20
23.1530213053
 10
-78.3221178919
 20
23.1611344469
 10
-78.2574905711
 20
23.165975016
 10
-78.1926456448
 20
23.1675430277
  0
LWPOLYLINE
  5
2A2
100
AcDbEntity
  8
RACCORDO
100
AcDbPolyline
 62
250
  6
CONTINUOUS
 90
19
 70
0
 10
-78.8246817863
 20
22.3359476087
 10
-78.7990830042
 20
22.3668591205
 10
-78.771922505
 20
22.3964852272
 10
-78.7432631352
 20
22.4247458834
 10
-78.7131733801
 20
22.4515620177
 10
-78.681723042
 20
22.4768619692
 10
-78.648982314
 20
22.50058075
 10
-78.6150162128
 20
22.5226586151
 10
-78.5799188397
 20
22.5430223145
 10
-78.5438117559
 20
22.5615964443
 10
-78.5067701843
 20
22.5783371431
 10
-78.4689030148
 20
22.5931902598
 10
-78.4303941157
 20
22.6060896159
 10
-78.3913427985
 20
22.6170126917
 10
-78.3518539734
 20
22.6259407359
 10
-78.3121289781
 20
22.6328483042
 10
-78.2723053082
 20
22.6377400429
 10
-78.2324526834
 20
22.6406344807
 10
-78.192671399
 20
22.6415493158
  0
LWPOLYLINE
  5
2A3
100
AcDbEntity
  8
ASSI
100
AcDbPolyline
 62
250
  6
CONTINUOUS
 90
19
 70
0
 10
-78.8246817863
 20
22.3359476087
 10
-78.7990830042
 20
22.3668591205
 10
-78.771922505
 20
22.3964852272
 10
-78.7432631352
 20
22.4247458834
 10
-78.7131733801
 20
22.4515620177
 10
-78.681723042
 20
22.4768619692
 10
-78.648982314
 20
22.50058075
 10
-78.6150162128
 20
22.5226586151
 10
-78.5799188397
 20
22.5430223145
 10
-78.5438117559
 20
22.5615964443
 10
-78.5067701843
 20
22.5783371431
 10
-78.4689030148
 20
22.5931902598
 10
-78.4303941157
 20
22.6060896159
 10
-78.3913427985
 20
22.6170126917
 10
-78.3518539734
 20
22.6259407359
 10
-78.3121289781
 20
22.6328483042
 10
-78.2723053082
 20
22.6377400429
 10
-78.2324526834
 20
22.6406344807
 10
-78.192671399
 20
22.6415493158
  0
LWPOLYLINE
  5
2A4
100
AcDbEntity
  8
RACCORDO
100
AcDbPolyline
 62
250
  6
CONTINUOUS
 90
16
 70
0
 10
-78.8246817863
 20
-22.3359476087
 10
-78.8455625291
 20
-22.3081747445
 10
-78.8653228245
 20
-22.2793478778
 10
-78.883902587
 20
-22.2495069992
 10
-78.9012685552
 20
-22.2186479267
 10
-78.9173328084
 20
-22.1868632489
 10
-78.9319745691
 20
-22.1543531312
 10
-78.9451587528
 20
-22.1211809696
 10
-78.9568542785
 20
-22.0874099464
 10
-78.9669900278
 20
-22.0532590913
 10
-78.9755600163
 20
-22.0188023065
 10
-78.9825629305
 20
-21.9841097445
 10
-78.9879798084
 20
-21.9494049196
 10
-78.9918306184
 20
-21.9148113324
 10
-78.9941518242
 20
-21.8803479564
 10
-78.994973761
 20
-21.8460814387
  0
LWPOLYLINE
  5
2A5
100
AcDbEntity
  8
ASSI
100
AcDbPolyline
 62
250
  6
CONTINUOUS
 90
16
 70
0
 10
-78.8246817863
 20
-22.3359476087
 10
-78.8455625291
 20
-22.3081747445
 10
-78.8653228245
 20
-22.2793478778
 10
-78.883902587
 20
-22.2495069992
 10
-78.9012685552
 20
-22.2186479267
 10
-78.9173328084
 20
-22.1868632489
 10
-78.9319745691
 20
-22.1543531312
 10
-78.9451587528
 20
-22.1211809696
 10
-78.9568542785
 20
-22.0874099464
 10
-78.9669900278
 20
-22.0532590913
 10
-78.9755600163
 20
-22.0188023065
 10
-78.9825629305
 20
-21.9841097445
 10
-78.9879798084
 20
-21.9494049196
 10
-78.9918306184
 20
-21.9148113324
 10
-78.9941518242
 20
-21.8803479564
 10
-78.994973761
 20
-21.8460814387
  0
LWPOLYLINE
  5
2A6
100
AcDbEntity
  8
RACCORDO
100
AcDbPolyline
 62
250
  6
CONTINUOUS
 90
16
 70
0
 10
-79.2179709811
 20
-22.6676911416
 10
-79.2519489926
 20
-22.6224275802
 10
-79.2839347626
 20
-22.5755700465
 10
-79.313928291
 20
-22.5271185159
 10
-79.3420496453
 20
-22.4768990554
 10
-79.368178758
 20
-22.4250855446
 10
-79.3919554269
 20
-22.3721996869
 10
-79.4133182266
 20
-22.3182240722
 10
-79.4323285825
 20
-22.2631760737
 10
-79.4488105682
 20
-22.2076295885
 10
-79.4627042935
 20
-22.151578117
 10
-79.4740696486
 20
-22.0950281422
 10
-79.4829103782
 20
-22.0385730568
 10
-79.4892277307
 20
-21.9824106652
 10
-79.4930204577
 20
-21.9263431706
 10
-79.4942885593
 20
-21.8703705759
  0
LWPOLYLINE
  5
2A7
100
AcDbEntity
  8
ASSI
100
AcDbPolyline
 62
250
  6
CONTINUOUS
 90
16
 70
0
 10
-79.2179709811
 20
-22.6676911416
 10
-79.2519489926
 20
-22.6224275802
 10
-79.2839347626
 20
-22.5755700465
 10
-79.313928291
 20
-22.5271185159
 10
-79.3420496453
 20
-22.4768990554
 10
-79.368178758
 20
-22.4250855446
 10
-79.3919554269
 20
-22.3721996869
 10
-79.4133182266
 20
-22.3182240722
 10
-79.4323285825
 20
-22.2631760737
 10
-79.4488105682
 20
-22.2076295885
 10
-79.4627042935
 20
-22.151578117
 10
-79.4740696486
 20
-22.0950281422
 10
-79.4829103782
 20
-22.0385730568
 10
-79.4892277307
 20
-21.9824106652
 10
-79.4930204577
 20
-21.9263431706
 10
-79.4942885593
 20
-21.8703705759
  0
LINE
  5
2A8
100
AcDbEntity
  8
0
100
AcDbLine
 62
250
  6
CONTINUOUS
 10
-71.107212
 20
28.698798
 11
-71.107212
 21
25.9012020459
  0
LINE
  5
2A9
100
AcDbEntity
  8
0
100
AcDbLine
 62
250
  6
CONTINUOUS
 10
-68.975711
 20
28.698798
 11
-68.975711
 21
25.9012020459
  0
LINE
  5
2AA
100
AcDbEntity
  8
0
100
AcDbLine
 62
250
  6
CONTINUOUS
 10
-67.765116
 20
28.698798
 11
-68.009874
 21
25.901202
  0
LINE
  5
2AB
100
AcDbEntity
  8
0
100
AcDbLine
 62
250
  6
CONTINUOUS
 10
-67.550815
 20
27.151192
 11
-67.628929
 21
26.258342
  0
LINE
  5
2AC
100
AcDbEntity
  8
0
100
AcDbLine
 62
250
  6
CONTINUOUS
 10
-67.519569
 20
27.508332
 11
-67.446663
 21
28.341658
  0
LINE
  5
2AD
100
AcDbEntity
  8
0
100
AcDbLine
 62
250
  6
CONTINUOUS
 10
-66.020827
 20
27.984518
 11
-66.031242
 21
27.865471
  0
LINE
  5
2AE
100
AcDbEntity
  8
0
100
AcDbLine
 62
250
  6
CONTINUOUS
 10
-66.140602
 20
26.615482
 11
-66.12498
 21
26.794052
  0
LINE
  5
2AF
100
AcDbEntity
  8
0
100
AcDbLine
 62
250
  6
CONTINUOUS
 10
-65.686751
 20
27.805948
 11
-65.66592
 21
28.044042
  0
LINE
  5
2B0
100
AcDbEntity
  8
0
100
AcDbLine
 62
250
  6
CONTINUOUS
 10
-65.79611
 20
26.555959
 11
-65.770072
 21
26.853575
  0
LINE
  5
2B1
100
AcDbEntity
  8
0
100
AcDbLine
 62
250
  6
CONTINUOUS
 10
-62.428096
 20
27.746425
 11
-62.506211
 21
26.853575
  0
LINE
  5
2B2
100
AcDbEntity
  8
0
100
AcDbLine
 62
250
  6
CONTINUOUS
 10
-62.156511
 20
26.853575
 11
-62.078397
 21
27.746425
  0
LINE
  5
2B3
100
AcDbEntity
  8
0
100
AcDbLine
 62
250
  6
CONTINUOUS
 10
-59.605462
 20
28.698798
 11
-59.6315
 21
28.401181
  0
LINE
  5
2B4
100
AcDbEntity
  8
0
100
AcDbLine
 62
250
  6
CONTINUOUS
 10
-62.343775
 20
28.044042
 11
-62.428096
 21
27.746425
  0
LINE
  5
2B5
100
AcDbEntity
  8
0
100
AcDbLine
 62
250
  6
CONTINUOUS
 10
-60.338316
 20
26.317865
 11
-60.253994
 21
26.615482
  0
LINE
  5
2B6
100
AcDbEntity
  8
0
100
AcDbLine
 62
250
  6
CONTINUOUS
 10
-62.078397
 20
27.746425
 11
-61.999283
 21
27.984518
  0
LINE
  5
2B7
100
AcDbEntity
  8
0
100
AcDbLine
 62
250
  6
CONTINUOUS
 10
-66.031242
 20
27.865471
 11
-66.105148
 21
27.686902
  0
LINE
  5
2B8
100
AcDbEntity
  8
0
100
AcDbLine
 62
250
  6
CONTINUOUS
 10
-65.760657
 20
27.627378
 11
-65.686751
 21
27.805948
  0
LINE
  5
2B9
100
AcDbEntity
  8
0
100
AcDbLine
 62
250
  6
CONTINUOUS
 10
-66.214508
 20
26.436912
 11
-66.140602
 21
26.615482
  0
LINE
  5
2BA
100
AcDbEntity
  8
0
100
AcDbLine
 62
250
  6
CONTINUOUS
 10
-65.870017
 20
26.377389
 11
-65.79611
 21
26.555959
  0
LINE
  5
2BB
100
AcDbEntity
  8
0
100
AcDbLine
 62
250
  6
CONTINUOUS
 10
-63.997536
 20
28.460705
 11
-64.662691
 21
26.853575
  0
LINE
  5
2BC
100
AcDbEntity
  8
0
100
AcDbLine
 62
250
  6
CONTINUOUS
 10
-65.037429
 20
25.901202
 11
-64.741804
 21
26.615482
  0
LINE
  5
2BD
100
AcDbEntity
  8
0
100
AcDbLine
 62
250
  6
CONTINUOUS
 10
-60.603694
 20
26.615482
 11
-60.6776
 21
26.436912
  0
LINE
  5
2BE
100
AcDbEntity
  8
0
100
AcDbLine
 62
250
  6
CONTINUOUS
 10
-64.209838
 20
28.698798
 11
-65.387128
 21
25.901202
  0
LINE
  5
2BF
100
AcDbEntity
  8
0
100
AcDbLine
 62
250
  6
CONTINUOUS
 10
-62.206378
 20
28.282135
 11
-62.343775
 21
28.044042
  0
LINE
  5
2C0
100
AcDbEntity
  8
0
100
AcDbLine
 62
250
  6
CONTINUOUS
 10
-61.999283
 20
27.984518
 11
-61.867094
 21
28.163088
  0
LINE
  5
2C1
100
AcDbEntity
  8
0
100
AcDbLine
 62
250
  6
CONTINUOUS
 10
-65.956337
 20
27.389285
 11
-65.760657
 21
27.627378
  0
LINE
  5
2C2
100
AcDbEntity
  8
0
100
AcDbLine
 62
250
  6
CONTINUOUS
 10
-66.065697
 20
26.139295
 11
-65.870017
 21
26.377389
  0
LINE
  5
2C3
100
AcDbEntity
  8
0
100
AcDbLine
 62
250
  6
CONTINUOUS
 10
-66.105148
 20
27.686902
 11
-66.23213
 21
27.567855
  0
LINE
  5
2C4
100
AcDbEntity
  8
0
100
AcDbLine
 62
250
  6
CONTINUOUS
 10
-66.34149
 20
26.317865
 11
-66.214508
 21
26.436912
  0
LINE
  5
2C5
100
AcDbEntity
  8
0
100
AcDbLine
 62
250
  6
CONTINUOUS
 10
-61.952415
 20
28.520228
 11
-62.206378
 21
28.282135
  0
LINE
  5
2C6
100
AcDbEntity
  8
0
100
AcDbLine
 62
250
  6
CONTINUOUS
 10
-74.90395
 20
25.901202
 11
-75.703263
 21
28.698798
  0
LINE
  5
2C7
100
AcDbEntity
  8
0
100
AcDbLine
 62
250
  6
CONTINUOUS
 10
-62.506211
 20
26.853575
 11
-62.473965
 21
26.555959
  0
LINE
  5
2C8
100
AcDbEntity
  8
0
100
AcDbLine
 62
250
  6
CONTINUOUS
 10
-60.134219
 20
27.984518
 11
-60.166464
 21
28.282135
  0
LINE
  5
2C9
100
AcDbEntity
  8
0
100
AcDbLine
 62
250
  6
CONTINUOUS
 10
-58.698968
 20
28.401181
 11
-58.917688
 21
25.901202
  0
LINE
  5
2CA
100
AcDbEntity
  8
0
100
AcDbLine
 62
250
  6
CONTINUOUS
 10
-58.567988
 20
25.901202
 11
-58.349269
 21
28.401181
  0
LINE
  5
2CB
100
AcDbEntity
  8
0
100
AcDbLine
 62
250
  6
CONTINUOUS
 10
-57.416737
 20
28.401181
 11
-57.390699
 21
28.698798
  0
LINE
  5
2CC
100
AcDbEntity
  8
0
100
AcDbLine
 62
250
  6
CONTINUOUS
 10
-56.924433
 20
28.698798
 11
-57.169191
 21
25.901202
  0
LINE
  5
2CD
100
AcDbEntity
  8
0
100
AcDbLine
 62
250
  6
CONTINUOUS
 10
-56.673678
 20
27.567855
 11
-56.605979
 21
28.341658
  0
LINE
  5
2CE
100
AcDbEntity
  8
0
100
AcDbLine
 62
250
  6
CONTINUOUS
 10
-56.788245
 20
26.258342
 11
-56.704924
 21
27.210715
  0
LINE
  5
2CF
100
AcDbEntity
  8
0
100
AcDbLine
 62
250
  6
CONTINUOUS
 10
-55.18956
 20
27.210715
 11
-55.158314
 21
27.567855
  0
LINE
  5
2D0
100
AcDbEntity
  8
0
100
AcDbLine
 62
250
  6
CONTINUOUS
 10
-55.070994
 20
25.901202
 11
-55.039748
 21
26.258342
  0
LINE
  5
2D1
100
AcDbEntity
  8
0
100
AcDbLine
 62
250
  6
CONTINUOUS
 10
-54.857481
 20
28.341658
 11
-54.826236
 21
28.698798
  0
LINE
  5
2D2
100
AcDbEntity
  8
0
100
AcDbLine
 62
250
  6
CONTINUOUS
 10
-54.604728
 20
25.901202
 11
-54.35997
 21
28.698798
  0
LINE
  5
2D3
100
AcDbEntity
  8
0
100
AcDbLine
 62
250
  6
CONTINUOUS
 10
-54.145669
 20
27.151192
 11
-54.255029
 21
25.901202
  0
LINE
  5
2D4
100
AcDbEntity
  8
0
100
AcDbLine
 62
250
  6
CONTINUOUS
 10
-54.114423
 20
27.508332
 11
-54.036309
 21
28.401181
  0
LINE
  5
2D5
100
AcDbEntity
  8
0
100
AcDbLine
 62
250
  6
CONTINUOUS
 10
-52.610473
 20
28.044042
 11
-52.626096
 21
27.865471
  0
LINE
  5
2D6
100
AcDbEntity
  8
0
100
AcDbLine
 62
250
  6
CONTINUOUS
 10
-52.260773
 20
28.044042
 11
-52.281604
 21
27.805948
  0
LINE
  5
2D7
100
AcDbEntity
  8
0
100
AcDbLine
 62
250
  6
CONTINUOUS
 10
-51.67894
 20
28.698798
 11
-51.923698
 21
25.901202
  0
LINE
  5
2D8
100
AcDbEntity
  8
0
100
AcDbLine
 62
250
  6
CONTINUOUS
 10
-51.573999
 20
25.901202
 11
-51.329241
 21
28.698798
  0
LINE
  5
2D9
100
AcDbEntity
  8
0
100
AcDbLine
 62
250
  6
CONTINUOUS
 10
-52.626096
 20
27.865471
 11
-52.700002
 21
27.686902
  0
LINE
  5
2DA
100
AcDbEntity
  8
0
100
AcDbLine
 62
250
  6
CONTINUOUS
 10
-52.281604
 20
27.805948
 11
-52.35551
 21
27.627378
  0
LINE
  5
2DB
100
AcDbEntity
  8
0
100
AcDbLine
 62
250
  6
CONTINUOUS
 10
-49.71814
 20
28.460705
 11
-50.383295
 21
26.853575
  0
LINE
  5
2DC
100
AcDbEntity
  8
0
100
AcDbLine
 62
250
  6
CONTINUOUS
 10
-50.758034
 20
25.901202
 11
-50.462409
 21
26.615482
  0
LINE
  5
2DD
100
AcDbEntity
  8
0
100
AcDbLine
 62
250
  6
CONTINUOUS
 10
-49.930443
 20
28.698798
 11
-51.107733
 21
25.901202
  0
LINE
  5
2DE
100
AcDbEntity
  8
0
100
AcDbLine
 62
250
  6
CONTINUOUS
 10
-52.35551
 20
27.627378
 11
-52.551191
 21
27.389285
  0
LINE
  5
2DF
100
AcDbEntity
  8
0
100
AcDbLine
 62
250
  6
CONTINUOUS
 10
-60.592279
 20
26.079772
 11
-60.338316
 21
26.317865
  0
LINE
  5
2E0
100
AcDbEntity
  8
0
100
AcDbLine
 62
250
  6
CONTINUOUS
 10
-52.700002
 20
27.686902
 11
-52.826984
 21
27.567855
  0
LINE
  5
2E1
100
AcDbEntity
  8
0
100
AcDbLine
 62
250
  6
CONTINUOUS
 10
-66.314453
 20
25.960725
 11
-66.065697
 21
26.139295
  0
LINE
  5
2E2
100
AcDbEntity
  8
0
100
AcDbLine
 62
250
  6
CONTINUOUS
 10
-61.867094
 20
28.163088
 11
-61.681829
 21
28.282135
  0
LINE
  5
2E3
100
AcDbEntity
  8
0
100
AcDbLine
 62
250
  6
CONTINUOUS
 10
-60.6776
 20
26.436912
 11
-60.862865
 21
26.317865
  0
LINE
  5
2E4
100
AcDbEntity
  8
0
100
AcDbLine
 62
250
  6
CONTINUOUS
 10
-66.078111
 20
27.329762
 11
-65.956337
 21
27.389285
  0
LINE
  5
2E5
100
AcDbEntity
  8
0
100
AcDbLine
 62
250
  6
CONTINUOUS
 10
-61.708866
 20
28.639275
 11
-61.952415
 21
28.520228
  0
LINE
  5
2E6
100
AcDbEntity
  8
0
100
AcDbLine
 62
250
  6
CONTINUOUS
 10
-72.705839
 20
25.901202
 11
-74.104637
 21
28.698798
  0
LINE
  5
2E7
100
AcDbEntity
  8
0
100
AcDbLine
 62
250
  6
CONTINUOUS
 10
-63.055798
 20
25.901202
 11
-63.743572
 21
28.698798
  0
LINE
  5
2E8
100
AcDbEntity
  8
0
100
AcDbLine
 62
250
  6
CONTINUOUS
 10
-66.12498
 20
26.794052
 11
-66.16764
 21
26.972622
  0
LINE
  5
2E9
100
AcDbEntity
  8
0
100
AcDbLine
 62
250
  6
CONTINUOUS
 10
-65.770072
 20
26.853575
 11
-65.812733
 21
27.032145
  0
LINE
  5
2EA
100
AcDbEntity
  8
0
100
AcDbLine
 62
250
  6
CONTINUOUS
 10
-66.063488
 20
28.163088
 11
-66.020827
 21
27.984518
  0
LINE
  5
2EB
100
AcDbEntity
  8
0
100
AcDbLine
 62
250
  6
CONTINUOUS
 10
-65.66592
 20
28.044042
 11
-65.70858
 21
28.222611
  0
LINE
  5
2EC
100
AcDbEntity
  8
0
100
AcDbLine
 62
250
  6
CONTINUOUS
 10
-63.576139
 20
26.615482
 11
-63.405498
 21
25.901202
  0
LINE
  5
2ED
100
AcDbEntity
  8
0
100
AcDbLine
 62
250
  6
CONTINUOUS
 10
-63.613592
 20
26.853575
 11
-63.997536
 21
28.460705
  0
LINE
  5
2EE
100
AcDbEntity
  8
0
100
AcDbLine
 62
250
  6
CONTINUOUS
 10
-60.526579
 20
28.163088
 11
-60.483919
 21
27.984518
  0
LINE
  5
2EF
100
AcDbEntity
  8
0
100
AcDbLine
 62
250
  6
CONTINUOUS
 10
-62.119059
 20
26.615482
 11
-62.156511
 21
26.853575
  0
LINE
  5
2F0
100
AcDbEntity
  8
0
100
AcDbLine
 62
250
  6
CONTINUOUS
 10
-48.06538
 20
28.698798
 11
-48.310138
 21
25.901202
  0
LINE
  5
2F1
100
AcDbEntity
  8
0
100
AcDbLine
 62
250
  6
CONTINUOUS
 10
-47.929192
 20
26.258342
 11
-47.71568
 21
28.698798
  0
LINE
  5
2F2
100
AcDbEntity
  8
0
100
AcDbLine
 62
250
  6
CONTINUOUS
 10
-46.211941
 20
25.901202
 11
-46.180695
 21
26.258342
  0
LWPOLYLINE
  5
2F3
100
AcDbEntity
  8
0
100
AcDbPolyline
 62
7
  6
CONTINUOUS
 90
3
 70
0
 43
0.3500000006
 10
-0.8571428254
 20
60.8928533936
 10
0.0
 20
61.7500003967
 10
0.0
 20
58.7499994812
  0
LINE
  5
2F4
100
AcDbEntity
  8
RACCORDO
100
AcDbLine
 62
250
  6
CONTINUOUS
 10
-104.8700585586
 20
-43.8714290238
 11
-105.0
 21
-44.0013704652
  0
LINE
  5
2F5
100
AcDbEntity
  8
ASSI
100
AcDbLine
 62
250
  6
CONTINUOUS
 10
-104.8700585586
 20
-43.8714290238
 11
-105.0
 21
-44.0013704652
  0
LINE
  5
2F6
100
AcDbEntity
  8
RACCORDO
100
AcDbLine
 62
250
  6
CONTINUOUS
 10
-103.8781758769
 20
-44.8768054117
 11
-104.0013704652
 21
-45.0
  0
LINE
  5
2F7
100
AcDbEntity
  8
ASSI
100
AcDbLine
 62
250
  6
CONTINUOUS
 10
-103.8781758769
 20
-44.8768054117
 11
-104.0013704652
 21
-45.0
  0
LINE
  5
2F8
100
AcDbEntity
  8
0
100
AcDbLine
 62
250
  6
CONTINUOUS
 10
-60.835827
 20
25.960725
 11
-60.592279
 21
26.079772
  0
LINE
  5
2F9
100
AcDbEntity
  8
0
100
AcDbLine
 62
250
  6
CONTINUOUS
 10
-52.551191
 20
27.389285
 11
-52.794738
 21
27.270238
  0
LINE
  5
2FA
100
AcDbEntity
  8
0
100
AcDbLine
 62
250
  6
CONTINUOUS
 10
-66.23213
 20
27.567855
 11
-66.412188
 21
27.508332
  0
LINE
  5
2FB
100
AcDbEntity
  8
0
100
AcDbLine
 62
250
  6
CONTINUOUS
 10
-66.521548
 20
26.258342
 11
-66.34149
 21
26.317865
  0
LINE
  5
2FC
100
AcDbEntity
  8
0
100
AcDbLine
 62
250
  6
CONTINUOUS
 10
-52.826984
 20
27.567855
 11
-53.007041
 21
27.508332
  0
LWPOLYLINE
  5
2FD
100
AcDbEntity
  8
RACCORDO
100
AcDbPolyline
 62
250
  6
CONTINUOUS
 90
28
 70
0
 10
103.8781758769
 20
-44.8768054117
 10
103.93578679
 20
-44.8750861756
 10
103.993186491
 20
-44.8700269096
 10
104.0501844407
 20
-44.8616430028
 10
104.1065777064
 20
-44.8499639429
 10
104.1621924189
 20
-44.8350253678
 10
104.2168823609
 20
-44.8168612786
 10
104.2704825348
 20
-44.7955145933
 10
104.3227897742
 20
-44.7710547175
 10
104.3736047723
 20
-44.7435684775
 10
104.4227429306
 20
-44.7131507633
 10
104.4700496338
 20
-44.6798929841
 10
104.515378277
 20
-44.6438930823
 10
104.5585729173
 20
-44.6052632506
 10
104.5994808767
 20
-44.5641285547
 10
104.6379673093
 20
-44.5206163526
 10
104.6738956263
 20
-44.4748641718
 10
104.7071348757
 20
-44.4270215538
 10
104.7375689344
 20
-44.3772445341
 10
104.7650866635
 20
-44.3256914554
 10
104.7895825078
 20
-44.2725352288
 10
104.8109637239
 20
-44.2179642341
 10
104.8291478267
 20
-44.1621609304
 10
104.8440639982
 20
-44.1053109523
 10
104.8556553218
 20
-44.0476157488
 10
104.8638747757
 20
-43.9892734721
 10
104.868684313
 20
-43.9304780154
 10
104.8700585586
 20
-43.8714290238
  0
LWPOLYLINE
  5
2FE
100
AcDbEntity
  8
ASSI
100
AcDbPolyline
 62
250
  6
CONTINUOUS
 90
28
 70
0
 10
103.8781758769
 20
-44.8768054117
 10
103.93578679
 20
-44.8750861756
 10
103.993186491
 20
-44.8700269096
 10
104.0501844407
 20
-44.8616430028
 10
104.1065777064
 20
-44.8499639429
 10
104.1621924189
 20
-44.8350253678
 10
104.2168823609
 20
-44.8168612786
 10
104.2704825348
 20
-44.7955145933
 10
104.3227897742
 20
-44.7710547175
 10
104.3736047723
 20
-44.7435684775
 10
104.4227429306
 20
-44.7131507633
 10
104.4700496338
 20
-44.6798929841
 10
104.515378277
 20
-44.6438930823
 10
104.5585729173
 20
-44.6052632506
 10
104.5994808767
 20
-44.5641285547
 10
104.6379673093
 20
-44.5206163526
 10
104.6738956263
 20
-44.4748641718
 10
104.7071348757
 20
-44.4270215538
 10
104.7375689344
 20
-44.3772445341
 10
104.7650866635
 20
-44.3256914554
 10
104.7895825078
 20
-44.2725352288
 10
104.8109637239
 20
-44.2179642341
 10
104.8291478267
 20
-44.1621609304
 10
104.8440639982
 20
-44.1053109523
 10
104.8556553218
 20
-44.0476157488
 10
104.8638747757
 20
-43.9892734721
 10
104.868684313
 20
-43.9304780154
 10
104.8700585586
 20
-43.8714290238
  0
LWPOLYLINE
  5
2FF
100
AcDbEntity
  8
RACCORDO
100
AcDbPolyline
 62
250
  6
CONTINUOUS
 90
28
 70
0
 10
103.8781758769
 20
-44.6316825048
 10
103.9186969438
 20
-44.6304834787
 10
103.9588142111
 20
-44.6269657081
 10
103.9985276789
 20
-44.6211291657
 10
104.0379644978
 20
-44.6129447267
 10
104.0769975172
 20
-44.602441406
 10
104.1152452852
 20
-44.5897063624
 10
104.1527095796
 20
-44.5747131722
 10
104.1893886226
 20
-44.5574880505
 10
104.2248956289
 20
-44.5381971019
 10
104.2592114272
 20
-44.5168228911
 10
104.2923551888
 20
-44.4933825716
 10
104.3239976428
 20
-44.4680941368
 10
104.3541274616
 20
-44.4409385391
 10
104.3827559729
 20
-44.4119345022
 10
104.4095878881
 20
-44.3813567037
 10
104.4346080233
 20
-44.3491872479
 10
104.4578315625
 20
-44.3154437023
 10
104.4790087695
 20
-44.2804539909
 10
104.4981206026
 20
-44.2442008786
 10
104.5151861035
 20
-44.2067013078
 10
104.5300126608
 20
-44.1683345452
 10
104.5425767841
 20
-44.1290806128
 10
104.5529019638
 20
-44.0889592689
 10
104.5608660591
 20
-44.0484094866
 10
104.5664283565
 20
-44.0075775797
 10
104.5696295695
 20
-43.9663171381
 10
104.5704696982
 20
-43.9246281065
  0
LWPOLYLINE
  5
300
100
AcDbEntity
  8
ASSI
100
AcDbPolyline
 62
250
  6
CONTINUOUS
 90
28
 70
0
 10
103.8781758769
 20
-44.6316825048
 10
103.9186969438
 20
-44.6304834787
 10
103.9588142111
 20
-44.6269657081
 10
103.9985276789
 20
-44.6211291657
 10
104.0379644978
 20
-44.6129447267
 10
104.0769975172
 20
-44.602441406
 10
104.1152452852
 20
-44.5897063624
 10
104.1527095796
 20
-44.5747131722
 10
104.1893886226
 20
-44.5574880505
 10
104.2248956289
 20
-44.5381971019
 10
104.2592114272
 20
-44.5168228911
 10
104.2923551888
 20
-44.4933825716
 10
104.3239976428
 20
-44.4680941368
 10
104.3541274616
 20
-44.4409385391
 10
104.3827559729
 20
-44.4119345022
 10
104.4095878881
 20
-44.3813567037
 10
104.4346080233
 20
-44.3491872479
 10
104.4578315625
 20
-44.3154437023
 10
104.4790087695
 20
-44.2804539909
 10
104.4981206026
 20
-44.2442008786
 10
104.5151861035
 20
-44.2067013078
 10
104.5300126608
 20
-44.1683345452
 10
104.5425767841
 20
-44.1290806128
 10
104.5529019638
 20
-44.0889592689
 10
104.5608660591
 20
-44.0484094866
 10
104.5664283565
 20
-44.0075775797
 10
104.5696295695
 20
-43.9663171381
 10
104.5704696982
 20
-43.9246281065
  0
LWPOLYLINE
  5
301
100
AcDbEntity
  8
RACCORDO
100
AcDbPolyline
 62
250
  6
CONTINUOUS
 90
19
 70
0
 10
104.5704696982
 20
-43.9246280943
 10
104.5957596656
 20
-43.924207405
 10
104.6208695746
 20
-43.9234109463
 10
104.6456206487
 20
-43.9222443888
 10
104.6698366663
 20
-43.9207160381
 10
104.6933452151
 20
-43.9188367757
 10
104.7159789199
 20
-43.9166199815
 10
104.7375766343
 20
-43.9140814385
 10
104.7579845877
 20
-43.9112392206
 10
104.7770574805
 20
-43.9081135635
 10
104.7946595182
 20
-43.9047267214
 10
104.8106653787
 20
-43.9011028076
 10
104.824961104
 20
-43.8972676235
 10
104.837444912
 20
-43.8932484748
 10
104.8480279211
 20
-43.8890739767
 10
104.8566347828
 20
-43.8847738508
 10
104.8632042183
 20
-43.8803787129
 10
104.8676894548
 20
-43.8759198552
 10
104.8700585586
 20
-43.8714290238
  0
LWPOLYLINE
  5
302
100
AcDbEntity
  8
ASSI
100
AcDbPolyline
 62
250
  6
CONTINUOUS
 90
19
 70
0
 10
104.5704696982
 20
-43.9246280943
 10
104.5957596656
 20
-43.924207405
 10
104.6208695746
 20
-43.9234109463
 10
104.6456206487
 20
-43.9222443888
 10
104.6698366663
 20
-43.9207160381
 10
104.6933452151
 20
-43.9188367757
 10
104.7159789199
 20
-43.9166199815
 10
104.7375766343
 20
-43.9140814385
 10
104.7579845877
 20
-43.9112392206
 10
104.7770574805
 20
-43.9081135635
 10
104.7946595182
 20
-43.9047267214
 10
104.8106653787
 20
-43.9011028076
 10
104.824961104
 20
-43.8972676235
 10
104.837444912
 20
-43.8932484748
 10
104.8480279211
 20
-43.8890739767
 10
104.8566347828
 20
-43.8847738508
 10
104.8632042183
 20
-43.8803787129
 10
104.8676894548
 20
-43.8759198552
 10
104.8700585586
 20
-43.8714290238
  0
LINE
  5
303
100
AcDbEntity
  8
RACCORDO
100
AcDbLine
 62
7
  6
CONTINUOUS
 10
-104.0013704652
 20
-45.0
 11
104.0013704652
 21
-45.0
  0
LINE
  5
304
100
AcDbEntity
  8
ASSI
100
AcDbLine
 62
7
  6
CONTINUOUS
 10
-104.0013704652
 20
-45.0
 11
104.0013704652
 21
-45.0
  0
LINE
  5
305
100
AcDbEntity
  8
RACCORDO
100
AcDbLine
 62
250
  6
CONTINUOUS
 10
-103.8781758769
 20
-44.8768054117
 11
103.8781758769
 21
-44.8768054117
  0
LINE
  5
306
100
AcDbEntity
  8
ASSI
100
AcDbLine
 62
250
  6
CONTINUOUS
 10
-103.8781758769
 20
-44.8768054117
 11
103.8781758769
 21
-44.8768054117
  0
LINE
  5
307
100
AcDbEntity
  8
RACCORDO
100
AcDbLine
 62
250
  6
CONTINUOUS
 10
-103.8781758769
 20
-44.6316825048
 11
103.8781758769
 21
-44.6316825048
  0
LINE
  5
308
100
AcDbEntity
  8
ASSI
100
AcDbLine
 62
250
  6
CONTINUOUS
 10
-103.8781758769
 20
-44.6316825048
 11
103.8781758769
 21
-44.6316825048
  0
LWPOLYLINE
  5
309
100
AcDbEntity
  8
RACCORDO
100
AcDbPolyline
 62
250
  6
CONTINUOUS
 90
19
 70
0
 10
-104.5704696982
 20
-43.9246280998
 10
-104.5957594015
 20
-43.9242073646
 10
-104.6208690256
 20
-43.9234108659
 10
-104.6456197984
 20
-43.9222442744
 10
-104.669835503
 20
-43.9207158959
 10
-104.6933437321
 20
-43.9188366118
 10
-104.715977115
 20
-43.9166198021
 10
-104.73757451
 20
-43.9140812496
 10
-104.757982151
 20
-43.911239028
 10
-104.7770547427
 20
-43.9081133728
 10
-104.7946564948
 20
-43.9047265377
 10
-104.8106620889
 20
-43.9011026357
 10
-104.8249575708
 20
-43.8972674678
 10
-104.8374411614
 20
-43.8932483391
 10
-104.848023982
 20
-43.8890738642
 10
-104.8566306865
 20
-43.8847737642
 10
-104.8631999982
 20
-43.880378654
 10
-104.8676851458
 20
-43.8759198255
 10
-104.8700541966
 20
-43.871429024
  0
LWPOLYLINE
  5
30A
100
AcDbEntity
  8
ASSI
100
AcDbPolyline
 62
250
  6
CONTINUOUS
 90
19
 70
0
 10
-104.5704696982
 20
-43.9246280998
 10
-104.5957594015
 20
-43.9242073646
 10
-104.6208690256
 20
-43.9234108659
 10
-104.6456197984
 20
-43.9222442744
 10
-104.669835503
 20
-43.9207158959
 10
-104.6933437321
 20
-43.9188366118
 10
-104.715977115
 20
-43.9166198021
 10
-104.73757451
 20
-43.9140812496
 10
-104.757982151
 20
-43.911239028
 10
-104.7770547427
 20
-43.9081133728
 10
-104.7946564948
 20
-43.9047265377
 10
-104.8106620889
 20
-43.9011026357
 10
-104.8249575708
 20
-43.8972674678
 10
-104.8374411614
 20
-43.8932483391
 10
-104.848023982
 20
-43.8890738642
 10
-104.8566306865
 20
-43.8847737642
 10
-104.8631999982
 20
-43.880378654
 10
-104.8676851458
 20
-43.8759198255
 10
-104.8700541966
 20
-43.871429024
  0
LINE
  5
30B
100
AcDbEntity
  8
RACCORDO
100
AcDbLine
 62
250
  6
CONTINUOUS
 10
-104.8700585586
 20
43.8714290238
 11
-105.0
 21
44.0013704652
  0
LINE
  5
30C
100
AcDbEntity
  8
ASSI
100
AcDbLine
 62
250
  6
CONTINUOUS
 10
-104.8700585586
 20
43.8714290238
 11
-105.0
 21
44.0013704652
  0
LINE
  5
30D
100
AcDbEntity
  8
RACCORDO
100
AcDbLine
 62
250
  6
CONTINUOUS
 10
-103.8781758769
 20
44.8768054117
 11
-104.0013704652
 21
45.0
  0
LINE
  5
30E
100
AcDbEntity
  8
ASSI
100
AcDbLine
 62
250
  6
CONTINUOUS
 10
-103.8781758769
 20
44.8768054117
 11
-104.0013704652
 21
45.0
  0
LINE
  5
30F
100
AcDbEntity
  8
0
100
AcDbLine
 62
250
  6
CONTINUOUS
 10
-62.018115
 20
26.436912
 11
-62.119059
 21
26.615482
  0
LINE
  5
310
100
AcDbEntity
  8
0
100
AcDbLine
 62
250
  6
CONTINUOUS
 10
-62.473965
 20
26.555959
 11
-62.378229
 21
26.317865
  0
LINE
  5
311
100
AcDbEntity
  8
0
100
AcDbLine
 62
250
  6
CONTINUOUS
 10
-52.794738
 20
27.270238
 11
-52.389964
 21
25.901202
  0
LINE
  5
312
100
AcDbEntity
  8
0
100
AcDbLine
 62
250
  6
CONTINUOUS
 10
-52.797947
 20
25.901202
 11
-53.154853
 21
27.151192
  0
LINE
  5
313
100
AcDbEntity
  8
0
100
AcDbLine
 62
250
  6
CONTINUOUS
 10
-48.776403
 20
25.901202
 11
-49.464178
 21
28.698798
  0
LINE
  5
314
100
AcDbEntity
  8
0
100
AcDbLine
 62
250
  6
CONTINUOUS
 10
-52.653134
 20
28.222611
 11
-52.610473
 21
28.044042
  0
LINE
  5
315
100
AcDbEntity
  8
0
100
AcDbLine
 62
250
  6
CONTINUOUS
 10
-52.303434
 20
28.222611
 11
-52.260773
 21
28.044042
  0
LINE
  5
316
100
AcDbEntity
  8
0
100
AcDbLine
 62
250
  6
CONTINUOUS
 10
-49.296745
 20
26.615482
 11
-49.126103
 21
25.901202
  0
LINE
  5
317
100
AcDbEntity
  8
0
100
AcDbLine
 62
250
  6
CONTINUOUS
 10
-49.334197
 20
26.853575
 11
-49.71814
 21
28.460705
  0
LINE
  5
318
100
AcDbEntity
  8
0
100
AcDbLine
 62
250
  6
CONTINUOUS
 10
-78.9949737704
 20
-21.846081448
 11
-78.85
 21
-21.7010963722
  0
LINE
  5
319
100
AcDbEntity
  8
ASSI
100
AcDbLine
 62
250
  6
CONTINUOUS
 10
-78.9949737704
 20
-21.846081448
 11
-78.85
 21
-21.7010963722
  0
LINE
  5
31A
100
AcDbEntity
  8
0
100
AcDbLine
 62
250
  6
CONTINUOUS
 10
-78.1926541173
 20
-22.6415492726
 11
-78.0510963722
 21
-22.5
  0
LINE
  5
31B
100
AcDbEntity
  8
ASSI
100
AcDbLine
 62
250
  6
CONTINUOUS
 10
-78.1926541173
 20
-22.6415492726
 11
-78.0510963722
 21
-22.5
  0
LWPOLYLINE
  5
31C
100
AcDbEntity
  8
RACCORDO
100
AcDbPolyline
 62
250
  6
CONTINUOUS
 90
13
 70
0
 10
-78.9781655163
 20
-22.4749144996
 10
-78.9561007015
 20
-22.4564859933
 10
-78.9354223799
 20
-22.4390424857
 10
-78.9162400395
 20
-22.422676337
 10
-78.8986552475
 20
-22.4074742033
 10
-78.8827611122
 20
-22.3935165769
 10
-78.8686417902
 20
-22.3808773612
 10
-78.8563720408
 20
-22.3696234784
 10
-78.8460168303
 20
-22.3598145159
 10
-78.8376309875
 20
-22.3515024105
 10
-78.8312589141
 20
-22.3447311732
 10
-78.826934349
 20
-22.3395366565
 10
-78.8246801902
 20
-22.3359463644
  0
LWPOLYLINE
  5
31D
100
AcDbEntity
  8
ASSI
100
AcDbPolyline
 62
250
  6
CONTINUOUS
 90
13
 70
0
 10
-78.9781655163
 20
-22.4749144996
 10
-78.9561007015
 20
-22.4564859933
 10
-78.9354223799
 20
-22.4390424857
 10
-78.9162400395
 20
-22.422676337
 10
-78.8986552475
 20
-22.4074742033
 10
-78.8827611122
 20
-22.3935165769
 10
-78.8686417902
 20
-22.3808773612
 10
-78.8563720408
 20
-22.3696234784
 10
-78.8460168303
 20
-22.3598145159
 10
-78.8376309875
 20
-22.3515024105
 10
-78.8312589141
 20
-22.3447311732
 10
-78.826934349
 20
-22.3395366565
 10
-78.8246801902
 20
-22.3359463644
  0
LINE
  5
31E
100
AcDbEntity
  8
RACCORDO
100
AcDbLine
 62
250
  6
CONTINUOUS
 10
-79.0259805857
 20
-22.514331507
 11
-78.9781655163
 21
-22.4749144996
  0
LINE
  5
31F
100
AcDbEntity
  8
ASSI
100
AcDbLine
 62
250
  6
CONTINUOUS
 10
-79.0259805857
 20
-22.514331507
 11
-78.9781655163
 21
-22.4749144996
  0
LINE
  5
320
100
AcDbEntity
  8
RACCORDO
100
AcDbLine
 62
250
  6
CONTINUOUS
 10
-79.0778562393
 20
-22.5564597887
 11
-79.0259805857
 21
-22.514331507
  0
LINE
  5
321
100
AcDbEntity
  8
ASSI
100
AcDbLine
 62
250
  6
CONTINUOUS
 10
-79.0778562393
 20
-22.5564597887
 11
-79.0259805857
 21
-22.514331507
  0
LINE
  5
322
100
AcDbEntity
  8
RACCORDO
100
AcDbLine
 62
250
  6
CONTINUOUS
 10
-79.1326952419
 20
-22.6004082786
 11
-79.0778562393
 21
-22.5564597887
  0
LINE
  5
323
100
AcDbEntity
  8
ASSI
100
AcDbLine
 62
250
  6
CONTINUOUS
 10
-79.1326952419
 20
-22.6004082786
 11
-79.0778562393
 21
-22.5564597887
  0
LWPOLYLINE
  5
324
100
AcDbEntity
  8
RACCORDO
100
AcDbPolyline
 62
250
  6
CONTINUOUS
 90
3
 70
0
 10
-79.2179615936
 20
-22.6677047803
 10
-79.1893376796
 20
-22.6452474111
 10
-79.1326952419
 20
-22.6004082786
  0
LWPOLYLINE
  5
325
100
AcDbEntity
  8
ASSI
100
AcDbPolyline
 62
250
  6
CONTINUOUS
 90
3
 70
0
 10
-79.2179615936
 20
-22.6677047803
 10
-79.1893376796
 20
-22.6452474111
 10
-79.1326952419
 20
-22.6004082786
  0
LINE
  5
326
100
AcDbEntity
  8
RACCORDO
100
AcDbLine
 62
250
  6
CONTINUOUS
 10
-79.2179615936
 20
22.6677047264
 11
-79.1608652592
 21
22.622775493
  0
LINE
  5
327
100
AcDbEntity
  8
ASSI
100
AcDbLine
 62
250
  6
CONTINUOUS
 10
-79.2179615936
 20
22.6677047264
 11
-79.1608652592
 21
22.622775493
  0
LINE
  5
328
100
AcDbEntity
  8
RACCORDO
100
AcDbLine
 62
250
  6
CONTINUOUS
 10
-79.1608652592
 20
22.622775493
 11
-79.1049765067
 21
22.5782637897
  0
LINE
  5
329
100
AcDbEntity
  8
ASSI
100
AcDbLine
 62
250
  6
CONTINUOUS
 10
-79.1608652592
 20
22.622775493
 11
-79.1049765067
 21
22.5782637897
  0
LINE
  5
32A
100
AcDbEntity
  8
RACCORDO
100
AcDbLine
 62
250
  6
CONTINUOUS
 10
-79.1049765067
 20
22.5782637897
 11
-79.051477458
 21
22.5351110986
  0
LINE
  5
32B
100
AcDbEntity
  8
ASSI
100
AcDbLine
 62
250
  6
CONTINUOUS
 10
-79.1049765067
 20
22.5782637897
 11
-79.051477458
 21
22.5351110986
  0
LWPOLYLINE
  5
32C
100
AcDbEntity
  8
RACCORDO
100
AcDbPolyline
 62
250
  6
CONTINUOUS
 90
15
 70
0
 10
-79.051477458
 20
22.5351110986
 10
-79.0014996896
 20
22.4942301565
 10
-78.9781651619
 20
22.4749141916
 10
-78.9561002983
 20
22.45648565
 10
-78.9354219287
 20
22.4390421077
 10
-78.916239542
 20
22.4226759257
 10
-78.8986547058
 20
22.4074737602
 10
-78.8827605291
 20
22.3935161043
 10
-78.8686411692
 20
22.3808768616
 10
-78.8563713857
 20
22.369622955
 10
-78.8460161454
 20
22.3598139719
 10
-78.8376302776
 20
22.3515018495
 10
-78.8312581842
 20
22.3447305992
 10
-78.8269336044
 20
22.3395360735
 10
-78.8246794363
 20
22.3359457767
  0
LWPOLYLINE
  5
32D
100
AcDbEntity
  8
ASSI
100
AcDbPolyline
 62
250
  6
CONTINUOUS
 90
15
 70
0
 10
-79.051477458
 20
22.5351110986
 10
-79.0014996896
 20
22.4942301565
 10
-78.9781651619
 20
22.4749141916
 10
-78.9561002983
 20
22.45648565
 10
-78.9354219287
 20
22.4390421077
 10
-78.916239542
 20
22.4226759257
 10
-78.8986547058
 20
22.4074737602
 10
-78.8827605291
 20
22.3935161043
 10
-78.8686411692
 20
22.3808768616
 10
-78.8563713857
 20
22.369622955
 10
-78.8460161454
 20
22.3598139719
 10
-78.8376302776
 20
22.3515018495
 10
-78.8312581842
 20
22.3447305992
 10
-78.8269336044
 20
22.3395360735
 10
-78.8246794363
 20
22.3359457767
  0
LINE
  5
32E
100
AcDbEntity
  8
0
100
AcDbLine
 62
250
  6
CONTINUOUS
 10
-78.1926713554
 20
22.6415492726
 11
-78.0510963722
 21
22.5
  0
LINE
  5
32F
100
AcDbEntity
  8
ASSI
100
AcDbLine
 62
250
  6
CONTINUOUS
 10
-78.1926713554
 20
22.6415492726
 11
-78.0510963722
 21
22.5
  0
LINE
  5
330
100
AcDbEntity
  8
0
100
AcDbLine
 62
250
  6
CONTINUOUS
 10
-78.9949737654
 20
21.846084038
 11
-78.85
 21
21.7010963722
  0
LINE
  5
331
100
AcDbEntity
  8
ASSI
100
AcDbLine
 62
250
  6
CONTINUOUS
 10
-78.9949737654
 20
21.846084038
 11
-78.85
 21
21.7010963722
  0
LINE
  5
332
100
AcDbEntity
  8
0
100
AcDbLine
 62
250
  6
CONTINUOUS
 10
-66.16764
 20
26.972622
 11
-66.273791
 21
27.091668
  0
LINE
  5
333
100
AcDbEntity
  8
0
100
AcDbLine
 62
250
  6
CONTINUOUS
 10
-66.169639
 20
28.282135
 11
-66.063488
 21
28.163088
  0
LINE
  5
334
100
AcDbEntity
  8
0
100
AcDbLine
 62
250
  6
CONTINUOUS
 10
-65.812733
 20
27.032145
 11
-65.966752
 21
27.270238
  0
LINE
  5
335
100
AcDbEntity
  8
0
100
AcDbLine
 62
250
  6
CONTINUOUS
 10
-65.70858
 20
28.222611
 11
-65.8626
 21
28.460705
  0
LWPOLYLINE
  5
336
100
AcDbEntity
  8
0
100
AcDbPolyline
 62
7
  6
CONTINUOUS
 90
22
 70
0
 10
3.6000188023
 20
-26.110807341
 10
3.6885570541
 20
-26.0980472822
 10
3.7750567169
 20
-26.0866308337
 10
3.8595177909
 20
-26.0765580151
 10
3.9419106002
 20
-26.0677878736
 10
4.0222648207
 20
-26.0603613939
 10
4.1006694793
 20
-26.0544015004
 10
4.1771636095
 20
-26.0499504655
 10
4.2517081778
 20
-26.0469660363
 10
4.3242751117
 20
-26.0454443462
 10
4.3948188422
 20
-26.045413097
 10
4.4633849382
 20
-26.0468445898
 10
4.5300820337
 20
-26.0496518524
 10
4.5949726914
 20
-26.053772625
 10
4.6579943485
 20
-26.0592691555
 10
4.7190679505
 20
-26.0662412299
 10
4.7782484003
 20
-26.0746841314
 10
4.835480795
 20
-26.0846025478
 10
4.8905213715
 20
-26.096110365
 10
4.9432888757
 20
-26.1092455276
 10
4.9938645618
 20
-26.1239700404
 10
5.0422484297
 20
-26.1402838735
  0
LWPOLYLINE
  5
337
100
AcDbEntity
  8
ASSI
100
AcDbPolyline
 62
7
  6
CONTINUOUS
 90
22
 70
0
 10
3.6000188023
 20
-26.110807341
 10
3.6885570541
 20
-26.0980472822
 10
3.7750567169
 20
-26.0866308337
 10
3.8595177909
 20
-26.0765580151
 10
3.9419106002
 20
-26.0677878736
 10
4.0222648207
 20
-26.0603613939
 10
4.1006694793
 20
-26.0544015004
 10
4.1771636095
 20
-26.0499504655
 10
4.2517081778
 20
-26.0469660363
 10
4.3242751117
 20
-26.0454443462
 10
4.3948188422
 20
-26.045413097
 10
4.4633849382
 20
-26.0468445898
 10
4.5300820337
 20
-26.0496518524
 10
4.5949726914
 20
-26.053772625
 10
4.6579943485
 20
-26.0592691555
 10
4.7190679505
 20
-26.0662412299
 10
4.7782484003
 20
-26.0746841314
 10
4.835480795
 20
-26.0846025478
 10
4.8905213715
 20
-26.096110365
 10
4.9432888757
 20
-26.1092455276
 10
4.9938645618
 20
-26.1239700404
 10
5.0422484297
 20
-26.1402838735
  0
LWPOLYLINE
  5
338
100
AcDbEntity
  8
0
100
AcDbPolyline
 62
7
  6
CONTINUOUS
 90
28
 70
0
 10
4.4966806432
 20
-27.3236280866
 10
4.5286338126
 20
-27.3223163458
 10
4.5593114293
 20
-27.3199807128
 10
4.5887134934
 20
-27.3166211841
 10
4.616766869
 20
-27.3122536208
 10
4.6435446918
 20
-27.3068621508
 10
4.6692663697
 20
-27.3003991688
 10
4.693995462
 20
-27.2929010629
 10
4.7176684093
 20
-27.2843314243
 10
4.740313941
 20
-27.2745334483
 10
4.7619559302
 20
-27.2635486414
 10
4.7825705039
 20
-27.2513354618
 10
4.8021147729
 20
-27.2376125222
 10
4.8206056202
 20
-27.2222611999
 10
4.8380261628
 20
-27.2054000547
 10
4.8542828625
 20
-27.1871034655
 10
4.8693801062
 20
-27.1672531486
 10
4.8833135069
 20
-27.1459673097
 10
4.8959763654
 20
-27.1236750715
 10
4.9073445293
 20
-27.1004093898
 10
4.917442151
 20
-27.0761372468
 10
4.9262349879
 20
-27.051188827
 10
4.9337438811
 20
-27.0256434403
 10
4.9399479894
 20
-26.9994217326
 10
4.9447505467
 20
-26.9726159057
 10
4.9481192974
 20
-26.945256681
 10
4.9500864971
 20
-26.9173132958
 10
4.9506521457
 20
-26.8887857288
  0
LWPOLYLINE
  5
339
100
AcDbEntity
  8
ASSI
100
AcDbPolyline
 62
7
  6
CONTINUOUS
 90
28
 70
0
 10
4.4966806432
 20
-27.3236280866
 10
4.5286338126
 20
-27.3223163458
 10
4.5593114293
 20
-27.3199807128
 10
4.5887134934
 20
-27.3166211841
 10
4.616766869
 20
-27.3122536208
 10
4.6435446918
 20
-27.3068621508
 10
4.6692663697
 20
-27.3003991688
 10
4.693995462
 20
-27.2929010629
 10
4.7176684093
 20
-27.2843314243
 10
4.740313941
 20
-27.2745334483
 10
4.7619559302
 20
-27.2635486414
 10
4.7825705039
 20
-27.2513354618
 10
4.8021147729
 20
-27.2376125222
 10
4.8206056202
 20
-27.2222611999
 10
4.8380261628
 20
-27.2054000547
 10
4.8542828625
 20
-27.1871034655
 10
4.8693801062
 20
-27.1672531486
 10
4.8833135069
 20
-27.1459673097
 10
4.8959763654
 20
-27.1236750715
 10
4.9073445293
 20
-27.1004093898
 10
4.917442151
 20
-27.0761372468
 10
4.9262349879
 20
-27.051188827
 10
4.9337438811
 20
-27.0256434403
 10
4.9399479894
 20
-26.9994217326
 10
4.9447505467
 20
-26.9726159057
 10
4.9481192974
 20
-26.945256681
 10
4.9500864971
 20
-26.9173132958
 10
4.9506521457
 20
-26.8887857288
  0
LINE
  5
33A
100
AcDbEntity
  8
RACCORDO
100
AcDbLine
 62
250
  6
CONTINUOUS
 10
-79.3174282049
 20
-21.8683496278
 11
-79.2518755116
 21
-21.8667068282
  0
LINE
  5
33B
100
AcDbEntity
  8
ASSI
100
AcDbLine
 62
250
  6
CONTINUOUS
 10
-79.3174282049
 20
-21.8683496278
 11
-79.2518755116
 21
-21.8667068282
  0
LINE
  5
33C
100
AcDbEntity
  8
RACCORDO
100
AcDbLine
 62
250
  6
CONTINUOUS
 10
-79.3866734236
 20
-21.8695272723
 11
-79.3174282049
 21
-21.8683496278
  0
LINE
  5
33D
100
AcDbEntity
  8
ASSI
100
AcDbLine
 62
250
  6
CONTINUOUS
 10
-79.3866734236
 20
-21.8695272723
 11
-79.3174282049
 21
-21.8683496278
  0
LWPOLYLINE
  5
33E
100
AcDbEntity
  8
RACCORDO
100
AcDbPolyline
 62
250
  6
CONTINUOUS
 90
17
 70
0
 10
104.4931469953
 20
-22.667357485
 10
104.5178871765
 20
-22.6670254536
 10
104.5420930806
 20
-22.6665907705
 10
104.5655925403
 20
-22.6660565275
 10
104.5882184134
 20
-22.6654265243
 10
104.6098097709
 20
-22.664705242
 10
104.6302130421
 20
-22.6638978107
 10
104.6492831066
 20
-22.6630099734
 10
104.6668843265
 20
-22.6620480449
 10
104.6828915112
 20
-22.6610188671
 10
104.6971908081
 20
-22.6599297601
 10
104.7096805118
 20
-22.6587884702
 10
104.7202717881
 20
-22.657603115
 10
104.7288893053
 20
-22.6563821255
 10
104.7354717705
 20
-22.6551341861
 10
104.7399723652
 20
-22.6538681728
 10
104.7423590785
 20
-22.6525930904
  0
LWPOLYLINE
  5
33F
100
AcDbEntity
  8
ASSI
100
AcDbPolyline
 62
250
  6
CONTINUOUS
 90
17
 70
0
 10
104.4931469953
 20
-22.667357485
 10
104.5178871765
 20
-22.6670254536
 10
104.5420930806
 20
-22.6665907705
 10
104.5655925403
 20
-22.6660565275
 10
104.5882184134
 20
-22.6654265243
 10
104.6098097709
 20
-22.664705242
 10
104.6302130421
 20
-22.6638978107
 10
104.6492831066
 20
-22.6630099734
 10
104.6668843265
 20
-22.6620480449
 10
104.6828915112
 20
-22.6610188671
 10
104.6971908081
 20
-22.6599297601
 10
104.7096805118
 20
-22.6587884702
 10
104.7202717881
 20
-22.657603115
 10
104.7288893053
 20
-22.6563821255
 10
104.7354717705
 20
-22.6551341861
 10
104.7399723652
 20
-22.6538681728
 10
104.7423590785
 20
-22.6525930904
  0
LINE
  5
340
100
AcDbEntity
  8
RACCORDO
100
AcDbLine
 62
250
  6
CONTINUOUS
 10
104.4427702181
 20
-22.6677048932
 11
104.4931469953
 21
-22.667357485
  0
LINE
  5
341
100
AcDbEntity
  8
ASSI
100
AcDbLine
 62
250
  6
CONTINUOUS
 10
104.4427702181
 20
-22.6677048932
 11
104.4931469953
 21
-22.667357485
  0
LWPOLYLINE
  5
342
100
AcDbEntity
  8
RACCORDO
100
AcDbPolyline
 62
250
  6
CONTINUOUS
 90
3
 70
0
 10
-79.4942885593
 20
-21.8703705753
 10
-79.4581654523
 20
-21.8702151746
 10
-79.3866734236
 20
-21.8695272723
  0
LWPOLYLINE
  5
343
100
AcDbEntity
  8
ASSI
100
AcDbPolyline
 62
250
  6
CONTINUOUS
 90
3
 70
0
 10
-79.4942885593
 20
-21.8703705753
 10
-79.4581654523
 20
-21.8702151746
 10
-79.3866734236
 20
-21.8695272723
  0
LINE
  5
344
100
AcDbEntity
  8
0
100
AcDbLine
 62
7
  6
CONTINUOUS
 10
5.6391482119
 20
-28.8778013544
 11
5.0770156219
 21
-28.8778013544
  0
LINE
  5
345
100
AcDbEntity
  8
ASSI
100
AcDbLine
 62
7
  6
CONTINUOUS
 10
5.6391482119
 20
-28.8778013544
 11
5.0770156219
 21
-28.8778013544
  0
LINE
  5
346
100
AcDbEntity
  8
0
100
AcDbLine
 62
7
  6
CONTINUOUS
 10
4.1820753449
 20
-28.8778013544
 11
3.6000188023
 21
-28.8778013544
  0
LINE
  5
347
100
AcDbEntity
  8
ASSI
100
AcDbLine
 62
7
  6
CONTINUOUS
 10
4.1820753449
 20
-28.8778013544
 11
3.6000188023
 21
-28.8778013544
  0
LINE
  5
348
100
AcDbEntity
  8
0
100
AcDbLine
 62
7
  6
CONTINUOUS
 10
3.298408
 20
-28.877801
 11
2.682466
 21
-28.877801
  0
LINE
  5
349
100
AcDbEntity
  8
ASSI
100
AcDbLine
 62
7
  6
CONTINUOUS
 10
3.298408
 20
-28.877801
 11
2.682466
 21
-28.877801
  0
LINE
  5
34A
100
AcDbEntity
  8
0
100
AcDbLine
 62
7
  6
CONTINUOUS
 10
1.573947
 20
-28.877801
 11
0.99588
 21
-28.877801
  0
LINE
  5
34B
100
AcDbEntity
  8
ASSI
100
AcDbLine
 62
7
  6
CONTINUOUS
 10
1.573947
 20
-28.877801
 11
0.99588
 21
-28.877801
  0
LINE
  5
34C
100
AcDbEntity
  8
0
100
AcDbLine
 62
7
  6
CONTINUOUS
 10
0.694112
 20
-28.877801
 11
0.122406
 21
-28.877801
  0
LINE
  5
34D
100
AcDbEntity
  8
ASSI
100
AcDbLine
 62
7
  6
CONTINUOUS
 10
0.694112
 20
-28.877801
 11
0.122406
 21
-28.877801
  0
LINE
  5
34E
100
AcDbEntity
  8
0
100
AcDbLine
 62
7
  6
CONTINUOUS
 10
-0.692524
 20
-28.877801
 11
-0.774487
 21
-28.877801
  0
LINE
  5
34F
100
AcDbEntity
  8
ASSI
100
AcDbLine
 62
7
  6
CONTINUOUS
 10
-0.692524
 20
-28.877801
 11
-0.774487
 21
-28.877801
  0
LINE
  5
350
100
AcDbEntity
  8
0
100
AcDbLine
 62
7
  6
CONTINUOUS
 10
-1.586183
 20
-28.877801
 11
-2.145272
 21
-28.877801
  0
LINE
  5
351
100
AcDbEntity
  8
ASSI
100
AcDbLine
 62
7
  6
CONTINUOUS
 10
-1.586183
 20
-28.877801
 11
-2.145272
 21
-28.877801
  0
LINE
  5
352
100
AcDbEntity
  8
0
100
AcDbLine
 62
7
  6
CONTINUOUS
 10
-2.449877
 20
-28.877801
 11
-3.034285
 21
-28.877801
  0
LINE
  5
353
100
AcDbEntity
  8
ASSI
100
AcDbLine
 62
7
  6
CONTINUOUS
 10
-2.449877
 20
-28.877801
 11
-3.034285
 21
-28.877801
  0
LINE
  5
354
100
AcDbEntity
  8
0
100
AcDbLine
 62
7
  6
CONTINUOUS
 10
-4.231097
 20
-28.877801
 11
-4.746107
 21
-28.877801
  0
LINE
  5
355
100
AcDbEntity
  8
ASSI
100
AcDbLine
 62
7
  6
CONTINUOUS
 10
-4.231097
 20
-28.877801
 11
-4.746107
 21
-28.877801
  0
LINE
  5
356
100
AcDbEntity
  8
0
100
AcDbLine
 62
7
  6
CONTINUOUS
 10
2.531074
 20
-28.318881
 11
1.735207
 21
-28.318881
  0
LINE
  5
357
100
AcDbEntity
  8
ASSI
100
AcDbLine
 62
7
  6
CONTINUOUS
 10
2.531074
 20
-28.318881
 11
1.735207
 21
-28.318881
  0
LINE
  5
358
100
AcDbEntity
  8
0
100
AcDbLine
 62
7
  6
CONTINUOUS
 10
2.41428
 20
-27.886391
 11
1.854751
 21
-27.886391
  0
LINE
  5
359
100
AcDbEntity
  8
ASSI
100
AcDbLine
 62
7
  6
CONTINUOUS
 10
2.41428
 20
-27.886391
 11
1.854751
 21
-27.886391
  0
LINE
  5
35A
100
AcDbEntity
  8
0
100
AcDbLine
 62
7
  6
CONTINUOUS
 10
4.4954209623
 20
-27.7821519248
 11
4.1820753449
 21
-27.7821519248
  0
LINE
  5
35B
100
AcDbEntity
  8
ASSI
100
AcDbLine
 62
7
  6
CONTINUOUS
 10
4.4954209623
 20
-27.7821519248
 11
4.1820753449
 21
-27.7821519248
  0
LINE
  5
35C
100
AcDbEntity
  8
0
100
AcDbLine
 62
7
  6
CONTINUOUS
 10
4.4966806432
 20
-27.3236280866
 11
4.1626972541
 21
-27.3236280866
  0
LINE
  5
35D
100
AcDbEntity
  8
ASSI
100
AcDbLine
 62
7
  6
CONTINUOUS
 10
4.4966806432
 20
-27.3236280866
 11
4.1626972541
 21
-27.3236280866
  0
LINE
  5
35E
100
AcDbEntity
  8
0
100
AcDbLine
 62
7
  6
CONTINUOUS
 10
2.43939
 20
-26.078098
 11
1.874045
 21
-26.078098
  0
LINE
  5
35F
100
AcDbEntity
  8
ASSI
100
AcDbLine
 62
7
  6
CONTINUOUS
 10
2.43939
 20
-26.078098
 11
1.874045
 21
-26.078098
  0
LINE
  5
360
100
AcDbEntity
  8
0
100
AcDbLine
 62
7
  6
CONTINUOUS
 10
0.432308
 20
-26.078098
 11
-0.145906
 21
-26.078098
  0
LINE
  5
361
100
AcDbEntity
  8
ASSI
100
AcDbLine
 62
7
  6
CONTINUOUS
 10
0.432308
 20
-26.078098
 11
-0.145906
 21
-26.078098
  0
LINE
  5
362
100
AcDbEntity
  8
0
100
AcDbLine
 62
7
  6
CONTINUOUS
 10
-1.30855
 20
-26.078098
 11
-1.892475
 21
-26.078098
  0
LINE
  5
363
100
AcDbEntity
  8
ASSI
100
AcDbLine
 62
7
  6
CONTINUOUS
 10
-1.30855
 20
-26.078098
 11
-1.892475
 21
-26.078098
  0
LINE
  5
364
100
AcDbEntity
  8
0
100
AcDbLine
 62
7
  6
CONTINUOUS
 10
-3.33116
 20
-26.078098
 11
-3.915169
 21
-26.078098
  0
LINE
  5
365
100
AcDbEntity
  8
ASSI
100
AcDbLine
 62
7
  6
CONTINUOUS
 10
-3.33116
 20
-26.078098
 11
-3.915169
 21
-26.078098
  0
LINE
  5
366
100
AcDbEntity
  8
0
100
AcDbLine
 62
7
  6
CONTINUOUS
 10
-4.99882
 20
-26.078098
 11
-5.633668
 21
-26.078098
  0
LINE
  5
367
100
AcDbEntity
  8
ASSI
100
AcDbLine
 62
7
  6
CONTINUOUS
 10
-4.99882
 20
-26.078098
 11
-5.633668
 21
-26.078098
  0
LINE
  5
368
100
AcDbEntity
  8
0
100
AcDbLine
 62
7
  6
CONTINUOUS
 10
-2.449877
 20
-26.07793
 11
-3.034285
 21
-26.07793
  0
LINE
  5
369
100
AcDbEntity
  8
ASSI
100
AcDbLine
 62
7
  6
CONTINUOUS
 10
-2.449877
 20
-26.07793
 11
-3.034285
 21
-26.07793
  0
LINE
  5
36A
100
AcDbEntity
  8
RACCORDO
100
AcDbLine
 62
250
  6
CONTINUOUS
 10
78.1926456448
 20
-23.1675430277
 11
-78.1926456448
 21
-23.1675430277
  0
LINE
  5
36B
100
AcDbEntity
  8
ASSI
100
AcDbLine
 62
250
  6
CONTINUOUS
 10
78.1926456448
 20
-23.1675430277
 11
-78.1926456448
 21
-23.1675430277
  0
LINE
  5
36C
100
AcDbEntity
  8
RACCORDO
100
AcDbLine
 62
250
  6
CONTINUOUS
 10
104.4427701044
 20
-22.6676475367
 11
79.2179615936
 21
-22.6677048937
  0
LINE
  5
36D
100
AcDbEntity
  8
ASSI
100
AcDbLine
 62
250
  6
CONTINUOUS
 10
104.4427701044
 20
-22.6676475367
 11
79.2179615936
 21
-22.6677048937
  0
LINE
  5
36E
100
AcDbEntity
  8
RACCORDO
100
AcDbLine
 62
250
  6
CONTINUOUS
 10
-79.2179709811
 20
-22.6676911416
 11
-104.4427701041
 21
-22.6676473889
  0
LINE
  5
36F
100
AcDbEntity
  8
ASSI
100
AcDbLine
 62
250
  6
CONTINUOUS
 10
-79.2179709811
 20
-22.6676911416
 11
-104.4427701041
 21
-22.6676473889
  0
LINE
  5
370
100
AcDbEntity
  8
RACCORDO
100
AcDbLine
 62
250
  6
CONTINUOUS
 10
78.1926713554
 20
-22.6415492726
 11
-78.1926541173
 21
-22.6415492726
  0
LINE
  5
371
100
AcDbEntity
  8
ASSI
100
AcDbLine
 62
250
  6
CONTINUOUS
 10
78.1926713554
 20
-22.6415492726
 11
-78.1926541173
 21
-22.6415492726
  0
LINE
  5
372
100
AcDbEntity
  8
0
100
AcDbLine
 62
7
  6
CONTINUOUS
 10
78.0510963722
 20
-22.5
 11
-78.0510963722
 21
-22.5
  0
LINE
  5
373
100
AcDbEntity
  8
ASSI
100
AcDbLine
 62
7
  6
CONTINUOUS
 10
78.0510963722
 20
-22.5
 11
-78.0510963722
 21
-22.5
  0
LINE
  5
374
100
AcDbEntity
  8
CURVE_VERNICE
100
AcDbLine
 62
250
  6
CONTINUOUS
 10
77.85
 20
-22.4
 11
-77.85
 21
-22.4
  0
LINE
  5
375
100
AcDbEntity
  8
ASSI
100
AcDbLine
 62
250
  6
CONTINUOUS
 10
77.85
 20
-22.4
 11
-77.85
 21
-22.4
  0
LINE
  5
376
100
AcDbEntity
  8
RACCORDO
100
AcDbLine
 62
250
  6
CONTINUOUS
 10
79.4942885593
 20
-21.8703705168
 11
79.4222310587
 21
-21.8699335366
  0
LINE
  5
377
100
AcDbEntity
  8
ASSI
100
AcDbLine
 62
250
  6
CONTINUOUS
 10
79.4942885593
 20
-21.8703705168
 11
79.4222310587
 21
-21.8699335366
  0
LWPOLYLINE
  5
378
100
AcDbEntity
  8
RACCORDO
100
AcDbPolyline
 62
250
  6
CONTINUOUS
 90
18
 70
0
 10
-104.4427702181
 20
-22.6677048929
 10
-104.4931469947
 20
-22.6673574847
 10
-104.5178871757
 20
-22.6670254534
 10
-104.5420930795
 20
-22.6665907703
 10
-104.565592539
 20
-22.6660565272
 10
-104.5882184119
 20
-22.6654265241
 10
-104.6098097693
 20
-22.6647052418
 10
-104.6302130404
 20
-22.6638978105
 10
-104.6492831048
 20
-22.6630099732
 10
-104.6668843246
 20
-22.6620480448
 10
-104.6828915094
 20
-22.661018867
 10
-104.6971908064
 20
-22.65992976
 10
-104.7096805103
 20
-22.6587884701
 10
-104.7202717867
 20
-22.6576031149
 10
-104.7288893042
 20
-22.6563821254
 10
-104.7354717697
 20
-22.655134186
 10
-104.7399723648
 20
-22.6538681728
 10
-104.7423590785
 20
-22.6525930904
  0
LWPOLYLINE
  5
379
100
AcDbEntity
  8
ASSI
100
AcDbPolyline
 62
250
  6
CONTINUOUS
 90
18
 70
0
 10
-104.4427702181
 20
-22.6677048929
 10
-104.4931469947
 20
-22.6673574847
 10
-104.5178871757
 20
-22.6670254534
 10
-104.5420930795
 20
-22.6665907703
 10
-104.565592539
 20
-22.6660565272
 10
-104.5882184119
 20
-22.6654265241
 10
-104.6098097693
 20
-22.6647052418
 10
-104.6302130404
 20
-22.6638978105
 10
-104.6492831048
 20
-22.6630099732
 10
-104.6668843246
 20
-22.6620480448
 10
-104.6828915094
 20
-22.661018867
 10
-104.6971908064
 20
-22.65992976
 10
-104.7096805103
 20
-22.6587884701
 10
-104.7202717867
 20
-22.6576031149
 10
-104.7288893042
 20
-22.6563821254
 10
-104.7354717697
 20
-22.655134186
 10
-104.7399723648
 20
-22.6538681728
 10
-104.7423590785
 20
-22.6525930904
  0
LWPOLYLINE
  5
37A
100
AcDbEntity
  8
RACCORDO
100
AcDbPolyline
 62
250
  6
CONTINUOUS
 90
31
 70
0
 10
-78.1926541317
 20
-22.641549287
 10
-78.218620985
 20
-22.6411751138
 10
-78.2442376462
 20
-22.6399846691
 10
-78.2694795516
 20
-22.6380101152
 10
-78.2942973275
 20
-22.6352873753
 10
-78.3186973266
 20
-22.6318472718
 10
-78.3427404035
 20
-22.6277072304
 10
-78.3664076544
 20
-22.6228929457
 10
-78.3896826554
 20
-22.6174301229
 10
-78.412629297
 20
-22.6113219323
 10
-78.4352307928
 20
-22.6045875427
 10
-78.4574721279
 20
-22.5972461453
 10
-78.479417227
 20
-22.5892871881
 10
-78.5010499406
 20
-22.5807235849
 10
-78.5223543968
 20
-22.5715687024
 10
-78.543390556
 20
-22.5617996228
 10
-78.5641409446
 20
-22.5514237488
 10
-78.5845874956
 20
-22.540449335
 10
-78.6047833074
 20
-22.5288426095
 10
-78.6247076209
 20
-22.5166065188
 10
-78.6443391142
 20
-22.5037448912
 10
-78.6637225173
 20
-22.490214087
 10
-78.6828319457
 20
-22.4760137885
 10
-78.7016416518
 20
-22.4611440797
 10
-78.7201873335
 20
-22.4455515599
 10
-78.7384351527
 20
-22.4292348435
 10
-78.756354502
 20
-22.4121901516
 10
-78.7739743028
 20
-22.3943505199
 10
-78.7912741733
 20
-22.3756880853
 10
-78.8081909477
 20
-22.3562209428
 10
-78.8246817863
 20
-22.3359476087
  0
LWPOLYLINE
  5
37B
100
AcDbEntity
  8
ASSI
100
AcDbPolyline
 62
250
  6
CONTINUOUS
 90
31
 70
0
 10
-78.1926541317
 20
-22.641549287
 10
-78.218620985
 20
-22.6411751138
 10
-78.2442376462
 20
-22.6399846691
 10
-78.2694795516
 20
-22.6380101152
 10
-78.2942973275
 20
-22.6352873753
 10
-78.3186973266
 20
-22.6318472718
 10
-78.3427404035
 20
-22.6277072304
 10
-78.3664076544
 20
-22.6228929457
 10
-78.3896826554
 20
-22.6174301229
 10
-78.412629297
 20
-22.6113219323
 10
-78.4352307928
 20
-22.6045875427
 10
-78.4574721279
 20
-22.5972461453
 10
-78.479417227
 20
-22.5892871881
 10
-78.5010499406
 20
-22.5807235849
 10
-78.5223543968
 20
-22.5715687024
 10
-78.543390556
 20
-22.5617996228
 10
-78.5641409446
 20
-22.5514237488
 10
-78.5845874956
 20
-22.540449335
 10
-78.6047833074
 20
-22.5288426095
 10
-78.6247076209
 20
-22.5166065188
 10
-78.6443391142
 20
-22.5037448912
 10
-78.6637225173
 20
-22.490214087
 10
-78.6828319457
 20
-22.4760137885
 10
-78.7016416518
 20
-22.4611440797
 10
-78.7201873335
 20
-22.4455515599
 10
-78.7384351527
 20
-22.4292348435
 10
-78.756354502
 20
-22.4121901516
 10
-78.7739743028
 20
-22.3943505199
 10
-78.7912741733
 20
-22.3756880853
 10
-78.8081909477
 20
-22.3562209428
 10
-78.8246817863
 20
-22.3359476087
  0
LINE
  5
37C
100
AcDbEntity
  8
RACCORDO
100
AcDbLine
 62
250
  6
CONTINUOUS
 10
79.4222310587
 20
-21.8699335366
 11
79.3516779593
 21
-21.8689983299
  0
LINE
  5
37D
100
AcDbEntity
  8
ASSI
100
AcDbLine
 62
250
  6
CONTINUOUS
 10
79.4222310587
 20
-21.8699335366
 11
79.3516779593
 21
-21.8689983299
  0
LWPOLYLINE
  5
37E
100
AcDbEntity
  8
RACCORDO
100
AcDbPolyline
 62
250
  6
CONTINUOUS
 90
31
 70
0
 10
-78.1926456448
 20
-23.1675430277
 10
-78.2348377477
 20
-23.1667729449
 10
-78.2763862646
 20
-23.1647788527
 10
-78.3172911956
 20
-23.1615607487
 10
-78.3575406831
 20
-23.1570774682
 10
-78.3971465846
 20
-23.1513701668
 10
-78.4361444728
 20
-23.144562321
 10
-78.4745298853
 20
-23.1366689744
 10
-78.5123072846
 20
-23.1276750681
 10
-78.5495256305
 20
-23.1176589243
 10
-78.586184017
 20
-23.1066347773
 10
-78.6222833501
 20
-23.0945883726
 10
-78.6578753079
 20
-23.0815552986
 10
-78.6929630459
 20
-23.0675484205
 10
-78.7275434085
 20
-23.0525548482
 10
-78.7616586072
 20
-23.0365715367
 10
-78.7953150694
 20
-23.0196096398
 10
-78.8285063677
 20
-23.0016579734
 10
-78.8612554307
 20
-22.9826799836
 10
-78.8935711541
 20
-22.9626853296
 10
-78.9254446421
 20
-22.9416643153
 10
-78.9568721361
 20
-22.9195513512
 10
-78.987864575
 20
-22.8963549253
 10
-79.0184110199
 20
-22.8720665044
 10
-79.0484748952
 20
-22.8465949623
 10
-79.0780691045
 20
-22.8199486136
 10
-79.1071807443
 20
-22.7921190882
 10
-79.1357345284
 20
-22.7629902261
 10
-79.1637053616
 20
-22.732523283
 10
-79.191118339
 20
-22.7007569337
 10
-79.2179734609
 20
-22.6676911416
  0
LWPOLYLINE
  5
37F
100
AcDbEntity
  8
ASSI
100
AcDbPolyline
 62
250
  6
CONTINUOUS
 90
31
 70
0
 10
-78.1926456448
 20
-23.1675430277
 10
-78.2348377477
 20
-23.1667729449
 10
-78.2763862646
 20
-23.1647788527
 10
-78.3172911956
 20
-23.1615607487
 10
-78.3575406831
 20
-23.1570774682
 10
-78.3971465846
 20
-23.1513701668
 10
-78.4361444728
 20
-23.144562321
 10
-78.4745298853
 20
-23.1366689744
 10
-78.5123072846
 20
-23.1276750681
 10
-78.5495256305
 20
-23.1176589243
 10
-78.586184017
 20
-23.1066347773
 10
-78.6222833501
 20
-23.0945883726
 10
-78.6578753079
 20
-23.0815552986
 10
-78.6929630459
 20
-23.0675484205
 10
-78.7275434085
 20
-23.0525548482
 10
-78.7616586072
 20
-23.0365715367
 10
-78.7953150694
 20
-23.0196096398
 10
-78.8285063677
 20
-23.0016579734
 10
-78.8612554307
 20
-22.9826799836
 10
-78.8935711541
 20
-22.9626853296
 10
-78.9254446421
 20
-22.9416643153
 10
-78.9568721361
 20
-22.9195513512
 10
-78.987864575
 20
-22.8963549253
 10
-79.0184110199
 20
-22.8720665044
 10
-79.0484748952
 20
-22.8465949623
 10
-79.0780691045
 20
-22.8199486136
 10
-79.1071807443
 20
-22.7921190882
 10
-79.1357345284
 20
-22.7629902261
 10
-79.1637053616
 20
-22.732523283
 10
-79.191118339
 20
-22.7007569337
 10
-79.2179734609
 20
-22.6676911416
  0
LWPOLYLINE
  5
380
100
AcDbEntity
  8
RACCORDO
100
AcDbPolyline
 62
250
  6
CONTINUOUS
 90
17
 70
0
 10
79.3516779593
 20
-21.8689983299
 10
79.284102289
 20
-21.8675844222
 10
79.2518751303
 20
-21.8667068055
 10
79.2209149123
 20
-21.8657213334
 10
79.1913834456
 20
-21.8646331564
 10
79.1634350734
 20
-21.8634479617
 10
79.1372158653
 20
-21.8621719437
 10
79.1128628531
 20
-21.8608117712
 10
79.0905033157
 20
-21.8593745532
 10
79.0702541128
 20
-21.8578678011
 10
79.0522210749
 20
-21.8562993898
 10
79.03649845
 20
-21.8546775164
 10
79.0231684107
 20
-21.8530106575
 10
79.0123006252
 20
-21.8513075248
 10
79.003951893
 20
-21.8495770195
 10
78.9981658477
 20
-21.8478281859
 10
78.9949727297
 20
-21.8460701642
  0
LWPOLYLINE
  5
381
100
AcDbEntity
  8
ASSI
100
AcDbPolyline
 62
250
  6
CONTINUOUS
 90
17
 70
0
 10
79.3516779593
 20
-21.8689983299
 10
79.284102289
 20
-21.8675844222
 10
79.2518751303
 20
-21.8667068055
 10
79.2209149123
 20
-21.8657213334
 10
79.1913834456
 20
-21.8646331564
 10
79.1634350734
 20
-21.8634479617
 10
79.1372158653
 20
-21.8621719437
 10
79.1128628531
 20
-21.8608117712
 10
79.0905033157
 20
-21.8593745532
 10
79.0702541128
 20
-21.8578678011
 10
79.0522210749
 20
-21.8562993898
 10
79.03649845
 20
-21.8546775164
 10
79.0231684107
 20
-21.8530106575
 10
79.0123006252
 20
-21.8513075248
 10
79.003951893
 20
-21.8495770195
 10
78.9981658477
 20
-21.8478281859
 10
78.9949727297
 20
-21.8460701642
  0
LWPOLYLINE
  5
382
100
AcDbEntity
  8
0
100
AcDbPolyline
 62
7
  6
CONTINUOUS
 90
10
 70
0
 10
4.6205134302
 20
-26.5385722489
 10
4.5720440138
 20
-26.533662306
 10
4.5229153569
 20
-26.5304181588
 10
4.4731274594
 20
-26.5288398144
 10
4.4226010166
 20
-26.5289012296
 10
4.3714153331
 20
-26.530628451
 10
4.3198083237
 20
-26.5340996145
 10
4.2678592931
 20
-26.5393407585
 10
4.2154889366
 20
-26.5463258244
 10
4.1626972541
 20
-26.5550547959
  0
LWPOLYLINE
  5
383
100
AcDbEntity
  8
ASSI
100
AcDbPolyline
 62
7
  6
CONTINUOUS
 90
10
 70
0
 10
4.6205134302
 20
-26.5385722489
 10
4.5720440138
 20
-26.533662306
 10
4.5229153569
 20
-26.5304181588
 10
4.4731274594
 20
-26.5288398144
 10
4.4226010166
 20
-26.5289012296
 10
4.3714153331
 20
-26.530628451
 10
4.3198083237
 20
-26.5340996145
 10
4.2678592931
 20
-26.5393407585
 10
4.2154889366
 20
-26.5463258244
 10
4.1626972541
 20
-26.5550547959
  0
LWPOLYLINE
  5
384
100
AcDbEntity
  8
0
100
AcDbPolyline
 62
7
  6
CONTINUOUS
 90
54
 70
0
 10
5.0422484297
 20
-26.1402838735
 10
5.0701353988
 20
-26.151398029
 10
5.0983415644
 20
-26.164763191
 10
5.1268669265
 20
-26.1803793207
 10
5.1558062844
 20
-26.1981676008
 10
5.1850648388
 20
-26.2182067527
 10
5.2143581916
 20
-26.24073303
 10
5.24390978
 20
-26.2657950284
 10
5.2734961668
 20
-26.2933439973
 10
5.302162643
 20
-26.3234701481
 10
5.3299558765
 20
-26.3564356806
 10
5.3568291994
 20
-26.3919781741
 10
5.3816878992
 20
-26.4294009248
 10
5.4043437068
 20
-26.4687295602
 10
5.4249848913
 20
-26.5099382586
 10
5.4430815476
 20
-26.5522532088
 10
5.4584477188
 20
-26.595921655
 10
5.4712693618
 20
-26.6406962118
 10
5.4815744417
 20
-26.6850612528
 10
5.4891561796
 20
-26.7288786296
 10
5.4942213544
 20
-26.772286538
 10
5.4974182674
 20
-26.8141840225
 10
5.4987946469
 20
-26.8542110875
 10
5.4983027645
 20
-26.8927279044
 10
5.4964477364
 20
-26.9297138285
 10
5.4932768252
 20
-26.9651241354
 10
5.4887427682
 20
-26.999003699
 10
5.4832088946
 20
-27.0314662644
 10
5.4766904815
 20
-27.062517988
 10
5.4691722517
 20
-27.0921528348
 10
5.4609717022
 20
-27.1204662489
 10
5.4521111294
 20
-27.1474422555
 10
5.442568237
 20
-27.1730969296
 10
5.4325936334
 20
-27.1975737789
 10
5.422210912
 20
-27.2208816506
 10
5.4113964794
 20
-27.2430117748
 10
5.4003301641
 20
-27.2640812218
 10
5.3890324731
 20
-27.2840899886
 10
5.3774828993
 20
-27.3030381388
 10
5.3657997501
 20
-27.3210428342
 10
5.3539875343
 20
-27.338106233
 10
5.3420417431
 20
-27.3542262233
 10
5.3300671576
 20
-27.3695135548
 10
5.3180573933
 20
-27.3839508065
 10
5.3060188345
 20
-27.3975554345
 10
5.2940754151
 20
-27.410490497
 10
5.2822398996
 20
-27.4227592804
 10
5.2704995234
 20
-27.434358522
 10
5.2589399266
 20
-27.445441451
 10
5.2475722245
 20
-27.4560220697
 10
5.2363853018
 20
-27.4660863914
 10
5.2254314522
 20
-27.4757456563
 10
5.2147372692
 20
-27.485016699
 10
5.2042761593
 20
-27.4938826956
  0
LWPOLYLINE
  5
385
100
AcDbEntity
  8
ASSI
100
AcDbPolyline
 62
7
  6
CONTINUOUS
 90
54
 70
0
 10
5.0422484297
 20
-26.1402838735
 10
5.0701353988
 20
-26.151398029
 10
5.0983415644
 20
-26.164763191
 10
5.1268669265
 20
-26.1803793207
 10
5.1558062844
 20
-26.1981676008
 10
5.1850648388
 20
-26.2182067527
 10
5.2143581916
 20
-26.24073303
 10
5.24390978
 20
-26.2657950284
 10
5.2734961668
 20
-26.2933439973
 10
5.302162643
 20
-26.3234701481
 10
5.3299558765
 20
-26.3564356806
 10
5.3568291994
 20
-26.3919781741
 10
5.3816878992
 20
-26.4294009248
 10
5.4043437068
 20
-26.4687295602
 10
5.4249848913
 20
-26.5099382586
 10
5.4430815476
 20
-26.5522532088
 10
5.4584477188
 20
-26.595921655
 10
5.4712693618
 20
-26.6406962118
 10
5.4815744417
 20
-26.6850612528
 10
5.4891561796
 20
-26.7288786296
 10
5.4942213544
 20
-26.772286538
 10
5.4974182674
 20
-26.8141840225
 10
5.4987946469
 20
-26.8542110875
 10
5.4983027645
 20
-26.8927279044
 10
5.4964477364
 20
-26.9297138285
 10
5.4932768252
 20
-26.9651241354
 10
5.4887427682
 20
-26.999003699
 10
5.4832088946
 20
-27.0314662644
 10
5.4766904815
 20
-27.062517988
 10
5.4691722517
 20
-27.0921528348
 10
5.4609717022
 20
-27.1204662489
 10
5.4521111294
 20
-27.1474422555
 10
5.442568237
 20
-27.1730969296
 10
5.4325936334
 20
-27.1975737789
 10
5.422210912
 20
-27.2208816506
 10
5.4113964794
 20
-27.2430117748
 10
5.4003301641
 20
-27.2640812218
 10
5.3890324731
 20
-27.2840899886
 10
5.3774828993
 20
-27.3030381388
 10
5.3657997501
 20
-27.3210428342
 10
5.3539875343
 20
-27.338106233
 10
5.3420417431
 20
-27.3542262233
 10
5.3300671576
 20
-27.3695135548
 10
5.3180573933
 20
-27.3839508065
 10
5.3060188345
 20
-27.3975554345
 10
5.2940754151
 20
-27.410490497
 10
5.2822398996
 20
-27.4227592804
 10
5.2704995234
 20
-27.434358522
 10
5.2589399266
 20
-27.445441451
 10
5.2475722245
 20
-27.4560220697
 10
5.2363853018
 20
-27.4660863914
 10
5.2254314522
 20
-27.4757456563
 10
5.2147372692
 20
-27.485016699
 10
5.2042761593
 20
-27.4938826956
  0
LINE
  5
386
100
AcDbEntity
  8
0
100
AcDbLine
 62
7
  6
CONTINUOUS
 10
5.1025031649
 20
-27.5709244369
 11
5.1283841821
 21
-27.5830382144
  0
LINE
  5
387
100
AcDbEntity
  8
ASSI
100
AcDbLine
 62
7
  6
CONTINUOUS
 10
5.1025031649
 20
-27.5709244369
 11
5.1283841821
 21
-27.5830382144
  0
LINE
  5
388
100
AcDbEntity
  8
0
100
AcDbLine
 62
7
  6
CONTINUOUS
 10
5.1283841821
 20
-27.5830382144
 11
5.1528515087
 21
-27.5967117984
  0
LINE
  5
389
100
AcDbEntity
  8
ASSI
100
AcDbLine
 62
7
  6
CONTINUOUS
 10
5.1283841821
 20
-27.5830382144
 11
5.1528515087
 21
-27.5967117984
  0
LWPOLYLINE
  5
38A
100
AcDbEntity
  8
0
100
AcDbPolyline
 62
7
  6
CONTINUOUS
 90
22
 70
0
 10
5.1528515087
 20
-27.5967117984
 10
5.1759051446
 20
-27.6119451581
 10
5.1975363753
 20
-27.6290155825
 10
5.2177539154
 20
-27.6476457054
 10
5.2365839085
 20
-27.6670035293
 10
5.2538997837
 20
-27.6869015673
 10
5.269828112
 20
-27.707527268
 10
5.2847747503
 20
-27.7286110663
 10
5.2988162633
 20
-27.7501649212
 10
5.3118760864
 20
-27.7721768442
 10
5.3241303828
 20
-27.7943413664
 10
5.3355926436
 20
-27.8166395252
 10
5.3462493776
 20
-27.8390902729
 10
5.3562362751
 20
-27.861445031
 10
5.3655502368
 20
-27.8836512754
 10
5.3741943621
 20
-27.9057615368
 10
5.3823136387
 20
-27.9276848303
 10
5.3898933073
 20
-27.9493581422
 10
5.3969481274
 20
-27.9708444987
 10
5.4036673654
 20
-27.9922419747
 10
5.4100376264
 20
-28.0135408995
 10
5.4160723053
 20
-28.034750949
  0
LWPOLYLINE
  5
38B
100
AcDbEntity
  8
ASSI
100
AcDbPolyline
 62
7
  6
CONTINUOUS
 90
22
 70
0
 10
5.1528515087
 20
-27.5967117984
 10
5.1759051446
 20
-27.6119451581
 10
5.1975363753
 20
-27.6290155825
 10
5.2177539154
 20
-27.6476457054
 10
5.2365839085
 20
-27.6670035293
 10
5.2538997837
 20
-27.6869015673
 10
5.269828112
 20
-27.707527268
 10
5.2847747503
 20
-27.7286110663
 10
5.2988162633
 20
-27.7501649212
 10
5.3118760864
 20
-27.7721768442
 10
5.3241303828
 20
-27.7943413664
 10
5.3355926436
 20
-27.8166395252
 10
5.3462493776
 20
-27.8390902729
 10
5.3562362751
 20
-27.861445031
 10
5.3655502368
 20
-27.8836512754
 10
5.3741943621
 20
-27.9057615368
 10
5.3823136387
 20
-27.9276848303
 10
5.3898933073
 20
-27.9493581422
 10
5.3969481274
 20
-27.9708444987
 10
5.4036673654
 20
-27.9922419747
 10
5.4100376264
 20
-28.0135408995
 10
5.4160723053
 20
-28.034750949
  0
LINE
  5
38C
100
AcDbEntity
  8
0
100
AcDbLine
 62
250
  6
CONTINUOUS
 10
-65.8626
 20
28.460705
 11
-66.08011
 21
28.639275
  0
LINE
  5
38D
100
AcDbEntity
  8
0
100
AcDbLine
 62
250
  6
CONTINUOUS
 10
-62.378229
 20
26.317865
 11
-62.165927
 21
26.079772
  0
LINE
  5
38E
100
AcDbEntity
  8
0
100
AcDbLine
 62
250
  6
CONTINUOUS
 10
-60.166464
 20
28.282135
 11
-60.378767
 21
28.520228
  0
LINE
  5
38F
100
AcDbEntity
  8
0
100
AcDbLine
 62
250
  6
CONTINUOUS
 10
-52.759285
 20
28.341658
 11
-52.653134
 21
28.222611
  0
LINE
  5
390
100
AcDbEntity
  8
0
100
AcDbLine
 62
250
  6
CONTINUOUS
 10
-52.457454
 20
28.460705
 11
-52.303434
 21
28.222611
  0
LWPOLYLINE
  5
391
100
AcDbEntity
  8
RACCORDO
100
AcDbPolyline
 62
250
  6
CONTINUOUS
 90
15
 70
0
 10
-79.2518755116
 20
-21.8667068282
 10
-79.2209153628
 20
-21.8657213525
 10
-79.1913839656
 20
-21.8646331723
 10
-79.1634356624
 20
-21.8634479747
 10
-79.1372165215
 20
-21.8621719542
 10
-79.1128635741
 20
-21.8608117796
 10
-79.0905040978
 20
-21.8593745597
 10
-79.0702549518
 20
-21.8578678061
 10
-79.0522219658
 20
-21.8562993935
 10
-79.0364993868
 20
-21.8546775191
 10
-79.0231693872
 20
-21.8530106594
 10
-79.0123016344
 20
-21.851307526
 10
-79.0039529276
 20
-21.8495770202
 10
-78.9981669001
 20
-21.8478281862
 10
-78.994973792
 20
-21.8460701642
  0
LWPOLYLINE
  5
392
100
AcDbEntity
  8
ASSI
100
AcDbPolyline
 62
250
  6
CONTINUOUS
 90
15
 70
0
 10
-79.2518755116
 20
-21.8667068282
 10
-79.2209153628
 20
-21.8657213525
 10
-79.1913839656
 20
-21.8646331723
 10
-79.1634356624
 20
-21.8634479747
 10
-79.1372165215
 20
-21.8621719542
 10
-79.1128635741
 20
-21.8608117796
 10
-79.0905040978
 20
-21.8593745597
 10
-79.0702549518
 20
-21.8578678061
 10
-79.0522219658
 20
-21.8562993935
 10
-79.0364993868
 20
-21.8546775191
 10
-79.0231693872
 20
-21.8530106594
 10
-79.0123016344
 20
-21.851307526
 10
-79.0039529276
 20
-21.8495770202
 10
-78.9981669001
 20
-21.8478281862
 10
-78.994973792
 20
-21.8460701642
  0
LINE
  5
393
100
AcDbEntity
  8
0
100
AcDbLine
 62
250
  6
CONTINUOUS
 10
-61.85368
 20
26.317865
 11
-62.018115
 21
26.436912
  0
LINE
  5
394
100
AcDbEntity
  8
0
100
AcDbLine
 62
250
  6
CONTINUOUS
 10
-60.691013
 20
28.282135
 11
-60.526579
 21
28.163088
  0
LINE
  5
395
100
AcDbEntity
  8
0
100
AcDbLine
 62
250
  6
CONTINUOUS
 10
-52.674963
 20
28.639275
 11
-52.457454
 21
28.460705
  0
LINE
  5
396
100
AcDbEntity
  8
0
100
AcDbLine
 62
7
  6
CONTINUOUS
 10
-0.774487
 20
-28.877801
 11
-1.460068
 21
-27.049647
  0
LINE
  5
397
100
AcDbEntity
  8
ASSI
100
AcDbLine
 62
7
  6
CONTINUOUS
 10
-0.774487
 20
-28.877801
 11
-1.460068
 21
-27.049647
  0
LINE
  5
398
100
AcDbEntity
  8
0
100
AcDbLine
 62
7
  6
CONTINUOUS
 10
-0.730314
 20
-27.632502
 11
-1.30855
 21
-26.078098
  0
LINE
  5
399
100
AcDbEntity
  8
ASSI
100
AcDbLine
 62
7
  6
CONTINUOUS
 10
-0.730314
 20
-27.632502
 11
-1.30855
 21
-26.078098
  0
LINE
  5
39A
100
AcDbEntity
  8
0
100
AcDbLine
 62
7
  6
CONTINUOUS
 10
-4.746107
 20
-28.877801
 11
-5.633668
 21
-26.078098
  0
LINE
  5
39B
100
AcDbEntity
  8
ASSI
100
AcDbLine
 62
7
  6
CONTINUOUS
 10
-4.746107
 20
-28.877801
 11
-5.633668
 21
-26.078098
  0
LINE
  5
39C
100
AcDbEntity
  8
0
100
AcDbLine
 62
7
  6
CONTINUOUS
 10
-4.465146
 20
-28.00522
 11
-4.99882
 21
-26.078098
  0
LINE
  5
39D
100
AcDbEntity
  8
ASSI
100
AcDbLine
 62
7
  6
CONTINUOUS
 10
-4.465146
 20
-28.00522
 11
-4.99882
 21
-26.078098
  0
LINE
  5
39E
100
AcDbEntity
  8
0
100
AcDbLine
 62
7
  6
CONTINUOUS
 10
0.694112
 20
-28.877801
 11
0.432308
 21
-26.078098
  0
LINE
  5
39F
100
AcDbEntity
  8
ASSI
100
AcDbLine
 62
7
  6
CONTINUOUS
 10
0.694112
 20
-28.877801
 11
0.432308
 21
-26.078098
  0
LINE
  5
3A0
100
AcDbEntity
  8
0
100
AcDbLine
 62
7
  6
CONTINUOUS
 10
0.122406
 20
-28.877801
 11
0.002337
 21
-27.057269
  0
LINE
  5
3A1
100
AcDbEntity
  8
ASSI
100
AcDbLine
 62
7
  6
CONTINUOUS
 10
0.122406
 20
-28.877801
 11
0.002337
 21
-27.057269
  0
LINE
  5
3A2
100
AcDbEntity
  8
0
100
AcDbLine
 62
7
  6
CONTINUOUS
 10
-3.034285
 20
-28.877801
 11
-3.034285
 21
-26.07793
  0
LINE
  5
3A3
100
AcDbEntity
  8
ASSI
100
AcDbLine
 62
7
  6
CONTINUOUS
 10
-3.034285
 20
-28.877801
 11
-3.034285
 21
-26.07793
  0
LINE
  5
3A4
100
AcDbEntity
  8
0
100
AcDbLine
 62
7
  6
CONTINUOUS
 10
-2.449877
 20
-28.877801
 11
-2.449877
 21
-26.07793
  0
LINE
  5
3A5
100
AcDbEntity
  8
ASSI
100
AcDbLine
 62
7
  6
CONTINUOUS
 10
-2.449877
 20
-28.877801
 11
-2.449877
 21
-26.07793
  0
LWPOLYLINE
  5
3A6
100
AcDbEntity
  8
0
100
AcDbPolyline
 62
7
  6
CONTINUOUS
 90
13
 70
0
 43
0.3500000006
 10
0.8571428254
 20
59.6071464844
 10
0.8571428254
 20
60.8928533936
 10
1.0714285848
 20
61.321431427
 10
1.5000000329
 20
61.7500003967
 10
1.7142856507
 20
61.7500003967
 10
2.1428571696
 20
61.321431427
 10
2.3571427875
 20
60.8928533936
 10
2.3571427875
 20
59.6071464844
 10
2.1428571696
 20
59.1785684509
 10
1.7142856507
 20
58.7499994812
 10
1.5000000329
 20
58.7499994812
 10
1.0714285848
 20
59.1785684509
 10
0.8571428254
 20
59.6071464844
  0
LINE
  5
3A7
100
AcDbEntity
  8
0
100
AcDbLine
 62
7
  6
CONTINUOUS
 10
-1.586183
 20
-28.877801
 11
-1.460068
 21
-27.049647
  0
LINE
  5
3A8
100
AcDbEntity
  8
ASSI
100
AcDbLine
 62
7
  6
CONTINUOUS
 10
-1.586183
 20
-28.877801
 11
-1.460068
 21
-27.049647
  0
LINE
  5
3A9
100
AcDbEntity
  8
0
100
AcDbLine
 62
7
  6
CONTINUOUS
 10
-2.145272
 20
-28.877801
 11
-1.892475
 21
-26.078098
  0
LINE
  5
3AA
100
AcDbEntity
  8
ASSI
100
AcDbLine
 62
7
  6
CONTINUOUS
 10
-2.145272
 20
-28.877801
 11
-1.892475
 21
-26.078098
  0
LWPOLYLINE
  5
3AB
100
AcDbEntity
  8
0
100
AcDbPolyline
 62
7
  6
CONTINUOUS
 90
13
 70
0
 43
0.3500000006
 10
156.3928511353
 20
-0.0000003204
 10
155.1071442261
 20
-0.0000003204
 10
154.6785752563
 20
0.2142864304
 10
154.2500062866
 20
0.642857666
 10
154.2500062866
 20
0.8571421509
 10
154.6785752563
 20
1.2857133865
 10
155.1071442261
 20
1.5000001373
 10
156.3928511353
 20
1.5000001373
 10
156.821420105
 20
1.2857133865
 10
157.2500072021
 20
0.8571421509
 10
157.2500072021
 20
0.642857666
 10
156.821420105
 20
0.2142864304
 10
156.3928511353
 20
-0.0000003204
  0
LINE
  5
3AC
100
AcDbEntity
  8
0
100
AcDbLine
 62
250
  6
CONTINUOUS
 10
-65.966752
 20
27.270238
 11
-66.078111
 21
27.329762
  0
LINE
  5
3AD
100
AcDbEntity
  8
0
100
AcDbLine
 62
250
  6
CONTINUOUS
 10
-62.165927
 20
26.079772
 11
-61.943209
 21
25.960725
  0
LINE
  5
3AE
100
AcDbEntity
  8
0
100
AcDbLine
 62
250
  6
CONTINUOUS
 10
-60.378767
 20
28.520228
 11
-60.601485
 21
28.639275
  0
LWPOLYLINE
  5
3AF
100
AcDbEntity
  8
0
100
AcDbPolyline
 62
7
  6
CONTINUOUS
 90
19
 70
0
 10
4.8214020629
 20
-28.0286629556
 10
4.8116082022
 20
-28.0047721609
 10
4.800636487
 20
-27.9817334922
 10
4.7884869172
 20
-27.9595469788
 10
4.7751557953
 20
-27.9381367016
 10
4.7606468188
 20
-27.9175786339
 10
4.7449710802
 20
-27.8981006494
 10
4.7280323831
 20
-27.8795925612
 10
4.7099269238
 20
-27.862164615
 10
4.6909543843
 20
-27.8463753516
 10
4.6710658471
 20
-27.8323499018
 10
4.6503102296
 20
-27.8199632084
 10
4.6291339665
 20
-27.8093985416
 10
4.6076382668
 20
-27.8008091909
 10
4.5857219215
 20
-27.7940419193
 10
4.5635277376
 20
-27.7888202013
 10
4.5411033177
 20
-27.7850518673
 10
4.5184010592
 20
-27.7828291068
 10
4.4954209623
 20
-27.7821519248
  0
LWPOLYLINE
  5
3B0
100
AcDbEntity
  8
ASSI
100
AcDbPolyline
 62
7
  6
CONTINUOUS
 90
19
 70
0
 10
4.8214020629
 20
-28.0286629556
 10
4.8116082022
 20
-28.0047721609
 10
4.800636487
 20
-27.9817334922
 10
4.7884869172
 20
-27.9595469788
 10
4.7751557953
 20
-27.9381367016
 10
4.7606468188
 20
-27.9175786339
 10
4.7449710802
 20
-27.8981006494
 10
4.7280323831
 20
-27.8795925612
 10
4.7099269238
 20
-27.862164615
 10
4.6909543843
 20
-27.8463753516
 10
4.6710658471
 20
-27.8323499018
 10
4.6503102296
 20
-27.8199632084
 10
4.6291339665
 20
-27.8093985416
 10
4.6076382668
 20
-27.8008091909
 10
4.5857219215
 20
-27.7940419193
 10
4.5635277376
 20
-27.7888202013
 10
4.5411033177
 20
-27.7850518673
 10
4.5184010592
 20
-27.7828291068
 10
4.4954209623
 20
-27.7821519248
  0
LINE
  5
3B1
100
AcDbEntity
  8
0
100
AcDbLine
 62
7
  6
CONTINUOUS
 10
3.298408
 20
-28.877801
 11
2.43939
 21
-26.078098
  0
LINE
  5
3B2
100
AcDbEntity
  8
ASSI
100
AcDbLine
 62
7
  6
CONTINUOUS
 10
3.298408
 20
-28.877801
 11
2.43939
 21
-26.078098
  0
LWPOLYLINE
  5
3B3
100
AcDbEntity
  8
0
100
AcDbPolyline
 62
7
  6
CONTINUOUS
 90
8
 70
0
 10
4.9109651014
 20
-28.3034511535
 10
4.8992803262
 20
-28.2638852554
 10
4.8873390935
 20
-28.2244272539
 10
4.8751411814
 20
-28.1850822008
 10
4.8624701648
 20
-28.1458347701
 10
4.849253902
 20
-28.1066798579
 10
4.8355645347
 20
-28.0676225838
 10
4.8214020629
 20
-28.0286629556
  0
LWPOLYLINE
  5
3B4
100
AcDbEntity
  8
ASSI
100
AcDbPolyline
 62
7
  6
CONTINUOUS
 90
8
 70
0
 10
4.9109651014
 20
-28.3034511535
 10
4.8992803262
 20
-28.2638852554
 10
4.8873390935
 20
-28.2244272539
 10
4.8751411814
 20
-28.1850822008
 10
4.8624701648
 20
-28.1458347701
 10
4.849253902
 20
-28.1066798579
 10
4.8355645347
 20
-28.0676225838
 10
4.8214020629
 20
-28.0286629556
  0
LINE
  5
3B5
100
AcDbEntity
  8
0
100
AcDbLine
 62
7
  6
CONTINUOUS
 10
5.0770156219
 20
-28.8778013544
 11
4.9795590686
 21
-28.5437655356
  0
LINE
  5
3B6
100
AcDbEntity
  8
ASSI
100
AcDbLine
 62
7
  6
CONTINUOUS
 10
5.0770156219
 20
-28.8778013544
 11
4.9795590686
 21
-28.5437655356
  0
LWPOLYLINE
  5
3B7
100
AcDbEntity
  8
0
100
AcDbPolyline
 62
7
  6
CONTINUOUS
 90
4
 70
0
 10
4.9795590686
 20
-28.5437655356
 10
4.9564588983
 20
-28.4630199569
 10
4.9451400957
 20
-28.4229143949
 10
4.9109651014
 20
-28.3034511535
  0
LWPOLYLINE
  5
3B8
100
AcDbEntity
  8
ASSI
100
AcDbPolyline
 62
7
  6
CONTINUOUS
 90
4
 70
0
 10
4.9795590686
 20
-28.5437655356
 10
4.9564588983
 20
-28.4630199569
 10
4.9451400957
 20
-28.4229143949
 10
4.9109651014
 20
-28.3034511535
  0
LWPOLYLINE
  5
3B9
100
AcDbEntity
  8
0
100
AcDbPolyline
 62
7
  6
CONTINUOUS
 90
3
 70
0
 10
5.4160723053
 20
-28.034750949
 10
5.4278997569
 20
-28.0773280419
 10
5.4336925294
 20
-28.0986950814
  0
LWPOLYLINE
  5
3BA
100
AcDbEntity
  8
ASSI
100
AcDbPolyline
 62
7
  6
CONTINUOUS
 90
3
 70
0
 10
5.4160723053
 20
-28.034750949
 10
5.4278997569
 20
-28.0773280419
 10
5.4336925294
 20
-28.0986950814
  0
LINE
  5
3BB
100
AcDbEntity
  8
0
100
AcDbLine
 62
7
  6
CONTINUOUS
 10
2.682466
 20
-28.877801
 11
2.531074
 21
-28.318881
  0
LINE
  5
3BC
100
AcDbEntity
  8
ASSI
100
AcDbLine
 62
7
  6
CONTINUOUS
 10
2.682466
 20
-28.877801
 11
2.531074
 21
-28.318881
  0
LINE
  5
3BD
100
AcDbEntity
  8
0
100
AcDbLine
 62
7
  6
CONTINUOUS
 10
5.4336925294
 20
-28.0986950814
 11
5.5092367565
 21
-28.3820251767
  0
LINE
  5
3BE
100
AcDbEntity
  8
ASSI
100
AcDbLine
 62
7
  6
CONTINUOUS
 10
5.4336925294
 20
-28.0986950814
 11
5.5092367565
 21
-28.3820251767
  0
LINE
  5
3BF
100
AcDbEntity
  8
0
100
AcDbLine
 62
7
  6
CONTINUOUS
 10
5.5092367565
 20
-28.3820251767
 11
5.6391482119
 21
-28.8778013544
  0
LINE
  5
3C0
100
AcDbEntity
  8
ASSI
100
AcDbLine
 62
7
  6
CONTINUOUS
 10
5.5092367565
 20
-28.3820251767
 11
5.6391482119
 21
-28.8778013544
  0
LINE
  5
3C1
100
AcDbEntity
  8
0
100
AcDbLine
 62
7
  6
CONTINUOUS
 10
2.41428
 20
-27.886391
 11
2.145737
 21
-26.847385
  0
LINE
  5
3C2
100
AcDbEntity
  8
ASSI
100
AcDbLine
 62
7
  6
CONTINUOUS
 10
2.41428
 20
-27.886391
 11
2.145737
 21
-26.847385
  0
LWPOLYLINE
  5
3C3
100
AcDbEntity
  8
0
100
AcDbPolyline
 62
7
  6
CONTINUOUS
 90
22
 70
0
 10
4.9506521457
 20
-26.8887857288
 10
4.9495401395
 20
-26.86578158
 10
4.9468534863
 20
-26.8428032744
 10
4.9425921863
 20
-26.8198508132
 10
4.9367881389
 20
-26.7968235191
 10
4.9294094446
 20
-26.7738220699
 10
4.9203604051
 20
-26.7511485092
 10
4.9096233433
 20
-26.7287084302
 10
4.8972159363
 20
-26.7065962586
 10
4.8830955165
 20
-26.6853973134
 10
4.867107692
 20
-26.6651059335
 10
4.8494068547
 20
-26.6457278314
 10
4.8304135131
 20
-26.6278654173
 10
4.8100869667
 20
-26.6116975666
 10
4.7884679159
 20
-26.5970454759
 10
4.7660989714
 20
-26.5839750495
 10
4.7430391263
 20
-26.5725204308
 10
4.7192293874
 20
-26.5626475284
 10
4.6950353853
 20
-26.5543198909
 10
4.6705789968
 20
-26.5475253776
 10
4.6457383451
 20
-26.5422761601
 10
4.6205134302
 20
-26.5385722489
  0
LWPOLYLINE
  5
3C4
100
AcDbEntity
  8
ASSI
100
AcDbPolyline
 62
7
  6
CONTINUOUS
 90
22
 70
0
 10
4.9506521457
 20
-26.8887857288
 10
4.9495401395
 20
-26.86578158
 10
4.9468534863
 20
-26.8428032744
 10
4.9425921863
 20
-26.8198508132
 10
4.9367881389
 20
-26.7968235191
 10
4.9294094446
 20
-26.7738220699
 10
4.9203604051
 20
-26.7511485092
 10
4.9096233433
 20
-26.7287084302
 10
4.8972159363
 20
-26.7065962586
 10
4.8830955165
 20
-26.6853973134
 10
4.867107692
 20
-26.6651059335
 10
4.8494068547
 20
-26.6457278314
 10
4.8304135131
 20
-26.6278654173
 10
4.8100869667
 20
-26.6116975666
 10
4.7884679159
 20
-26.5970454759
 10
4.7660989714
 20
-26.5839750495
 10
4.7430391263
 20
-26.5725204308
 10
4.7192293874
 20
-26.5626475284
 10
4.6950353853
 20
-26.5543198909
 10
4.6705789968
 20
-26.5475253776
 10
4.6457383451
 20
-26.5422761601
 10
4.6205134302
 20
-26.5385722489
  0
LINE
  5
3C5
100
AcDbEntity
  8
0
100
AcDbLine
 62
7
  6
CONTINUOUS
 10
3.6000188023
 20
-28.8778013544
 11
3.6000188023
 21
-26.110807341
  0
LINE
  5
3C6
100
AcDbEntity
  8
ASSI
100
AcDbLine
 62
7
  6
CONTINUOUS
 10
3.6000188023
 20
-28.8778013544
 11
3.6000188023
 21
-26.110807341
  0
LINE
  5
3C7
100
AcDbEntity
  8
0
100
AcDbLine
 62
7
  6
CONTINUOUS
 10
4.1626972541
 20
-27.3236280866
 11
4.1626972541
 21
-26.5550547959
  0
LINE
  5
3C8
100
AcDbEntity
  8
ASSI
100
AcDbLine
 62
7
  6
CONTINUOUS
 10
4.1626972541
 20
-27.3236280866
 11
4.1626972541
 21
-26.5550547959
  0
LINE
  5
3C9
100
AcDbEntity
  8
0
100
AcDbLine
 62
7
  6
CONTINUOUS
 10
4.1820753449
 20
-28.8778013544
 11
4.1820753449
 21
-27.7821519248
  0
LINE
  5
3CA
100
AcDbEntity
  8
ASSI
100
AcDbLine
 62
7
  6
CONTINUOUS
 10
4.1820753449
 20
-28.8778013544
 11
4.1820753449
 21
-27.7821519248
  0
LINE
  5
3CB
100
AcDbEntity
  8
0
100
AcDbLine
 62
7
  6
CONTINUOUS
 10
5.1025031649
 20
-27.5709244369
 11
5.1025031649
 21
-27.554380628
  0
LINE
  5
3CC
100
AcDbEntity
  8
ASSI
100
AcDbLine
 62
7
  6
CONTINUOUS
 10
5.1025031649
 20
-27.5709244369
 11
5.1025031649
 21
-27.554380628
  0
LINE
  5
3CD
100
AcDbEntity
  8
0
100
AcDbLine
 62
7
  6
CONTINUOUS
 10
1.854751
 20
-27.886391
 11
2.145737
 21
-26.847385
  0
LINE
  5
3CE
100
AcDbEntity
  8
ASSI
100
AcDbLine
 62
7
  6
CONTINUOUS
 10
1.854751
 20
-27.886391
 11
2.145737
 21
-26.847385
  0
LINE
  5
3CF
100
AcDbEntity
  8
0
100
AcDbLine
 62
7
  6
CONTINUOUS
 10
-4.465146
 20
-28.00522
 11
-3.915169
 21
-26.078098
  0
LINE
  5
3D0
100
AcDbEntity
  8
ASSI
100
AcDbLine
 62
7
  6
CONTINUOUS
 10
-4.465146
 20
-28.00522
 11
-3.915169
 21
-26.078098
  0
LINE
  5
3D1
100
AcDbEntity
  8
0
100
AcDbLine
 62
7
  6
CONTINUOUS
 10
1.573947
 20
-28.877801
 11
1.735207
 21
-28.318881
  0
LINE
  5
3D2
100
AcDbEntity
  8
ASSI
100
AcDbLine
 62
7
  6
CONTINUOUS
 10
1.573947
 20
-28.877801
 11
1.735207
 21
-28.318881
  0
LINE
  5
3D3
100
AcDbEntity
  8
0
100
AcDbLine
 62
7
  6
CONTINUOUS
 10
0.99588
 20
-28.877801
 11
1.874045
 21
-26.078098
  0
LINE
  5
3D4
100
AcDbEntity
  8
ASSI
100
AcDbLine
 62
7
  6
CONTINUOUS
 10
0.99588
 20
-28.877801
 11
1.874045
 21
-26.078098
  0
LINE
  5
3D5
100
AcDbEntity
  8
0
100
AcDbLine
 62
7
  6
CONTINUOUS
 10
-4.231097
 20
-28.877801
 11
-3.33116
 21
-26.078098
  0
LINE
  5
3D6
100
AcDbEntity
  8
ASSI
100
AcDbLine
 62
7
  6
CONTINUOUS
 10
-4.231097
 20
-28.877801
 11
-3.33116
 21
-26.078098
  0
LINE
  5
3D7
100
AcDbEntity
  8
0
100
AcDbLine
 62
7
  6
CONTINUOUS
 10
-0.730314
 20
-27.632502
 11
-0.145906
 21
-26.078098
  0
LINE
  5
3D8
100
AcDbEntity
  8
ASSI
100
AcDbLine
 62
7
  6
CONTINUOUS
 10
-0.730314
 20
-27.632502
 11
-0.145906
 21
-26.078098
  0
LINE
  5
3D9
100
AcDbEntity
  8
0
100
AcDbLine
 62
7
  6
CONTINUOUS
 10
-0.692524
 20
-28.877801
 11
0.002337
 21
-27.057269
  0
LINE
  5
3DA
100
AcDbEntity
  8
ASSI
100
AcDbLine
 62
7
  6
CONTINUOUS
 10
-0.692524
 20
-28.877801
 11
0.002337
 21
-27.057269
  0
LINE
  5
3DB
100
AcDbEntity
  8
0
100
AcDbLine
 62
250
  6
CONTINUOUS
 10
-61.625755
 20
26.258342
 11
-61.85368
 21
26.317865
  0
LINE
  5
3DC
100
AcDbEntity
  8
0
100
AcDbLine
 62
250
  6
CONTINUOUS
 10
-66.273791
 20
27.091668
 11
-66.443433
 21
27.151192
  0
LINE
  5
3DD
100
AcDbEntity
  8
0
100
AcDbLine
 62
250
  6
CONTINUOUS
 10
-66.339281
 20
28.341658
 11
-66.169639
 21
28.282135
  0
LINE
  5
3DE
100
AcDbEntity
  8
0
100
AcDbLine
 62
250
  6
CONTINUOUS
 10
-52.928927
 20
28.401181
 11
-52.759285
 21
28.341658
  0
LWPOLYLINE
  5
3DF
100
AcDbEntity
  8
RACCORDO
100
AcDbPolyline
 62
250
  6
CONTINUOUS
 90
15
 70
0
 10
79.2518755116
 20
21.8667068282
 10
79.2209153628
 20
21.8657213525
 10
79.1913839656
 20
21.8646331723
 10
79.1634356624
 20
21.8634479747
 10
79.1372165215
 20
21.8621719542
 10
79.1128635741
 20
21.8608117796
 10
79.0905040978
 20
21.8593745597
 10
79.0702549518
 20
21.8578678061
 10
79.0522219658
 20
21.8562993935
 10
79.0364993868
 20
21.8546775191
 10
79.0231693872
 20
21.8530106594
 10
79.0123016344
 20
21.851307526
 10
79.0039529276
 20
21.8495770202
 10
78.9981669001
 20
21.8478281862
 10
78.994973792
 20
21.8460701642
  0
LWPOLYLINE
  5
3E0
100
AcDbEntity
  8
ASSI
100
AcDbPolyline
 62
250
  6
CONTINUOUS
 90
15
 70
0
 10
79.2518755116
 20
21.8667068282
 10
79.2209153628
 20
21.8657213525
 10
79.1913839656
 20
21.8646331723
 10
79.1634356624
 20
21.8634479747
 10
79.1372165215
 20
21.8621719542
 10
79.1128635741
 20
21.8608117796
 10
79.0905040978
 20
21.8593745597
 10
79.0702549518
 20
21.8578678061
 10
79.0522219658
 20
21.8562993935
 10
79.0364993868
 20
21.8546775191
 10
79.0231693872
 20
21.8530106594
 10
79.0123016344
 20
21.851307526
 10
79.0039529276
 20
21.8495770202
 10
78.9981669001
 20
21.8478281862
 10
78.994973792
 20
21.8460701642
  0
LINE
  5
3E1
100
AcDbEntity
  8
RACCORDO
100
AcDbLine
 62
250
  6
CONTINUOUS
 10
79.3174282049
 20
21.8683496278
 11
79.2518755116
 21
21.8667068282
  0
LINE
  5
3E2
100
AcDbEntity
  8
ASSI
100
AcDbLine
 62
250
  6
CONTINUOUS
 10
79.3174282049
 20
21.8683496278
 11
79.2518755116
 21
21.8667068282
  0
LINE
  5
3E3
100
AcDbEntity
  8
RACCORDO
100
AcDbLine
 62
250
  6
CONTINUOUS
 10
79.3866734236
 20
21.8695272723
 11
79.3174282049
 21
21.8683496278
  0
LINE
  5
3E4
100
AcDbEntity
  8
ASSI
100
AcDbLine
 62
250
  6
CONTINUOUS
 10
79.3866734236
 20
21.8695272723
 11
79.3174282049
 21
21.8683496278
  0
LWPOLYLINE
  5
3E5
100
AcDbEntity
  8
RACCORDO
100
AcDbPolyline
 62
250
  6
CONTINUOUS
 90
3
 70
0
 10
79.4942885593
 20
21.8703705753
 10
79.4581654523
 20
21.8702151746
 10
79.3866734236
 20
21.8695272723
  0
LWPOLYLINE
  5
3E6
100
AcDbEntity
  8
ASSI
100
AcDbPolyline
 62
250
  6
CONTINUOUS
 90
3
 70
0
 10
79.4942885593
 20
21.8703705753
 10
79.4581654523
 20
21.8702151746
 10
79.3866734236
 20
21.8695272723
  0
LINE
  5
3E7
100
AcDbEntity
  8
CURVE_VERNICE
100
AcDbLine
 62
250
  6
CONTINUOUS
 10
-77.85
 20
22.4
 11
77.85
 21
22.4
  0
LINE
  5
3E8
100
AcDbEntity
  8
ASSI
100
AcDbLine
 62
250
  6
CONTINUOUS
 10
-77.85
 20
22.4
 11
77.85
 21
22.4
  0
LINE
  5
3E9
100
AcDbEntity
  8
RACCORDO
100
AcDbLine
 62
250
  6
CONTINUOUS
 10
-79.4942885593
 20
21.8703705135
 11
-79.4222310543
 21
21.869933534
  0
LINE
  5
3EA
100
AcDbEntity
  8
ASSI
100
AcDbLine
 62
250
  6
CONTINUOUS
 10
-79.4942885593
 20
21.8703705135
 11
-79.4222310543
 21
21.869933534
  0
LINE
  5
3EB
100
AcDbEntity
  8
RACCORDO
100
AcDbLine
 62
250
  6
CONTINUOUS
 10
-79.4222310543
 20
21.869933534
 11
-79.3516779488
 21
21.8689983278
  0
LINE
  5
3EC
100
AcDbEntity
  8
ASSI
100
AcDbLine
 62
250
  6
CONTINUOUS
 10
-79.4222310543
 20
21.869933534
 11
-79.3516779488
 21
21.8689983278
  0
LWPOLYLINE
  5
3ED
100
AcDbEntity
  8
RACCORDO
100
AcDbPolyline
 62
250
  6
CONTINUOUS
 90
17
 70
0
 10
-79.3516779488
 20
21.8689983278
 10
-79.2841022714
 20
21.8675844206
 10
-79.2518751089
 20
21.8667068041
 10
-79.220914887
 20
21.8657213323
 10
-79.1913834163
 20
21.8646331554
 10
-79.1634350402
 20
21.8634479609
 10
-79.1372158282
 20
21.862171943
 10
-79.1128628124
 20
21.8608117707
 10
-79.0905032715
 20
21.8593745528
 10
-79.0702540653
 20
21.8578678008
 10
-79.0522210245
 20
21.8562993896
 10
-79.036498397
 20
21.8546775162
 10
-79.0231683554
 20
21.8530106574
 10
-79.012300568
 20
21.8513075247
 10
-79.0039518343
 20
21.8495770194
 10
-78.998165788
 20
21.8478281859
 10
-78.9949726693
 20
21.8460701642
  0
LWPOLYLINE
  5
3EE
100
AcDbEntity
  8
ASSI
100
AcDbPolyline
 62
250
  6
CONTINUOUS
 90
17
 70
0
 10
-79.3516779488
 20
21.8689983278
 10
-79.2841022714
 20
21.8675844206
 10
-79.2518751089
 20
21.8667068041
 10
-79.220914887
 20
21.8657213323
 10
-79.1913834163
 20
21.8646331554
 10
-79.1634350402
 20
21.8634479609
 10
-79.1372158282
 20
21.862171943
 10
-79.1128628124
 20
21.8608117707
 10
-79.0905032715
 20
21.8593745528
 10
-79.0702540653
 20
21.8578678008
 10
-79.0522210245
 20
21.8562993896
 10
-79.036498397
 20
21.8546775162
 10
-79.0231683554
 20
21.8530106574
 10
-79.012300568
 20
21.8513075247
 10
-79.0039518343
 20
21.8495770194
 10
-78.998165788
 20
21.8478281859
 10
-78.9949726693
 20
21.8460701642
  0
LINE
  5
3EF
100
AcDbEntity
  8
0
100
AcDbLine
 62
250
  6
CONTINUOUS
 10
-61.943209
 20
25.960725
 11
-61.657001
 21
25.901202
  0
LINE
  5
3F0
100
AcDbEntity
  8
0
100
AcDbLine
 62
250
  6
CONTINUOUS
 10
-66.08011
 20
28.639275
 11
-66.366318
 21
28.698798
  0
LINE
  5
3F1
100
AcDbEntity
  8
0
100
AcDbLine
 62
250
  6
CONTINUOUS
 10
-60.601485
 20
28.639275
 11
-60.887694
 21
28.698798
  0
LINE
  5
3F2
100
AcDbEntity
  8
0
100
AcDbLine
 62
250
  6
CONTINUOUS
 10
-52.961172
 20
28.698798
 11
-52.674963
 21
28.639275
  0
LINE
  5
3F3
100
AcDbEntity
  8
0
100
AcDbLine
 62
250
  6
CONTINUOUS
 10
-60.918939
 20
28.341658
 11
-60.691013
 21
28.282135
  0
LWPOLYLINE
  5
3F4
100
AcDbEntity
  8
0
100
AcDbPolyline
 62
7
  6
CONTINUOUS
 90
10
 70
0
 10
5.2042761593
 20
-27.4938826956
 10
5.1840365037
 20
-27.5106774863
 10
5.1742579579
 20
-27.5186062878
 10
5.1644601066
 20
-27.5259644967
 10
5.1546537127
 20
-27.5327988469
 10
5.1448280133
 20
-27.5390626158
 10
5.134725827
 20
-27.5443893205
 10
5.1242614265
 20
-27.5486568056
 10
5.1135205392
 20
-27.55198724
 10
5.1025031649
 20
-27.554380628
  0
LWPOLYLINE
  5
3F5
100
AcDbEntity
  8
ASSI
100
AcDbPolyline
 62
7
  6
CONTINUOUS
 90
10
 70
0
 10
5.2042761593
 20
-27.4938826956
 10
5.1840365037
 20
-27.5106774863
 10
5.1742579579
 20
-27.5186062878
 10
5.1644601066
 20
-27.5259644967
 10
5.1546537127
 20
-27.5327988469
 10
5.1448280133
 20
-27.5390626158
 10
5.134725827
 20
-27.5443893205
 10
5.1242614265
 20
-27.5486568056
 10
5.1135205392
 20
-27.55198724
 10
5.1025031649
 20
-27.554380628
  0
LINE
  5
3F6
100
AcDbEntity
  8
RACCORDO
100
AcDbLine
 62
250
  6
CONTINUOUS
 10
79.0514776639
 20
22.5351112978
 11
79.0014999892
 21
22.4942304236
  0
LINE
  5
3F7
100
AcDbEntity
  8
ASSI
100
AcDbLine
 62
250
  6
CONTINUOUS
 10
79.0514776639
 20
22.5351112978
 11
79.0014999892
 21
22.4942304236
  0
LINE
  5
3F8
100
AcDbEntity
  8
RACCORDO
100
AcDbLine
 62
250
  6
CONTINUOUS
 10
79.1049766274
 20
22.5782639274
 11
79.0514776639
 21
22.5351112978
  0
LINE
  5
3F9
100
AcDbEntity
  8
ASSI
100
AcDbLine
 62
250
  6
CONTINUOUS
 10
79.1049766274
 20
22.5782639274
 11
79.0514776639
 21
22.5351112978
  0
LINE
  5
3FA
100
AcDbEntity
  8
RACCORDO
100
AcDbLine
 62
250
  6
CONTINUOUS
 10
79.1608653092
 20
22.6227755802
 11
79.1049766274
 21
22.5782639274
  0
LINE
  5
3FB
100
AcDbEntity
  8
ASSI
100
AcDbLine
 62
250
  6
CONTINUOUS
 10
79.1608653092
 20
22.6227755802
 11
79.1049766274
 21
22.5782639274
  0
LINE
  5
3FC
100
AcDbEntity
  8
RACCORDO
100
AcDbLine
 62
250
  6
CONTINUOUS
 10
79.2179615936
 20
22.6677047787
 11
79.1608653092
 21
22.6227755802
  0
LINE
  5
3FD
100
AcDbEntity
  8
ASSI
100
AcDbLine
 62
250
  6
CONTINUOUS
 10
79.2179615936
 20
22.6677047787
 11
79.1608653092
 21
22.6227755802
  0
LWPOLYLINE
  5
3FE
100
AcDbEntity
  8
RACCORDO
100
AcDbPolyline
 62
250
  6
CONTINUOUS
 90
17
 70
0
 10
-104.4931469952
 20
22.667357485
 10
-104.5178871764
 20
22.6670254536
 10
-104.5420930804
 20
22.6665907705
 10
-104.5655925401
 20
22.6660565274
 10
-104.5882184131
 20
22.6654265242
 10
-104.6098097706
 20
22.6647052419
 10
-104.6302130418
 20
22.6638978107
 10
-104.6492831063
 20
22.6630099734
 10
-104.6668843261
 20
22.6620480449
 10
-104.6828915109
 20
22.6610188671
 10
-104.6971908078
 20
22.65992976
 10
-104.7096805115
 20
22.6587884702
 10
-104.7202717878
 20
22.657603115
 10
-104.7288893051
 20
22.6563821255
 10
-104.7354717704
 20
22.6551341861
 10
-104.7399723652
 20
22.6538681728
 10
-104.7423590785
 20
22.6525930904
  0
LWPOLYLINE
  5
3FF
100
AcDbEntity
  8
ASSI
100
AcDbPolyline
 62
250
  6
CONTINUOUS
 90
17
 70
0
 10
-104.4931469952
 20
22.667357485
 10
-104.5178871764
 20
22.6670254536
 10
-104.5420930804
 20
22.6665907705
 10
-104.5655925401
 20
22.6660565274
 10
-104.5882184131
 20
22.6654265242
 10
-104.6098097706
 20
22.6647052419
 10
-104.6302130418
 20
22.6638978107
 10
-104.6492831063
 20
22.6630099734
 10
-104.6668843261
 20
22.6620480449
 10
-104.6828915109
 20
22.6610188671
 10
-104.6971908078
 20
22.65992976
 10
-104.7096805115
 20
22.6587884702
 10
-104.7202717878
 20
22.657603115
 10
-104.7288893051
 20
22.6563821255
 10
-104.7354717704
 20
22.6551341861
 10
-104.7399723652
 20
22.6538681728
 10
-104.7423590785
 20
22.6525930904
  0
LINE
  5
400
100
AcDbEntity
  8
RACCORDO
100
AcDbLine
 62
250
  6
CONTINUOUS
 10
-104.4427702181
 20
22.6677048931
 11
-104.4931469952
 21
22.667357485
  0
LINE
  5
401
100
AcDbEntity
  8
ASSI
100
AcDbLine
 62
250
  6
CONTINUOUS
 10
-104.4427702181
 20
22.6677048931
 11
-104.4931469952
 21
22.667357485
  0
LINE
  5
402
100
AcDbEntity
  8
0
100
AcDbLine
 62
7
  6
CONTINUOUS
 10
-78.0510963722
 20
22.5
 11
78.0510963722
 21
22.5
  0
LINE
  5
403
100
AcDbEntity
  8
ASSI
100
AcDbLine
 62
7
  6
CONTINUOUS
 10
-78.0510963722
 20
22.5
 11
78.0510963722
 21
22.5
  0
LINE
  5
404
100
AcDbEntity
  8
RACCORDO
100
AcDbLine
 62
250
  6
CONTINUOUS
 10
-78.1926713554
 20
22.6415492726
 11
78.1926541173
 21
22.6415492726
  0
LINE
  5
405
100
AcDbEntity
  8
ASSI
100
AcDbLine
 62
250
  6
CONTINUOUS
 10
-78.1926713554
 20
22.6415492726
 11
78.1926541173
 21
22.6415492726
  0
LINE
  5
406
100
AcDbEntity
  8
RACCORDO
100
AcDbLine
 62
250
  6
CONTINUOUS
 10
-104.4427701042
 20
22.6676474049
 11
-79.2179615936
 21
22.6677048937
  0
LINE
  5
407
100
AcDbEntity
  8
ASSI
100
AcDbLine
 62
250
  6
CONTINUOUS
 10
-104.4427701042
 20
22.6676474049
 11
-79.2179615936
 21
22.6677048937
  0
LINE
  5
408
100
AcDbEntity
  8
RACCORDO
100
AcDbLine
 62
250
  6
CONTINUOUS
 10
79.2179615936
 20
22.6677048937
 11
104.4427701039
 21
22.667647257
  0
LINE
  5
409
100
AcDbEntity
  8
ASSI
100
AcDbLine
 62
250
  6
CONTINUOUS
 10
79.2179615936
 20
22.6677048937
 11
104.4427701039
 21
22.667647257
  0
LINE
  5
40A
100
AcDbEntity
  8
RACCORDO
100
AcDbLine
 62
250
  6
CONTINUOUS
 10
-78.1926456448
 20
23.1675430277
 11
78.1926456448
 21
23.1675430277
  0
LINE
  5
40B
100
AcDbEntity
  8
ASSI
100
AcDbLine
 62
250
  6
CONTINUOUS
 10
-78.1926456448
 20
23.1675430277
 11
78.1926456448
 21
23.1675430277
  0
LINE
  5
40C
100
AcDbEntity
  8
0
100
AcDbLine
 62
250
  6
CONTINUOUS
 10
-80.34927
 20
25.301717
 11
-78.65073
 21
25.301717
  0
LINE
  5
40D
100
AcDbEntity
  8
0
100
AcDbLine
 62
250
  6
CONTINUOUS
 10
-80.249356
 20
25.401631
 11
-78.750644
 21
25.401631
  0
LINE
  5
40E
100
AcDbEntity
  8
0
100
AcDbLine
 62
250
  6
CONTINUOUS
 10
-80.149442
 20
25.501546
 11
-78.850558
 21
25.501546
  0
LINE
  5
40F
100
AcDbEntity
  8
0
100
AcDbLine
 62
250
  6
CONTINUOUS
 10
-68.009874
 20
25.901202
 11
-66.611076
 21
25.901202
  0
LINE
  5
410
100
AcDbEntity
  8
0
100
AcDbLine
 62
250
  6
CONTINUOUS
 10
-65.387128
 20
25.901202
 11
-65.037429
 21
25.901202
  0
LINE
  5
411
100
AcDbEntity
  8
0
100
AcDbLine
 62
250
  6
CONTINUOUS
 10
-63.405498
 20
25.901202
 11
-63.055798
 21
25.901202
  0
LINE
  5
412
100
AcDbEntity
  8
0
100
AcDbLine
 62
250
  6
CONTINUOUS
 10
-61.657001
 20
25.901202
 11
-61.132451
 21
25.901202
  0
LINE
  5
413
100
AcDbEntity
  8
0
100
AcDbLine
 62
250
  6
CONTINUOUS
 10
-58.917688
 20
25.901202
 11
-58.567988
 21
25.901202
  0
LINE
  5
414
100
AcDbEntity
  8
0
100
AcDbLine
 62
250
  6
CONTINUOUS
 10
-57.169191
 20
25.901202
 11
-55.070994
 21
25.901202
  0
LINE
  5
415
100
AcDbEntity
  8
0
100
AcDbLine
 62
250
  6
CONTINUOUS
 10
-51.923698
 20
25.901202
 11
-51.573999
 21
25.901202
  0
LINE
  5
416
100
AcDbEntity
  8
0
100
AcDbLine
 62
250
  6
CONTINUOUS
 10
-51.107733
 20
25.901202
 11
-50.758034
 21
25.901202
  0
LINE
  5
417
100
AcDbEntity
  8
0
100
AcDbLine
 62
250
  6
CONTINUOUS
 10
-49.126103
 20
25.901202
 11
-48.776403
 21
25.901202
  0
LINE
  5
418
100
AcDbEntity
  8
0
100
AcDbLine
 62
250
  6
CONTINUOUS
 10
-48.310138
 20
25.901202
 11
-46.211941
 21
25.901202
  0
LINE
  5
419
100
AcDbEntity
  8
0
100
AcDbLine
 62
250
  6
CONTINUOUS
 10
-52.389964
 20
25.901202
 11
-52.797947
 21
25.901202
  0
LINE
  5
41A
100
AcDbEntity
  8
0
100
AcDbLine
 62
250
  6
CONTINUOUS
 10
-54.255029
 20
25.901202
 11
-54.604728
 21
25.901202
  0
LINE
  5
41B
100
AcDbEntity
  8
0
100
AcDbLine
 62
250
  6
CONTINUOUS
 10
-67.628929
 20
26.258342
 11
-66.521548
 21
26.258342
  0
LINE
  5
41C
100
AcDbEntity
  8
0
100
AcDbLine
 62
250
  6
CONTINUOUS
 10
-46.180695
 20
26.258342
 11
-47.929192
 21
26.258342
  0
LINE
  5
41D
100
AcDbEntity
  8
0
100
AcDbLine
 62
250
  6
CONTINUOUS
 10
-55.039748
 20
26.258342
 11
-56.788245
 21
26.258342
  0
LINE
  5
41E
100
AcDbEntity
  8
0
100
AcDbLine
 62
250
  6
CONTINUOUS
 10
-61.101206
 20
26.258342
 11
-61.625755
 21
26.258342
  0
LINE
  5
41F
100
AcDbEntity
  8
0
100
AcDbLine
 62
250
  6
CONTINUOUS
 10
-81.498283
 20
26.45073
 11
-80.34927
 21
26.45073
  0
LINE
  5
420
100
AcDbEntity
  8
0
100
AcDbLine
 62
250
  6
CONTINUOUS
 10
-78.65073
 20
26.45073
 11
-77.501717
 21
26.45073
  0
LINE
  5
421
100
AcDbEntity
  8
0
100
AcDbLine
 62
250
  6
CONTINUOUS
 10
-81.398369
 20
26.550644
 11
-80.249356
 21
26.550644
  0
LINE
  5
422
100
AcDbEntity
  8
0
100
AcDbLine
 62
250
  6
CONTINUOUS
 10
-78.750644
 20
26.550644
 11
-77.601631
 21
26.550644
  0
LINE
  5
423
100
AcDbEntity
  8
0
100
AcDbLine
 62
250
  6
CONTINUOUS
 10
-64.741804
 20
26.615482
 11
-63.576139
 21
26.615482
  0
LINE
  5
424
100
AcDbEntity
  8
0
100
AcDbLine
 62
250
  6
CONTINUOUS
 10
-50.462409
 20
26.615482
 11
-49.296745
 21
26.615482
  0
LINE
  5
425
100
AcDbEntity
  8
0
100
AcDbLine
 62
250
  6
CONTINUOUS
 10
-60.253994
 20
26.615482
 11
-60.603694
 21
26.615482
  0
LINE
  5
426
100
AcDbEntity
  8
0
100
AcDbLine
 62
250
  6
CONTINUOUS
 10
-81.298454
 20
26.650558
 11
-80.149442
 21
26.650558
  0
LINE
  5
427
100
AcDbEntity
  8
0
100
AcDbLine
 62
250
  6
CONTINUOUS
 10
-78.850558
 20
26.650558
 11
-77.701546
 21
26.650558
  0
LINE
  5
428
100
AcDbEntity
  8
0
100
AcDbLine
 62
250
  6
CONTINUOUS
 10
-75.170387
 20
26.700515
 11
-76.236138
 21
26.700515
  0
LINE
  5
429
100
AcDbEntity
  8
0
100
AcDbLine
 62
250
  6
CONTINUOUS
 10
-64.662691
 20
26.853575
 11
-63.613592
 21
26.853575
  0
LINE
  5
42A
100
AcDbEntity
  8
0
100
AcDbLine
 62
250
  6
CONTINUOUS
 10
-50.383295
 20
26.853575
 11
-49.334197
 21
26.853575
  0
LINE
  5
42B
100
AcDbEntity
  8
0
100
AcDbLine
 62
250
  6
CONTINUOUS
 10
-53.154853
 20
27.151192
 11
-54.145669
 21
27.151192
  0
LINE
  5
42C
100
AcDbEntity
  8
0
100
AcDbLine
 62
250
  6
CONTINUOUS
 10
-66.443433
 20
27.151192
 11
-67.550815
 21
27.151192
  0
LINE
  5
42D
100
AcDbEntity
  8
0
100
AcDbLine
 62
250
  6
CONTINUOUS
 10
-56.704924
 20
27.210715
 11
-55.18956
 21
27.210715
  0
LINE
  5
42E
100
AcDbEntity
  8
0
100
AcDbLine
 62
250
  6
CONTINUOUS
 10
-53.007041
 20
27.508332
 11
-54.114423
 21
27.508332
  0
LINE
  5
42F
100
AcDbEntity
  8
0
100
AcDbLine
 62
250
  6
CONTINUOUS
 10
-66.412188
 20
27.508332
 11
-67.519569
 21
27.508332
  0
LINE
  5
430
100
AcDbEntity
  8
0
100
AcDbLine
 62
250
  6
CONTINUOUS
 10
-55.158314
 20
27.567855
 11
-56.673678
 21
27.567855
  0
LINE
  5
431
100
AcDbEntity
  8
0
100
AcDbLine
 62
250
  6
CONTINUOUS
 10
-77.701546
 20
27.949442
 11
-78.850558
 21
27.949442
  0
LINE
  5
432
100
AcDbEntity
  8
0
100
AcDbLine
 62
250
  6
CONTINUOUS
 10
-80.149442
 20
27.949442
 11
-81.298454
 21
27.949442
  0
LINE
  5
433
100
AcDbEntity
  8
0
100
AcDbLine
 62
250
  6
CONTINUOUS
 10
-60.483919
 20
27.984518
 11
-60.134219
 21
27.984518
  0
LINE
  5
434
100
AcDbEntity
  8
0
100
AcDbLine
 62
250
  6
CONTINUOUS
 10
-77.601631
 20
28.049356
 11
-78.750644
 21
28.049356
  0
LINE
  5
435
100
AcDbEntity
  8
0
100
AcDbLine
 62
250
  6
CONTINUOUS
 10
-80.249356
 20
28.049356
 11
-81.398369
 21
28.049356
  0
LINE
  5
436
100
AcDbEntity
  8
0
100
AcDbLine
 62
250
  6
CONTINUOUS
 10
-77.501717
 20
28.14927
 11
-78.65073
 21
28.14927
  0
LINE
  5
437
100
AcDbEntity
  8
0
100
AcDbLine
 62
250
  6
CONTINUOUS
 10
-80.34927
 20
28.14927
 11
-81.498283
 21
28.14927
  0
LINE
  5
438
100
AcDbEntity
  8
0
100
AcDbLine
 62
250
  6
CONTINUOUS
 10
-67.446663
 20
28.341658
 11
-66.339281
 21
28.341658
  0
LINE
  5
439
100
AcDbEntity
  8
0
100
AcDbLine
 62
250
  6
CONTINUOUS
 10
-61.443488
 20
28.341658
 11
-60.918939
 21
28.341658
  0
LINE
  5
43A
100
AcDbEntity
  8
0
100
AcDbLine
 62
250
  6
CONTINUOUS
 10
-56.605979
 20
28.341658
 11
-54.857481
 21
28.341658
  0
LINE
  5
43B
100
AcDbEntity
  8
0
100
AcDbLine
 62
250
  6
CONTINUOUS
 10
-59.6315
 20
28.401181
 11
-58.698968
 21
28.401181
  0
LINE
  5
43C
100
AcDbEntity
  8
0
100
AcDbLine
 62
250
  6
CONTINUOUS
 10
-58.349269
 20
28.401181
 11
-57.416737
 21
28.401181
  0
LINE
  5
43D
100
AcDbEntity
  8
0
100
AcDbLine
 62
250
  6
CONTINUOUS
 10
-54.036309
 20
28.401181
 11
-52.928927
 21
28.401181
  0
LINE
  5
43E
100
AcDbEntity
  8
0
100
AcDbLine
 62
250
  6
CONTINUOUS
 10
-54.35997
 20
28.698798
 11
-52.961172
 21
28.698798
  0
LINE
  5
43F
100
AcDbEntity
  8
0
100
AcDbLine
 62
250
  6
CONTINUOUS
 10
-47.71568
 20
28.698798
 11
-48.06538
 21
28.698798
  0
LINE
  5
440
100
AcDbEntity
  8
0
100
AcDbLine
 62
250
  6
CONTINUOUS
 10
-49.464178
 20
28.698798
 11
-49.930443
 21
28.698798
  0
LINE
  5
441
100
AcDbEntity
  8
0
100
AcDbLine
 62
250
  6
CONTINUOUS
 10
-51.329241
 20
28.698798
 11
-51.67894
 21
28.698798
  0
LINE
  5
442
100
AcDbEntity
  8
0
100
AcDbLine
 62
250
  6
CONTINUOUS
 10
-54.826236
 20
28.698798
 11
-56.924433
 21
28.698798
  0
LINE
  5
443
100
AcDbEntity
  8
0
100
AcDbLine
 62
250
  6
CONTINUOUS
 10
-57.390699
 20
28.698798
 11
-59.605462
 21
28.698798
  0
LINE
  5
444
100
AcDbEntity
  8
0
100
AcDbLine
 62
250
  6
CONTINUOUS
 10
-60.887694
 20
28.698798
 11
-61.412243
 21
28.698798
  0
LINE
  5
445
100
AcDbEntity
  8
0
100
AcDbLine
 62
250
  6
CONTINUOUS
 10
-63.743572
 20
28.698798
 11
-64.209838
 21
28.698798
  0
LINE
  5
446
100
AcDbEntity
  8
0
100
AcDbLine
 62
250
  6
CONTINUOUS
 10
-66.366318
 20
28.698798
 11
-67.765116
 21
28.698798
  0
LINE
  5
447
100
AcDbEntity
  8
0
100
AcDbLine
 62
250
  6
CONTINUOUS
 10
-70.3079
 20
28.698798
 11
-71.906525
 21
28.698798
  0
LINE
  5
448
100
AcDbEntity
  8
0
100
AcDbLine
 62
250
  6
CONTINUOUS
 10
-78.850558
 20
29.098454
 11
-80.149442
 21
29.098454
  0
LINE
  5
449
100
AcDbEntity
  8
0
100
AcDbLine
 62
250
  6
CONTINUOUS
 10
-78.750644
 20
29.198369
 11
-80.249356
 21
29.198369
  0
LINE
  5
44A
100
AcDbEntity
  8
0
100
AcDbLine
 62
250
  6
CONTINUOUS
 10
-78.65073
 20
29.298283
 11
-80.34927
 21
29.298283
  0
LWPOLYLINE
  5
44B
100
AcDbEntity
  8
RACCORDO
100
AcDbPolyline
 62
250
  6
CONTINUOUS
 90
18
 70
0
 10
104.4427702181
 20
22.6677048929
 10
104.4931469947
 20
22.6673574847
 10
104.5178871757
 20
22.6670254534
 10
104.5420930795
 20
22.6665907703
 10
104.565592539
 20
22.6660565272
 10
104.5882184119
 20
22.6654265241
 10
104.6098097693
 20
22.6647052418
 10
104.6302130404
 20
22.6638978105
 10
104.6492831048
 20
22.6630099732
 10
104.6668843246
 20
22.6620480448
 10
104.6828915094
 20
22.661018867
 10
104.6971908064
 20
22.65992976
 10
104.7096805103
 20
22.6587884701
 10
104.7202717867
 20
22.6576031149
 10
104.7288893042
 20
22.6563821254
 10
104.7354717697
 20
22.655134186
 10
104.7399723648
 20
22.6538681728
 10
104.7423590785
 20
22.6525930904
  0
LWPOLYLINE
  5
44C
100
AcDbEntity
  8
ASSI
100
AcDbPolyline
 62
250
  6
CONTINUOUS
 90
18
 70
0
 10
104.4427702181
 20
22.6677048929
 10
104.4931469947
 20
22.6673574847
 10
104.5178871757
 20
22.6670254534
 10
104.5420930795
 20
22.6665907703
 10
104.565592539
 20
22.6660565272
 10
104.5882184119
 20
22.6654265241
 10
104.6098097693
 20
22.6647052418
 10
104.6302130404
 20
22.6638978105
 10
104.6492831048
 20
22.6630099732
 10
104.6668843246
 20
22.6620480448
 10
104.6828915094
 20
22.661018867
 10
104.6971908064
 20
22.65992976
 10
104.7096805103
 20
22.6587884701
 10
104.7202717867
 20
22.6576031149
 10
104.7288893042
 20
22.6563821254
 10
104.7354717697
 20
22.655134186
 10
104.7399723648
 20
22.6538681728
 10
104.7423590785
 20
22.6525930904
  0
LWPOLYLINE
  5
44D
100
AcDbEntity
  8
RACCORDO
100
AcDbPolyline
 62
250
  6
CONTINUOUS
 90
31
 70
0
 10
78.1926541317
 20
22.641549287
 10
78.2186209849
 20
22.6411751138
 10
78.2442376459
 20
22.6399846691
 10
78.2694795511
 20
22.6380101153
 10
78.2942973269
 20
22.6352873754
 10
78.3186973259
 20
22.6318472719
 10
78.3427404027
 20
22.6277072305
 10
78.3664076536
 20
22.6228929459
 10
78.3896826544
 20
22.6174301232
 10
78.412629296
 20
22.6113219326
 10
78.4352307916
 20
22.6045875431
 10
78.4574721267
 20
22.5972461457
 10
78.4794172257
 20
22.5892871885
 10
78.5010499392
 20
22.5807235855
 10
78.5223543953
 20
22.5715687031
 10
78.5433905544
 20
22.5617996236
 10
78.5641409429
 20
22.5514237497
 10
78.5845874938
 20
22.5404493361
 10
78.6047833055
 20
22.5288426107
 10
78.6247076189
 20
22.5166065201
 10
78.6443391122
 20
22.5037448926
 10
78.6637225152
 20
22.4902140885
 10
78.6828319437
 20
22.47601379
 10
78.7016416498
 20
22.4611440812
 10
78.7201873317
 20
22.4455515615
 10
78.7384351511
 20
22.429234845
 10
78.7563545006
 20
22.412190153
 10
78.7739743017
 20
22.3943505211
 10
78.7912741726
 20
22.3756880861
 10
78.8081909473
 20
22.3562209433
 10
78.8246817863
 20
22.3359476087
  0
LWPOLYLINE
  5
44E
100
AcDbEntity
  8
ASSI
100
AcDbPolyline
 62
250
  6
CONTINUOUS
 90
31
 70
0
 10
78.1926541317
 20
22.641549287
 10
78.2186209849
 20
22.6411751138
 10
78.2442376459
 20
22.6399846691
 10
78.2694795511
 20
22.6380101153
 10
78.2942973269
 20
22.6352873754
 10
78.3186973259
 20
22.6318472719
 10
78.3427404027
 20
22.6277072305
 10
78.3664076536
 20
22.6228929459
 10
78.3896826544
 20
22.6174301232
 10
78.412629296
 20
22.6113219326
 10
78.4352307916
 20
22.6045875431
 10
78.4574721267
 20
22.5972461457
 10
78.4794172257
 20
22.5892871885
 10
78.5010499392
 20
22.5807235855
 10
78.5223543953
 20
22.5715687031
 10
78.5433905544
 20
22.5617996236
 10
78.5641409429
 20
22.5514237497
 10
78.5845874938
 20
22.5404493361
 10
78.6047833055
 20
22.5288426107
 10
78.6247076189
 20
22.5166065201
 10
78.6443391122
 20
22.5037448926
 10
78.6637225152
 20
22.4902140885
 10
78.6828319437
 20
22.47601379
 10
78.7016416498
 20
22.4611440812
 10
78.7201873317
 20
22.4455515615
 10
78.7384351511
 20
22.429234845
 10
78.7563545006
 20
22.412190153
 10
78.7739743017
 20
22.3943505211
 10
78.7912741726
 20
22.3756880861
 10
78.8081909473
 20
22.3562209433
 10
78.8246817863
 20
22.3359476087
  0
LWPOLYLINE
  5
44F
100
AcDbEntity
  8
RACCORDO
100
AcDbPolyline
 62
250
  6
CONTINUOUS
 90
31
 70
0
 10
78.1926456448
 20
23.1675430277
 10
78.2348377474
 20
23.1667729449
 10
78.2763862641
 20
23.1647788527
 10
78.3172911948
 20
23.1615607487
 10
78.3575406821
 20
23.1570774683
 10
78.3971465834
 20
23.151370167
 10
78.4361444715
 20
23.1445623212
 10
78.4745298839
 20
23.1366689747
 10
78.512307283
 20
23.1276750685
 10
78.5495256287
 20
23.1176589248
 10
78.5861840151
 20
23.1066347779
 10
78.6222833481
 20
23.0945883733
 10
78.6578753057
 20
23.0815552995
 10
78.6929630435
 20
23.0675484215
 10
78.727543406
 20
23.0525548493
 10
78.7616586045
 20
23.036571538
 10
78.7953150666
 20
23.0196096413
 10
78.8285063647
 20
23.0016579751
 10
78.8612554275
 20
22.9826799855
 10
78.8935711507
 20
22.9626853317
 10
78.9254446387
 20
22.9416643176
 10
78.9568721326
 20
22.9195513537
 10
78.9878645716
 20
22.8963549279
 10
79.0184110166
 20
22.8720665071
 10
79.0484748921
 20
22.846594965
 10
79.0780695413
 20
22.8199481069
 10
79.107181621
 20
22.7921180719
 10
79.1357345265
 20
22.7629902281
 10
79.163702723
 20
22.7325263405
 10
79.1911117454
 20
22.7007645745
 10
79.2179615936
 20
22.6677048937
  0
LWPOLYLINE
  5
450
100
AcDbEntity
  8
ASSI
100
AcDbPolyline
 62
250
  6
CONTINUOUS
 90
31
 70
0
 10
78.1926456448
 20
23.1675430277
 10
78.2348377474
 20
23.1667729449
 10
78.2763862641
 20
23.1647788527
 10
78.3172911948
 20
23.1615607487
 10
78.3575406821
 20
23.1570774683
 10
78.3971465834
 20
23.151370167
 10
78.4361444715
 20
23.1445623212
 10
78.4745298839
 20
23.1366689747
 10
78.512307283
 20
23.1276750685
 10
78.5495256287
 20
23.1176589248
 10
78.5861840151
 20
23.1066347779
 10
78.6222833481
 20
23.0945883733
 10
78.6578753057
 20
23.0815552995
 10
78.6929630435
 20
23.0675484215
 10
78.727543406
 20
23.0525548493
 10
78.7616586045
 20
23.036571538
 10
78.7953150666
 20
23.0196096413
 10
78.8285063647
 20
23.0016579751
 10
78.8612554275
 20
22.9826799855
 10
78.8935711507
 20
22.9626853317
 10
78.9254446387
 20
22.9416643176
 10
78.9568721326
 20
22.9195513537
 10
78.9878645716
 20
22.8963549279
 10
79.0184110166
 20
22.8720665071
 10
79.0484748921
 20
22.846594965
 10
79.0780695413
 20
22.8199481069
 10
79.107181621
 20
22.7921180719
 10
79.1357345265
 20
22.7629902281
 10
79.163702723
 20
22.7325263405
 10
79.1911117454
 20
22.7007645745
 10
79.2179615936
 20
22.6677048937
  0
LINE
  5
451
100
AcDbEntity
  8
RACCORDO
100
AcDbLine
 62
250
  6
CONTINUOUS
 10
79.2179615936
 20
-22.6677047264
 11
79.1608652593
 21
-22.622775493
  0
LINE
  5
452
100
AcDbEntity
  8
ASSI
100
AcDbLine
 62
250
  6
CONTINUOUS
 10
79.2179615936
 20
-22.6677047264
 11
79.1608652593
 21
-22.622775493
  0
LINE
  5
453
100
AcDbEntity
  8
RACCORDO
100
AcDbLine
 62
250
  6
CONTINUOUS
 10
79.1608652593
 20
-22.622775493
 11
79.1049765067
 21
-22.5782637897
  0
LINE
  5
454
100
AcDbEntity
  8
ASSI
100
AcDbLine
 62
250
  6
CONTINUOUS
 10
79.1608652593
 20
-22.622775493
 11
79.1049765067
 21
-22.5782637897
  0
LINE
  5
455
100
AcDbEntity
  8
RACCORDO
100
AcDbLine
 62
250
  6
CONTINUOUS
 10
79.1049765067
 20
-22.5782637897
 11
79.051477458
 21
-22.5351110986
  0
LINE
  5
456
100
AcDbEntity
  8
ASSI
100
AcDbLine
 62
250
  6
CONTINUOUS
 10
79.1049765067
 20
-22.5782637897
 11
79.051477458
 21
-22.5351110986
  0
LWPOLYLINE
  5
457
100
AcDbEntity
  8
RACCORDO
100
AcDbPolyline
 62
250
  6
CONTINUOUS
 90
15
 70
0
 10
79.051477458
 20
-22.5351110986
 10
79.0014996896
 20
-22.4942301565
 10
78.9781651619
 20
-22.4749141916
 10
78.9561002983
 20
-22.45648565
 10
78.9354219287
 20
-22.4390421077
 10
78.916239542
 20
-22.4226759257
 10
78.8986547058
 20
-22.4074737602
 10
78.8827605291
 20
-22.3935161043
 10
78.8686411692
 20
-22.3808768616
 10
78.8563713858
 20
-22.369622955
 10
78.8460161454
 20
-22.3598139719
 10
78.8376302777
 20
-22.3515018495
 10
78.8312581842
 20
-22.3447305992
 10
78.8269336044
 20
-22.3395360735
 10
78.8246794363
 20
-22.3359457767
  0
LWPOLYLINE
  5
458
100
AcDbEntity
  8
ASSI
100
AcDbPolyline
 62
250
  6
CONTINUOUS
 90
15
 70
0
 10
79.051477458
 20
-22.5351110986
 10
79.0014996896
 20
-22.4942301565
 10
78.9781651619
 20
-22.4749141916
 10
78.9561002983
 20
-22.45648565
 10
78.9354219287
 20
-22.4390421077
 10
78.916239542
 20
-22.4226759257
 10
78.8986547058
 20
-22.4074737602
 10
78.8827605291
 20
-22.3935161043
 10
78.8686411692
 20
-22.3808768616
 10
78.8563713858
 20
-22.369622955
 10
78.8460161454
 20
-22.3598139719
 10
78.8376302777
 20
-22.3515018495
 10
78.8312581842
 20
-22.3447305992
 10
78.8269336044
 20
-22.3395360735
 10
78.8246794363
 20
-22.3359457767
  0
LINE
  5
459
100
AcDbEntity
  8
0
100
AcDbLine
 62
250
  6
CONTINUOUS
 10
78.1926541173
 20
22.6415492726
 11
78.0510963722
 21
22.5
  0
LINE
  5
45A
100
AcDbEntity
  8
ASSI
100
AcDbLine
 62
250
  6
CONTINUOUS
 10
78.1926541173
 20
22.6415492726
 11
78.0510963722
 21
22.5
  0
LINE
  5
45B
100
AcDbEntity
  8
0
100
AcDbLine
 62
250
  6
CONTINUOUS
 10
78.9949737683
 20
21.8460825235
 11
78.85
 21
21.7010963722
  0
LINE
  5
45C
100
AcDbEntity
  8
ASSI
100
AcDbLine
 62
250
  6
CONTINUOUS
 10
78.9949737683
 20
21.8460825235
 11
78.85
 21
21.7010963722
  0
LINE
  5
45D
100
AcDbEntity
  8
RACCORDO
100
AcDbLine
 62
250
  6
CONTINUOUS
 10
103.8781758769
 20
44.8768054117
 11
104.0013704652
 21
45.0
  0
LINE
  5
45E
100
AcDbEntity
  8
ASSI
100
AcDbLine
 62
250
  6
CONTINUOUS
 10
103.8781758769
 20
44.8768054117
 11
104.0013704652
 21
45.0
  0
LINE
  5
45F
100
AcDbEntity
  8
RACCORDO
100
AcDbLine
 62
250
  6
CONTINUOUS
 10
104.8700585586
 20
43.8714290238
 11
105.0
 21
44.0013704652
  0
LINE
  5
460
100
AcDbEntity
  8
ASSI
100
AcDbLine
 62
250
  6
CONTINUOUS
 10
104.8700585586
 20
43.8714290238
 11
105.0
 21
44.0013704652
  0
LWPOLYLINE
  5
461
100
AcDbEntity
  8
RACCORDO
100
AcDbPolyline
 62
250
  6
CONTINUOUS
 90
14
 70
0
 10
79.0014999892
 20
22.4942304236
 10
78.9781655096
 20
22.4749144936
 10
78.9561006939
 20
22.4564859866
 10
78.9354223714
 20
22.4390424784
 10
78.9162400302
 20
22.4226763292
 10
78.8986552374
 20
22.4074741949
 10
78.8827611014
 20
22.3935165681
 10
78.8686417788
 20
22.3808773519
 10
78.8563720289
 20
22.3696234688
 10
78.8460168178
 20
22.359814506
 10
78.8376309747
 20
22.3515024003
 10
78.831258901
 20
22.3447311628
 10
78.8269343358
 20
22.339536646
 10
78.8246801768
 20
22.335946354
  0
LWPOLYLINE
  5
462
100
AcDbEntity
  8
ASSI
100
AcDbPolyline
 62
250
  6
CONTINUOUS
 90
14
 70
0
 10
79.0014999892
 20
22.4942304236
 10
78.9781655096
 20
22.4749144936
 10
78.9561006939
 20
22.4564859866
 10
78.9354223714
 20
22.4390424784
 10
78.9162400302
 20
22.4226763292
 10
78.8986552374
 20
22.4074741949
 10
78.8827611014
 20
22.3935165681
 10
78.8686417788
 20
22.3808773519
 10
78.8563720289
 20
22.3696234688
 10
78.8460168178
 20
22.359814506
 10
78.8376309747
 20
22.3515024003
 10
78.831258901
 20
22.3447311628
 10
78.8269343358
 20
22.339536646
 10
78.8246801768
 20
22.335946354
  0
LINE
  5
463
100
AcDbEntity
  8
0
100
AcDbLine
 62
250
  6
CONTINUOUS
 10
-60.862865
 20
26.317865
 11
-61.101206
 21
26.258342
  0
LINE
  5
464
100
AcDbEntity
  8
0
100
AcDbLine
 62
250
  6
CONTINUOUS
 10
-61.681829
 20
28.282135
 11
-61.443488
 21
28.341658
  0
LINE
  5
465
100
AcDbEntity
  8
0
100
AcDbLine
 62
250
  6
CONTINUOUS
 10
-61.132451
 20
25.901202
 11
-60.835827
 21
25.960725
  0
LINE
  5
466
100
AcDbEntity
  8
0
100
AcDbLine
 62
250
  6
CONTINUOUS
 10
-66.611076
 20
25.901202
 11
-66.314453
 21
25.960725
  0
LINE
  5
467
100
AcDbEntity
  8
0
100
AcDbLine
 62
250
  6
CONTINUOUS
 10
-61.412243
 20
28.698798
 11
-61.708866
 21
28.639275
  0
LINE
  5
468
100
AcDbEntity
  8
0
100
AcDbLine
 62
250
  6
CONTINUOUS
 10
78.1926713554
 20
-22.6415492726
 11
78.0510963722
 21
-22.5
  0
LINE
  5
469
100
AcDbEntity
  8
ASSI
100
AcDbLine
 62
250
  6
CONTINUOUS
 10
78.1926713554
 20
-22.6415492726
 11
78.0510963722
 21
-22.5
  0
LINE
  5
46A
100
AcDbEntity
  8
RACCORDO
100
AcDbLine
 62
250
  6
CONTINUOUS
 10
103.8781758769
 20
-44.8768054117
 11
104.0013704652
 21
-45.0
  0
LINE
  5
46B
100
AcDbEntity
  8
ASSI
100
AcDbLine
 62
250
  6
CONTINUOUS
 10
103.8781758769
 20
-44.8768054117
 11
104.0013704652
 21
-45.0
  0
LINE
  5
46C
100
AcDbEntity
  8
RACCORDO
100
AcDbLine
 62
250
  6
CONTINUOUS
 10
104.8700585586
 20
-43.8714290238
 11
105.0
 21
-44.0013704652
  0
LINE
  5
46D
100
AcDbEntity
  8
ASSI
100
AcDbLine
 62
250
  6
CONTINUOUS
 10
104.8700585586
 20
-43.8714290238
 11
105.0
 21
-44.0013704652
  0
LINE
  5
46E
100
AcDbEntity
  8
0
100
AcDbLine
 62
250
  6
CONTINUOUS
 10
78.9949737656
 20
-21.8460839501
 11
78.85
 21
-21.7010963722
  0
LINE
  5
46F
100
AcDbEntity
  8
ASSI
100
AcDbLine
 62
250
  6
CONTINUOUS
 10
78.9949737656
 20
-21.8460839501
 11
78.85
 21
-21.7010963722
  0
LWPOLYLINE
  5
470
100
AcDbEntity
  8
RACCORDO
100
AcDbPolyline
 62
250
  6
CONTINUOUS
 90
28
 70
0
 10
-103.8781758769
 20
44.8768054117
 10
-103.93578679
 20
44.8750861756
 10
-103.993186491
 20
44.8700269096
 10
-104.0501844407
 20
44.8616430028
 10
-104.1065777064
 20
44.8499639429
 10
-104.1621924189
 20
44.8350253678
 10
-104.2168823609
 20
44.8168612786
 10
-104.2704825348
 20
44.7955145933
 10
-104.3227897742
 20
44.7710547175
 10
-104.3736047723
 20
44.7435684775
 10
-104.4227429306
 20
44.7131507633
 10
-104.4700496338
 20
44.6798929841
 10
-104.515378277
 20
44.6438930823
 10
-104.5585729173
 20
44.6052632506
 10
-104.5994808767
 20
44.5641285547
 10
-104.6379673093
 20
44.5206163526
 10
-104.6738956263
 20
44.4748641718
 10
-104.7071348757
 20
44.4270215538
 10
-104.7375689344
 20
44.3772445341
 10
-104.7650866635
 20
44.3256914554
 10
-104.7895825078
 20
44.2725352288
 10
-104.8109637239
 20
44.2179642341
 10
-104.8291478267
 20
44.1621609304
 10
-104.8440639982
 20
44.1053109523
 10
-104.8556553218
 20
44.0476157488
 10
-104.8638747757
 20
43.9892734721
 10
-104.868684313
 20
43.9304780154
 10
-104.8700585586
 20
43.8714290238
  0
LWPOLYLINE
  5
471
100
AcDbEntity
  8
ASSI
100
AcDbPolyline
 62
250
  6
CONTINUOUS
 90
28
 70
0
 10
-103.8781758769
 20
44.8768054117
 10
-103.93578679
 20
44.8750861756
 10
-103.993186491
 20
44.8700269096
 10
-104.0501844407
 20
44.8616430028
 10
-104.1065777064
 20
44.8499639429
 10
-104.1621924189
 20
44.8350253678
 10
-104.2168823609
 20
44.8168612786
 10
-104.2704825348
 20
44.7955145933
 10
-104.3227897742
 20
44.7710547175
 10
-104.3736047723
 20
44.7435684775
 10
-104.4227429306
 20
44.7131507633
 10
-104.4700496338
 20
44.6798929841
 10
-104.515378277
 20
44.6438930823
 10
-104.5585729173
 20
44.6052632506
 10
-104.5994808767
 20
44.5641285547
 10
-104.6379673093
 20
44.5206163526
 10
-104.6738956263
 20
44.4748641718
 10
-104.7071348757
 20
44.4270215538
 10
-104.7375689344
 20
44.3772445341
 10
-104.7650866635
 20
44.3256914554
 10
-104.7895825078
 20
44.2725352288
 10
-104.8109637239
 20
44.2179642341
 10
-104.8291478267
 20
44.1621609304
 10
-104.8440639982
 20
44.1053109523
 10
-104.8556553218
 20
44.0476157488
 10
-104.8638747757
 20
43.9892734721
 10
-104.868684313
 20
43.9304780154
 10
-104.8700585586
 20
43.8714290238
  0
LWPOLYLINE
  5
472
100
AcDbEntity
  8
RACCORDO
100
AcDbPolyline
 62
250
  6
CONTINUOUS
 90
28
 70
0
 10
-103.8781758769
 20
44.6316825048
 10
-103.9186969438
 20
44.6304834787
 10
-103.9588142111
 20
44.6269657081
 10
-103.9985276789
 20
44.6211291657
 10
-104.0379644978
 20
44.6129447267
 10
-104.0769975172
 20
44.602441406
 10
-104.1152452852
 20
44.5897063624
 10
-104.1527095796
 20
44.5747131722
 10
-104.1893886226
 20
44.5574880505
 10
-104.2248956289
 20
44.5381971019
 10
-104.2592114272
 20
44.5168228911
 10
-104.2923551888
 20
44.4933825716
 10
-104.3239976428
 20
44.4680941368
 10
-104.3541274616
 20
44.4409385391
 10
-104.3827559729
 20
44.4119345022
 10
-104.4095878881
 20
44.3813567037
 10
-104.4346080233
 20
44.3491872479
 10
-104.4578315625
 20
44.3154437023
 10
-104.4790087695
 20
44.2804539909
 10
-104.4981206026
 20
44.2442008786
 10
-104.5151861035
 20
44.2067013078
 10
-104.5300126608
 20
44.1683345452
 10
-104.5425767841
 20
44.1290806128
 10
-104.5529019638
 20
44.0889592689
 10
-104.5608660591
 20
44.0484094866
 10
-104.5664283565
 20
44.0075775797
 10
-104.5696295695
 20
43.9663171381
 10
-104.5704696982
 20
43.9246281065
  0
LWPOLYLINE
  5
473
100
AcDbEntity
  8
ASSI
100
AcDbPolyline
 62
250
  6
CONTINUOUS
 90
28
 70
0
 10
-103.8781758769
 20
44.6316825048
 10
-103.9186969438
 20
44.6304834787
 10
-103.9588142111
 20
44.6269657081
 10
-103.9985276789
 20
44.6211291657
 10
-104.0379644978
 20
44.6129447267
 10
-104.0769975172
 20
44.602441406
 10
-104.1152452852
 20
44.5897063624
 10
-104.1527095796
 20
44.5747131722
 10
-104.1893886226
 20
44.5574880505
 10
-104.2248956289
 20
44.5381971019
 10
-104.2592114272
 20
44.5168228911
 10
-104.2923551888
 20
44.4933825716
 10
-104.3239976428
 20
44.4680941368
 10
-104.3541274616
 20
44.4409385391
 10
-104.3827559729
 20
44.4119345022
 10
-104.4095878881
 20
44.3813567037
 10
-104.4346080233
 20
44.3491872479
 10
-104.4578315625
 20
44.3154437023
 10
-104.4790087695
 20
44.2804539909
 10
-104.4981206026
 20
44.2442008786
 10
-104.5151861035
 20
44.2067013078
 10
-104.5300126608
 20
44.1683345452
 10
-104.5425767841
 20
44.1290806128
 10
-104.5529019638
 20
44.0889592689
 10
-104.5608660591
 20
44.0484094866
 10
-104.5664283565
 20
44.0075775797
 10
-104.5696295695
 20
43.9663171381
 10
-104.5704696982
 20
43.9246281065
  0
LWPOLYLINE
  5
474
100
AcDbEntity
  8
RACCORDO
100
AcDbPolyline
 62
250
  6
CONTINUOUS
 90
19
 70
0
 10
-104.5704696982
 20
43.9246280943
 10
-104.5957596656
 20
43.924207405
 10
-104.6208695746
 20
43.9234109463
 10
-104.6456206487
 20
43.9222443888
 10
-104.6698366663
 20
43.9207160381
 10
-104.6933452151
 20
43.9188367757
 10
-104.7159789199
 20
43.9166199815
 10
-104.7375766343
 20
43.9140814385
 10
-104.7579845877
 20
43.9112392206
 10
-104.7770574805
 20
43.9081135635
 10
-104.7946595182
 20
43.9047267214
 10
-104.8106653787
 20
43.9011028076
 10
-104.824961104
 20
43.8972676235
 10
-104.837444912
 20
43.8932484748
 10
-104.8480279211
 20
43.8890739767
 10
-104.8566347828
 20
43.8847738508
 10
-104.8632042183
 20
43.8803787129
 10
-104.8676894548
 20
43.8759198552
 10
-104.8700585586
 20
43.8714290238
  0
LWPOLYLINE
  5
475
100
AcDbEntity
  8
ASSI
100
AcDbPolyline
 62
250
  6
CONTINUOUS
 90
19
 70
0
 10
-104.5704696982
 20
43.9246280943
 10
-104.5957596656
 20
43.924207405
 10
-104.6208695746
 20
43.9234109463
 10
-104.6456206487
 20
43.9222443888
 10
-104.6698366663
 20
43.9207160381
 10
-104.6933452151
 20
43.9188367757
 10
-104.7159789199
 20
43.9166199815
 10
-104.7375766343
 20
43.9140814385
 10
-104.7579845877
 20
43.9112392206
 10
-104.7770574805
 20
43.9081135635
 10
-104.7946595182
 20
43.9047267214
 10
-104.8106653787
 20
43.9011028076
 10
-104.824961104
 20
43.8972676235
 10
-104.837444912
 20
43.8932484748
 10
-104.8480279211
 20
43.8890739767
 10
-104.8566347828
 20
43.8847738508
 10
-104.8632042183
 20
43.8803787129
 10
-104.8676894548
 20
43.8759198552
 10
-104.8700585586
 20
43.8714290238
  0
LINE
  5
476
100
AcDbEntity
  8
RACCORDO
100
AcDbLine
 62
250
  6
CONTINUOUS
 10
103.8781758769
 20
44.6316825048
 11
-103.8781758769
 21
44.6316825048
  0
LINE
  5
477
100
AcDbEntity
  8
ASSI
100
AcDbLine
 62
250
  6
CONTINUOUS
 10
103.8781758769
 20
44.6316825048
 11
-103.8781758769
 21
44.6316825048
  0
LINE
  5
478
100
AcDbEntity
  8
RACCORDO
100
AcDbLine
 62
250
  6
CONTINUOUS
 10
103.8781758769
 20
44.8768054117
 11
-103.8781758769
 21
44.8768054117
  0
LINE
  5
479
100
AcDbEntity
  8
ASSI
100
AcDbLine
 62
250
  6
CONTINUOUS
 10
103.8781758769
 20
44.8768054117
 11
-103.8781758769
 21
44.8768054117
  0
LINE
  5
47A
100
AcDbEntity
  8
RACCORDO
100
AcDbLine
 62
7
  6
CONTINUOUS
 10
-104.0013704652
 20
45.0
 11
104.0013704652
 21
45.0
  0
LINE
  5
47B
100
AcDbEntity
  8
ASSI
100
AcDbLine
 62
7
  6
CONTINUOUS
 10
-104.0013704652
 20
45.0
 11
104.0013704652
 21
45.0
  0
LWPOLYLINE
  5
47C
100
AcDbEntity
  8
RACCORDO
100
AcDbPolyline
 62
250
  6
CONTINUOUS
 90
19
 70
0
 10
104.5704696982
 20
43.9246280998
 10
104.5957594015
 20
43.9242073646
 10
104.6208690256
 20
43.9234108659
 10
104.6456197984
 20
43.9222442744
 10
104.669835503
 20
43.9207158959
 10
104.6933437321
 20
43.9188366118
 10
104.715977115
 20
43.9166198021
 10
104.73757451
 20
43.9140812496
 10
104.757982151
 20
43.911239028
 10
104.7770547427
 20
43.9081133728
 10
104.7946564948
 20
43.9047265377
 10
104.8106620889
 20
43.9011026357
 10
104.8249575708
 20
43.8972674678
 10
104.8374411614
 20
43.8932483391
 10
104.848023982
 20
43.8890738642
 10
104.8566306865
 20
43.8847737642
 10
104.8631999982
 20
43.880378654
 10
104.8676851458
 20
43.8759198255
 10
104.8700541966
 20
43.871429024
  0
LWPOLYLINE
  5
47D
100
AcDbEntity
  8
ASSI
100
AcDbPolyline
 62
250
  6
CONTINUOUS
 90
19
 70
0
 10
104.5704696982
 20
43.9246280998
 10
104.5957594015
 20
43.9242073646
 10
104.6208690256
 20
43.9234108659
 10
104.6456197984
 20
43.9222442744
 10
104.669835503
 20
43.9207158959
 10
104.6933437321
 20
43.9188366118
 10
104.715977115
 20
43.9166198021
 10
104.73757451
 20
43.9140812496
 10
104.757982151
 20
43.911239028
 10
104.7770547427
 20
43.9081133728
 10
104.7946564948
 20
43.9047265377
 10
104.8106620889
 20
43.9011026357
 10
104.8249575708
 20
43.8972674678
 10
104.8374411614
 20
43.8932483391
 10
104.848023982
 20
43.8890738642
 10
104.8566306865
 20
43.8847737642
 10
104.8631999982
 20
43.880378654
 10
104.8676851458
 20
43.8759198255
 10
104.8700541966
 20
43.871429024
  0
LWPOLYLINE
  5
47E
100
AcDbEntity
  8
0
100
AcDbPolyline
 62
7
  6
CONTINUOUS
 90
7
 70
0
 43
0.3500000006
 10
-1.7142856507
 20
58.7499994812
 10
-3.2142856836
 20
58.7499994812
 10
-1.7142856507
 20
60.8928533936
 10
-1.7142856507
 20
61.321431427
 10
-2.1428571696
 20
61.7500003967
 10
-2.7857141647
 20
61.7500003967
 10
-3.2142856836
 20
61.1071469421
  0
LWPOLYLINE
  5
47F
100
AcDbEntity
  8
RACCORDO
100
AcDbPolyline
 62
250
  6
CONTINUOUS
 90
19
 70
0
 10
78.8246817863
 20
-22.3359476087
 10
78.7990830043
 20
-22.3668591204
 10
78.7719225051
 20
-22.3964852271
 10
78.7432631354
 20
-22.4247458832
 10
78.7131733805
 20
-22.4515620173
 10
78.6817230425
 20
-22.4768619688
 10
78.6489823148
 20
-22.5005807494
 10
78.6150162137
 20
-22.5226586146
 10
78.5799188407
 20
-22.543022314
 10
78.5438117569
 20
-22.5615964438
 10
78.5067701854
 20
-22.5783371427
 10
78.4689030158
 20
-22.5931902595
 10
78.4303941166
 20
-22.6060896157
 10
78.3913427993
 20
-22.6170126915
 10
78.351853974
 20
-22.6259407357
 10
78.3121289785
 20
-22.6328483041
 10
78.2723053085
 20
-22.6377400429
 10
78.2324526836
 20
-22.6406344807
 10
78.192671399
 20
-22.6415493158
  0
LWPOLYLINE
  5
480
100
AcDbEntity
  8
ASSI
100
AcDbPolyline
 62
250
  6
CONTINUOUS
 90
19
 70
0
 10
78.8246817863
 20
-22.3359476087
 10
78.7990830043
 20
-22.3668591204
 10
78.7719225051
 20
-22.3964852271
 10
78.7432631354
 20
-22.4247458832
 10
78.7131733805
 20
-22.4515620173
 10
78.6817230425
 20
-22.4768619688
 10
78.6489823148
 20
-22.5005807494
 10
78.6150162137
 20
-22.5226586146
 10
78.5799188407
 20
-22.543022314
 10
78.5438117569
 20
-22.5615964438
 10
78.5067701854
 20
-22.5783371427
 10
78.4689030158
 20
-22.5931902595
 10
78.4303941166
 20
-22.6060896157
 10
78.3913427993
 20
-22.6170126915
 10
78.351853974
 20
-22.6259407357
 10
78.3121289785
 20
-22.6328483041
 10
78.2723053085
 20
-22.6377400429
 10
78.2324526836
 20
-22.6406344807
 10
78.192671399
 20
-22.6415493158
  0
LINE
  5
481
100
AcDbEntity
  8
RACCORDO
100
AcDbLine
 62
250
  6
CONTINUOUS
 10
78.9949737683
 20
21.8460825235
 11
79.010438462
 21
14.5669316247
  0
LINE
  5
482
100
AcDbEntity
  8
ASSI
100
AcDbLine
 62
250
  6
CONTINUOUS
 10
78.9949737683
 20
21.8460825235
 11
79.010438462
 21
14.5669316247
  0
LINE
  5
483
100
AcDbEntity
  8
RACCORDO
100
AcDbLine
 62
250
  6
CONTINUOUS
 10
79.4942885593
 20
21.8703705759
 11
79.5097532489
 21
14.5834397224
  0
LINE
  5
484
100
AcDbEntity
  8
ASSI
100
AcDbLine
 62
250
  6
CONTINUOUS
 10
79.4942885593
 20
21.8703705759
 11
79.5097532489
 21
14.5834397224
  0
LINE
  5
485
100
AcDbEntity
  8
RACCORDO
100
AcDbLine
 62
250
  6
CONTINUOUS
 10
79.010438462
 20
14.5669316247
 11
79.0197179867
 21
7.2846627106
  0
LINE
  5
486
100
AcDbEntity
  8
ASSI
100
AcDbLine
 62
250
  6
CONTINUOUS
 10
79.010438462
 20
14.5669316247
 11
79.0197179867
 21
7.2846627106
  0
LINE
  5
487
100
AcDbEntity
  8
RACCORDO
100
AcDbLine
 62
250
  6
CONTINUOUS
 10
79.5097532489
 20
14.5834397224
 11
79.5190327639
 21
7.2926778579
  0
LINE
  5
488
100
AcDbEntity
  8
ASSI
100
AcDbLine
 62
250
  6
CONTINUOUS
 10
79.5097532489
 20
14.5834397224
 11
79.5190327639
 21
7.2926778579
  0
LINE
  5
489
100
AcDbEntity
  8
RACCORDO
100
AcDbLine
 62
250
  6
CONTINUOUS
 10
79.0197179867
 20
7.2846627106
 11
79.0228118795
 21
-0.0000046698
  0
LINE
  5
48A
100
AcDbEntity
  8
ASSI
100
AcDbLine
 62
250
  6
CONTINUOUS
 10
79.0197179867
 20
7.2846627106
 11
79.0228118795
 21
-0.0000046698
  0
LINE
  5
48B
100
AcDbEntity
  8
RACCORDO
100
AcDbLine
 62
250
  6
CONTINUOUS
 10
79.5190327639
 20
7.2926778579
 11
79.5221266469
 21
0.000000053
  0
LINE
  5
48C
100
AcDbEntity
  8
ASSI
100
AcDbLine
 62
250
  6
CONTINUOUS
 10
79.5190327639
 20
7.2926778579
 11
79.5221266469
 21
0.000000053
  0
LINE
  5
48D
100
AcDbEntity
  8
RACCORDO
100
AcDbLine
 62
250
  6
CONTINUOUS
 10
78.1926456448
 20
23.1675430277
 11
78.1926456448
 21
22.6415492726
  0
LINE
  5
48E
100
AcDbEntity
  8
ASSI
100
AcDbLine
 62
250
  6
CONTINUOUS
 10
78.1926456448
 20
23.1675430277
 11
78.1926456448
 21
22.6415492726
  0
LINE
  5
48F
100
AcDbEntity
  8
RACCORDO
100
AcDbLine
 62
250
  6
CONTINUOUS
 10
78.1926456448
 20
-23.1675430277
 11
78.1926456448
 21
-22.6415492726
  0
LINE
  5
490
100
AcDbEntity
  8
ASSI
100
AcDbLine
 62
250
  6
CONTINUOUS
 10
78.1926456448
 20
-23.1675430277
 11
78.1926456448
 21
-22.6415492726
  0
LINE
  5
491
100
AcDbEntity
  8
CURVE_VERNICE
100
AcDbLine
 62
250
  6
CONTINUOUS
 10
78.75
 20
21.5
 11
78.75
 21
-21.5
  0
LINE
  5
492
100
AcDbEntity
  8
ASSI
100
AcDbLine
 62
250
  6
CONTINUOUS
 10
78.75
 20
21.5
 11
78.75
 21
-21.5
  0
LINE
  5
493
100
AcDbEntity
  8
0
100
AcDbLine
 62
7
  6
CONTINUOUS
 10
78.85
 20
21.7010963722
 11
78.85
 21
-21.7010963722
  0
LINE
  5
494
100
AcDbEntity
  8
ASSI
100
AcDbLine
 62
7
  6
CONTINUOUS
 10
78.85
 20
21.7010963722
 11
78.85
 21
-21.7010963722
  0
LINE
  5
495
100
AcDbEntity
  8
RACCORDO
100
AcDbLine
 62
250
  6
CONTINUOUS
 10
79.0228118795
 20
-0.0000046698
 11
79.0197179775
 21
-7.2846725862
  0
LINE
  5
496
100
AcDbEntity
  8
ASSI
100
AcDbLine
 62
250
  6
CONTINUOUS
 10
79.0228118795
 20
-0.0000046698
 11
79.0197179775
 21
-7.2846725862
  0
LINE
  5
497
100
AcDbEntity
  8
RACCORDO
100
AcDbLine
 62
250
  6
CONTINUOUS
 10
79.5221266469
 20
0.000000053
 11
79.5190327641
 21
-7.292677762
  0
LINE
  5
498
100
AcDbEntity
  8
ASSI
100
AcDbLine
 62
250
  6
CONTINUOUS
 10
79.5221266469
 20
0.000000053
 11
79.5190327641
 21
-7.292677762
  0
LINE
  5
499
100
AcDbEntity
  8
RACCORDO
100
AcDbLine
 62
250
  6
CONTINUOUS
 10
79.0197179775
 20
-7.2846725862
 11
79.010438451
 21
-14.5669391457
  0
LINE
  5
49A
100
AcDbEntity
  8
ASSI
100
AcDbLine
 62
250
  6
CONTINUOUS
 10
79.0197179775
 20
-7.2846725862
 11
79.010438451
 21
-14.5669391457
  0
LINE
  5
49B
100
AcDbEntity
  8
RACCORDO
100
AcDbLine
 62
250
  6
CONTINUOUS
 10
79.5190327641
 20
-7.292677762
 11
79.5097532492
 21
-14.5834396614
  0
LINE
  5
49C
100
AcDbEntity
  8
ASSI
100
AcDbLine
 62
250
  6
CONTINUOUS
 10
79.5190327641
 20
-7.292677762
 11
79.5097532492
 21
-14.5834396614
  0
LINE
  5
49D
100
AcDbEntity
  8
RACCORDO
100
AcDbLine
 62
250
  6
CONTINUOUS
 10
79.010438451
 20
-14.5669391457
 11
78.9949737656
 21
-21.8460839501
  0
LINE
  5
49E
100
AcDbEntity
  8
ASSI
100
AcDbLine
 62
250
  6
CONTINUOUS
 10
79.010438451
 20
-14.5669391457
 11
78.9949737656
 21
-21.8460839501
  0
LINE
  5
49F
100
AcDbEntity
  8
RACCORDO
100
AcDbLine
 62
250
  6
CONTINUOUS
 10
79.5097532492
 20
-14.5834396614
 11
79.4942885593
 21
-21.8703705759
  0
LINE
  5
4A0
100
AcDbEntity
  8
ASSI
100
AcDbLine
 62
250
  6
CONTINUOUS
 10
79.5097532492
 20
-14.5834396614
 11
79.4942885593
 21
-21.8703705759
  0
LWPOLYLINE
  5
4A1
100
AcDbEntity
  8
RACCORDO
100
AcDbPolyline
 62
250
  6
CONTINUOUS
 90
16
 70
0
 10
79.4942885593
 20
-21.8703705759
 10
79.4930696316
 20
-21.9257075394
 10
79.4893475979
 20
-21.9812414982
 10
79.4831224583
 20
-22.0369724478
 10
79.4744094194
 20
-22.0930962688
 10
79.4631932746
 20
-22.1494170692
 10
79.4494284042
 20
-22.2053471971
 10
79.4330479634
 20
-22.2608982434
 10
79.414118797
 20
-22.3160586297
 10
79.3927958197
 20
-22.3702059721
 10
79.3690171943
 20
-22.4233131057
 10
79.342844758
 20
-22.4754072303
 10
79.3146189372
 20
-22.5259475287
 10
79.2844532072
 20
-22.5747537495
 10
79.2522340927
 20
-22.6220061964
 10
79.2179615936
 20
-22.6677048937
  0
LWPOLYLINE
  5
4A2
100
AcDbEntity
  8
ASSI
100
AcDbPolyline
 62
250
  6
CONTINUOUS
 90
16
 70
0
 10
79.4942885593
 20
-21.8703705759
 10
79.4930696316
 20
-21.9257075394
 10
79.4893475979
 20
-21.9812414982
 10
79.4831224583
 20
-22.0369724478
 10
79.4744094194
 20
-22.0930962688
 10
79.4631932746
 20
-22.1494170692
 10
79.4494284042
 20
-22.2053471971
 10
79.4330479634
 20
-22.2608982434
 10
79.414118797
 20
-22.3160586297
 10
79.3927958197
 20
-22.3702059721
 10
79.3690171943
 20
-22.4233131057
 10
79.342844758
 20
-22.4754072303
 10
79.3146189372
 20
-22.5259475287
 10
79.2844532072
 20
-22.5747537495
 10
79.2522340927
 20
-22.6220061964
 10
79.2179615936
 20
-22.6677048937
  0
LWPOLYLINE
  5
4A3
100
AcDbEntity
  8
RACCORDO
100
AcDbPolyline
 62
250
  6
CONTINUOUS
 90
16
 70
0
 10
78.9949737542
 20
-21.8460839388
 10
78.9941680897
 20
-21.8799903925
 10
78.9918895682
 20
-21.9141478328
 10
78.9881013097
 20
-21.9484909292
 10
78.9827608932
 20
-21.9829979106
 10
78.9758411108
 20
-22.0175491064
 10
78.9673507712
 20
-22.0519310738
 10
78.957279317
 20
-22.0860831503
 10
78.9456269865
 20
-22.1199179546
 10
78.9324656004
 20
-22.1531916168
 10
78.9178240066
 20
-22.1858328851
 10
78.9017304972
 20
-22.2177813107
 10
78.8843037556
 20
-22.2488290757
 10
78.8656291213
 20
-22.2788789194
 10
78.8457360385
 20
-22.3079330121
 10
78.8246817863
 20
-22.3359476087
  0
LWPOLYLINE
  5
4A4
100
AcDbEntity
  8
ASSI
100
AcDbPolyline
 62
250
  6
CONTINUOUS
 90
16
 70
0
 10
78.9949737542
 20
-21.8460839388
 10
78.9941680897
 20
-21.8799903925
 10
78.9918895682
 20
-21.9141478328
 10
78.9881013097
 20
-21.9484909292
 10
78.9827608932
 20
-21.9829979106
 10
78.9758411108
 20
-22.0175491064
 10
78.9673507712
 20
-22.0519310738
 10
78.957279317
 20
-22.0860831503
 10
78.9456269865
 20
-22.1199179546
 10
78.9324656004
 20
-22.1531916168
 10
78.9178240066
 20
-22.1858328851
 10
78.9017304972
 20
-22.2177813107
 10
78.8843037556
 20
-22.2488290757
 10
78.8656291213
 20
-22.2788789194
 10
78.8457360385
 20
-22.3079330121
 10
78.8246817863
 20
-22.3359476087
  0
LWPOLYLINE
  5
4A5
100
AcDbEntity
  8
RACCORDO
100
AcDbPolyline
 62
250
  6
CONTINUOUS
 90
19
 70
0
 10
79.2179615936
 20
-22.6677048937
 10
79.176351582
 20
-22.7182633629
 10
79.1323970288
 20
-22.7665090903
 10
79.0860979339
 20
-22.8124421736
 10
79.0373275144
 20
-22.8561854773
 10
78.9862125532
 20
-22.897616318
 10
78.9331333991
 20
-22.9363664796
 10
78.8780583164
 20
-22.9724168273
 10
78.8210190407
 20
-23.0057866799
 10
78.7624911279
 20
-23.0361655164
 10
78.7024288658
 20
-23.0635235524
 10
78.6408779666
 20
-23.0878907343
 10
78.578451122
 20
-23.1090461397
 10
78.5151331161
 20
-23.1269365107
 10
78.4509391649
 20
-23.1416152248
 10
78.3865276081
 20
-23.1530213051
 10
78.3221178925
 20
-23.1611344468
 10
78.2574905714
 20
-23.165975016
 10
78.1926456448
 20
-23.1675430277
  0
LWPOLYLINE
  5
4A6
100
AcDbEntity
  8
ASSI
100
AcDbPolyline
 62
250
  6
CONTINUOUS
 90
19
 70
0
 10
79.2179615936
 20
-22.6677048937
 10
79.176351582
 20
-22.7182633629
 10
79.1323970288
 20
-22.7665090903
 10
79.0860979339
 20
-22.8124421736
 10
79.0373275144
 20
-22.8561854773
 10
78.9862125532
 20
-22.897616318
 10
78.9331333991
 20
-22.9363664796
 10
78.8780583164
 20
-22.9724168273
 10
78.8210190407
 20
-23.0057866799
 10
78.7624911279
 20
-23.0361655164
 10
78.7024288658
 20
-23.0635235524
 10
78.6408779666
 20
-23.0878907343
 10
78.578451122
 20
-23.1090461397
 10
78.5151331161
 20
-23.1269365107
 10
78.4509391649
 20
-23.1416152248
 10
78.3865276081
 20
-23.1530213051
 10
78.3221178925
 20
-23.1611344468
 10
78.2574905714
 20
-23.165975016
 10
78.1926456448
 20
-23.1675430277
  0
LWPOLYLINE
  5
4A7
100
AcDbEntity
  8
RACCORDO
100
AcDbPolyline
 62
250
  6
CONTINUOUS
 90
16
 70
0
 10
78.8246817863
 20
22.3359476087
 10
78.8455728747
 20
22.3081603338
 10
78.8653402762
 20
22.2793211761
 10
78.8839242385
 20
22.2494704518
 10
78.9012915954
 20
22.2186047679
 10
78.9173551301
 20
22.1868165111
 10
78.931995155
 20
22.1543045396
 10
78.9451769454
 20
22.121132021
 10
78.9568695047
 20
22.0873625554
 10
78.967002132
 20
22.0532146752
 10
78.9755690515
 20
22.018762168
 10
78.9825690809
 20
21.9840753373
 10
78.9879834633
 20
21.9493775422
 10
78.9918323247
 20
21.9147922109
 10
78.9941522636
 20
21.8803383339
 10
78.9949737581
 20
21.8460825133
  0
LWPOLYLINE
  5
4A8
100
AcDbEntity
  8
ASSI
100
AcDbPolyline
 62
250
  6
CONTINUOUS
 90
16
 70
0
 10
78.8246817863
 20
22.3359476087
 10
78.8455728747
 20
22.3081603338
 10
78.8653402762
 20
22.2793211761
 10
78.8839242385
 20
22.2494704518
 10
78.9012915954
 20
22.2186047679
 10
78.9173551301
 20
22.1868165111
 10
78.931995155
 20
22.1543045396
 10
78.9451769454
 20
22.121132021
 10
78.9568695047
 20
22.0873625554
 10
78.967002132
 20
22.0532146752
 10
78.9755690515
 20
22.018762168
 10
78.9825690809
 20
21.9840753373
 10
78.9879834633
 20
21.9493775422
 10
78.9918323247
 20
21.9147922109
 10
78.9941522636
 20
21.8803383339
 10
78.9949737581
 20
21.8460825133
  0
LWPOLYLINE
  5
4A9
100
AcDbEntity
  8
RACCORDO
100
AcDbPolyline
 62
250
  6
CONTINUOUS
 90
16
 70
0
 10
79.2179615936
 20
22.6677048937
 10
79.2519642914
 20
22.622403282
 10
79.2839680257
 20
22.5755159876
 10
79.3139727965
 20
22.527042986
 10
79.3420968248
 20
22.4768120613
 10
79.3682218897
 20
22.4249953764
 10
79.3919933284
 20
22.3721094828
 10
79.413351075
 20
22.3181356153
 10
79.4323551954
 20
22.2630925025
 10
79.4488312244
 20
22.2075529563
 10
79.4627195252
 20
22.1515103356
 10
79.4740797346
 20
22.094971265
 10
79.4829162981
 20
22.038528476
 10
79.4892306977
 20
21.9823795524
 10
79.4930214514
 20
21.9263269182
 10
79.4942885593
 20
21.8703705759
  0
LWPOLYLINE
  5
4AA
100
AcDbEntity
  8
ASSI
100
AcDbPolyline
 62
250
  6
CONTINUOUS
 90
16
 70
0
 10
79.2179615936
 20
22.6677048937
 10
79.2519642914
 20
22.622403282
 10
79.2839680257
 20
22.5755159876
 10
79.3139727965
 20
22.527042986
 10
79.3420968248
 20
22.4768120613
 10
79.3682218897
 20
22.4249953764
 10
79.3919933284
 20
22.3721094828
 10
79.413351075
 20
22.3181356153
 10
79.4323551954
 20
22.2630925025
 10
79.4488312244
 20
22.2075529563
 10
79.4627195252
 20
22.1515103356
 10
79.4740797346
 20
22.094971265
 10
79.4829162981
 20
22.038528476
 10
79.4892306977
 20
21.9823795524
 10
79.4930214514
 20
21.9263269182
 10
79.4942885593
 20
21.8703705759
  0
LWPOLYLINE
  5
4AB
100
AcDbEntity
  8
RACCORDO
100
AcDbPolyline
 62
250
  6
CONTINUOUS
 90
28
 70
0
 10
104.8700585586
 20
43.8714290238
 10
104.8686881559
 20
43.930404659
 10
104.863890799
 20
43.9891293049
 10
104.8556914589
 20
44.0474040146
 10
104.8441293465
 20
44.1050285906
 10
104.8292501648
 20
44.1618126557
 10
104.8111030301
 20
44.2175755305
 10
104.7897486426
 20
44.2721449935
 10
104.7652699892
 20
44.3253223099
 10
104.7377684947
 20
44.3768955349
 10
104.7073548702
 20
44.426684228
 10
104.6741364567
 20
44.4745382505
 10
104.6382282535
 20
44.520303288
 10
104.599760775
 20
44.5638300968
 10
104.5588708001
 20
44.6049806892
 10
104.5156926382
 20
44.6436280055
 10
104.4703775911
 20
44.6796477316
 10
104.423082596
 20
44.7129264419
 10
104.3739576264
 20
44.743363996
 10
104.3231672173
 20
44.7708645503
 10
104.2708870046
 20
44.7953396286
 10
104.2172895892
 20
44.8167126207
 10
104.1625605491
 20
44.8349147836
 10
104.10687934
 20
44.849892191
 10
104.0504131687
 20
44.8616025001
 10
103.993343731
 20
44.8700084074
 10
103.9358675486
 20
44.8750814005
 10
103.8781758769
 20
44.8768054117
  0
LWPOLYLINE
  5
4AC
100
AcDbEntity
  8
ASSI
100
AcDbPolyline
 62
250
  6
CONTINUOUS
 90
28
 70
0
 10
104.8700585586
 20
43.8714290238
 10
104.8686881559
 20
43.930404659
 10
104.863890799
 20
43.9891293049
 10
104.8556914589
 20
44.0474040146
 10
104.8441293465
 20
44.1050285906
 10
104.8292501648
 20
44.1618126557
 10
104.8111030301
 20
44.2175755305
 10
104.7897486426
 20
44.2721449935
 10
104.7652699892
 20
44.3253223099
 10
104.7377684947
 20
44.3768955349
 10
104.7073548702
 20
44.426684228
 10
104.6741364567
 20
44.4745382505
 10
104.6382282535
 20
44.520303288
 10
104.599760775
 20
44.5638300968
 10
104.5588708001
 20
44.6049806892
 10
104.5156926382
 20
44.6436280055
 10
104.4703775911
 20
44.6796477316
 10
104.423082596
 20
44.7129264419
 10
104.3739576264
 20
44.743363996
 10
104.3231672173
 20
44.7708645503
 10
104.2708870046
 20
44.7953396286
 10
104.2172895892
 20
44.8167126207
 10
104.1625605491
 20
44.8349147836
 10
104.10687934
 20
44.849892191
 10
104.0504131687
 20
44.8616025001
 10
103.993343731
 20
44.8700084074
 10
103.9358675486
 20
44.8750814005
 10
103.8781758769
 20
44.8768054117
  0
LWPOLYLINE
  5
4AD
100
AcDbEntity
  8
RACCORDO
100
AcDbPolyline
 62
250
  6
CONTINUOUS
 90
28
 70
0
 10
104.5704696982
 20
43.9246281065
 10
104.569627635
 20
43.9663052582
 10
104.5664296626
 20
44.007546129
 10
104.5608757811
 20
44.0483507751
 10
104.5529280557
 20
44.0888575385
 10
104.5426244211
 20
44.1289281764
 10
104.5300786815
 20
44.1681479222
 10
104.5152634356
 20
44.2065107593
 10
104.4982060847
 20
44.2440229185
 10
104.4791026373
 20
44.280288105
 10
104.4579354039
 20
44.3152832963
 10
104.4347220739
 20
44.3490318082
 10
104.4097117235
 20
44.381206932
 10
104.3828891152
 20
44.4117914742
 10
104.3542694865
 20
44.4408029562
 10
104.3241476257
 20
44.4679667926
 10
104.2925112557
 20
44.4932647268
 10
104.2593726536
 20
44.5167153391
 10
104.2250634396
 20
44.5380993262
 10
104.1895715849
 20
44.5573976116
 10
104.1529091183
 20
44.5746295539
 10
104.1154437467
 20
44.5896335076
 10
104.0771628556
 20
44.6023878343
 10
104.0380790595
 20
44.6129143806
 10
103.9985979086
 20
44.6211167166
 10
103.9588545862
 20
44.6269627369
 10
103.918713909
 20
44.6304846572
 10
103.8781758769
 20
44.6316825048
  0
LWPOLYLINE
  5
4AE
100
AcDbEntity
  8
ASSI
100
AcDbPolyline
 62
250
  6
CONTINUOUS
 90
28
 70
0
 10
104.5704696982
 20
43.9246281065
 10
104.569627635
 20
43.9663052582
 10
104.5664296626
 20
44.007546129
 10
104.5608757811
 20
44.0483507751
 10
104.5529280557
 20
44.0888575385
 10
104.5426244211
 20
44.1289281764
 10
104.5300786815
 20
44.1681479222
 10
104.5152634356
 20
44.2065107593
 10
104.4982060847
 20
44.2440229185
 10
104.4791026373
 20
44.280288105
 10
104.4579354039
 20
44.3152832963
 10
104.4347220739
 20
44.3490318082
 10
104.4097117235
 20
44.381206932
 10
104.3828891152
 20
44.4117914742
 10
104.3542694865
 20
44.4408029562
 10
104.3241476257
 20
44.4679667926
 10
104.2925112557
 20
44.4932647268
 10
104.2593726536
 20
44.5167153391
 10
104.2250634396
 20
44.5380993262
 10
104.1895715849
 20
44.5573976116
 10
104.1529091183
 20
44.5746295539
 10
104.1154437467
 20
44.5896335076
 10
104.0771628556
 20
44.6023878343
 10
104.0380790595
 20
44.6129143806
 10
103.9985979086
 20
44.6211167166
 10
103.9588545862
 20
44.6269627369
 10
103.918713909
 20
44.6304846572
 10
103.8781758769
 20
44.6316825048
  0
LWPOLYLINE
  5
4AF
100
AcDbEntity
  8
RACCORDO
100
AcDbPolyline
 62
250
  6
CONTINUOUS
 90
9
 70
0
 10
104.5704696982
 20
-43.9246281065
 10
104.5492646814
 20
-41.5803705021
 10
104.5298115775
 20
-39.2305985388
 10
104.5121103866
 20
-36.8757866537
 10
104.4961582719
 20
-34.51641446
 10
104.4819580701
 20
-32.1529541681
 10
104.4695182913
 20
-29.7858704217
 10
104.4588417722
 20
-27.415636892
 10
104.449925676
 20
-25.0427362495
  0
LWPOLYLINE
  5
4B0
100
AcDbEntity
  8
ASSI
100
AcDbPolyline
 62
250
  6
CONTINUOUS
 90
9
 70
0
 10
104.5704696982
 20
-43.9246281065
 10
104.5492646814
 20
-41.5803705021
 10
104.5298115775
 20
-39.2305985388
 10
104.5121103866
 20
-36.8757866537
 10
104.4961582719
 20
-34.51641446
 10
104.4819580701
 20
-32.1529541681
 10
104.4695182913
 20
-29.7858704217
 10
104.4588417722
 20
-27.415636892
 10
104.449925676
 20
-25.0427362495
  0
LWPOLYLINE
  5
4B1
100
AcDbEntity
  8
RACCORDO
100
AcDbPolyline
 62
250
  6
CONTINUOUS
 90
9
 70
0
 10
104.8700585586
 20
-43.8714290238
 10
104.8488539353
 20
-41.530635219
 10
104.8294010733
 20
-39.1852651697
 10
104.8116999728
 20
-36.8353188758
 10
104.7957477181
 20
-34.4803128887
 10
104.7815472247
 20
-32.1207306571
 10
104.7691072395
 20
-29.7580225269
 10
104.7584306778
 20
-27.3926719467
 10
104.7495146241
 20
-25.0241954679
  0
LWPOLYLINE
  5
4B2
100
AcDbEntity
  8
ASSI
100
AcDbPolyline
 62
250
  6
CONTINUOUS
 90
9
 70
0
 10
104.8700585586
 20
-43.8714290238
 10
104.8488539353
 20
-41.530635219
 10
104.8294010733
 20
-39.1852651697
 10
104.8116999728
 20
-36.8353188758
 10
104.7957477181
 20
-34.4803128887
 10
104.7815472247
 20
-32.1207306571
 10
104.7691072395
 20
-29.7580225269
 10
104.7584306778
 20
-27.3926719467
 10
104.7495146241
 20
-25.0241954679
  0
LINE
  5
4B3
100
AcDbEntity
  8
RACCORDO
100
AcDbLine
 62
250
  6
CONTINUOUS
 10
104.449925676
 20
-25.0427362495
 11
104.4336291891
 21
-18.8925043042
  0
LINE
  5
4B4
100
AcDbEntity
  8
ASSI
100
AcDbLine
 62
250
  6
CONTINUOUS
 10
104.449925676
 20
-25.0427362495
 11
104.4336291891
 21
-18.8925043042
  0
LINE
  5
4B5
100
AcDbEntity
  8
RACCORDO
100
AcDbLine
 62
250
  6
CONTINUOUS
 10
104.7495146241
 20
-25.0241954679
 11
104.7332181209
 21
-18.8795038031
  0
LINE
  5
4B6
100
AcDbEntity
  8
ASSI
100
AcDbLine
 62
250
  6
CONTINUOUS
 10
104.7495146241
 20
-25.0241954679
 11
104.7332181209
 21
-18.8795038031
  0
LINE
  5
4B7
100
AcDbEntity
  8
RACCORDO
100
AcDbLine
 62
250
  6
CONTINUOUS
 10
104.4336291891
 20
-18.8925043042
 11
104.4203325776
 21
-11.3380611962
  0
LINE
  5
4B8
100
AcDbEntity
  8
ASSI
100
AcDbLine
 62
250
  6
CONTINUOUS
 10
104.4336291891
 20
-18.8925043042
 11
104.4203325776
 21
-11.3380611962
  0
LINE
  5
4B9
100
AcDbEntity
  8
RACCORDO
100
AcDbLine
 62
250
  6
CONTINUOUS
 10
104.7332181209
 20
-18.8795038031
 11
104.7199214528
 21
-11.3305136537
  0
LINE
  5
4BA
100
AcDbEntity
  8
ASSI
100
AcDbLine
 62
250
  6
CONTINUOUS
 10
104.7332181209
 20
-18.8795038031
 11
104.7199214528
 21
-11.3305136537
  0
LINE
  5
4BB
100
AcDbEntity
  8
RACCORDO
100
AcDbLine
 62
250
  6
CONTINUOUS
 10
104.4203325776
 20
-11.3380611962
 11
104.4136823261
 21
-3.7797569604
  0
LINE
  5
4BC
100
AcDbEntity
  8
ASSI
100
AcDbLine
 62
250
  6
CONTINUOUS
 10
104.4203325776
 20
-11.3380611962
 11
104.4136823261
 21
-3.7797569604
  0
LINE
  5
4BD
100
AcDbEntity
  8
RACCORDO
100
AcDbLine
 62
250
  6
CONTINUOUS
 10
104.7199214528
 20
-11.3305136537
 11
104.713271186
 21
-3.7771499691
  0
LINE
  5
4BE
100
AcDbEntity
  8
ASSI
100
AcDbLine
 62
250
  6
CONTINUOUS
 10
104.7199214528
 20
-11.3305136537
 11
104.713271186
 21
-3.7771499691
  0
LINE
  5
4BF
100
AcDbEntity
  8
RACCORDO
100
AcDbLine
 62
250
  6
CONTINUOUS
 10
103.8781758769
 20
-44.6316825048
 11
103.8781758772
 21
-44.8768054117
  0
LINE
  5
4C0
100
AcDbEntity
  8
ASSI
100
AcDbLine
 62
250
  6
CONTINUOUS
 10
103.8781758769
 20
-44.6316825048
 11
103.8781758772
 21
-44.8768054117
  0
LINE
  5
4C1
100
AcDbEntity
  8
RACCORDO
100
AcDbLine
 62
250
  6
CONTINUOUS
 10
103.8781758769
 20
44.6316825048
 11
103.8781758769
 21
44.8768054117
  0
LINE
  5
4C2
100
AcDbEntity
  8
ASSI
100
AcDbLine
 62
250
  6
CONTINUOUS
 10
103.8781758769
 20
44.6316825048
 11
103.8781758769
 21
44.8768054117
  0
LINE
  5
4C3
100
AcDbEntity
  8
RACCORDO
100
AcDbLine
 62
7
  6
CONTINUOUS
 10
105.0
 20
-44.0013704652
 11
105.0
 21
44.0013704652
  0
LINE
  5
4C4
100
AcDbEntity
  8
ASSI
100
AcDbLine
 62
7
  6
CONTINUOUS
 10
105.0
 20
-44.0013704652
 11
105.0
 21
44.0013704652
  0
LINE
  5
4C5
100
AcDbEntity
  8
RACCORDO
100
AcDbLine
 62
250
  6
CONTINUOUS
 10
104.4136823261
 20
-3.7797569604
 11
104.4136823257
 21
3.7797559374
  0
LINE
  5
4C6
100
AcDbEntity
  8
ASSI
100
AcDbLine
 62
250
  6
CONTINUOUS
 10
104.4136823261
 20
-3.7797569604
 11
104.4136823257
 21
3.7797559374
  0
LINE
  5
4C7
100
AcDbEntity
  8
RACCORDO
100
AcDbLine
 62
250
  6
CONTINUOUS
 10
104.713271186
 20
-3.7771499691
 11
104.7132711867
 21
3.77715111
  0
LINE
  5
4C8
100
AcDbEntity
  8
ASSI
100
AcDbLine
 62
250
  6
CONTINUOUS
 10
104.713271186
 20
-3.7771499691
 11
104.7132711867
 21
3.77715111
  0
LINE
  5
4C9
100
AcDbEntity
  8
RACCORDO
100
AcDbLine
 62
250
  6
CONTINUOUS
 10
104.4136823257
 20
3.7797559374
 11
104.4203325766
 21
11.3380604683
  0
LINE
  5
4CA
100
AcDbEntity
  8
ASSI
100
AcDbLine
 62
250
  6
CONTINUOUS
 10
104.4136823257
 20
3.7797559374
 11
104.4203325766
 21
11.3380604683
  0
LINE
  5
4CB
100
AcDbEntity
  8
RACCORDO
100
AcDbLine
 62
250
  6
CONTINUOUS
 10
104.7132711867
 20
3.77715111
 11
104.7199214545
 21
11.3305150114
  0
LINE
  5
4CC
100
AcDbEntity
  8
ASSI
100
AcDbLine
 62
250
  6
CONTINUOUS
 10
104.7132711867
 20
3.77715111
 11
104.7199214545
 21
11.3305150114
  0
LINE
  5
4CD
100
AcDbEntity
  8
RACCORDO
100
AcDbLine
 62
250
  6
CONTINUOUS
 10
104.4203325766
 20
11.3380604683
 11
104.4336291883
 21
18.8925038652
  0
LINE
  5
4CE
100
AcDbEntity
  8
ASSI
100
AcDbLine
 62
250
  6
CONTINUOUS
 10
104.4203325766
 20
11.3380604683
 11
104.4336291883
 21
18.8925038652
  0
LINE
  5
4CF
100
AcDbEntity
  8
RACCORDO
100
AcDbLine
 62
250
  6
CONTINUOUS
 10
104.7199214545
 20
11.3305150114
 11
104.7332181219
 21
18.8795044447
  0
LINE
  5
4D0
100
AcDbEntity
  8
ASSI
100
AcDbLine
 62
250
  6
CONTINUOUS
 10
104.7199214545
 20
11.3305150114
 11
104.7332181219
 21
18.8795044447
  0
LWPOLYLINE
  5
4D1
100
AcDbEntity
  8
RACCORDO
100
AcDbPolyline
 62
250
  6
CONTINUOUS
 90
10
 70
0
 10
104.4336291883
 20
18.8925038652
 10
104.4499256767
 20
25.0427362222
 10
104.4588417736
 20
27.4156369854
 10
104.4695182923
 20
29.7858705046
 10
104.4819580689
 20
32.1529540084
 10
104.4961582673
 20
34.5164139278
 10
104.5121103802
 20
36.8757859222
 10
104.5298115717
 20
39.2305978808
 10
104.5492646777
 20
41.5803700883
 10
104.5704696982
 20
43.9246281065
  0
LWPOLYLINE
  5
4D2
100
AcDbEntity
  8
ASSI
100
AcDbPolyline
 62
250
  6
CONTINUOUS
 90
10
 70
0
 10
104.4336291883
 20
18.8925038652
 10
104.4499256767
 20
25.0427362222
 10
104.4588417736
 20
27.4156369854
 10
104.4695182923
 20
29.7858705046
 10
104.4819580689
 20
32.1529540084
 10
104.4961582673
 20
34.5164139278
 10
104.5121103802
 20
36.8757859222
 10
104.5298115717
 20
39.2305978808
 10
104.5492646777
 20
41.5803700883
 10
104.5704696982
 20
43.9246281065
  0
LWPOLYLINE
  5
4D3
100
AcDbEntity
  8
RACCORDO
100
AcDbPolyline
 62
250
  6
CONTINUOUS
 90
10
 70
0
 10
104.7332181219
 20
18.8795044447
 10
104.7495146367
 20
25.0241988665
 10
104.7584307064
 20
27.3926785798
 10
104.7691072875
 20
29.7580322302
 10
104.7815473045
 20
32.1207441804
 10
104.7957478329
 20
34.4803300678
 10
104.8117000999
 20
36.8353368046
 10
104.829401181
 20
39.1852800282
 10
104.8488540005
 20
41.5306441013
 10
104.8700585586
 20
43.8714290238
  0
LWPOLYLINE
  5
4D4
100
AcDbEntity
  8
ASSI
100
AcDbPolyline
 62
250
  6
CONTINUOUS
 90
10
 70
0
 10
104.7332181219
 20
18.8795044447
 10
104.7495146367
 20
25.0241988665
 10
104.7584307064
 20
27.3926785798
 10
104.7691072875
 20
29.7580322302
 10
104.7815473045
 20
32.1207441804
 10
104.7957478329
 20
34.4803300678
 10
104.8117000999
 20
36.8353368046
 10
104.829401181
 20
39.1852800282
 10
104.8488540005
 20
41.5306441013
 10
104.8700585586
 20
43.8714290238
  0
LWPOLYLINE
  5
4D5
100
AcDbEntity
  8
0
100
AcDbPolyline
 62
7
  6
CONTINUOUS
 90
10
 70
0
 43
0.3500000006
 10
157.2500072021
 20
-1.9285708809
 10
156.3928511353
 20
-1.0714295425
 10
155.5357131958
 20
-0.8571427917
 10
154.6785752563
 20
-0.8571427917
 10
154.2500062866
 20
-1.2857140274
 10
154.2500062866
 20
-1.9285708809
 10
154.6785752563
 20
-2.3571432495
 10
155.5357131958
 20
-2.3571432495
 10
155.9642821655
 20
-1.9285708809
 10
155.9642821655
 20
-1.0000006256
  0
LINE
  5
4D6
100
AcDbEntity
  8
RACCORDO
100
AcDbLine
 62
7
  6
CONTINUOUS
 10
-130.3211981714
 20
-44.8768054117
 11
-127.9705053922
 21
-45.0
  0
LINE
  5
4D7
100
AcDbEntity
  8
ASSI
100
AcDbLine
 62
7
  6
CONTINUOUS
 10
-130.3211981714
 20
-44.8768054117
 11
-127.9705053922
 21
-45.0
  0
LINE
  5
4D8
100
AcDbEntity
  8
RACCORDO
100
AcDbLine
 62
250
  6
CONTINUOUS
 10
-130.449935797
 20
-43.8714290238
 11
-127.9705053922
 21
-44.0013704652
  0
LINE
  5
4D9
100
AcDbEntity
  8
ASSI
100
AcDbLine
 62
250
  6
CONTINUOUS
 10
-130.449935797
 20
-43.8714290238
 11
-127.9705053922
 21
-44.0013704652
  0
LWPOLYLINE
  5
4DA
100
AcDbEntity
  8
0
100
AcDbPolyline
 62
7
  6
CONTINUOUS
 90
10
 70
0
 43
0.3500000006
 10
-127.5275744934
 20
61.7500003967
 10
-128.170427948
 20
61.1071469421
 10
-128.5990059814
 20
60.249999939
 10
-128.5990059814
 20
59.1785684509
 10
-128.170427948
 20
58.7499994812
 10
-127.5275744934
 20
58.7499994812
 10
-127.0990055237
 20
59.1785684509
 10
-127.0990055237
 20
60.0357154541
 10
-127.5275744934
 20
60.4642844238
 10
-128.4561436157
 20
60.4642844238
  0
LINE
  5
4DB
100
AcDbEntity
  8
RACCORDO
100
AcDbLine
 62
250
  6
CONTINUOUS
 10
-130.7037792098
 20
-43.9188367757
 11
-130.6797060069
 21
-43.9140814385
  0
LINE
  5
4DC
100
AcDbEntity
  8
ASSI
100
AcDbLine
 62
250
  6
CONTINUOUS
 10
-130.7037792098
 20
-43.9188367757
 11
-130.6797060069
 21
-43.9140814385
  0
LINE
  5
4DD
100
AcDbEntity
  8
RACCORDO
100
AcDbLine
 62
250
  6
CONTINUOUS
 10
-130.6797060069
 20
-43.9140814385
 11
-130.6307805826
 21
-43.9047267214
  0
LINE
  5
4DE
100
AcDbEntity
  8
ASSI
100
AcDbLine
 62
250
  6
CONTINUOUS
 10
-130.6797060069
 20
-43.9140814385
 11
-130.6307805826
 21
-43.9047267214
  0
LINE
  5
4DF
100
AcDbEntity
  8
RACCORDO
100
AcDbLine
 62
250
  6
CONTINUOUS
 10
-130.6307805826
 20
-43.9047267214
 11
-130.5232936961
 21
-43.8847738508
  0
LINE
  5
4E0
100
AcDbEntity
  8
ASSI
100
AcDbLine
 62
250
  6
CONTINUOUS
 10
-130.6307805826
 20
-43.9047267214
 11
-130.5232936961
 21
-43.8847738508
  0
LINE
  5
4E1
100
AcDbEntity
  8
RACCORDO
100
AcDbLine
 62
250
  6
CONTINUOUS
 10
-130.5232936961
 20
-43.8847738508
 11
-130.449935797
 21
-43.8714290238
  0
LINE
  5
4E2
100
AcDbEntity
  8
ASSI
100
AcDbLine
 62
250
  6
CONTINUOUS
 10
-130.5232936961
 20
-43.8847738508
 11
-130.449935797
 21
-43.8714290238
  0
LWPOLYLINE
  5
4E3
100
AcDbEntity
  8
RACCORDO
100
AcDbPolyline
 62
250
  6
CONTINUOUS
 90
9
 70
0
 10
-130.3211981714
 20
-44.8768054117
 10
-130.3222869971
 20
-44.8750861756
 10
-130.3237595039
 20
-44.8700269096
 10
-130.3256065125
 20
-44.8616430028
 10
-130.327819915
 20
-44.8499639429
 10
-130.3303914851
 20
-44.8350253678
 10
-130.3333123959
 20
-44.8168612786
 10
-130.336582222
 20
-44.7955145933
 10
-130.3401879808
 20
-44.7710547175
  0
LWPOLYLINE
  5
4E4
100
AcDbEntity
  8
ASSI
100
AcDbPolyline
 62
250
  6
CONTINUOUS
 90
9
 70
0
 10
-130.3211981714
 20
-44.8768054117
 10
-130.3222869971
 20
-44.8750861756
 10
-130.3237595039
 20
-44.8700269096
 10
-130.3256065125
 20
-44.8616430028
 10
-130.327819915
 20
-44.8499639429
 10
-130.3303914851
 20
-44.8350253678
 10
-130.3333123959
 20
-44.8168612786
 10
-130.336582222
 20
-44.7955145933
 10
-130.3401879808
 20
-44.7710547175
  0
LWPOLYLINE
  5
4E5
100
AcDbEntity
  8
RACCORDO
100
AcDbPolyline
 62
250
  6
CONTINUOUS
 90
3
 70
0
 10
-133.1705053814
 20
-22.6677048932
 10
-133.1694432067
 20
-22.6675845031
 10
-133.1662575141
 20
-22.667357485
  0
LWPOLYLINE
  5
4E6
100
AcDbEntity
  8
ASSI
100
AcDbPolyline
 62
250
  6
CONTINUOUS
 90
3
 70
0
 10
-133.1705053814
 20
-22.6677048932
 10
-133.1694432067
 20
-22.6675845031
 10
-133.1662575141
 20
-22.667357485
  0
LINE
  5
4E7
100
AcDbEntity
  8
RACCORDO
100
AcDbLine
 62
250
  6
CONTINUOUS
 10
-133.1662575141
 20
-22.667357485
 11
-133.1536211525
 21
-22.6665907705
  0
LINE
  5
4E8
100
AcDbEntity
  8
ASSI
100
AcDbLine
 62
250
  6
CONTINUOUS
 10
-133.1662575141
 20
-22.667357485
 11
-133.1536211525
 21
-22.6665907705
  0
LINE
  5
4E9
100
AcDbEntity
  8
RACCORDO
100
AcDbLine
 62
250
  6
CONTINUOUS
 10
-133.1536211525
 20
-22.6665907705
 11
-133.0700933387
 21
-22.6620480449
  0
LINE
  5
4EA
100
AcDbEntity
  8
ASSI
100
AcDbLine
 62
250
  6
CONTINUOUS
 10
-133.1536211525
 20
-22.6665907705
 11
-133.0700933387
 21
-22.6620480449
  0
LINE
  5
4EB
100
AcDbEntity
  8
RACCORDO
100
AcDbLine
 62
250
  6
CONTINUOUS
 10
-133.0700933387
 20
-22.6620480449
 11
-132.8865870318
 21
-22.6525930904
  0
LINE
  5
4EC
100
AcDbEntity
  8
ASSI
100
AcDbLine
 62
250
  6
CONTINUOUS
 10
-133.0700933387
 20
-22.6620480449
 11
-132.8865870318
 21
-22.6525930904
  0
LWPOLYLINE
  5
4ED
100
AcDbEntity
  8
0
100
AcDbPolyline
 62
7
  6
CONTINUOUS
 90
3
 70
0
 43
0.3500000006
 10
-129.5990062866
 20
59.0357151489
 10
-129.6704284058
 20
58.8214306641
 10
-129.8132907715
 20
58.5357149963
  0
LINE
  5
4EE
100
AcDbEntity
  8
RACCORDO
100
AcDbLine
 62
250
  6
CONTINUOUS
 10
-130.4039133456
 20
44.2721449935
 11
-130.3792893658
 21
44.4745382505
  0
LINE
  5
4EF
100
AcDbEntity
  8
ASSI
100
AcDbLine
 62
250
  6
CONTINUOUS
 10
-130.4039133456
 20
44.2721449935
 11
-130.3792893658
 21
44.4745382505
  0
LINE
  5
4F0
100
AcDbEntity
  8
RACCORDO
100
AcDbLine
 62
250
  6
CONTINUOUS
 10
-130.3792893658
 20
44.4745382505
 11
-130.3627298786
 21
44.6049806892
  0
LINE
  5
4F1
100
AcDbEntity
  8
ASSI
100
AcDbLine
 62
250
  6
CONTINUOUS
 10
-130.3792893658
 20
44.4745382505
 11
-130.3627298786
 21
44.6049806892
  0
LINE
  5
4F2
100
AcDbEntity
  8
RACCORDO
100
AcDbLine
 62
250
  6
CONTINUOUS
 10
-130.3627298786
 20
44.6049806892
 11
-130.3528859885
 21
44.6796477316
  0
LINE
  5
4F3
100
AcDbEntity
  8
ASSI
100
AcDbLine
 62
250
  6
CONTINUOUS
 10
-130.3627298786
 20
44.6049806892
 11
-130.3528859885
 21
44.6796477316
  0
LWPOLYLINE
  5
4F4
100
AcDbEntity
  8
RACCORDO
100
AcDbPolyline
 62
250
  6
CONTINUOUS
 90
11
 70
0
 10
-130.3528859885
 20
44.6796477316
 10
-130.3441313549
 20
44.743363996
 10
-130.3402147745
 20
44.7708645503
 10
-130.3366075659
 20
44.7953396286
 10
-130.3333355781
 20
44.8167126207
 10
-130.3304104094
 20
44.8349147836
 10
-130.3278331633
 20
44.849892191
 10
-130.3256147772
 20
44.8616025001
 10
-130.3237642827
 20
44.8700084074
 10
-130.3222890203
 20
44.8750814005
 10
-130.3211981714
 20
44.8768054117
  0
LWPOLYLINE
  5
4F5
100
AcDbEntity
  8
ASSI
100
AcDbPolyline
 62
250
  6
CONTINUOUS
 90
11
 70
0
 10
-130.3528859885
 20
44.6796477316
 10
-130.3441313549
 20
44.743363996
 10
-130.3402147745
 20
44.7708645503
 10
-130.3366075659
 20
44.7953396286
 10
-130.3333355781
 20
44.8167126207
 10
-130.3304104094
 20
44.8349147836
 10
-130.3278331633
 20
44.849892191
 10
-130.3256147772
 20
44.8616025001
 10
-130.3237642827
 20
44.8700084074
 10
-130.3222890203
 20
44.8750814005
 10
-130.3211981714
 20
44.8768054117
  0
LWPOLYLINE
  5
4F6
100
AcDbEntity
  8
RACCORDO
100
AcDbPolyline
 62
250
  6
CONTINUOUS
 90
10
 70
0
 10
-130.449935797
 20
-43.8714290238
 10
-130.8545441131
 20
-41.530635219
 10
-131.2257268307
 20
-39.1852651697
 10
-131.5634839498
 20
-36.8353188758
 10
-131.8678711025
 20
-34.4803128887
 10
-132.1388326566
 20
-32.1207306571
 10
-132.3762017163
 20
-29.7580225269
 10
-132.5799226493
 20
-27.3926719467
 10
-132.7500510878
 20
-25.0241954679
 10
-132.8865870318
 20
-22.6525930904
  0
LWPOLYLINE
  5
4F7
100
AcDbEntity
  8
ASSI
100
AcDbPolyline
 62
250
  6
CONTINUOUS
 90
10
 70
0
 10
-130.449935797
 20
-43.8714290238
 10
-130.8545441131
 20
-41.530635219
 10
-131.2257268307
 20
-39.1852651697
 10
-131.5634839498
 20
-36.8353188758
 10
-131.8678711025
 20
-34.4803128887
 10
-132.1388326566
 20
-32.1207306571
 10
-132.3762017163
 20
-29.7580225269
 10
-132.5799226493
 20
-27.3926719467
 10
-132.7500510878
 20
-25.0241954679
 10
-132.8865870318
 20
-22.6525930904
  0
LINE
  5
4F8
100
AcDbEntity
  8
RACCORDO
100
AcDbLine
 62
250
  6
CONTINUOUS
 10
-130.3401879808
 20
-44.7710547175
 11
-130.3483275734
 21
-44.7131507633
  0
LINE
  5
4F9
100
AcDbEntity
  8
ASSI
100
AcDbLine
 62
250
  6
CONTINUOUS
 10
-130.3401879808
 20
-44.7710547175
 11
-130.3483275734
 21
-44.7131507633
  0
LINE
  5
4FA
100
AcDbEntity
  8
RACCORDO
100
AcDbLine
 62
250
  6
CONTINUOUS
 10
-130.3483275734
 20
-44.7131507633
 11
-130.3576412054
 21
-44.6438930823
  0
LINE
  5
4FB
100
AcDbEntity
  8
ASSI
100
AcDbLine
 62
250
  6
CONTINUOUS
 10
-130.3483275734
 20
-44.7131507633
 11
-130.3576412054
 21
-44.6438930823
  0
LINE
  5
4FC
100
AcDbEntity
  8
RACCORDO
100
AcDbLine
 62
250
  6
CONTINUOUS
 10
-130.3576412054
 20
-44.6438930823
 11
-130.3735214862
 21
-44.5206163526
  0
LINE
  5
4FD
100
AcDbEntity
  8
ASSI
100
AcDbLine
 62
250
  6
CONTINUOUS
 10
-130.3576412054
 20
-44.6438930823
 11
-130.3735214862
 21
-44.5206163526
  0
LWPOLYLINE
  5
4FE
100
AcDbEntity
  8
RACCORDO
100
AcDbPolyline
 62
250
  6
CONTINUOUS
 90
3
 70
0
 10
-130.3735214862
 20
-44.5206163526
 10
-130.3974904199
 20
-44.3256914554
 10
-130.4038673418
 20
-44.2725352288
  0
LWPOLYLINE
  5
4FF
100
AcDbEntity
  8
ASSI
100
AcDbPolyline
 62
250
  6
CONTINUOUS
 90
3
 70
0
 10
-130.3735214862
 20
-44.5206163526
 10
-130.3974904199
 20
-44.3256914554
 10
-130.4038673418
 20
-44.2725352288
  0
LINE
  5
500
100
AcDbEntity
  8
0
100
AcDbLine
 62
7
  6
CONTINUOUS
 10
-132.8627285619
 20
-27.423487196
 11
-132.8638910035
 21
-27.4087686351
  0
LINE
  5
501
100
AcDbEntity
  8
ASSI
100
AcDbLine
 62
7
  6
CONTINUOUS
 10
-132.8627285619
 20
-27.423487196
 11
-132.8638910035
 21
-27.4087686351
  0
LWPOLYLINE
  5
502
100
AcDbEntity
  8
RACCORDO
100
AcDbPolyline
 62
250
  6
CONTINUOUS
 90
13
 70
0
 10
-132.8865870318
 20
-22.6525930904
 10
-133.0610068934
 20
-18.8795038031
 10
-133.2037186945
 20
-15.1054773242
 10
-133.3147224354
 20
-11.3305136537
 10
-133.3940237903
 20
-7.5543004072
 10
-133.4416170849
 20
-3.7771499691
 10
-133.4574852957
 20
0.0000005072
 10
-133.4416170713
 20
3.77715111
 10
-133.3940237632
 20
7.554301751
 10
-133.314722402
 20
11.3305150114
 10
-133.2037186649
 20
15.1054784183
 10
-133.0610068748
 20
18.8795044447
 10
-132.8865870318
 20
22.6525930904
  0
LWPOLYLINE
  5
503
100
AcDbEntity
  8
ASSI
100
AcDbPolyline
 62
250
  6
CONTINUOUS
 90
13
 70
0
 10
-132.8865870318
 20
-22.6525930904
 10
-133.0610068934
 20
-18.8795038031
 10
-133.2037186945
 20
-15.1054773242
 10
-133.3147224354
 20
-11.3305136537
 10
-133.3940237903
 20
-7.5543004072
 10
-133.4416170849
 20
-3.7771499691
 10
-133.4574852957
 20
0.0000005072
 10
-133.4416170713
 20
3.77715111
 10
-133.3940237632
 20
7.554301751
 10
-133.314722402
 20
11.3305150114
 10
-133.2037186649
 20
15.1054784183
 10
-133.0610068748
 20
18.8795044447
 10
-132.8865870318
 20
22.6525930904
  0
LWPOLYLINE
  5
504
100
AcDbEntity
  8
0
100
AcDbPolyline
 62
7
  6
CONTINUOUS
 90
4
 70
0
 43
0.3500000006
 10
-132.6704293213
 20
59.1785684509
 10
-132.6704293213
 20
60.0357154541
 10
-132.2418603516
 20
60.4642844238
 10
-131.5989978333
 20
60.4642844238
  0
LWPOLYLINE
  5
505
100
AcDbEntity
  8
RACCORDO
100
AcDbPolyline
 62
250
  6
CONTINUOUS
 90
10
 70
0
 10
-132.8865870318
 20
22.6525930904
 10
-132.7500508475
 20
25.0241988665
 10
-132.5799221031
 20
27.3926785798
 10
-132.3762007987
 20
29.7580322302
 10
-132.1388311347
 20
32.1207441804
 10
-131.8678689106
 20
34.4803300678
 10
-131.5634815249
 20
36.8353368046
 10
-131.2257247772
 20
39.1852800282
 10
-130.8545428679
 20
41.5306441013
 10
-130.449935797
 20
43.8714290238
  0
LWPOLYLINE
  5
506
100
AcDbEntity
  8
ASSI
100
AcDbPolyline
 62
250
  6
CONTINUOUS
 90
10
 70
0
 10
-132.8865870318
 20
22.6525930904
 10
-132.7500508475
 20
25.0241988665
 10
-132.5799221031
 20
27.3926785798
 10
-132.3762007987
 20
29.7580322302
 10
-132.1388311347
 20
32.1207441804
 10
-131.8678689106
 20
34.4803300678
 10
-131.5634815249
 20
36.8353368046
 10
-131.2257247772
 20
39.1852800282
 10
-130.8545428679
 20
41.5306441013
 10
-130.449935797
 20
43.8714290238
  0
LINE
  5
507
100
AcDbEntity
  8
0
100
AcDbLine
 62
250
  6
CONTINUOUS
 10
-132.8630639753
 20
27.4192419681
 11
-132.8635389327
 21
27.4132282182
  0
LINE
  5
508
100
AcDbEntity
  8
RACCORDO
100
AcDbLine
 62
250
  6
CONTINUOUS
 10
-130.449935797
 20
43.8714290238
 11
-130.4168887325
 21
44.1618126557
  0
LINE
  5
509
100
AcDbEntity
  8
ASSI
100
AcDbLine
 62
250
  6
CONTINUOUS
 10
-130.449935797
 20
43.8714290238
 11
-130.4168887325
 21
44.1618126557
  0
LINE
  5
50A
100
AcDbEntity
  8
RACCORDO
100
AcDbLine
 62
250
  6
CONTINUOUS
 10
-130.4168887325
 20
44.1618126557
 11
-130.4039133456
 21
44.2721449935
  0
LINE
  5
50B
100
AcDbEntity
  8
ASSI
100
AcDbLine
 62
250
  6
CONTINUOUS
 10
-130.4168887325
 20
44.1618126557
 11
-130.4039133456
 21
44.2721449935
  0
LINE
  5
50C
100
AcDbEntity
  8
DRAFT
100
AcDbLine
 62
7
  6
CONTINUOUS
 10
-125.1705053922
 20
-3.8526539614
 11
-127.1705053922
 21
-3.5
  0
LINE
  5
50D
100
AcDbEntity
  8
ASSI
100
AcDbLine
 62
7
  6
CONTINUOUS
 10
-125.1705053922
 20
-3.8526539614
 11
-127.1705053922
 21
-3.5
  0
LINE
  5
50E
100
AcDbEntity
  8
RACCORDO
100
AcDbLine
 62
250
  6
CONTINUOUS
 10
-130.4038673418
 20
-44.2725352288
 11
-130.4300827209
 21
-44.0476157488
  0
LINE
  5
50F
100
AcDbEntity
  8
ASSI
100
AcDbLine
 62
250
  6
CONTINUOUS
 10
-130.4038673418
 20
-44.2725352288
 11
-130.4300827209
 21
-44.0476157488
  0
LINE
  5
510
100
AcDbEntity
  8
RACCORDO
100
AcDbLine
 62
250
  6
CONTINUOUS
 10
-130.4300827209
 20
-44.0476157488
 11
-130.449935797
 21
-43.8714290238
  0
LINE
  5
511
100
AcDbEntity
  8
ASSI
100
AcDbLine
 62
250
  6
CONTINUOUS
 10
-130.4300827209
 20
-44.0476157488
 11
-130.449935797
 21
-43.8714290238
  0
LINE
  5
512
100
AcDbEntity
  8
RACCORDO
100
AcDbLine
 62
7
  6
CONTINUOUS
 10
-127.9705053922
 20
-45.0
 11
-127.9705053922
 21
45.0
  0
LINE
  5
513
100
AcDbEntity
  8
ASSI
100
AcDbLine
 62
7
  6
CONTINUOUS
 10
-127.9705053922
 20
-45.0
 11
-127.9705053922
 21
45.0
  0
LINE
  5
514
100
AcDbEntity
  8
DRAFT
100
AcDbLine
 62
7
  6
CONTINUOUS
 10
-127.1705053922
 20
3.5
 11
-127.1705053922
 21
-3.5
  0
LINE
  5
515
100
AcDbEntity
  8
ASSI
100
AcDbLine
 62
7
  6
CONTINUOUS
 10
-127.1705053922
 20
3.5
 11
-127.1705053922
 21
-3.5
  0
LINE
  5
516
100
AcDbEntity
  8
DRAFT
100
AcDbLine
 62
7
  6
CONTINUOUS
 10
-125.1705053922
 20
3.8526539614
 11
-127.1705053922
 21
3.5
  0
LINE
  5
517
100
AcDbEntity
  8
ASSI
100
AcDbLine
 62
7
  6
CONTINUOUS
 10
-125.1705053922
 20
3.8526539614
 11
-127.1705053922
 21
3.5
  0
LINE
  5
518
100
AcDbEntity
  8
DRAFT
100
AcDbLine
 62
7
  6
CONTINUOUS
 10
-125.1705053922
 20
43.0970755118
 11
-125.1705053922
 21
3.8526539614
  0
LINE
  5
519
100
AcDbEntity
  8
RACCORDO
100
AcDbLine
 62
7
  6
CONTINUOUS
 10
-125.1705053922
 20
43.499999972
 11
-125.1705053922
 21
43.0970755118
  0
LINE
  5
51A
100
AcDbEntity
  8
ASSI
100
AcDbLine
 62
7
  6
CONTINUOUS
 10
-125.1705053922
 20
43.499999972
 11
-125.1705053922
 21
3.8526539614
  0
LINE
  5
51B
100
AcDbEntity
  8
CURVE_VERNICE
100
AcDbLine
 62
250
  6
CONTINUOUS
 10
-125.1705053922
 20
3.8526539614
 11
-125.1705053922
 21
-3.8526539614
  0
LINE
  5
51C
100
AcDbEntity
  8
ASSI
100
AcDbLine
 62
250
  6
CONTINUOUS
 10
-125.1705053922
 20
3.8526539614
 11
-125.1705053922
 21
-3.8526539614
  0
LINE
  5
51D
100
AcDbEntity
  8
DRAFT
100
AcDbLine
 62
7
  6
CONTINUOUS
 10
-125.1705053922
 20
-3.8526539614
 11
-125.1705053922
 21
-43.0970748075
  0
LINE
  5
51E
100
AcDbEntity
  8
RACCORDO
100
AcDbLine
 62
7
  6
CONTINUOUS
 10
-125.1705053922
 20
-43.0970748075
 11
-125.1705053922
 21
-43.4986435349
  0
LINE
  5
51F
100
AcDbEntity
  8
ASSI
100
AcDbLine
 62
7
  6
CONTINUOUS
 10
-125.1705053922
 20
-3.8526539614
 11
-125.1705053922
 21
-43.4986435349
  0
LINE
  5
520
100
AcDbEntity
  8
RACCORDO
100
AcDbLine
 62
250
  6
CONTINUOUS
 10
-133.1329551626
 20
22.6654265241
 11
-132.8865870318
 21
22.6525930904
  0
LINE
  5
521
100
AcDbEntity
  8
ASSI
100
AcDbLine
 62
250
  6
CONTINUOUS
 10
-133.1329551626
 20
22.6654265241
 11
-132.8865870318
 21
22.6525930904
  0
LWPOLYLINE
  5
522
100
AcDbEntity
  8
RACCORDO
100
AcDbPolyline
 62
250
  6
CONTINUOUS
 90
5
 70
0
 10
-133.170505376
 20
22.6677048929
 10
-133.1694432013
 20
22.6675845028
 10
-133.1662575088
 20
22.6673574847
 10
-133.1609709572
 20
22.6670254534
 10
-133.1329551626
 20
22.6654265241
  0
LWPOLYLINE
  5
523
100
AcDbEntity
  8
ASSI
100
AcDbPolyline
 62
250
  6
CONTINUOUS
 90
5
 70
0
 10
-133.170505376
 20
22.6677048929
 10
-133.1694432013
 20
22.6675845028
 10
-133.1662575088
 20
22.6673574847
 10
-133.1609709572
 20
22.6670254534
 10
-133.1329551626
 20
22.6654265241
  0
LWPOLYLINE
  5
524
100
AcDbEntity
  8
0
100
AcDbPolyline
 62
7
  6
CONTINUOUS
 90
10
 70
0
 43
0.3500000006
 10
-129.6704284058
 20
59.2499996338
 10
-129.5990062866
 20
59.1071463318
 10
-129.5990062866
 20
59.0357151489
 10
-129.7418595886
 20
58.8928527832
 10
-129.8132907715
 20
58.8928527832
 10
-129.8847128906
 20
58.9642839661
 10
-129.8847128906
 20
59.0357151489
 10
-129.8132907715
 20
59.1785684509
 10
-129.7418595886
 20
59.2499996338
 10
-129.6704284058
 20
59.2499996338
  0
LWPOLYLINE
  5
525
100
AcDbEntity
  8
RACCORDO
100
AcDbPolyline
 62
250
  6
CONTINUOUS
 90
13
 70
0
 10
-125.1705054691
 20
-43.0970754232
 10
-125.2822838684
 20
-43.1691770532
 10
-125.3948913126
 20
-43.2379262795
 10
-125.5081848952
 20
-43.303323102
 10
-125.6218512852
 20
-43.3652442165
 10
-125.7359263939
 20
-43.4238129273
 10
-125.8508207618
 20
-43.4793991471
 10
-125.9665886116
 20
-43.5320954568
 10
-126.082973718
 20
-43.5818092756
 10
-126.1999496321
 20
-43.6286327726
 10
-126.3174458146
 20
-43.6725966713
 10
-126.4353448627
 20
-43.7136702482
 10
-126.5535556902
 20
-43.7518535036
  0
LWPOLYLINE
  5
526
100
AcDbEntity
  8
ASSI
100
AcDbPolyline
 62
250
  6
CONTINUOUS
 90
13
 70
0
 10
-125.1705054691
 20
-43.0970754232
 10
-125.2822838684
 20
-43.1691770532
 10
-125.3948913126
 20
-43.2379262795
 10
-125.5081848952
 20
-43.303323102
 10
-125.6218512852
 20
-43.3652442165
 10
-125.7359263939
 20
-43.4238129273
 10
-125.8508207618
 20
-43.4793991471
 10
-125.9665886116
 20
-43.5320954568
 10
-126.082973718
 20
-43.5818092756
 10
-126.1999496321
 20
-43.6286327726
 10
-126.3174458146
 20
-43.6725966713
 10
-126.4353448627
 20
-43.7136702482
 10
-126.5535556902
 20
-43.7518535036
  0
LWPOLYLINE
  5
527
100
AcDbEntity
  8
RACCORDO
100
AcDbPolyline
 62
250
  6
CONTINUOUS
 90
6
 70
0
 10
-130.7294803616
 20
-43.9246280943
 10
-130.7284710022
 20
-43.924207405
 10
-130.7253667531
 20
-43.9234109463
 10
-130.720189716
 20
-43.9222443888
 10
-130.71297675
 20
-43.9207160381
 10
-130.7037792098
 20
-43.9188367757
  0
LWPOLYLINE
  5
528
100
AcDbEntity
  8
ASSI
100
AcDbPolyline
 62
250
  6
CONTINUOUS
 90
6
 70
0
 10
-130.7294803616
 20
-43.9246280943
 10
-130.7284710022
 20
-43.924207405
 10
-130.7253667531
 20
-43.9234109463
 10
-130.720189716
 20
-43.9222443888
 10
-130.71297675
 20
-43.9207160381
 10
-130.7037792098
 20
-43.9188367757
  0
LWPOLYLINE
  5
529
100
AcDbEntity
  8
RACCORDO
100
AcDbPolyline
 62
250
  6
CONTINUOUS
 90
7
 70
0
 10
-130.7294803924
 20
43.9246280998
 10
-130.7284707512
 20
43.9242073646
 10
-130.7253662528
 20
43.9234108659
 10
-130.7201890003
 20
43.9222442744
 10
-130.7129758537
 20
43.9207158959
 10
-130.7037781683
 20
43.9188366118
 10
-130.6797047814
 20
43.9140812496
  0
LWPOLYLINE
  5
52A
100
AcDbEntity
  8
ASSI
100
AcDbPolyline
 62
250
  6
CONTINUOUS
 90
7
 70
0
 10
-130.7294803924
 20
43.9246280998
 10
-130.7284707512
 20
43.9242073646
 10
-130.7253662528
 20
43.9234108659
 10
-130.7201890003
 20
43.9222442744
 10
-130.7129758537
 20
43.9207158959
 10
-130.7037781683
 20
43.9188366118
 10
-130.6797047814
 20
43.9140812496
  0
LWPOLYLINE
  5
52B
100
AcDbEntity
  8
RACCORDO
100
AcDbPolyline
 62
250
  6
CONTINUOUS
 90
13
 70
0
 10
-126.5535556902
 20
-43.7518535036
 10
-126.6682985701
 20
-43.7861717437
 10
-126.7833715229
 20
-43.8179598287
 10
-126.8987015121
 20
-43.8472177587
 10
-127.0139094295
 20
-43.8738895586
 10
-127.1292290258
 20
-43.8980312036
 10
-127.2455232507
 20
-43.9198106186
 10
-127.3627540023
 20
-43.9393034415
 10
-127.4808473036
 20
-43.9564340346
 10
-127.6006345224
 20
-43.9711434091
 10
-127.7223602318
 20
-43.9834119021
 10
-127.8456711985
 20
-43.9932591766
 10
-127.9705053917
 20
-44.0006852326
  0
LWPOLYLINE
  5
52C
100
AcDbEntity
  8
ASSI
100
AcDbPolyline
 62
250
  6
CONTINUOUS
 90
13
 70
0
 10
-126.5535556902
 20
-43.7518535036
 10
-126.6682985701
 20
-43.7861717437
 10
-126.7833715229
 20
-43.8179598287
 10
-126.8987015121
 20
-43.8472177587
 10
-127.0139094295
 20
-43.8738895586
 10
-127.1292290258
 20
-43.8980312036
 10
-127.2455232507
 20
-43.9198106186
 10
-127.3627540023
 20
-43.9393034415
 10
-127.4808473036
 20
-43.9564340346
 10
-127.6006345224
 20
-43.9711434091
 10
-127.7223602318
 20
-43.9834119021
 10
-127.8456711985
 20
-43.9932591766
 10
-127.9705053917
 20
-44.0006852326
  0
LINE
  5
52D
100
AcDbEntity
  8
RACCORDO
100
AcDbLine
 62
250
  6
CONTINUOUS
 10
-130.449935797
 20
43.8714290238
 11
-127.9705053922
 21
44.0013704652
  0
LINE
  5
52E
100
AcDbEntity
  8
ASSI
100
AcDbLine
 62
250
  6
CONTINUOUS
 10
-130.449935797
 20
43.8714290238
 11
-127.9705053922
 21
44.0013704652
  0
LWPOLYLINE
  5
52F
100
AcDbEntity
  8
RACCORDO
100
AcDbPolyline
 62
250
  6
CONTINUOUS
 90
13
 70
0
 10
-127.9705053711
 20
44.000685231
 10
-127.8519945408
 20
43.9938353098
 10
-127.7336643121
 20
43.9845425152
 10
-127.6155768687
 20
43.9728068472
 10
-127.4980338021
 20
43.9586770647
 10
-127.3808559461
 20
43.9421044088
 10
-127.2633919144
 20
43.9229426026
 10
-127.1455473727
 20
43.901197126
 10
-127.0275632951
 20
43.8768624991
 10
-126.9093055706
 20
43.8497760048
 10
-126.7907868146
 20
43.8198834041
 10
-126.6721625971
 20
43.7872389361
 10
-126.5535209033
 20
43.7518426007
  0
LWPOLYLINE
  5
530
100
AcDbEntity
  8
ASSI
100
AcDbPolyline
 62
250
  6
CONTINUOUS
 90
13
 70
0
 10
-127.9705053711
 20
44.000685231
 10
-127.8519945408
 20
43.9938353098
 10
-127.7336643121
 20
43.9845425152
 10
-127.6155768687
 20
43.9728068472
 10
-127.4980338021
 20
43.9586770647
 10
-127.3808559461
 20
43.9421044088
 10
-127.2633919144
 20
43.9229426026
 10
-127.1455473727
 20
43.901197126
 10
-127.0275632951
 20
43.8768624991
 10
-126.9093055706
 20
43.8497760048
 10
-126.7907868146
 20
43.8198834041
 10
-126.6721625971
 20
43.7872389361
 10
-126.5535209033
 20
43.7518426007
  0
LINE
  5
531
100
AcDbEntity
  8
RACCORDO
100
AcDbLine
 62
250
  6
CONTINUOUS
 10
-130.5693196407
 20
43.8932483391
 11
-130.4499355684
 21
43.871429024
  0
LINE
  5
532
100
AcDbEntity
  8
ASSI
100
AcDbLine
 62
250
  6
CONTINUOUS
 10
-130.5693196407
 20
43.8932483391
 11
-130.4499355684
 21
43.871429024
  0
LINE
  5
533
100
AcDbEntity
  8
RACCORDO
100
AcDbLine
 62
250
  6
CONTINUOUS
 10
-130.6486531961
 20
43.9081133728
 11
-130.5693196407
 21
43.8932483391
  0
LINE
  5
534
100
AcDbEntity
  8
ASSI
100
AcDbLine
 62
250
  6
CONTINUOUS
 10
-130.6486531961
 20
43.9081133728
 11
-130.5693196407
 21
43.8932483391
  0
LINE
  5
535
100
AcDbEntity
  8
RACCORDO
100
AcDbLine
 62
250
  6
CONTINUOUS
 10
-130.6797047814
 20
43.9140812496
 11
-130.6486531961
 21
43.9081133728
  0
LINE
  5
536
100
AcDbEntity
  8
ASSI
100
AcDbLine
 62
250
  6
CONTINUOUS
 10
-130.6797047814
 20
43.9140812496
 11
-130.6486531961
 21
43.9081133728
  0
LWPOLYLINE
  5
537
100
AcDbEntity
  8
RACCORDO
100
AcDbPolyline
 62
250
  6
CONTINUOUS
 90
13
 70
0
 10
-126.5535209033
 20
43.7518426007
 10
-126.4377930651
 20
43.7145138369
 10
-126.32213372
 20
43.6743045654
 10
-126.2066350275
 20
43.6312147861
 10
-126.0916062196
 20
43.5853876763
 10
-125.9769259902
 20
43.5366800588
 10
-125.862066967
 20
43.4846624024
 10
-125.7471542331
 20
43.4293808348
 10
-125.6323238551
 20
43.3707892283
 10
-125.5171215485
 20
43.3083196692
 10
-125.4015268083
 20
43.2417828531
 10
-125.2859239168
 20
43.1713680844
 10
-125.1705053736
 20
43.0970753632
  0
LWPOLYLINE
  5
538
100
AcDbEntity
  8
ASSI
100
AcDbPolyline
 62
250
  6
CONTINUOUS
 90
13
 70
0
 10
-126.5535209033
 20
43.7518426007
 10
-126.4377930651
 20
43.7145138369
 10
-126.32213372
 20
43.6743045654
 10
-126.2066350275
 20
43.6312147861
 10
-126.0916062196
 20
43.5853876763
 10
-125.9769259902
 20
43.5366800588
 10
-125.862066967
 20
43.4846624024
 10
-125.7471542331
 20
43.4293808348
 10
-125.6323238551
 20
43.3707892283
 10
-125.5171215485
 20
43.3083196692
 10
-125.4015268083
 20
43.2417828531
 10
-125.2859239168
 20
43.1713680844
 10
-125.1705053736
 20
43.0970753632
  0
LINE
  5
539
100
AcDbEntity
  8
RACCORDO
100
AcDbLine
 62
7
  6
CONTINUOUS
 10
-130.3211981714
 20
44.8768054117
 11
-127.9705053922
 21
45.0
  0
LINE
  5
53A
100
AcDbEntity
  8
ASSI
100
AcDbLine
 62
7
  6
CONTINUOUS
 10
-130.3211981714
 20
44.8768054117
 11
-127.9705053922
 21
45.0
  0
LWPOLYLINE
  5
53B
100
AcDbEntity
  8
0
100
AcDbPolyline
 62
7
  6
CONTINUOUS
 90
13
 70
0
 43
0.3500000006
 10
-132.2418603516
 20
60.4642844238
 10
-132.5275760193
 20
60.6785689087
 10
-132.5275760193
 20
61.321431427
 10
-132.2418603516
 20
61.7500003967
 10
-131.5989978333
 20
61.7500003967
 10
-131.3132912292
 20
61.321431427
 10
-131.3132912292
 20
60.6785689087
 10
-131.5989978333
 20
60.4642844238
 10
-131.1704288635
 20
60.0357154541
 10
-131.1704288635
 20
59.1785684509
 10
-131.5989978333
 20
58.7499994812
 10
-132.2418603516
 20
58.7499994812
 10
-132.6704293213
 20
59.1785684509
  0
ARC
  5
53C
100
AcDbEntity
  8
CURVE_VERNICE
100
AcDbCircle
 62
250
  6
CONTINUOUS
 10
77.85
 20
-21.5
 40
0.9
100
AcDbArc
 50
270.0
 51
360.0
  0
ARC
  5
53D
100
AcDbEntity
  8
CURVE_VERNICE
100
AcDbCircle
 62
250
  6
CONTINUOUS
 10
-77.85
 20
-21.5
 40
0.9
100
AcDbArc
 50
180.0
 51
270.0
  0
ARC
  5
53E
100
AcDbEntity
  8
CURVE_VERNICE
100
AcDbCircle
 62
250
  6
CONTINUOUS
 10
-77.85
 20
21.5
 40
0.9
100
AcDbArc
 50
90.0
 51
180.0
  0
ARC
  5
53F
100
AcDbEntity
  8
CURVE_VERNICE
100
AcDbCircle
 62
250
  6
CONTINUOUS
 10
77.85
 20
21.5
 40
0.9
100
AcDbArc
 50
0.0
 51
90.0
  0
ARC
  5
540
100
AcDbEntity
  8
ASSI
100
AcDbCircle
 62
250
  6
CONTINUOUS
 10
-77.85
 20
21.5
 40
0.9
100
AcDbArc
 50
90.0
 51
180.0
  0
ARC
  5
541
100
AcDbEntity
  8
ASSI
100
AcDbCircle
 62
250
  6
CONTINUOUS
 10
77.85
 20
21.5
 40
0.9
100
AcDbArc
 50
0.0
 51
90.0
  0
ARC
  5
542
100
AcDbEntity
  8
ASSI
100
AcDbCircle
 62
250
  6
CONTINUOUS
 10
77.85
 20
-21.5
 40
0.9
100
AcDbArc
 50
270.0
 51
360.0
  0
ARC
  5
543
100
AcDbEntity
  8
ASSI
100
AcDbCircle
 62
250
  6
CONTINUOUS
 10
-77.85
 20
-21.5
 40
0.9
100
AcDbArc
 50
180.0
 51
270.0
  0
ARC
  5
544
100
AcDbEntity
  8
RACCORDO
100
AcDbCircle
 62
7
  6
CONTINUOUS
 10
-128.2419852087
 20
-39.3198565139
 40
5.1872524353
100
AcDbArc
 50
273.000000003
 51
306.3076471449
  0
ARC
  5
545
100
AcDbEntity
  8
ASSI
100
AcDbCircle
 62
7
  6
CONTINUOUS
 10
-128.2419852087
 20
-39.3198565139
 40
5.1872524353
100
AcDbArc
 50
273.000000003
 51
306.3076471449
  0
ARC
  5
546
100
AcDbEntity
  8
RACCORDO
100
AcDbCircle
 62
7
  6
CONTINUOUS
 10
-130.3054981439
 20
-44.5772125487
 40
0.3
100
AcDbArc
 50
190.4610191988
 51
267.0001848343
  0
ARC
  5
547
100
AcDbEntity
  8
ASSI
100
AcDbCircle
 62
7
  6
CONTINUOUS
 10
-130.3054981439
 20
-44.5772125487
 40
0.3
100
AcDbArc
 50
190.4610191988
 51
267.0001848343
  0
ARC
  5
548
100
AcDbEntity
  8
RACCORDO
100
AcDbCircle
 62
7
  6
CONTINUOUS
 10
34.0501863754
 20
-14.2336437913
 40
167.4332498099
100
AcDbArc
 50
182.8873441217
 51
190.4598239091
  0
ARC
  5
549
100
AcDbEntity
  8
0
100
AcDbCircle
 62
7
  6
CONTINUOUS
 10
34.0501863754
 20
-14.2336437913
 40
167.4332498099
100
AcDbArc
 50
184.2117571746
 51
184.5132030469
  0
ARC
  5
54A
100
AcDbEntity
  8
0
100
AcDbCircle
 62
7
  6
CONTINUOUS
 10
34.0501863754
 20
-14.2336437913
 40
167.4332498099
100
AcDbArc
 50
184.0677903884
 51
184.2111563589
  0
ARC
  5
54B
100
AcDbEntity
  8
0
100
AcDbCircle
 62
7
  6
CONTINUOUS
 10
34.0501863754
 20
-14.2336437913
 40
167.4332498099
100
AcDbArc
 50
184.5182554331
 51
185.0176525292
  0
ARC
  5
54C
100
AcDbEntity
  8
ASSI
100
AcDbCircle
 62
7
  6
CONTINUOUS
 10
34.0501863754
 20
-14.2336437913
 40
167.4332498099
100
AcDbArc
 50
182.8873441217
 51
190.4598239091
  0
ARC
  5
54D
100
AcDbEntity
  8
RACCORDO
100
AcDbCircle
 62
7
  6
CONTINUOUS
 10
-128.2419852087
 20
39.3198565139
 40
5.1872524353
100
AcDbArc
 50
53.6923513618
 51
86.9999997664
  0
ARC
  5
54E
100
AcDbEntity
  8
ASSI
100
AcDbCircle
 62
7
  6
CONTINUOUS
 10
-128.2419852087
 20
39.3198565139
 40
5.1872524353
100
AcDbArc
 50
53.6923513618
 51
86.9999997664
  0
ARC
  5
54F
100
AcDbEntity
  8
RACCORDO
100
AcDbCircle
 62
7
  6
CONTINUOUS
 10
-130.3054973845
 20
44.5772165512
 40
0.3
100
AcDbArc
 50
93.0
 51
169.5397588495
  0
ARC
  5
550
100
AcDbEntity
  8
ASSI
100
AcDbCircle
 62
7
  6
CONTINUOUS
 10
-130.3054973845
 20
44.5772165512
 40
0.3
100
AcDbArc
 50
93.0
 51
169.5397588495
  0
ARC
  5
551
100
AcDbEntity
  8
RACCORDO
100
AcDbCircle
 62
7
  6
CONTINUOUS
 10
34.0501863754
 20
14.2336437913
 40
167.4332498099
100
AcDbArc
 50
169.5397588495
 51
177.1126559741
  0
ARC
  5
552
100
AcDbEntity
  8
ASSI
100
AcDbCircle
 62
7
  6
CONTINUOUS
 10
34.0501863754
 20
14.2336437913
 40
167.4332498099
100
AcDbArc
 50
169.5397588495
 51
177.1126559741
  0
ARC
  5
553
100
AcDbEntity
  8
0
100
AcDbCircle
 62
250
  6
CONTINUOUS
 10
34.0501863754
 20
14.2336437913
 40
167.4332498099
100
AcDbArc
 50
174.8378886711
 51
176.2097334504
  0
ARC
  5
554
100
AcDbEntity
  8
RACCORDO
100
AcDbCircle
 62
7
  6
CONTINUOUS
 10
316.2582154912
 20
-0.0
 40
450.0
100
AcDbArc
 50
177.1126435736
 51
182.8873564621
  0
ARC
  5
555
100
AcDbEntity
  8
ASSI
100
AcDbCircle
 62
7
  6
CONTINUOUS
 10
316.2582154912
 20
-0.0
 40
450.0
100
AcDbArc
 50
177.1126435736
 51
182.8873564621
  0
ELLIPSE
  5
556
100
AcDbEntity
  8
RACCORDO
100
AcDbEllipse
 62
7
  6
CONTINUOUS
 10
-103.998627654
 20
-43.998627654
 30
0.0
 11
0.7090462434
 21
0.7090462434
 31
0.0
 40
0.9972646886
 41
2.3575640181
 42
3.9256212891
  0
ELLIPSE
  5
557
100
AcDbEntity
  8
RACCORDO
100
AcDbEllipse
 62
7
  6
CONTINUOUS
 10
103.998627654
 20
-43.998627654
 30
0.0
 11
0.7090462434
 21
-0.7090462434
 31
0.0
 40
0.9972646886
 41
-0.7840286355
 42
0.7840286355
  0
ELLIPSE
  5
558
100
AcDbEntity
  8
RACCORDO
100
AcDbEllipse
 62
7
  6
CONTINUOUS
 10
103.998627654
 20
43.998627654
 30
0.0
 11
0.7090462434
 21
0.7090462434
 31
0.0
 40
0.9972646886
 41
-0.7840286355
 42
0.7840286355
  0
ELLIPSE
  5
559
100
AcDbEntity
  8
RACCORDO
100
AcDbEllipse
 62
7
  6
CONTINUOUS
 10
-103.998627654
 20
43.998627654
 30
0.0
 11
0.7090462434
 21
-0.7090462434
 31
0.0
 40
0.9972646886
 41
2.3575640181
 42
3.9256212891
  0
ELLIPSE
  5
55A
100
AcDbEntity
  8
0
100
AcDbEllipse
 62
7
  6
CONTINUOUS
 10
78.0489021232
 20
-21.6989021232
 30
0.0
 11
0.5672369947
 21
-0.5672369947
 31
0.0
 40
0.9972646886
 41
-0.7840286355
 42
0.7840286355
  0
ELLIPSE
  5
55B
100
AcDbEntity
  8
0
100
AcDbEllipse
 62
7
  6
CONTINUOUS
 10
78.0489021232
 20
21.6989021232
 30
0.0
 11
0.5672369947
 21
0.5672369947
 31
0.0
 40
0.9972646886
 41
-0.7840286355
 42
0.7840286355
  0
ELLIPSE
  5
55C
100
AcDbEntity
  8
0
100
AcDbEllipse
 62
7
  6
CONTINUOUS
 10
-78.0489021232
 20
21.6989021232
 30
0.0
 11
0.5672369947
 21
-0.5672369947
 31
0.0
 40
0.9972646886
 41
2.3575640181
 42
3.9256212891
  0
ELLIPSE
  5
55D
100
AcDbEntity
  8
0
100
AcDbEllipse
 62
7
  6
CONTINUOUS
 10
-78.0489021232
 20
-21.6989021232
 30
0.0
 11
0.5672369947
 21
0.5672369947
 31
0.0
 40
0.9972646886
 41
-3.9256212891
 42
-2.3575640181
  0
ELLIPSE
  5
55E
100
AcDbEntity
  8
ASSI
100
AcDbEllipse
 62
7
  6
CONTINUOUS
 10
-103.998627654
 20
-43.998627654
 30
0.0
 11
0.7090462434
 21
0.7090462434
 31
0.0
 40
0.9972646886
 41
2.3575640181
 42
3.9256212891
  0
ELLIPSE
  5
55F
100
AcDbEntity
  8
ASSI
100
AcDbEllipse
 62
7
  6
CONTINUOUS
 10
103.998627654
 20
-43.998627654
 30
0.0
 11
0.7090462434
 21
-0.7090462434
 31
0.0
 40
0.9972646886
 41
-0.7840286355
 42
0.7840286355
  0
ELLIPSE
  5
560
100
AcDbEntity
  8
ASSI
100
AcDbEllipse
 62
7
  6
CONTINUOUS
 10
103.998627654
 20
43.998627654
 30
0.0
 11
0.7090462434
 21
0.7090462434
 31
0.0
 40
0.9972646886
 41
-0.7840286355
 42
0.7840286355
  0
ELLIPSE
  5
561
100
AcDbEntity
  8
ASSI
100
AcDbEllipse
 62
7
  6
CONTINUOUS
 10
-103.998627654
 20
43.998627654
 30
0.0
 11
0.7090462434
 21
-0.7090462434
 31
0.0
 40
0.9972646886
 41
2.3575640181
 42
3.9256212891
  0
ELLIPSE
  5
562
100
AcDbEntity
  8
ASSI
100
AcDbEllipse
 62
7
  6
CONTINUOUS
 10
78.0489021232
 20
-21.6989021232
 30
0.0
 11
0.5672369947
 21
-0.5672369947
 31
0.0
 40
0.9972646886
 41
-0.7840286355
 42
0.7840286355
  0
ELLIPSE
  5
563
100
AcDbEntity
  8
ASSI
100
AcDbEllipse
 62
7
  6
CONTINUOUS
 10
78.0489021232
 20
21.6989021232
 30
0.0
 11
0.5672369947
 21
0.5672369947
 31
0.0
 40
0.9972646886
 41
-0.7840286355
 42
0.7840286355
  0
ELLIPSE
  5
564
100
AcDbEntity
  8
ASSI
100
AcDbEllipse
 62
7
  6
CONTINUOUS
 10
-78.0489021232
 20
21.6989021232
 30
0.0
 11
0.5672369947
 21
-0.5672369947
 31
0.0
 40
0.9972646886
 41
2.3575640181
 42
3.9256212891
  0
ELLIPSE
  5
565
100
AcDbEntity
  8
ASSI
100
AcDbEllipse
 62
7
  6
CONTINUOUS
 10
-78.0489021232
 20
-21.6989021232
 30
0.0
 11
0.5672369947
 21
0.5672369947
 31
0.0
 40
0.9972646886
 41
-3.9256212891
 42
-2.3575640181
  0
ELLIPSE
  5
566
100
AcDbEntity
  8
0
100
AcDbEllipse
 62
250
  6
CONTINUOUS
 10
34.0501863754
 20
14.2336437913
 30
0.0
 11
167.4332498099
 21
0.0
 31
0.0
 40
1.0
 41
9.3382765686
 42
9.3550366053
  0
ENDSEC
  0
SECTION
  2
OBJECTS
  0
DICTIONARY
  5
C
100
AcDbDictionary
280
0
281
1
  3
ACAD_GROUP
350
D
  3
ACAD_MLINESTYLE
350
17
  3
ACAD_LAYOUT
350
1A
  3
ACAD_PLOTSETTINGS
350
19
  3
ACAD_PLOTSTYLENAME
350
E
  0
DICTIONARY
  5
D
102
{ACAD_REACTORS
330
C
102
}
100
AcDbDictionary
280
0
281
1
  0
ACDBDICTIONARYWDFLT
  5
E
102
{ACAD_REACTORS
330
C
102
}
100
AcDbDictionary
281
1
  3
Normal
350
F
100
AcDbDictionaryWithDefault
340
F
  0
DICTIONARY
  5
17
102
{ACAD_REACTORS
330
C
102
}
100
AcDbDictionary
280
0
281
1
  3
Standard
350
18
  0
DICTIONARY
  5
19
102
{ACAD_REACTORS
330
C
102
}
100
AcDbDictionary
281
1
  0
DICTIONARY
  5
1A
102
{ACAD_REACTORS
330
C
102
}
100
AcDbDictionary
281
1
  3
Model
350
567
  3
Layout1
350
568
  0
ACDBPLACEHOLDER
  5
F
102
{ACAD_REACTORS
330
E
102
}
  0
MLINESTYLE
  5
18
102
{ACAD_REACTORS
330
17
102
}
100
AcDbMlineStyle
  2
STANDARD
 70
0
  3

 62
256
 51
90.0
 52
90.0
 71
2
 49
0.5
 62
256
  6
BYLAYER
 49
-0.5
 62
256
  6
BYLAYER
  0
LAYOUT
  5
567
102
{ACAD_REACTORS
330
1A
102
}
100
AcDbPlotSettings
  1

  2
none_device
  4
ISO_A4_(297.00_x_210.00_MM)
  6

 40
0.0
 41
0.0
 42
0.0
 43
0.0
 44
297.0
 45
210.0
 46
0.0
 47
0.0
 48
0.0
 49
0.0
140
0.0
141
0.0
142
1.0
143
1.0
 70
1024
 72
1
 73
0
 74
0
  7

 75
0
147
1.0
148
0.0
149
0.0
100
AcDbLayout
  1
Model
 70
0
 71
0
 10
0.0
 20
0.0
 11
297.0
 21
210.0
 12
0.0
 22
0.0
 32
0.0
 14
0.0
 24
0.0
 34
0.0
 15
0.0
 25
0.0
 35
0.0
146
0.0
 13
0.0
 23
0.0
 33
0.0
 16
1.0
 26
0.0
 36
0.0
 17
0.0
 27
1.0
 37
0.0
 76
0
330
214
345
0
346
0
  0
LAYOUT
  5
568
102
{ACAD_REACTORS
330
1A
102
}
100
AcDbPlotSettings
  1

  2
none_device
  4
ISO_A4_(297.00_x_210.00_MM)
  6

 40
0.0
 41
0.0
 42
0.0
 43
0.0
 44
297.0
 45
210.0
 46
0.0
 47
0.0
 48
0.0
 49
0.0
140
0.0
141
0.0
142
1.0
143
1.0
 70
0
 72
1
 73
0
 74
0
  7

 75
0
147
1.0
148
0.0
149
0.0
100
AcDbLayout
  1
Layout1
 70
0
 71
1
 10
0.0
 20
0.0
 11
297.0
 21
210.0
 12
0.0
 22
0.0
 32
0.0
 14
0.0
 24
0.0
 34
0.0
 15
0.0
 25
0.0
 35
0.0
146
0.0
 13
0.0
 23
0.0
 33
0.0
 16
1.0
 26
0.0
 36
0.0
 17
0.0
 27
1.0
 37
0.0
 76
0
330
215
345
0
346
0
  0
ENDSEC
  0
EOF
