  0
SECTION
  2
HEADER
  9
$ACADVER
  1
AC1021
  9
$DWGCODEPAGE
  3
ANSI_1252
  9
$EXTMAX
 10
297.0
 20
210.0
 30
0.0
  9
$EXTMIN
 10
0.0
 20
0.0
 30
0.0
  9
$LIMMIN
 10
0.0
 20
0.0
  9
$LIMMAX
 10
297.0
 20
210.0
  9
$VIEWCTR
 10
148.5
 20
105.0
  9
$VIEWSIZE
 40
210.0
  9
$CLAYER
  8
0
  9
$LTSCALE
 40
16.335
  9
$CELTYPE
  6
BYLAYER
  9
$DIMSCALE
 40
1.0
  9
$DIMASZ
 40
3.0
  9
$DIMEXO
 40
1.85625
  9
$DIMDLI
 40
11.286
  9
$DIMEXE
 40
5.346
  9
$DIMCEN
 40
2.673
  9
$DIMLFAC
 40
1.0
  9
$DIMBLK
  1
_FILLED
  9
$DIMTXT
 40
3.0
  9
$DIMTOL
 70
1
  9
$DIMLIM
 70
0
  9
$DIMTFAC
 40
1.0
  9
$DIMTP
 40
0.01
  9
$DIMTM
 40
0.01
  9
$PDMODE
 70
3
  9
$PDSIZE
 40
3.0
  9
$HANDSEED
  5
456
  9
$TILEMODE
 70
1
  9
$MEASUREMENT
 70
1
  9
$INSUNITS
 70
4
  0
ENDSEC
  0
SECTION
  2
CLASSES
  0
CLASS
  1
ACDBDICTIONARYWDFLT
  2
AcDbDictionaryWithDefault
  3
AutoCAD 2000
 90
0
 91
1
280
0
281
0
  0
CLASS
  1
ACDBPLACEHOLDER
  2
AcDbPlaceHolder
  3
AutoCAD 2000
 90
0
 91
1
280
0
281
0
  0
CLASS
  1
LAYOUT
  2
AcDbLayout
  3
AutoCAD 2000
 90
0
 91
0
280
0
281
0
  0
ENDSEC
  0
SECTION
  2
TABLES
  0
TABLE
  2
VPORT
  5
8
100
AcDbSymbolTable
 70
2
  0
VPORT
  5
1F4
100
AcDbSymbolTableRecord
100
AcDbViewportTableRecord
  2
*ACTIVE
 70
0
 10
0.0
 20
0.0
 11
1.0
 21
1.0
 12
148.5
 22
105.0
 13
0.0
 23
0.0
 14
1.0
 24
1.0
 15
0.0
 25
0.0
 16
0.0
 26
0.0
 36
1.0
 17
0.0
 27
0.0
 37
0.0
 40
210.0
 41
1.4142857143
 42
50.0
 43
0.0
 44
0.0
 50
0.0
 51
0.0
 71
0
 72
100
 73
1
 74
1
 75
0
 76
0
 77
0
 78
0
  0
ENDTAB
  0
TABLE
  2
LTYPE
  5
5
100
AcDbSymbolTable
 70
6
  0
LTYPE
  5
14
100
AcDbSymbolTableRecord
100
AcDbLinetypeTableRecord
  2
BYBLOCK
 70
0
  3

 72
65
 73
0
 40
0.0
  0
LTYPE
  5
15
100
AcDbSymbolTableRecord
100
AcDbLinetypeTableRecord
  2
BYLAYER
 70
0
  3

 72
65
 73
0
 40
0.0
  0
LTYPE
  5
16
100
AcDbSymbolTableRecord
100
AcDbLinetypeTableRecord
  2
CONTINUOUS
 70
64
  3
Solid line
 72
65
 73
0
 40
0.0
  0
LTYPE
  5
1F5
100
AcDbSymbolTableRecord
100
AcDbLinetypeTableRecord
  2
CENTER
 70
64
  3
____ _ ____ _ ____ _ ____ _ ____ _ ____ _ ____
 72
65
 73
4
 40
0.6
 49
0.375
 74
0
 49
-0.075
 74
0
 49
0.075
 74
0
 49
-0.075
 74
0
  0
LTYPE
  5
1F6
100
AcDbSymbolTableRecord
100
AcDbLinetypeTableRecord
  2
HIDDEN
 70
64
  3
- - - - - - - - - - - - - - - - - - - -
 72
65
 73
2
 40
0.2
 49
0.1
 74
0
 49
-0.1
 74
0
  0
LTYPE
  5
1F7
100
AcDbSymbolTableRecord
100
AcDbLinetypeTableRecord
  2
PHANTOM
 70
64
  3
_____ _ _ _____ _ _ _____ _ _ _____
 72
65
 73
6
 40
0.8
 49
0.45
 74
0
 49
-0.05
 74
0
 49
0.1
 74
0
 49
-0.05
 74
0
 49
0.1
 74
0
 49
-0.05
 74
0
  0
LTYPE
  5
1F8
100
AcDbSymbolTableRecord
100
AcDbLinetypeTableRecord
  2
DOT
 70
64
  3
. . . . . . . . . . . . . . . . . . . .
 72
65
 73
2
 40
0.2
 49
0.1
 74
0
 49
-0.1
 74
0
  0
LTYPE
  5
1F9
100
AcDbSymbolTableRecord
100
AcDbLinetypeTableRecord
  2
DASHED
 70
64
  3
- - - - - - - - - - - - - - - - - - - -
 72
65
 73
2
 40
0.2
 49
0.1
 74
0
 49
-0.1
 74
0
  0
ENDTAB
  0
TABLE
  2
LAYER
  5
2
100
AcDbSymbolTable
 70
36
  0
LAYER
  5
10
100
AcDbSymbolTableRecord
100
AcDbLayerTableRecord
  2
0
 70
0
 62
7
  6
CONTINUOUS
370
-3
390
F
  0
LAYER
  5
1FA
100
AcDbSymbolTableRecord
100
AcDbLayerTableRecord
  2
DEFAULT_1
 70
0
 62
7
  6
CENTER
370
-3
390
F
  0
LAYER
  5
1FB
100
AcDbSymbolTableRecord
100
AcDbLayerTableRecord
  2
DEFAULT_2
 70
0
 62
7
  6
HIDDEN
370
-3
390
F
  0
LAYER
  5
1FC
100
AcDbSymbolTableRecord
100
AcDbLayerTableRecord
  2
DEFAULT_3
 70
0
 62
7
  6
PHANTOM
370
-3
390
F
  0
LAYER
  5
1FD
100
AcDbSymbolTableRecord
100
AcDbLayerTableRecord
  2
ASSI
 70
0
 62
7
  6
CONTINUOUS
370
-3
390
F
  0
LAYER
  5
1FE
100
AcDbSymbolTableRecord
100
AcDbLayerTableRecord
  2
COORDINATE
 70
0
 62
7
  6
CONTINUOUS
370
-3
390
F
  0
LAYER
  5
1FF
100
AcDbSymbolTableRecord
100
AcDbLayerTableRecord
  2
COORD_ORIGINE
 70
0
 62
7
  6
CONTINUOUS
370
-3
390
F
  0
LAYER
  5
200
100
AcDbSymbolTableRecord
100
AcDbLayerTableRecord
  2
COPY_PUBLISH
 70
0
 62
7
  6
CONTINUOUS
370
-3
390
F
  0
LAYER
  5
201
100
AcDbSymbolTableRecord
100
AcDbLayerTableRecord
  2
COSMETIC
 70
0
 62
7
  6
CONTINUOUS
370
-3
390
F
  0
LAYER
  5
202
100
AcDbSymbolTableRecord
100
AcDbLayerTableRecord
  2
COSMETICI
 70
0
 62
7
  6
CONTINUOUS
370
-3
390
F
  0
LAYER
  5
203
100
AcDbSymbolTableRecord
100
AcDbLayerTableRecord
  2
CURVE
 70
0
 62
7
  6
CONTINUOUS
370
-3
390
F
  0
LAYER
  5
204
100
AcDbSymbolTableRecord
100
AcDbLayerTableRecord
  2
DRAFT
 70
0
 62
7
  6
CONTINUOUS
370
-3
390
F
  0
LAYER
  5
205
100
AcDbSymbolTableRecord
100
AcDbLayerTableRecord
  2
IMPORT_IGES
 70
0
 62
7
  6
CONTINUOUS
370
-3
390
F
  0
LAYER
  5
206
100
AcDbSymbolTableRecord
100
AcDbLayerTableRecord
  2
INTFCLR_1
 70
0
 62
7
  6
CONTINUOUS
370
-3
390
F
  0
LAYER
  5
207
100
AcDbSymbolTableRecord
100
AcDbLayerTableRecord
  2
NOTE
 70
0
 62
7
  6
CONTINUOUS
370
-3
390
F
  0
LAYER
  5
208
100
AcDbSymbolTableRecord
100
AcDbLayerTableRecord
  2
PIANI
 70
0
 62
7
  6
CONTINUOUS
370
-3
390
F
  0
LAYER
  5
209
100
AcDbSymbolTableRecord
100
AcDbLayerTableRecord
  2
PIANI_ORIGINE
 70
0
 62
7
  6
CONTINUOUS
370
-3
390
F
  0
LAYER
  5
20A
100
AcDbSymbolTableRecord
100
AcDbLayerTableRecord
  2
PUNTI
 70
0
 62
7
  6
CONTINUOUS
370
-3
390
F
  0
LAYER
  5
20B
100
AcDbSymbolTableRecord
100
AcDbLayerTableRecord
  2
RACCORDO
 70
0
 62
7
  6
CONTINUOUS
370
-3
390
F
  0
LAYER
  5
20C
100
AcDbSymbolTableRecord
100
AcDbLayerTableRecord
  2
SIMBOLI
 70
0
 62
7
  6
CONTINUOUS
370
-3
390
F
  0
LAYER
  5
20D
100
AcDbSymbolTableRecord
100
AcDbLayerTableRecord
  2
SMUSSO
 70
0
 62
7
  6
CONTINUOUS
370
-3
390
F
  0
LAYER
  5
20E
100
AcDbSymbolTableRecord
100
AcDbLayerTableRecord
  2
SNAPLINE
 70
0
 62
7
  6
CONTINUOUS
370
-3
390
F
  0
LAYER
  5
20F
100
AcDbSymbolTableRecord
100
AcDbLayerTableRecord
  2
SUPERFICI
 70
0
 62
7
  6
CONTINUOUS
370
-3
390
F
  0
LAYER
  5
210
100
AcDbSymbolTableRecord
100
AcDbLayerTableRecord
  2
TRASH
 70
0
 62
7
  6
CONTINUOUS
370
-3
390
F
  0
LAYER
  5
211
100
AcDbSymbolTableRecord
100
AcDbLayerTableRecord
  2
XSEC_DATUMS
 70
0
 62
7
  6
CONTINUOUS
370
-3
390
F
  0
ENDTAB
  0
TABLE
  2
STYLE
  5
3
100
AcDbSymbolTable
 70
1
  0
STYLE
  5
11
100
AcDbSymbolTableRecord
100
AcDbTextStyleTableRecord
  2
STANDARD
 70
0
 40
0.0
 41
0.8
 50
0.0
 71
0
 42
0.2
  3
txt
  4

  0
STYLE
  5
212
100
AcDbSymbolTableRecord
100
AcDbTextStyleTableRecord
  2
TEXTSTYLE_1
 70
0
 40
0.0
 41
0.8
 50
0.0
 71
0
 42
0.2
  3
gdt
  4

  0
ENDTAB
  0
TABLE
  2
VIEW
  5
6
100
AcDbSymbolTable
 70
0
  0
ENDTAB
  0
TABLE
  2
UCS
  5
7
100
AcDbSymbolTable
 70
0
  0
ENDTAB
  0
TABLE
  2
APPID
  5
9
100
AcDbSymbolTable
 70
1
  0
APPID
  5
213
100
AcDbSymbolTableRecord
100
AcDbRegAppTableRecord
  2
ACAD
 70
0
  0
ENDTAB
  0
TABLE
  2
BLOCK_RECORD
  5
1
100
AcDbSymbolTable
 70
0
  0
BLOCK_RECORD
  5
214
100
AcDbSymbolTableRecord
100
AcDbBlockTableRecord
  2
*Model_Space
  0
BLOCK_RECORD
  5
215
100
AcDbSymbolTableRecord
100
AcDbBlockTableRecord
  2
*Paper_Space
  0
BLOCK_RECORD
  5
216
100
AcDbSymbolTableRecord
100
AcDbBlockTableRecord
  2
_FILLED
  0
BLOCK_RECORD
  5
217
100
AcDbSymbolTableRecord
100
AcDbBlockTableRecord
  2
*D0
  0
BLOCK_RECORD
  5
218
100
AcDbSymbolTableRecord
100
AcDbBlockTableRecord
  2
*D1
  0
BLOCK_RECORD
  5
219
100
AcDbSymbolTableRecord
100
AcDbBlockTableRecord
  2
*D2
  0
ENDTAB
  0
TABLE
  2
DIMSTYLE
  5
A
100
AcDbSymbolTable
 70
1
100
AcDbDimStyleTable
 71
0
  0
DIMSTYLE
105
21A
100
AcDbSymbolTableRecord
100
AcDbDimStyleTableRecord
  2
STANDARD
 70
0
  3

  4

 40
1.0
 41
3.0
 42
0.0625
 43
0.38
 44
0.18
 45
0.0
 46
0.0
 47
0.01
 48
0.01
140
3.0
141
0.09
142
0.0
143
25.4
144
1.0
145
0.0
146
1.0
147
0.09
 71
1.0
 72
0.0
 73
0
 74
0
 75
0
 76
0
 77
1
 78
8
170
0
171
2
172
0
173
0
174
0
175
0
176
0
177
0
178
0
270
2
271
2
272
2
273
2
274
2
275
0
280
0
281
0
282
0
283
1
284
8
285
0
286
0
287
3
288
0
340
11
341
216
342
216
343
216
344
216
  0
DIMSTYLE
105
21B
100
AcDbSymbolTableRecord
100
AcDbDimStyleTableRecord
  2
DIMSTYLE_1
 70
0
  3

  4

 40
1.0
 41
3.0
 42
0.0625
 43
0.38
 44
0.18
 45
0.0
 46
0.0
 47
0.0
 48
0.0
140
3.0
141
0.09
142
0.0
143
25.4
144
1.0
145
0.0
146
1.0
147
0.09
 71
0.0
 72
0.0
 73
0
 74
0
 75
0
 76
0
 77
1
 78
8
170
0
171
2
172
0
173
0
174
0
175
0
176
0
177
0
178
0
270
2
271
2
272
2
273
2
274
2
275
0
280
0
281
0
282
0
283
1
284
8
285
0
286
0
287
3
288
0
340
11
341
216
342
216
343
216
344
216
  0
DIMSTYLE
105
21C
100
AcDbSymbolTableRecord
100
AcDbDimStyleTableRecord
  2
DIMSTYLE_2
 70
0
  3

  4

 40
1.0
 41
3.0
 42
0.0625
 43
0.38
 44
0.18
 45
0.0
 46
0.0
 47
0.0
 48
0.0
140
3.0
141
0.09
142
0.0
143
25.4
144
1.0
145
0.0
146
1.0
147
0.09
 71
0.0
 72
0.0
 73
0
 74
0
 75
0
 76
0
 77
1
 78
8
170
0
171
2
172
0
173
0
174
0
175
0
176
0
177
0
178
0
270
2
271
1
272
1
273
2
274
2
275
0
280
0
281
0
282
0
283
1
284
8
285
0
286
0
287
3
288
0
340
11
341
216
342
216
343
216
344
216
  0
ENDTAB
  0
ENDSEC
  0
SECTION
  2
BLOCKS
  0
BLOCK
  5
20
100
AcDbEntity
  8
0
100
AcDbBlockBegin
  2
*Model_Space
 70
0
 10
0.0
 20
0.0
 30
0.0
  3
*Model_Space
  1

  0
ENDBLK
  5
21
100
AcDbEntity
  8
0
100
AcDbBlockEnd
  0
BLOCK
  5
1C
100
AcDbEntity
  8
0
100
AcDbBlockBegin
  2
*Paper_Space
 70
0
 10
0.0
 20
0.0
 30
0.0
  3
*Paper_Space
  1

  0
ENDBLK
  5
1D
100
AcDbEntity
  8
0
100
AcDbBlockEnd
  0
BLOCK
  5
21D
100
AcDbEntity
  8
0
100
AcDbBlockBegin
  2
_FILLED
 70
64
 10
0.0
 20
0.0
  3
_FILLED
  1

  0
SOLID
  5
21E
100
AcDbEntity
  8
0
  6
BYBLOCK
 62
0
100
AcDbTrace
 10
0.0
 20
0.0
 11
-1.0
 21
0.3166666667
 12
-1.0
 22
-0.3166666667
 13
-1.0
 23
-0.3166666667
  0
ENDBLK
  5
21F
100
AcDbEntity
  8
0
  6
BYBLOCK
 62
0
100
AcDbBlockEnd
  0
BLOCK
  5
220
100
AcDbEntity
  8
0
100
AcDbBlockBegin
 62
7
  6
CONTINUOUS
  2
*D0
 70
65
 10
0.0
 20
0.0
  3
*D0
  1

  0
MTEXT
  5
221
100
AcDbEntity
  8
0
100
AcDbMText
 62
7
  6
CONTINUOUS
  7
STANDARD
 71
2
 72
1
 10
0.0
 20
111.75
 30
0.0
 11
1.0
 21
0.0
 31
0.0
 44
0.9
  1
210
 40
3.0
 41
6.4285714286
  0
LINE
  5
222
100
AcDbEntity
  8
0
100
AcDbLine
 62
7
  6
CONTINUOUS
 10
-105.0
 20
35.5061599616
 11
-105.0
 21
109.5
  0
LINE
  5
223
100
AcDbEntity
  8
0
100
AcDbLine
 62
7
  6
CONTINUOUS
 10
105.0
 20
35.5061599616
 11
105.0
 21
109.5
  0
LINE
  5
224
100
AcDbEntity
  8
0
100
AcDbLine
 62
7
  6
CONTINUOUS
 10
-105.0
 20
108.0
 11
0.0
 21
108.0
  0
LINE
  5
225
100
AcDbEntity
  8
0
100
AcDbLine
 62
7
  6
CONTINUOUS
 10
105.0
 20
108.0
 11
0.0
 21
108.0
  0
INSERT
  5
226
100
AcDbEntity
  8
0
100
AcDbBlockReference
 62
7
  6
CONTINUOUS
  2
_FILLED
 10
-105.0
 20
108.0
 41
3.0
 42
3.0
 43
3.0
 50
180.0
  0
INSERT
  5
227
100
AcDbEntity
  8
0
100
AcDbBlockReference
 62
7
  6
CONTINUOUS
  2
_FILLED
 10
105.0
 20
108.0
 41
3.0
 42
3.0
 43
3.0
  0
ENDBLK
  5
228
100
AcDbEntity
  8
0
  6
BYBLOCK
 62
0
100
AcDbBlockEnd
  0
BLOCK
  5
229
100
AcDbEntity
  8
0
100
AcDbBlockBegin
 62
7
  6
CONTINUOUS
  2
*D1
 70
65
 10
0.0
 20
0.0
  3
*D1
  1

  0
MTEXT
  5
22A
100
AcDbEntity
  8
0
100
AcDbMText
 62
7
  6
CONTINUOUS
  7
STANDARD
 71
2
 72
1
 10
129.9231732241
 20
-0.0
 30
0.0
 11
0.0
 21
1.0
 31
0.0
 44
0.9
  1
161
 40
3.0
 41
5.7857142857
  0
LINE
  5
22B
100
AcDbEntity
  8
0
100
AcDbLine
 62
7
  6
CONTINUOUS
 10
110.3501155677
 20
80.5
 11
135.1731732241
 21
80.5
  0
LINE
  5
22C
100
AcDbEntity
  8
0
100
AcDbLine
 62
7
  6
CONTINUOUS
 10
113.9680664513
 20
-80.5
 11
135.1731732241
 21
-80.5
  0
LINE
  5
22D
100
AcDbEntity
  8
0
100
AcDbLine
 62
7
  6
CONTINUOUS
 10
133.6731732241
 20
80.5
 11
133.6731732241
 21
0.0
  0
LINE
  5
22E
100
AcDbEntity
  8
0
100
AcDbLine
 62
7
  6
CONTINUOUS
 10
133.6731732241
 20
-80.5
 11
133.6731732241
 21
0.0
  0
INSERT
  5
22F
100
AcDbEntity
  8
0
100
AcDbBlockReference
 62
7
  6
CONTINUOUS
  2
_FILLED
 10
133.6731732241
 20
80.5
 41
3.0
 42
3.0
 43
3.0
 50
90.0
  0
INSERT
  5
230
100
AcDbEntity
  8
0
100
AcDbBlockReference
 62
7
  6
CONTINUOUS
  2
_FILLED
 10
133.6731732241
 20
-80.5
 41
3.0
 42
3.0
 43
3.0
 50
270.0
  0
ENDBLK
  5
231
100
AcDbEntity
  8
0
  6
BYBLOCK
 62
0
100
AcDbBlockEnd
  0
BLOCK
  5
232
100
AcDbEntity
  8
0
100
AcDbBlockBegin
 62
7
  6
CONTINUOUS
  2
*D2
 70
65
 10
0.0
 20
0.0
  3
*D2
  1

  0
MTEXT
  5
233
100
AcDbEntity
  8
0
100
AcDbMText
 62
7
  6
CONTINUOUS
  7
STANDARD
 71
2
 72
1
 10
-131.6227195181
 20
111.75
 30
0.0
 11
1.0
 21
0.0
 31
0.0
 44
0.9
  1
8,6
 40
3.0
 41
6.4285714286
  0
LINE
  5
234
100
AcDbEntity
  8
0
100
AcDbLine
 62
7
  6
CONTINUOUS
 10
-127.3376083838
 20
80.2925344857
 11
-127.3376083711
 21
109.4999999981
  0
LINE
  5
235
100
AcDbEntity
  8
0
100
AcDbLine
 62
7
  6
CONTINUOUS
 10
-135.9078306981
 20
35.5061599616
 11
-135.9078306659
 21
109.5000000019
  0
LINE
  5
236
100
AcDbEntity
  8
0
100
AcDbLine
 62
7
  6
CONTINUOUS
 10
-127.3376083717
 20
107.9999999981
 11
-123.3376083717
 21
107.9999999964
  0
LINE
  5
237
100
AcDbEntity
  8
0
100
AcDbLine
 62
7
  6
CONTINUOUS
 10
-123.3376083717
 20
107.9999999964
 11
-131.6227195191
 21
108.0
  0
LINE
  5
238
100
AcDbEntity
  8
0
100
AcDbLine
 62
7
  6
CONTINUOUS
 10
-135.9078306665
 20
108.0000000019
 11
-139.9078306665
 21
108.0000000036
  0
LINE
  5
239
100
AcDbEntity
  8
0
100
AcDbLine
 62
7
  6
CONTINUOUS
 10
-139.9078306665
 20
108.0000000036
 11
-131.6227195191
 21
108.0
  0
INSERT
  5
23A
100
AcDbEntity
  8
0
100
AcDbBlockReference
 62
7
  6
CONTINUOUS
  2
_FILLED
 10
-127.3376083717
 20
107.9999999981
 41
3.0
 42
3.0
 43
3.0
 50
179.999999975
  0
INSERT
  5
23B
100
AcDbEntity
  8
0
100
AcDbBlockReference
 62
7
  6
CONTINUOUS
  2
_FILLED
 10
-135.9078306665
 20
108.0000000019
 41
3.0
 42
3.0
 43
3.0
 50
359.999999975
  0
ENDBLK
  5
23C
100
AcDbEntity
  8
0
  6
BYBLOCK
 62
0
100
AcDbBlockEnd
  0
ENDSEC
  0
SECTION
  2
ENTITIES
  0
DIMENSION
  5
23D
100
AcDbEntity
  8
0
100
AcDbDimension
 62
7
  6
CONTINUOUS
  2
*D0
 10
105.0
 20
108.0
 11
-3.2142857143
 21
110.25
 70
160
 71
2
 42
210.0
  3
DIMSTYLE_1
100
AcDbAlignedDimension
 13
-105.0
 23
35.5061599616
 14
105.0
 24
35.5061599616
100
AcDbRotatedDimension
  0
DIMENSION
  5
23E
100
AcDbEntity
  8
0
100
AcDbDimension
 62
7
  6
CONTINUOUS
  2
*D1
 10
133.6731732241
 20
-80.5
 11
132.719386185
 21
-2.586204634
 70
160
 71
2
 42
161.0
  3
DIMSTYLE_1
100
AcDbAlignedDimension
 13
110.3501155677
 23
80.5
 14
113.9680664513
 24
-80.5
 50
270.0
100
AcDbRotatedDimension
  0
DIMENSION
  5
23F
100
AcDbEntity
  8
0
100
AcDbDimension
 62
7
  6
CONTINUOUS
  2
*D2
 10
-135.9078306665
 20
108.0000000019
 11
-134.8370052324
 21
110.25
 70
160
 71
2
 42
8.5702222948
  3
DIMSTYLE_2
100
AcDbAlignedDimension
 13
-127.3376083838
 23
80.2925344857
 14
-135.9078306981
 24
35.5061599616
 50
179.999999975
100
AcDbRotatedDimension
  0
LWPOLYLINE
  5
240
100
AcDbEntity
  8
RACCORDO
100
AcDbPolyline
 62
253
  6
CONTINUOUS
 90
31
 70
0
 10
-104.8700641349
 20
-79.3714346001
 10
-104.8689837283
 20
-79.4245325727
 10
-104.8651242605
 20
-79.4774498659
 10
-104.8585017163
 20
-79.5300410074
 10
-104.8491405993
 20
-79.5821640913
 10
-104.8370709871
 20
-79.6336741479
 10
-104.82232903
 20
-79.6844236819
 10
-104.8049594955
 20
-79.7342783947
 10
-104.785016971
 20
-79.7830992478
 10
-104.7625658091
 20
-79.8307369647
 10
-104.7376776484
 20
-79.8770597475
 10
-104.71042623
 20
-79.921949258
 10
-104.6808909992
 20
-79.9652835748
 10
-104.6491601876
 20
-80.006947831
 10
-104.6153267021
 20
-80.0468342004
 10
-104.5794851669
 20
-80.0848386398
 10
-104.5417404732
 20
-80.120861123
 10
-104.502199302
 20
-80.1548109864
 10
-104.4609647796
 20
-80.1866054676
 10
-104.4181535382
 20
-80.2161620493
 10
-104.3738842197
 20
-80.2434064129
 10
-104.3282666925
 20
-80.2682745836
 10
-104.2814242431
 20
-80.2907030255
 10
-104.2334870704
 20
-80.3106334149
 10
-104.1845783761
 20
-80.3280167082
 10
-104.134831921
 20
-80.3428075328
 10
-104.0843817991
 20
-80.3549685407
 10
-104.033353931
 20
-80.3644704898
 10
-103.9818824058
 20
-80.3712883803
 10
-103.9301095385
 20
-80.3754033232
 10
-103.8781748407
 20
-80.3768043754
  0
LWPOLYLINE
  5
241
100
AcDbEntity
  8
RACCORDO
100
AcDbPolyline
 62
253
  6
CONTINUOUS
 90
31
 70
0
 10
-104.5704752745
 20
-79.4245843251
 10
-104.5698318164
 20
-79.4620887008
 10
-104.5672705353
 20
-79.4992725536
 10
-104.5627914313
 20
-79.5361359206
 10
-104.556368329
 20
-79.57278297
 10
-104.5480274037
 20
-79.6091095985
 10
-104.5378471816
 20
-79.6448034728
 10
-104.5258106905
 20
-79.6798570592
 10
-104.5119349025
 20
-79.714278036
 10
-104.4963492603
 20
-79.7477769567
 10
-104.4790405749
 20
-79.7803416129
 10
-104.4600220353
 20
-79.8119844126
 10
-104.439462652
 20
-79.8424528897
 10
-104.4173511099
 20
-79.8717360143
 10
-104.3936987241
 20
-79.8998450478
 10
-104.36870845
 20
-79.9265610015
 10
-104.3423718963
 20
-79.9518712641
 10
-104.3146974544
 20
-79.9757886875
 10
-104.2859132542
 20
-79.9981325034
 10
-104.2560127627
 20
-80.0188903341
 10
-104.2250025129
 20
-80.0380747835
 10
-104.1931302347
 20
-80.0555425671
 10
-104.160388918
 20
-80.0712814066
 10
-104.1267855729
 20
-80.0853037711
 10
-104.0925889591
 20
-80.0975034963
 10
-104.0577891562
 20
-80.1078670078
 10
-104.0223960846
 20
-80.116408018
 10
-103.9867082652
 20
-80.1230612831
 10
-103.9508252049
 20
-80.1278050799
 10
-103.9146473967
 20
-80.130661204
 10
-103.8781748407
 20
-80.1316296735
  0
LWPOLYLINE
  5
242
100
AcDbEntity
  8
RACCORDO
100
AcDbPolyline
 62
253
  6
CONTINUOUS
 90
9
 70
0
 10
-104.8700641349
 20
79.3714346001
 10
-104.8488583148
 20
77.0282633806
 10
-104.8294044228
 20
74.6805292018
 10
-104.8117024588
 20
72.3282320636
 10
-104.7957495359
 20
69.9708898601
 10
-104.781548541
 20
67.6089846973
 10
-104.7691081354
 20
65.2439628935
 10
-104.7584312061
 20
62.8763065547
 10
-104.7495148661
 20
60.5055335749
  0
LWPOLYLINE
  5
243
100
AcDbEntity
  8
RACCORDO
100
AcDbPolyline
 62
253
  6
CONTINUOUS
 90
9
 70
0
 10
-104.5704752745
 20
79.4245843251
 10
-104.549269062
 20
77.0779525961
 10
-104.5298149288
 20
74.7258205098
 10
-104.5121128747
 20
72.3686621565
 10
-104.4961600887
 20
70.0069570096
 10
-104.4819593819
 20
67.6411766856
 10
-104.4695191875
 20
65.2717847757
 10
-104.4588423168
 20
62.8992543264
 10
-104.4499259585
 20
60.5240678139
  0
LINE
  5
244
100
AcDbEntity
  8
RACCORDO
100
AcDbLine
 62
253
  6
CONTINUOUS
 10
-104.7495148661
 20
60.5055335749
 11
-104.7332346867
 21
54.3618625447
  0
LINE
  5
245
100
AcDbEntity
  8
RACCORDO
100
AcDbLine
 62
253
  6
CONTINUOUS
 10
-104.4499259585
 20
60.5240678139
 11
-104.4336458221
 21
54.3744436233
  0
LINE
  5
246
100
AcDbEntity
  8
RACCORDO
100
AcDbLine
 62
253
  6
CONTINUOUS
 10
-104.7332346867
 20
54.3618625447
 11
-104.72364918
 21
49.3339753724
  0
LINE
  5
247
100
AcDbEntity
  8
RACCORDO
100
AcDbLine
 62
253
  6
CONTINUOUS
 10
-104.4336458221
 20
54.3744436233
 11
-104.4240603184
 21
49.3432001813
  0
LINE
  5
248
100
AcDbEntity
  8
RACCORDO
100
AcDbLine
 62
253
  6
CONTINUOUS
 10
-104.72364918
 20
49.3339753724
 11
-104.7170124553
 21
44.3045500944
  0
LINE
  5
249
100
AcDbEntity
  8
RACCORDO
100
AcDbLine
 62
253
  6
CONTINUOUS
 10
-104.4240603184
 20
49.3432001813
 11
-104.4174235953
 21
44.3104274738
  0
LINE
  5
24A
100
AcDbEntity
  8
RACCORDO
100
AcDbLine
 62
253
  6
CONTINUOUS
 10
-104.7170124553
 20
44.3045500944
 11
-104.7133248219
 21
39.2738032343
  0
LINE
  5
24B
100
AcDbEntity
  8
RACCORDO
100
AcDbLine
 62
253
  6
CONTINUOUS
 10
-104.4174235953
 20
44.3104274738
 11
-104.4137359622
 21
39.2763224463
  0
LINE
  5
24C
100
AcDbEntity
  8
RACCORDO
100
AcDbLine
 62
7
  6
CONTINUOUS
 10
-105.0
 20
-79.5013704652
 11
-105.0
 21
79.5013704652
  0
LINE
  5
24D
100
AcDbEntity
  8
RACCORDO
100
AcDbLine
 62
253
  6
CONTINUOUS
 10
-103.8781748407
 20
-80.1316296735
 11
-103.8781748407
 21
-80.3768043754
  0
LINE
  5
24E
100
AcDbEntity
  8
RACCORDO
100
AcDbLine
 62
253
  6
CONTINUOUS
 10
-103.8781748407
 20
80.1316296735
 11
-103.8781748408
 21
80.3768043754
  0
LINE
  5
24F
100
AcDbEntity
  8
RACCORDO
100
AcDbLine
 62
253
  6
CONTINUOUS
 10
-104.7133248219
 20
39.2738032343
 11
-104.7125872032
 21
-36.758003996
  0
LINE
  5
250
100
AcDbEntity
  8
RACCORDO
100
AcDbLine
 62
253
  6
CONTINUOUS
 10
-104.4137359622
 20
39.2763224463
 11
-104.4129983429
 21
-36.7588269713
  0
LINE
  5
251
100
AcDbEntity
  8
RACCORDO
100
AcDbLine
 62
253
  6
CONTINUOUS
 10
-104.7125872032
 20
-36.758003996
 11
-104.7147999652
 21
-41.7893307617
  0
LINE
  5
252
100
AcDbEntity
  8
RACCORDO
100
AcDbLine
 62
253
  6
CONTINUOUS
 10
-104.4129983429
 20
-36.7588269713
 11
-104.4152111055
 21
-41.7935243826
  0
LINE
  5
253
100
AcDbEntity
  8
RACCORDO
100
AcDbLine
 62
253
  6
CONTINUOUS
 10
-104.7147999652
 20
-41.7893307617
 11
-104.718395187
 21
-45.5620404557
  0
LINE
  5
254
100
AcDbEntity
  8
RACCORDO
100
AcDbLine
 62
253
  6
CONTINUOUS
 10
-104.4152111055
 20
-41.7935243826
 11
-104.4188063268
 21
-45.5687498608
  0
LINE
  5
255
100
AcDbEntity
  8
RACCORDO
100
AcDbLine
 62
253
  6
CONTINUOUS
 10
-104.718395187
 20
-45.5620404557
 11
-104.7257691094
 21
-50.5910984411
  0
LINE
  5
256
100
AcDbEntity
  8
RACCORDO
100
AcDbLine
 62
253
  6
CONTINUOUS
 10
-104.4188063268
 20
-45.5687498608
 11
-104.4261802472
 21
-50.6011648792
  0
LINE
  5
257
100
AcDbEntity
  8
RACCORDO
100
AcDbLine
 62
253
  6
CONTINUOUS
 10
-104.7257691094
 20
-50.5910984411
 11
-104.7305618501
 21
-53.1050470388
  0
LINE
  5
258
100
AcDbEntity
  8
RACCORDO
100
AcDbLine
 62
253
  6
CONTINUOUS
 10
-104.4261802472
 20
-50.6011648792
 11
-104.4309729927
 21
-53.1167893026
  0
LINE
  5
259
100
AcDbEntity
  8
RACCORDO
100
AcDbLine
 62
253
  6
CONTINUOUS
 10
-104.7305618501
 20
-53.1050470388
 11
-104.7423591154
 21
-58.1316439541
  0
LINE
  5
25A
100
AcDbEntity
  8
RACCORDO
100
AcDbLine
 62
253
  6
CONTINUOUS
 10
-104.4309729927
 20
-53.1167893026
 11
-104.4427701629
 21
-58.1467037078
  0
LWPOLYLINE
  5
25B
100
AcDbEntity
  8
RACCORDO
100
AcDbPolyline
 62
253
  6
CONTINUOUS
 90
10
 70
0
 10
-104.4427701122
 20
-58.1467037078
 10
-104.4499259595
 20
-60.524067855
 10
-104.4588423183
 20
-62.8992544377
 10
-104.4695191885
 20
-65.2717848411
 10
-104.4819593805
 20
-67.6411764911
 10
-104.4961600839
 20
-70.0069564405
 10
-104.5121128681
 20
-72.3686613913
 10
-104.5298149228
 20
-74.7258198238
 10
-104.5492690583
 20
-77.0779521656
 10
-104.5704752745
 20
-79.4245843251
  0
LWPOLYLINE
  5
25C
100
AcDbEntity
  8
RACCORDO
100
AcDbPolyline
 62
253
  6
CONTINUOUS
 90
10
 70
0
 10
-104.7423591154
 20
-58.1316439541
 10
-104.7495148787
 20
-60.5055369613
 10
-104.7584312346
 20
-62.8763131635
 10
-104.7691081833
 20
-65.243972561
 10
-104.7815486204
 20
-67.60899817
 10
-104.7957496502
 20
-69.9709069741
 10
-104.8117025853
 20
-72.3282499241
 10
-104.8294045299
 20
-74.6805440036
 10
-104.8488583798
 20
-77.0282722289
 10
-104.8700641349
 20
-79.3714346001
  0
LWPOLYLINE
  5
25D
100
AcDbEntity
  8
RACCORDO
100
AcDbPolyline
 62
253
  6
CONTINUOUS
 90
16
 70
0
 10
-79.196980215
 20
58.146741782
 10
-79.2311789068
 20
58.1011537683
 10
-79.2633393006
 20
58.0540032027
 10
-79.2934613965
 20
58.0052900612
 10
-79.3216597541
 20
57.9548371442
 10
-79.3478198137
 20
57.9028215988
 10
-79.3715978971
 20
57.8497749279
 10
-79.3929333488
 20
57.7956705129
 10
-79.4118868243
 20
57.7405349371
 10
-79.4282966113
 20
57.6849795268
 10
-79.4420973592
 20
57.6290106821
 10
-79.4533544186
 20
57.5726219893
 10
-79.4621021284
 20
57.5164055756
 10
-79.4683519348
 20
57.4605588244
 10
-79.4720923916
 20
57.4048843629
 10
-79.4733234988
 20
57.3493821949
  0
LWPOLYLINE
  5
25E
100
AcDbEntity
  8
RACCORDO
100
AcDbPolyline
 62
253
  6
CONTINUOUS
 90
16
 70
0
 10
-78.8037074152
 20
57.8149988125
 10
-78.8247143384
 20
57.7870512767
 10
-78.844571262
 20
57.7580603741
 10
-78.8632201474
 20
57.7280688198
 10
-78.8806302634
 20
57.6970743675
 10
-78.8967158687
 20
57.6651725418
 10
-78.9113583423
 20
57.6325675695
 10
-78.9245277008
 20
57.5993196608
 10
-78.9361938438
 20
57.5654987238
 10
-78.9462845462
 20
57.5313431946
 10
-78.954797963
 20
57.4969368655
 10
-78.9617414246
 20
57.4623429483
 10
-78.9671031848
 20
57.427778882
 10
-78.9709085958
 20
57.3933658337
 10
-78.9731986801
 20
57.3591244305
 10
-78.9740086896
 20
57.3251203721
  0
LWPOLYLINE
  5
25F
100
AcDbEntity
  8
RACCORDO
100
AcDbPolyline
 62
253
  6
CONTINUOUS
 90
19
 70
0
 10
-78.8037074152
 20
-57.8149988125
 10
-78.778058476
 20
-57.8459667387
 10
-78.7508392294
 20
-57.8756471922
 10
-78.722112453
 20
-57.9039592452
 10
-78.691943082
 20
-57.9308259247
 10
-78.660404265
 20
-57.9561712863
 10
-78.6275779162
 20
-57.979921501
 10
-78.5935320792
 20
-58.0020166462
 10
-78.5583606971
 20
-58.0223855675
 10
-78.5221940948
 20
-58.0409503509
 10
-78.4851024325
 20
-58.0576722529
 10
-78.4472024098
 20
-58.0724961193
 10
-78.4087079072
 20
-58.0853496453
 10
-78.3697478368
 20
-58.0962104524
 10
-78.3304016952
 20
-58.10507667
 10
-78.2908170442
 20
-58.1119382436
 10
-78.2511119048
 20
-58.1168007706
 10
-78.2113728869
 20
-58.1196782765
 10
-78.1716993587
 20
-58.1205874836
  0
LWPOLYLINE
  5
260
100
AcDbEntity
  8
RACCORDO
100
AcDbPolyline
 62
253
  6
CONTINUOUS
 90
19
 70
0
 10
-79.196980215
 20
-58.146741782
 10
-79.1552368011
 20
-58.1974475975
 10
-79.1111455306
 20
-58.245820132
 10
-79.0647064036
 20
-58.2918594841
 10
-79.0157888299
 20
-58.3356889169
 10
-78.9645233997
 20
-58.3771853499
 10
-78.9113018832
 20
-58.4159793741
 10
-78.8560898601
 20
-58.4520509727
 10
-78.7989217507
 20
-58.4854203475
 10
-78.740292586
 20
-58.5157784336
 10
-78.6801453139
 20
-58.5430937838
 10
-78.6185369864
 20
-58.5673980076
 10
-78.5561337905
 20
-58.588476627
 10
-78.4929604149
 20
-58.6062666905
 10
-78.4289921709
 20
-58.6208312688
 10
-78.3648211784
 20
-58.6321449081
 10
-78.3006448107
 20
-58.6401991438
 10
-78.2362656944
 20
-58.6450025006
 10
-78.1716838297
 20
-58.6465549932
  0
LWPOLYLINE
  5
261
100
AcDbEntity
  8
RACCORDO
100
AcDbPolyline
 62
253
  6
CONTINUOUS
 90
31
 70
0
 10
103.8781748407
 20
-80.3768043754
 10
103.9300633794
 20
-80.3754057976
 10
103.9817973721
 20
-80.3712974012
 10
104.033237539
 20
-80.364489022
 10
104.0842407131
 20
-80.3549986546
 10
104.1346738041
 20
-80.3428500648
 10
104.1844136212
 20
-80.3280704255
 10
104.2333299353
 20
-80.3106939214
 10
104.2812840515
 20
-80.2907656453
 10
104.3281425884
 20
-80.2683380415
 10
104.3737718284
 20
-80.2434715431
 10
104.4180520963
 20
-80.216228183
 10
104.4608745776
 20
-80.1866712719
 10
104.5021210044
 20
-80.1548746668
 10
104.5416740624
 20
-80.1209211985
 10
104.5794300426
 20
-80.0848940411
 10
104.6152821789
 20
-80.0468839139
 10
104.6491255113
 20
-80.0069908962
 10
104.6808649968
 20
-79.9653195812
 10
104.7104070652
 20
-79.9219789661
 10
104.7376642889
 20
-79.8770830522
 10
104.7625586724
 20
-79.8307510543
 10
104.7850198577
 20
-79.783092555
 10
104.8049710988
 20
-79.7342475387
 10
104.8223399572
 20
-79.6843893087
 10
104.8370686348
 20
-79.6336830939
 10
104.8491249632
 20
-79.5822397089
 10
104.8584842663
 20
-79.530155227
 10
104.8651136774
 20
-79.4775560951
 10
104.8689805239
 20
-79.4246007462
 10
104.8700641349
 20
-79.3714346001
  0
LWPOLYLINE
  5
262
100
AcDbEntity
  8
RACCORDO
100
AcDbPolyline
 62
253
  6
CONTINUOUS
 90
31
 70
0
 10
103.8781748407
 20
-80.1316296735
 10
103.9146529722
 20
-80.1306597302
 10
103.9508319703
 20
-80.1278034482
 10
103.9867118348
 20
-80.1230608093
 10
104.0223884154
 20
-80.1164111066
 10
104.0577658624
 20
-80.1078749747
 10
104.0925566275
 20
-80.0975143919
 10
104.1267568879
 20
-80.085314063
 10
104.1603704663
 20
-80.0712891449
 10
104.1931212822
 20
-80.0555472846
 10
104.2249996843
 20
-80.0380766368
 10
104.2560153239
 20
-80.0188888558
 10
104.2859210743
 20
-79.9981268372
 10
104.3147107791
 20
-79.9757777339
 10
104.3423905947
 20
-79.9518541665
 10
104.3687318644
 20
-79.9265372441
 10
104.3937261188
 20
-79.8998140448
 10
104.4173818273
 20
-79.8716972495
 10
104.4394957418
 20
-79.8424063973
 10
104.4600562017
 20
-79.8119310221
 10
104.4790748675
 20
-79.7802813584
 10
104.496383473
 20
-79.7477080355
 10
104.5119701923
 20
-79.7141922068
 10
104.5258468514
 20
-79.6797525184
 10
104.5378806623
 20
-79.6446958968
 10
104.5480511722
 20
-79.6090293237
 10
104.556378834
 20
-79.5727456776
 10
104.5627922181
 20
-79.5361307981
 10
104.5672675146
 20
-79.4992799549
 10
104.5698285334
 20
-79.46209781
 10
104.5704752745
 20
-79.4245843251
  0
LINE
  5
263
100
AcDbEntity
  8
RACCORDO
100
AcDbLine
 62
7
  6
CONTINUOUS
 10
-78.9722940122
 20
-13.6765960252
 11
-78.9808542149
 21
-13.461362405
  0
LINE
  5
264
100
AcDbEntity
  8
RACCORDO
100
AcDbLine
 62
7
  6
CONTINUOUS
 10
-78.9808542149
 20
-13.461362405
 11
-78.9862309443
 21
-13.3076777755
  0
LINE
  5
265
100
AcDbEntity
  8
RACCORDO
100
AcDbLine
 62
7
  6
CONTINUOUS
 10
-78.9862309443
 20
-13.3076777755
 11
-78.9905273176
 21
-13.1600059054
  0
LWPOLYLINE
  5
266
100
AcDbEntity
  8
RACCORDO
100
AcDbPolyline
 62
253
  6
CONTINUOUS
 90
16
 70
0
 10
-78.9740086971
 20
-57.3251176125
 10
-78.9732013824
 20
-57.3590647496
 10
-78.9709185052
 20
-57.3932539258
 10
-78.9671242865
 20
-57.4276197027
 10
-78.9617778342
 20
-57.4621379533
 10
-78.9548528767
 20
-57.4966914741
 10
-78.946357533
 20
-57.5310739169
 10
-78.9362804637
 20
-57.5652278065
 10
-78.9246228502
 20
-57.599062581
 10
-78.9114578401
 20
-57.6323318871
 10
-78.8968155524
 20
-57.6649632005
 10
-78.8807242258
 20
-57.6968979295
 10
-78.863301926
 20
-57.7279305287
 10
-78.844633796
 20
-57.7579645864
 10
-78.8247498103
 20
-57.7870018463
 10
-78.8037074152
 20
-57.8149988125
  0
LWPOLYLINE
  5
267
100
AcDbEntity
  8
RACCORDO
100
AcDbPolyline
 62
253
  6
CONTINUOUS
 90
34
 70
0
 10
-78.9722934582
 20
13.6765975452
 10
-78.9713692956
 20
13.6367097622
 10
-78.9684629031
 20
13.5969358705
 10
-78.963582709
 20
13.5573737276
 10
-78.9567442878
 20
13.5181300996
 10
-78.9479643898
 20
13.4792917713
 10
-78.9372560614
 20
13.4409264083
 10
-78.9246412548
 20
13.4031260047
 10
-78.9101490211
 20
13.3659886177
 10
-78.8938032761
 20
13.3295913723
 10
-78.8755621922
 20
13.2938864637
 10
-78.855528425
 20
13.2591137396
 10
-78.8340070478
 20
13.225745883
 10
-78.8111366587
 20
13.1938764638
 10
-78.7869935583
 20
13.1634977602
 10
-78.7618825219
 20
13.1348584926
 10
-78.7361310536
 20
13.1081488136
 10
-78.7096904202
 20
13.0831480276
 10
-78.6822778083
 20
13.05950166
 10
-78.6539251646
 20
13.0372075596
 10
-78.624743492
 20
13.01632618
 10
-78.5944906664
 20
12.9966836353
 10
-78.5630252309
 20
12.9782352782
 10
-78.5305788215
 20
12.9611631374
 10
-78.4974631422
 20
12.9456377677
 10
-78.4638751781
 20
12.9317276714
 10
-78.4297713059
 20
12.919391097
 10
-78.3951152091
 20
12.9086088191
 10
-78.3601539588
 20
12.8994475601
 10
-78.3247853311
 20
12.8918713338
 10
-78.2884266365
 20
12.8858041891
 10
-78.2509197419
 20
12.8813303434
 10
-78.2125523821
 20
12.8785964818
 10
-78.1734053701
 20
12.8777065377
  0
LINE
  5
268
100
AcDbEntity
  8
RACCORDO
100
AcDbLine
 62
7
  6
CONTINUOUS
 10
-78.9905273176
 20
-13.1600059054
 11
-78.9927776085
 21
-13.0646911963
  0
LWPOLYLINE
  5
269
100
AcDbEntity
  8
RACCORDO
100
AcDbPolyline
 62
253
  6
CONTINUOUS
 90
16
 70
0
 10
-79.4733234988
 20
-57.3493821949
 10
-79.472099458
 20
-57.4047772328
 10
-79.4683715722
 20
-57.4603565823
 10
-79.4621398412
 20
-57.5161202392
 10
-79.4534191263
 20
-57.5722608056
 10
-79.4421945662
 20
-57.6285856685
 10
-79.4284215781
 20
-57.6845170121
 10
-79.4120325672
 20
-57.7400708847
 10
-79.3930951282
 20
-57.7952312504
 10
-79.3717674616
 20
-57.8493721883
 10
-79.3479890736
 20
-57.9024634944
 10
-79.321820458
 20
-57.9545354078
 10
-79.2936012961
 20
-58.0050526925
 10
-79.2634448153
 20
-58.0538369574
 10
-79.2312377882
 20
-58.1010666458
 10
-79.196980215
 20
-58.146741782
  0
LINE
  5
26A
100
AcDbEntity
  8
RACCORDO
100
AcDbLine
 62
7
  6
CONTINUOUS
 10
-78.9927776085
 20
-13.0646911963
 11
-78.9945470162
 21
-12.9716113368
  0
LINE
  5
26B
100
AcDbEntity
  8
RACCORDO
100
AcDbLine
 62
7
  6
CONTINUOUS
 10
-78.9945470162
 20
-12.9716113368
 11
-78.9958451656
 21
-12.8811912874
  0
LINE
  5
26C
100
AcDbEntity
  8
RACCORDO
100
AcDbLine
 62
7
  6
CONTINUOUS
 10
-78.9958451656
 20
-12.8811912874
 11
-78.9966827309
 21
-12.7940443087
  0
LINE
  5
26D
100
AcDbEntity
  8
RACCORDO
100
AcDbLine
 62
7
  6
CONTINUOUS
 10
-78.9966827309
 20
-12.7940443087
 11
-78.9970875812
 21
-12.7120252226
  0
LINE
  5
26E
100
AcDbEntity
  8
RACCORDO
100
AcDbLine
 62
253
  6
CONTINUOUS
 10
-79.4890607713
 20
-49.889825527
 11
-79.4733234988
 21
-57.3493821949
  0
LINE
  5
26F
100
AcDbEntity
  8
RACCORDO
100
AcDbLine
 62
253
  6
CONTINUOUS
 10
-78.9897459977
 20
-49.8738405321
 11
-78.974008705
 21
-57.3251176202
  0
LINE
  5
270
100
AcDbEntity
  8
RACCORDO
100
AcDbLine
 62
253
  6
CONTINUOUS
 10
-79.4981705049
 20
-42.6064203076
 11
-79.4890607713
 21
-49.889825527
  0
LINE
  5
271
100
AcDbEntity
  8
RACCORDO
100
AcDbLine
 62
253
  6
CONTINUOUS
 10
-78.9988557422
 20
-42.5985186113
 11
-78.9897459977
 21
-49.8738405321
  0
LINE
  5
272
100
AcDbEntity
  8
RACCORDO
100
AcDbLine
 62
253
  6
CONTINUOUS
 10
-79.5011081508
 20
-35.4999969992
 11
-79.4981705049
 21
-42.6064203076
  0
LINE
  5
273
100
AcDbEntity
  8
RACCORDO
100
AcDbLine
 62
253
  6
CONTINUOUS
 10
-79.0017933822
 20
-35.5
 11
-78.9988557422
 21
-42.5985186113
  0
LINE
  5
274
100
AcDbEntity
  8
RACCORDO
100
AcDbLine
 62
7
  6
CONTINUOUS
 10
-78.9970875812
 20
-12.7120252226
 11
-78.9971259045
 21
12.6728197976
  0
LINE
  5
275
100
AcDbEntity
  8
0
100
AcDbLine
 62
253
  6
CONTINUOUS
 10
-78.979704076
 20
-7.0298106894
 11
-78.979704076
 21
7.0298106894
  0
LINE
  5
276
100
AcDbEntity
  8
0
100
AcDbLine
 62
7
  6
CONTINUOUS
 10
-78.85
 20
57.2010963722
 11
-78.85
 21
13.7989036278
  0
LINE
  5
277
100
AcDbEntity
  8
0
100
AcDbLine
 62
7
  6
CONTINUOUS
 10
-78.85
 20
-57.2010963722
 11
-78.85
 21
-13.7989036278
  0
LINE
  5
278
100
AcDbEntity
  8
0
100
AcDbLine
 62
253
  6
CONTINUOUS
 10
-78.779734537
 20
-7.0298051004
 11
-78.779734537
 21
7.0298051321
  0
LINE
  5
279
100
AcDbEntity
  8
0
100
AcDbLine
 62
7
  6
CONTINUOUS
 10
-78.7690726278
 20
2.85
 11
-78.7690726278
 21
-2.85
  0
LINE
  5
27A
100
AcDbEntity
  8
0
100
AcDbLine
 62
7
  6
CONTINUOUS
 10
-78.75
 20
7.0000761524
 11
-78.75
 21
2.9072644141
  0
LINE
  5
27B
100
AcDbEntity
  8
0
100
AcDbLine
 62
7
  6
CONTINUOUS
 10
-78.75
 20
-2.9072644141
 11
-78.75
 21
-7.0000761524
  0
LINE
  5
27C
100
AcDbEntity
  8
RACCORDO
100
AcDbLine
 62
7
  6
CONTINUOUS
 10
-78.65
 20
7.0
 11
-78.65
 21
1.5
  0
LINE
  5
27D
100
AcDbEntity
  8
RACCORDO
100
AcDbLine
 62
7
  6
CONTINUOUS
 10
-78.65
 20
-1.5
 11
-78.65
 21
-7.0
  0
LINE
  5
27E
100
AcDbEntity
  8
RACCORDO
100
AcDbLine
 62
7
  6
CONTINUOUS
 10
-78.632495013
 20
-7.0
 11
-78.632495013
 21
7.0
  0
LINE
  5
27F
100
AcDbEntity
  8
RACCORDO
100
AcDbLine
 62
253
  6
CONTINUOUS
 10
-78.532495013
 20
-7.0
 11
-78.532495013
 21
7.0
  0
LINE
  5
280
100
AcDbEntity
  8
0
100
AcDbLine
 62
253
  6
CONTINUOUS
 10
-78.2798106894
 20
7.729704076
 11
-78.2798106894
 21
7.529734537
  0
LINE
  5
281
100
AcDbEntity
  8
0
100
AcDbLine
 62
253
  6
CONTINUOUS
 10
-78.2798106894
 20
-7.729704076
 11
-78.2798106894
 21
-7.529734537
  0
LINE
  5
282
100
AcDbEntity
  8
RACCORDO
100
AcDbLine
 62
253
  6
CONTINUOUS
 10
-78.232495013
 20
7.4
 11
-78.232495013
 21
7.3
  0
LINE
  5
283
100
AcDbEntity
  8
RACCORDO
100
AcDbLine
 62
253
  6
CONTINUOUS
 10
-78.232495013
 20
-7.4
 11
-78.232495013
 21
-7.3
  0
LINE
  5
284
100
AcDbEntity
  8
RACCORDO
100
AcDbLine
 62
253
  6
CONTINUOUS
 10
-78.1733898133
 20
12.8777065589
 11
-78.1733898133
 21
12.3783917915
  0
LINE
  5
285
100
AcDbEntity
  8
RACCORDO
100
AcDbLine
 62
253
  6
CONTINUOUS
 10
-78.1733898133
 20
-12.8777065589
 11
-78.1733898133
 21
-12.3783917915
  0
LINE
  5
286
100
AcDbEntity
  8
RACCORDO
100
AcDbLine
 62
253
  6
CONTINUOUS
 10
-78.1716838297
 20
-58.1205874575
 11
-78.1716838297
 21
-58.6465549932
  0
LINE
  5
287
100
AcDbEntity
  8
RACCORDO
100
AcDbLine
 62
253
  6
CONTINUOUS
 10
-78.1716838297
 20
58.1205874575
 11
-78.1716838297
 21
58.6465549932
  0
LINE
  5
288
100
AcDbEntity
  8
RACCORDO
100
AcDbLine
 62
253
  6
CONTINUOUS
 10
-79.4981739975
 20
42.6021948111
 11
-79.5011081496
 21
-35.4999969992
  0
LINE
  5
289
100
AcDbEntity
  8
RACCORDO
100
AcDbLine
 62
253
  6
CONTINUOUS
 10
-78.9988592351
 20
42.5942975324
 11
-79.0017933822
 21
-35.5
  0
LINE
  5
28A
100
AcDbEntity
  8
RACCORDO
100
AcDbLine
 62
253
  6
CONTINUOUS
 10
-79.4890678442
 20
49.8856019226
 11
-79.4981739975
 21
42.6021948111
  0
LINE
  5
28B
100
AcDbEntity
  8
RACCORDO
100
AcDbLine
 62
253
  6
CONTINUOUS
 10
-78.9897530716
 20
49.8696210487
 11
-78.9988592351
 21
42.5942975324
  0
LINE
  5
28C
100
AcDbEntity
  8
RACCORDO
100
AcDbLine
 62
253
  6
CONTINUOUS
 10
-79.4733234988
 20
57.3493821949
 11
-79.4890678442
 21
49.8856019226
  0
LINE
  5
28D
100
AcDbEntity
  8
RACCORDO
100
AcDbLine
 62
253
  6
CONTINUOUS
 10
-78.9740086991
 20
57.3251203816
 11
-78.9897530716
 21
49.8696210487
  0
LINE
  5
28E
100
AcDbEntity
  8
RACCORDO
100
AcDbLine
 62
7
  6
CONTINUOUS
 10
-78.9971259251
 20
12.6728198281
 11
-78.9969464451
 21
12.7508472757
  0
LINE
  5
28F
100
AcDbEntity
  8
RACCORDO
100
AcDbLine
 62
7
  6
CONTINUOUS
 10
-78.9969464451
 20
12.7508472757
 11
-78.996355617
 21
12.8333085795
  0
LINE
  5
290
100
AcDbEntity
  8
RACCORDO
100
AcDbLine
 62
7
  6
CONTINUOUS
 10
-78.996355617
 20
12.8333085795
 11
-78.9953396157
 21
12.9201340061
  0
LINE
  5
291
100
AcDbEntity
  8
RACCORDO
100
AcDbLine
 62
7
  6
CONTINUOUS
 10
-78.9953396157
 20
12.9201340061
 11
-78.9938493662
 21
13.0111500414
  0
LINE
  5
292
100
AcDbEntity
  8
RACCORDO
100
AcDbLine
 62
7
  6
CONTINUOUS
 10
-78.9938493662
 20
13.0111500414
 11
-78.991856752
 21
13.1058339467
  0
LINE
  5
293
100
AcDbEntity
  8
RACCORDO
100
AcDbLine
 62
7
  6
CONTINUOUS
 10
-78.991856752
 20
13.1058339467
 11
-78.989352378
 21
13.2038377311
  0
LWPOLYLINE
  5
294
100
AcDbEntity
  8
0
100
AcDbPolyline
 62
253
  6
CONTINUOUS
 90
28
 70
0
 10
-78.979704076
 20
7.0298106894
 10
-78.9785588148
 20
7.0703473114
 10
-78.9750529298
 20
7.1106424975
 10
-78.969186421
 20
7.1506962477
 10
-78.960923124
 20
7.190701947
 10
-78.9502992033
 20
7.2304662104
 10
-78.937423152
 20
7.2694088825
 10
-78.9222449104
 20
7.307495273
 10
-78.9048145382
 20
7.3447600723
 10
-78.8853907084
 20
7.3807271968
 10
-78.8639810783
 20
7.4153226039
 10
-78.8405779905
 20
7.4486203363
 10
-78.8154171452
 20
7.4803664376
 10
-78.7885194878
 20
7.5105387957
 10
-78.7598640728
 20
7.5391595228
 10
-78.7296237644
 20
7.5660409987
 10
-78.6977552228
 20
7.591212716
 10
-78.6643017877
 20
7.6146451822
 10
-78.6295663424
 20
7.6360622988
 10
-78.5934737174
 20
7.6554575806
 10
-78.5560990822
 20
7.6728375128
 10
-78.5179708282
 20
7.6879454537
 10
-78.4790658789
 20
7.7007204454
 10
-78.4394073108
 20
7.7112234457
 10
-78.3995927457
 20
7.7193806858
 10
-78.3598213907
 20
7.725167576
 10
-78.3198940386
 20
7.7286087061
 10
-78.2798106894
 20
7.729704076
  0
LWPOLYLINE
  5
295
100
AcDbEntity
  8
0
100
AcDbPolyline
 62
253
  6
CONTINUOUS
 90
5
 70
0
 10
-78.7797345365
 20
7.0298051316
 10
-78.7789087536
 20
7.0586011089
 10
-78.7764121217
 20
7.0874228452
 10
-78.7722318175
 20
7.1161720924
 10
-78.7663513846
 20
7.1447889397
  0
LINE
  5
296
100
AcDbEntity
  8
RACCORDO
100
AcDbLine
 62
7
  6
CONTINUOUS
 10
-78.989352378
 20
13.2038377311
 11
-78.9846416918
 21
13.3557905124
  0
LINE
  5
297
100
AcDbEntity
  8
RACCORDO
100
AcDbLine
 62
7
  6
CONTINUOUS
 10
-78.9846416918
 20
13.3557905124
 11
-78.9767846421
 21
13.5668242107
  0
LINE
  5
298
100
AcDbEntity
  8
RACCORDO
100
AcDbLine
 62
7
  6
CONTINUOUS
 10
-78.9767846421
 20
13.5668242107
 11
-78.9722939715
 21
13.6765970319
  0
LWPOLYLINE
  5
299
100
AcDbEntity
  8
0
100
AcDbPolyline
 62
253
  6
CONTINUOUS
 90
4
 70
0
 10
-78.7663513846
 20
7.1447889397
 10
-78.7587745717
 20
7.1731304359
 10
-78.7495488468
 20
7.2009771837
 10
-78.7387107049
 20
7.22822273
  0
LINE
  5
29A
100
AcDbEntity
  8
0
100
AcDbLine
 62
7
  6
CONTINUOUS
 10
-78.75
 20
2.9072644141
 11
-78.7690726278
 21
2.85
  0
LWPOLYLINE
  5
29B
100
AcDbEntity
  8
0
100
AcDbPolyline
 62
253
  6
CONTINUOUS
 90
15
 70
0
 10
-78.7387107049
 20
7.22822273
 10
-78.7262942581
 20
7.254784621
 10
-78.7123868124
 20
7.2804947248
 10
-78.6970750276
 20
7.3052342646
 10
-78.6804033583
 20
7.328968791
 10
-78.662408998
 20
7.3516650136
 10
-78.6431718693
 20
7.3732362826
 10
-78.6227492504
 20
7.3936315527
 10
-78.6011294944
 20
7.4128588169
 10
-78.5783486182
 20
7.430865677
 10
-78.5545015648
 20
7.4475576344
 10
-78.5296581182
 20
7.4628704285
 10
-78.5038582604
 20
7.4767596689
 10
-78.4772196623
 20
7.4891429104
 10
-78.4499435503
 20
7.4999240111
  0
LWPOLYLINE
  5
29C
100
AcDbEntity
  8
RACCORDO
100
AcDbPolyline
 62
253
  6
CONTINUOUS
 90
22
 70
0
 10
104.5704752745
 20
-79.424584313
 10
104.5921592014
 20
-79.424247135
 10
104.6137296854
 20
-79.42363366
 10
104.6350738773
 20
-79.4227470974
 10
104.6560801115
 20
-79.4215920854
 10
104.6766384907
 20
-79.4201746666
 10
104.6966414605
 20
-79.4185022565
 10
104.7159843721
 20
-79.4165836045
 10
104.7345660303
 20
-79.4144287484
 10
104.752289222
 20
-79.4120489616
 10
104.7690612257
 20
-79.4094566944
 10
104.784794296
 20
-79.4066655087
 10
104.799406123
 20
-79.4036900068
 10
104.8128202624
 20
-79.4005457557
 10
104.8249665363
 20
-79.397249205
 10
104.8357813994
 20
-79.393817601
 10
104.8452082721
 20
-79.3902688969
 10
104.8531978363
 20
-79.3866216581
 10
104.8597082933
 20
-79.3828949658
 10
104.8647055826
 20
-79.3791083167
 10
104.8681635601
 20
-79.3752815214
 10
104.8700641349
 20
-79.3714346001
  0
LINE
  5
29D
100
AcDbEntity
  8
RACCORDO
100
AcDbLine
 62
7
  6
CONTINUOUS
 10
-104.0013704652
 20
-80.5
 11
104.0013704652
 21
-80.5
  0
LINE
  5
29E
100
AcDbEntity
  8
RACCORDO
100
AcDbLine
 62
253
  6
CONTINUOUS
 10
-103.8781748407
 20
-80.3768043754
 11
103.8781748407
 21
-80.3768043754
  0
LINE
  5
29F
100
AcDbEntity
  8
RACCORDO
100
AcDbLine
 62
253
  6
CONTINUOUS
 10
-103.8781748407
 20
-80.1316296735
 11
103.8781748407
 21
-80.1316296735
  0
LWPOLYLINE
  5
2A0
100
AcDbEntity
  8
RACCORDO
100
AcDbPolyline
 62
253
  6
CONTINUOUS
 90
22
 70
0
 10
-104.5704752745
 20
-79.4245843212
 10
-104.5921590664
 20
-79.424247119
 10
-104.6137294059
 20
-79.4236336223
 10
-104.6350734455
 20
-79.4227470407
 10
-104.6560795213
 20
-79.4215920123
 10
-104.6766377378
 20
-79.4201745799
 10
-104.6966405423
 20
-79.4185021589
 10
-104.715983288
 20
-79.4165834988
 10
-104.7345647812
 20
-79.4144286372
 10
-104.7522878107
 20
-79.4120488476
 10
-104.7690596565
 20
-79.40945658
 10
-104.7847925748
 20
-79.4066653962
 10
-104.7994042572
 20
-79.4036898986
 10
-104.8128182609
 20
-79.4005456539
 10
-104.8249644093
 20
-79.3972491114
 10
-104.8357791582
 20
-79.3938175175
 10
-104.8452059292
 20
-79.3902688249
 10
-104.853195405
 20
-79.3866215989
 10
-104.8597057879
 20
-79.3828949205
 10
-104.864703018
 20
-79.3791082861
 10
-104.8681609518
 20
-79.3752815059
 10
-104.8700614987
 20
-79.3714346002
  0
LWPOLYLINE
  5
2A1
100
AcDbEntity
  8
0
100
AcDbPolyline
 62
253
  6
CONTINUOUS
 90
8
 70
0
 10
-78.7387107049
 20
-7.22822273
 10
-78.7495488468
 20
-7.2009771837
 10
-78.7587745714
 20
-7.173130437
 10
-78.7663513841
 20
-7.144788942
 10
-78.7722318176
 20
-7.1161720924
 10
-78.7764121225
 20
-7.0874228382
 10
-78.7789087546
 20
-7.0586010913
 10
-78.7797345365
 20
-7.0298051
  0
LINE
  5
2A2
100
AcDbEntity
  8
0
100
AcDbLine
 62
7
  6
CONTINUOUS
 10
-78.75
 20
-2.9072644141
 11
-78.7690726278
 21
-2.85
  0
LINE
  5
2A3
100
AcDbEntity
  8
0
100
AcDbLine
 62
253
  6
CONTINUOUS
 10
-78.9722939715
 20
13.6765970319
 11
-78.85
 21
13.7989036278
  0
LINE
  5
2A4
100
AcDbEntity
  8
0
100
AcDbLine
 62
253
  6
CONTINUOUS
 10
-78.1734053488
 20
12.8777065589
 11
-78.0510963722
 21
13.0
  0
LWPOLYLINE
  5
2A5
100
AcDbEntity
  8
0
100
AcDbPolyline
 62
7
  6
CONTINUOUS
 90
22
 70
0
 10
3.6000188023
 20
-61.610807341
 10
3.6891365795
 20
-61.5979687052
 10
3.776146223
 20
-61.5864942287
 10
3.8610477327
 20
-61.5763839317
 10
3.9438088736
 20
-61.5675991193
 10
4.0244618807
 20
-61.560178519
 10
4.1031034597
 20
-61.5542382811
 10
4.1797733056
 20
-61.5498217264
 10
4.2544317234
 20
-61.5468855539
 10
4.3270563334
 20
-61.5454159783
 10
4.3975995371
 20
-61.5454404713
 10
4.466108933
 20
-61.546931564
 10
4.5327049369
 20
-61.5497930565
 10
4.5974529379
 20
-61.5539623744
 10
4.6602875468
 20
-61.5595020802
 10
4.7211330115
 20
-61.5665036746
 10
4.7800394074
 20
-61.5749647259
 10
4.8369566591
 20
-61.5848876372
 10
4.8916587876
 20
-61.5963711561
 10
4.9440704665
 20
-61.6094481817
 10
4.9942670223
 20
-61.6240857655
 10
5.0422484549
 20
-61.6402838784
  0
LWPOLYLINE
  5
2A6
100
AcDbEntity
  8
0
100
AcDbPolyline
 62
7
  6
CONTINUOUS
 90
31
 70
0
 10
4.4966806749
 20
-62.8236280866
 10
4.5257500063
 20
-62.822474895
 10
4.5537072324
 20
-62.8204925544
 10
4.5805523532
 20
-62.8176810627
 10
4.6062066592
 20
-62.8140479711
 10
4.6307488599
 20
-62.8095857208
 10
4.6544150835
 20
-62.8042716429
 10
4.6772751949
 20
-62.7981253363
 10
4.6992593291
 20
-62.7911271885
 10
4.7203940192
 20
-62.7831957099
 10
4.7406833816
 20
-62.7743695323
 10
4.7601232998
 20
-62.7646100024
 10
4.7787279572
 20
-62.7537196976
 10
4.7965235331
 20
-62.7416745826
 10
4.8134838482
 20
-62.7284986564
 10
4.8295445474
 20
-62.7140665401
 10
4.8447070067
 20
-62.6982668754
 10
4.85896985
 20
-62.6812109663
 10
4.8722645948
 20
-62.6631074277
 10
4.8845936463
 20
-62.6439146166
 10
4.8959545991
 20
-62.6236741214
 10
4.9062717542
 20
-62.6027194163
 10
4.9155261565
 20
-62.5810931301
 10
4.923736761
 20
-62.5587525934
 10
4.9308847337
 20
-62.5359033478
 10
4.9369922199
 20
-62.5126046166
 10
4.9420370744
 20
-62.4887971464
 10
4.9459340273
 20
-62.4645087698
 10
4.9486546554
 20
-62.4397487543
 10
4.9502273819
 20
-62.4145078015
 10
4.9506522068
 20
-62.3887858952
  0
LWPOLYLINE
  5
2A7
100
AcDbEntity
  8
RACCORDO
100
AcDbPolyline
 62
253
  6
CONTINUOUS
 90
16
 70
0
 10
104.5688821496
 20
-58.1450107831
 10
104.5882184433
 20
-58.1444655195
 10
104.6067945653
 20
-58.1438532451
 10
104.6245134291
 20
-58.1431771599
 10
104.6412824288
 20
-58.1424407975
 10
104.6570139226
 20
-58.1416480064
 10
104.6716256914
 20
-58.14080293
 10
104.6850413681
 20
-58.1399099851
 10
104.6971908368
 20
-58.1389738385
 10
104.7080105995
 20
-58.1379993829
 10
104.7174441077
 20
-58.1369917113
 10
104.725442058
 20
-58.1359560901
 10
104.7319626498
 20
-58.1348979319
 10
104.7369718039
 20
-58.1338227671
 10
104.7404433403
 20
-58.1327362149
 10
104.7423591154
 20
-58.1316439541
  0
LWPOLYLINE
  5
2A8
100
AcDbEntity
  8
RACCORDO
100
AcDbPolyline
 62
253
  6
CONTINUOUS
 90
19
 70
0
 10
78.1716838297
 20
-58.6465549932
 10
78.2362465674
 20
-58.6450016535
 10
78.3006001594
 20
-58.6402021315
 10
78.3647446055
 20
-58.6321564122
 10
78.4288680224
 20
-58.6208591856
 10
78.4927822935
 20
-58.606315702
 10
78.555923069
 20
-58.5885417719
 10
78.6183310416
 20
-58.5674703768
 10
78.6799655187
 20
-58.5431684159
 10
78.7401400726
 20
-58.5158525665
 10
78.7987921788
 20
-58.4854912056
 10
78.8559843619
 20
-58.4521157938
 10
78.911217768
 20
-58.4160376365
 10
78.9644559632
 20
-58.3772377391
 10
79.0157353814
 20
-58.3357349111
 10
79.0646664709
 20
-58.2918971801
 10
79.111119381
 20
-58.2458471661
 10
79.1552239624
 20
-58.1974620663
 10
79.196980215
 20
-58.146741782
  0
LWPOLYLINE
  5
2A9
100
AcDbEntity
  8
RACCORDO
100
AcDbPolyline
 62
253
  6
CONTINUOUS
 90
19
 70
0
 10
78.1716937836
 20
-58.1205874743
 10
78.211367448
 20
-58.1196785325
 10
78.2510991081
 20
-58.1168020119
 10
78.290789534
 20
-58.1119423042
 10
78.3303455873
 20
-58.1050878402
 10
78.3696565443
 20
-58.0962334349
 10
78.4085951945
 20
-58.085384126
 10
78.4470919858
 20
-58.0725360975
 10
78.4850067306
 20
-58.0577124966
 10
78.5221137576
 20
-58.0409890381
 10
78.5582933391
 20
-58.0224223197
 10
78.5934781515
 20
-58.0020497248
 10
78.627535718
 20
-57.9799504269
 10
78.6603711407
 20
-57.9561965503
 10
78.6919174927
 20
-57.9308475755
 10
78.7220939046
 20
-57.9039766221
 10
78.7508274896
 20
-57.8756593605
 10
78.7780529323
 20
-57.8459730977
 10
78.8037074152
 20
-57.8149988125
  0
LINE
  5
2AA
100
AcDbEntity
  8
RACCORDO
100
AcDbLine
 62
253
  6
CONTINUOUS
 10
104.5283367293
 20
-58.1458892442
 11
104.5688821496
 21
-58.1450107831
  0
LINE
  5
2AB
100
AcDbEntity
  8
RACCORDO
100
AcDbLine
 62
253
  6
CONTINUOUS
 10
104.4860048248
 20
-58.1464702876
 11
104.5283367293
 21
-58.1458892442
  0
LINE
  5
2AC
100
AcDbEntity
  8
RACCORDO
100
AcDbLine
 62
253
  6
CONTINUOUS
 10
104.442770255
 20
-58.146741782
 11
104.4860048248
 21
-58.1464702876
  0
LINE
  5
2AD
100
AcDbEntity
  8
0
100
AcDbLine
 62
7
  6
CONTINUOUS
 10
5.6391482119
 20
-64.3778013544
 11
5.0770156219
 21
-64.3778013544
  0
LINE
  5
2AE
100
AcDbEntity
  8
0
100
AcDbLine
 62
7
  6
CONTINUOUS
 10
4.1820753449
 20
-64.3778013544
 11
3.6000188023
 21
-64.3778013544
  0
LINE
  5
2AF
100
AcDbEntity
  8
0
100
AcDbLine
 62
7
  6
CONTINUOUS
 10
3.298408
 20
-64.377801
 11
2.682466
 21
-64.377801
  0
LINE
  5
2B0
100
AcDbEntity
  8
0
100
AcDbLine
 62
7
  6
CONTINUOUS
 10
1.573947
 20
-64.377801
 11
0.99588
 21
-64.377801
  0
LINE
  5
2B1
100
AcDbEntity
  8
0
100
AcDbLine
 62
7
  6
CONTINUOUS
 10
0.694112
 20
-64.377801
 11
0.122406
 21
-64.377801
  0
LINE
  5
2B2
100
AcDbEntity
  8
0
100
AcDbLine
 62
7
  6
CONTINUOUS
 10
-0.692524
 20
-64.377801
 11
-0.774487
 21
-64.377801
  0
LINE
  5
2B3
100
AcDbEntity
  8
0
100
AcDbLine
 62
7
  6
CONTINUOUS
 10
-1.586183
 20
-64.377801
 11
-2.145272
 21
-64.377801
  0
LINE
  5
2B4
100
AcDbEntity
  8
0
100
AcDbLine
 62
7
  6
CONTINUOUS
 10
-2.449877
 20
-64.377801
 11
-3.034285
 21
-64.377801
  0
LINE
  5
2B5
100
AcDbEntity
  8
0
100
AcDbLine
 62
7
  6
CONTINUOUS
 10
-4.231097
 20
-64.377801
 11
-4.746107
 21
-64.377801
  0
LINE
  5
2B6
100
AcDbEntity
  8
0
100
AcDbLine
 62
7
  6
CONTINUOUS
 10
2.531074
 20
-63.818881
 11
1.735207
 21
-63.818881
  0
LINE
  5
2B7
100
AcDbEntity
  8
0
100
AcDbLine
 62
7
  6
CONTINUOUS
 10
2.41428
 20
-63.386391
 11
1.854751
 21
-63.386391
  0
LINE
  5
2B8
100
AcDbEntity
  8
0
100
AcDbLine
 62
7
  6
CONTINUOUS
 10
4.4954209623
 20
-63.2821519248
 11
4.1820753449
 21
-63.2821519248
  0
LINE
  5
2B9
100
AcDbEntity
  8
0
100
AcDbLine
 62
7
  6
CONTINUOUS
 10
4.4966806432
 20
-62.8236280866
 11
4.1626972541
 21
-62.8236280866
  0
LINE
  5
2BA
100
AcDbEntity
  8
0
100
AcDbLine
 62
7
  6
CONTINUOUS
 10
2.43939
 20
-61.578098
 11
1.874045
 21
-61.578098
  0
LINE
  5
2BB
100
AcDbEntity
  8
0
100
AcDbLine
 62
7
  6
CONTINUOUS
 10
0.432308
 20
-61.578098
 11
-0.145906
 21
-61.578098
  0
LINE
  5
2BC
100
AcDbEntity
  8
0
100
AcDbLine
 62
7
  6
CONTINUOUS
 10
-1.30855
 20
-61.578098
 11
-1.892475
 21
-61.578098
  0
LINE
  5
2BD
100
AcDbEntity
  8
0
100
AcDbLine
 62
7
  6
CONTINUOUS
 10
-3.33116
 20
-61.578098
 11
-3.915169
 21
-61.578098
  0
LINE
  5
2BE
100
AcDbEntity
  8
0
100
AcDbLine
 62
7
  6
CONTINUOUS
 10
-4.99882
 20
-61.578098
 11
-5.633668
 21
-61.578098
  0
LINE
  5
2BF
100
AcDbEntity
  8
0
100
AcDbLine
 62
7
  6
CONTINUOUS
 10
-2.449877
 20
-61.57793
 11
-3.034285
 21
-61.57793
  0
LINE
  5
2C0
100
AcDbEntity
  8
RACCORDO
100
AcDbLine
 62
253
  6
CONTINUOUS
 10
-78.1716838297
 20
-58.6465549932
 11
78.1716838297
 21
-58.6465549932
  0
LINE
  5
2C1
100
AcDbEntity
  8
RACCORDO
100
AcDbLine
 62
253
  6
CONTINUOUS
 10
-104.442770255
 20
-58.1467417812
 11
-104.4860048234
 21
-58.1464702868
  0
LINE
  5
2C2
100
AcDbEntity
  8
RACCORDO
100
AcDbLine
 62
253
  6
CONTINUOUS
 10
-104.4860048234
 20
-58.1464702868
 11
-104.5283367266
 21
-58.1458892435
  0
LWPOLYLINE
  5
2C3
100
AcDbEntity
  8
RACCORDO
100
AcDbPolyline
 62
253
  6
CONTINUOUS
 90
17
 70
0
 10
-104.5283367266
 20
-58.1458892435
 10
-104.5688821458
 20
-58.1450107824
 10
-104.588218439
 20
-58.1444655188
 10
-104.6067945606
 20
-58.1438532445
 10
-104.6245134242
 20
-58.1431771594
 10
-104.6412824236
 20
-58.142440797
 10
-104.6570139174
 20
-58.141648006
 10
-104.6716256862
 20
-58.1408029296
 10
-104.685041363
 20
-58.1399099847
 10
-104.6971908319
 20
-58.1389738382
 10
-104.708010595
 20
-58.1379993827
 10
-104.7174441036
 20
-58.1369917111
 10
-104.7254420545
 20
-58.1359560899
 10
-104.731962647
 20
-58.1348979318
 10
-104.7369718019
 20
-58.133822767
 10
-104.7404433392
 20
-58.1327362149
 10
-104.7423591154
 20
-58.1316439541
  0
LWPOLYLINE
  5
2C4
100
AcDbEntity
  8
0
100
AcDbPolyline
 62
7
  6
CONTINUOUS
 90
10
 70
0
 10
4.620513395
 20
-62.0385722383
 10
4.5720974391
 20
-62.0336645603
 10
4.5230088911
 20
-62.030421086
 10
4.4732477508
 20
-62.0288418227
 10
4.42273473
 20
-62.0288993592
 10
4.371549117
 20
-62.0306211099
 10
4.3199287764
 20
-62.0340893146
 10
4.2679529965
 20
-62.0393313799
 10
4.2155424891
 20
-62.0463198791
 10
4.1626972541
 20
-62.0550547959
  0
LINE
  5
2C5
100
AcDbEntity
  8
0
100
AcDbLine
 62
253
  6
CONTINUOUS
 10
-78.1734013694
 20
-12.8777065589
 11
-78.0510963722
 21
-13.0
  0
LINE
  5
2C6
100
AcDbEntity
  8
0
100
AcDbLine
 62
253
  6
CONTINUOUS
 10
-78.9722940122
 20
-13.6765960252
 11
-78.85
 21
-13.7989036278
  0
LINE
  5
2C7
100
AcDbEntity
  8
0
100
AcDbLine
 62
253
  6
CONTINUOUS
 10
-78.779734537
 20
-7.0298051004
 11
-78.75
 21
-7.0000761524
  0
LINE
  5
2C8
100
AcDbEntity
  8
0
100
AcDbLine
 62
253
  6
CONTINUOUS
 10
-78.2798308992
 20
-7.529734537
 11
-78.2500761524
 21
-7.5
  0
LINE
  5
2C9
100
AcDbEntity
  8
RACCORDO
100
AcDbLine
 62
253
  6
CONTINUOUS
 10
-79.2309100462
 20
-57.3457219372
 11
-79.2964628825
 21
-57.3473631511
  0
LINE
  5
2CA
100
AcDbEntity
  8
RACCORDO
100
AcDbLine
 62
253
  6
CONTINUOUS
 10
-79.2964628825
 20
-57.3473631511
 11
-79.365708227
 21
-57.3485396548
  0
LWPOLYLINE
  5
2CB
100
AcDbEntity
  8
RACCORDO
100
AcDbPolyline
 62
253
  6
CONTINUOUS
 90
3
 70
0
 10
-79.365708227
 20
-57.3485396548
 10
-79.4372003549
 20
-57.3492268849
 10
-79.4733234988
 20
-57.3493821298
  0
LINE
  5
2CC
100
AcDbEntity
  8
RACCORDO
100
AcDbLine
 62
253
  6
CONTINUOUS
 10
104.4427701632
 20
-58.1467038536
 11
79.196980215
 21
-58.146741782
  0
LINE
  5
2CD
100
AcDbEntity
  8
RACCORDO
100
AcDbLine
 62
253
  6
CONTINUOUS
 10
-79.196980215
 20
-58.146741782
 11
-104.4427701629
 21
-58.1467037078
  0
LINE
  5
2CE
100
AcDbEntity
  8
RACCORDO
100
AcDbLine
 62
253
  6
CONTINUOUS
 10
-78.1716993324
 20
-58.1205874575
 11
78.1716937667
 21
-58.1205874575
  0
LINE
  5
2CF
100
AcDbEntity
  8
0
100
AcDbLine
 62
7
  6
CONTINUOUS
 10
78.0510963722
 20
-58.0
 11
-78.0510963722
 21
-58.0
  0
LINE
  5
2D0
100
AcDbEntity
  8
RACCORDO
100
AcDbLine
 62
253
  6
CONTINUOUS
 10
79.4012660819
 20
-57.3489456217
 11
79.4733234988
 21
-57.3493821949
  0
LINE
  5
2D1
100
AcDbEntity
  8
RACCORDO
100
AcDbLine
 62
253
  6
CONTINUOUS
 10
79.3307130937
 20
-57.3480113015
 11
79.4012660819
 21
-57.3489456217
  0
LWPOLYLINE
  5
2D2
100
AcDbEntity
  8
0
100
AcDbPolyline
 62
7
  6
CONTINUOUS
 90
54
 70
0
 10
5.0422484549
 20
-61.6402838784
 10
5.0697160032
 20
-61.6512017129
 10
5.0975373106
 20
-61.6643428449
 10
5.1257123772
 20
-61.679707237
 10
5.1543318537
 20
-61.6972125719
 10
5.1833050893
 20
-61.716941074
 10
5.2123601319
 20
-61.7391395022
 10
5.2417363039
 20
-61.7638774215
 10
5.2711942829
 20
-61.7910851152
 10
5.2997441499
 20
-61.8208004002
 10
5.3274146435
 20
-61.8532797356
 10
5.354177025
 20
-61.8882664507
 10
5.3789551599
 20
-61.9250286879
 10
5.4015292088
 20
-61.9634652985
 10
5.422119011
 20
-62.0036772557
 10
5.44030795
 20
-62.0452359332
 10
5.4559964088
 20
-62.0884810139
 10
5.4692840044
 20
-62.1330726456
 10
5.4800529718
 20
-62.1775630033
 10
5.4880745938
 20
-62.2219423599
 10
5.4935775876
 20
-62.2662204486
 10
5.4971303394
 20
-62.3089788042
 10
5.4987422993
 20
-62.3497737667
 10
5.4984040171
 20
-62.3890491792
 10
5.4966555281
 20
-62.4267179159
 10
5.4935486791
 20
-62.4627042231
 10
5.4890316234
 20
-62.4970840147
 10
5.4834888558
 20
-62.5299976603
 10
5.4769374329
 20
-62.561458336
 10
5.4693602981
 20
-62.5914529925
 10
5.4610907774
 20
-62.6200826467
 10
5.452153244
 20
-62.6473294887
 10
5.4425233246
 20
-62.673211433
 10
5.4324612257
 20
-62.6978830693
 10
5.4219921132
 20
-62.7213539666
 10
5.4110908211
 20
-62.7436146359
 10
5.3999420582
 20
-62.764791068
 10
5.3885670823
 20
-62.784884082
 10
5.3769446356
 20
-62.8038929208
 10
5.3651956541
 20
-62.8219412017
 10
5.3533245187
 20
-62.8390314106
 10
5.3413268485
 20
-62.8551611085
 10
5.3293104361
 20
-62.8704465176
 10
5.3172697332
 20
-62.8848701287
 10
5.305210288
 20
-62.8984494864
 10
5.2932565384
 20
-62.9113533852
 10
5.2814222654
 20
-62.923585926
 10
5.269693688
 20
-62.9351430319
 10
5.2581539002
 20
-62.9461812235
 10
5.2468144276
 20
-62.9567147624
 10
5.2356637445
 20
-62.9667294027
 10
5.2247503686
 20
-62.9763388997
 10
5.214102105
 20
-62.9855604407
 10
5.2036911486
 20
-62.994376849
  0
LWPOLYLINE
  5
2D3
100
AcDbEntity
  8
0
100
AcDbPolyline
 62
7
  6
CONTINUOUS
 90
3
 70
0
 10
5.1025031649
 20
-63.0709244369
 10
5.1278467545
 20
-63.0827193906
 10
5.1518689498
 20
-63.0960678273
  0
LWPOLYLINE
  5
2D4
100
AcDbEntity
  8
0
100
AcDbPolyline
 62
7
  6
CONTINUOUS
 90
22
 70
0
 10
5.1518689498
 20
-63.0960678273
 10
5.1745697508
 20
-63.1109697171
 10
5.195953152
 20
-63.1276886353
 10
5.2160151589
 20
-63.1459609317
 10
5.234743788
 20
-63.1649957533
 10
5.2520097041
 20
-63.1846181361
 10
5.2679422423
 20
-63.2050030043
 10
5.2829174244
 20
-63.2258843647
 10
5.297004859
 20
-63.2472719408
 10
5.3101349374
 20
-63.2691559778
 10
5.3224748547
 20
-63.2912412816
 10
5.3340380715
 20
-63.3135127292
 10
5.3448111273
 20
-63.3359854302
 10
5.3549208353
 20
-63.3584095564
 10
5.3643643277
 20
-63.3807381223
 10
5.3731444724
 20
-63.4030181169
 10
5.3813966858
 20
-63.425140686
 10
5.3891045396
 20
-63.4470415053
 10
5.3962844622
 20
-63.4687849099
 10
5.4031211546
 20
-63.4904550358
 10
5.4095992868
 20
-63.5120430831
 10
5.4157341888
 20
-63.5335578559
  0
LINE
  5
2D5
100
AcDbEntity
  8
0
100
AcDbLine
 62
253
  6
CONTINUOUS
 10
-78.2500761524
 20
7.5
 11
-78.2798308757
 21
7.529734537
  0
LINE
  5
2D6
100
AcDbEntity
  8
0
100
AcDbLine
 62
253
  6
CONTINUOUS
 10
-78.75
 20
7.0000761524
 11
-78.779734537
 21
7.0298051321
  0
LWPOLYLINE
  5
2D7
100
AcDbEntity
  8
RACCORDO
100
AcDbPolyline
 62
253
  6
CONTINUOUS
 90
13
 70
0
 10
-78.8037053079
 20
-57.8149971698
 10
-78.805960177
 20
-57.8185863693
 10
-78.8102853391
 20
-57.8237797908
 10
-78.816657894
 20
-57.8305499369
 10
-78.8250441013
 20
-57.8388609621
 10
-78.8353995589
 20
-57.8486688626
 10
-78.8476694386
 20
-57.8599217091
 10
-78.8617887755
 20
-57.8725599217
 10
-78.8776828129
 20
-57.8865165858
 10
-78.8952673976
 20
-57.9017178057
 10
-78.9144494253
 20
-57.9180830965
 10
-78.9351273342
 20
-57.9355258098
 10
-78.957191642
 20
-57.9539535928
  0
LINE
  5
2D8
100
AcDbEntity
  8
RACCORDO
100
AcDbLine
 62
253
  6
CONTINUOUS
 10
104.7124949539
 20
-35.5
 11
79.0017933822
 21
-35.5
  0
LINE
  5
2D9
100
AcDbEntity
  8
RACCORDO
100
AcDbLine
 62
253
  6
CONTINUOUS
 10
-79.0017933822
 20
-35.5
 11
-104.7124949539
 21
-35.5
  0
LWPOLYLINE
  5
2DA
100
AcDbEntity
  8
0
100
AcDbPolyline
 62
253
  6
CONTINUOUS
 90
15
 70
0
 10
-78.4499435503
 20
-7.4999240111
 10
-78.4772196623
 20
-7.4891429104
 10
-78.5038582604
 20
-7.4767596689
 10
-78.5296581182
 20
-7.4628704285
 10
-78.5545015648
 20
-7.4475576344
 10
-78.5783486182
 20
-7.430865677
 10
-78.6011294944
 20
-7.4128588169
 10
-78.6227492504
 20
-7.3936315527
 10
-78.6431718693
 20
-7.3732362826
 10
-78.662408998
 20
-7.3516650136
 10
-78.6804033583
 20
-7.328968791
 10
-78.6970750276
 20
-7.3052342646
 10
-78.7123868124
 20
-7.2804947248
 10
-78.7262942581
 20
-7.254784621
 10
-78.7387107049
 20
-7.22822273
  0
LWPOLYLINE
  5
2DB
100
AcDbEntity
  8
RACCORDO
100
AcDbPolyline
 62
253
  6
CONTINUOUS
 90
16
 70
0
 10
-78.9971259045
 20
12.6728197976
 10
-78.9513142587
 20
12.6368623346
 10
-78.903858191
 20
12.6030154819
 10
-78.8547577016
 20
12.5712792394
 10
-78.8037798012
 20
12.541520541
 10
-78.7511574791
 20
12.5138724529
 10
-78.6975897028
 20
12.4887341738
 10
-78.643252915
 20
12.4662267357
 10
-78.5879706732
 20
12.4462291067
 10
-78.5319126174
 20
12.4287773892
 10
-78.4753657265
 20
12.4138544189
 10
-78.4180430216
 20
12.4014773603
 10
-78.3592532074
 20
12.3917338086
 10
-78.2987658521
 20
12.3846529625
 10
-78.2368113874
 20
12.3802056235
 10
-78.1733898133
 20
12.3783917915
  0
LWPOLYLINE
  5
2DC
100
AcDbEntity
  8
RACCORDO
100
AcDbPolyline
 62
253
  6
CONTINUOUS
 90
15
 70
0
 10
-78.8037060539
 20
57.8149977512
 10
-78.8059609139
 20
57.8185869461
 10
-78.8102860616
 20
57.8237803588
 10
-78.8166585968
 20
57.8305504921
 10
-78.8250447795
 20
57.8388615008
 10
-78.8354002079
 20
57.848669381
 10
-78.8476700539
 20
57.859922204
 10
-78.8617893534
 20
57.8725603902
 10
-78.87768335
 20
57.8865170252
 10
-78.8952678911
 20
57.9017182139
 10
-78.914449873
 20
57.9180834718
 10
-78.9351277344
 20
57.9355261511
 10
-78.957191994
 20
57.9539538992
 10
-78.9805258297
 20
57.9732691484
 10
-79.0305019865
 20
58.0141489244
  0
LINE
  5
2DD
100
AcDbEntity
  8
0
100
AcDbLine
 62
7
  6
CONTINUOUS
 10
-27.9072644141
 20
7.5
 11
-27.9072644141
 21
7.4
  0
LINE
  5
2DE
100
AcDbEntity
  8
0
100
AcDbLine
 62
7
  6
CONTINUOUS
 10
-27.9072644141
 20
-7.5
 11
-27.9072644141
 21
-7.4
  0
LINE
  5
2DF
100
AcDbEntity
  8
RACCORDO
100
AcDbLine
 62
7
  6
CONTINUOUS
 10
-26.5
 20
-7.5190726278
 11
-26.5
 21
-7.4
  0
LINE
  5
2E0
100
AcDbEntity
  8
RACCORDO
100
AcDbLine
 62
7
  6
CONTINUOUS
 10
-26.5
 20
7.4
 11
-26.5
 21
7.5190726278
  0
LINE
  5
2E1
100
AcDbEntity
  8
RACCORDO
100
AcDbLine
 62
7
  6
CONTINUOUS
 10
-23.5
 20
7.5190726278
 11
-23.5
 21
7.4
  0
LINE
  5
2E2
100
AcDbEntity
  8
RACCORDO
100
AcDbLine
 62
7
  6
CONTINUOUS
 10
-23.5
 20
-7.4
 11
-23.5
 21
-7.5190726278
  0
LINE
  5
2E3
100
AcDbEntity
  8
0
100
AcDbLine
 62
7
  6
CONTINUOUS
 10
-22.4843765246
 20
7.5
 11
-22.4843765246
 21
7.4
  0
LINE
  5
2E4
100
AcDbEntity
  8
0
100
AcDbLine
 62
7
  6
CONTINUOUS
 10
-22.4843765246
 20
-7.5
 11
-22.4843765246
 21
-7.4
  0
LWPOLYLINE
  5
2E5
100
AcDbEntity
  8
0
100
AcDbPolyline
 62
253
  6
CONTINUOUS
 90
7
 70
0
 10
-78.4499435503
 20
7.4999240111
 10
-78.4221229871
 20
7.5090746914
 10
-78.3938596219
 20
7.5165698931
 10
-78.3653842567
 20
7.5223692046
 10
-78.3368437107
 20
7.5264788808
 10
-78.308293799
 20
7.528926349
 10
-78.2798308773
 20
7.5297345382
  0
LWPOLYLINE
  5
2E6
100
AcDbEntity
  8
0
100
AcDbPolyline
 62
253
  6
CONTINUOUS
 90
4
 70
0
 10
-78.3653842567
 20
-7.5223692046
 10
-78.3938596202
 20
-7.5165698935
 10
-78.4221229863
 20
-7.5090746916
 10
-78.4499435503
 20
-7.4999240111
  0
LINE
  5
2E7
100
AcDbEntity
  8
0
100
AcDbLine
 62
7
  6
CONTINUOUS
 10
-0.774487
 20
-64.377801
 11
-1.460068
 21
-62.549647
  0
LINE
  5
2E8
100
AcDbEntity
  8
0
100
AcDbLine
 62
7
  6
CONTINUOUS
 10
-0.730314
 20
-63.132502
 11
-1.30855
 21
-61.578098
  0
LINE
  5
2E9
100
AcDbEntity
  8
0
100
AcDbLine
 62
7
  6
CONTINUOUS
 10
-4.746107
 20
-64.377801
 11
-5.633668
 21
-61.578098
  0
LINE
  5
2EA
100
AcDbEntity
  8
RACCORDO
100
AcDbLine
 62
253
  6
CONTINUOUS
 10
-104.8700641349
 20
-79.3714346001
 11
-105.0
 21
-79.5013704652
  0
LINE
  5
2EB
100
AcDbEntity
  8
RACCORDO
100
AcDbLine
 62
253
  6
CONTINUOUS
 10
-103.8781748407
 20
-80.3768043754
 11
-104.0013704652
 21
-80.5
  0
LINE
  5
2EC
100
AcDbEntity
  8
0
100
AcDbLine
 62
253
  6
CONTINUOUS
 10
-78.974008705
 20
-57.3251176202
 11
-78.85
 21
-57.2010963722
  0
LINE
  5
2ED
100
AcDbEntity
  8
0
100
AcDbLine
 62
253
  6
CONTINUOUS
 10
-78.1716993324
 20
-58.1205874575
 11
-78.0510963722
 21
-58.0
  0
LWPOLYLINE
  5
2EE
100
AcDbEntity
  8
RACCORDO
100
AcDbPolyline
 62
253
  6
CONTINUOUS
 90
15
 70
0
 10
78.9740075583
 20
57.3251051036
 10
78.9772006814
 20
57.3268614381
 10
78.9829867322
 20
57.3286085932
 10
78.9913354703
 20
57.3303374376
 10
79.0022032618
 20
57.3320389356
 10
79.0155333075
 20
57.3337041947
 10
79.031255939
 20
57.3353245114
 10
79.0492889836
 20
57.3368914174
 10
79.0695381932
 20
57.3383967232
 10
79.0918977375
 20
57.3398325617
 10
79.1162507564
 20
57.3411914286
 10
79.1424699712
 20
57.3424662218
 10
79.1704183497
 20
57.3436502788
 10
79.1999498225
 20
57.3447374112
 10
79.2309100462
 20
57.3457219372
  0
LINE
  5
2EF
100
AcDbEntity
  8
0
100
AcDbLine
 62
7
  6
CONTINUOUS
 10
-27.9072644141
 20
7.5
 11
-27.85
 21
7.5190726278
  0
LWPOLYLINE
  5
2F0
100
AcDbEntity
  8
RACCORDO
100
AcDbPolyline
 62
253
  6
CONTINUOUS
 90
16
 70
0
 10
-78.1733898133
 20
-12.3783917915
 10
-78.2331247013
 20
-12.3797916698
 10
-78.2924189878
 20
-12.3838634069
 10
-78.3512726729
 20
-12.3906070027
 10
-78.4097296076
 20
-12.4000238497
 10
-78.4677459408
 20
-12.4121125555
 10
-78.525190119
 20
-12.4268689431
 10
-78.5822842217
 20
-12.4443959072
 10
-78.6388061693
 20
-12.4645905532
 10
-78.69395817
 20
-12.4871400206
 10
-78.7473772495
 20
-12.5118823396
 10
-78.7994263821
 20
-12.53897948
 10
-78.8503966995
 20
-12.5686044902
 10
-78.9003852456
 20
-12.6008150533
 10
-78.9492949766
 20
-12.6355534862
 10
-78.9971258924
 20
-12.672819789
  0
LWPOLYLINE
  5
2F1
100
AcDbEntity
  8
RACCORDO
100
AcDbPolyline
 62
253
  6
CONTINUOUS
 90
34
 70
0
 10
-78.1734013855
 20
-12.8777065429
 10
-78.2095857178
 20
-12.8784613413
 10
-78.2456383001
 20
-12.8808433882
 10
-78.2814867441
 20
-12.8848407672
 10
-78.3170066811
 20
-12.8904284875
 10
-78.3521815235
 20
-12.8975934456
 10
-78.387097747
 20
-12.906358119
 10
-78.4218284619
 20
-12.9167669198
 10
-78.4561476712
 20
-12.9287783088
 10
-78.4897017406
 20
-12.9422632491
 10
-78.5222211163
 20
-12.9570684779
 10
-78.5538709187
 20
-12.9732237265
 10
-78.5849438286
 20
-12.9908803361
 10
-78.6153112771
 20
-13.0099915895
 10
-78.6449530781
 20
-13.0305736477
 10
-78.674253601
 20
-13.0529794353
 10
-78.7033205356
 20
-13.0774581837
 10
-78.7317592856
 20
-13.1038555307
 10
-78.7591793017
 20
-13.1319353067
 10
-78.785498304
 20
-13.1617131563
 10
-78.8105677383
 20
-13.1931251304
 10
-78.833989283
 20
-13.2257197932
 10
-78.8556165456
 20
-13.2592571205
 10
-78.8755115411
 20
-13.2937924535
 10
-78.8936491798
 20
-13.3292702043
 10
-78.9099882867
 20
-13.3656056125
 10
-78.9244884637
 20
-13.402703925
 10
-78.9371241259
 20
-13.4404959539
 10
-78.9478642691
 20
-13.4788956501
 10
-78.95667855
 20
-13.5178018833
 10
-78.9635452398
 20
-13.5571220224
 10
-78.9684456511
 20
-13.5967603146
 10
-78.9713648713
 20
-13.6366179694
 10
-78.9722934595
 20
-13.6765965778
  0
LINE
  5
2F2
100
AcDbEntity
  8
0
100
AcDbLine
 62
7
  6
CONTINUOUS
 10
-78.0510963722
 20
-13.0
 11
78.0510963722
 21
-13.0
  0
LINE
  5
2F3
100
AcDbEntity
  8
RACCORDO
100
AcDbLine
 62
253
  6
CONTINUOUS
 10
78.1734051366
 20
-12.8777065589
 11
-78.1734013694
 21
-12.8777065589
  0
LINE
  5
2F4
100
AcDbEntity
  8
RACCORDO
100
AcDbLine
 62
253
  6
CONTINUOUS
 10
78.1733898133
 20
-12.3783917915
 11
-78.1733898133
 21
-12.3783917915
  0
LINE
  5
2F5
100
AcDbEntity
  8
0
100
AcDbLine
 62
7
  6
CONTINUOUS
 10
-27.9072644141
 20
-7.5
 11
-27.85
 21
-7.5190726278
  0
LWPOLYLINE
  5
2F6
100
AcDbEntity
  8
RACCORDO
100
AcDbPolyline
 62
253
  6
CONTINUOUS
 90
17
 70
0
 10
78.9740087314
 20
-57.3251051036
 10
78.9772018427
 20
-57.3268614384
 10
78.982987873
 20
-57.328608594
 10
78.9913365823
 20
-57.330337439
 10
79.0022043371
 20
-57.3320389378
 10
79.0155343385
 20
-57.3337041978
 10
79.0312569188
 20
-57.3353245157
 10
79.0492899059
 20
-57.3368914231
 10
79.0695390526
 20
-57.3383967308
 10
79.0918985292
 20
-57.3398325713
 10
79.1162514766
 20
-57.3411914406
 10
79.1424706172
 20
-57.3424662366
 10
79.1704189197
 20
-57.3436502968
 10
79.199950316
 20
-57.3447374328
 10
79.2309104636
 20
-57.3457219628
 10
79.2631375533
 20
-57.3465987413
 10
79.3307130937
 20
-57.3480113015
  0
LINE
  5
2F7
100
AcDbEntity
  8
RACCORDO
100
AcDbLine
 62
253
  6
CONTINUOUS
 10
-104.8700641349
 20
79.3714346001
 11
-105.0
 21
79.5013704652
  0
LINE
  5
2F8
100
AcDbEntity
  8
RACCORDO
100
AcDbLine
 62
253
  6
CONTINUOUS
 10
-103.8781748407
 20
80.3768043754
 11
-104.0013704652
 21
80.5
  0
LINE
  5
2F9
100
AcDbEntity
  8
0
100
AcDbLine
 62
253
  6
CONTINUOUS
 10
-78.1716937667
 20
58.1205874575
 11
-78.0510963722
 21
58.0
  0
LINE
  5
2FA
100
AcDbEntity
  8
0
100
AcDbLine
 62
253
  6
CONTINUOUS
 10
-78.9740086991
 20
57.3251203816
 11
-78.85
 21
57.2010963722
  0
LWPOLYLINE
  5
2FB
100
AcDbEntity
  8
0
100
AcDbPolyline
 62
7
  6
CONTINUOUS
 90
19
 70
0
 10
4.8214020807
 20
-63.5286629956
 10
4.8116082039
 20
-63.5047721667
 10
4.8006364752
 20
-63.4817334716
 10
4.7884868945
 20
-63.4595469401
 10
4.775155765
 20
-63.4381366545
 10
4.7606467835
 20
-63.4175785864
 10
4.744971041
 20
-63.3981006034
 10
4.7280323404
 20
-63.3795925172
 10
4.7099268787
 20
-63.3621645749
 10
4.6909543383
 20
-63.3463753161
 10
4.6710658017
 20
-63.3323498719
 10
4.6503101863
 20
-63.3199631848
 10
4.6291339263
 20
-63.3093985239
 10
4.607638235
 20
-63.3008091781
 10
4.585721899
 20
-63.2940419109
 10
4.5635277128
 20
-63.2888201964
 10
4.5411032747
 20
-63.2850518649
 10
4.5184009863
 20
-63.282829106
 10
4.4954208479
 20
-63.2821519248
  0
LINE
  5
2FC
100
AcDbEntity
  8
0
100
AcDbLine
 62
7
  6
CONTINUOUS
 10
3.298408
 20
-64.377801
 11
2.43939
 21
-61.578098
  0
LWPOLYLINE
  5
2FD
100
AcDbEntity
  8
0
100
AcDbPolyline
 62
7
  6
CONTINUOUS
 90
8
 70
0
 10
4.9109662273
 20
-63.8034550096
 10
4.8992813022
 20
-63.7638885293
 10
4.8873399089
 20
-63.7244299233
 10
4.8751418276
 20
-63.685084246
 10
4.8624706453
 20
-63.6458362339
 10
4.8492542247
 20
-63.6066808042
 10
4.8355647031
 20
-63.5676230555
 10
4.8214020807
 20
-63.5286629956
  0
LINE
  5
2FE
100
AcDbEntity
  8
0
100
AcDbLine
 62
7
  6
CONTINUOUS
 10
5.0770156219
 20
-64.3778013544
 11
4.9795607798
 21
-64.0437714799
  0
LWPOLYLINE
  5
2FF
100
AcDbEntity
  8
0
100
AcDbPolyline
 62
7
  6
CONTINUOUS
 90
4
 70
0
 10
4.9795607798
 20
-64.0437714799
 10
4.9564605069
 20
-63.9630256105
 10
4.9451416042
 20
-63.9229197122
 10
4.9109662273
 20
-63.8034550096
  0
LINE
  5
300
100
AcDbEntity
  8
0
100
AcDbLine
 62
7
  6
CONTINUOUS
 10
-4.465146
 20
-63.50522
 11
-4.99882
 21
-61.578098
  0
LWPOLYLINE
  5
301
100
AcDbEntity
  8
0
100
AcDbPolyline
 62
7
  6
CONTINUOUS
 90
3
 70
0
 10
5.4157341888
 20
-63.5335578559
 10
5.4277432752
 20
-63.5767360302
 10
5.4336174595
 20
-63.5983994278
  0
LINE
  5
302
100
AcDbEntity
  8
0
100
AcDbLine
 62
7
  6
CONTINUOUS
 10
2.682466
 20
-64.377801
 11
2.531074
 21
-63.818881
  0
LINE
  5
303
100
AcDbEntity
  8
0
100
AcDbLine
 62
7
  6
CONTINUOUS
 10
5.4336174595
 20
-63.5983994278
 11
5.5093151707
 21
-63.8823240921
  0
LINE
  5
304
100
AcDbEntity
  8
0
100
AcDbLine
 62
7
  6
CONTINUOUS
 10
5.5093151707
 20
-63.8823240921
 11
5.6391482119
 21
-64.3778013544
  0
LINE
  5
305
100
AcDbEntity
  8
0
100
AcDbLine
 62
7
  6
CONTINUOUS
 10
2.41428
 20
-63.386391
 11
2.145737
 21
-62.347385
  0
LINE
  5
306
100
AcDbEntity
  8
0
100
AcDbLine
 62
7
  6
CONTINUOUS
 10
0.694112
 20
-64.377801
 11
0.432308
 21
-61.578098
  0
LINE
  5
307
100
AcDbEntity
  8
0
100
AcDbLine
 62
7
  6
CONTINUOUS
 10
0.122406
 20
-64.377801
 11
0.002337
 21
-62.557269
  0
LINE
  5
308
100
AcDbEntity
  8
0
100
AcDbLine
 62
7
  6
CONTINUOUS
 10
-3.034285
 20
-64.377801
 11
-3.034285
 21
-61.57793
  0
LINE
  5
309
100
AcDbEntity
  8
0
100
AcDbLine
 62
7
  6
CONTINUOUS
 10
-2.449877
 20
-64.377801
 11
-2.449877
 21
-61.57793
  0
LINE
  5
30A
100
AcDbEntity
  8
RACCORDO
100
AcDbLine
 62
253
  6
CONTINUOUS
 10
-0.05
 20
7.3
 11
-0.05
 21
-7.3
  0
LINE
  5
30B
100
AcDbEntity
  8
RACCORDO
100
AcDbLine
 62
253
  6
CONTINUOUS
 10
0.05
 20
7.3
 11
0.05
 21
-7.3
  0
LINE
  5
30C
100
AcDbEntity
  8
RACCORDO
100
AcDbLine
 62
253
  6
CONTINUOUS
 10
-78.957191642
 20
-57.9539535928
 11
-79.0050054422
 21
-57.9933693945
  0
LINE
  5
30D
100
AcDbEntity
  8
RACCORDO
100
AcDbLine
 62
253
  6
CONTINUOUS
 10
-79.0050054422
 20
-57.9933693945
 11
-79.0568795384
 21
-58.0354968364
  0
LINE
  5
30E
100
AcDbEntity
  8
RACCORDO
100
AcDbLine
 62
253
  6
CONTINUOUS
 10
-79.0568795384
 20
-58.0354968364
 11
-79.1117167655
 21
-58.0794449008
  0
LWPOLYLINE
  5
30F
100
AcDbEntity
  8
RACCORDO
100
AcDbPolyline
 62
253
  6
CONTINUOUS
 90
3
 70
0
 10
-79.1117167655
 20
-58.0794449008
 10
-79.1683572867
 20
-58.1242840626
 10
-79.1969802149
 20
-58.1467416274
  0
LINE
  5
310
100
AcDbEntity
  8
0
100
AcDbLine
 62
7
  6
CONTINUOUS
 10
22.4843765246
 20
7.5
 11
22.5416409387
 21
7.5190726278
  0
LINE
  5
311
100
AcDbEntity
  8
0
100
AcDbLine
 62
7
  6
CONTINUOUS
 10
-22.4843765246
 20
-7.5
 11
-22.5416409387
 21
-7.5190726278
  0
LINE
  5
312
100
AcDbEntity
  8
0
100
AcDbLine
 62
253
  6
CONTINUOUS
 10
78.2798106894
 20
-7.729704076
 11
-78.2798106894
 21
-7.729704076
  0
LINE
  5
313
100
AcDbEntity
  8
0
100
AcDbLine
 62
253
  6
CONTINUOUS
 10
78.2798308757
 20
-7.529734537
 11
-78.2798308992
 21
-7.529734537
  0
LINE
  5
314
100
AcDbEntity
  8
0
100
AcDbLine
 62
7
  6
CONTINUOUS
 10
-27.85
 20
-7.5190726278
 11
-22.5416409387
 21
-7.5190726278
  0
LINE
  5
315
100
AcDbEntity
  8
0
100
AcDbLine
 62
7
  6
CONTINUOUS
 10
22.5416409387
 20
-7.5190726278
 11
27.85
 21
-7.5190726278
  0
LINE
  5
316
100
AcDbEntity
  8
0
100
AcDbLine
 62
7
  6
CONTINUOUS
 10
-78.2500761524
 20
-7.5
 11
-27.9072644141
 21
-7.5
  0
LINE
  5
317
100
AcDbEntity
  8
0
100
AcDbLine
 62
7
  6
CONTINUOUS
 10
22.4843765246
 20
-7.5
 11
-22.4843765246
 21
-7.5
  0
LINE
  5
318
100
AcDbEntity
  8
0
100
AcDbLine
 62
7
  6
CONTINUOUS
 10
27.9072644141
 20
-7.5
 11
78.2500761524
 21
-7.5
  0
LINE
  5
319
100
AcDbEntity
  8
RACCORDO
100
AcDbLine
 62
7
  6
CONTINUOUS
 10
78.232495013
 20
-7.4
 11
-78.232495013
 21
-7.4
  0
LINE
  5
31A
100
AcDbEntity
  8
RACCORDO
100
AcDbLine
 62
253
  6
CONTINUOUS
 10
78.232495013
 20
-7.3
 11
-78.232495013
 21
-7.3
  0
LINE
  5
31B
100
AcDbEntity
  8
0
100
AcDbLine
 62
253
  6
CONTINUOUS
 10
-78.979704076
 20
-7.0298106894
 11
-78.779734537
 21
-7.0298106894
  0
LINE
  5
31C
100
AcDbEntity
  8
0
100
AcDbLine
 62
253
  6
CONTINUOUS
 10
78.979704076
 20
-7.0298106894
 11
78.779734537
 21
-7.0298106894
  0
LINE
  5
31D
100
AcDbEntity
  8
RACCORDO
100
AcDbLine
 62
253
  6
CONTINUOUS
 10
78.632495013
 20
-7.0
 11
78.532495013
 21
-7.0
  0
LINE
  5
31E
100
AcDbEntity
  8
RACCORDO
100
AcDbLine
 62
253
  6
CONTINUOUS
 10
-78.632495013
 20
-7.0
 11
-78.532495013
 21
-7.0
  0
LINE
  5
31F
100
AcDbEntity
  8
0
100
AcDbLine
 62
7
  6
CONTINUOUS
 10
-78.75
 20
-2.9072644141
 11
-78.65
 21
-2.9072644141
  0
LINE
  5
320
100
AcDbEntity
  8
0
100
AcDbLine
 62
7
  6
CONTINUOUS
 10
78.75
 20
-2.9072644141
 11
78.65
 21
-2.9072644141
  0
LINE
  5
321
100
AcDbEntity
  8
RACCORDO
100
AcDbLine
 62
7
  6
CONTINUOUS
 10
78.7690726278
 20
-1.5
 11
78.632495013
 21
-1.5
  0
LINE
  5
322
100
AcDbEntity
  8
RACCORDO
100
AcDbLine
 62
7
  6
CONTINUOUS
 10
-78.632495013
 20
-1.5
 11
-78.7690726278
 21
-1.5
  0
LINE
  5
323
100
AcDbEntity
  8
RACCORDO
100
AcDbLine
 62
7
  6
CONTINUOUS
 10
-78.7690726278
 20
1.5
 11
-78.632495013
 21
1.5
  0
LINE
  5
324
100
AcDbEntity
  8
RACCORDO
100
AcDbLine
 62
7
  6
CONTINUOUS
 10
78.632495013
 20
1.5
 11
78.7690726278
 21
1.5
  0
LWPOLYLINE
  5
325
100
AcDbEntity
  8
0
100
AcDbPolyline
 62
253
  6
CONTINUOUS
 90
28
 70
0
 10
-78.2798106894
 20
-7.729704076
 10
-78.3198940388
 20
-7.7286087075
 10
-78.359821391
 20
-7.7251675781
 10
-78.3995927461
 20
-7.719380688
 10
-78.439407311
 20
-7.711223447
 10
-78.4790658787
 20
-7.7007204452
 10
-78.5179708278
 20
-7.6879454525
 10
-78.5560990819
 20
-7.6728375119
 10
-78.5934737175
 20
-7.6554575805
 10
-78.6295663427
 20
-7.6360622993
 10
-78.6643017879
 20
-7.6146451826
 10
-78.6977552228
 20
-7.5912127161
 10
-78.7296237643
 20
-7.5660409986
 10
-78.7598640727
 20
-7.5391595227
 10
-78.7885194877
 20
-7.5105387956
 10
-78.8154171452
 20
-7.4803664375
 10
-78.8405779907
 20
-7.4486203364
 10
-78.8639810787
 20
-7.4153226042
 10
-78.8853907088
 20
-7.380727197
 10
-78.904814538
 20
-7.3447600723
 10
-78.9222449092
 20
-7.3074952727
 10
-78.9374231506
 20
-7.269408882
 10
-78.9502992033
 20
-7.2304662102
 10
-78.9609231263
 20
-7.1907019473
 10
-78.9691864245
 20
-7.1506962483
 10
-78.9750529331
 20
-7.1106424981
 10
-78.9785588169
 20
-7.0703473118
 10
-78.979704076
 20
-7.0298106894
  0
LWPOLYLINE
  5
326
100
AcDbEntity
  8
0
100
AcDbPolyline
 62
253
  6
CONTINUOUS
 90
4
 70
0
 10
-78.2798309008
 20
-7.5297345382
 10
-78.308293812
 20
-7.5289263483
 10
-78.3368437159
 20
-7.5264788802
 10
-78.3653842567
 20
-7.5223692046
  0
LINE
  5
327
100
AcDbEntity
  8
0
100
AcDbLine
 62
7
  6
CONTINUOUS
 10
22.4843765246
 20
-7.5
 11
22.5416409387
 21
-7.5190726278
  0
LINE
  5
328
100
AcDbEntity
  8
0
100
AcDbLine
 62
7
  6
CONTINUOUS
 10
-22.4843765246
 20
7.5
 11
-22.5416409387
 21
7.5190726278
  0
LINE
  5
329
100
AcDbEntity
  8
RACCORDO
100
AcDbLine
 62
253
  6
CONTINUOUS
 10
-79.1398859393
 20
58.1018122522
 11
-79.196980215
 21
58.1467416848
  0
LINE
  5
32A
100
AcDbEntity
  8
RACCORDO
100
AcDbLine
 62
253
  6
CONTINUOUS
 10
-79.0839991864
 20
58.0573008533
 11
-79.1398859393
 21
58.1018122522
  0
LINE
  5
32B
100
AcDbEntity
  8
RACCORDO
100
AcDbLine
 62
253
  6
CONTINUOUS
 10
-79.0305019865
 20
58.0141489244
 11
-79.0839991864
 21
58.0573008533
  0
LWPOLYLINE
  5
32C
100
AcDbEntity
  8
0
100
AcDbPolyline
 62
7
  6
CONTINUOUS
 90
22
 70
0
 10
4.9506522068
 20
-62.3887858952
 10
4.9495401717
 20
-62.3657816584
 10
4.9468534956
 20
-62.3428032852
 10
4.9425921784
 20
-62.3198507767
 10
4.9367881217
 20
-62.2968234619
 10
4.9294094239
 20
-62.2738220122
 10
4.9203603804
 20
-62.2511484526
 10
4.9096233121
 20
-62.22870837
 10
4.897215898
 20
-62.2065961963
 10
4.8830954711
 20
-62.1853972503
 10
4.867107639
 20
-62.1651058709
 10
4.8494067939
 20
-62.1457277706
 10
4.830413446
 20
-62.1278653596
 10
4.8100868946
 20
-62.1116975134
 10
4.7884678403
 20
-62.0970454284
 10
4.7660988946
 20
-62.0839750083
 10
4.7430390512
 20
-62.0725203967
 10
4.7192293163
 20
-62.062647502
 10
4.6950353203
 20
-62.0543198707
 10
4.6705789397
 20
-62.0475253619
 10
4.6457382979
 20
-62.0422761475
 10
4.620513395
 20
-62.0385722383
  0
LINE
  5
32D
100
AcDbEntity
  8
0
100
AcDbLine
 62
7
  6
CONTINUOUS
 10
3.6000188023
 20
-64.3778013544
 11
3.6000188023
 21
-61.610807341
  0
LINE
  5
32E
100
AcDbEntity
  8
0
100
AcDbLine
 62
7
  6
CONTINUOUS
 10
4.1626972541
 20
-62.8236280866
 11
4.1626972541
 21
-62.0550547959
  0
LINE
  5
32F
100
AcDbEntity
  8
0
100
AcDbLine
 62
7
  6
CONTINUOUS
 10
4.1820753449
 20
-64.3778013544
 11
4.1820753449
 21
-63.2821519248
  0
LINE
  5
330
100
AcDbEntity
  8
0
100
AcDbLine
 62
7
  6
CONTINUOUS
 10
5.1025031649
 20
-63.0709244369
 11
5.1025031649
 21
-63.054380628
  0
LINE
  5
331
100
AcDbEntity
  8
0
100
AcDbLine
 62
7
  6
CONTINUOUS
 10
-1.586183
 20
-64.377801
 11
-1.460068
 21
-62.549647
  0
LINE
  5
332
100
AcDbEntity
  8
0
100
AcDbLine
 62
7
  6
CONTINUOUS
 10
-2.145272
 20
-64.377801
 11
-1.892475
 21
-61.578098
  0
LINE
  5
333
100
AcDbEntity
  8
0
100
AcDbLine
 62
7
  6
CONTINUOUS
 10
-4.465146
 20
-63.50522
 11
-3.915169
 21
-61.578098
  0
LINE
  5
334
100
AcDbEntity
  8
RACCORDO
100
AcDbLine
 62
253
  6
CONTINUOUS
 10
78.957191642
 20
57.9539535928
 11
79.0050054422
 21
57.9933693945
  0
LINE
  5
335
100
AcDbEntity
  8
RACCORDO
100
AcDbLine
 62
253
  6
CONTINUOUS
 10
79.0050054422
 20
57.9933693945
 11
79.0568795384
 21
58.0354968364
  0
LINE
  5
336
100
AcDbEntity
  8
RACCORDO
100
AcDbLine
 62
253
  6
CONTINUOUS
 10
79.0568795384
 20
58.0354968364
 11
79.1117167655
 21
58.0794449008
  0
LWPOLYLINE
  5
337
100
AcDbEntity
  8
RACCORDO
100
AcDbPolyline
 62
253
  6
CONTINUOUS
 90
3
 70
0
 10
79.1117167655
 20
58.0794449008
 10
79.1683572867
 20
58.1242840626
 10
79.1969802149
 20
58.1467416274
  0
LWPOLYLINE
  5
338
100
AcDbEntity
  8
RACCORDO
100
AcDbPolyline
 62
253
  6
CONTINUOUS
 90
15
 70
0
 10
-78.9740075583
 20
-57.3251051036
 10
-78.9772006814
 20
-57.3268614381
 10
-78.9829867322
 20
-57.3286085932
 10
-78.9913354703
 20
-57.3303374376
 10
-79.0022032618
 20
-57.3320389356
 10
-79.0155333075
 20
-57.3337041947
 10
-79.031255939
 20
-57.3353245114
 10
-79.0492889836
 20
-57.3368914174
 10
-79.0695381932
 20
-57.3383967232
 10
-79.0918977375
 20
-57.3398325617
 10
-79.1162507564
 20
-57.3411914286
 10
-79.1424699712
 20
-57.3424662218
 10
-79.1704183497
 20
-57.3436502788
 10
-79.1999498225
 20
-57.3447374112
 10
-79.2309100462
 20
-57.3457219372
  0
LWPOLYLINE
  5
339
100
AcDbEntity
  8
RACCORDO
100
AcDbPolyline
 62
253
  6
CONTINUOUS
 90
16
 70
0
 10
78.1733898133
 20
12.3783917915
 10
78.2330026014
 20
12.3797550647
 10
78.2923063935
 20
12.3838281802
 10
78.3513011896
 20
12.3906111381
 10
78.4100858039
 20
12.4001088043
 10
78.4685614221
 20
12.4123163128
 10
78.5264316019
 20
12.4272190661
 10
78.5838403715
 20
12.4449056872
 10
78.6406437027
 20
12.465287553
 10
78.6961130682
 20
12.4880841965
 10
78.7500920334
 20
12.5132833752
 10
78.8027370329
 20
12.5408973316
 10
78.8537888433
 20
12.5706823268
 10
78.9031610567
 20
12.6025571144
 10
78.9509400809
 20
12.6366029407
 10
78.9971259159
 20
12.6728198057
  0
LWPOLYLINE
  5
33A
100
AcDbEntity
  8
RACCORDO
100
AcDbPolyline
 62
253
  6
CONTINUOUS
 90
34
 70
0
 10
78.1734002296
 20
12.8777065446
 10
78.2109791915
 20
12.8785229491
 10
78.2485044103
 20
12.8811028059
 10
78.2858933403
 20
12.8854453306
 10
78.3230437296
 20
12.8915417552
 10
78.3598929366
 20
12.8993857208
 10
78.3964161246
 20
12.9089825504
 10
78.4326338233
 20
12.9203599342
 10
78.4683529158
 20
12.9334794537
 10
78.5032394257
 20
12.9482131752
 10
78.5371300643
 20
12.9644572842
 10
78.5700600388
 20
12.9821927051
 10
78.60200885
 20
13.0013843943
 10
78.632842909
 20
13.0219237908
 10
78.66258394
 20
13.0437968107
 10
78.6914203499
 20
13.0671478423
 10
78.7193321303
 20
13.0920013459
 10
78.7461774158
 20
13.1182742088
 10
78.7719289965
 20
13.145985922
 10
78.7965511865
 20
13.1751621479
 10
78.8199035639
 20
13.2057041418
 10
78.8418132328
 20
13.2374306986
 10
78.8622066112
 20
13.270260623
 10
78.8810345078
 20
13.3041409176
 10
78.898196089
 20
13.3389060407
 10
78.9136412959
 20
13.3744528131
 10
78.9273445382
 20
13.4107194096
 10
78.9392648449
 20
13.4475906353
 10
78.9493742138
 20
13.4849647053
 10
78.9576576628
 20
13.5227676794
 10
78.9641024313
 20
13.5609236515
 10
78.9686959045
 20
13.5993479984
 10
78.9714278111
 20
13.6379471075
 10
78.9722934118
 20
13.6766313704
  0
LINE
  5
33B
100
AcDbEntity
  8
0
100
AcDbLine
 62
7
  6
CONTINUOUS
 10
-78.75
 20
2.9072644141
 11
-78.65
 21
2.9072644141
  0
LINE
  5
33C
100
AcDbEntity
  8
0
100
AcDbLine
 62
7
  6
CONTINUOUS
 10
78.75
 20
2.9072644141
 11
78.65
 21
2.9072644141
  0
LINE
  5
33D
100
AcDbEntity
  8
RACCORDO
100
AcDbLine
 62
253
  6
CONTINUOUS
 10
-78.632495013
 20
7.0
 11
-78.532495013
 21
7.0
  0
LINE
  5
33E
100
AcDbEntity
  8
RACCORDO
100
AcDbLine
 62
253
  6
CONTINUOUS
 10
78.632495013
 20
7.0
 11
78.532495013
 21
7.0
  0
LINE
  5
33F
100
AcDbEntity
  8
0
100
AcDbLine
 62
253
  6
CONTINUOUS
 10
-78.979704076
 20
7.0298106894
 11
-78.779734537
 21
7.0298106894
  0
LINE
  5
340
100
AcDbEntity
  8
0
100
AcDbLine
 62
253
  6
CONTINUOUS
 10
78.979704076
 20
7.0298106894
 11
78.779734537
 21
7.0298106894
  0
LINE
  5
341
100
AcDbEntity
  8
RACCORDO
100
AcDbLine
 62
253
  6
CONTINUOUS
 10
-78.232495013
 20
7.3
 11
78.232495013
 21
7.3
  0
LINE
  5
342
100
AcDbEntity
  8
RACCORDO
100
AcDbLine
 62
7
  6
CONTINUOUS
 10
-78.232495013
 20
7.4
 11
78.232495013
 21
7.4
  0
LINE
  5
343
100
AcDbEntity
  8
0
100
AcDbLine
 62
7
  6
CONTINUOUS
 10
-78.2500761524
 20
7.5
 11
-27.9072644141
 21
7.5
  0
LINE
  5
344
100
AcDbEntity
  8
0
100
AcDbLine
 62
7
  6
CONTINUOUS
 10
22.4843765246
 20
7.5
 11
-22.4843765246
 21
7.5
  0
LINE
  5
345
100
AcDbEntity
  8
0
100
AcDbLine
 62
7
  6
CONTINUOUS
 10
27.9072644141
 20
7.5
 11
78.2500761524
 21
7.5
  0
LINE
  5
346
100
AcDbEntity
  8
0
100
AcDbLine
 62
7
  6
CONTINUOUS
 10
-27.85
 20
7.5190726278
 11
-22.5416409387
 21
7.5190726278
  0
LINE
  5
347
100
AcDbEntity
  8
0
100
AcDbLine
 62
7
  6
CONTINUOUS
 10
22.5416409387
 20
7.5190726278
 11
27.85
 21
7.5190726278
  0
LINE
  5
348
100
AcDbEntity
  8
0
100
AcDbLine
 62
253
  6
CONTINUOUS
 10
-78.2798308757
 20
7.529734537
 11
78.2798308992
 21
7.529734537
  0
LINE
  5
349
100
AcDbEntity
  8
0
100
AcDbLine
 62
253
  6
CONTINUOUS
 10
-78.2798106894
 20
7.729704076
 11
78.2798106894
 21
7.729704076
  0
LINE
  5
34A
100
AcDbEntity
  8
RACCORDO
100
AcDbLine
 62
253
  6
CONTINUOUS
 10
-78.1733898133
 20
12.3783917915
 11
78.1733898133
 21
12.3783917915
  0
LINE
  5
34B
100
AcDbEntity
  8
RACCORDO
100
AcDbLine
 62
253
  6
CONTINUOUS
 10
-78.1734053488
 20
12.8777065589
 11
78.1734002152
 21
12.8777065589
  0
LINE
  5
34C
100
AcDbEntity
  8
0
100
AcDbLine
 62
7
  6
CONTINUOUS
 10
78.0510963722
 20
13.0
 11
-78.0510963722
 21
13.0
  0
LWPOLYLINE
  5
34D
100
AcDbEntity
  8
0
100
AcDbPolyline
 62
253
  6
CONTINUOUS
 90
28
 70
0
 10
78.2798106894
 20
7.729704076
 10
78.3198940388
 20
7.7286087075
 10
78.359821391
 20
7.7251675781
 10
78.3995927461
 20
7.719380688
 10
78.439407311
 20
7.711223447
 10
78.4790658787
 20
7.7007204452
 10
78.5179708278
 20
7.6879454525
 10
78.5560990819
 20
7.6728375119
 10
78.5934737175
 20
7.6554575805
 10
78.6295663427
 20
7.6360622993
 10
78.6643017879
 20
7.6146451826
 10
78.6977552228
 20
7.5912127161
 10
78.7296237643
 20
7.5660409986
 10
78.7598640727
 20
7.5391595227
 10
78.7885194877
 20
7.5105387956
 10
78.8154171452
 20
7.4803664375
 10
78.8405779907
 20
7.4486203364
 10
78.8639810787
 20
7.4153226042
 10
78.8853907088
 20
7.380727197
 10
78.904814538
 20
7.3447600723
 10
78.9222449092
 20
7.3074952727
 10
78.9374231506
 20
7.269408882
 10
78.9502992033
 20
7.2304662102
 10
78.9609231263
 20
7.1907019473
 10
78.9691864245
 20
7.1506962483
 10
78.9750529331
 20
7.1106424981
 10
78.9785588169
 20
7.0703473118
 10
78.979704076
 20
7.0298106894
  0
LWPOLYLINE
  5
34E
100
AcDbEntity
  8
0
100
AcDbPolyline
 62
253
  6
CONTINUOUS
 90
4
 70
0
 10
78.2798309008
 20
7.5297345382
 10
78.308293812
 20
7.5289263483
 10
78.3368437159
 20
7.5264788802
 10
78.3653842567
 20
7.5223692046
  0
LWPOLYLINE
  5
34F
100
AcDbEntity
  8
RACCORDO
100
AcDbPolyline
 62
253
  6
CONTINUOUS
 90
17
 70
0
 10
-78.9740087314
 20
57.3251051036
 10
-78.9772018427
 20
57.3268614384
 10
-78.982987873
 20
57.328608594
 10
-78.9913365823
 20
57.330337439
 10
-79.0022043371
 20
57.3320389378
 10
-79.0155343385
 20
57.3337041978
 10
-79.0312569188
 20
57.3353245157
 10
-79.0492899059
 20
57.3368914231
 10
-79.0695390526
 20
57.3383967308
 10
-79.0918985292
 20
57.3398325713
 10
-79.1162514766
 20
57.3411914406
 10
-79.1424706172
 20
57.3424662366
 10
-79.1704189197
 20
57.3436502968
 10
-79.199950316
 20
57.3447374328
 10
-79.2309104636
 20
57.3457219628
 10
-79.2631375533
 20
57.3465987413
 10
-79.3307130937
 20
57.3480113015
  0
LINE
  5
350
100
AcDbEntity
  8
RACCORDO
100
AcDbLine
 62
253
  6
CONTINUOUS
 10
79.1398859393
 20
-58.1018122522
 11
79.196980215
 21
-58.1467416848
  0
LINE
  5
351
100
AcDbEntity
  8
RACCORDO
100
AcDbLine
 62
253
  6
CONTINUOUS
 10
79.0839991864
 20
-58.0573008533
 11
79.1398859393
 21
-58.1018122522
  0
LINE
  5
352
100
AcDbEntity
  8
RACCORDO
100
AcDbLine
 62
253
  6
CONTINUOUS
 10
79.0305019865
 20
-58.0141489244
 11
79.0839991864
 21
-58.0573008533
  0
LINE
  5
353
100
AcDbEntity
  8
0
100
AcDbLine
 62
7
  6
CONTINUOUS
 10
22.4843765246
 20
7.5
 11
22.4843765246
 21
7.4
  0
LINE
  5
354
100
AcDbEntity
  8
0
100
AcDbLine
 62
7
  6
CONTINUOUS
 10
22.4843765246
 20
-7.5
 11
22.4843765246
 21
-7.4
  0
LINE
  5
355
100
AcDbEntity
  8
RACCORDO
100
AcDbLine
 62
7
  6
CONTINUOUS
 10
23.5
 20
-7.5190726278
 11
23.5
 21
-7.4
  0
LINE
  5
356
100
AcDbEntity
  8
RACCORDO
100
AcDbLine
 62
7
  6
CONTINUOUS
 10
23.5
 20
7.4
 11
23.5
 21
7.5190726278
  0
LINE
  5
357
100
AcDbEntity
  8
0
100
AcDbLine
 62
7
  6
CONTINUOUS
 10
1.854751
 20
-63.386391
 11
2.145737
 21
-62.347385
  0
LINE
  5
358
100
AcDbEntity
  8
0
100
AcDbLine
 62
7
  6
CONTINUOUS
 10
1.573947
 20
-64.377801
 11
1.735207
 21
-63.818881
  0
LINE
  5
359
100
AcDbEntity
  8
0
100
AcDbLine
 62
7
  6
CONTINUOUS
 10
0.99588
 20
-64.377801
 11
1.874045
 21
-61.578098
  0
LINE
  5
35A
100
AcDbEntity
  8
0
100
AcDbLine
 62
7
  6
CONTINUOUS
 10
-4.231097
 20
-64.377801
 11
-3.33116
 21
-61.578098
  0
LINE
  5
35B
100
AcDbEntity
  8
0
100
AcDbLine
 62
7
  6
CONTINUOUS
 10
-0.730314
 20
-63.132502
 11
-0.145906
 21
-61.578098
  0
LINE
  5
35C
100
AcDbEntity
  8
0
100
AcDbLine
 62
7
  6
CONTINUOUS
 10
-0.692524
 20
-64.377801
 11
0.002337
 21
-62.557269
  0
LINE
  5
35D
100
AcDbEntity
  8
0
100
AcDbLine
 62
253
  6
CONTINUOUS
 10
78.974008705
 20
57.3251176202
 11
78.85
 21
57.2010963722
  0
LINE
  5
35E
100
AcDbEntity
  8
RACCORDO
100
AcDbLine
 62
253
  6
CONTINUOUS
 10
103.8781748407
 20
80.3768043754
 11
104.0013704652
 21
80.5
  0
LINE
  5
35F
100
AcDbEntity
  8
RACCORDO
100
AcDbLine
 62
253
  6
CONTINUOUS
 10
104.8700641349
 20
79.3714346001
 11
105.0
 21
79.5013704652
  0
LINE
  5
360
100
AcDbEntity
  8
0
100
AcDbLine
 62
253
  6
CONTINUOUS
 10
78.1716993324
 20
58.1205874575
 11
78.0510963722
 21
58.0
  0
LINE
  5
361
100
AcDbEntity
  8
0
100
AcDbLine
 62
7
  6
CONTINUOUS
 10
27.9072644141
 20
-7.5
 11
27.85
 21
-7.5190726278
  0
LWPOLYLINE
  5
362
100
AcDbEntity
  8
0
100
AcDbPolyline
 62
253
  6
CONTINUOUS
 90
4
 70
0
 10
78.3653842567
 20
7.5223692046
 10
78.3938596202
 20
7.5165698935
 10
78.4221229863
 20
7.5090746916
 10
78.4499435503
 20
7.4999240111
  0
LINE
  5
363
100
AcDbEntity
  8
0
100
AcDbLine
 62
7
  6
CONTINUOUS
 10
27.9072644141
 20
7.5
 11
27.85
 21
7.5190726278
  0
LINE
  5
364
100
AcDbEntity
  8
0
100
AcDbLine
 62
253
  6
CONTINUOUS
 10
78.1716937667
 20
-58.1205874575
 11
78.0510963722
 21
-58.0
  0
LINE
  5
365
100
AcDbEntity
  8
RACCORDO
100
AcDbLine
 62
253
  6
CONTINUOUS
 10
103.8781748407
 20
-80.3768043754
 11
104.0013704652
 21
-80.5
  0
LINE
  5
366
100
AcDbEntity
  8
RACCORDO
100
AcDbLine
 62
253
  6
CONTINUOUS
 10
104.8700641349
 20
-79.3714346001
 11
105.0
 21
-79.5013704652
  0
LINE
  5
367
100
AcDbEntity
  8
0
100
AcDbLine
 62
253
  6
CONTINUOUS
 10
78.9740086991
 20
-57.3251203816
 11
78.85
 21
-57.2010963722
  0
LINE
  5
368
100
AcDbEntity
  8
RACCORDO
100
AcDbLine
 62
7
  6
CONTINUOUS
 10
26.5
 20
7.5190726278
 11
26.5
 21
7.4
  0
LINE
  5
369
100
AcDbEntity
  8
RACCORDO
100
AcDbLine
 62
7
  6
CONTINUOUS
 10
26.5
 20
-7.4
 11
26.5
 21
-7.5190726278
  0
LINE
  5
36A
100
AcDbEntity
  8
0
100
AcDbLine
 62
7
  6
CONTINUOUS
 10
27.9072644141
 20
7.5
 11
27.9072644141
 21
7.4
  0
LINE
  5
36B
100
AcDbEntity
  8
0
100
AcDbLine
 62
7
  6
CONTINUOUS
 10
27.9072644141
 20
-7.5
 11
27.9072644141
 21
-7.4
  0
LWPOLYLINE
  5
36C
100
AcDbEntity
  8
RACCORDO
100
AcDbPolyline
 62
253
  6
CONTINUOUS
 90
13
 70
0
 10
78.8037053079
 20
57.8149971698
 10
78.805960177
 20
57.8185863693
 10
78.8102853391
 20
57.8237797908
 10
78.816657894
 20
57.8305499369
 10
78.8250441013
 20
57.8388609621
 10
78.8353995589
 20
57.8486688626
 10
78.8476694386
 20
57.8599217091
 10
78.8617887755
 20
57.8725599217
 10
78.8776828129
 20
57.8865165858
 10
78.8952673976
 20
57.9017178057
 10
78.9144494253
 20
57.9180830965
 10
78.9351273342
 20
57.9355258098
 10
78.957191642
 20
57.9539535928
  0
LWPOLYLINE
  5
36D
100
AcDbEntity
  8
0
100
AcDbPolyline
 62
253
  6
CONTINUOUS
 90
7
 70
0
 10
78.4499435503
 20
-7.4999240111
 10
78.4221229871
 20
-7.5090746914
 10
78.3938596219
 20
-7.5165698931
 10
78.3653842567
 20
-7.5223692046
 10
78.3368437107
 20
-7.5264788808
 10
78.308293799
 20
-7.528926349
 10
78.2798308773
 20
-7.5297345382
  0
LINE
  5
36E
100
AcDbEntity
  8
RACCORDO
100
AcDbLine
 62
253
  6
CONTINUOUS
 10
79.0017933822
 20
35.5
 11
104.7124949539
 21
35.5
  0
LINE
  5
36F
100
AcDbEntity
  8
RACCORDO
100
AcDbLine
 62
253
  6
CONTINUOUS
 10
-79.0017933822
 20
35.5
 11
-104.7124949539
 21
35.5
  0
LWPOLYLINE
  5
370
100
AcDbEntity
  8
0
100
AcDbPolyline
 62
253
  6
CONTINUOUS
 90
15
 70
0
 10
78.4499435503
 20
7.4999240111
 10
78.4772196623
 20
7.4891429104
 10
78.5038582604
 20
7.4767596689
 10
78.5296581182
 20
7.4628704285
 10
78.5545015648
 20
7.4475576344
 10
78.5783486182
 20
7.430865677
 10
78.6011294944
 20
7.4128588169
 10
78.6227492504
 20
7.3936315527
 10
78.6431718693
 20
7.3732362826
 10
78.662408998
 20
7.3516650136
 10
78.6804033583
 20
7.328968791
 10
78.6970750276
 20
7.3052342646
 10
78.7123868124
 20
7.2804947248
 10
78.7262942581
 20
7.254784621
 10
78.7387107049
 20
7.22822273
  0
LWPOLYLINE
  5
371
100
AcDbEntity
  8
RACCORDO
100
AcDbPolyline
 62
253
  6
CONTINUOUS
 90
15
 70
0
 10
78.8037060539
 20
-57.8149977512
 10
78.8059609139
 20
-57.8185869461
 10
78.8102860616
 20
-57.8237803588
 10
78.8166585968
 20
-57.8305504921
 10
78.8250447795
 20
-57.8388615008
 10
78.8354002079
 20
-57.848669381
 10
78.8476700539
 20
-57.859922204
 10
78.8617893534
 20
-57.8725603902
 10
78.87768335
 20
-57.8865170252
 10
78.8952678911
 20
-57.9017182139
 10
78.914449873
 20
-57.9180834718
 10
78.9351277344
 20
-57.9355261511
 10
78.957191994
 20
-57.9539538992
 10
78.9805258297
 20
-57.9732691484
 10
79.0305019865
 20
-58.0141489244
  0
LWPOLYLINE
  5
372
100
AcDbEntity
  8
RACCORDO
100
AcDbPolyline
 62
253
  6
CONTINUOUS
 90
16
 70
0
 10
78.9971259218
 20
-12.6728198099
 10
78.9507107265
 20
-12.6364375696
 10
78.9027107173
 20
-12.6022559549
 10
78.8531258942
 20
-12.570274966
 10
78.8017492636
 20
-12.5403820581
 10
78.7487878192
 20
-12.5126897759
 10
78.6948625417
 20
-12.4875357537
 10
78.6400947573
 20
-12.4650146018
 10
78.5843631398
 20
-12.4450317099
 10
78.5279246916
 20
-12.4276408815
 10
78.470923404
 20
-12.4128394978
 10
78.4132152857
 20
-12.4006301776
 10
78.3546253646
 20
-12.3910745809
 10
78.2950953169
 20
-12.384193261
 10
78.2346834665
 20
-12.3799656645
 10
78.1733898133
 20
-12.3783917915
  0
LINE
  5
373
100
AcDbEntity
  8
0
100
AcDbLine
 62
253
  6
CONTINUOUS
 10
78.779734537
 20
7.0298051004
 11
78.75
 21
7.0000761524
  0
LINE
  5
374
100
AcDbEntity
  8
0
100
AcDbLine
 62
253
  6
CONTINUOUS
 10
78.2798308992
 20
7.529734537
 11
78.2500761524
 21
7.5
  0
LWPOLYLINE
  5
375
100
AcDbEntity
  8
0
100
AcDbPolyline
 62
7
  6
CONTINUOUS
 90
10
 70
0
 10
5.2036911486
 20
-62.994376849
 10
5.1835361833
 20
-63.0110797403
 10
5.1737921745
 20
-63.0189662307
 10
5.1640365211
 20
-63.0262754642
 10
5.1542840488
 20
-63.0330463522
 10
5.1445199318
 20
-63.0392399947
 10
5.1344856381
 20
-63.0445053424
 10
5.1240949904
 20
-63.0487253845
 10
5.113434166
 20
-63.0520171449
 10
5.1025031649
 20
-63.054380628
  0
LWPOLYLINE
  5
376
100
AcDbEntity
  8
RACCORDO
100
AcDbPolyline
 62
253
  6
CONTINUOUS
 90
16
 70
0
 10
-104.5688821496
 20
58.1450107831
 10
-104.5882184433
 20
58.1444655195
 10
-104.6067945653
 20
58.1438532451
 10
-104.6245134291
 20
58.1431771599
 10
-104.6412824288
 20
58.1424407975
 10
-104.6570139226
 20
58.1416480064
 10
-104.6716256914
 20
58.14080293
 10
-104.6850413681
 20
58.1399099851
 10
-104.6971908368
 20
58.1389738385
 10
-104.7080105995
 20
58.1379993829
 10
-104.7174441077
 20
58.1369917113
 10
-104.725442058
 20
58.1359560901
 10
-104.7319626498
 20
58.1348979319
 10
-104.7369718039
 20
58.1338227671
 10
-104.7404433403
 20
58.1327362149
 10
-104.7423591154
 20
58.1316439541
  0
LWPOLYLINE
  5
377
100
AcDbEntity
  8
RACCORDO
100
AcDbPolyline
 62
253
  6
CONTINUOUS
 90
19
 70
0
 10
-78.1716838297
 20
58.6465549932
 10
-78.2362465674
 20
58.6450016535
 10
-78.3006001594
 20
58.6402021315
 10
-78.3647446055
 20
58.6321564122
 10
-78.4288680224
 20
58.6208591856
 10
-78.4927822935
 20
58.606315702
 10
-78.555923069
 20
58.5885417719
 10
-78.6183310416
 20
58.5674703768
 10
-78.6799655187
 20
58.5431684159
 10
-78.7401400726
 20
58.5158525665
 10
-78.7987921788
 20
58.4854912056
 10
-78.8559843619
 20
58.4521157938
 10
-78.911217768
 20
58.4160376365
 10
-78.9644559632
 20
58.3772377391
 10
-79.0157353814
 20
58.3357349111
 10
-79.0646664709
 20
58.2918971801
 10
-79.111119381
 20
58.2458471661
 10
-79.1552239624
 20
58.1974620663
 10
-79.196980215
 20
58.146741782
  0
LINE
  5
378
100
AcDbEntity
  8
RACCORDO
100
AcDbLine
 62
253
  6
CONTINUOUS
 10
79.2309100462
 20
57.3457219372
 11
79.2964628825
 21
57.3473631511
  0
LWPOLYLINE
  5
379
100
AcDbEntity
  8
RACCORDO
100
AcDbPolyline
 62
253
  6
CONTINUOUS
 90
19
 70
0
 10
-78.1716937836
 20
58.1205874743
 10
-78.211367448
 20
58.1196785325
 10
-78.2510991081
 20
58.1168020119
 10
-78.2907895339
 20
58.1119423042
 10
-78.3303455873
 20
58.1050878402
 10
-78.3696565443
 20
58.0962334349
 10
-78.4085951945
 20
58.085384126
 10
-78.4470919858
 20
58.0725360975
 10
-78.4850067306
 20
58.0577124966
 10
-78.5221137576
 20
58.0409890381
 10
-78.5582933391
 20
58.0224223197
 10
-78.5934781515
 20
58.0020497248
 10
-78.627535718
 20
57.9799504269
 10
-78.6603711407
 20
57.9561965503
 10
-78.6919174927
 20
57.9308475755
 10
-78.7220939046
 20
57.9039766221
 10
-78.7508274896
 20
57.8756593605
 10
-78.7780529323
 20
57.8459730977
 10
-78.8037074152
 20
57.8149988125
  0
LINE
  5
37A
100
AcDbEntity
  8
RACCORDO
100
AcDbLine
 62
253
  6
CONTINUOUS
 10
-104.5283367293
 20
58.1458892442
 11
-104.5688821496
 21
58.1450107831
  0
LINE
  5
37B
100
AcDbEntity
  8
RACCORDO
100
AcDbLine
 62
253
  6
CONTINUOUS
 10
79.2964628825
 20
57.3473631511
 11
79.365708227
 21
57.3485396548
  0
LINE
  5
37C
100
AcDbEntity
  8
RACCORDO
100
AcDbLine
 62
253
  6
CONTINUOUS
 10
-104.4860048248
 20
58.1464702876
 11
-104.5283367293
 21
58.1458892442
  0
LWPOLYLINE
  5
37D
100
AcDbEntity
  8
RACCORDO
100
AcDbPolyline
 62
253
  6
CONTINUOUS
 90
3
 70
0
 10
79.365708227
 20
57.3485396548
 10
79.4372003549
 20
57.3492268849
 10
79.4733234988
 20
57.3493821298
  0
LINE
  5
37E
100
AcDbEntity
  8
RACCORDO
100
AcDbLine
 62
253
  6
CONTINUOUS
 10
-104.442770255
 20
58.146741782
 11
-104.4860048248
 21
58.1464702876
  0
LINE
  5
37F
100
AcDbEntity
  8
0
100
AcDbLine
 62
7
  6
CONTINUOUS
 10
-78.0510963722
 20
58.0
 11
78.0510963722
 21
58.0
  0
LINE
  5
380
100
AcDbEntity
  8
RACCORDO
100
AcDbLine
 62
253
  6
CONTINUOUS
 10
78.1716993324
 20
58.1205874575
 11
-78.1716937667
 21
58.1205874575
  0
LINE
  5
381
100
AcDbEntity
  8
RACCORDO
100
AcDbLine
 62
253
  6
CONTINUOUS
 10
-104.4427701632
 20
58.1467038536
 11
-79.196980215
 21
58.146741782
  0
LINE
  5
382
100
AcDbEntity
  8
RACCORDO
100
AcDbLine
 62
253
  6
CONTINUOUS
 10
79.196980215
 20
58.146741782
 11
104.4427701629
 21
58.1467037078
  0
LINE
  5
383
100
AcDbEntity
  8
RACCORDO
100
AcDbLine
 62
253
  6
CONTINUOUS
 10
78.1716838297
 20
58.6465549932
 11
-78.1716838297
 21
58.6465549932
  0
LINE
  5
384
100
AcDbEntity
  8
RACCORDO
100
AcDbLine
 62
253
  6
CONTINUOUS
 10
-79.4012660819
 20
57.3489456217
 11
-79.4733234988
 21
57.3493821949
  0
LINE
  5
385
100
AcDbEntity
  8
RACCORDO
100
AcDbLine
 62
253
  6
CONTINUOUS
 10
104.442770255
 20
58.1467417812
 11
104.4860048234
 21
58.1464702868
  0
LINE
  5
386
100
AcDbEntity
  8
RACCORDO
100
AcDbLine
 62
253
  6
CONTINUOUS
 10
-79.3307130937
 20
57.3480113015
 11
-79.4012660819
 21
57.3489456217
  0
LINE
  5
387
100
AcDbEntity
  8
RACCORDO
100
AcDbLine
 62
253
  6
CONTINUOUS
 10
104.4860048234
 20
58.1464702868
 11
104.5283367266
 21
58.1458892435
  0
LWPOLYLINE
  5
388
100
AcDbEntity
  8
RACCORDO
100
AcDbPolyline
 62
253
  6
CONTINUOUS
 90
17
 70
0
 10
104.5283367266
 20
58.1458892435
 10
104.5688821458
 20
58.1450107824
 10
104.588218439
 20
58.1444655188
 10
104.6067945606
 20
58.1438532445
 10
104.6245134242
 20
58.1431771594
 10
104.6412824236
 20
58.142440797
 10
104.6570139174
 20
58.141648006
 10
104.6716256862
 20
58.1408029296
 10
104.685041363
 20
58.1399099847
 10
104.6971908319
 20
58.1389738382
 10
104.708010595
 20
58.1379993827
 10
104.7174441036
 20
58.1369917111
 10
104.7254420545
 20
58.1359560899
 10
104.731962647
 20
58.1348979318
 10
104.7369718019
 20
58.133822767
 10
104.7404433392
 20
58.1327362149
 10
104.7423591154
 20
58.1316439541
  0
LINE
  5
389
100
AcDbEntity
  8
0
100
AcDbLine
 62
253
  6
CONTINUOUS
 10
78.2500761524
 20
-7.5
 11
78.2798308757
 21
-7.529734537
  0
LINE
  5
38A
100
AcDbEntity
  8
0
100
AcDbLine
 62
253
  6
CONTINUOUS
 10
78.75
 20
-7.0000761524
 11
78.779734537
 21
-7.0298051321
  0
LINE
  5
38B
100
AcDbEntity
  8
0
100
AcDbLine
 62
253
  6
CONTINUOUS
 10
78.1734051366
 20
-12.8777065589
 11
78.0510963722
 21
-13.0
  0
LINE
  5
38C
100
AcDbEntity
  8
0
100
AcDbLine
 62
253
  6
CONTINUOUS
 10
78.9722924791
 20
-13.6766340488
 11
78.85
 21
-13.7989036278
  0
LINE
  5
38D
100
AcDbEntity
  8
0
100
AcDbLine
 62
253
  6
CONTINUOUS
 10
78.1734002152
 20
12.8777065589
 11
78.0510963722
 21
13.0
  0
LINE
  5
38E
100
AcDbEntity
  8
0
100
AcDbLine
 62
253
  6
CONTINUOUS
 10
78.9722925522
 20
13.6766322302
 11
78.85
 21
13.7989036278
  0
LINE
  5
38F
100
AcDbEntity
  8
RACCORDO
100
AcDbLine
 62
7
  6
CONTINUOUS
 10
78.9722925522
 20
13.6766322302
 11
78.9808551689
 21
13.4613394315
  0
LINE
  5
390
100
AcDbEntity
  8
RACCORDO
100
AcDbLine
 62
7
  6
CONTINUOUS
 10
78.9808551689
 20
13.4613394315
 11
78.9862325971
 21
13.3076265986
  0
LINE
  5
391
100
AcDbEntity
  8
RACCORDO
100
AcDbLine
 62
7
  6
CONTINUOUS
 10
78.9862325971
 20
13.3076265986
 11
78.9905291551
 21
13.1599349099
  0
LWPOLYLINE
  5
392
100
AcDbEntity
  8
RACCORDO
100
AcDbPolyline
 62
253
  6
CONTINUOUS
 90
16
 70
0
 10
78.9740086971
 20
57.3251176125
 10
78.9732013824
 20
57.3590647496
 10
78.9709185052
 20
57.3932539258
 10
78.9671242865
 20
57.4276197027
 10
78.9617778342
 20
57.4621379533
 10
78.9548528767
 20
57.4966914741
 10
78.946357533
 20
57.5310739169
 10
78.9362804637
 20
57.5652278065
 10
78.9246228502
 20
57.599062581
 10
78.9114578401
 20
57.6323318871
 10
78.8968155524
 20
57.6649632005
 10
78.8807242258
 20
57.6968979295
 10
78.863301926
 20
57.7279305287
 10
78.844633796
 20
57.7579645864
 10
78.8247498103
 20
57.7870018463
 10
78.8037074152
 20
57.8149988125
  0
LINE
  5
393
100
AcDbEntity
  8
RACCORDO
100
AcDbLine
 62
7
  6
CONTINUOUS
 10
78.9905291551
 20
13.1599349099
 11
78.9927791863
 21
13.064616893
  0
LWPOLYLINE
  5
394
100
AcDbEntity
  8
RACCORDO
100
AcDbPolyline
 62
253
  6
CONTINUOUS
 90
34
 70
0
 10
78.9722934094
 20
-13.6766331183
 10
78.9714356167
 20
-13.6381150651
 10
78.9687264893
 20
-13.5996703051
 10
78.964169138
 20
-13.561387483
 10
78.9577692807
 20
-13.5233446431
 10
78.949539269
 20
-13.4856408226
 10
78.9395029551
 20
-13.4483947728
 10
78.9276766011
 20
-13.4116693003
 10
78.9140947784
 20
-13.375572723
 10
78.8988333998
 20
-13.3402838084
 10
78.8819407159
 20
-13.305874492
 10
78.8634714462
 20
-13.2724194685
 10
78.843544363
 20
-13.2400836788
 10
78.8222746911
 20
-13.2089828456
 10
78.799698915
 20
-13.1791041813
 10
78.7758225348
 20
-13.1504139558
 10
78.750749451
 20
-13.1230041949
 10
78.7245110433
 20
-13.0968788827
 10
78.696968038
 20
-13.071902677
 10
78.6680986295
 20
-13.0480925411
 10
78.6380139923
 20
-13.0255760148
 10
78.6067518554
 20
-13.0044103872
 10
78.5742869022
 20
-12.9846163706
 10
78.5407559748
 20
-12.9663136455
 10
78.506462494
 20
-12.9496741815
 10
78.4715865149
 20
-12.9347633488
 10
78.4361183929
 20
-12.9215550581
 10
78.4000932608
 20
-12.9100518276
 10
78.3636970493
 20
-12.9002994411
 10
78.3269100713
 20
-12.8922796427
 10
78.2894461937
 20
-12.8859509485
 10
78.2512578725
 20
-12.8813623066
 10
78.2125486158
 20
-12.8785958589
 10
78.1734051576
 20
-12.8777065381
  0
LWPOLYLINE
  5
395
100
AcDbEntity
  8
RACCORDO
100
AcDbPolyline
 62
253
  6
CONTINUOUS
 90
16
 70
0
 10
79.4733234988
 20
57.3493821949
 10
79.472099458
 20
57.4047772328
 10
79.4683715722
 20
57.4603565823
 10
79.4621398412
 20
57.5161202392
 10
79.4534191263
 20
57.5722608056
 10
79.4421945662
 20
57.6285856685
 10
79.4284215781
 20
57.6845170121
 10
79.4120325672
 20
57.7400708847
 10
79.3930951282
 20
57.7952312504
 10
79.3717674616
 20
57.8493721883
 10
79.3479890736
 20
57.9024634944
 10
79.321820458
 20
57.9545354078
 10
79.2936012961
 20
58.0050526925
 10
79.2634448153
 20
58.0538369574
 10
79.2312377882
 20
58.1010666458
 10
79.196980215
 20
58.146741782
  0
LINE
  5
396
100
AcDbEntity
  8
RACCORDO
100
AcDbLine
 62
7
  6
CONTINUOUS
 10
78.9927791863
 20
13.064616893
 11
78.9945481159
 21
12.9715471478
  0
LINE
  5
397
100
AcDbEntity
  8
RACCORDO
100
AcDbLine
 62
7
  6
CONTINUOUS
 10
78.9945481159
 20
12.9715471478
 11
78.9958457275
 21
12.8811475936
  0
LINE
  5
398
100
AcDbEntity
  8
RACCORDO
100
AcDbLine
 62
7
  6
CONTINUOUS
 10
78.9958457275
 20
12.8811475936
 11
78.9966828191
 21
12.7940263181
  0
LINE
  5
399
100
AcDbEntity
  8
RACCORDO
100
AcDbLine
 62
7
  6
CONTINUOUS
 10
78.9966828191
 20
12.7940263181
 11
78.9970875374
 21
12.7120213897
  0
LINE
  5
39A
100
AcDbEntity
  8
RACCORDO
100
AcDbLine
 62
253
  6
CONTINUOUS
 10
78.9897459977
 20
49.8738405321
 11
78.974008705
 21
57.3251176202
  0
LINE
  5
39B
100
AcDbEntity
  8
RACCORDO
100
AcDbLine
 62
253
  6
CONTINUOUS
 10
79.4890607713
 20
49.889825527
 11
79.4733234988
 21
57.3493821949
  0
LINE
  5
39C
100
AcDbEntity
  8
RACCORDO
100
AcDbLine
 62
253
  6
CONTINUOUS
 10
78.9988557422
 20
42.5985186114
 11
78.9897459977
 21
49.8738405321
  0
LINE
  5
39D
100
AcDbEntity
  8
RACCORDO
100
AcDbLine
 62
253
  6
CONTINUOUS
 10
79.4981705049
 20
42.6064203076
 11
79.4890607713
 21
49.889825527
  0
LINE
  5
39E
100
AcDbEntity
  8
RACCORDO
100
AcDbLine
 62
253
  6
CONTINUOUS
 10
78.1716838297
 20
-58.1205874575
 11
78.1716838297
 21
-58.6465549932
  0
LINE
  5
39F
100
AcDbEntity
  8
RACCORDO
100
AcDbLine
 62
253
  6
CONTINUOUS
 10
78.1716838297
 20
58.1205874575
 11
78.1716838297
 21
58.6465549932
  0
LINE
  5
3A0
100
AcDbEntity
  8
RACCORDO
100
AcDbLine
 62
253
  6
CONTINUOUS
 10
78.1733898133
 20
12.8777065589
 11
78.1733898133
 21
12.3783917915
  0
LINE
  5
3A1
100
AcDbEntity
  8
RACCORDO
100
AcDbLine
 62
253
  6
CONTINUOUS
 10
78.1733898133
 20
-12.8777065589
 11
78.1733898133
 21
-12.3783917915
  0
LINE
  5
3A2
100
AcDbEntity
  8
RACCORDO
100
AcDbLine
 62
253
  6
CONTINUOUS
 10
78.232495013
 20
7.4
 11
78.232495013
 21
7.3
  0
LINE
  5
3A3
100
AcDbEntity
  8
RACCORDO
100
AcDbLine
 62
253
  6
CONTINUOUS
 10
78.232495013
 20
-7.4
 11
78.232495013
 21
-7.3
  0
LINE
  5
3A4
100
AcDbEntity
  8
0
100
AcDbLine
 62
253
  6
CONTINUOUS
 10
78.2798106894
 20
7.729704076
 11
78.2798106894
 21
7.529734537
  0
LINE
  5
3A5
100
AcDbEntity
  8
0
100
AcDbLine
 62
253
  6
CONTINUOUS
 10
78.2798106894
 20
-7.729704076
 11
78.2798106894
 21
-7.529734537
  0
LINE
  5
3A6
100
AcDbEntity
  8
RACCORDO
100
AcDbLine
 62
253
  6
CONTINUOUS
 10
78.532495013
 20
7.0
 11
78.532495013
 21
-7.0
  0
LINE
  5
3A7
100
AcDbEntity
  8
RACCORDO
100
AcDbLine
 62
7
  6
CONTINUOUS
 10
78.632495013
 20
7.0
 11
78.632495013
 21
-7.0
  0
LINE
  5
3A8
100
AcDbEntity
  8
RACCORDO
100
AcDbLine
 62
7
  6
CONTINUOUS
 10
78.65
 20
-7.0
 11
78.65
 21
-1.5
  0
LINE
  5
3A9
100
AcDbEntity
  8
RACCORDO
100
AcDbLine
 62
7
  6
CONTINUOUS
 10
78.65
 20
1.5
 11
78.65
 21
7.0
  0
LINE
  5
3AA
100
AcDbEntity
  8
0
100
AcDbLine
 62
7
  6
CONTINUOUS
 10
78.75
 20
7.0000761524
 11
78.75
 21
2.9072644141
  0
LINE
  5
3AB
100
AcDbEntity
  8
0
100
AcDbLine
 62
7
  6
CONTINUOUS
 10
78.75
 20
-2.9072644141
 11
78.75
 21
-7.0000761524
  0
LINE
  5
3AC
100
AcDbEntity
  8
0
100
AcDbLine
 62
7
  6
CONTINUOUS
 10
78.7690726278
 20
2.85
 11
78.7690726278
 21
-2.85
  0
LINE
  5
3AD
100
AcDbEntity
  8
0
100
AcDbLine
 62
253
  6
CONTINUOUS
 10
78.779734537
 20
7.0298051004
 11
78.779734537
 21
-7.0298051321
  0
LINE
  5
3AE
100
AcDbEntity
  8
0
100
AcDbLine
 62
7
  6
CONTINUOUS
 10
78.85
 20
57.2010963722
 11
78.85
 21
13.7989036278
  0
LINE
  5
3AF
100
AcDbEntity
  8
0
100
AcDbLine
 62
7
  6
CONTINUOUS
 10
78.85
 20
-57.2010963722
 11
78.85
 21
-13.7989036278
  0
LINE
  5
3B0
100
AcDbEntity
  8
0
100
AcDbLine
 62
253
  6
CONTINUOUS
 10
78.979704076
 20
7.0298106894
 11
78.979704076
 21
-7.0298106894
  0
LINE
  5
3B1
100
AcDbEntity
  8
RACCORDO
100
AcDbLine
 62
7
  6
CONTINUOUS
 10
78.9970875374
 20
12.7120213897
 11
78.9971259218
 21
-12.6728198099
  0
LINE
  5
3B2
100
AcDbEntity
  8
RACCORDO
100
AcDbLine
 62
253
  6
CONTINUOUS
 10
79.0017933822
 20
35.5
 11
78.9988557422
 21
42.5985186114
  0
LINE
  5
3B3
100
AcDbEntity
  8
RACCORDO
100
AcDbLine
 62
253
  6
CONTINUOUS
 10
79.5011081508
 20
35.4999969992
 11
79.4981705049
 21
42.6064203076
  0
LINE
  5
3B4
100
AcDbEntity
  8
RACCORDO
100
AcDbLine
 62
253
  6
CONTINUOUS
 10
78.9988592351
 20
-42.5942975324
 11
79.0017933822
 21
35.5
  0
LINE
  5
3B5
100
AcDbEntity
  8
RACCORDO
100
AcDbLine
 62
253
  6
CONTINUOUS
 10
79.4981739975
 20
-42.6021948111
 11
79.5011081496
 21
35.4999969992
  0
LINE
  5
3B6
100
AcDbEntity
  8
RACCORDO
100
AcDbLine
 62
253
  6
CONTINUOUS
 10
78.9897530716
 20
-49.8696210487
 11
78.9988592351
 21
-42.5942975324
  0
LINE
  5
3B7
100
AcDbEntity
  8
RACCORDO
100
AcDbLine
 62
253
  6
CONTINUOUS
 10
79.4890678442
 20
-49.8856019226
 11
79.4981739975
 21
-42.6021948111
  0
LINE
  5
3B8
100
AcDbEntity
  8
RACCORDO
100
AcDbLine
 62
253
  6
CONTINUOUS
 10
78.9740086991
 20
-57.3251203816
 11
78.9897530716
 21
-49.8696210487
  0
LINE
  5
3B9
100
AcDbEntity
  8
RACCORDO
100
AcDbLine
 62
253
  6
CONTINUOUS
 10
79.4733234988
 20
-57.3493821949
 11
79.4890678442
 21
-49.8856019226
  0
LINE
  5
3BA
100
AcDbEntity
  8
RACCORDO
100
AcDbLine
 62
7
  6
CONTINUOUS
 10
78.9971259251
 20
-12.6728198149
 11
78.9969465032
 21
-12.7508321095
  0
LINE
  5
3BB
100
AcDbEntity
  8
RACCORDO
100
AcDbLine
 62
7
  6
CONTINUOUS
 10
78.9969465032
 20
-12.7508321095
 11
78.9963558013
 21
-12.8332870004
  0
LINE
  5
3BC
100
AcDbEntity
  8
RACCORDO
100
AcDbLine
 62
7
  6
CONTINUOUS
 10
78.9963558013
 20
-12.8332870004
 11
78.9953398894
 21
-12.9201164027
  0
LINE
  5
3BD
100
AcDbEntity
  8
RACCORDO
100
AcDbLine
 62
7
  6
CONTINUOUS
 10
78.9953398894
 20
-12.9201164027
 11
78.9938492121
 21
-13.0111570948
  0
LINE
  5
3BE
100
AcDbEntity
  8
RACCORDO
100
AcDbLine
 62
7
  6
CONTINUOUS
 10
78.9938492121
 20
-13.0111570948
 11
78.9918560204
 21
-13.1058645109
  0
LINE
  5
3BF
100
AcDbEntity
  8
RACCORDO
100
AcDbLine
 62
7
  6
CONTINUOUS
 10
78.9918560204
 20
-13.1058645109
 11
78.9893511877
 21
-13.203880734
  0
LWPOLYLINE
  5
3C0
100
AcDbEntity
  8
0
100
AcDbPolyline
 62
253
  6
CONTINUOUS
 90
28
 70
0
 10
78.979704076
 20
-7.0298106894
 10
78.9785588148
 20
-7.0703473114
 10
78.9750529298
 20
-7.1106424975
 10
78.969186421
 20
-7.1506962477
 10
78.960923124
 20
-7.190701947
 10
78.9502992033
 20
-7.2304662104
 10
78.937423152
 20
-7.2694088825
 10
78.9222449104
 20
-7.307495273
 10
78.9048145382
 20
-7.3447600723
 10
78.8853907084
 20
-7.3807271968
 10
78.8639810783
 20
-7.4153226039
 10
78.8405779905
 20
-7.4486203363
 10
78.8154171452
 20
-7.4803664376
 10
78.7885194878
 20
-7.5105387957
 10
78.7598640728
 20
-7.5391595228
 10
78.7296237644
 20
-7.5660409987
 10
78.6977552228
 20
-7.591212716
 10
78.6643017877
 20
-7.6146451822
 10
78.6295663424
 20
-7.6360622988
 10
78.5934737174
 20
-7.6554575806
 10
78.5560990822
 20
-7.6728375128
 10
78.5179708282
 20
-7.6879454537
 10
78.4790658789
 20
-7.7007204454
 10
78.4394073108
 20
-7.7112234457
 10
78.3995927457
 20
-7.7193806858
 10
78.3598213907
 20
-7.725167576
 10
78.3198940386
 20
-7.7286087061
 10
78.2798106894
 20
-7.729704076
  0
LWPOLYLINE
  5
3C1
100
AcDbEntity
  8
0
100
AcDbPolyline
 62
253
  6
CONTINUOUS
 90
5
 70
0
 10
78.7797345365
 20
-7.0298051316
 10
78.7789087536
 20
-7.0586011089
 10
78.7764121217
 20
-7.0874228452
 10
78.7722318175
 20
-7.1161720924
 10
78.7663513846
 20
-7.1447889397
  0
LINE
  5
3C2
100
AcDbEntity
  8
RACCORDO
100
AcDbLine
 62
7
  6
CONTINUOUS
 10
78.9893511877
 20
-13.203880734
 11
78.9846412792
 21
-13.3558031289
  0
LINE
  5
3C3
100
AcDbEntity
  8
RACCORDO
100
AcDbLine
 62
7
  6
CONTINUOUS
 10
78.9846412792
 20
-13.3558031289
 11
78.9767854841
 21
-13.5668046024
  0
LINE
  5
3C4
100
AcDbEntity
  8
RACCORDO
100
AcDbLine
 62
7
  6
CONTINUOUS
 10
78.9767854841
 20
-13.5668046024
 11
78.9722924791
 21
-13.6766340488
  0
LWPOLYLINE
  5
3C5
100
AcDbEntity
  8
0
100
AcDbPolyline
 62
253
  6
CONTINUOUS
 90
4
 70
0
 10
78.7663513846
 20
-7.1447889397
 10
78.7587745717
 20
-7.1731304359
 10
78.7495488468
 20
-7.2009771837
 10
78.7387107049
 20
-7.22822273
  0
LINE
  5
3C6
100
AcDbEntity
  8
0
100
AcDbLine
 62
7
  6
CONTINUOUS
 10
78.75
 20
-2.9072644141
 11
78.7690726278
 21
-2.85
  0
LWPOLYLINE
  5
3C7
100
AcDbEntity
  8
0
100
AcDbPolyline
 62
253
  6
CONTINUOUS
 90
15
 70
0
 10
78.7387107049
 20
-7.22822273
 10
78.7262942581
 20
-7.254784621
 10
78.7123868124
 20
-7.2804947248
 10
78.6970750276
 20
-7.3052342646
 10
78.6804033583
 20
-7.328968791
 10
78.662408998
 20
-7.3516650136
 10
78.6431718693
 20
-7.3732362826
 10
78.6227492504
 20
-7.3936315527
 10
78.6011294944
 20
-7.4128588169
 10
78.5783486182
 20
-7.430865677
 10
78.5545015648
 20
-7.4475576344
 10
78.5296581182
 20
-7.4628704285
 10
78.5038582604
 20
-7.4767596689
 10
78.4772196623
 20
-7.4891429104
 10
78.4499435503
 20
-7.4999240111
  0
LWPOLYLINE
  5
3C8
100
AcDbEntity
  8
RACCORDO
100
AcDbPolyline
 62
253
  6
CONTINUOUS
 90
31
 70
0
 10
-103.8781748407
 20
80.3768043754
 10
-103.9300633794
 20
80.3754057976
 10
-103.9817973721
 20
80.3712974012
 10
-104.033237539
 20
80.364489022
 10
-104.0842407131
 20
80.3549986546
 10
-104.1346738041
 20
80.3428500648
 10
-104.1844136212
 20
80.3280704255
 10
-104.2333299353
 20
80.3106939214
 10
-104.2812840515
 20
80.2907656453
 10
-104.3281425884
 20
80.2683380415
 10
-104.3737718284
 20
80.2434715431
 10
-104.4180520963
 20
80.216228183
 10
-104.4608745776
 20
80.1866712719
 10
-104.5021210044
 20
80.1548746668
 10
-104.5416740624
 20
80.1209211985
 10
-104.5794300426
 20
80.0848940411
 10
-104.6152821789
 20
80.0468839139
 10
-104.6491255113
 20
80.0069908962
 10
-104.6808649968
 20
79.9653195812
 10
-104.7104070652
 20
79.9219789661
 10
-104.7376642889
 20
79.8770830522
 10
-104.7625586724
 20
79.8307510543
 10
-104.7850198577
 20
79.783092555
 10
-104.8049710988
 20
79.7342475387
 10
-104.8223399572
 20
79.6843893087
 10
-104.8370686348
 20
79.6336830939
 10
-104.8491249632
 20
79.5822397089
 10
-104.8584842663
 20
79.530155227
 10
-104.8651136774
 20
79.4775560951
 10
-104.8689805239
 20
79.4246007462
 10
-104.8700641349
 20
79.3714346001
  0
LWPOLYLINE
  5
3C9
100
AcDbEntity
  8
RACCORDO
100
AcDbPolyline
 62
253
  6
CONTINUOUS
 90
31
 70
0
 10
-103.8781748407
 20
80.1316296735
 10
-103.9146529722
 20
80.1306597302
 10
-103.9508319703
 20
80.1278034482
 10
-103.9867118348
 20
80.1230608093
 10
-104.0223884154
 20
80.1164111066
 10
-104.0577658624
 20
80.1078749747
 10
-104.0925566275
 20
80.0975143919
 10
-104.1267568879
 20
80.085314063
 10
-104.1603704663
 20
80.0712891449
 10
-104.1931212822
 20
80.0555472846
 10
-104.2249996843
 20
80.0380766368
 10
-104.2560153239
 20
80.0188888558
 10
-104.2859210743
 20
79.9981268372
 10
-104.3147107791
 20
79.9757777339
 10
-104.3423905947
 20
79.9518541665
 10
-104.3687318644
 20
79.9265372441
 10
-104.3937261188
 20
79.8998140448
 10
-104.4173818273
 20
79.8716972495
 10
-104.4394957418
 20
79.8424063973
 10
-104.4600562017
 20
79.8119310221
 10
-104.4790748675
 20
79.7802813584
 10
-104.496383473
 20
79.7477080355
 10
-104.5119701923
 20
79.7141922068
 10
-104.5258468514
 20
79.6797525184
 10
-104.5378806623
 20
79.6446958968
 10
-104.5480511722
 20
79.6090293237
 10
-104.556378834
 20
79.5727456776
 10
-104.5627922181
 20
79.5361307981
 10
-104.5672675146
 20
79.4992799549
 10
-104.5698285334
 20
79.46209781
 10
-104.5704752745
 20
79.4245843251
  0
LWPOLYLINE
  5
3CA
100
AcDbEntity
  8
RACCORDO
100
AcDbPolyline
 62
253
  6
CONTINUOUS
 90
22
 70
0
 10
-104.5704752745
 20
79.424584313
 10
-104.5921592014
 20
79.424247135
 10
-104.6137296854
 20
79.42363366
 10
-104.6350738773
 20
79.4227470974
 10
-104.6560801115
 20
79.4215920854
 10
-104.6766384907
 20
79.4201746666
 10
-104.6966414605
 20
79.4185022565
 10
-104.7159843721
 20
79.4165836045
 10
-104.7345660303
 20
79.4144287484
 10
-104.752289222
 20
79.4120489616
 10
-104.7690612257
 20
79.4094566944
 10
-104.784794296
 20
79.4066655087
 10
-104.799406123
 20
79.4036900068
 10
-104.8128202624
 20
79.4005457557
 10
-104.8249665363
 20
79.397249205
 10
-104.8357813994
 20
79.393817601
 10
-104.8452082721
 20
79.3902688969
 10
-104.8531978363
 20
79.3866216581
 10
-104.8597082933
 20
79.3828949658
 10
-104.8647055826
 20
79.3791083167
 10
-104.8681635601
 20
79.3752815214
 10
-104.8700641349
 20
79.3714346001
  0
LINE
  5
3CB
100
AcDbEntity
  8
RACCORDO
100
AcDbLine
 62
253
  6
CONTINUOUS
 10
103.8781748407
 20
80.1316296735
 11
-103.8781748407
 21
80.1316296735
  0
LINE
  5
3CC
100
AcDbEntity
  8
RACCORDO
100
AcDbLine
 62
253
  6
CONTINUOUS
 10
103.8781748407
 20
80.3768043754
 11
-103.8781748407
 21
80.3768043754
  0
LINE
  5
3CD
100
AcDbEntity
  8
RACCORDO
100
AcDbLine
 62
7
  6
CONTINUOUS
 10
-104.0013704652
 20
80.5
 11
104.0013704652
 21
80.5
  0
LWPOLYLINE
  5
3CE
100
AcDbEntity
  8
RACCORDO
100
AcDbPolyline
 62
253
  6
CONTINUOUS
 90
22
 70
0
 10
104.5704752745
 20
79.4245843212
 10
104.5921590664
 20
79.424247119
 10
104.6137294059
 20
79.4236336223
 10
104.6350734455
 20
79.4227470407
 10
104.6560795213
 20
79.4215920123
 10
104.6766377378
 20
79.4201745799
 10
104.6966405423
 20
79.4185021589
 10
104.715983288
 20
79.4165834988
 10
104.7345647812
 20
79.4144286372
 10
104.7522878107
 20
79.4120488476
 10
104.7690596565
 20
79.40945658
 10
104.7847925748
 20
79.4066653962
 10
104.7994042572
 20
79.4036898986
 10
104.8128182609
 20
79.4005456539
 10
104.8249644093
 20
79.3972491114
 10
104.8357791582
 20
79.3938175175
 10
104.8452059292
 20
79.3902688249
 10
104.853195405
 20
79.3866215989
 10
104.8597057879
 20
79.3828949205
 10
104.864703018
 20
79.3791082861
 10
104.8681609518
 20
79.3752815059
 10
104.8700614987
 20
79.3714346002
  0
LWPOLYLINE
  5
3CF
100
AcDbEntity
  8
0
100
AcDbPolyline
 62
253
  6
CONTINUOUS
 90
8
 70
0
 10
78.7387107049
 20
7.22822273
 10
78.7495488468
 20
7.2009771837
 10
78.7587745714
 20
7.173130437
 10
78.7663513841
 20
7.144788942
 10
78.7722318176
 20
7.1161720924
 10
78.7764121225
 20
7.0874228382
 10
78.7789087546
 20
7.0586010913
 10
78.7797345365
 20
7.0298051
  0
LINE
  5
3D0
100
AcDbEntity
  8
0
100
AcDbLine
 62
7
  6
CONTINUOUS
 10
78.75
 20
2.9072644141
 11
78.7690726278
 21
2.85
  0
LWPOLYLINE
  5
3D1
100
AcDbEntity
  8
RACCORDO
100
AcDbPolyline
 62
253
  6
CONTINUOUS
 90
16
 70
0
 10
78.8037074152
 20
-57.8149988125
 10
78.8247143384
 20
-57.7870512767
 10
78.844571262
 20
-57.7580603741
 10
78.8632201474
 20
-57.7280688198
 10
78.8806302634
 20
-57.6970743675
 10
78.8967158687
 20
-57.6651725418
 10
78.9113583423
 20
-57.6325675695
 10
78.9245277008
 20
-57.5993196608
 10
78.9361938438
 20
-57.5654987238
 10
78.9462845462
 20
-57.5313431946
 10
78.954797963
 20
-57.4969368655
 10
78.9617414246
 20
-57.4623429483
 10
78.9671031848
 20
-57.427778882
 10
78.9709085958
 20
-57.3933658337
 10
78.9731986801
 20
-57.3591244305
 10
78.9740086896
 20
-57.3251203721
  0
LWPOLYLINE
  5
3D2
100
AcDbEntity
  8
RACCORDO
100
AcDbPolyline
 62
253
  6
CONTINUOUS
 90
19
 70
0
 10
78.8037074152
 20
57.8149988125
 10
78.778058476
 20
57.8459667387
 10
78.7508392294
 20
57.8756471922
 10
78.722112453
 20
57.9039592452
 10
78.691943082
 20
57.9308259247
 10
78.660404265
 20
57.9561712863
 10
78.6275779162
 20
57.979921501
 10
78.5935320792
 20
58.0020166462
 10
78.5583606971
 20
58.0223855675
 10
78.5221940948
 20
58.0409503509
 10
78.4851024325
 20
58.0576722529
 10
78.4472024098
 20
58.0724961193
 10
78.4087079072
 20
58.0853496453
 10
78.3697478368
 20
58.0962104524
 10
78.3304016952
 20
58.10507667
 10
78.2908170442
 20
58.1119382436
 10
78.2511119048
 20
58.1168007706
 10
78.2113728869
 20
58.1196782765
 10
78.1716993587
 20
58.1205874836
  0
LWPOLYLINE
  5
3D3
100
AcDbEntity
  8
RACCORDO
100
AcDbPolyline
 62
253
  6
CONTINUOUS
 90
31
 70
0
 10
104.8700641349
 20
79.3714346001
 10
104.8689837283
 20
79.4245325727
 10
104.8651242605
 20
79.4774498659
 10
104.8585017163
 20
79.5300410074
 10
104.8491405993
 20
79.5821640913
 10
104.8370709871
 20
79.6336741479
 10
104.82232903
 20
79.6844236819
 10
104.8049594955
 20
79.7342783947
 10
104.785016971
 20
79.7830992478
 10
104.7625658091
 20
79.8307369647
 10
104.7376776484
 20
79.8770597475
 10
104.71042623
 20
79.921949258
 10
104.6808909992
 20
79.9652835748
 10
104.6491601876
 20
80.006947831
 10
104.6153267021
 20
80.0468342004
 10
104.5794851669
 20
80.0848386398
 10
104.5417404732
 20
80.120861123
 10
104.502199302
 20
80.1548109864
 10
104.4609647796
 20
80.1866054676
 10
104.4181535382
 20
80.2161620493
 10
104.3738842197
 20
80.2434064129
 10
104.3282666925
 20
80.2682745836
 10
104.2814242431
 20
80.2907030255
 10
104.2334870704
 20
80.3106334149
 10
104.1845783761
 20
80.3280167082
 10
104.134831921
 20
80.3428075328
 10
104.0843817991
 20
80.3549685407
 10
104.033353931
 20
80.3644704898
 10
103.9818824058
 20
80.3712883803
 10
103.9301095385
 20
80.3754033232
 10
103.8781748407
 20
80.3768043754
  0
LWPOLYLINE
  5
3D4
100
AcDbEntity
  8
RACCORDO
100
AcDbPolyline
 62
253
  6
CONTINUOUS
 90
31
 70
0
 10
104.5704752745
 20
79.4245843251
 10
104.5698318164
 20
79.4620887008
 10
104.5672705353
 20
79.4992725536
 10
104.5627914313
 20
79.5361359206
 10
104.556368329
 20
79.57278297
 10
104.5480274037
 20
79.6091095985
 10
104.5378471816
 20
79.6448034728
 10
104.5258106905
 20
79.6798570592
 10
104.5119349025
 20
79.714278036
 10
104.4963492603
 20
79.7477769567
 10
104.4790405749
 20
79.7803416129
 10
104.4600220353
 20
79.8119844126
 10
104.439462652
 20
79.8424528897
 10
104.4173511099
 20
79.8717360143
 10
104.3936987241
 20
79.8998450478
 10
104.36870845
 20
79.9265610015
 10
104.3423718963
 20
79.9518712641
 10
104.3146974544
 20
79.9757886875
 10
104.2859132542
 20
79.9981325034
 10
104.2560127627
 20
80.0188903341
 10
104.2250025129
 20
80.0380747835
 10
104.1931302347
 20
80.0555425671
 10
104.160388918
 20
80.0712814066
 10
104.1267855729
 20
80.0853037711
 10
104.0925889591
 20
80.0975034963
 10
104.0577891562
 20
80.1078670078
 10
104.0223960846
 20
80.116408018
 10
103.9867082652
 20
80.1230612831
 10
103.9508252049
 20
80.1278050799
 10
103.9146473967
 20
80.130661204
 10
103.8781748407
 20
80.1316296735
  0
LWPOLYLINE
  5
3D5
100
AcDbEntity
  8
RACCORDO
100
AcDbPolyline
 62
253
  6
CONTINUOUS
 90
9
 70
0
 10
104.5704752745
 20
-79.4245843251
 10
104.549269062
 20
-77.0779525961
 10
104.5298149288
 20
-74.7258205098
 10
104.5121128747
 20
-72.3686621565
 10
104.4961600887
 20
-70.0069570096
 10
104.4819593819
 20
-67.6411766855
 10
104.4695191875
 20
-65.2717847757
 10
104.4588423168
 20
-62.8992543264
 10
104.4499259585
 20
-60.5240678139
  0
LWPOLYLINE
  5
3D6
100
AcDbEntity
  8
RACCORDO
100
AcDbPolyline
 62
253
  6
CONTINUOUS
 90
9
 70
0
 10
104.8700641349
 20
-79.3714346001
 10
104.8488583148
 20
-77.0282633806
 10
104.8294044228
 20
-74.6805292018
 10
104.8117024588
 20
-72.3282320636
 10
104.7957495359
 20
-69.9708898601
 10
104.781548541
 20
-67.6089846973
 10
104.7691081354
 20
-65.2439628935
 10
104.7584312061
 20
-62.8763065547
 10
104.7495148661
 20
-60.5055335749
  0
LINE
  5
3D7
100
AcDbEntity
  8
RACCORDO
100
AcDbLine
 62
253
  6
CONTINUOUS
 10
104.4499259585
 20
-60.5240678139
 11
104.4395444089
 21
-56.8894133647
  0
LINE
  5
3D8
100
AcDbEntity
  8
RACCORDO
100
AcDbLine
 62
253
  6
CONTINUOUS
 10
104.7495148661
 20
-60.5055335749
 11
104.7391333224
 21
-56.8751593393
  0
LINE
  5
3D9
100
AcDbEntity
  8
RACCORDO
100
AcDbLine
 62
253
  6
CONTINUOUS
 10
104.4395444089
 20
-56.8894133647
 11
104.4284844706
 21
-51.8590316449
  0
LINE
  5
3DA
100
AcDbEntity
  8
RACCORDO
100
AcDbLine
 62
253
  6
CONTINUOUS
 10
104.7391333224
 20
-56.8751593393
 11
104.7280733304
 21
-51.8481223445
  0
LINE
  5
3DB
100
AcDbEntity
  8
RACCORDO
100
AcDbLine
 62
253
  6
CONTINUOUS
 10
104.4284844706
 20
-51.8590316449
 11
104.4240603184
 21
-49.3432001813
  0
LINE
  5
3DC
100
AcDbEntity
  8
RACCORDO
100
AcDbLine
 62
253
  6
CONTINUOUS
 10
104.7280733304
 20
-51.8481223445
 11
104.72364918
 21
-49.3339753724
  0
LINE
  5
3DD
100
AcDbEntity
  8
RACCORDO
100
AcDbLine
 62
253
  6
CONTINUOUS
 10
104.4240603184
 20
-49.3432001813
 11
104.4174235953
 21
-44.3104274738
  0
LINE
  5
3DE
100
AcDbEntity
  8
RACCORDO
100
AcDbLine
 62
253
  6
CONTINUOUS
 10
104.72364918
 20
-49.3339753724
 11
104.7170124553
 21
-44.3045500944
  0
LINE
  5
3DF
100
AcDbEntity
  8
RACCORDO
100
AcDbLine
 62
253
  6
CONTINUOUS
 10
104.4174235953
 20
-44.3104274738
 11
104.4152111055
 21
-41.7935243826
  0
LINE
  5
3E0
100
AcDbEntity
  8
RACCORDO
100
AcDbLine
 62
253
  6
CONTINUOUS
 10
104.7170124553
 20
-44.3045500944
 11
104.7147999652
 21
-41.7893307617
  0
LINE
  5
3E1
100
AcDbEntity
  8
RACCORDO
100
AcDbLine
 62
253
  6
CONTINUOUS
 10
104.4152111055
 20
-41.7935243826
 11
104.4129983429
 21
-36.7588269714
  0
LINE
  5
3E2
100
AcDbEntity
  8
RACCORDO
100
AcDbLine
 62
253
  6
CONTINUOUS
 10
104.7147999652
 20
-41.7893307617
 11
104.7125872032
 21
-36.7580039959
  0
LINE
  5
3E3
100
AcDbEntity
  8
RACCORDO
100
AcDbLine
 62
253
  6
CONTINUOUS
 10
103.8781748407
 20
-80.1316296735
 11
103.8781748408
 21
-80.3768043754
  0
LINE
  5
3E4
100
AcDbEntity
  8
RACCORDO
100
AcDbLine
 62
253
  6
CONTINUOUS
 10
103.8781748407
 20
80.1316296735
 11
103.8781748407
 21
80.3768043754
  0
LINE
  5
3E5
100
AcDbEntity
  8
RACCORDO
100
AcDbLine
 62
253
  6
CONTINUOUS
 10
104.4129983429
 20
-36.7588269714
 11
104.4129060935
 21
35.4999987743
  0
LINE
  5
3E6
100
AcDbEntity
  8
RACCORDO
100
AcDbLine
 62
253
  6
CONTINUOUS
 10
104.7125872032
 20
-36.7580039959
 11
104.7124949539
 21
35.5
  0
LINE
  5
3E7
100
AcDbEntity
  8
RACCORDO
100
AcDbLine
 62
7
  6
CONTINUOUS
 10
105.0
 20
-79.5013704652
 11
105.0
 21
79.5013704652
  0
LINE
  5
3E8
100
AcDbEntity
  8
RACCORDO
100
AcDbLine
 62
253
  6
CONTINUOUS
 10
104.4129060932
 20
35.4999987743
 11
104.4143813472
 21
40.5349633622
  0
LINE
  5
3E9
100
AcDbEntity
  8
RACCORDO
100
AcDbLine
 62
253
  6
CONTINUOUS
 10
104.7124949539
 20
35.5
 11
104.7139702068
 21
40.5316017903
  0
LINE
  5
3EA
100
AcDbEntity
  8
RACCORDO
100
AcDbLine
 62
253
  6
CONTINUOUS
 10
104.4143813472
 20
40.5349633622
 11
104.4188063268
 21
45.5687498608
  0
LINE
  5
3EB
100
AcDbEntity
  8
RACCORDO
100
AcDbLine
 62
253
  6
CONTINUOUS
 10
104.7139702068
 20
40.5316017903
 11
104.718395187
 21
45.5620404557
  0
LINE
  5
3EC
100
AcDbEntity
  8
RACCORDO
100
AcDbLine
 62
253
  6
CONTINUOUS
 10
104.4188063268
 20
45.5687498608
 11
104.4261802472
 21
50.6011648792
  0
LINE
  5
3ED
100
AcDbEntity
  8
RACCORDO
100
AcDbLine
 62
253
  6
CONTINUOUS
 10
104.718395187
 20
45.5620404557
 11
104.7257691094
 21
50.5910984411
  0
LINE
  5
3EE
100
AcDbEntity
  8
RACCORDO
100
AcDbLine
 62
253
  6
CONTINUOUS
 10
104.4261802472
 20
50.6011648792
 11
104.4365029617
 21
55.6319899715
  0
LINE
  5
3EF
100
AcDbEntity
  8
RACCORDO
100
AcDbLine
 62
253
  6
CONTINUOUS
 10
104.7257691094
 20
50.5910984411
 11
104.7360918461
 21
55.6185655361
  0
LWPOLYLINE
  5
3F0
100
AcDbEntity
  8
RACCORDO
100
AcDbPolyline
 62
253
  6
CONTINUOUS
 90
10
 70
0
 10
104.4365029617
 20
55.6319899715
 10
104.4499259595
 20
60.524067855
 10
104.4588423183
 20
62.8992544377
 10
104.4695191885
 20
65.2717848411
 10
104.4819593805
 20
67.6411764911
 10
104.4961600839
 20
70.0069564405
 10
104.5121128681
 20
72.3686613913
 10
104.5298149228
 20
74.7258198238
 10
104.5492690583
 20
77.0779521656
 10
104.5704752745
 20
79.4245843251
  0
LWPOLYLINE
  5
3F1
100
AcDbEntity
  8
RACCORDO
100
AcDbPolyline
 62
253
  6
CONTINUOUS
 90
10
 70
0
 10
104.7360918461
 20
55.6185655361
 10
104.7495148787
 20
60.5055369613
 10
104.7584312346
 20
62.8763131635
 10
104.7691081833
 20
65.243972561
 10
104.7815486204
 20
67.60899817
 10
104.7957496502
 20
69.9709069741
 10
104.8117025853
 20
72.3282499241
 10
104.8294045299
 20
74.6805440036
 10
104.8488583798
 20
77.0282722289
 10
104.8700641349
 20
79.3714346001
  0
LWPOLYLINE
  5
3F2
100
AcDbEntity
  8
RACCORDO
100
AcDbPolyline
 62
253
  6
CONTINUOUS
 90
16
 70
0
 10
79.196980215
 20
-58.146741782
 10
79.2311789068
 20
-58.1011537683
 10
79.2633393006
 20
-58.0540032027
 10
79.2934613965
 20
-58.0052900612
 10
79.3216597541
 20
-57.9548371442
 10
79.3478198137
 20
-57.9028215988
 10
79.3715978971
 20
-57.8497749279
 10
79.3929333488
 20
-57.7956705129
 10
79.4118868243
 20
-57.7405349371
 10
79.4282966113
 20
-57.6849795268
 10
79.4420973592
 20
-57.6290106821
 10
79.4533544186
 20
-57.5726219893
 10
79.4621021284
 20
-57.5164055756
 10
79.4683519348
 20
-57.4605588244
 10
79.4720923916
 20
-57.4048843629
 10
79.4733234988
 20
-57.3493821949
  0
LWPOLYLINE
  5
3F3
100
AcDbEntity
  8
RACCORDO
100
AcDbPolyline
 62
253
  6
CONTINUOUS
 90
19
 70
0
 10
79.196980215
 20
58.146741782
 10
79.1552368011
 20
58.1974475975
 10
79.1111455306
 20
58.245820132
 10
79.0647064036
 20
58.2918594841
 10
79.0157888299
 20
58.3356889169
 10
78.9645233997
 20
58.3771853499
 10
78.9113018832
 20
58.4159793741
 10
78.8560898601
 20
58.4520509727
 10
78.7989217507
 20
58.4854203475
 10
78.740292586
 20
58.5157784336
 10
78.6801453139
 20
58.5430937838
 10
78.6185369864
 20
58.5673980076
 10
78.5561337905
 20
58.588476627
 10
78.4929604149
 20
58.6062666905
 10
78.4289921709
 20
58.6208312688
 10
78.3648211784
 20
58.6321449081
 10
78.3006448107
 20
58.6401991438
 10
78.2362656944
 20
58.6450025006
 10
78.1716838297
 20
58.6465549932
  0
LINE
  5
3F4
100
AcDbEntity
  8
RACCORDO
100
AcDbLine
 62
7
  6
CONTINUOUS
 10
-132.4883209539
 20
-80.3768043754
 11
-130.1376084017
 21
-80.5
  0
LINE
  5
3F5
100
AcDbEntity
  8
RACCORDO
100
AcDbLine
 62
253
  6
CONTINUOUS
 10
-132.6169324043
 20
-79.3714346001
 11
-130.1376084017
 21
-79.5013704652
  0
LINE
  5
3F6
100
AcDbEntity
  8
RACCORDO
100
AcDbLine
 62
253
  6
CONTINUOUS
 10
-132.8775534219
 20
-79.4201746666
 11
-132.8596665897
 21
-79.4165836045
  0
LINE
  5
3F7
100
AcDbEntity
  8
RACCORDO
100
AcDbLine
 62
253
  6
CONTINUOUS
 10
-132.8596665897
 20
-79.4165836045
 11
-132.822857227
 21
-79.4094566944
  0
LINE
  5
3F8
100
AcDbEntity
  8
RACCORDO
100
AcDbLine
 62
253
  6
CONTINUOUS
 10
-132.822857227
 20
-79.4094566944
 11
-132.7579727537
 21
-79.397249205
  0
LWPOLYLINE
  5
3F9
100
AcDbEntity
  8
RACCORDO
100
AcDbPolyline
 62
253
  6
CONTINUOUS
 90
3
 70
0
 10
-132.7579727537
 20
-79.397249205
 10
-132.6382029958
 20
-79.3752815214
 10
-132.6169324043
 20
-79.3714346001
  0
LWPOLYLINE
  5
3FA
100
AcDbEntity
  8
RACCORDO
100
AcDbPolyline
 62
253
  6
CONTINUOUS
 90
3
 70
0
 10
-135.3376084013
 20
-58.146741782
 10
-135.3368283102
 20
-58.1466452362
 10
-135.3344863603
 20
-58.1464702876
  0
LINE
  5
3FB
100
AcDbEntity
  8
RACCORDO
100
AcDbLine
 62
253
  6
CONTINUOUS
 10
-135.3344863603
 20
-58.1464702876
 11
-135.3251739429
 21
-58.1458892442
  0
LINE
  5
3FC
100
AcDbEntity
  8
RACCORDO
100
AcDbLine
 62
253
  6
CONTINUOUS
 10
-135.3251739429
 20
-58.1458892442
 11
-135.2763924165
 21
-58.1431771599
  0
LINE
  5
3FD
100
AcDbEntity
  8
RACCORDO
100
AcDbLine
 62
253
  6
CONTINUOUS
 10
-135.2763924165
 20
-58.1431771599
 11
-135.0536893367
 21
-58.1316439541
  0
LWPOLYLINE
  5
3FE
100
AcDbEntity
  8
RACCORDO
100
AcDbPolyline
 62
253
  6
CONTINUOUS
 90
10
 70
0
 10
-132.4883209539
 20
-80.3768043754
 10
-132.4892842864
 20
-80.3754057976
 10
-132.4905591395
 20
-80.3712974012
 10
-132.4921387292
 20
-80.364489022
 10
-132.4940168411
 20
-80.3549986546
 10
-132.4961874002
 20
-80.3428500648
 10
-132.4986443379
 20
-80.3280704255
 10
-132.5013863518
 20
-80.3106939214
 10
-132.5044048054
 20
-80.2907656453
 10
-132.507683228
 20
-80.2683380415
  0
LINE
  5
3FF
100
AcDbEntity
  8
RACCORDO
100
AcDbLine
 62
253
  6
CONTINUOUS
 10
-135.9078306981
 20
-35.5
 11
-135.623531485
 21
-35.5
  0
LINE
  5
400
100
AcDbEntity
  8
DRAFT
100
AcDbLine
 62
7
  6
CONTINUOUS
 10
-127.3376084017
 20
-39.3526539614
 11
-129.3376084017
 21
-39.0
  0
LINE
  5
401
100
AcDbEntity
  8
DRAFT
100
AcDbLine
 62
7
  6
CONTINUOUS
 10
-127.3376084017
 20
-31.6473460386
 11
-129.3376084017
 21
-32.0
  0
LWPOLYLINE
  5
402
100
AcDbEntity
  8
RACCORDO
100
AcDbPolyline
 62
253
  6
CONTINUOUS
 90
10
 70
0
 10
-132.6169324043
 20
-79.3714346001
 10
-133.021563556
 20
-77.0282633806
 10
-133.3927659288
 20
-74.6805292018
 10
-133.7305395226
 20
-72.3282320636
 10
-134.0349394259
 20
-69.9708898601
 10
-134.3059105502
 20
-67.6089846973
 10
-134.54328763
 20
-65.2439628935
 10
-134.7470155767
 20
-62.8763065547
 10
-134.917149479
 20
-60.5055335749
 10
-135.0536893367
 20
-58.1316439541
  0
LINE
  5
403
100
AcDbEntity
  8
0
100
AcDbLine
 62
7
  6
CONTINUOUS
 10
-135.0299177992
 20
-62.9059038071
 11
-135.0308889979
 21
-62.8935951629
  0
LWPOLYLINE
  5
404
100
AcDbEntity
  8
RACCORDO
100
AcDbPolyline
 62
253
  6
CONTINUOUS
 90
19
 70
0
 10
-135.0536893367
 20
-58.1316439541
 10
-135.1152411349
 20
-56.8751593393
 10
-135.1732759586
 20
-55.6185655361
 10
-135.227793808
 20
-54.3618625447
 10
-135.2787945681
 20
-53.1050470387
 10
-135.3262783539
 20
-51.8481223445
 10
-135.3702455099
 20
-50.591098441
 10
-135.4106961717
 20
-49.3339753724
 10
-135.4476302038
 20
-48.0767530947
 10
-135.481047544
 20
-46.8194414546
 10
-135.5109483298
 20
-45.5620404556
 10
-135.5373324236
 20
-44.3045500944
 10
-135.560199351
 20
-43.0469802079
 10
-135.5795492497
 20
-41.7893307617
 10
-135.5953819819
 20
-40.5316017903
 10
-135.6076966603
 20
-39.2738032343
 10
-135.616492989
 20
-38.0159384074
 10
-135.6217712639
 20
-36.7580039959
 10
-135.623531485
 20
-35.5
  0
LWPOLYLINE
  5
405
100
AcDbEntity
  8
RACCORDO
100
AcDbPolyline
 62
253
  6
CONTINUOUS
 90
10
 70
0
 10
-135.0536893367
 20
58.1316439541
 10
-134.9171492397
 20
60.5055369613
 10
-134.747015033
 20
62.8763131635
 10
-134.5432867166
 20
65.243972561
 10
-134.3059090353
 20
67.60899817
 10
-134.0349372444
 20
69.9709069741
 10
-133.7305371093
 20
72.3282499241
 10
-133.3927638851
 20
74.6805440036
 10
-133.0215623168
 20
77.0282722289
 10
-132.6169324043
 20
79.3714346001
  0
LINE
  5
406
100
AcDbEntity
  8
RACCORDO
100
AcDbLine
 62
253
  6
CONTINUOUS
 10
-132.6169324043
 20
79.3714346001
 11
-132.5812909048
 21
79.6844236819
  0
LINE
  5
407
100
AcDbEntity
  8
RACCORDO
100
AcDbLine
 62
253
  6
CONTINUOUS
 10
-132.5812909048
 20
79.6844236819
 11
-132.5583510109
 21
79.8770597475
  0
LINE
  5
408
100
AcDbEntity
  8
RACCORDO
100
AcDbLine
 62
253
  6
CONTINUOUS
 10
-132.5583510109
 20
79.8770597475
 11
-132.5372785694
 21
80.0468342004
  0
LINE
  5
409
100
AcDbEntity
  8
RACCORDO
100
AcDbLine
 62
253
  6
CONTINUOUS
 10
-132.5372785694
 20
80.0468342004
 11
-132.5232882695
 21
80.1548109864
  0
LINE
  5
40A
100
AcDbEntity
  8
RACCORDO
100
AcDbLine
 62
253
  6
CONTINUOUS
 10
-132.5232882695
 20
80.1548109864
 11
-132.5150210771
 21
80.2161620493
  0
LWPOLYLINE
  5
40B
100
AcDbEntity
  8
RACCORDO
100
AcDbPolyline
 62
253
  6
CONTINUOUS
 90
11
 70
0
 10
-132.5150210771
 20
80.2161620493
 10
-132.5076922069
 20
80.2682745836
 10
-132.5044138564
 20
80.2907030255
 10
-132.5013954276
 20
80.3106334149
 10
-132.4986530721
 20
80.3280167082
 10
-132.4961949362
 20
80.3428075328
 10
-132.494022576
 20
80.3549685407
 10
-132.4921427808
 20
80.3644704898
 10
-132.4905618419
 20
80.3712883803
 10
-132.4892856536
 20
80.3754033232
 10
-132.4883209539
 20
80.3768043754
  0
LINE
  5
40C
100
AcDbEntity
  8
RACCORDO
100
AcDbLine
 62
253
  6
CONTINUOUS
 10
-132.507683228
 20
-80.2683380415
 11
-132.5150122542
 21
-80.216228183
  0
LINE
  5
40D
100
AcDbEntity
  8
RACCORDO
100
AcDbLine
 62
253
  6
CONTINUOUS
 10
-132.5150122542
 20
-80.216228183
 11
-132.5277529877
 21
-80.1209211985
  0
LINE
  5
40E
100
AcDbEntity
  8
RACCORDO
100
AcDbLine
 62
253
  6
CONTINUOUS
 10
-132.5277529877
 20
-80.1209211985
 11
-132.5423186193
 21
-80.0069908962
  0
LINE
  5
40F
100
AcDbEntity
  8
RACCORDO
100
AcDbLine
 62
253
  6
CONTINUOUS
 10
-132.5423186193
 20
-80.0069908962
 11
-132.5639416181
 21
-79.8307510543
  0
LINE
  5
410
100
AcDbEntity
  8
RACCORDO
100
AcDbLine
 62
253
  6
CONTINUOUS
 10
-132.5639416181
 20
-79.8307510543
 11
-132.5931431062
 21
-79.5822397089
  0
LWPOLYLINE
  5
411
100
AcDbEntity
  8
RACCORDO
100
AcDbPolyline
 62
253
  6
CONTINUOUS
 90
3
 70
0
 10
-132.5931431062
 20
-79.5822397089
 10
-132.6109711052
 20
-79.4246007462
 10
-132.6169324043
 20
-79.3714346001
  0
LINE
  5
412
100
AcDbEntity
  8
RACCORDO
100
AcDbLine
 62
7
  6
CONTINUOUS
 10
-135.9078306981
 20
-35.4999987744
 11
-135.9078306981
 21
35.4999987743
  0
LINE
  5
413
100
AcDbEntity
  8
RACCORDO
100
AcDbLine
 62
253
  6
CONTINUOUS
 10
-135.623531485
 20
-35.5
 11
-135.623531485
 21
35.5
  0
LWPOLYLINE
  5
414
100
AcDbEntity
  8
RACCORDO
100
AcDbPolyline
 62
253
  6
CONTINUOUS
 90
19
 70
0
 10
-135.623531485
 20
35.5
 10
-135.6217712639
 20
36.758003996
 10
-135.616492989
 20
38.0159384074
 10
-135.6076966603
 20
39.2738032343
 10
-135.5953819819
 20
40.5316017903
 10
-135.5795492497
 20
41.7893307617
 10
-135.560199351
 20
43.046980208
 10
-135.5373324236
 20
44.3045500944
 10
-135.5109483298
 20
45.5620404557
 10
-135.481047544
 20
46.8194414547
 10
-135.4476302038
 20
48.0767530947
 10
-135.4106961717
 20
49.3339753725
 10
-135.3702455099
 20
50.5910984411
 10
-135.3262783539
 20
51.8481223445
 10
-135.2787945681
 20
53.1050470388
 10
-135.227793808
 20
54.3618625448
 10
-135.1732759586
 20
55.6185655361
 10
-135.1152411349
 20
56.8751593393
 10
-135.0536893367
 20
58.1316439541
  0
LINE
  5
415
100
AcDbEntity
  8
RACCORDO
100
AcDbLine
 62
7
  6
CONTINUOUS
 10
-130.1376084017
 20
-80.5
 11
-130.1376084017
 21
80.5
  0
LINE
  5
416
100
AcDbEntity
  8
DRAFT
100
AcDbLine
 62
7
  6
CONTINUOUS
 10
-129.3376084017
 20
39.0
 11
-129.3376084017
 21
32.0
  0
LINE
  5
417
100
AcDbEntity
  8
DRAFT
100
AcDbLine
 62
7
  6
CONTINUOUS
 10
-129.3376084017
 20
-32.0
 11
-129.3376084017
 21
-39.0
  0
LINE
  5
418
100
AcDbEntity
  8
RACCORDO
100
AcDbLine
 62
7
  6
CONTINUOUS
 10
-127.3376084017
 20
78.9999999692
 11
-127.3376084017
 21
78.5970755193
  0
LINE
  5
419
100
AcDbEntity
  8
DRAFT
100
AcDbLine
 62
7
  6
CONTINUOUS
 10
-127.3376084017
 20
78.5970755193
 11
-127.3376084017
 21
39.3526539614
  0
LINE
  5
41A
100
AcDbEntity
  8
DRAFT
100
AcDbLine
 62
7
  6
CONTINUOUS
 10
-127.3376084017
 20
31.6473460386
 11
-127.3376084017
 21
-31.6473460386
  0
LINE
  5
41B
100
AcDbEntity
  8
DRAFT
100
AcDbLine
 62
7
  6
CONTINUOUS
 10
-127.3376084017
 20
-39.3526539614
 11
-127.3376084017
 21
-78.5970746585
  0
LINE
  5
41C
100
AcDbEntity
  8
RACCORDO
100
AcDbLine
 62
7
  6
CONTINUOUS
 10
-127.3376084017
 20
-78.5970746585
 11
-127.3376084017
 21
-79.000000027
  0
LINE
  5
41D
100
AcDbEntity
  8
DRAFT
100
AcDbLine
 62
7
  6
CONTINUOUS
 10
-127.3376084017
 20
31.6473460386
 11
-129.3376084017
 21
32.0
  0
LINE
  5
41E
100
AcDbEntity
  8
DRAFT
100
AcDbLine
 62
7
  6
CONTINUOUS
 10
-127.3376084017
 20
39.3526539614
 11
-129.3376084017
 21
39.0
  0
LINE
  5
41F
100
AcDbEntity
  8
RACCORDO
100
AcDbLine
 62
253
  6
CONTINUOUS
 10
-135.9078306981
 20
35.5
 11
-135.623531485
 21
35.5
  0
LINE
  5
420
100
AcDbEntity
  8
RACCORDO
100
AcDbLine
 62
253
  6
CONTINUOUS
 10
-135.300058054
 20
58.1444655188
 11
-135.0536893367
 21
58.1316439541
  0
LINE
  5
421
100
AcDbEntity
  8
RACCORDO
100
AcDbLine
 62
253
  6
CONTINUOUS
 10
-135.3251739282
 20
58.1458892435
 11
-135.300058054
 21
58.1444655188
  0
LWPOLYLINE
  5
422
100
AcDbEntity
  8
RACCORDO
100
AcDbPolyline
 62
253
  6
CONTINUOUS
 90
4
 70
0
 10
-135.3376083855
 20
58.1467417812
 10
-135.3368282946
 20
58.1466452354
 10
-135.3344863449
 20
58.1464702868
 10
-135.3251739282
 20
58.1458892435
  0
LWPOLYLINE
  5
423
100
AcDbEntity
  8
RACCORDO
100
AcDbPolyline
 62
253
  6
CONTINUOUS
 90
13
 70
0
 10
-127.3376084865
 20
-78.5970754281
 10
-127.44941637
 20
-78.6691942201
 10
-127.5620429668
 20
-78.7379540496
 10
-127.6753447228
 20
-78.8033549164
 10
-127.789001396
 20
-78.865270091
 10
-127.9030545095
 20
-78.9238263029
 10
-128.0179336471
 20
-78.9794037414
 10
-128.1337041139
 20
-79.0321002841
 10
-128.250099486
 20
-79.0818180533
 10
-128.3670807663
 20
-79.1286436043
 10
-128.4845729306
 20
-79.172605789
 10
-128.6024626465
 20
-79.2136757555
 10
-128.7206587005
 20
-79.2518535039
  0
LWPOLYLINE
  5
424
100
AcDbEntity
  8
RACCORDO
100
AcDbPolyline
 62
253
  6
CONTINUOUS
 90
6
 70
0
 10
-132.8964858584
 20
-79.424584313
 10
-132.8957491933
 20
-79.424247135
 10
-132.8934717132
 20
-79.42363366
 10
-132.8896653331
 20
-79.4227470974
 10
-132.8843499666
 20
-79.4215920854
 10
-132.8775534219
 20
-79.4201746666
  0
LWPOLYLINE
  5
425
100
AcDbEntity
  8
RACCORDO
100
AcDbPolyline
 62
253
  6
CONTINUOUS
 90
8
 70
0
 10
-132.8964859043
 20
79.4245843212
 10
-132.8957490928
 20
79.424247119
 10
-132.8934714802
 20
79.4236336223
 10
-132.8896649823
 20
79.4227470407
 10
-132.884349513
 20
79.4215920123
 10
-132.8775528809
 20
79.4201745799
 10
-132.8693106433
 20
79.4185021589
 10
-132.8486691697
 20
79.4144286372
  0
LWPOLYLINE
  5
426
100
AcDbEntity
  8
RACCORDO
100
AcDbPolyline
 62
253
  6
CONTINUOUS
 90
13
 70
0
 10
-128.7206587005
 20
-79.2518535039
 10
-128.8354170308
 20
-79.286177513
 10
-128.9505184773
 20
-79.3179725073
 10
-129.0658902274
 20
-79.3472384866
 10
-129.1811648127
 20
-79.3739216369
 10
-129.2965647828
 20
-79.3980757723
 10
-129.4129184443
 20
-79.4198623351
 10
-129.530180086
 20
-79.4393536704
 10
-129.6482825552
 20
-79.456477433
 10
-129.7680436346
 20
-79.4711780299
 10
-129.8897031427
 20
-79.4834369299
 10
-130.0129120951
 20
-79.4932726642
 10
-130.1376084023
 20
-79.5006852327
  0
LINE
  5
427
100
AcDbEntity
  8
RACCORDO
100
AcDbLine
 62
253
  6
CONTINUOUS
 10
-132.6169324043
 20
79.3714346001
 11
-130.1376084017
 21
79.5013704652
  0
LINE
  5
428
100
AcDbEntity
  8
RACCORDO
100
AcDbLine
 62
7
  6
CONTINUOUS
 10
-132.4883209539
 20
80.3768043754
 11
-130.1376084017
 21
80.5
  0
LWPOLYLINE
  5
429
100
AcDbEntity
  8
RACCORDO
100
AcDbPolyline
 62
253
  6
CONTINUOUS
 90
13
 70
0
 10
-130.1376083815
 20
79.500685231
 10
-130.0191165742
 20
79.4938373706
 10
-129.9007978944
 20
79.4845458431
 10
-129.7827145516
 20
79.4728106484
 10
-129.6651644754
 20
79.4586801296
 10
-129.5479723098
 20
79.4421059437
 10
-129.430497819
 20
79.4229430614
 10
-129.3126518265
 20
79.4011976021
 10
-129.1946700221
 20
79.3768634465
 10
-129.0764137177
 20
79.3497772073
 10
-128.9578940462
 20
79.319884422
 10
-128.8392681089
 20
79.2872395531
 10
-128.7206239123
 20
79.2518426005
  0
LINE
  5
42A
100
AcDbEntity
  8
RACCORDO
100
AcDbLine
 62
253
  6
CONTINUOUS
 10
-132.7394758807
 20
79.3938175175
 11
-132.6169322661
 21
79.3714346002
  0
LINE
  5
42B
100
AcDbEntity
  8
RACCORDO
100
AcDbLine
 62
253
  6
CONTINUOUS
 10
-132.8081755826
 20
79.4066653962
 11
-132.7394758807
 21
79.3938175175
  0
LINE
  5
42C
100
AcDbEntity
  8
RACCORDO
100
AcDbLine
 62
253
  6
CONTINUOUS
 10
-132.8486691697
 20
79.4144286372
 11
-132.8081755826
 21
79.4066653962
  0
LWPOLYLINE
  5
42D
100
AcDbEntity
  8
RACCORDO
100
AcDbPolyline
 62
253
  6
CONTINUOUS
 90
13
 70
0
 10
-128.7206239123
 20
79.2518426005
 10
-128.6049448488
 20
79.2145294074
 10
-128.4893407433
 20
79.1743413881
 10
-128.3739034425
 20
79.1312785425
 10
-128.2589507174
 20
79.0854882014
 10
-128.1443518055
 20
79.036823034
 10
-128.029552878
 20
78.9848410486
 10
-127.9146826038
 20
78.929592567
 10
-127.7998745702
 20
78.8710272674
 10
-127.6846414436
 20
78.8085521931
 10
-127.5689541469
 20
78.7419696916
 10
-127.4532112385
 20
78.6714774153
 10
-127.3376083846
 20
78.5970753641
  0
ARC
  5
42E
100
AcDbEntity
  8
RACCORDO
100
AcDbCircle
 62
7
  6
CONTINUOUS
 10
78.25
 20
7.0
 40
0.4
100
AcDbArc
 50
0.0
 51
90.0
  0
ARC
  5
42F
100
AcDbEntity
  8
RACCORDO
100
AcDbCircle
 62
7
  6
CONTINUOUS
 10
78.25
 20
-7.0
 40
0.4
100
AcDbArc
 50
270.0
 51
360.0
  0
ARC
  5
430
100
AcDbEntity
  8
RACCORDO
100
AcDbCircle
 62
7
  6
CONTINUOUS
 10
-78.25
 20
7.0
 40
0.4
100
AcDbArc
 50
90.0
 51
180.0
  0
ARC
  5
431
100
AcDbEntity
  8
RACCORDO
100
AcDbCircle
 62
7
  6
CONTINUOUS
 10
-78.25
 20
-7.0
 40
0.4
100
AcDbArc
 50
180.0
 51
270.0
  0
ARC
  5
432
100
AcDbEntity
  8
RACCORDO
100
AcDbCircle
 62
7
  6
CONTINUOUS
 10
-78.232495013
 20
-7.0
 40
0.4
100
AcDbArc
 50
180.0
 51
270.0
  0
ARC
  5
433
100
AcDbEntity
  8
RACCORDO
100
AcDbCircle
 62
7
  6
CONTINUOUS
 10
-78.232495013
 20
7.0
 40
0.4
100
AcDbArc
 50
90.0
 51
180.0
  0
ARC
  5
434
100
AcDbEntity
  8
RACCORDO
100
AcDbCircle
 62
7
  6
CONTINUOUS
 10
78.232495013
 20
7.0
 40
0.4
100
AcDbArc
 50
0.0
 51
90.0
  0
ARC
  5
435
100
AcDbEntity
  8
RACCORDO
100
AcDbCircle
 62
7
  6
CONTINUOUS
 10
78.232495013
 20
-7.0
 40
0.4
100
AcDbArc
 50
270.0
 51
360.0
  0
ARC
  5
436
100
AcDbEntity
  8
RACCORDO
100
AcDbCircle
 62
253
  6
CONTINUOUS
 10
-78.232495013
 20
-7.0
 40
0.2999991323
100
AcDbArc
 50
180.0
 51
270.0
  0
ARC
  5
437
100
AcDbEntity
  8
RACCORDO
100
AcDbCircle
 62
253
  6
CONTINUOUS
 10
-78.232495013
 20
7.0
 40
0.2999991323
100
AcDbArc
 50
90.0
 51
180.0
  0
ARC
  5
438
100
AcDbEntity
  8
RACCORDO
100
AcDbCircle
 62
253
  6
CONTINUOUS
 10
78.232495013
 20
7.0
 40
0.2999991323
100
AcDbArc
 50
0.0
 51
90.0
  0
ARC
  5
439
100
AcDbEntity
  8
RACCORDO
100
AcDbCircle
 62
253
  6
CONTINUOUS
 10
78.232495013
 20
-7.0
 40
0.2999991323
100
AcDbArc
 50
270.0
 51
360.0
  0
ARC
  5
43A
100
AcDbEntity
  8
RACCORDO
100
AcDbCircle
 62
7
  6
CONTINUOUS
 10
314.0921693019
 20
35.5
 40
450.0
100
AcDbArc
 50
177.1153135756
 51
180.0000001561
  0
ARC
  5
43B
100
AcDbEntity
  8
RACCORDO
100
AcDbCircle
 62
7
  6
CONTINUOUS
 10
314.0921693019
 20
-35.5
 40
450.0
100
AcDbArc
 50
179.9999998439
 51
182.884686443
  0
ARC
  5
43C
100
AcDbEntity
  8
RACCORDO
100
AcDbCircle
 62
7
  6
CONTINUOUS
 10
32.2036841876
 20
49.7043452624
 40
167.7538636857
100
AcDbArc
 50
169.5498179999
 51
177.1153217423
  0
ARC
  5
43D
100
AcDbEntity
  8
RACCORDO
100
AcDbCircle
 62
7
  6
CONTINUOUS
 10
32.2036841876
 20
-49.7043452624
 40
167.7538636857
100
AcDbArc
 50
182.8846783076
 51
190.4501820001
  0
ARC
  5
43E
100
AcDbEntity
  8
0
100
AcDbCircle
 62
7
  6
CONTINUOUS
 10
32.2036841876
 20
-49.7043452624
 40
167.7538636857
100
AcDbArc
 50
184.5136158819
 51
185.0180834319
  0
ARC
  5
43F
100
AcDbEntity
  8
0
100
AcDbCircle
 62
7
  6
CONTINUOUS
 10
32.2036841876
 20
-49.7043452624
 40
167.7538636857
100
AcDbArc
 50
184.0700349653
 51
184.5093988387
  0
ARC
  5
440
100
AcDbEntity
  8
RACCORDO
100
AcDbCircle
 62
7
  6
CONTINUOUS
 10
-130.4090882181
 20
-74.8198565139
 40
5.1872524353
100
AcDbArc
 50
272.9999999966
 51
306.3076476121
  0
ARC
  5
441
100
AcDbEntity
  8
RACCORDO
100
AcDbCircle
 62
7
  6
CONTINUOUS
 10
-130.4090882181
 20
74.8198565139
 40
5.1872524353
100
AcDbArc
 50
53.6923513102
 51
86.9999997767
  0
ARC
  5
442
100
AcDbEntity
  8
RACCORDO
100
AcDbCircle
 62
7
  6
CONTINUOUS
 10
-132.472620614
 20
-80.0772131538
 40
0.3
100
AcDbArc
 50
190.450640958
 51
267.0001088592
  0
ARC
  5
443
100
AcDbEntity
  8
RACCORDO
100
AcDbCircle
 62
7
  6
CONTINUOUS
 10
-132.472620167
 20
80.077215515
 40
0.3
100
AcDbArc
 50
93.0
 51
169.5498179999
  0
ELLIPSE
  5
444
100
AcDbEntity
  8
RACCORDO
100
AcDbEllipse
 62
7
  6
CONTINUOUS
 10
-103.998627654
 20
-79.498627654
 30
0.0
 11
0.7090462434
 21
0.7090462434
 31
0.0
 40
0.9972646886
 41
2.3575640181
 42
3.9256212891
  0
ELLIPSE
  5
445
100
AcDbEntity
  8
RACCORDO
100
AcDbEllipse
 62
7
  6
CONTINUOUS
 10
103.998627654
 20
-79.498627654
 30
0.0
 11
0.7090462434
 21
-0.7090462434
 31
0.0
 40
0.9972646886
 41
-0.7840286355
 42
0.7840286355
  0
ELLIPSE
  5
446
100
AcDbEntity
  8
RACCORDO
100
AcDbEllipse
 62
7
  6
CONTINUOUS
 10
103.998627654
 20
79.498627654
 30
0.0
 11
0.7090462434
 21
0.7090462434
 31
0.0
 40
0.9972646886
 41
-0.7840286355
 42
0.7840286355
  0
ELLIPSE
  5
447
100
AcDbEntity
  8
RACCORDO
100
AcDbEllipse
 62
7
  6
CONTINUOUS
 10
-103.998627654
 20
79.498627654
 30
0.0
 11
0.7090462434
 21
-0.7090462434
 31
0.0
 40
0.9972646886
 41
2.3575640181
 42
3.9256212891
  0
ELLIPSE
  5
448
100
AcDbEntity
  8
0
100
AcDbEllipse
 62
7
  6
CONTINUOUS
 10
78.0489021232
 20
13.8010978768
 30
0.0
 11
-0.5672369947
 21
0.5672369947
 31
0.0
 40
0.9972646886
 41
-3.9256212891
 42
-2.3575640181
  0
ELLIPSE
  5
449
100
AcDbEntity
  8
0
100
AcDbEllipse
 62
7
  6
CONTINUOUS
 10
78.0489021232
 20
57.1989021232
 30
0.0
 11
0.5672369947
 21
0.5672369947
 31
0.0
 40
0.9972646886
 41
-0.7840286355
 42
0.7840286355
  0
ELLIPSE
  5
44A
100
AcDbEntity
  8
0
100
AcDbEllipse
 62
7
  6
CONTINUOUS
 10
-78.0489021232
 20
57.1989021232
 30
0.0
 11
-0.5672369948
 21
0.5672369947
 31
0.0
 40
0.9972646886
 41
-0.7840286355
 42
0.7840286355
  0
ELLIPSE
  5
44B
100
AcDbEntity
  8
0
100
AcDbEllipse
 62
7
  6
CONTINUOUS
 10
-78.0489021232
 20
13.8010978768
 30
0.0
 11
0.5672369947
 21
0.5672369947
 31
0.0
 40
0.9972646886
 41
2.3575640181
 42
3.9256212891
  0
ELLIPSE
  5
44C
100
AcDbEntity
  8
0
100
AcDbEllipse
 62
7
  6
CONTINUOUS
 10
78.0489021232
 20
-57.1989021232
 30
0.0
 11
-0.5672369947
 21
0.5672369947
 31
0.0
 40
0.9972646886
 41
-3.9256212891
 42
-2.3575640181
  0
ELLIPSE
  5
44D
100
AcDbEntity
  8
0
100
AcDbEllipse
 62
7
  6
CONTINUOUS
 10
78.0489021232
 20
-13.8010978768
 30
0.0
 11
0.5672369947
 21
0.5672369947
 31
0.0
 40
0.9972646886
 41
-0.7840286355
 42
0.7840286355
  0
ELLIPSE
  5
44E
100
AcDbEntity
  8
0
100
AcDbEllipse
 62
7
  6
CONTINUOUS
 10
-78.0489021232
 20
-13.8010978768
 30
0.0
 11
0.5672369947
 21
-0.5672369947
 31
0.0
 40
0.9972646886
 41
2.3575640181
 42
3.9256212891
  0
ELLIPSE
  5
44F
100
AcDbEntity
  8
0
100
AcDbEllipse
 62
7
  6
CONTINUOUS
 10
-78.0489021232
 20
-57.1989021232
 30
0.0
 11
0.5672369947
 21
0.5672369947
 31
0.0
 40
0.9972646886
 41
-3.9256212891
 42
-2.3575640181
  0
ELLIPSE
  5
450
100
AcDbEntity
  8
0
100
AcDbEllipse
 62
7
  6
CONTINUOUS
 10
-78.249923836
 20
6.999923836
 30
0.0
 11
0.3536610946
 21
-0.3536610946
 31
0.0
 40
0.9996954599
 41
8.6395320906
 42
10.2100238309
  0
ELLIPSE
  5
451
100
AcDbEntity
  8
0
100
AcDbEllipse
 62
7
  6
CONTINUOUS
 10
-78.249923836
 20
-6.999923836
 30
0.0
 11
-0.3536610946
 21
-0.3536610946
 31
0.0
 40
0.9996954599
 41
5.497939437
 42
7.0684311773
  0
ELLIPSE
  5
452
100
AcDbEntity
  8
0
100
AcDbEllipse
 62
7
  6
CONTINUOUS
 10
78.249923836
 20
-6.999923836
 30
0.0
 11
-0.3536610946
 21
0.3536610946
 31
0.0
 40
0.9996954599
 41
8.6395320906
 42
10.2100238309
  0
ELLIPSE
  5
453
100
AcDbEntity
  8
0
100
AcDbEllipse
 62
7
  6
CONTINUOUS
 10
78.249923836
 20
6.999923836
 30
0.0
 11
0.3536610946
 21
0.3536610946
 31
0.0
 40
0.9996954599
 41
5.497939437
 42
7.0684311773
  0
ENDSEC
  0
SECTION
  2
OBJECTS
  0
DICTIONARY
  5
C
100
AcDbDictionary
280
0
281
1
  3
ACAD_GROUP
350
D
  3
ACAD_MLINESTYLE
350
17
  3
ACAD_LAYOUT
350
1A
  3
ACAD_PLOTSETTINGS
350
19
  3
ACAD_PLOTSTYLENAME
350
E
  0
DICTIONARY
  5
D
102
{ACAD_REACTORS
330
C
102
}
100
AcDbDictionary
280
0
281
1
  0
ACDBDICTIONARYWDFLT
  5
E
102
{ACAD_REACTORS
330
C
102
}
100
AcDbDictionary
281
1
  3
Normal
350
F
100
AcDbDictionaryWithDefault
340
F
  0
DICTIONARY
  5
17
102
{ACAD_REACTORS
330
C
102
}
100
AcDbDictionary
280
0
281
1
  3
Standard
350
18
  0
DICTIONARY
  5
19
102
{ACAD_REACTORS
330
C
102
}
100
AcDbDictionary
281
1
  0
DICTIONARY
  5
1A
102
{ACAD_REACTORS
330
C
102
}
100
AcDbDictionary
281
1
  3
Model
350
454
  3
Layout1
350
455
  0
ACDBPLACEHOLDER
  5
F
102
{ACAD_REACTORS
330
E
102
}
  0
MLINESTYLE
  5
18
102
{ACAD_REACTORS
330
17
102
}
100
AcDbMlineStyle
  2
STANDARD
 70
0
  3

 62
256
 51
90.0
 52
90.0
 71
2
 49
0.5
 62
256
  6
BYLAYER
 49
-0.5
 62
256
  6
BYLAYER
  0
LAYOUT
  5
454
102
{ACAD_REACTORS
330
1A
102
}
100
AcDbPlotSettings
  1

  2
none_device
  4
ISO_A4_(297.00_x_210.00_MM)
  6

 40
0.0
 41
0.0
 42
0.0
 43
0.0
 44
297.0
 45
210.0
 46
0.0
 47
0.0
 48
0.0
 49
0.0
140
0.0
141
0.0
142
1.0
143
1.0
 70
1024
 72
1
 73
0
 74
0
  7

 75
0
147
1.0
148
0.0
149
0.0
100
AcDbLayout
  1
Model
 70
0
 71
0
 10
0.0
 20
0.0
 11
297.0
 21
210.0
 12
0.0
 22
0.0
 32
0.0
 14
0.0
 24
0.0
 34
0.0
 15
0.0
 25
0.0
 35
0.0
146
0.0
 13
0.0
 23
0.0
 33
0.0
 16
1.0
 26
0.0
 36
0.0
 17
0.0
 27
1.0
 37
0.0
 76
0
330
214
345
0
346
0
  0
LAYOUT
  5
455
102
{ACAD_REACTORS
330
1A
102
}
100
AcDbPlotSettings
  1

  2
none_device
  4
ISO_A4_(297.00_x_210.00_MM)
  6

 40
0.0
 41
0.0
 42
0.0
 43
0.0
 44
297.0
 45
210.0
 46
0.0
 47
0.0
 48
0.0
 49
0.0
140
0.0
141
0.0
142
1.0
143
1.0
 70
0
 72
1
 73
0
 74
0
  7

 75
0
147
1.0
148
0.0
149
0.0
100
AcDbLayout
  1
Layout1
 70
0
 71
1
 10
0.0
 20
0.0
 11
297.0
 21
210.0
 12
0.0
 22
0.0
 32
0.0
 14
0.0
 24
0.0
 34
0.0
 15
0.0
 25
0.0
 35
0.0
146
0.0
 13
0.0
 23
0.0
 33
0.0
 16
1.0
 26
0.0
 36
0.0
 17
0.0
 27
1.0
 37
0.0
 76
0
330
215
345
0
346
0
  0
ENDSEC
  0
EOF
