  0
SECTION
  2
HEADER
  9
$ACADVER
  1
AC1021
  9
$DWGCODEPAGE
  3
ANSI_1252
  9
$EXTMAX
 10
297.0
 20
210.0
 30
0.0
  9
$EXTMIN
 10
0.0
 20
0.0
 30
0.0
  9
$LIMMIN
 10
0.0
 20
0.0
  9
$LIMMAX
 10
297.0
 20
210.0
  9
$VIEWCTR
 10
148.5
 20
105.0
  9
$VIEWSIZE
 40
210.0
  9
$CLAYER
  8
0
  9
$LTSCALE
 40
16.335
  9
$CELTYPE
  6
BYLAYER
  9
$DIMSCALE
 40
1.0
  9
$DIMASZ
 40
3.0
  9
$DIMEXO
 40
1.85625
  9
$DIMDLI
 40
11.286
  9
$DIMEXE
 40
5.346
  9
$DIMCEN
 40
2.673
  9
$DIMLFAC
 40
1.0
  9
$DIMBLK
  1
_FILLED
  9
$DIMTXT
 40
3.0
  9
$DIMTOL
 70
1
  9
$DIMLIM
 70
0
  9
$DIMTFAC
 40
1.0
  9
$DIMTP
 40
0.01
  9
$DIMTM
 40
0.01
  9
$PDMODE
 70
3
  9
$PDSIZE
 40
3.0
  9
$HANDSEED
  5
52B
  9
$TILEMODE
 70
1
  9
$MEASUREMENT
 70
1
  9
$INSUNITS
 70
4
  0
ENDSEC
  0
SECTION
  2
CLASSES
  0
CLASS
  1
ACDBDICTIONARYWDFLT
  2
AcDbDictionaryWithDefault
  3
AutoCAD 2000
 90
0
 91
1
280
0
281
0
  0
CLASS
  1
ACDBPLACEHOLDER
  2
AcDbPlaceHolder
  3
AutoCAD 2000
 90
0
 91
1
280
0
281
0
  0
CLASS
  1
LAYOUT
  2
AcDbLayout
  3
AutoCAD 2000
 90
0
 91
0
280
0
281
0
  0
ENDSEC
  0
SECTION
  2
TABLES
  0
TABLE
  2
VPORT
  5
8
100
AcDbSymbolTable
 70
2
  0
VPORT
  5
1F4
100
AcDbSymbolTableRecord
100
AcDbViewportTableRecord
  2
*ACTIVE
 70
0
 10
0.0
 20
0.0
 11
1.0
 21
1.0
 12
148.5
 22
105.0
 13
0.0
 23
0.0
 14
1.0
 24
1.0
 15
0.0
 25
0.0
 16
0.0
 26
0.0
 36
1.0
 17
0.0
 27
0.0
 37
0.0
 40
210.0
 41
1.4142857143
 42
50.0
 43
0.0
 44
0.0
 50
0.0
 51
0.0
 71
0
 72
100
 73
1
 74
1
 75
0
 76
0
 77
0
 78
0
  0
ENDTAB
  0
TABLE
  2
LTYPE
  5
5
100
AcDbSymbolTable
 70
6
  0
LTYPE
  5
14
100
AcDbSymbolTableRecord
100
AcDbLinetypeTableRecord
  2
BYBLOCK
 70
0
  3

 72
65
 73
0
 40
0.0
  0
LTYPE
  5
15
100
AcDbSymbolTableRecord
100
AcDbLinetypeTableRecord
  2
BYLAYER
 70
0
  3

 72
65
 73
0
 40
0.0
  0
LTYPE
  5
16
100
AcDbSymbolTableRecord
100
AcDbLinetypeTableRecord
  2
CONTINUOUS
 70
64
  3
Solid line
 72
65
 73
0
 40
0.0
  0
LTYPE
  5
1F5
100
AcDbSymbolTableRecord
100
AcDbLinetypeTableRecord
  2
CENTER
 70
64
  3
____ _ ____ _ ____ _ ____ _ ____ _ ____ _ ____
 72
65
 73
4
 40
0.6
 49
0.375
 74
0
 49
-0.075
 74
0
 49
0.075
 74
0
 49
-0.075
 74
0
  0
LTYPE
  5
1F6
100
AcDbSymbolTableRecord
100
AcDbLinetypeTableRecord
  2
HIDDEN
 70
64
  3
- - - - - - - - - - - - - - - - - - - -
 72
65
 73
2
 40
0.2
 49
0.1
 74
0
 49
-0.1
 74
0
  0
LTYPE
  5
1F7
100
AcDbSymbolTableRecord
100
AcDbLinetypeTableRecord
  2
PHANTOM
 70
64
  3
_____ _ _ _____ _ _ _____ _ _ _____
 72
65
 73
6
 40
0.8
 49
0.45
 74
0
 49
-0.05
 74
0
 49
0.1
 74
0
 49
-0.05
 74
0
 49
0.1
 74
0
 49
-0.05
 74
0
  0
LTYPE
  5
1F8
100
AcDbSymbolTableRecord
100
AcDbLinetypeTableRecord
  2
DOT
 70
64
  3
. . . . . . . . . . . . . . . . . . . .
 72
65
 73
2
 40
0.2
 49
0.1
 74
0
 49
-0.1
 74
0
  0
LTYPE
  5
1F9
100
AcDbSymbolTableRecord
100
AcDbLinetypeTableRecord
  2
DASHED
 70
64
  3
- - - - - - - - - - - - - - - - - - - -
 72
65
 73
2
 40
0.2
 49
0.1
 74
0
 49
-0.1
 74
0
  0
ENDTAB
  0
TABLE
  2
LAYER
  5
2
100
AcDbSymbolTable
 70
36
  0
LAYER
  5
10
100
AcDbSymbolTableRecord
100
AcDbLayerTableRecord
  2
0
 70
0
 62
7
  6
CONTINUOUS
370
-3
390
F
  0
LAYER
  5
1FA
100
AcDbSymbolTableRecord
100
AcDbLayerTableRecord
  2
DEFAULT_1
 70
0
 62
7
  6
CENTER
370
-3
390
F
  0
LAYER
  5
1FB
100
AcDbSymbolTableRecord
100
AcDbLayerTableRecord
  2
DEFAULT_2
 70
0
 62
7
  6
HIDDEN
370
-3
390
F
  0
LAYER
  5
1FC
100
AcDbSymbolTableRecord
100
AcDbLayerTableRecord
  2
DEFAULT_3
 70
0
 62
7
  6
PHANTOM
370
-3
390
F
  0
LAYER
  5
1FD
100
AcDbSymbolTableRecord
100
AcDbLayerTableRecord
  2
ASSI
 70
0
 62
7
  6
CONTINUOUS
370
-3
390
F
  0
LAYER
  5
1FE
100
AcDbSymbolTableRecord
100
AcDbLayerTableRecord
  2
COORDINATE
 70
0
 62
7
  6
CONTINUOUS
370
-3
390
F
  0
LAYER
  5
1FF
100
AcDbSymbolTableRecord
100
AcDbLayerTableRecord
  2
COORD_ORIGINE
 70
0
 62
7
  6
CONTINUOUS
370
-3
390
F
  0
LAYER
  5
200
100
AcDbSymbolTableRecord
100
AcDbLayerTableRecord
  2
COPY_PUBLISH
 70
0
 62
7
  6
CONTINUOUS
370
-3
390
F
  0
LAYER
  5
201
100
AcDbSymbolTableRecord
100
AcDbLayerTableRecord
  2
COSMETIC
 70
0
 62
7
  6
CONTINUOUS
370
-3
390
F
  0
LAYER
  5
202
100
AcDbSymbolTableRecord
100
AcDbLayerTableRecord
  2
COSMETICI
 70
0
 62
7
  6
CONTINUOUS
370
-3
390
F
  0
LAYER
  5
203
100
AcDbSymbolTableRecord
100
AcDbLayerTableRecord
  2
CURVE
 70
0
 62
7
  6
CONTINUOUS
370
-3
390
F
  0
LAYER
  5
204
100
AcDbSymbolTableRecord
100
AcDbLayerTableRecord
  2
DRAFT
 70
0
 62
7
  6
CONTINUOUS
370
-3
390
F
  0
LAYER
  5
205
100
AcDbSymbolTableRecord
100
AcDbLayerTableRecord
  2
IMPORT_IGES
 70
0
 62
7
  6
CONTINUOUS
370
-3
390
F
  0
LAYER
  5
206
100
AcDbSymbolTableRecord
100
AcDbLayerTableRecord
  2
INTFCLR_1
 70
0
 62
7
  6
CONTINUOUS
370
-3
390
F
  0
LAYER
  5
207
100
AcDbSymbolTableRecord
100
AcDbLayerTableRecord
  2
NOTE
 70
0
 62
7
  6
CONTINUOUS
370
-3
390
F
  0
LAYER
  5
208
100
AcDbSymbolTableRecord
100
AcDbLayerTableRecord
  2
PIANI
 70
0
 62
7
  6
CONTINUOUS
370
-3
390
F
  0
LAYER
  5
209
100
AcDbSymbolTableRecord
100
AcDbLayerTableRecord
  2
PIANI_ORIGINE
 70
0
 62
7
  6
CONTINUOUS
370
-3
390
F
  0
LAYER
  5
20A
100
AcDbSymbolTableRecord
100
AcDbLayerTableRecord
  2
PUNTI
 70
0
 62
7
  6
CONTINUOUS
370
-3
390
F
  0
LAYER
  5
20B
100
AcDbSymbolTableRecord
100
AcDbLayerTableRecord
  2
RACCORDO
 70
0
 62
7
  6
CONTINUOUS
370
-3
390
F
  0
LAYER
  5
20C
100
AcDbSymbolTableRecord
100
AcDbLayerTableRecord
  2
SIMBOLI
 70
0
 62
7
  6
CONTINUOUS
370
-3
390
F
  0
LAYER
  5
20D
100
AcDbSymbolTableRecord
100
AcDbLayerTableRecord
  2
SMUSSO
 70
0
 62
7
  6
CONTINUOUS
370
-3
390
F
  0
LAYER
  5
20E
100
AcDbSymbolTableRecord
100
AcDbLayerTableRecord
  2
SUPERFICI
 70
0
 62
7
  6
CONTINUOUS
370
-3
390
F
  0
LAYER
  5
20F
100
AcDbSymbolTableRecord
100
AcDbLayerTableRecord
  2
TRASH
 70
0
 62
7
  6
CONTINUOUS
370
-3
390
F
  0
LAYER
  5
210
100
AcDbSymbolTableRecord
100
AcDbLayerTableRecord
  2
XSEC_DATUMS
 70
0
 62
7
  6
CONTINUOUS
370
-3
390
F
  0
ENDTAB
  0
TABLE
  2
STYLE
  5
3
100
AcDbSymbolTable
 70
1
  0
STYLE
  5
11
100
AcDbSymbolTableRecord
100
AcDbTextStyleTableRecord
  2
STANDARD
 70
0
 40
0.0
 41
0.8
 50
0.0
 71
0
 42
0.2
  3
txt
  4

  0
STYLE
  5
211
100
AcDbSymbolTableRecord
100
AcDbTextStyleTableRecord
  2
TEXTSTYLE_1
 70
0
 40
0.0
 41
0.8
 50
0.0
 71
0
 42
0.2
  3
gdt
  4

  0
ENDTAB
  0
TABLE
  2
VIEW
  5
6
100
AcDbSymbolTable
 70
0
  0
ENDTAB
  0
TABLE
  2
UCS
  5
7
100
AcDbSymbolTable
 70
0
  0
ENDTAB
  0
TABLE
  2
APPID
  5
9
100
AcDbSymbolTable
 70
1
  0
APPID
  5
212
100
AcDbSymbolTableRecord
100
AcDbRegAppTableRecord
  2
ACAD
 70
0
  0
ENDTAB
  0
TABLE
  2
BLOCK_RECORD
  5
1
100
AcDbSymbolTable
 70
0
  0
BLOCK_RECORD
  5
213
100
AcDbSymbolTableRecord
100
AcDbBlockTableRecord
  2
*Model_Space
  0
BLOCK_RECORD
  5
214
100
AcDbSymbolTableRecord
100
AcDbBlockTableRecord
  2
*Paper_Space
  0
BLOCK_RECORD
  5
215
100
AcDbSymbolTableRecord
100
AcDbBlockTableRecord
  2
_FILLED
  0
BLOCK_RECORD
  5
216
100
AcDbSymbolTableRecord
100
AcDbBlockTableRecord
  2
*D0
  0
BLOCK_RECORD
  5
217
100
AcDbSymbolTableRecord
100
AcDbBlockTableRecord
  2
*D1
  0
BLOCK_RECORD
  5
218
100
AcDbSymbolTableRecord
100
AcDbBlockTableRecord
  2
*D2
  0
ENDTAB
  0
TABLE
  2
DIMSTYLE
  5
A
100
AcDbSymbolTable
 70
1
100
AcDbDimStyleTable
 71
0
  0
DIMSTYLE
105
219
100
AcDbSymbolTableRecord
100
AcDbDimStyleTableRecord
  2
STANDARD
 70
0
  3

  4

 40
1.0
 41
3.0
 42
0.0625
 43
0.38
 44
0.18
 45
0.0
 46
0.0
 47
0.01
 48
0.01
140
3.0
141
0.09
142
0.0
143
25.4
144
1.0
145
0.0
146
1.0
147
0.09
 71
1.0
 72
0.0
 73
0
 74
0
 75
0
 76
0
 77
1
 78
8
170
0
171
2
172
0
173
0
174
0
175
0
176
0
177
0
178
0
270
2
271
2
272
2
273
2
274
2
275
0
280
0
281
0
282
0
283
1
284
8
285
0
286
0
287
3
288
0
340
11
341
215
342
215
343
215
344
215
  0
DIMSTYLE
105
21A
100
AcDbSymbolTableRecord
100
AcDbDimStyleTableRecord
  2
DIMSTYLE_1
 70
0
  3

  4

 40
1.0
 41
3.0
 42
0.0625
 43
0.38
 44
0.18
 45
0.0
 46
0.0
 47
0.0
 48
0.0
140
3.0
141
0.09
142
0.0
143
25.4
144
1.0
145
0.0
146
1.0
147
0.09
 71
0.0
 72
0.0
 73
0
 74
0
 75
0
 76
0
 77
1
 78
8
170
0
171
2
172
0
173
0
174
0
175
0
176
0
177
0
178
0
270
2
271
2
272
2
273
2
274
2
275
0
280
0
281
0
282
0
283
1
284
8
285
0
286
0
287
3
288
0
340
11
341
215
342
215
343
215
344
215
  0
DIMSTYLE
105
21B
100
AcDbSymbolTableRecord
100
AcDbDimStyleTableRecord
  2
DIMSTYLE_2
 70
0
  3

  4

 40
1.0
 41
3.0
 42
0.0625
 43
0.38
 44
0.18
 45
0.0
 46
0.0
 47
0.0
 48
0.0
140
3.0
141
0.09
142
0.0
143
25.4
144
1.0
145
0.0
146
1.0
147
0.09
 71
0.0
 72
0.0
 73
0
 74
0
 75
0
 76
0
 77
1
 78
8
170
0
171
2
172
0
173
0
174
0
175
0
176
0
177
0
178
0
270
2
271
1
272
1
273
2
274
2
275
0
280
0
281
0
282
0
283
1
284
8
285
0
286
0
287
3
288
0
340
11
341
215
342
215
343
215
344
215
  0
ENDTAB
  0
ENDSEC
  0
SECTION
  2
BLOCKS
  0
BLOCK
  5
20
100
AcDbEntity
  8
0
100
AcDbBlockBegin
  2
*Model_Space
 70
0
 10
0.0
 20
0.0
 30
0.0
  3
*Model_Space
  1

  0
ENDBLK
  5
21
100
AcDbEntity
  8
0
100
AcDbBlockEnd
  0
BLOCK
  5
1C
100
AcDbEntity
  8
0
100
AcDbBlockBegin
  2
*Paper_Space
 70
0
 10
0.0
 20
0.0
 30
0.0
  3
*Paper_Space
  1

  0
ENDBLK
  5
1D
100
AcDbEntity
  8
0
100
AcDbBlockEnd
  0
BLOCK
  5
21C
100
AcDbEntity
  8
0
100
AcDbBlockBegin
  2
_FILLED
 70
64
 10
0.0
 20
0.0
  3
_FILLED
  1

  0
SOLID
  5
21D
100
AcDbEntity
  8
0
  6
BYBLOCK
 62
0
100
AcDbTrace
 10
0.0
 20
0.0
 11
-1.0
 21
0.3166666667
 12
-1.0
 22
-0.3166666667
 13
-1.0
 23
-0.3166666667
  0
ENDBLK
  5
21E
100
AcDbEntity
  8
0
  6
BYBLOCK
 62
0
100
AcDbBlockEnd
  0
BLOCK
  5
21F
100
AcDbEntity
  8
0
100
AcDbBlockBegin
 62
7
  6
CONTINUOUS
  2
*D0
 70
65
 10
0.0
 20
0.0
  3
*D0
  1

  0
MTEXT
  5
220
100
AcDbEntity
  8
0
100
AcDbMText
 62
7
  6
CONTINUOUS
  7
STANDARD
 71
2
 72
1
 10
0.0
 20
130.4993383328
 30
0.0
 11
1.0
 21
0.0
 31
0.0
 44
0.9
  1
210
 40
3.0
 41
6.4285714286
  0
LINE
  5
221
100
AcDbEntity
  8
0
100
AcDbLine
 62
7
  6
CONTINUOUS
 10
-105.0
 20
115.5013704652
 11
-105.0
 21
128.2493383328
  0
LINE
  5
222
100
AcDbEntity
  8
0
100
AcDbLine
 62
7
  6
CONTINUOUS
 10
105.0
 20
115.5013704652
 11
105.0
 21
128.2493383328
  0
LINE
  5
223
100
AcDbEntity
  8
0
100
AcDbLine
 62
7
  6
CONTINUOUS
 10
-105.0
 20
126.7493383328
 11
0.0
 21
126.7493383328
  0
LINE
  5
224
100
AcDbEntity
  8
0
100
AcDbLine
 62
7
  6
CONTINUOUS
 10
105.0
 20
126.7493383328
 11
0.0
 21
126.7493383328
  0
INSERT
  5
225
100
AcDbEntity
  8
0
100
AcDbBlockReference
 62
7
  6
CONTINUOUS
  2
_FILLED
 10
-105.0
 20
126.7493383328
 41
3.0
 42
3.0
 43
3.0
 50
180.0
  0
INSERT
  5
226
100
AcDbEntity
  8
0
100
AcDbBlockReference
 62
7
  6
CONTINUOUS
  2
_FILLED
 10
105.0
 20
126.7493383328
 41
3.0
 42
3.0
 43
3.0
  0
ENDBLK
  5
227
100
AcDbEntity
  8
0
  6
BYBLOCK
 62
0
100
AcDbBlockEnd
  0
BLOCK
  5
228
100
AcDbEntity
  8
0
100
AcDbBlockBegin
 62
7
  6
CONTINUOUS
  2
*D1
 70
65
 10
0.0
 20
0.0
  3
*D1
  1

  0
MTEXT
  5
229
100
AcDbEntity
  8
0
100
AcDbMText
 62
7
  6
CONTINUOUS
  7
STANDARD
 71
2
 72
1
 10
117.8852601714
 20
0.0
 30
0.0
 11
0.0
 21
1.0
 31
0.0
 44
0.9
  1
232
 40
3.0
 41
6.8571428571
  0
LINE
  5
22A
100
AcDbEntity
  8
0
100
AcDbLine
 62
7
  6
CONTINUOUS
 10
104.5013704652
 20
116.0
 11
123.1352601714
 21
116.0
  0
LINE
  5
22B
100
AcDbEntity
  8
0
100
AcDbLine
 62
7
  6
CONTINUOUS
 10
104.5013704652
 20
-116.0
 11
123.1352601714
 21
-116.0
  0
LINE
  5
22C
100
AcDbEntity
  8
0
100
AcDbLine
 62
7
  6
CONTINUOUS
 10
121.6352601714
 20
116.0
 11
121.6352601714
 21
0.0
  0
LINE
  5
22D
100
AcDbEntity
  8
0
100
AcDbLine
 62
7
  6
CONTINUOUS
 10
121.6352601714
 20
-116.0
 11
121.6352601714
 21
0.0
  0
INSERT
  5
22E
100
AcDbEntity
  8
0
100
AcDbBlockReference
 62
7
  6
CONTINUOUS
  2
_FILLED
 10
121.6352601714
 20
116.0
 41
3.0
 42
3.0
 43
3.0
 50
90.0
  0
INSERT
  5
22F
100
AcDbEntity
  8
0
100
AcDbBlockReference
 62
7
  6
CONTINUOUS
  2
_FILLED
 10
121.6352601714
 20
-116.0
 41
3.0
 42
3.0
 43
3.0
 50
270.0
  0
ENDBLK
  5
230
100
AcDbEntity
  8
0
  6
BYBLOCK
 62
0
100
AcDbBlockEnd
  0
BLOCK
  5
231
100
AcDbEntity
  8
0
100
AcDbBlockBegin
 62
7
  6
CONTINUOUS
  2
*D2
 70
65
 10
0.0
 20
0.0
  3
*D2
  1

  0
MTEXT
  5
232
100
AcDbEntity
  8
0
100
AcDbMText
 62
7
  6
CONTINUOUS
  7
STANDARD
 71
3
 72
1
 10
-152.1868876396
 20
130.6442785366
 30
0.0
 11
1.0
 21
0.0
 31
0.0
 44
0.9
  1
8,6
 40
3.0
 41
6.4285714286
  0
LINE
  5
233
100
AcDbEntity
  8
0
100
AcDbLine
 62
7
  6
CONTINUOUS
 10
-138.6437049014
 20
114.5970753678
 11
-138.6437048975
 21
128.3942785327
  0
LINE
  5
234
100
AcDbEntity
  8
0
100
AcDbLine
 62
7
  6
CONTINUOUS
 10
-147.2139272091
 20
71.5
 11
-147.2139271928
 21
128.3942785351
  0
LINE
  5
235
100
AcDbEntity
  8
0
100
AcDbLine
 62
7
  6
CONTINUOUS
 10
-138.6437048979
 20
126.8942785327
 11
-142.9288160456
 21
126.8942785339
  0
LINE
  5
236
100
AcDbEntity
  8
0
100
AcDbLine
 62
7
  6
CONTINUOUS
 10
-147.2139271932
 20
126.8942785351
 11
-142.9288160456
 21
126.8942785339
  0
LINE
  5
237
100
AcDbEntity
  8
0
100
AcDbLine
 62
7
  6
CONTINUOUS
 10
-142.9288160456
 20
126.8942785339
 11
-158.6154590681
 21
126.8942785366
  0
INSERT
  5
238
100
AcDbEntity
  8
0
100
AcDbBlockReference
 62
7
  6
CONTINUOUS
  2
_FILLED
 10
-138.6437048979
 20
126.8942785327
 41
3.0
 42
3.0
 43
3.0
 50
359.9999999835
  0
INSERT
  5
239
100
AcDbEntity
  8
0
100
AcDbBlockReference
 62
7
  6
CONTINUOUS
  2
_FILLED
 10
-147.2139271932
 20
126.8942785351
 41
3.0
 42
3.0
 43
3.0
 50
179.9999999835
  0
ENDBLK
  5
23A
100
AcDbEntity
  8
0
  6
BYBLOCK
 62
0
100
AcDbBlockEnd
  0
ENDSEC
  0
SECTION
  2
ENTITIES
  0
DIMENSION
  5
23B
100
AcDbEntity
  8
0
100
AcDbDimension
 62
7
  6
CONTINUOUS
  2
*D0
 10
105.0
 20
126.7493383328
 11
-3.2142857143
 21
128.9993383328
 70
160
 71
2
 42
210.0
  3
DIMSTYLE_1
100
AcDbAlignedDimension
 13
-105.0
 23
115.5013704652
 14
105.0
 24
115.5013704652
100
AcDbRotatedDimension
  0
DIMENSION
  5
23C
100
AcDbEntity
  8
0
100
AcDbDimension
 62
7
  6
CONTINUOUS
  2
*D1
 10
121.6352601714
 20
-116.0
 11
120.9215125696
 21
-3.0651314181
 70
160
 71
2
 42
232.0
  3
DIMSTYLE_1
100
AcDbAlignedDimension
 13
104.5013704652
 23
116.0
 14
104.5013704652
 24
-116.0
 50
270.0
100
AcDbRotatedDimension
  0
DIMENSION
  5
23D
100
AcDbEntity
  8
0
100
AcDbDimension
 62
7
  6
CONTINUOUS
  2
*D2
 10
-147.2139271932
 20
126.8942785351
 11
-161.8297447824
 21
129.1442785366
 70
160
 71
3
 42
8.5702222953
  3
DIMSTYLE_2
100
AcDbAlignedDimension
 13
-138.6437049014
 23
114.5970753678
 14
-147.2139272091
 24
71.5
 50
179.9999999835
100
AcDbRotatedDimension
  0
LWPOLYLINE
  5
23E
100
AcDbEntity
  8
RACCORDO
100
AcDbPolyline
 62
253
  6
CONTINUOUS
 90
16
 70
0
 10
-79.196980215
 20
93.646741782
 10
-79.2311789067
 20
93.6011537683
 10
-79.2633393006
 20
93.5540032027
 10
-79.2934613965
 20
93.5052900612
 10
-79.3216597541
 20
93.4548371442
 10
-79.3478198137
 20
93.4028215988
 10
-79.3715978971
 20
93.3497749279
 10
-79.3929333488
 20
93.2956705129
 10
-79.4118868243
 20
93.2405349371
 10
-79.4282966113
 20
93.1849795268
 10
-79.4420973592
 20
93.1290106821
 10
-79.4533544186
 20
93.0726219893
 10
-79.4621021284
 20
93.0164055756
 10
-79.4683519348
 20
92.9605588244
 10
-79.4720923916
 20
92.9048843629
 10
-79.4733234988
 20
92.8493821949
  0
LWPOLYLINE
  5
23F
100
AcDbEntity
  8
RACCORDO
100
AcDbPolyline
 62
253
  6
CONTINUOUS
 90
16
 70
0
 10
-78.8037074152
 20
93.3149988125
 10
-78.8247143384
 20
93.2870512767
 10
-78.844571262
 20
93.2580603741
 10
-78.8632201474
 20
93.2280688198
 10
-78.8806302634
 20
93.1970743675
 10
-78.8967158687
 20
93.1651725418
 10
-78.9113583423
 20
93.1325675695
 10
-78.9245277008
 20
93.0993196608
 10
-78.9361938438
 20
93.0654987238
 10
-78.9462845462
 20
93.0313431946
 10
-78.954797963
 20
92.9969368655
 10
-78.9617414246
 20
92.9623429483
 10
-78.9671031848
 20
92.927778882
 10
-78.9709085958
 20
92.8933658337
 10
-78.9731986801
 20
92.8591244305
 10
-78.9740086896
 20
92.8251203721
  0
LWPOLYLINE
  5
240
100
AcDbEntity
  8
RACCORDO
100
AcDbPolyline
 62
253
  6
CONTINUOUS
 90
31
 70
0
 10
103.8781748407
 20
-115.8768043754
 10
103.9300633794
 20
-115.8754057976
 10
103.9817973721
 20
-115.8712974012
 10
104.033237539
 20
-115.864489022
 10
104.0842407131
 20
-115.8549986546
 10
104.1346738041
 20
-115.8428500648
 10
104.1844136212
 20
-115.8280704255
 10
104.2333299353
 20
-115.8106939214
 10
104.2812840515
 20
-115.7907656453
 10
104.3281425884
 20
-115.7683380415
 10
104.3737718284
 20
-115.7434715431
 10
104.4180520963
 20
-115.716228183
 10
104.4608745776
 20
-115.6866712719
 10
104.5021210044
 20
-115.6548746668
 10
104.5416740624
 20
-115.6209211985
 10
104.5794300426
 20
-115.5848940411
 10
104.6152821789
 20
-115.5468839139
 10
104.6491255113
 20
-115.5069908962
 10
104.6808649968
 20
-115.4653195812
 10
104.7104070652
 20
-115.4219789661
 10
104.7376642889
 20
-115.3770830522
 10
104.7625586724
 20
-115.3307510543
 10
104.7850198577
 20
-115.283092555
 10
104.8049710988
 20
-115.2342475387
 10
104.8223399572
 20
-115.1843893087
 10
104.8370686348
 20
-115.1336830939
 10
104.8491249632
 20
-115.0822397089
 10
104.8584842663
 20
-115.030155227
 10
104.8651136774
 20
-114.9775560951
 10
104.8689805239
 20
-114.9246007462
 10
104.8700641349
 20
-114.8714346001
  0
LWPOLYLINE
  5
241
100
AcDbEntity
  8
RACCORDO
100
AcDbPolyline
 62
253
  6
CONTINUOUS
 90
31
 70
0
 10
103.8781748407
 20
-115.6316296735
 10
103.9146529722
 20
-115.6306597302
 10
103.9508319703
 20
-115.6278034482
 10
103.9867118348
 20
-115.6230608093
 10
104.0223884154
 20
-115.6164111066
 10
104.0577658624
 20
-115.6078749747
 10
104.0925566275
 20
-115.5975143919
 10
104.1267568879
 20
-115.585314063
 10
104.1603704663
 20
-115.5712891449
 10
104.1931212822
 20
-115.5555472846
 10
104.2249996843
 20
-115.5380766368
 10
104.2560153239
 20
-115.5188888558
 10
104.2859210743
 20
-115.4981268372
 10
104.3147107791
 20
-115.4757777339
 10
104.3423905947
 20
-115.4518541665
 10
104.3687318644
 20
-115.4265372441
 10
104.3937261188
 20
-115.3998140448
 10
104.4173818273
 20
-115.3716972495
 10
104.4394957418
 20
-115.3424063973
 10
104.4600562017
 20
-115.3119310221
 10
104.4790748675
 20
-115.2802813584
 10
104.496383473
 20
-115.2477080355
 10
104.5119701923
 20
-115.2141922068
 10
104.5258468514
 20
-115.1797525184
 10
104.5378806623
 20
-115.1446958968
 10
104.5480511722
 20
-115.1090293237
 10
104.556378834
 20
-115.0727456776
 10
104.5627922181
 20
-115.0361307981
 10
104.5672675146
 20
-114.9992799549
 10
104.5698285334
 20
-114.96209781
 10
104.5704752745
 20
-114.9245843251
  0
LWPOLYLINE
  5
242
100
AcDbEntity
  8
RACCORDO
100
AcDbPolyline
 62
253
  6
CONTINUOUS
 90
22
 70
0
 10
104.5704752745
 20
-114.924584313
 10
104.5921592014
 20
-114.924247135
 10
104.6137296854
 20
-114.92363366
 10
104.6350738773
 20
-114.9227470974
 10
104.6560801115
 20
-114.9215920854
 10
104.6766384907
 20
-114.9201746666
 10
104.6966414605
 20
-114.9185022565
 10
104.7159843721
 20
-114.9165836045
 10
104.7345660303
 20
-114.9144287484
 10
104.752289222
 20
-114.9120489616
 10
104.7690612257
 20
-114.9094566944
 10
104.784794296
 20
-114.9066655087
 10
104.799406123
 20
-114.9036900068
 10
104.8128202624
 20
-114.9005457557
 10
104.8249665363
 20
-114.897249205
 10
104.8357813994
 20
-114.893817601
 10
104.8452082721
 20
-114.8902688969
 10
104.8531978363
 20
-114.8866216581
 10
104.8597082933
 20
-114.8828949658
 10
104.8647055826
 20
-114.8791083167
 10
104.8681635601
 20
-114.8752815214
 10
104.8700641349
 20
-114.8714346001
  0
LINE
  5
243
100
AcDbEntity
  8
RACCORDO
100
AcDbLine
 62
7
  6
CONTINUOUS
 10
-104.0013704652
 20
-116.0
 11
104.0013704652
 21
-116.0
  0
LINE
  5
244
100
AcDbEntity
  8
RACCORDO
100
AcDbLine
 62
253
  6
CONTINUOUS
 10
-103.8781748407
 20
-115.8768043754
 11
103.8781748407
 21
-115.8768043754
  0
LINE
  5
245
100
AcDbEntity
  8
RACCORDO
100
AcDbLine
 62
253
  6
CONTINUOUS
 10
-103.8781748407
 20
-115.6316296735
 11
103.8781748407
 21
-115.6316296735
  0
LWPOLYLINE
  5
246
100
AcDbEntity
  8
RACCORDO
100
AcDbPolyline
 62
253
  6
CONTINUOUS
 90
22
 70
0
 10
-104.5704752745
 20
-114.9245843212
 10
-104.5921590664
 20
-114.924247119
 10
-104.6137294059
 20
-114.9236336223
 10
-104.6350734455
 20
-114.9227470407
 10
-104.6560795213
 20
-114.9215920123
 10
-104.6766377378
 20
-114.9201745799
 10
-104.6966405423
 20
-114.9185021589
 10
-104.715983288
 20
-114.9165834988
 10
-104.7345647812
 20
-114.9144286372
 10
-104.7522878107
 20
-114.9120488476
 10
-104.7690596565
 20
-114.90945658
 10
-104.7847925748
 20
-114.9066653962
 10
-104.7994042572
 20
-114.9036898986
 10
-104.8128182609
 20
-114.9005456539
 10
-104.8249644093
 20
-114.8972491114
 10
-104.8357791582
 20
-114.8938175175
 10
-104.8452059292
 20
-114.8902688249
 10
-104.853195405
 20
-114.8866215989
 10
-104.8597057879
 20
-114.8828949205
 10
-104.864703018
 20
-114.8791082861
 10
-104.8681609518
 20
-114.8752815059
 10
-104.8700614987
 20
-114.8714346002
  0
LWPOLYLINE
  5
247
100
AcDbEntity
  8
RACCORDO
100
AcDbPolyline
 62
253
  6
CONTINUOUS
 90
22
 70
0
 10
-78.8037074152
 20
-93.3149988125
 10
-78.7818245356
 20
-93.3416150107
 10
-78.7587830581
 20
-93.3672928802
 10
-78.7346220726
 20
-93.3919812583
 10
-78.7093834274
 20
-93.4156296571
 10
-78.6831103715
 20
-93.4381911328
 10
-78.6558472193
 20
-93.4596220783
 10
-78.6276349263
 20
-93.4798825487
 10
-78.5985296319
 20
-93.4989248009
 10
-78.5686028135
 20
-93.5166985389
 10
-78.5379026382
 20
-93.5331713182
 10
-78.5064922956
 20
-93.5483055668
 10
-78.4744722638
 20
-93.5620544035
 10
-78.4418957769
 20
-93.5743976101
 10
-78.4088333873
 20
-93.5853110847
 10
-78.3754182152
 20
-93.5947602136
 10
-78.3417259103
 20
-93.6027369963
 10
-78.3078123373
 20
-93.6092414029
 10
-78.2737843538
 20
-93.6142691534
 10
-78.239720909
 20
-93.6178274416
 10
-78.2056718031
 20
-93.6199290569
 10
-78.171699433
 20
-93.6205874838
  0
LWPOLYLINE
  5
248
100
AcDbEntity
  8
RACCORDO
100
AcDbPolyline
 62
253
  6
CONTINUOUS
 90
22
 70
0
 10
-79.196980215
 20
-93.646741782
 10
-79.1613862482
 20
-93.6902956453
 10
-79.1240399372
 20
-93.73216759
 10
-79.0849412821
 20
-93.7723576773
 10
-79.0440149221
 20
-93.8109423972
 10
-79.0013362178
 20
-93.847845375
 10
-78.9571312519
 20
-93.8828373795
 10
-78.9113803453
 20
-93.9159120909
 10
-78.8641031769
 20
-93.9470759471
 10
-78.8155848665
 20
-93.976118863
 10
-78.7658026256
 20
-94.0030271995
 10
-78.7147792428
 20
-94.0278147056
 10
-78.6628682037
 20
-94.0503123822
 10
-78.6100467103
 20
-94.0704971539
 10
-78.5563375606
 20
-94.0883921883
 10
-78.5021626341
 20
-94.1038978495
 10
-78.44753262
 20
-94.1169810309
 10
-78.3924368291
 20
-94.1276749042
 10
-78.3372650734
 20
-94.1359792457
 10
-78.2821472902
 20
-94.1418939916
 10
-78.2269535423
 20
-94.1454192381
 10
-78.1716838297
 20
-94.1465549932
  0
LWPOLYLINE
  5
249
100
AcDbEntity
  8
RACCORDO
100
AcDbPolyline
 62
253
  6
CONTINUOUS
 90
31
 70
0
 10
-104.8700641349
 20
-114.8714346001
 10
-104.8689837283
 20
-114.9245325727
 10
-104.8651242605
 20
-114.9774498659
 10
-104.8585017163
 20
-115.0300410074
 10
-104.8491405993
 20
-115.0821640913
 10
-104.8370709871
 20
-115.1336741479
 10
-104.82232903
 20
-115.1844236819
 10
-104.8049594955
 20
-115.2342783947
 10
-104.785016971
 20
-115.2830992478
 10
-104.7625658091
 20
-115.3307369647
 10
-104.7376776484
 20
-115.3770597475
 10
-104.71042623
 20
-115.421949258
 10
-104.6808909992
 20
-115.4652835748
 10
-104.6491601876
 20
-115.506947831
 10
-104.6153267021
 20
-115.5468342004
 10
-104.5794851669
 20
-115.5848386398
 10
-104.5417404732
 20
-115.620861123
 10
-104.502199302
 20
-115.6548109864
 10
-104.4609647796
 20
-115.6866054676
 10
-104.4181535382
 20
-115.7161620493
 10
-104.3738842197
 20
-115.7434064129
 10
-104.3282666925
 20
-115.7682745836
 10
-104.2814242431
 20
-115.7907030255
 10
-104.2334870704
 20
-115.8106334149
 10
-104.1845783761
 20
-115.8280167082
 10
-104.134831921
 20
-115.8428075328
 10
-104.0843817991
 20
-115.8549685407
 10
-104.033353931
 20
-115.8644704898
 10
-103.9818824058
 20
-115.8712883803
 10
-103.9301095385
 20
-115.8754033232
 10
-103.8781748407
 20
-115.8768043754
  0
LWPOLYLINE
  5
24A
100
AcDbEntity
  8
RACCORDO
100
AcDbPolyline
 62
253
  6
CONTINUOUS
 90
31
 70
0
 10
-104.5704752745
 20
-114.9245843251
 10
-104.5698318164
 20
-114.9620887008
 10
-104.5672705353
 20
-114.9992725536
 10
-104.5627914313
 20
-115.0361359206
 10
-104.556368329
 20
-115.07278297
 10
-104.5480274037
 20
-115.1091095985
 10
-104.5378471816
 20
-115.1448034728
 10
-104.5258106905
 20
-115.1798570592
 10
-104.5119349025
 20
-115.214278036
 10
-104.4963492603
 20
-115.2477769567
 10
-104.4790405749
 20
-115.2803416129
 10
-104.4600220353
 20
-115.3119844126
 10
-104.439462652
 20
-115.3424528897
 10
-104.4173511099
 20
-115.3717360143
 10
-104.3936987241
 20
-115.3998450478
 10
-104.36870845
 20
-115.4265610015
 10
-104.3423718963
 20
-115.4518712641
 10
-104.3146974544
 20
-115.4757886875
 10
-104.2859132542
 20
-115.4981325034
 10
-104.2560127627
 20
-115.5188903341
 10
-104.2250025129
 20
-115.5380747835
 10
-104.1931302347
 20
-115.5555425671
 10
-104.160388918
 20
-115.5712814066
 10
-104.1267855729
 20
-115.5853037711
 10
-104.0925889591
 20
-115.5975034963
 10
-104.0577891562
 20
-115.6078670078
 10
-104.0223960846
 20
-115.616408018
 10
-103.9867082652
 20
-115.6230612831
 10
-103.9508252049
 20
-115.6278050799
 10
-103.9146473967
 20
-115.630661204
 10
-103.8781748407
 20
-115.6316296735
  0
LWPOLYLINE
  5
24B
100
AcDbEntity
  8
RACCORDO
100
AcDbPolyline
 62
253
  6
CONTINUOUS
 90
9
 70
0
 10
-104.8700641349
 20
114.8714346001
 10
-104.8488583148
 20
112.5282633806
 10
-104.8294044228
 20
110.1805292018
 10
-104.8117024588
 20
107.8282320636
 10
-104.7957495359
 20
105.4708898601
 10
-104.781548541
 20
103.1089846973
 10
-104.7691081354
 20
100.7439628935
 10
-104.7584312061
 20
98.3763065547
 10
-104.7495148661
 20
96.0055335749
  0
LWPOLYLINE
  5
24C
100
AcDbEntity
  8
RACCORDO
100
AcDbPolyline
 62
253
  6
CONTINUOUS
 90
9
 70
0
 10
-104.5704752745
 20
114.9245843251
 10
-104.549269062
 20
112.5779525961
 10
-104.5298149288
 20
110.2258205098
 10
-104.5121128747
 20
107.8686621565
 10
-104.4961600887
 20
105.5069570096
 10
-104.4819593819
 20
103.1411766856
 10
-104.4695191875
 20
100.7717847757
 10
-104.4588423168
 20
98.3992543264
 10
-104.4499259585
 20
96.0240678139
  0
LINE
  5
24D
100
AcDbEntity
  8
RACCORDO
100
AcDbLine
 62
253
  6
CONTINUOUS
 10
-104.7495148661
 20
96.0055335749
 11
-104.7332346867
 21
89.8618625447
  0
LINE
  5
24E
100
AcDbEntity
  8
RACCORDO
100
AcDbLine
 62
253
  6
CONTINUOUS
 10
-104.4499259585
 20
96.0240678139
 11
-104.4336458221
 21
89.8744436233
  0
LINE
  5
24F
100
AcDbEntity
  8
RACCORDO
100
AcDbLine
 62
253
  6
CONTINUOUS
 10
-104.7332346867
 20
89.8618625447
 11
-104.72364918
 21
84.8339753724
  0
LINE
  5
250
100
AcDbEntity
  8
RACCORDO
100
AcDbLine
 62
253
  6
CONTINUOUS
 10
-104.4336458221
 20
89.8744436233
 11
-104.4240603184
 21
84.8432001813
  0
LINE
  5
251
100
AcDbEntity
  8
RACCORDO
100
AcDbLine
 62
253
  6
CONTINUOUS
 10
-104.72364918
 20
84.8339753724
 11
-104.7170124553
 21
79.8045500944
  0
LINE
  5
252
100
AcDbEntity
  8
RACCORDO
100
AcDbLine
 62
253
  6
CONTINUOUS
 10
-104.4240603184
 20
84.8432001813
 11
-104.4174235953
 21
79.8104274738
  0
LINE
  5
253
100
AcDbEntity
  8
RACCORDO
100
AcDbLine
 62
253
  6
CONTINUOUS
 10
-104.7170124553
 20
79.8045500944
 11
-104.7133248219
 21
74.7738032343
  0
LINE
  5
254
100
AcDbEntity
  8
RACCORDO
100
AcDbLine
 62
253
  6
CONTINUOUS
 10
-104.4174235953
 20
79.8104274738
 11
-104.4137359622
 21
74.7763224463
  0
LINE
  5
255
100
AcDbEntity
  8
RACCORDO
100
AcDbLine
 62
7
  6
CONTINUOUS
 10
-105.0
 20
-115.0013704652
 11
-105.0
 21
115.0013704652
  0
LINE
  5
256
100
AcDbEntity
  8
RACCORDO
100
AcDbLine
 62
253
  6
CONTINUOUS
 10
-103.8781748407
 20
-115.6316296735
 11
-103.8781748407
 21
-115.8768043754
  0
LINE
  5
257
100
AcDbEntity
  8
RACCORDO
100
AcDbLine
 62
253
  6
CONTINUOUS
 10
-103.8781748407
 20
115.6316296735
 11
-103.8781748408
 21
115.8768043754
  0
LINE
  5
258
100
AcDbEntity
  8
RACCORDO
100
AcDbLine
 62
253
  6
CONTINUOUS
 10
-104.7133248219
 20
74.7738032343
 11
-104.7125872032
 21
-72.258003996
  0
LINE
  5
259
100
AcDbEntity
  8
RACCORDO
100
AcDbLine
 62
253
  6
CONTINUOUS
 10
-104.4137359622
 20
74.7763224463
 11
-104.4129983429
 21
-72.2588269713
  0
LINE
  5
25A
100
AcDbEntity
  8
RACCORDO
100
AcDbLine
 62
253
  6
CONTINUOUS
 10
-104.7125872032
 20
-72.258003996
 11
-104.7147999652
 21
-77.2893307617
  0
LINE
  5
25B
100
AcDbEntity
  8
RACCORDO
100
AcDbLine
 62
253
  6
CONTINUOUS
 10
-104.4129983429
 20
-72.2588269713
 11
-104.4152111055
 21
-77.2935243826
  0
LINE
  5
25C
100
AcDbEntity
  8
RACCORDO
100
AcDbLine
 62
253
  6
CONTINUOUS
 10
-104.7147999652
 20
-77.2893307617
 11
-104.718395187
 21
-81.0620404557
  0
LINE
  5
25D
100
AcDbEntity
  8
RACCORDO
100
AcDbLine
 62
253
  6
CONTINUOUS
 10
-104.4152111055
 20
-77.2935243826
 11
-104.4188063268
 21
-81.0687498608
  0
LINE
  5
25E
100
AcDbEntity
  8
RACCORDO
100
AcDbLine
 62
253
  6
CONTINUOUS
 10
-104.718395187
 20
-81.0620404557
 11
-104.7257691094
 21
-86.0910984411
  0
LINE
  5
25F
100
AcDbEntity
  8
RACCORDO
100
AcDbLine
 62
253
  6
CONTINUOUS
 10
-104.4188063268
 20
-81.0687498608
 11
-104.4261802472
 21
-86.1011648792
  0
LINE
  5
260
100
AcDbEntity
  8
RACCORDO
100
AcDbLine
 62
253
  6
CONTINUOUS
 10
-104.7257691094
 20
-86.0910984411
 11
-104.7305618501
 21
-88.6050470388
  0
LINE
  5
261
100
AcDbEntity
  8
RACCORDO
100
AcDbLine
 62
253
  6
CONTINUOUS
 10
-104.4261802472
 20
-86.1011648792
 11
-104.4309729927
 21
-88.6167893026
  0
LINE
  5
262
100
AcDbEntity
  8
RACCORDO
100
AcDbLine
 62
253
  6
CONTINUOUS
 10
-104.7305618501
 20
-88.6050470388
 11
-104.7423591154
 21
-93.6316439541
  0
LINE
  5
263
100
AcDbEntity
  8
RACCORDO
100
AcDbLine
 62
253
  6
CONTINUOUS
 10
-104.4309729927
 20
-88.6167893026
 11
-104.4427701629
 21
-93.6467037078
  0
LWPOLYLINE
  5
264
100
AcDbEntity
  8
RACCORDO
100
AcDbPolyline
 62
253
  6
CONTINUOUS
 90
10
 70
0
 10
-104.4427701122
 20
-93.6467037078
 10
-104.4499259595
 20
-96.024067855
 10
-104.4588423183
 20
-98.3992544377
 10
-104.4695191885
 20
-100.7717848411
 10
-104.4819593805
 20
-103.1411764911
 10
-104.4961600839
 20
-105.5069564405
 10
-104.5121128681
 20
-107.8686613913
 10
-104.5298149228
 20
-110.2258198238
 10
-104.5492690583
 20
-112.5779521656
 10
-104.5704752745
 20
-114.9245843251
  0
LWPOLYLINE
  5
265
100
AcDbEntity
  8
RACCORDO
100
AcDbPolyline
 62
253
  6
CONTINUOUS
 90
10
 70
0
 10
-104.7423591154
 20
-93.6316439541
 10
-104.7495148787
 20
-96.0055369613
 10
-104.7584312346
 20
-98.3763131635
 10
-104.7691081833
 20
-100.743972561
 10
-104.7815486204
 20
-103.10899817
 10
-104.7957496502
 20
-105.4709069741
 10
-104.8117025853
 20
-107.8282499241
 10
-104.8294045299
 20
-110.1805440036
 10
-104.8488583798
 20
-112.5282722289
 10
-104.8700641349
 20
-114.8714346001
  0
LWPOLYLINE
  5
266
100
AcDbEntity
  8
0
100
AcDbPolyline
 62
253
  6
CONTINUOUS
 90
15
 70
0
 10
-78.7387107049
 20
42.72822273
 10
-78.7262942581
 20
42.754784621
 10
-78.7123868124
 20
42.7804947248
 10
-78.6970750276
 20
42.8052342646
 10
-78.6804033583
 20
42.828968791
 10
-78.662408998
 20
42.8516650136
 10
-78.6431718693
 20
42.8732362826
 10
-78.6227492504
 20
42.8936315527
 10
-78.6011294944
 20
42.9128588169
 10
-78.5783486182
 20
42.930865677
 10
-78.5545015648
 20
42.9475576344
 10
-78.5296581182
 20
42.9628704285
 10
-78.5038582604
 20
42.9767596689
 10
-78.4772196623
 20
42.9891429104
 10
-78.4499435503
 20
42.9999240111
  0
LINE
  5
267
100
AcDbEntity
  8
0
100
AcDbLine
 62
253
  6
CONTINUOUS
 10
-78.9722941958
 20
49.1765914652
 11
-78.85
 21
49.2989036278
  0
LINE
  5
268
100
AcDbEntity
  8
0
100
AcDbLine
 62
253
  6
CONTINUOUS
 10
-78.173405772
 20
48.3777065589
 11
-78.0510963722
 21
48.5
  0
LWPOLYLINE
  5
269
100
AcDbEntity
  8
0
100
AcDbPolyline
 62
7
  6
CONTINUOUS
 90
22
 70
0
 10
3.6000188023
 20
-97.110807341
 10
3.6894970407
 20
-97.0979198786
 10
3.7768236822
 20
-97.0864093965
 10
3.8619987268
 20
-97.0762759148
 10
3.9449883073
 20
-97.0674821687
 10
4.0258262908
 20
-97.060065456
 10
4.1046142794
 20
-97.0541376381
 10
4.1813923621
 20
-97.0497426786
 10
4.2561204498
 20
-97.0468366336
 10
4.328779877
 20
-97.0453995005
 10
4.3993218039
 20
-97.0454585786
 10
4.4677950703
 20
-97.0469865713
 10
4.5343275302
 20
-97.0498815782
 10
4.5989863031
 20
-97.0540808278
 10
4.6617042695
 20
-97.0596470796
 10
4.7224079252
 20
-97.0666667262
 10
4.7811443928
 20
-97.0751386987
 10
4.8378665498
 20
-97.0850640374
 10
4.8923595235
 20
-97.0965322926
 10
4.9445516899
 20
-97.1095732978
 10
4.994514673
 20
-97.124157171
 10
5.0422484729
 20
-97.1402838833
  0
LWPOLYLINE
  5
26A
100
AcDbEntity
  8
0
100
AcDbPolyline
 62
7
  6
CONTINUOUS
 90
31
 70
0
 10
4.4966806822
 20
-98.3236280866
 10
4.5258611006
 20
-98.3224658437
 10
4.5539083957
 20
-98.3204723081
 10
4.5808225676
 20
-98.3176474774
 10
4.6065231253
 20
-98.3139973886
 10
4.6310905598
 20
-98.3095159972
 10
4.6547663435
 20
-98.304185177
 10
4.6776189363
 20
-98.2980254071
 10
4.6995798783
 20
-98.2910161948
 10
4.7206852625
 20
-98.2830779549
 10
4.7409396099
 20
-98.2742504989
 10
4.7603383994
 20
-98.2644939937
 10
4.7789041612
 20
-98.2536093817
 10
4.7966648958
 20
-98.2415729638
 10
4.8135926026
 20
-98.2284084029
 10
4.8296258097
 20
-98.2139876762
 10
4.8447674469
 20
-98.1981990681
 10
4.8590145843
 20
-98.18115424
 10
4.8722969598
 20
-98.1630602345
 10
4.8846170527
 20
-98.1438747946
 10
4.8959723838
 20
-98.1236401226
 10
4.9062852532
 20
-98.1026899623
 10
4.9155363896
 20
-98.0810666141
 10
4.9237450644
 20
-98.058727737
 10
4.9308913914
 20
-98.0358801265
 10
4.9369971897
 20
-98.0125829931
 10
4.9420406404
 20
-97.9887770962
 10
4.9459364002
 20
-97.9644915611
 10
4.9486560217
 20
-97.9397360865
 10
4.9502279523
 20
-97.9145009429
 10
4.9506521922
 20
-97.8887861145
  0
LINE
  5
26B
100
AcDbEntity
  8
RACCORDO
100
AcDbLine
 62
253
  6
CONTINUOUS
 10
-79.1776586965
 20
-92.8439313794
 11
-79.2309100462
 21
-92.8457219372
  0
LWPOLYLINE
  5
26C
100
AcDbEntity
  8
RACCORDO
100
AcDbPolyline
 62
253
  6
CONTINUOUS
 90
16
 70
0
 10
104.5688821496
 20
-93.6450107831
 10
104.5882184433
 20
-93.6444655195
 10
104.6067945653
 20
-93.6438532451
 10
104.6245134291
 20
-93.6431771599
 10
104.6412824288
 20
-93.6424407975
 10
104.6570139226
 20
-93.6416480064
 10
104.6716256914
 20
-93.64080293
 10
104.6850413681
 20
-93.6399099851
 10
104.6971908368
 20
-93.6389738385
 10
104.7080105995
 20
-93.6379993829
 10
104.7174441077
 20
-93.6369917113
 10
104.725442058
 20
-93.6359560901
 10
104.7319626498
 20
-93.6348979319
 10
104.7369718039
 20
-93.6338227671
 10
104.7404433403
 20
-93.6327362149
 10
104.7423591154
 20
-93.6316439541
  0
LINE
  5
26D
100
AcDbEntity
  8
RACCORDO
100
AcDbLine
 62
253
  6
CONTINUOUS
 10
-79.2309100462
 20
-92.8457219372
 11
-79.2880379147
 21
-92.8471828012
  0
LWPOLYLINE
  5
26E
100
AcDbEntity
  8
RACCORDO
100
AcDbPolyline
 62
253
  6
CONTINUOUS
 90
22
 70
0
 10
78.1716838297
 20
-94.1465549932
 10
78.226917774
 20
-94.1454204798
 10
78.2820751349
 20
-94.1418998914
 10
78.3371559123
 20
-94.1359932199
 10
78.3922841948
 20
-94.127702526
 10
78.4473358938
 20
-94.1170257167
 10
78.5019387442
 20
-94.1039565449
 10
78.5561141252
 20
-94.0884594339
 10
78.6098406576
 20
-94.0705698952
 10
78.6626819378
 20
-94.0503883076
 10
78.7146111604
 20
-94.0278916
 10
78.7656551309
 20
-94.0031027514
 10
78.8154578624
 20
-93.9761912148
 10
78.8639965839
 20
-93.9471427055
 10
78.9112940664
 20
-93.9159713982
 10
78.9570626361
 20
-93.8828894391
 10
79.0012808948
 20
-93.8478917061
 10
79.0439702406
 20
-93.8109832033
 10
79.0849071935
 20
-93.7723912763
 10
79.1240172603
 20
-93.7321916714
 10
79.1613749341
 20
-93.6903085271
 10
79.196980215
 20
-93.646741782
  0
LINE
  5
26F
100
AcDbEntity
  8
RACCORDO
100
AcDbLine
 62
253
  6
CONTINUOUS
 10
104.5283367293
 20
-93.6458892442
 11
104.5688821496
 21
-93.6450107831
  0
LWPOLYLINE
  5
270
100
AcDbEntity
  8
RACCORDO
100
AcDbPolyline
 62
253
  6
CONTINUOUS
 90
22
 70
0
 10
78.1716963334
 20
-93.6205874786
 10
78.2056561766
 20
-93.6199296879
 10
78.2396896812
 20
-93.6178300307
 10
78.273734561
 20
-93.6142754233
 10
78.3077367551
 20
-93.6092542199
 10
78.3416219766
 20
-93.6027592425
 10
78.3752965866
 20
-93.5947917723
 10
78.4087115596
 20
-93.5853483765
 10
78.4417836893
 20
-93.5744373077
 10
78.4743713365
 20
-93.5620951564
 10
78.5064015706
 20
-93.5483468657
 10
78.5378233556
 20
-93.533211656
 10
78.568534962
 20
-93.5167368598
 10
78.5984732671
 20
-93.4989599475
 10
78.6275898739
 20
-93.4799134374
 10
78.6558118066
 20
-93.45964869
 10
78.6830820515
 20
-93.438214404
 10
78.7093607365
 20
-93.415650013
 10
78.7346049766
 20
-93.3919979862
 10
78.7587718848
 20
-93.3673048015
 10
78.7818190836
 20
-93.3416213562
 10
78.8037074152
 20
-93.3149988125
  0
LINE
  5
271
100
AcDbEntity
  8
RACCORDO
100
AcDbLine
 62
253
  6
CONTINUOUS
 10
-79.2880379147
 20
-92.8471828012
 11
-79.348128743
 21
-92.8482906102
  0
LINE
  5
272
100
AcDbEntity
  8
RACCORDO
100
AcDbLine
 62
253
  6
CONTINUOUS
 10
104.4860048248
 20
-93.6464702876
 11
104.5283367293
 21
-93.6458892442
  0
LINE
  5
273
100
AcDbEntity
  8
RACCORDO
100
AcDbLine
 62
253
  6
CONTINUOUS
 10
-79.348128743
 20
-92.8482906102
 11
-79.4102215898
 21
-92.8490276485
  0
LINE
  5
274
100
AcDbEntity
  8
RACCORDO
100
AcDbLine
 62
253
  6
CONTINUOUS
 10
104.442770255
 20
-93.646741782
 11
104.4860048248
 21
-93.6464702876
  0
LINE
  5
275
100
AcDbEntity
  8
RACCORDO
100
AcDbLine
 62
253
  6
CONTINUOUS
 10
-79.4102215898
 20
-92.8490276485
 11
-79.4733234988
 21
-92.8493821298
  0
LINE
  5
276
100
AcDbEntity
  8
0
100
AcDbLine
 62
7
  6
CONTINUOUS
 10
5.6391482119
 20
-99.8778013544
 11
5.0770156219
 21
-99.8778013544
  0
LINE
  5
277
100
AcDbEntity
  8
0
100
AcDbLine
 62
7
  6
CONTINUOUS
 10
4.1820753449
 20
-99.8778013544
 11
3.6000188023
 21
-99.8778013544
  0
LINE
  5
278
100
AcDbEntity
  8
0
100
AcDbLine
 62
7
  6
CONTINUOUS
 10
3.298408
 20
-99.877801
 11
2.682466
 21
-99.877801
  0
LINE
  5
279
100
AcDbEntity
  8
0
100
AcDbLine
 62
7
  6
CONTINUOUS
 10
1.573947
 20
-99.877801
 11
0.99588
 21
-99.877801
  0
LINE
  5
27A
100
AcDbEntity
  8
0
100
AcDbLine
 62
7
  6
CONTINUOUS
 10
0.694112
 20
-99.877801
 11
0.122406
 21
-99.877801
  0
LINE
  5
27B
100
AcDbEntity
  8
0
100
AcDbLine
 62
7
  6
CONTINUOUS
 10
-0.692524
 20
-99.877801
 11
-0.774487
 21
-99.877801
  0
LINE
  5
27C
100
AcDbEntity
  8
0
100
AcDbLine
 62
7
  6
CONTINUOUS
 10
-1.586183
 20
-99.877801
 11
-2.145272
 21
-99.877801
  0
LINE
  5
27D
100
AcDbEntity
  8
0
100
AcDbLine
 62
7
  6
CONTINUOUS
 10
-2.449877
 20
-99.877801
 11
-3.034285
 21
-99.877801
  0
LINE
  5
27E
100
AcDbEntity
  8
0
100
AcDbLine
 62
7
  6
CONTINUOUS
 10
-4.231097
 20
-99.877801
 11
-4.746107
 21
-99.877801
  0
LINE
  5
27F
100
AcDbEntity
  8
0
100
AcDbLine
 62
7
  6
CONTINUOUS
 10
2.531074
 20
-99.318881
 11
1.735207
 21
-99.318881
  0
LINE
  5
280
100
AcDbEntity
  8
0
100
AcDbLine
 62
7
  6
CONTINUOUS
 10
2.41428
 20
-98.886391
 11
1.854751
 21
-98.886391
  0
LINE
  5
281
100
AcDbEntity
  8
0
100
AcDbLine
 62
7
  6
CONTINUOUS
 10
4.4954209623
 20
-98.7821519248
 11
4.1820753449
 21
-98.7821519248
  0
LINE
  5
282
100
AcDbEntity
  8
0
100
AcDbLine
 62
7
  6
CONTINUOUS
 10
4.4966806432
 20
-98.3236280866
 11
4.1626972541
 21
-98.3236280866
  0
LINE
  5
283
100
AcDbEntity
  8
0
100
AcDbLine
 62
7
  6
CONTINUOUS
 10
2.43939
 20
-97.078098
 11
1.874045
 21
-97.078098
  0
LINE
  5
284
100
AcDbEntity
  8
0
100
AcDbLine
 62
7
  6
CONTINUOUS
 10
0.432308
 20
-97.078098
 11
-0.145906
 21
-97.078098
  0
LINE
  5
285
100
AcDbEntity
  8
0
100
AcDbLine
 62
7
  6
CONTINUOUS
 10
-1.30855
 20
-97.078098
 11
-1.892475
 21
-97.078098
  0
LINE
  5
286
100
AcDbEntity
  8
0
100
AcDbLine
 62
7
  6
CONTINUOUS
 10
-3.33116
 20
-97.078098
 11
-3.915169
 21
-97.078098
  0
LINE
  5
287
100
AcDbEntity
  8
0
100
AcDbLine
 62
7
  6
CONTINUOUS
 10
-4.99882
 20
-97.078098
 11
-5.633668
 21
-97.078098
  0
LINE
  5
288
100
AcDbEntity
  8
0
100
AcDbLine
 62
7
  6
CONTINUOUS
 10
-2.449877
 20
-97.07793
 11
-3.034285
 21
-97.07793
  0
LINE
  5
289
100
AcDbEntity
  8
RACCORDO
100
AcDbLine
 62
253
  6
CONTINUOUS
 10
-78.1716838297
 20
-94.1465549932
 11
78.1716838297
 21
-94.1465549932
  0
LINE
  5
28A
100
AcDbEntity
  8
RACCORDO
100
AcDbLine
 62
253
  6
CONTINUOUS
 10
104.4427701632
 20
-93.6467038536
 11
79.196980215
 21
-93.646741782
  0
LINE
  5
28B
100
AcDbEntity
  8
RACCORDO
100
AcDbLine
 62
253
  6
CONTINUOUS
 10
-79.196980215
 20
-93.646741782
 11
-104.4427701629
 21
-93.6467037078
  0
LINE
  5
28C
100
AcDbEntity
  8
RACCORDO
100
AcDbLine
 62
253
  6
CONTINUOUS
 10
-78.1716994065
 20
-93.6205874575
 11
78.1716963122
 21
-93.6205874575
  0
LINE
  5
28D
100
AcDbEntity
  8
0
100
AcDbLine
 62
7
  6
CONTINUOUS
 10
78.0510963722
 20
-93.5
 11
-78.0510963722
 21
-93.5
  0
LINE
  5
28E
100
AcDbEntity
  8
RACCORDO
100
AcDbLine
 62
253
  6
CONTINUOUS
 10
79.4102216637
 20
-92.8490277019
 11
79.4733234988
 21
-92.8493821949
  0
LINE
  5
28F
100
AcDbEntity
  8
RACCORDO
100
AcDbLine
 62
253
  6
CONTINUOUS
 10
-104.442770255
 20
-93.6467417812
 11
-104.4860048234
 21
-93.6464702868
  0
LINE
  5
290
100
AcDbEntity
  8
RACCORDO
100
AcDbLine
 62
253
  6
CONTINUOUS
 10
79.3481289154
 20
-92.8482906531
 11
79.4102216637
 21
-92.8490277019
  0
LINE
  5
291
100
AcDbEntity
  8
RACCORDO
100
AcDbLine
 62
253
  6
CONTINUOUS
 10
-104.4860048234
 20
-93.6464702868
 11
-104.5283367266
 21
-93.6458892435
  0
LINE
  5
292
100
AcDbEntity
  8
RACCORDO
100
AcDbLine
 62
253
  6
CONTINUOUS
 10
79.2880382038
 20
-92.8471828349
 11
79.3481289154
 21
-92.8482906531
  0
LWPOLYLINE
  5
293
100
AcDbEntity
  8
RACCORDO
100
AcDbPolyline
 62
253
  6
CONTINUOUS
 90
17
 70
0
 10
-104.5283367266
 20
-93.6458892435
 10
-104.5688821458
 20
-93.6450107824
 10
-104.588218439
 20
-93.6444655188
 10
-104.6067945606
 20
-93.6438532445
 10
-104.6245134242
 20
-93.6431771594
 10
-104.6412824236
 20
-93.642440797
 10
-104.6570139174
 20
-93.641648006
 10
-104.6716256862
 20
-93.6408029296
 10
-104.685041363
 20
-93.6399099847
 10
-104.6971908319
 20
-93.6389738382
 10
-104.708010595
 20
-93.6379993827
 10
-104.7174441036
 20
-93.6369917111
 10
-104.7254420545
 20
-93.6359560899
 10
-104.731962647
 20
-93.6348979318
 10
-104.7369718019
 20
-93.633822767
 10
-104.7404433392
 20
-93.6327362149
 10
-104.7423591154
 20
-93.6316439541
  0
LINE
  5
294
100
AcDbEntity
  8
RACCORDO
100
AcDbLine
 62
253
  6
CONTINUOUS
 10
79.2309104636
 20
-92.8457219628
 11
79.2880382038
 21
-92.8471828349
  0
LWPOLYLINE
  5
295
100
AcDbEntity
  8
0
100
AcDbPolyline
 62
7
  6
CONTINUOUS
 90
10
 70
0
 10
4.6205133632
 20
-97.5385722358
 10
4.5721306764
 20
-97.5336659674
 10
4.5230670889
 20
-97.5304229122
 10
4.4733226008
 20
-97.5288430772
 10
4.4228179345
 20
-97.5288982002
 10
4.3716323675
 20
-97.5306165468
 10
4.3200037328
 20
-97.5340829101
 10
4.2680113077
 20
-97.5393255476
 10
4.2155758148
 20
-97.5463161816
 10
4.1626972541
 20
-97.5550547959
  0
LINE
  5
296
100
AcDbEntity
  8
0
100
AcDbLine
 62
253
  6
CONTINUOUS
 10
-78.1734014978
 20
-48.3777065589
 11
-78.0510963722
 21
-48.5
  0
LINE
  5
297
100
AcDbEntity
  8
0
100
AcDbLine
 62
253
  6
CONTINUOUS
 10
-78.972294083
 20
-49.1765942662
 11
-78.85
 21
-49.2989036278
  0
LINE
  5
298
100
AcDbEntity
  8
RACCORDO
100
AcDbLine
 62
7
  6
CONTINUOUS
 10
-78.972294083
 20
-49.1765942662
 11
-78.9808890027
 21
-48.9604297565
  0
LINE
  5
299
100
AcDbEntity
  8
RACCORDO
100
AcDbLine
 62
7
  6
CONTINUOUS
 10
-78.972294083
 20
21.8234057338
 11
-78.9808903798
 21
22.0396006966
  0
LINE
  5
29A
100
AcDbEntity
  8
RACCORDO
100
AcDbLine
 62
7
  6
CONTINUOUS
 10
-78.9808890027
 20
-48.9604297565
 11
-78.9862772909
 21
-48.8062331359
  0
LINE
  5
29B
100
AcDbEntity
  8
RACCORDO
100
AcDbLine
 62
7
  6
CONTINUOUS
 10
-78.9808903798
 20
22.0396006966
 11
-78.9862946926
 21
22.1943250438
  0
LINE
  5
29C
100
AcDbEntity
  8
RACCORDO
100
AcDbLine
 62
7
  6
CONTINUOUS
 10
-78.9862772909
 20
-48.8062331359
 11
-78.9905735743
 21
-48.6582097145
  0
LINE
  5
29D
100
AcDbEntity
  8
RACCORDO
100
AcDbLine
 62
7
  6
CONTINUOUS
 10
-78.9862946926
 20
22.1943250438
 11
-78.9906216171
 21
22.3436795262
  0
LWPOLYLINE
  5
29E
100
AcDbEntity
  8
RACCORDO
100
AcDbPolyline
 62
253
  6
CONTINUOUS
 90
16
 70
0
 10
-78.9740086971
 20
-92.8251176125
 10
-78.9732013824
 20
-92.8590647496
 10
-78.9709185052
 20
-92.8932539258
 10
-78.9671242865
 20
-92.9276197027
 10
-78.9617778342
 20
-92.9621379533
 10
-78.9548528767
 20
-92.9966914741
 10
-78.946357533
 20
-93.0310739169
 10
-78.9362804637
 20
-93.0652278065
 10
-78.9246228502
 20
-93.099062581
 10
-78.9114578401
 20
-93.1323318871
 10
-78.8968155524
 20
-93.1649632005
 10
-78.8807242258
 20
-93.1968979295
 10
-78.863301926
 20
-93.2279305287
 10
-78.844633796
 20
-93.2579645864
 10
-78.8247498103
 20
-93.2870018463
 10
-78.8037074152
 20
-93.3149988125
  0
LWPOLYLINE
  5
29F
100
AcDbEntity
  8
RACCORDO
100
AcDbPolyline
 62
253
  6
CONTINUOUS
 90
34
 70
0
 10
-78.9722934655
 20
-21.8234078046
 10
-78.9714175945
 20
-21.8622715684
 10
-78.9686595669
 20
-21.9010332522
 10
-78.9640264807
 20
-21.9396022691
 10
-78.9575303446
 20
-21.9778876146
 10
-78.9491865597
 20
-22.0158007063
 10
-78.9390133178
 20
-22.0532554689
 10
-78.9270413979
 20
-22.090144508
 10
-78.9132939169
 20
-22.1264018148
 10
-78.897774432
 20
-22.1620017233
 10
-78.8804607145
 20
-22.1969511566
 10
-78.861425724
 20
-22.2310641283
 10
-78.8408458532
 20
-22.2640418123
 10
-78.8187951569
 20
-22.2958166853
 10
-78.7953453554
 20
-22.3263344185
 10
-78.7707322459
 20
-22.3553618922
 10
-78.7451933145
 20
-22.3827340851
 10
-78.718706303
 20
-22.4085825269
 10
-78.6911097501
 20
-22.433115768
 10
-78.6624504691
 20
-22.4563060899
 10
-78.6328149315
 20
-22.4780957895
 10
-78.6020487332
 20
-22.4985903656
 10
-78.5700480778
 20
-22.5178138609
 10
-78.5370162454
 20
-22.5356002834
 10
-78.5032616704
 20
-22.5517768135
 10
-78.4689714883
 20
-22.5662764861
 10
-78.4341211184
 20
-22.5791323314
 10
-78.3987164457
 20
-22.5903507922
 10
-78.3630044222
 20
-22.5998685199
 10
-78.3268953876
 20
-22.6077233822
 10
-78.2898700632
 20
-22.6139876458
 10
-78.2517956551
 20
-22.6185856912
 10
-78.2129459011
 20
-22.6213849842
 10
-78.1734057938
 20
-22.6222934628
  0
LWPOLYLINE
  5
2A0
100
AcDbEntity
  8
RACCORDO
100
AcDbPolyline
 62
253
  6
CONTINUOUS
 90
34
 70
0
 10
-78.9722934655
 20
49.1765921954
 10
-78.9714175945
 20
49.1377284316
 10
-78.9686595669
 20
49.0989667478
 10
-78.9640264807
 20
49.0603977309
 10
-78.9575303446
 20
49.0221123854
 10
-78.9491865597
 20
48.9841992937
 10
-78.9390133178
 20
48.946744531
 10
-78.9270413979
 20
48.909855492
 10
-78.9132939169
 20
48.8735981852
 10
-78.897774432
 20
48.8379982767
 10
-78.8804607145
 20
48.8030488434
 10
-78.8614257239
 20
48.7689358717
 10
-78.8408458532
 20
48.7359581877
 10
-78.8187951569
 20
48.7041833147
 10
-78.7953453554
 20
48.6736655815
 10
-78.7707322459
 20
48.6446381079
 10
-78.7451933145
 20
48.6172659149
 10
-78.718706303
 20
48.5914174731
 10
-78.6911097501
 20
48.566884232
 10
-78.6624504691
 20
48.5436939101
 10
-78.6328149315
 20
48.5219042105
 10
-78.6020487332
 20
48.5014096345
 10
-78.5700480778
 20
48.4821861391
 10
-78.5370162455
 20
48.4643997166
 10
-78.5032616704
 20
48.4482231865
 10
-78.4689714883
 20
48.4337235139
 10
-78.4341211185
 20
48.4208676686
 10
-78.3987164457
 20
48.4096492078
 10
-78.3630044222
 20
48.4001314801
 10
-78.3268953876
 20
48.3922766178
 10
-78.2898700632
 20
48.3860123542
 10
-78.2517956551
 20
48.3814143088
 10
-78.2129459011
 20
48.3786150158
 10
-78.1734057938
 20
48.3777065372
  0
LINE
  5
2A1
100
AcDbEntity
  8
RACCORDO
100
AcDbLine
 62
7
  6
CONTINUOUS
 10
-78.9905735743
 20
-48.6582097145
 11
-78.9928171555
 21
-48.5628328641
  0
LINE
  5
2A2
100
AcDbEntity
  8
RACCORDO
100
AcDbLine
 62
7
  6
CONTINUOUS
 10
-78.9906216171
 20
22.3436795262
 11
-78.9928753606
 21
22.4399166686
  0
LWPOLYLINE
  5
2A3
100
AcDbEntity
  8
RACCORDO
100
AcDbPolyline
 62
253
  6
CONTINUOUS
 90
16
 70
0
 10
-79.4733234988
 20
-92.8493821949
 10
-79.472099458
 20
-92.9047772328
 10
-79.4683715722
 20
-92.9603565823
 10
-79.4621398412
 20
-93.0161202392
 10
-79.4534191263
 20
-93.0722608056
 10
-79.4421945662
 20
-93.1285856685
 10
-79.4284215781
 20
-93.1845170121
 10
-79.4120325672
 20
-93.2400708847
 10
-79.3930951282
 20
-93.2952312504
 10
-79.3717674616
 20
-93.3493721883
 10
-79.3479890736
 20
-93.4024634944
 10
-79.321820458
 20
-93.4545354078
 10
-79.2936012961
 20
-93.5050526925
 10
-79.2634448153
 20
-93.5538369574
 10
-79.2312377882
 20
-93.6010666458
 10
-79.196980215
 20
-93.646741782
  0
LINE
  5
2A4
100
AcDbEntity
  8
RACCORDO
100
AcDbLine
 62
7
  6
CONTINUOUS
 10
-78.9928171555
 20
-48.5628328641
 11
-78.9945742765
 21
-48.4699685187
  0
LINE
  5
2A5
100
AcDbEntity
  8
RACCORDO
100
AcDbLine
 62
7
  6
CONTINUOUS
 10
-78.9928753606
 20
22.4399166686
 11
-78.9946258814
 21
22.533193713
  0
LINE
  5
2A6
100
AcDbEntity
  8
RACCORDO
100
AcDbLine
 62
7
  6
CONTINUOUS
 10
-78.9945742765
 20
-48.4699685187
 11
-78.9958597201
 21
-48.3800138813
  0
LINE
  5
2A7
100
AcDbEntity
  8
RACCORDO
100
AcDbLine
 62
7
  6
CONTINUOUS
 10
-78.9946258814
 20
22.533193713
 11
-78.9958949917
 21
22.6229133604
  0
LINE
  5
2A8
100
AcDbEntity
  8
RACCORDO
100
AcDbLine
 62
7
  6
CONTINUOUS
 10
-78.9958597201
 20
-48.3800138813
 11
-78.9966867568
 21
-48.2934832963
  0
LINE
  5
2A9
100
AcDbEntity
  8
RACCORDO
100
AcDbLine
 62
7
  6
CONTINUOUS
 10
-78.9958949917
 20
22.6229133604
 11
-78.9967012594
 21
22.7085600424
  0
LINE
  5
2AA
100
AcDbEntity
  8
RACCORDO
100
AcDbLine
 62
7
  6
CONTINUOUS
 10
-78.9966867568
 20
-48.2934832963
 11
-78.9970875118
 21
-48.2118746989
  0
LINE
  5
2AB
100
AcDbEntity
  8
RACCORDO
100
AcDbLine
 62
7
  6
CONTINUOUS
 10
-78.9967012594
 20
22.7085600424
 11
-78.9970906047
 21
22.7889105179
  0
LINE
  5
2AC
100
AcDbEntity
  8
RACCORDO
100
AcDbLine
 62
253
  6
CONTINUOUS
 10
-79.4890607713
 20
-85.389825527
 11
-79.4733234988
 21
-92.8493821949
  0
LINE
  5
2AD
100
AcDbEntity
  8
RACCORDO
100
AcDbLine
 62
253
  6
CONTINUOUS
 10
-78.9897459977
 20
-85.3738405321
 11
-78.974008705
 21
-92.8251176202
  0
LINE
  5
2AE
100
AcDbEntity
  8
RACCORDO
100
AcDbLine
 62
253
  6
CONTINUOUS
 10
-79.4981705049
 20
-78.1064203076
 11
-79.4890607713
 21
-85.389825527
  0
LINE
  5
2AF
100
AcDbEntity
  8
RACCORDO
100
AcDbLine
 62
253
  6
CONTINUOUS
 10
-78.9988557422
 20
-78.0985186113
 11
-78.9897459977
 21
-85.3738405321
  0
LINE
  5
2B0
100
AcDbEntity
  8
RACCORDO
100
AcDbLine
 62
253
  6
CONTINUOUS
 10
-79.5011081508
 20
-70.9999969992
 11
-79.4981705049
 21
-78.1064203076
  0
LINE
  5
2B1
100
AcDbEntity
  8
RACCORDO
100
AcDbLine
 62
253
  6
CONTINUOUS
 10
-79.0017933822
 20
-71.0
 11
-78.9988557422
 21
-78.0985186113
  0
LINE
  5
2B2
100
AcDbEntity
  8
RACCORDO
100
AcDbLine
 62
7
  6
CONTINUOUS
 10
-78.9970875118
 20
-48.2118746989
 11
-78.9971259023
 21
-22.827180204
  0
LINE
  5
2B3
100
AcDbEntity
  8
RACCORDO
100
AcDbLine
 62
7
  6
CONTINUOUS
 10
-78.9970906047
 20
22.7889105179
 11
-78.9971259023
 21
48.172819796
  0
LINE
  5
2B4
100
AcDbEntity
  8
0
100
AcDbLine
 62
253
  6
CONTINUOUS
 10
-78.979704076
 20
-42.5298106894
 11
-78.979704076
 21
-28.4701893106
  0
LINE
  5
2B5
100
AcDbEntity
  8
0
100
AcDbLine
 62
253
  6
CONTINUOUS
 10
-78.979704076
 20
28.4701893106
 11
-78.979704076
 21
42.5298106894
  0
LINE
  5
2B6
100
AcDbEntity
  8
0
100
AcDbLine
 62
7
  6
CONTINUOUS
 10
-78.85
 20
92.7010963722
 11
-78.85
 21
49.2989036278
  0
LINE
  5
2B7
100
AcDbEntity
  8
0
100
AcDbLine
 62
7
  6
CONTINUOUS
 10
-78.85
 20
21.7010963722
 11
-78.85
 21
-21.7010963722
  0
LINE
  5
2B8
100
AcDbEntity
  8
0
100
AcDbLine
 62
7
  6
CONTINUOUS
 10
-78.85
 20
-92.7010963722
 11
-78.85
 21
-49.2989036278
  0
LINE
  5
2B9
100
AcDbEntity
  8
0
100
AcDbLine
 62
253
  6
CONTINUOUS
 10
-78.779734537
 20
-42.5298051004
 11
-78.779734537
 21
-28.4701948679
  0
LINE
  5
2BA
100
AcDbEntity
  8
0
100
AcDbLine
 62
253
  6
CONTINUOUS
 10
-78.779734537
 20
28.4701948996
 11
-78.779734537
 21
42.5298051321
  0
LINE
  5
2BB
100
AcDbEntity
  8
0
100
AcDbLine
 62
7
  6
CONTINUOUS
 10
-78.7690726278
 20
38.35
 11
-78.7690726278
 21
32.65
  0
LINE
  5
2BC
100
AcDbEntity
  8
0
100
AcDbLine
 62
7
  6
CONTINUOUS
 10
-78.7690726278
 20
-32.65
 11
-78.7690726278
 21
-38.35
  0
LINE
  5
2BD
100
AcDbEntity
  8
0
100
AcDbLine
 62
7
  6
CONTINUOUS
 10
-78.75
 20
42.5000761524
 11
-78.75
 21
38.4072644141
  0
LINE
  5
2BE
100
AcDbEntity
  8
0
100
AcDbLine
 62
7
  6
CONTINUOUS
 10
-78.75
 20
32.5927355859
 11
-78.75
 21
28.4999238476
  0
LINE
  5
2BF
100
AcDbEntity
  8
0
100
AcDbLine
 62
7
  6
CONTINUOUS
 10
-78.75
 20
-28.4999238476
 11
-78.75
 21
-32.5927355859
  0
LINE
  5
2C0
100
AcDbEntity
  8
0
100
AcDbLine
 62
7
  6
CONTINUOUS
 10
-78.75
 20
-38.4072644141
 11
-78.75
 21
-42.5000761524
  0
LINE
  5
2C1
100
AcDbEntity
  8
RACCORDO
100
AcDbLine
 62
7
  6
CONTINUOUS
 10
-78.65
 20
42.5
 11
-78.65
 21
37.0
  0
LINE
  5
2C2
100
AcDbEntity
  8
RACCORDO
100
AcDbLine
 62
7
  6
CONTINUOUS
 10
-78.65
 20
34.0
 11
-78.65
 21
28.5
  0
LINE
  5
2C3
100
AcDbEntity
  8
RACCORDO
100
AcDbLine
 62
7
  6
CONTINUOUS
 10
-78.65
 20
-28.5
 11
-78.65
 21
-34.0
  0
LINE
  5
2C4
100
AcDbEntity
  8
RACCORDO
100
AcDbLine
 62
7
  6
CONTINUOUS
 10
-78.65
 20
-37.0
 11
-78.65
 21
-42.5
  0
LINE
  5
2C5
100
AcDbEntity
  8
RACCORDO
100
AcDbLine
 62
7
  6
CONTINUOUS
 10
-78.632495013
 20
-42.5
 11
-78.632495013
 21
-28.5
  0
LINE
  5
2C6
100
AcDbEntity
  8
RACCORDO
100
AcDbLine
 62
7
  6
CONTINUOUS
 10
-78.632495013
 20
28.5
 11
-78.632495013
 21
42.5
  0
LINE
  5
2C7
100
AcDbEntity
  8
RACCORDO
100
AcDbLine
 62
253
  6
CONTINUOUS
 10
-78.532495013
 20
-42.5
 11
-78.532495013
 21
-28.5
  0
LINE
  5
2C8
100
AcDbEntity
  8
RACCORDO
100
AcDbLine
 62
253
  6
CONTINUOUS
 10
-78.532495013
 20
28.5
 11
-78.532495013
 21
42.5
  0
LINE
  5
2C9
100
AcDbEntity
  8
0
100
AcDbLine
 62
253
  6
CONTINUOUS
 10
-78.2798106894
 20
43.229704076
 11
-78.2798106894
 21
43.029734537
  0
LINE
  5
2CA
100
AcDbEntity
  8
0
100
AcDbLine
 62
253
  6
CONTINUOUS
 10
-78.2798106894
 20
-43.229704076
 11
-78.2798106894
 21
-43.029734537
  0
LINE
  5
2CB
100
AcDbEntity
  8
0
100
AcDbLine
 62
253
  6
CONTINUOUS
 10
-78.2798106894
 20
-27.770295924
 11
-78.2798106894
 21
-27.970265463
  0
LINE
  5
2CC
100
AcDbEntity
  8
0
100
AcDbLine
 62
253
  6
CONTINUOUS
 10
-78.2798106894
 20
27.770295924
 11
-78.2798106894
 21
27.970265463
  0
LINE
  5
2CD
100
AcDbEntity
  8
RACCORDO
100
AcDbLine
 62
253
  6
CONTINUOUS
 10
-78.232495013
 20
42.9
 11
-78.232495013
 21
42.8
  0
LINE
  5
2CE
100
AcDbEntity
  8
RACCORDO
100
AcDbLine
 62
253
  6
CONTINUOUS
 10
-78.232495013
 20
-42.9
 11
-78.232495013
 21
-42.8
  0
LINE
  5
2CF
100
AcDbEntity
  8
RACCORDO
100
AcDbLine
 62
253
  6
CONTINUOUS
 10
-78.232495013
 20
-28.1
 11
-78.232495013
 21
-28.2
  0
LINE
  5
2D0
100
AcDbEntity
  8
RACCORDO
100
AcDbLine
 62
253
  6
CONTINUOUS
 10
-78.232495013
 20
28.1
 11
-78.232495013
 21
28.2
  0
LINE
  5
2D1
100
AcDbEntity
  8
RACCORDO
100
AcDbLine
 62
253
  6
CONTINUOUS
 10
-78.1733898133
 20
48.3777065589
 11
-78.1733898133
 21
47.8783917915
  0
LINE
  5
2D2
100
AcDbEntity
  8
RACCORDO
100
AcDbLine
 62
253
  6
CONTINUOUS
 10
-78.1733898133
 20
-48.3777065589
 11
-78.1733898133
 21
-47.8783917915
  0
LINE
  5
2D3
100
AcDbEntity
  8
RACCORDO
100
AcDbLine
 62
253
  6
CONTINUOUS
 10
-78.1733898133
 20
-22.6222934411
 11
-78.1733898133
 21
-23.1216082085
  0
LINE
  5
2D4
100
AcDbEntity
  8
RACCORDO
100
AcDbLine
 62
253
  6
CONTINUOUS
 10
-78.1733898133
 20
22.6222934411
 11
-78.1733898133
 21
23.1216082085
  0
LINE
  5
2D5
100
AcDbEntity
  8
RACCORDO
100
AcDbLine
 62
253
  6
CONTINUOUS
 10
-78.1716838297
 20
-93.6205874575
 11
-78.1716838297
 21
-94.1465549932
  0
LINE
  5
2D6
100
AcDbEntity
  8
RACCORDO
100
AcDbLine
 62
253
  6
CONTINUOUS
 10
-78.1716838297
 20
93.6205874575
 11
-78.1716838297
 21
94.1465549932
  0
LINE
  5
2D7
100
AcDbEntity
  8
RACCORDO
100
AcDbLine
 62
253
  6
CONTINUOUS
 10
-79.4981739975
 20
78.1021948111
 11
-79.5011081496
 21
-70.9999969992
  0
LINE
  5
2D8
100
AcDbEntity
  8
RACCORDO
100
AcDbLine
 62
253
  6
CONTINUOUS
 10
-78.9988592351
 20
78.0942975324
 11
-79.0017933822
 21
-71.0
  0
LINE
  5
2D9
100
AcDbEntity
  8
RACCORDO
100
AcDbLine
 62
253
  6
CONTINUOUS
 10
-79.4890678442
 20
85.3856019227
 11
-79.4981739975
 21
78.1021948111
  0
LINE
  5
2DA
100
AcDbEntity
  8
RACCORDO
100
AcDbLine
 62
253
  6
CONTINUOUS
 10
-78.9897530716
 20
85.3696210487
 11
-78.9988592351
 21
78.0942975324
  0
LINE
  5
2DB
100
AcDbEntity
  8
RACCORDO
100
AcDbLine
 62
253
  6
CONTINUOUS
 10
-79.4733234988
 20
92.8493821949
 11
-79.4890678442
 21
85.3856019227
  0
LINE
  5
2DC
100
AcDbEntity
  8
RACCORDO
100
AcDbLine
 62
253
  6
CONTINUOUS
 10
-78.9740086991
 20
92.8251203816
 11
-78.9897530716
 21
85.3696210487
  0
LINE
  5
2DD
100
AcDbEntity
  8
RACCORDO
100
AcDbLine
 62
7
  6
CONTINUOUS
 10
-78.9971259251
 20
48.1728198299
 11
-78.9969485422
 21
48.2504313781
  0
LINE
  5
2DE
100
AcDbEntity
  8
RACCORDO
100
AcDbLine
 62
7
  6
CONTINUOUS
 10
-78.9971259251
 20
-22.8271801705
 11
-78.9969396093
 21
-22.7478473039
  0
LINE
  5
2DF
100
AcDbEntity
  8
RACCORDO
100
AcDbLine
 62
7
  6
CONTINUOUS
 10
-78.9969485422
 20
48.2504313781
 11
-78.9963628786
 21
48.3325332706
  0
LINE
  5
2E0
100
AcDbEntity
  8
RACCORDO
100
AcDbLine
 62
7
  6
CONTINUOUS
 10
-78.9969396093
 20
-22.7478473039
 11
-78.9963330304
 21
-22.6643185513
  0
LINE
  5
2E1
100
AcDbEntity
  8
RACCORDO
100
AcDbLine
 62
7
  6
CONTINUOUS
 10
-78.9963628786
 20
48.3325332706
 11
-78.9953545572
 21
48.4190670233
  0
LINE
  5
2E2
100
AcDbEntity
  8
RACCORDO
100
AcDbLine
 62
7
  6
CONTINUOUS
 10
-78.9963330304
 20
-22.6643185513
 11
-78.9952956937
 21
-22.5767536709
  0
LINE
  5
2E3
100
AcDbEntity
  8
RACCORDO
100
AcDbLine
 62
7
  6
CONTINUOUS
 10
-78.9953545572
 20
48.4190670233
 11
-78.9938726934
 21
48.5099035806
  0
LINE
  5
2E4
100
AcDbEntity
  8
RACCORDO
100
AcDbLine
 62
7
  6
CONTINUOUS
 10
-78.9952956937
 20
-22.5767536709
 11
-78.9937910551
 21
-22.4857367992
  0
LINE
  5
2E5
100
AcDbEntity
  8
RACCORDO
100
AcDbLine
 62
7
  6
CONTINUOUS
 10
-78.9938726934
 20
48.5099035806
 11
-78.9918873107
 21
48.6045172184
  0
LINE
  5
2E6
100
AcDbEntity
  8
RACCORDO
100
AcDbLine
 62
7
  6
CONTINUOUS
 10
-78.9937910551
 20
-22.4857367992
 11
-78.9917945609
 21
-22.3914739666
  0
LINE
  5
2E7
100
AcDbEntity
  8
RACCORDO
100
AcDbLine
 62
7
  6
CONTINUOUS
 10
-78.9918873107
 20
48.6045172184
 11
-78.9893879457
 21
48.7025569003
  0
LINE
  5
2E8
100
AcDbEntity
  8
RACCORDO
100
AcDbLine
 62
7
  6
CONTINUOUS
 10
-78.9917945609
 20
-22.3914739666
 11
-78.9892948746
 21
-22.2940980415
  0
LWPOLYLINE
  5
2E9
100
AcDbEntity
  8
0
100
AcDbPolyline
 62
253
  6
CONTINUOUS
 90
28
 70
0
 10
-78.979704076
 20
42.5298106894
 10
-78.9785588148
 20
42.5703473114
 10
-78.9750529298
 20
42.6106424975
 10
-78.969186421
 20
42.6506962477
 10
-78.960923124
 20
42.690701947
 10
-78.9502992033
 20
42.7304662104
 10
-78.937423152
 20
42.7694088825
 10
-78.9222449104
 20
42.807495273
 10
-78.9048145382
 20
42.8447600723
 10
-78.8853907084
 20
42.8807271968
 10
-78.8639810783
 20
42.9153226039
 10
-78.8405779905
 20
42.9486203363
 10
-78.8154171452
 20
42.9803664376
 10
-78.7885194878
 20
43.0105387957
 10
-78.7598640728
 20
43.0391595228
 10
-78.7296237644
 20
43.0660409987
 10
-78.6977552228
 20
43.091212716
 10
-78.6643017877
 20
43.1146451822
 10
-78.6295663424
 20
43.1360622988
 10
-78.5934737174
 20
43.1554575806
 10
-78.5560990822
 20
43.1728375128
 10
-78.5179708282
 20
43.1879454537
 10
-78.4790658789
 20
43.2007204454
 10
-78.4394073108
 20
43.2112234457
 10
-78.3995927457
 20
43.2193806858
 10
-78.3598213907
 20
43.225167576
 10
-78.3198940386
 20
43.2286087061
 10
-78.2798106894
 20
43.229704076
  0
LWPOLYLINE
  5
2EA
100
AcDbEntity
  8
0
100
AcDbPolyline
 62
253
  6
CONTINUOUS
 90
28
 70
0
 10
-78.979704076
 20
-28.4701893106
 10
-78.9785588148
 20
-28.4296526886
 10
-78.9750529298
 20
-28.3893575025
 10
-78.969186421
 20
-28.3493037523
 10
-78.960923124
 20
-28.309298053
 10
-78.9502992033
 20
-28.2695337896
 10
-78.937423152
 20
-28.2305911175
 10
-78.9222449104
 20
-28.192504727
 10
-78.9048145382
 20
-28.1552399277
 10
-78.8853907084
 20
-28.1192728032
 10
-78.8639810783
 20
-28.0846773961
 10
-78.8405779905
 20
-28.0513796637
 10
-78.8154171452
 20
-28.0196335624
 10
-78.7885194878
 20
-27.9894612043
 10
-78.7598640728
 20
-27.9608404772
 10
-78.7296237644
 20
-27.9339590013
 10
-78.6977552228
 20
-27.908787284
 10
-78.6643017877
 20
-27.8853548178
 10
-78.6295663424
 20
-27.8639377012
 10
-78.5934737174
 20
-27.8445424194
 10
-78.5560990822
 20
-27.8271624872
 10
-78.5179708282
 20
-27.8120545463
 10
-78.4790658789
 20
-27.7992795546
 10
-78.4394073108
 20
-27.7887765543
 10
-78.3995927457
 20
-27.7806193142
 10
-78.3598213907
 20
-27.774832424
 10
-78.3198940386
 20
-27.7713912939
 10
-78.2798106894
 20
-27.770295924
  0
LWPOLYLINE
  5
2EB
100
AcDbEntity
  8
0
100
AcDbPolyline
 62
253
  6
CONTINUOUS
 90
5
 70
0
 10
-78.7797345365
 20
42.5298051316
 10
-78.7789087536
 20
42.5586011089
 10
-78.7764121217
 20
42.5874228452
 10
-78.7722318175
 20
42.6161720924
 10
-78.7663513846
 20
42.6447889397
  0
LWPOLYLINE
  5
2EC
100
AcDbEntity
  8
0
100
AcDbPolyline
 62
253
  6
CONTINUOUS
 90
5
 70
0
 10
-78.7797345365
 20
-28.4701948684
 10
-78.7789087536
 20
-28.4413988911
 10
-78.7764121217
 20
-28.4125771548
 10
-78.7722318175
 20
-28.3838279076
 10
-78.7663513846
 20
-28.3552110603
  0
LINE
  5
2ED
100
AcDbEntity
  8
RACCORDO
100
AcDbLine
 62
7
  6
CONTINUOUS
 10
-78.9893879457
 20
48.7025569003
 11
-78.9846775576
 21
48.8547341459
  0
LINE
  5
2EE
100
AcDbEntity
  8
RACCORDO
100
AcDbLine
 62
7
  6
CONTINUOUS
 10
-78.9892948746
 20
-22.2940980415
 11
-78.9845838734
 21
-22.1425119399
  0
LINE
  5
2EF
100
AcDbEntity
  8
RACCORDO
100
AcDbLine
 62
7
  6
CONTINUOUS
 10
-78.9846775576
 20
48.8547341459
 11
-78.9768026513
 21
49.0663727395
  0
LINE
  5
2F0
100
AcDbEntity
  8
RACCORDO
100
AcDbLine
 62
7
  6
CONTINUOUS
 10
-78.9845838734
 20
-22.1425119399
 11
-78.9767266655
 21
-21.9317096511
  0
LINE
  5
2F1
100
AcDbEntity
  8
RACCORDO
100
AcDbLine
 62
7
  6
CONTINUOUS
 10
-78.9768026513
 20
49.0663727395
 11
-78.9722941958
 21
49.1765914652
  0
LINE
  5
2F2
100
AcDbEntity
  8
RACCORDO
100
AcDbLine
 62
7
  6
CONTINUOUS
 10
-78.9767266655
 20
-21.9317096511
 11
-78.9722941962
 21
-21.8234085352
  0
LWPOLYLINE
  5
2F3
100
AcDbEntity
  8
0
100
AcDbPolyline
 62
253
  6
CONTINUOUS
 90
4
 70
0
 10
-78.7663513846
 20
42.6447889397
 10
-78.7587745717
 20
42.6731304359
 10
-78.7495488468
 20
42.7009771837
 10
-78.7387107049
 20
42.72822273
  0
LINE
  5
2F4
100
AcDbEntity
  8
0
100
AcDbLine
 62
7
  6
CONTINUOUS
 10
-78.75
 20
38.4072644141
 11
-78.7690726278
 21
38.35
  0
LWPOLYLINE
  5
2F5
100
AcDbEntity
  8
0
100
AcDbPolyline
 62
7
  6
CONTINUOUS
 90
54
 70
0
 10
5.0422484729
 20
-97.1402838833
 10
5.0698142788
 20
-97.1512380546
 10
5.0977525202
 20
-97.1644471406
 10
5.1260631971
 20
-97.179911103
 10
5.1548442698
 20
-97.1975464331
 10
5.183997778
 20
-97.2174365448
 10
5.2132298408
 20
-97.2398317669
 10
5.2428016487
 20
-97.2648389971
 10
5.2724520113
 20
-97.2923511814
 10
5.3011034762
 20
-97.3222977052
 10
5.3287317146
 20
-97.3548914306
 10
5.3553610553
 20
-97.3899192897
 10
5.3799870328
 20
-97.4266717951
 10
5.4024008118
 20
-97.4650387065
 10
5.4228112275
 20
-97.5051300943
 10
5.4408403192
 20
-97.546566983
 10
5.4564006025
 20
-97.5896780311
 10
5.4695795618
 20
-97.634134412
 10
5.4802616895
 20
-97.678571018
 10
5.4882320565
 20
-97.7229926302
 10
5.493705592
 20
-97.7673944633
 10
5.4972115763
 20
-97.810397223
 10
5.4987503907
 20
-97.851629683
 10
5.4983216538
 20
-97.8914632375
 10
5.4964535015
 20
-97.9296326153
 10
5.4931858763
 20
-97.9660051894
 10
5.4884788357
 20
-98.0007137569
 10
5.4827406887
 20
-98.0338911853
 10
5.4759936308
 20
-98.0655360659
 10
5.4682154665
 20
-98.0956499415
 10
5.4597479185
 20
-98.124370091
 10
5.4506145763
 20
-98.1516919719
 10
5.4407918503
 20
-98.1776202334
 10
5.4305506944
 20
-98.2023059261
 10
5.4199205529
 20
-98.2257520072
 10
5.4088719815
 20
-98.2479556018
 10
5.3975876008
 20
-98.2690590007
 10
5.3860860511
 20
-98.2890689702
 10
5.3743486921
 20
-98.3079788067
 10
5.3625022235
 20
-98.3259105852
 10
5.3505530444
 20
-98.3428611386
 10
5.3384947556
 20
-98.3588336818
 10
5.326434859
 20
-98.3739598553
 10
5.3143674878
 20
-98.3882254143
 10
5.3022985089
 20
-98.4016446387
 10
5.2903530252
 20
-98.4143919478
 10
5.2785457248
 20
-98.4264739109
 10
5.2668619196
 20
-98.4378839822
 10
5.2553826489
 20
-98.4487769017
 10
5.2441204223
 20
-98.4591662547
 10
5.2330627301
 20
-98.4690384713
 10
5.2222530824
 20
-98.4785075545
 10
5.2117157963
 20
-98.4875980731
 10
5.2014265546
 20
-98.4962854685
  0
LWPOLYLINE
  5
2F6
100
AcDbEntity
  8
0
100
AcDbPolyline
 62
7
  6
CONTINUOUS
 90
3
 70
0
 10
5.1025031649
 20
-98.5709244369
 10
5.1275280488
 20
-98.5825324615
 10
5.1512847201
 20
-98.5956884193
  0
LWPOLYLINE
  5
2F7
100
AcDbEntity
  8
0
100
AcDbPolyline
 62
7
  6
CONTINUOUS
 90
22
 70
0
 10
5.1512847201
 20
-98.5956884193
 10
5.1737731788
 20
-98.6103922811
 10
5.1950040232
 20
-98.6268989118
 10
5.2149666551
 20
-98.6449533728
 10
5.2336292794
 20
-98.6637909439
 10
5.2508622229
 20
-98.6832449102
 10
5.266795159
 20
-98.7034819458
 10
5.281785313
 20
-98.7242374399
 10
5.2958976002
 20
-98.7455190596
 10
5.3090671054
 20
-98.7673191055
 10
5.3214563084
 20
-98.7893499333
 10
5.3330789013
 20
-98.8115989482
 10
5.3439211918
 20
-98.8340787296
 10
5.354104583
 20
-98.8565394119
 10
5.3636263022
 20
-98.8789371778
 10
5.372489122
 20
-98.9013158459
 10
5.3808227631
 20
-98.9235570166
 10
5.3886100204
 20
-98.9455963208
 10
5.3958680991
 20
-98.9674981372
 10
5.4027783353
 20
-98.9893371894
 10
5.4093240865
 20
-99.0111051569
 10
5.4155219952
 20
-99.0328103637
  0
LWPOLYLINE
  5
2F8
100
AcDbEntity
  8
0
100
AcDbPolyline
 62
253
  6
CONTINUOUS
 90
8
 70
0
 10
-78.7387107049
 20
-42.72822273
 10
-78.7495488468
 20
-42.7009771837
 10
-78.7587745714
 20
-42.673130437
 10
-78.7663513841
 20
-42.644788942
 10
-78.7722318176
 20
-42.6161720924
 10
-78.7764121225
 20
-42.5874228382
 10
-78.7789087546
 20
-42.5586010913
 10
-78.7797345365
 20
-42.5298051
  0
LINE
  5
2F9
100
AcDbEntity
  8
0
100
AcDbLine
 62
7
  6
CONTINUOUS
 10
-78.75
 20
-38.4072644141
 11
-78.7690726278
 21
-38.35
  0
LWPOLYLINE
  5
2FA
100
AcDbEntity
  8
0
100
AcDbPolyline
 62
253
  6
CONTINUOUS
 90
4
 70
0
 10
-78.7663513846
 20
-28.3552110603
 10
-78.7587745717
 20
-28.3268695641
 10
-78.7495488468
 20
-28.2990228163
 10
-78.7387107049
 20
-28.27177727
  0
LINE
  5
2FB
100
AcDbEntity
  8
0
100
AcDbLine
 62
7
  6
CONTINUOUS
 10
-78.75
 20
-32.5927355859
 11
-78.7690726278
 21
-32.65
  0
LINE
  5
2FC
100
AcDbEntity
  8
0
100
AcDbLine
 62
253
  6
CONTINUOUS
 10
-78.779734537
 20
28.4701948996
 11
-78.75
 21
28.4999238476
  0
LINE
  5
2FD
100
AcDbEntity
  8
0
100
AcDbLine
 62
253
  6
CONTINUOUS
 10
-78.2798308992
 20
27.970265463
 11
-78.2500761524
 21
28.0
  0
LWPOLYLINE
  5
2FE
100
AcDbEntity
  8
0
100
AcDbPolyline
 62
253
  6
CONTINUOUS
 90
7
 70
0
 10
-78.4499435503
 20
42.9999240111
 10
-78.4221229871
 20
43.0090746914
 10
-78.3938596219
 20
43.0165698931
 10
-78.3653842567
 20
43.0223692046
 10
-78.3368437107
 20
43.0264788808
 10
-78.308293799
 20
43.028926349
 10
-78.2798308773
 20
43.0297345382
  0
LINE
  5
2FF
100
AcDbEntity
  8
RACCORDO
100
AcDbLine
 62
253
  6
CONTINUOUS
 10
104.7124949539
 20
-71.0
 11
79.0017933822
 21
-71.0
  0
LINE
  5
300
100
AcDbEntity
  8
RACCORDO
100
AcDbLine
 62
253
  6
CONTINUOUS
 10
-79.0017933822
 20
-71.0
 11
-104.7124949539
 21
-71.0
  0
LWPOLYLINE
  5
301
100
AcDbEntity
  8
0
100
AcDbPolyline
 62
253
  6
CONTINUOUS
 90
15
 70
0
 10
-78.4499435503
 20
-42.9999240111
 10
-78.4772196623
 20
-42.9891429104
 10
-78.5038582604
 20
-42.9767596689
 10
-78.5296581182
 20
-42.9628704285
 10
-78.5545015648
 20
-42.9475576344
 10
-78.5783486182
 20
-42.930865677
 10
-78.6011294944
 20
-42.9128588169
 10
-78.6227492504
 20
-42.8936315527
 10
-78.6431718693
 20
-42.8732362826
 10
-78.662408998
 20
-42.8516650136
 10
-78.6804033583
 20
-42.828968791
 10
-78.6970750276
 20
-42.8052342646
 10
-78.7123868124
 20
-42.7804947248
 10
-78.7262942581
 20
-42.754784621
 10
-78.7387107049
 20
-42.72822273
  0
LWPOLYLINE
  5
302
100
AcDbEntity
  8
RACCORDO
100
AcDbPolyline
 62
253
  6
CONTINUOUS
 90
16
 70
0
 10
-78.9971259023
 20
-22.827180204
 10
-78.9511342393
 20
-22.8632664336
 10
-78.9035087015
 20
-22.8972176061
 10
-78.8542492889
 20
-22.9290337215
 10
-78.8031275478
 20
-22.9588437216
 10
-78.750371932
 20
-22.9865186646
 10
-78.6966678019
 20
-23.0116717254
 10
-78.64217307
 20
-23.0341881048
 10
-78.5867298239
 20
-23.054182602
 10
-78.530549687
 20
-23.0716127901
 10
-78.4738894074
 20
-23.0864886143
 10
-78.416492237
 20
-23.0988001294
 10
-78.3577995545
 20
-23.1084750726
 10
-78.2976251528
 20
-23.1154893564
 10
-78.2361552391
 20
-23.1198670684
 10
-78.1733898133
 20
-23.1216082085
  0
LINE
  5
303
100
AcDbEntity
  8
0
100
AcDbLine
 62
253
  6
CONTINUOUS
 10
-78.2500761524
 20
-28.0
 11
-78.2798308757
 21
-27.970265463
  0
LINE
  5
304
100
AcDbEntity
  8
0
100
AcDbLine
 62
253
  6
CONTINUOUS
 10
-78.75
 20
-28.4999238476
 11
-78.779734537
 21
-28.4701948679
  0
LINE
  5
305
100
AcDbEntity
  8
0
100
AcDbLine
 62
7
  6
CONTINUOUS
 10
-78.75
 20
32.5927355859
 11
-78.7690726278
 21
32.65
  0
LWPOLYLINE
  5
306
100
AcDbEntity
  8
0
100
AcDbPolyline
 62
253
  6
CONTINUOUS
 90
15
 70
0
 10
-78.7387107049
 20
-28.27177727
 10
-78.7262942581
 20
-28.245215379
 10
-78.7123868124
 20
-28.2195052752
 10
-78.6970750276
 20
-28.1947657354
 10
-78.6804033583
 20
-28.171031209
 10
-78.662408998
 20
-28.1483349864
 10
-78.6431718693
 20
-28.1267637174
 10
-78.6227492504
 20
-28.1063684473
 10
-78.6011294944
 20
-28.0871411831
 10
-78.5783486182
 20
-28.069134323
 10
-78.5545015648
 20
-28.0524423656
 10
-78.5296581182
 20
-28.0371295715
 10
-78.5038582604
 20
-28.0232403311
 10
-78.4772196623
 20
-28.0108570896
 10
-78.4499435503
 20
-28.0000759889
  0
LWPOLYLINE
  5
307
100
AcDbEntity
  8
0
100
AcDbPolyline
 62
253
  6
CONTINUOUS
 90
4
 70
0
 10
-78.3653842567
 20
-43.0223692046
 10
-78.3938596202
 20
-43.0165698935
 10
-78.4221229863
 20
-43.0090746916
 10
-78.4499435503
 20
-42.9999240111
  0
LWPOLYLINE
  5
308
100
AcDbEntity
  8
0
100
AcDbPolyline
 62
253
  6
CONTINUOUS
 90
8
 70
0
 10
-78.7387107049
 20
28.27177727
 10
-78.7495488468
 20
28.2990228163
 10
-78.7587745714
 20
28.326869563
 10
-78.7663513841
 20
28.355211058
 10
-78.7722318176
 20
28.3838279076
 10
-78.7764121225
 20
28.4125771618
 10
-78.7789087546
 20
28.4413989087
 10
-78.7797345365
 20
28.4701949
  0
LINE
  5
309
100
AcDbEntity
  8
0
100
AcDbLine
 62
253
  6
CONTINUOUS
 10
-78.9722941962
 20
-21.8234085352
 11
-78.85
 21
-21.7010963722
  0
LINE
  5
30A
100
AcDbEntity
  8
0
100
AcDbLine
 62
253
  6
CONTINUOUS
 10
-78.173405772
 20
-22.6222934411
 11
-78.0510963722
 21
-22.5
  0
LWPOLYLINE
  5
30B
100
AcDbEntity
  8
RACCORDO
100
AcDbPolyline
 62
253
  6
CONTINUOUS
 90
15
 70
0
 10
78.9740075583
 20
92.8251051036
 10
78.9766592673
 20
92.8266422103
 10
78.9812985559
 20
92.8281731656
 10
78.9879068583
 20
92.8296918429
 10
78.9964577289
 20
92.8311921646
 10
79.0069169482
 20
92.8326681266
 10
79.0192426597
 20
92.8341138224
 10
79.0333855375
 20
92.8355234664
 10
79.0492889836
 20
92.8368914174
 10
79.0668893544
 20
92.838212201
 10
79.0861162154
 20
92.8394805317
 10
79.1068926232
 20
92.8406913337
 10
79.1291354333
 20
92.8418397615
 10
79.1527556328
 20
92.8429212194
 10
79.1776586965
 20
92.8439313794
  0
LINE
  5
30C
100
AcDbEntity
  8
0
100
AcDbLine
 62
7
  6
CONTINUOUS
 10
-27.9072644141
 20
43.0
 11
-27.85
 21
43.0190726278
  0
LWPOLYLINE
  5
30D
100
AcDbEntity
  8
RACCORDO
100
AcDbPolyline
 62
253
  6
CONTINUOUS
 90
16
 70
0
 10
-78.1733898133
 20
-47.8783917915
 10
-78.2331115525
 20
-47.8797820404
 10
-78.2924308151
 20
-47.8838572403
 10
-78.3513476009
 20
-47.8906173912
 10
-78.4099212329
 20
-47.9000645787
 10
-78.4680923883
 20
-47.9121967172
 10
-78.5256830984
 20
-47.9270075498
 10
-78.5828905788
 20
-47.9445941481
 10
-78.639517614
 20
-47.9648594406
 10
-78.6947945892
 20
-47.987505955
 10
-78.7484442274
 20
-48.0124336439
 10
-78.8007438055
 20
-48.0397425547
 10
-78.8517555397
 20
-48.0694353578
 10
-78.9015001687
 20
-48.1015129432
 10
-78.9499569538
 20
-48.1359744209
 10
-78.9971258949
 20
-48.1728197908
  0
LWPOLYLINE
  5
30E
100
AcDbEntity
  8
RACCORDO
100
AcDbPolyline
 62
253
  6
CONTINUOUS
 90
34
 70
0
 10
-78.173401514
 20
-48.3777065428
 10
-78.2104678201
 20
-48.3785000978
 10
-78.247422577
 20
-48.3810036987
 10
-78.2841875425
 20
-48.3852083419
 10
-78.3206421534
 20
-48.3910931227
 10
-78.356753411
 20
-48.3986462922
 10
-78.3925718764
 20
-48.4078850642
 10
-78.4281485691
 20
-48.4188476826
 10
-78.4632681409
 20
-48.4314929649
 10
-78.4975907041
 20
-48.4456940436
 10
-78.5308833883
 20
-48.4613141312
 10
-78.5632617795
 20
-48.4783663006
 10
-78.5949091661
 20
-48.4969422423
 10
-78.6257217642
 20
-48.516994531
 10
-78.655658213
 20
-48.538511256
 10
-78.6849468585
 20
-48.5617098607
 10
-78.713645434
 20
-48.5867450765
 10
-78.7414638816
 20
-48.6134790532
 10
-78.7681003371
 20
-48.6416954613
 10
-78.7934716342
 20
-48.6713543105
 10
-78.8174896921
 20
-48.7024019414
 10
-78.8399087607
 20
-48.734538496
 10
-78.8606210651
 20
-48.767575938
 10
-78.8796588945
 20
-48.8015286783
 10
-78.8970178796
 20
-48.8363769353
 10
-78.9126653438
 20
-48.8720594831
 10
-78.9265534493
 20
-48.9084719475
 10
-78.9386512061
 20
-48.9455324424
 10
-78.9489287728
 20
-48.983153115
 10
-78.9573610828
 20
-49.0212458478
 10
-78.9639290351
 20
-49.0597268007
 10
-78.9686155232
 20
-49.098507353
 10
-78.9714065831
 20
-49.1374940721
 10
-78.9722934618
 20
-49.1765948872
  0
LINE
  5
30F
100
AcDbEntity
  8
0
100
AcDbLine
 62
7
  6
CONTINUOUS
 10
-78.0510963722
 20
-48.5
 11
78.0510963722
 21
-48.5
  0
LINE
  5
310
100
AcDbEntity
  8
RACCORDO
100
AcDbLine
 62
253
  6
CONTINUOUS
 10
78.1734055404
 20
-48.3777065589
 11
-78.1734014978
 21
-48.3777065589
  0
LINE
  5
311
100
AcDbEntity
  8
RACCORDO
100
AcDbLine
 62
253
  6
CONTINUOUS
 10
78.1733898133
 20
-47.8783917915
 11
-78.1733898133
 21
-47.8783917915
  0
LINE
  5
312
100
AcDbEntity
  8
0
100
AcDbLine
 62
253
  6
CONTINUOUS
 10
78.2798106894
 20
-43.229704076
 11
-78.2798106894
 21
-43.229704076
  0
LINE
  5
313
100
AcDbEntity
  8
0
100
AcDbLine
 62
253
  6
CONTINUOUS
 10
78.2798308757
 20
-43.029734537
 11
-78.2798308992
 21
-43.029734537
  0
LINE
  5
314
100
AcDbEntity
  8
0
100
AcDbLine
 62
7
  6
CONTINUOUS
 10
-27.85
 20
-43.0190726278
 11
-22.5416409387
 21
-43.0190726278
  0
LINE
  5
315
100
AcDbEntity
  8
0
100
AcDbLine
 62
7
  6
CONTINUOUS
 10
22.5416409387
 20
-43.0190726278
 11
27.85
 21
-43.0190726278
  0
LINE
  5
316
100
AcDbEntity
  8
0
100
AcDbLine
 62
7
  6
CONTINUOUS
 10
-78.2500761524
 20
-43.0
 11
-27.9072644141
 21
-43.0
  0
LINE
  5
317
100
AcDbEntity
  8
0
100
AcDbLine
 62
7
  6
CONTINUOUS
 10
-22.4843765246
 20
-43.0
 11
22.4843765246
 21
-43.0
  0
LINE
  5
318
100
AcDbEntity
  8
0
100
AcDbLine
 62
7
  6
CONTINUOUS
 10
27.9072644141
 20
-43.0
 11
78.2500761524
 21
-43.0
  0
LINE
  5
319
100
AcDbEntity
  8
RACCORDO
100
AcDbLine
 62
7
  6
CONTINUOUS
 10
78.232495013
 20
-42.9
 11
-78.232495013
 21
-42.9
  0
LINE
  5
31A
100
AcDbEntity
  8
RACCORDO
100
AcDbLine
 62
253
  6
CONTINUOUS
 10
78.232495013
 20
-42.8
 11
-78.232495013
 21
-42.8
  0
LINE
  5
31B
100
AcDbEntity
  8
0
100
AcDbLine
 62
253
  6
CONTINUOUS
 10
-78.979704076
 20
-42.5298106894
 11
-78.779734537
 21
-42.5298106894
  0
LINE
  5
31C
100
AcDbEntity
  8
0
100
AcDbLine
 62
253
  6
CONTINUOUS
 10
78.979704076
 20
-42.5298106894
 11
78.779734537
 21
-42.5298106894
  0
LINE
  5
31D
100
AcDbEntity
  8
RACCORDO
100
AcDbLine
 62
253
  6
CONTINUOUS
 10
78.632495013
 20
-42.5
 11
78.532495013
 21
-42.5
  0
LINE
  5
31E
100
AcDbEntity
  8
RACCORDO
100
AcDbLine
 62
253
  6
CONTINUOUS
 10
-78.632495013
 20
-42.5
 11
-78.532495013
 21
-42.5
  0
LINE
  5
31F
100
AcDbEntity
  8
0
100
AcDbLine
 62
7
  6
CONTINUOUS
 10
-78.75
 20
-38.4072644141
 11
-78.65
 21
-38.4072644141
  0
LINE
  5
320
100
AcDbEntity
  8
0
100
AcDbLine
 62
7
  6
CONTINUOUS
 10
78.75
 20
-38.4072644141
 11
78.65
 21
-38.4072644141
  0
LWPOLYLINE
  5
321
100
AcDbEntity
  8
0
100
AcDbPolyline
 62
253
  6
CONTINUOUS
 90
28
 70
0
 10
-78.2798106894
 20
-43.229704076
 10
-78.3198940388
 20
-43.2286087075
 10
-78.359821391
 20
-43.2251675781
 10
-78.3995927461
 20
-43.219380688
 10
-78.439407311
 20
-43.211223447
 10
-78.4790658787
 20
-43.2007204452
 10
-78.5179708278
 20
-43.1879454525
 10
-78.5560990819
 20
-43.1728375119
 10
-78.5934737175
 20
-43.1554575805
 10
-78.6295663427
 20
-43.1360622993
 10
-78.6643017879
 20
-43.1146451826
 10
-78.6977552228
 20
-43.0912127161
 10
-78.7296237643
 20
-43.0660409986
 10
-78.7598640727
 20
-43.0391595227
 10
-78.7885194877
 20
-43.0105387956
 10
-78.8154171452
 20
-42.9803664375
 10
-78.8405779907
 20
-42.9486203364
 10
-78.8639810787
 20
-42.9153226042
 10
-78.8853907088
 20
-42.880727197
 10
-78.904814538
 20
-42.8447600723
 10
-78.9222449092
 20
-42.8074952727
 10
-78.9374231506
 20
-42.769408882
 10
-78.9502992033
 20
-42.7304662102
 10
-78.9609231263
 20
-42.6907019473
 10
-78.9691864245
 20
-42.6506962483
 10
-78.9750529331
 20
-42.6106424981
 10
-78.9785588169
 20
-42.5703473118
 10
-78.979704076
 20
-42.5298106894
  0
LWPOLYLINE
  5
322
100
AcDbEntity
  8
0
100
AcDbPolyline
 62
253
  6
CONTINUOUS
 90
4
 70
0
 10
-78.2798309008
 20
-43.0297345382
 10
-78.308293812
 20
-43.0289263483
 10
-78.3368437159
 20
-43.0264788802
 10
-78.3653842567
 20
-43.0223692046
  0
LINE
  5
323
100
AcDbEntity
  8
0
100
AcDbLine
 62
7
  6
CONTINUOUS
 10
-27.9072644141
 20
-43.0
 11
-27.85
 21
-43.0190726278
  0
LWPOLYLINE
  5
324
100
AcDbEntity
  8
RACCORDO
100
AcDbPolyline
 62
253
  6
CONTINUOUS
 90
16
 70
0
 10
78.9740087314
 20
-92.8251051036
 10
78.9766604305
 20
-92.8266422106
 10
78.9812997026
 20
-92.8281731663
 10
78.9879079821
 20
-92.8296918441
 10
78.9964588235
 20
-92.8311921664
 10
79.0069180077
 20
-92.8326681292
 10
79.0192436786
 20
-92.8341138258
 10
79.0333865105
 20
-92.8355234709
 10
79.0492899059
 20
-92.8368914231
 10
79.0668902219
 20
-92.8382122083
 10
79.0861170244
 20
-92.8394805407
 10
79.1068933706
 20
-92.8406913447
 10
79.1291361167
 20
-92.8418397749
 10
79.1527562504
 20
-92.8429212353
 10
79.1776592474
 20
-92.8439313982
 10
79.2309104636
 20
-92.8457219628
  0
LINE
  5
325
100
AcDbEntity
  8
0
100
AcDbLine
 62
253
  6
CONTINUOUS
 10
-78.1734014978
 20
22.6222934411
 11
-78.0510963722
 21
22.5
  0
LINE
  5
326
100
AcDbEntity
  8
0
100
AcDbLine
 62
253
  6
CONTINUOUS
 10
-78.972294083
 20
21.8234057338
 11
-78.85
 21
21.7010963722
  0
LINE
  5
327
100
AcDbEntity
  8
0
100
AcDbLine
 62
7
  6
CONTINUOUS
 10
-27.9072644141
 20
43.0
 11
-27.9072644141
 21
42.9
  0
LINE
  5
328
100
AcDbEntity
  8
0
100
AcDbLine
 62
7
  6
CONTINUOUS
 10
-27.9072644141
 20
-43.0
 11
-27.9072644141
 21
-42.9
  0
LINE
  5
329
100
AcDbEntity
  8
0
100
AcDbLine
 62
7
  6
CONTINUOUS
 10
-27.9072644141
 20
-28.0
 11
-27.9072644141
 21
-28.1
  0
LINE
  5
32A
100
AcDbEntity
  8
0
100
AcDbLine
 62
7
  6
CONTINUOUS
 10
-27.9072644141
 20
28.0
 11
-27.9072644141
 21
28.1
  0
LINE
  5
32B
100
AcDbEntity
  8
RACCORDO
100
AcDbLine
 62
7
  6
CONTINUOUS
 10
-26.5
 20
-43.0190726278
 11
-26.5
 21
-42.9
  0
LINE
  5
32C
100
AcDbEntity
  8
RACCORDO
100
AcDbLine
 62
7
  6
CONTINUOUS
 10
-26.5
 20
-28.1
 11
-26.5
 21
-27.9809273722
  0
LINE
  5
32D
100
AcDbEntity
  8
RACCORDO
100
AcDbLine
 62
7
  6
CONTINUOUS
 10
-26.5
 20
27.9809273722
 11
-26.5
 21
28.1
  0
LINE
  5
32E
100
AcDbEntity
  8
RACCORDO
100
AcDbLine
 62
7
  6
CONTINUOUS
 10
-26.5
 20
42.9
 11
-26.5
 21
43.0190726278
  0
LINE
  5
32F
100
AcDbEntity
  8
0
100
AcDbLine
 62
253
  6
CONTINUOUS
 10
-78.779734537
 20
-42.5298051004
 11
-78.75
 21
-42.5000761524
  0
LINE
  5
330
100
AcDbEntity
  8
0
100
AcDbLine
 62
253
  6
CONTINUOUS
 10
-78.2798308992
 20
-43.029734537
 11
-78.2500761524
 21
-43.0
  0
LINE
  5
331
100
AcDbEntity
  8
RACCORDO
100
AcDbLine
 62
253
  6
CONTINUOUS
 10
79.1469813377
 20
93.6074250972
 11
79.196980215
 21
93.6467417117
  0
LINE
  5
332
100
AcDbEntity
  8
0
100
AcDbLine
 62
7
  6
CONTINUOUS
 10
22.4843765246
 20
43.0
 11
22.5416409387
 21
43.0190726278
  0
LINE
  5
333
100
AcDbEntity
  8
0
100
AcDbLine
 62
7
  6
CONTINUOUS
 10
-22.4843765246
 20
28.0
 11
-22.5416409387
 21
27.9809273722
  0
LWPOLYLINE
  5
334
100
AcDbEntity
  8
RACCORDO
100
AcDbPolyline
 62
253
  6
CONTINUOUS
 90
16
 70
0
 10
78.1733898133
 20
-23.1216082085
 10
78.2327735477
 20
-23.1202718462
 10
78.2919207499
 20
-23.1162202808
 10
78.35083142
 20
-23.1094535124
 10
78.4096311269
 20
-23.0999656502
 10
78.4681943017
 20
-23.0877625849
 10
78.5261442375
 20
-23.0728619888
 10
78.583596438
 20
-23.055176251
 10
78.6404353996
 20
-23.0347929823
 10
78.6959379042
 20
-23.011992687
 10
78.7499486189
 20
-22.9867879096
 10
78.8026228765
 20
-22.9591661055
 10
78.853703457
 20
-22.9293701449
 10
78.9031046204
 20
-22.8974809845
 10
78.9509121066
 20
-22.8634176677
 10
78.9971259156
 20
-22.8271801945
  0
LWPOLYLINE
  5
335
100
AcDbEntity
  8
RACCORDO
100
AcDbPolyline
 62
253
  6
CONTINUOUS
 90
34
 70
0
 10
78.1734005214
 20
-22.6222934558
 10
78.2108222469
 20
-22.6214841831
 10
78.2482374403
 20
-22.6189218551
 10
78.2855638285
 20
-22.6146007402
 10
78.3227160303
 20
-22.6085198637
 10
78.3596129092
 20
-22.6006807447
 10
78.3961774906
 20
-22.5910861826
 10
78.4324118621
 20
-22.5797156044
 10
78.4681419882
 20
-22.5666037517
 10
78.5030394137
 20
-22.5518769216
 10
78.5369422882
 20
-22.5356381985
 10
78.5698842289
 20
-22.5179073506
 10
78.6018453793
 20
-22.4987190593
 10
78.6326924643
 20
-22.4781815369
 10
78.6624466741
 20
-22.4563091127
 10
78.6912957901
 20
-22.432957905
 10
78.7192196859
 20
-22.4081035972
 10
78.746076552
 20
-22.3818292621
 10
78.7718389165
 20
-22.3541157438
 10
78.7964707496
 20
-22.3249379295
 10
78.819832053
 20
-22.2943942113
 10
78.8417507093
 20
-22.262664689
 10
78.8621533762
 20
-22.2298298926
 10
78.880990293
 20
-22.1959434024
 10
78.8981601319
 20
-22.1611714873
 10
78.9136126791
 20
-22.1256176787
 10
78.9273224663
 20
-22.089343583
 10
78.9392485365
 20
-22.0524643231
 10
78.9493628663
 20
-22.0150816677
 10
78.9576504152
 20
-21.977269689
 10
78.9640983807
 20
-21.9391044432
 10
78.9686941308
 20
-21.9006706489
 10
78.9714273893
 20
-21.8620619562
 10
78.972293411
 20
-21.8233680407
  0
LINE
  5
336
100
AcDbEntity
  8
RACCORDO
100
AcDbLine
 62
7
  6
CONTINUOUS
 10
78.7690726278
 20
-37.0
 11
78.632495013
 21
-37.0
  0
LINE
  5
337
100
AcDbEntity
  8
RACCORDO
100
AcDbLine
 62
7
  6
CONTINUOUS
 10
-78.632495013
 20
-37.0
 11
-78.7690726278
 21
-37.0
  0
LINE
  5
338
100
AcDbEntity
  8
RACCORDO
100
AcDbLine
 62
7
  6
CONTINUOUS
 10
-78.7690726278
 20
-34.0
 11
-78.632495013
 21
-34.0
  0
LINE
  5
339
100
AcDbEntity
  8
RACCORDO
100
AcDbLine
 62
7
  6
CONTINUOUS
 10
78.632495013
 20
-34.0
 11
78.7690726278
 21
-34.0
  0
LINE
  5
33A
100
AcDbEntity
  8
0
100
AcDbLine
 62
7
  6
CONTINUOUS
 10
-78.75
 20
-32.5927355859
 11
-78.65
 21
-32.5927355859
  0
LINE
  5
33B
100
AcDbEntity
  8
0
100
AcDbLine
 62
7
  6
CONTINUOUS
 10
78.75
 20
-32.5927355859
 11
78.65
 21
-32.5927355859
  0
LINE
  5
33C
100
AcDbEntity
  8
RACCORDO
100
AcDbLine
 62
253
  6
CONTINUOUS
 10
-78.632495013
 20
-28.5
 11
-78.532495013
 21
-28.5
  0
LINE
  5
33D
100
AcDbEntity
  8
RACCORDO
100
AcDbLine
 62
253
  6
CONTINUOUS
 10
78.632495013
 20
-28.5
 11
78.532495013
 21
-28.5
  0
LINE
  5
33E
100
AcDbEntity
  8
0
100
AcDbLine
 62
253
  6
CONTINUOUS
 10
-78.979704076
 20
-28.4701893106
 11
-78.779734537
 21
-28.4701893106
  0
LINE
  5
33F
100
AcDbEntity
  8
0
100
AcDbLine
 62
253
  6
CONTINUOUS
 10
78.979704076
 20
-28.4701893106
 11
78.779734537
 21
-28.4701893106
  0
LINE
  5
340
100
AcDbEntity
  8
RACCORDO
100
AcDbLine
 62
253
  6
CONTINUOUS
 10
-78.232495013
 20
-28.2
 11
78.232495013
 21
-28.2
  0
LINE
  5
341
100
AcDbEntity
  8
RACCORDO
100
AcDbLine
 62
7
  6
CONTINUOUS
 10
-78.232495013
 20
-28.1
 11
78.232495013
 21
-28.1
  0
LINE
  5
342
100
AcDbEntity
  8
0
100
AcDbLine
 62
7
  6
CONTINUOUS
 10
-78.2500761524
 20
-28.0
 11
-27.9072644141
 21
-28.0
  0
LINE
  5
343
100
AcDbEntity
  8
0
100
AcDbLine
 62
7
  6
CONTINUOUS
 10
22.4843765246
 20
-28.0
 11
-22.4843765246
 21
-28.0
  0
LINE
  5
344
100
AcDbEntity
  8
0
100
AcDbLine
 62
7
  6
CONTINUOUS
 10
27.9072644141
 20
-28.0
 11
78.2500761524
 21
-28.0
  0
LINE
  5
345
100
AcDbEntity
  8
0
100
AcDbLine
 62
7
  6
CONTINUOUS
 10
-27.85
 20
-27.9809273722
 11
-22.5416409387
 21
-27.9809273722
  0
LINE
  5
346
100
AcDbEntity
  8
0
100
AcDbLine
 62
7
  6
CONTINUOUS
 10
22.5416409387
 20
-27.9809273722
 11
27.85
 21
-27.9809273722
  0
LINE
  5
347
100
AcDbEntity
  8
0
100
AcDbLine
 62
253
  6
CONTINUOUS
 10
-78.2798308757
 20
-27.970265463
 11
78.2798308992
 21
-27.970265463
  0
LINE
  5
348
100
AcDbEntity
  8
0
100
AcDbLine
 62
253
  6
CONTINUOUS
 10
-78.2798106894
 20
-27.770295924
 11
78.2798106894
 21
-27.770295924
  0
LWPOLYLINE
  5
349
100
AcDbEntity
  8
0
100
AcDbPolyline
 62
253
  6
CONTINUOUS
 90
28
 70
0
 10
78.2798106894
 20
-27.770295924
 10
78.3198940388
 20
-27.7713912925
 10
78.359821391
 20
-27.7748324219
 10
78.3995927461
 20
-27.780619312
 10
78.439407311
 20
-27.788776553
 10
78.4790658787
 20
-27.7992795548
 10
78.5179708278
 20
-27.8120545475
 10
78.5560990819
 20
-27.8271624881
 10
78.5934737175
 20
-27.8445424195
 10
78.6295663427
 20
-27.8639377007
 10
78.6643017879
 20
-27.8853548174
 10
78.6977552228
 20
-27.9087872839
 10
78.7296237643
 20
-27.9339590014
 10
78.7598640727
 20
-27.9608404773
 10
78.7885194877
 20
-27.9894612044
 10
78.8154171452
 20
-28.0196335625
 10
78.8405779907
 20
-28.0513796636
 10
78.8639810787
 20
-28.0846773958
 10
78.8853907088
 20
-28.119272803
 10
78.904814538
 20
-28.1552399277
 10
78.9222449092
 20
-28.1925047273
 10
78.9374231506
 20
-28.230591118
 10
78.9502992033
 20
-28.2695337898
 10
78.9609231263
 20
-28.3092980527
 10
78.9691864245
 20
-28.3493037517
 10
78.9750529331
 20
-28.3893575019
 10
78.9785588169
 20
-28.4296526882
 10
78.979704076
 20
-28.4701893106
  0
LWPOLYLINE
  5
34A
100
AcDbEntity
  8
0
100
AcDbPolyline
 62
253
  6
CONTINUOUS
 90
4
 70
0
 10
78.2798309008
 20
-27.9702654618
 10
78.308293812
 20
-27.9710736517
 10
78.3368437159
 20
-27.9735211198
 10
78.3653842567
 20
-27.9776307954
  0
LINE
  5
34B
100
AcDbEntity
  8
0
100
AcDbLine
 62
7
  6
CONTINUOUS
 10
22.4843765246
 20
-43.0
 11
22.5416409387
 21
-43.0190726278
  0
LINE
  5
34C
100
AcDbEntity
  8
0
100
AcDbLine
 62
7
  6
CONTINUOUS
 10
-22.4843765246
 20
-28.0
 11
-22.5416409387
 21
-27.9809273722
  0
LINE
  5
34D
100
AcDbEntity
  8
RACCORDO
100
AcDbLine
 62
253
  6
CONTINUOUS
 10
79.1469813103
 20
-93.6074250553
 11
79.196980215
 21
-93.6467416848
  0
LINE
  5
34E
100
AcDbEntity
  8
0
100
AcDbLine
 62
253
  6
CONTINUOUS
 10
-78.2500761524
 20
43.0
 11
-78.2798308757
 21
43.029734537
  0
LINE
  5
34F
100
AcDbEntity
  8
0
100
AcDbLine
 62
253
  6
CONTINUOUS
 10
-78.75
 20
42.5000761524
 11
-78.779734537
 21
42.5298051321
  0
LWPOLYLINE
  5
350
100
AcDbEntity
  8
0
100
AcDbPolyline
 62
7
  6
CONTINUOUS
 90
19
 70
0
 10
4.8214020807
 20
-99.0286629956
 10
4.8116082039
 20
-99.0047721667
 10
4.8006364752
 20
-98.9817334716
 10
4.7884868945
 20
-98.9595469401
 10
4.775155765
 20
-98.9381366545
 10
4.7606467835
 20
-98.9175785864
 10
4.744971041
 20
-98.8981006034
 10
4.7280323404
 20
-98.8795925172
 10
4.7099268787
 20
-98.8621645749
 10
4.6909543383
 20
-98.8463753161
 10
4.6710658017
 20
-98.8323498719
 10
4.6503101863
 20
-98.8199631848
 10
4.6291339263
 20
-98.8093985239
 10
4.607638235
 20
-98.8008091781
 10
4.585721899
 20
-98.7940419109
 10
4.5635277128
 20
-98.7888201964
 10
4.5411032747
 20
-98.7850518649
 10
4.5184009863
 20
-98.782829106
 10
4.4954208479
 20
-98.7821519248
  0
LINE
  5
351
100
AcDbEntity
  8
0
100
AcDbLine
 62
7
  6
CONTINUOUS
 10
-0.774487
 20
-99.877801
 11
-1.460068
 21
-98.049647
  0
LINE
  5
352
100
AcDbEntity
  8
0
100
AcDbLine
 62
7
  6
CONTINUOUS
 10
-0.730314
 20
-98.632502
 11
-1.30855
 21
-97.078098
  0
LINE
  5
353
100
AcDbEntity
  8
0
100
AcDbLine
 62
7
  6
CONTINUOUS
 10
-4.746107
 20
-99.877801
 11
-5.633668
 21
-97.078098
  0
LINE
  5
354
100
AcDbEntity
  8
0
100
AcDbLine
 62
7
  6
CONTINUOUS
 10
3.298408
 20
-99.877801
 11
2.43939
 21
-97.078098
  0
LINE
  5
355
100
AcDbEntity
  8
0
100
AcDbLine
 62
7
  6
CONTINUOUS
 10
-4.465146
 20
-99.00522
 11
-4.99882
 21
-97.078098
  0
LINE
  5
356
100
AcDbEntity
  8
RACCORDO
100
AcDbLine
 62
7
  6
CONTINUOUS
 10
-23.5
 20
43.0190726278
 11
-23.5
 21
42.9
  0
LINE
  5
357
100
AcDbEntity
  8
RACCORDO
100
AcDbLine
 62
7
  6
CONTINUOUS
 10
-23.5
 20
28.1
 11
-23.5
 21
27.9809273722
  0
LINE
  5
358
100
AcDbEntity
  8
RACCORDO
100
AcDbLine
 62
7
  6
CONTINUOUS
 10
-23.5
 20
-27.9809273722
 11
-23.5
 21
-28.1
  0
LINE
  5
359
100
AcDbEntity
  8
RACCORDO
100
AcDbLine
 62
7
  6
CONTINUOUS
 10
-23.5
 20
-42.9
 11
-23.5
 21
-43.0190726278
  0
LINE
  5
35A
100
AcDbEntity
  8
0
100
AcDbLine
 62
7
  6
CONTINUOUS
 10
-22.4843765246
 20
43.0
 11
-22.4843765246
 21
42.9
  0
LINE
  5
35B
100
AcDbEntity
  8
0
100
AcDbLine
 62
7
  6
CONTINUOUS
 10
-22.4843765246
 20
-28.0
 11
-22.4843765246
 21
-28.1
  0
LINE
  5
35C
100
AcDbEntity
  8
0
100
AcDbLine
 62
7
  6
CONTINUOUS
 10
-22.4843765246
 20
-42.9
 11
-22.4843765246
 21
-43.0
  0
LINE
  5
35D
100
AcDbEntity
  8
0
100
AcDbLine
 62
7
  6
CONTINUOUS
 10
-22.4843765246
 20
28.0
 11
-22.4843765246
 21
28.1
  0
LWPOLYLINE
  5
35E
100
AcDbEntity
  8
RACCORDO
100
AcDbPolyline
 62
253
  6
CONTINUOUS
 90
13
 70
0
 10
-78.8037064614
 20
-93.314998069
 10
-78.8055658924
 20
-93.31805041
 10
-78.809012152
 20
-93.3223332818
 10
-78.8140312688
 20
-93.3278293215
 10
-78.8206028947
 20
-93.3345162473
 10
-78.8287003877
 20
-93.3423669498
 10
-78.8382909196
 20
-93.3513496014
 10
-78.8493356094
 20
-93.3614277855
 10
-78.8617896808
 20
-93.3725606442
 10
-78.8756026437
 20
-93.3847030435
 10
-78.8907184989
 20
-93.397805757
 10
-78.907075965
 20
-93.4118156649
 10
-78.9246087271
 20
-93.4266759696
  0
LINE
  5
35F
100
AcDbEntity
  8
RACCORDO
100
AcDbLine
 62
253
  6
CONTINUOUS
 10
78.9246087271
 20
93.4266759696
 11
78.9629113444
 21
93.4587035847
  0
LINE
  5
360
100
AcDbEntity
  8
RACCORDO
100
AcDbLine
 62
253
  6
CONTINUOUS
 10
78.9629113444
 20
93.4587035847
 11
79.0050058488
 21
93.4933697556
  0
LINE
  5
361
100
AcDbEntity
  8
RACCORDO
100
AcDbLine
 62
253
  6
CONTINUOUS
 10
79.0050058488
 20
93.4933697556
 11
79.0502103099
 21
93.5301128908
  0
LINE
  5
362
100
AcDbEntity
  8
RACCORDO
100
AcDbLine
 62
253
  6
CONTINUOUS
 10
79.0502103099
 20
93.5301128908
 11
79.097792416
 21
93.5683377521
  0
LINE
  5
363
100
AcDbEntity
  8
RACCORDO
100
AcDbLine
 62
253
  6
CONTINUOUS
 10
79.097792416
 20
93.5683377521
 11
79.1469813377
 21
93.6074250972
  0
LINE
  5
364
100
AcDbEntity
  8
0
100
AcDbLine
 62
7
  6
CONTINUOUS
 10
27.9072644141
 20
28.0
 11
27.85
 21
27.9809273722
  0
LINE
  5
365
100
AcDbEntity
  8
RACCORDO
100
AcDbLine
 62
253
  6
CONTINUOUS
 10
-78.1733898133
 20
-23.1216082085
 11
78.1733898133
 21
-23.1216082085
  0
LINE
  5
366
100
AcDbEntity
  8
RACCORDO
100
AcDbLine
 62
253
  6
CONTINUOUS
 10
-78.173405772
 20
-22.6222934411
 11
78.1734005066
 21
-22.6222934411
  0
LINE
  5
367
100
AcDbEntity
  8
0
100
AcDbLine
 62
7
  6
CONTINUOUS
 10
78.0510963722
 20
-22.5
 11
-78.0510963722
 21
-22.5
  0
LWPOLYLINE
  5
368
100
AcDbEntity
  8
0
100
AcDbPolyline
 62
253
  6
CONTINUOUS
 90
4
 70
0
 10
78.3653842567
 20
-27.9776307954
 10
78.3938596202
 20
-27.9834301065
 10
78.4221229863
 20
-27.9909253084
 10
78.4499435503
 20
-28.0000759889
  0
LINE
  5
369
100
AcDbEntity
  8
0
100
AcDbLine
 62
7
  6
CONTINUOUS
 10
27.9072644141
 20
-28.0
 11
27.85
 21
-27.9809273722
  0
LINE
  5
36A
100
AcDbEntity
  8
RACCORDO
100
AcDbLine
 62
253
  6
CONTINUOUS
 10
79.0977923527
 20
-93.5683376878
 11
79.1469813103
 21
-93.6074250553
  0
LINE
  5
36B
100
AcDbEntity
  8
RACCORDO
100
AcDbLine
 62
253
  6
CONTINUOUS
 10
79.0502102046
 20
-93.5301127986
 11
79.0977923527
 21
-93.5683376878
  0
LINE
  5
36C
100
AcDbEntity
  8
RACCORDO
100
AcDbLine
 62
253
  6
CONTINUOUS
 10
79.0050056977
 20
-93.4933696316
 11
79.0502102046
 21
-93.5301127986
  0
LINE
  5
36D
100
AcDbEntity
  8
RACCORDO
100
AcDbLine
 62
253
  6
CONTINUOUS
 10
78.9629111461
 20
-93.4587034269
 11
79.0050056977
 21
-93.4933696316
  0
LWPOLYLINE
  5
36E
100
AcDbEntity
  8
RACCORDO
100
AcDbPolyline
 62
253
  6
CONTINUOUS
 90
14
 70
0
 10
-78.8037060539
 20
93.3149977512
 10
-78.805565487
 20
93.3180500942
 10
-78.8090117512
 20
93.32233297
 10
-78.8140308749
 20
93.3278290153
 10
-78.82060251
 20
93.3345159485
 10
-78.8287000143
 20
93.3423666601
 10
-78.8382905597
 20
93.3513493223
 10
-78.8493352649
 20
93.3614275183
 10
-78.8617893534
 20
93.3725603902
 10
-78.8756023351
 20
93.3847028039
 10
-78.8907182104
 20
93.3978055326
 10
-78.9070756978
 20
93.4118154565
 10
-78.9246084823
 20
93.4266757777
 10
-78.9629111461
 20
93.4587034269
  0
LWPOLYLINE
  5
36F
100
AcDbEntity
  8
0
100
AcDbPolyline
 62
7
  6
CONTINUOUS
 90
8
 70
0
 10
4.9109669398
 20
-99.3034574497
 10
4.8992819204
 20
-99.263890603
 10
4.8873404264
 20
-99.224431617
 10
4.8751422388
 20
-99.1850855466
 10
4.862470951
 20
-99.145837165
 10
4.8492544277
 20
-99.1066814015
 10
4.8355648043
 20
-99.0676233424
 10
4.8214020807
 20
-99.0286629956
  0
LINE
  5
370
100
AcDbEntity
  8
0
100
AcDbLine
 62
7
  6
CONTINUOUS
 10
5.0770156219
 20
-99.8778013544
 11
4.9795618584
 21
-99.5437752267
  0
LWPOLYLINE
  5
371
100
AcDbEntity
  8
0
100
AcDbPolyline
 62
7
  6
CONTINUOUS
 90
4
 70
0
 10
4.9795618584
 20
-99.5437752267
 10
4.9564615218
 20
-99.4630291776
 10
4.9451425566
 20
-99.4229230692
 10
4.9109669398
 20
-99.3034574497
  0
LWPOLYLINE
  5
372
100
AcDbEntity
  8
0
100
AcDbPolyline
 62
7
  6
CONTINUOUS
 90
3
 70
0
 10
5.4155219952
 20
-99.0328103637
 10
5.4276451642
 20
-99.0763647718
 10
5.4335704245
 20
-99.0982139693
  0
LINE
  5
373
100
AcDbEntity
  8
0
100
AcDbLine
 62
7
  6
CONTINUOUS
 10
2.682466
 20
-99.877801
 11
2.531074
 21
-99.318881
  0
LINE
  5
374
100
AcDbEntity
  8
0
100
AcDbLine
 62
7
  6
CONTINUOUS
 10
5.4335704245
 20
-99.0982139693
 11
5.5093640783
 21
-99.3825105319
  0
LINE
  5
375
100
AcDbEntity
  8
0
100
AcDbLine
 62
7
  6
CONTINUOUS
 10
5.5093640783
 20
-99.3825105319
 11
5.6391482119
 21
-99.8778013544
  0
LINE
  5
376
100
AcDbEntity
  8
0
100
AcDbLine
 62
7
  6
CONTINUOUS
 10
2.41428
 20
-98.886391
 11
2.145737
 21
-97.847385
  0
LINE
  5
377
100
AcDbEntity
  8
0
100
AcDbLine
 62
7
  6
CONTINUOUS
 10
0.694112
 20
-99.877801
 11
0.432308
 21
-97.078098
  0
LINE
  5
378
100
AcDbEntity
  8
0
100
AcDbLine
 62
7
  6
CONTINUOUS
 10
0.122406
 20
-99.877801
 11
0.002337
 21
-98.057269
  0
LWPOLYLINE
  5
379
100
AcDbEntity
  8
0
100
AcDbPolyline
 62
7
  6
CONTINUOUS
 90
25
 70
0
 10
4.9506521922
 20
-97.8887861145
 10
4.9497124372
 20
-97.8684390082
 10
4.947584982
 20
-97.8481756757
 10
4.9442698264
 20
-97.8279961197
 10
4.9397852595
 20
-97.8078692853
 10
4.9341129923
 20
-97.787826232
 10
4.9271981577
 20
-97.7679601362
 10
4.919058185
 20
-97.7482116944
 10
4.9096756449
 20
-97.728640219
 10
4.8989433827
 20
-97.70951682
 10
4.8867752113
 20
-97.6907471906
 10
4.8732573177
 20
-97.6724256592
 10
4.858541108
 20
-97.6551063091
 10
4.8425425956
 20
-97.6389000645
 10
4.8253457671
 20
-97.6236960481
 10
4.8073539883
 20
-97.6097156565
 10
4.7886160091
 20
-97.5970470612
 10
4.7690830797
 20
-97.5856021353
 10
4.7490123162
 20
-97.5753378295
 10
4.7283892052
 20
-97.5662356341
 10
4.7072282602
 20
-97.5583140891
 10
4.6858301379
 20
-97.5515857161
 10
4.664295057
 20
-97.5460546956
 10
4.6425227988
 20
-97.5417168665
 10
4.6205133632
 20
-97.5385722358
  0
LINE
  5
37A
100
AcDbEntity
  8
0
100
AcDbLine
 62
7
  6
CONTINUOUS
 10
-3.034285
 20
-99.877801
 11
-3.034285
 21
-97.07793
  0
LINE
  5
37B
100
AcDbEntity
  8
0
100
AcDbLine
 62
7
  6
CONTINUOUS
 10
-2.449877
 20
-99.877801
 11
-2.449877
 21
-97.07793
  0
LINE
  5
37C
100
AcDbEntity
  8
RACCORDO
100
AcDbLine
 62
253
  6
CONTINUOUS
 10
-0.05
 20
42.8
 11
-0.05
 21
28.2
  0
LINE
  5
37D
100
AcDbEntity
  8
RACCORDO
100
AcDbLine
 62
253
  6
CONTINUOUS
 10
-0.05
 20
-28.2
 11
-0.05
 21
-42.8
  0
LINE
  5
37E
100
AcDbEntity
  8
RACCORDO
100
AcDbLine
 62
253
  6
CONTINUOUS
 10
0.05
 20
42.8
 11
0.05
 21
28.2
  0
LINE
  5
37F
100
AcDbEntity
  8
RACCORDO
100
AcDbLine
 62
253
  6
CONTINUOUS
 10
0.05
 20
-28.2
 11
0.05
 21
-42.8
  0
LINE
  5
380
100
AcDbEntity
  8
0
100
AcDbLine
 62
253
  6
CONTINUOUS
 10
78.974008705
 20
92.8251176202
 11
78.85
 21
92.7010963722
  0
LINE
  5
381
100
AcDbEntity
  8
RACCORDO
100
AcDbLine
 62
253
  6
CONTINUOUS
 10
103.8781748407
 20
115.8768043754
 11
104.0013704652
 21
116.0
  0
LINE
  5
382
100
AcDbEntity
  8
RACCORDO
100
AcDbLine
 62
253
  6
CONTINUOUS
 10
104.8700641349
 20
114.8714346001
 11
105.0
 21
115.0013704652
  0
LINE
  5
383
100
AcDbEntity
  8
0
100
AcDbLine
 62
253
  6
CONTINUOUS
 10
78.1716994065
 20
93.6205874575
 11
78.0510963722
 21
93.5
  0
LWPOLYLINE
  5
384
100
AcDbEntity
  8
0
100
AcDbPolyline
 62
253
  6
CONTINUOUS
 90
7
 70
0
 10
78.4499435503
 20
28.0000759889
 10
78.4221229871
 20
27.9909253086
 10
78.3938596219
 20
27.9834301069
 10
78.3653842567
 20
27.9776307954
 10
78.3368437107
 20
27.9735211192
 10
78.308293799
 20
27.971073651
 10
78.2798308773
 20
27.9702654618
  0
LWPOLYLINE
  5
385
100
AcDbEntity
  8
0
100
AcDbPolyline
 62
253
  6
CONTINUOUS
 90
15
 70
0
 10
-78.4499435503
 20
28.0000759889
 10
-78.4772196623
 20
28.0108570896
 10
-78.5038582604
 20
28.0232403311
 10
-78.5296581182
 20
28.0371295715
 10
-78.5545015648
 20
28.0524423656
 10
-78.5783486182
 20
28.069134323
 10
-78.6011294944
 20
28.0871411831
 10
-78.6227492504
 20
28.1063684473
 10
-78.6431718693
 20
28.1267637174
 10
-78.662408998
 20
28.1483349864
 10
-78.6804033583
 20
28.171031209
 10
-78.6970750276
 20
28.1947657354
 10
-78.7123868124
 20
28.2195052752
 10
-78.7262942581
 20
28.245215379
 10
-78.7387107049
 20
28.27177727
  0
LWPOLYLINE
  5
386
100
AcDbEntity
  8
RACCORDO
100
AcDbPolyline
 62
253
  6
CONTINUOUS
 90
16
 70
0
 10
-78.9971259023
 20
48.172819796
 10
-78.9511342393
 20
48.1367335664
 10
-78.9035087015
 20
48.1027823939
 10
-78.8542492889
 20
48.0709662785
 10
-78.8031275478
 20
48.0411562784
 10
-78.750371932
 20
48.0134813354
 10
-78.6966678019
 20
47.9883282746
 10
-78.64217307
 20
47.9658118952
 10
-78.5867298239
 20
47.945817398
 10
-78.530549687
 20
47.9283872099
 10
-78.4738894074
 20
47.9135113857
 10
-78.416492237
 20
47.9011998706
 10
-78.3577995545
 20
47.8915249274
 10
-78.2976251528
 20
47.8845106436
 10
-78.2361552391
 20
47.8801329316
 10
-78.1733898133
 20
47.8783917915
  0
LINE
  5
387
100
AcDbEntity
  8
0
100
AcDbLine
 62
253
  6
CONTINUOUS
 10
78.1716963122
 20
-93.6205874575
 11
78.0510963722
 21
-93.5
  0
LINE
  5
388
100
AcDbEntity
  8
RACCORDO
100
AcDbLine
 62
253
  6
CONTINUOUS
 10
103.8781748407
 20
-115.8768043754
 11
104.0013704652
 21
-116.0
  0
LINE
  5
389
100
AcDbEntity
  8
RACCORDO
100
AcDbLine
 62
253
  6
CONTINUOUS
 10
104.8700641349
 20
-114.8714346001
 11
105.0
 21
-115.0013704652
  0
LINE
  5
38A
100
AcDbEntity
  8
0
100
AcDbLine
 62
253
  6
CONTINUOUS
 10
78.9740086991
 20
-92.8251203816
 11
78.85
 21
-92.7010963722
  0
LINE
  5
38B
100
AcDbEntity
  8
0
100
AcDbLine
 62
7
  6
CONTINUOUS
 10
3.6000188023
 20
-99.8778013544
 11
3.6000188023
 21
-97.110807341
  0
LINE
  5
38C
100
AcDbEntity
  8
0
100
AcDbLine
 62
7
  6
CONTINUOUS
 10
4.1626972541
 20
-98.3236280866
 11
4.1626972541
 21
-97.5550547959
  0
LINE
  5
38D
100
AcDbEntity
  8
0
100
AcDbLine
 62
7
  6
CONTINUOUS
 10
4.1820753449
 20
-99.8778013544
 11
4.1820753449
 21
-98.7821519248
  0
LINE
  5
38E
100
AcDbEntity
  8
0
100
AcDbLine
 62
7
  6
CONTINUOUS
 10
5.1025031649
 20
-98.5709244369
 11
5.1025031649
 21
-98.554380628
  0
LINE
  5
38F
100
AcDbEntity
  8
0
100
AcDbLine
 62
7
  6
CONTINUOUS
 10
-1.586183
 20
-99.877801
 11
-1.460068
 21
-98.049647
  0
LINE
  5
390
100
AcDbEntity
  8
0
100
AcDbLine
 62
7
  6
CONTINUOUS
 10
-2.145272
 20
-99.877801
 11
-1.892475
 21
-97.078098
  0
LINE
  5
391
100
AcDbEntity
  8
RACCORDO
100
AcDbLine
 62
253
  6
CONTINUOUS
 10
-104.8700641349
 20
-114.8714346001
 11
-105.0
 21
-115.0013704652
  0
LINE
  5
392
100
AcDbEntity
  8
RACCORDO
100
AcDbLine
 62
253
  6
CONTINUOUS
 10
-103.8781748407
 20
-115.8768043754
 11
-104.0013704652
 21
-116.0
  0
LINE
  5
393
100
AcDbEntity
  8
0
100
AcDbLine
 62
253
  6
CONTINUOUS
 10
-78.974008705
 20
-92.8251176202
 11
-78.85
 21
-92.7010963722
  0
LINE
  5
394
100
AcDbEntity
  8
0
100
AcDbLine
 62
253
  6
CONTINUOUS
 10
-78.1716994065
 20
-93.6205874575
 11
-78.0510963722
 21
-93.5
  0
LWPOLYLINE
  5
395
100
AcDbEntity
  8
0
100
AcDbPolyline
 62
253
  6
CONTINUOUS
 90
7
 70
0
 10
-78.4499435503
 20
-28.0000759889
 10
-78.4221229871
 20
-27.9909253086
 10
-78.3938596219
 20
-27.9834301069
 10
-78.3653842567
 20
-27.9776307954
 10
-78.3368437107
 20
-27.9735211192
 10
-78.308293799
 20
-27.971073651
 10
-78.2798308773
 20
-27.9702654618
  0
LWPOLYLINE
  5
396
100
AcDbEntity
  8
0
100
AcDbPolyline
 62
253
  6
CONTINUOUS
 90
4
 70
0
 10
-78.3653842567
 20
27.9776307954
 10
-78.3938596202
 20
27.9834301065
 10
-78.4221229863
 20
27.9909253084
 10
-78.4499435503
 20
28.0000759889
  0
LWPOLYLINE
  5
397
100
AcDbEntity
  8
0
100
AcDbPolyline
 62
253
  6
CONTINUOUS
 90
15
 70
0
 10
78.4499435503
 20
-28.0000759889
 10
78.4772196623
 20
-28.0108570896
 10
78.5038582604
 20
-28.0232403311
 10
78.5296581182
 20
-28.0371295715
 10
78.5545015648
 20
-28.0524423656
 10
78.5783486182
 20
-28.069134323
 10
78.6011294944
 20
-28.0871411831
 10
78.6227492504
 20
-28.1063684473
 10
78.6431718693
 20
-28.1267637174
 10
78.662408998
 20
-28.1483349864
 10
78.6804033583
 20
-28.171031209
 10
78.6970750276
 20
-28.1947657354
 10
78.7123868124
 20
-28.2195052752
 10
78.7262942581
 20
-28.245215379
 10
78.7387107049
 20
-28.27177727
  0
LWPOLYLINE
  5
398
100
AcDbEntity
  8
RACCORDO
100
AcDbPolyline
 62
253
  6
CONTINUOUS
 90
16
 70
0
 10
78.9971259202
 20
-48.1728198088
 10
78.9505710226
 20
-48.1363312933
 10
78.9024169309
 20
-48.1020551809
 10
78.852663645
 20
-48.0699914716
 10
78.8011014988
 20
-48.0400257232
 10
78.7479401585
 20
-48.0122723778
 10
78.693808623
 20
-47.9870747623
 10
78.6388054826
 20
-47.9645255632
 10
78.582832147
 20
-47.944532094
 10
78.5262218445
 20
-47.9271596219
 10
78.4691027018
 20
-47.9124189573
 10
78.411346592
 20
-47.9002992897
 10
78.3529023635
 20
-47.8908334557
 10
78.2937529656
 20
-47.8840324008
 10
78.2339154489
 20
-47.8798851794
 10
78.1733898133
 20
-47.8783917915
  0
LINE
  5
399
100
AcDbEntity
  8
RACCORDO
100
AcDbLine
 62
253
  6
CONTINUOUS
 10
-104.8700641349
 20
114.8714346001
 11
-105.0
 21
115.0013704652
  0
LINE
  5
39A
100
AcDbEntity
  8
RACCORDO
100
AcDbLine
 62
253
  6
CONTINUOUS
 10
-103.8781748407
 20
115.8768043754
 11
-104.0013704652
 21
116.0
  0
LINE
  5
39B
100
AcDbEntity
  8
0
100
AcDbLine
 62
253
  6
CONTINUOUS
 10
-78.1716963122
 20
93.6205874575
 11
-78.0510963722
 21
93.5
  0
LINE
  5
39C
100
AcDbEntity
  8
0
100
AcDbLine
 62
253
  6
CONTINUOUS
 10
-78.9740086991
 20
92.8251203816
 11
-78.85
 21
92.7010963722
  0
LINE
  5
39D
100
AcDbEntity
  8
0
100
AcDbLine
 62
7
  6
CONTINUOUS
 10
22.4843765246
 20
43.0
 11
22.4843765246
 21
42.9
  0
LINE
  5
39E
100
AcDbEntity
  8
0
100
AcDbLine
 62
7
  6
CONTINUOUS
 10
22.4843765246
 20
-43.0
 11
22.4843765246
 21
-42.9
  0
LINE
  5
39F
100
AcDbEntity
  8
0
100
AcDbLine
 62
7
  6
CONTINUOUS
 10
22.4843765246
 20
-28.0
 11
22.4843765246
 21
-28.1
  0
LINE
  5
3A0
100
AcDbEntity
  8
0
100
AcDbLine
 62
7
  6
CONTINUOUS
 10
22.4843765246
 20
28.0
 11
22.4843765246
 21
28.1
  0
LINE
  5
3A1
100
AcDbEntity
  8
RACCORDO
100
AcDbLine
 62
7
  6
CONTINUOUS
 10
23.5
 20
-43.0190726278
 11
23.5
 21
-42.9
  0
LINE
  5
3A2
100
AcDbEntity
  8
RACCORDO
100
AcDbLine
 62
7
  6
CONTINUOUS
 10
23.5
 20
-28.1
 11
23.5
 21
-27.9809273722
  0
LINE
  5
3A3
100
AcDbEntity
  8
RACCORDO
100
AcDbLine
 62
7
  6
CONTINUOUS
 10
23.5
 20
27.9809273722
 11
23.5
 21
28.1
  0
LINE
  5
3A4
100
AcDbEntity
  8
RACCORDO
100
AcDbLine
 62
7
  6
CONTINUOUS
 10
23.5
 20
42.9
 11
23.5
 21
43.0190726278
  0
LINE
  5
3A5
100
AcDbEntity
  8
RACCORDO
100
AcDbLine
 62
7
  6
CONTINUOUS
 10
26.5
 20
43.0190726278
 11
26.5
 21
42.9
  0
LINE
  5
3A6
100
AcDbEntity
  8
RACCORDO
100
AcDbLine
 62
7
  6
CONTINUOUS
 10
26.5
 20
28.1
 11
26.5
 21
27.9809273722
  0
LINE
  5
3A7
100
AcDbEntity
  8
RACCORDO
100
AcDbLine
 62
7
  6
CONTINUOUS
 10
26.5
 20
-27.9809273722
 11
26.5
 21
-28.1
  0
LINE
  5
3A8
100
AcDbEntity
  8
RACCORDO
100
AcDbLine
 62
7
  6
CONTINUOUS
 10
26.5
 20
-42.9
 11
26.5
 21
-43.0190726278
  0
LINE
  5
3A9
100
AcDbEntity
  8
0
100
AcDbLine
 62
7
  6
CONTINUOUS
 10
-4.465146
 20
-99.00522
 11
-3.915169
 21
-97.078098
  0
LINE
  5
3AA
100
AcDbEntity
  8
0
100
AcDbLine
 62
7
  6
CONTINUOUS
 10
-4.231097
 20
-99.877801
 11
-3.33116
 21
-97.078098
  0
LWPOLYLINE
  5
3AB
100
AcDbEntity
  8
RACCORDO
100
AcDbPolyline
 62
253
  6
CONTINUOUS
 90
13
 70
0
 10
78.8037064614
 20
93.314998069
 10
78.8055658924
 20
93.31805041
 10
78.809012152
 20
93.3223332818
 10
78.8140312688
 20
93.3278293215
 10
78.8206028947
 20
93.3345162473
 10
78.8287003877
 20
93.3423669498
 10
78.8382909196
 20
93.3513496014
 10
78.8493356094
 20
93.3614277855
 10
78.8617896808
 20
93.3725606442
 10
78.8756026437
 20
93.3847030435
 10
78.8907184989
 20
93.397805757
 10
78.907075965
 20
93.4118156649
 10
78.9246087271
 20
93.4266759696
  0
LINE
  5
3AC
100
AcDbEntity
  8
0
100
AcDbLine
 62
253
  6
CONTINUOUS
 10
78.779734537
 20
42.5298051004
 11
78.75
 21
42.5000761524
  0
LINE
  5
3AD
100
AcDbEntity
  8
0
100
AcDbLine
 62
253
  6
CONTINUOUS
 10
78.2798308992
 20
43.029734537
 11
78.2500761524
 21
43.0
  0
LINE
  5
3AE
100
AcDbEntity
  8
RACCORDO
100
AcDbLine
 62
253
  6
CONTINUOUS
 10
-78.9246087271
 20
-93.4266759696
 11
-78.9629113444
 21
-93.4587035847
  0
LINE
  5
3AF
100
AcDbEntity
  8
RACCORDO
100
AcDbLine
 62
253
  6
CONTINUOUS
 10
-78.9629113444
 20
-93.4587035847
 11
-79.0050058488
 21
-93.4933697556
  0
LINE
  5
3B0
100
AcDbEntity
  8
RACCORDO
100
AcDbLine
 62
253
  6
CONTINUOUS
 10
-79.0050058488
 20
-93.4933697556
 11
-79.0502103099
 21
-93.5301128908
  0
LINE
  5
3B1
100
AcDbEntity
  8
RACCORDO
100
AcDbLine
 62
253
  6
CONTINUOUS
 10
-79.0502103099
 20
-93.5301128908
 11
-79.097792416
 21
-93.5683377521
  0
LINE
  5
3B2
100
AcDbEntity
  8
RACCORDO
100
AcDbLine
 62
253
  6
CONTINUOUS
 10
-79.097792416
 20
-93.5683377521
 11
-79.1469813377
 21
-93.6074250972
  0
LINE
  5
3B3
100
AcDbEntity
  8
RACCORDO
100
AcDbLine
 62
253
  6
CONTINUOUS
 10
-79.1469813377
 20
-93.6074250972
 11
-79.196980215
 21
-93.6467417117
  0
LINE
  5
3B4
100
AcDbEntity
  8
0
100
AcDbLine
 62
7
  6
CONTINUOUS
 10
-27.9072644141
 20
-28.0
 11
-27.85
 21
-27.9809273722
  0
LWPOLYLINE
  5
3B5
100
AcDbEntity
  8
RACCORDO
100
AcDbPolyline
 62
253
  6
CONTINUOUS
 90
16
 70
0
 10
-78.1733898133
 20
23.1216082085
 10
-78.2331115525
 20
23.1202179596
 10
-78.2924308151
 20
23.1161427597
 10
-78.3513476009
 20
23.1093826088
 10
-78.4099212329
 20
23.0999354213
 10
-78.4680923883
 20
23.0878032828
 10
-78.5256830984
 20
23.0729924502
 10
-78.5828905788
 20
23.0554058519
 10
-78.639517614
 20
23.0351405594
 10
-78.6947945892
 20
23.012494045
 10
-78.7484442274
 20
22.9875663561
 10
-78.8007438055
 20
22.9602574453
 10
-78.8517555397
 20
22.9305646422
 10
-78.9015001687
 20
22.8984870568
 10
-78.9499569538
 20
22.8640255791
 10
-78.9971258949
 20
22.8271802092
  0
LWPOLYLINE
  5
3B6
100
AcDbEntity
  8
RACCORDO
100
AcDbPolyline
 62
253
  6
CONTINUOUS
 90
34
 70
0
 10
-78.173401514
 20
22.6222934572
 10
-78.2104678201
 20
22.6214999022
 10
-78.247422577
 20
22.6189963013
 10
-78.2841875425
 20
22.6147916581
 10
-78.3206421534
 20
22.6089068773
 10
-78.356753411
 20
22.6013537078
 10
-78.3925718764
 20
22.5921149358
 10
-78.4281485691
 20
22.5811523174
 10
-78.4632681409
 20
22.5685070351
 10
-78.4975907041
 20
22.5543059564
 10
-78.5308833883
 20
22.5386858688
 10
-78.5632617795
 20
22.5216336994
 10
-78.5949091661
 20
22.5030577577
 10
-78.6257217642
 20
22.483005469
 10
-78.655658213
 20
22.461488744
 10
-78.6849468585
 20
22.4382901393
 10
-78.713645434
 20
22.4132549235
 10
-78.7414638816
 20
22.3865209468
 10
-78.7681003371
 20
22.3583045387
 10
-78.7934716342
 20
22.3286456895
 10
-78.8174896922
 20
22.2975980586
 10
-78.8399087607
 20
22.2654615039
 10
-78.8606210651
 20
22.232424062
 10
-78.8796588945
 20
22.1984713217
 10
-78.8970178796
 20
22.1636230647
 10
-78.9126653438
 20
22.1279405169
 10
-78.9265534493
 20
22.0915280525
 10
-78.9386512061
 20
22.0544675576
 10
-78.9489287728
 20
22.016846885
 10
-78.9573610828
 20
21.9787541522
 10
-78.9639290351
 20
21.9402731993
 10
-78.9686155232
 20
21.901492647
 10
-78.9714065831
 20
21.8625059279
 10
-78.9722934618
 20
21.8234051128
  0
LINE
  5
3B7
100
AcDbEntity
  8
0
100
AcDbLine
 62
7
  6
CONTINUOUS
 10
-78.0510963722
 20
22.5
 11
78.0510963722
 21
22.5
  0
LINE
  5
3B8
100
AcDbEntity
  8
RACCORDO
100
AcDbLine
 62
253
  6
CONTINUOUS
 10
78.1734055404
 20
22.6222934411
 11
-78.1734014978
 21
22.6222934411
  0
LINE
  5
3B9
100
AcDbEntity
  8
RACCORDO
100
AcDbLine
 62
253
  6
CONTINUOUS
 10
78.1733898133
 20
23.1216082085
 11
-78.1733898133
 21
23.1216082085
  0
LINE
  5
3BA
100
AcDbEntity
  8
0
100
AcDbLine
 62
253
  6
CONTINUOUS
 10
78.2798106894
 20
27.770295924
 11
-78.2798106894
 21
27.770295924
  0
LWPOLYLINE
  5
3BB
100
AcDbEntity
  8
0
100
AcDbPolyline
 62
253
  6
CONTINUOUS
 90
28
 70
0
 10
-78.2798106894
 20
27.770295924
 10
-78.3198940388
 20
27.7713912925
 10
-78.359821391
 20
27.7748324219
 10
-78.3995927461
 20
27.780619312
 10
-78.439407311
 20
27.788776553
 10
-78.4790658787
 20
27.7992795548
 10
-78.5179708278
 20
27.8120545475
 10
-78.5560990819
 20
27.8271624881
 10
-78.5934737175
 20
27.8445424195
 10
-78.6295663427
 20
27.8639377007
 10
-78.6643017879
 20
27.8853548174
 10
-78.6977552228
 20
27.9087872839
 10
-78.7296237643
 20
27.9339590014
 10
-78.7598640727
 20
27.9608404773
 10
-78.7885194877
 20
27.9894612044
 10
-78.8154171452
 20
28.0196335625
 10
-78.8405779907
 20
28.0513796636
 10
-78.8639810787
 20
28.0846773958
 10
-78.8853907088
 20
28.119272803
 10
-78.904814538
 20
28.1552399277
 10
-78.9222449092
 20
28.1925047273
 10
-78.9374231506
 20
28.230591118
 10
-78.9502992033
 20
28.2695337898
 10
-78.9609231263
 20
28.3092980527
 10
-78.9691864245
 20
28.3493037517
 10
-78.9750529331
 20
28.3893575019
 10
-78.9785588169
 20
28.4296526882
 10
-78.979704076
 20
28.4701893106
  0
LWPOLYLINE
  5
3BC
100
AcDbEntity
  8
0
100
AcDbPolyline
 62
253
  6
CONTINUOUS
 90
4
 70
0
 10
-78.2798309008
 20
27.9702654618
 10
-78.308293812
 20
27.9710736517
 10
-78.3368437159
 20
27.9735211198
 10
-78.3653842567
 20
27.9776307954
  0
LINE
  5
3BD
100
AcDbEntity
  8
0
100
AcDbLine
 62
7
  6
CONTINUOUS
 10
-27.9072644141
 20
28.0
 11
-27.85
 21
27.9809273722
  0
LINE
  5
3BE
100
AcDbEntity
  8
RACCORDO
100
AcDbLine
 62
253
  6
CONTINUOUS
 10
-79.1469813103
 20
93.6074250553
 11
-79.196980215
 21
93.6467416848
  0
LINE
  5
3BF
100
AcDbEntity
  8
RACCORDO
100
AcDbLine
 62
253
  6
CONTINUOUS
 10
-79.0977923527
 20
93.5683376878
 11
-79.1469813103
 21
93.6074250553
  0
LINE
  5
3C0
100
AcDbEntity
  8
RACCORDO
100
AcDbLine
 62
253
  6
CONTINUOUS
 10
-79.0502102046
 20
93.5301127986
 11
-79.0977923527
 21
93.5683376878
  0
LINE
  5
3C1
100
AcDbEntity
  8
RACCORDO
100
AcDbLine
 62
253
  6
CONTINUOUS
 10
-79.0050056977
 20
93.4933696316
 11
-79.0502102046
 21
93.5301127986
  0
LINE
  5
3C2
100
AcDbEntity
  8
RACCORDO
100
AcDbLine
 62
253
  6
CONTINUOUS
 10
-78.9629111461
 20
93.4587034269
 11
-79.0050056977
 21
93.4933696316
  0
LINE
  5
3C3
100
AcDbEntity
  8
0
100
AcDbLine
 62
253
  6
CONTINUOUS
 10
78.2500761524
 20
-43.0
 11
78.2798308757
 21
-43.029734537
  0
LINE
  5
3C4
100
AcDbEntity
  8
0
100
AcDbLine
 62
253
  6
CONTINUOUS
 10
78.75
 20
-42.5000761524
 11
78.779734537
 21
-42.5298051321
  0
LWPOLYLINE
  5
3C5
100
AcDbEntity
  8
RACCORDO
100
AcDbPolyline
 62
253
  6
CONTINUOUS
 90
14
 70
0
 10
78.8037060539
 20
-93.3149977512
 10
78.805565487
 20
-93.3180500942
 10
78.8090117512
 20
-93.32233297
 10
78.8140308749
 20
-93.3278290153
 10
78.82060251
 20
-93.3345159485
 10
78.8287000143
 20
-93.3423666601
 10
78.8382905597
 20
-93.3513493223
 10
78.8493352649
 20
-93.3614275183
 10
78.8617893534
 20
-93.3725603902
 10
78.8756023351
 20
-93.3847028039
 10
78.8907182104
 20
-93.3978055326
 10
78.9070756978
 20
-93.4118154565
 10
78.9246084823
 20
-93.4266757777
 10
78.9629111461
 20
-93.4587034269
  0
LINE
  5
3C6
100
AcDbEntity
  8
0
100
AcDbLine
 62
7
  6
CONTINUOUS
 10
27.9072644141
 20
43.0
 11
27.9072644141
 21
42.9
  0
LINE
  5
3C7
100
AcDbEntity
  8
0
100
AcDbLine
 62
7
  6
CONTINUOUS
 10
27.9072644141
 20
-43.0
 11
27.9072644141
 21
-42.9
  0
LINE
  5
3C8
100
AcDbEntity
  8
0
100
AcDbLine
 62
7
  6
CONTINUOUS
 10
27.9072644141
 20
-28.0
 11
27.9072644141
 21
-28.1
  0
LINE
  5
3C9
100
AcDbEntity
  8
0
100
AcDbLine
 62
7
  6
CONTINUOUS
 10
27.9072644141
 20
28.0
 11
27.9072644141
 21
28.1
  0
LINE
  5
3CA
100
AcDbEntity
  8
0
100
AcDbLine
 62
7
  6
CONTINUOUS
 10
1.854751
 20
-98.886391
 11
2.145737
 21
-97.847385
  0
LINE
  5
3CB
100
AcDbEntity
  8
0
100
AcDbLine
 62
7
  6
CONTINUOUS
 10
1.573947
 20
-99.877801
 11
1.735207
 21
-99.318881
  0
LINE
  5
3CC
100
AcDbEntity
  8
0
100
AcDbLine
 62
7
  6
CONTINUOUS
 10
0.99588
 20
-99.877801
 11
1.874045
 21
-97.078098
  0
LINE
  5
3CD
100
AcDbEntity
  8
0
100
AcDbLine
 62
7
  6
CONTINUOUS
 10
-0.730314
 20
-98.632502
 11
-0.145906
 21
-97.078098
  0
LINE
  5
3CE
100
AcDbEntity
  8
0
100
AcDbLine
 62
7
  6
CONTINUOUS
 10
-0.692524
 20
-99.877801
 11
0.002337
 21
-98.057269
  0
LINE
  5
3CF
100
AcDbEntity
  8
0
100
AcDbLine
 62
253
  6
CONTINUOUS
 10
78.1734055404
 20
22.6222934411
 11
78.0510963722
 21
22.5
  0
LINE
  5
3D0
100
AcDbEntity
  8
0
100
AcDbLine
 62
253
  6
CONTINUOUS
 10
78.9722925022
 20
21.823366534
 11
78.85
 21
21.7010963722
  0
LWPOLYLINE
  5
3D1
100
AcDbEntity
  8
RACCORDO
100
AcDbPolyline
 62
253
  6
CONTINUOUS
 90
15
 70
0
 10
-78.9740075583
 20
-92.8251051036
 10
-78.9766592673
 20
-92.8266422103
 10
-78.9812985559
 20
-92.8281731656
 10
-78.9879068583
 20
-92.8296918429
 10
-78.9964577289
 20
-92.8311921646
 10
-79.0069169482
 20
-92.8326681266
 10
-79.0192426597
 20
-92.8341138224
 10
-79.0333855375
 20
-92.8355234664
 10
-79.0492889836
 20
-92.8368914174
 10
-79.0668893544
 20
-92.838212201
 10
-79.0861162154
 20
-92.8394805317
 10
-79.1068926232
 20
-92.8406913337
 10
-79.1291354333
 20
-92.8418397615
 10
-79.1527556328
 20
-92.8429212194
 10
-79.1776586965
 20
-92.8439313794
  0
LINE
  5
3D2
100
AcDbEntity
  8
0
100
AcDbLine
 62
7
  6
CONTINUOUS
 10
22.4843765246
 20
-28.0
 11
22.5416409387
 21
-27.9809273722
  0
LINE
  5
3D3
100
AcDbEntity
  8
0
100
AcDbLine
 62
7
  6
CONTINUOUS
 10
-22.4843765246
 20
-43.0
 11
-22.5416409387
 21
-43.0190726278
  0
LINE
  5
3D4
100
AcDbEntity
  8
0
100
AcDbLine
 62
253
  6
CONTINUOUS
 10
78.2798308757
 20
27.970265463
 11
-78.2798308992
 21
27.970265463
  0
LINE
  5
3D5
100
AcDbEntity
  8
0
100
AcDbLine
 62
7
  6
CONTINUOUS
 10
-27.85
 20
27.9809273722
 11
-22.5416409387
 21
27.9809273722
  0
LINE
  5
3D6
100
AcDbEntity
  8
0
100
AcDbLine
 62
7
  6
CONTINUOUS
 10
22.5416409387
 20
27.9809273722
 11
27.85
 21
27.9809273722
  0
LINE
  5
3D7
100
AcDbEntity
  8
0
100
AcDbLine
 62
7
  6
CONTINUOUS
 10
-78.2500761524
 20
28.0
 11
-27.9072644141
 21
28.0
  0
LINE
  5
3D8
100
AcDbEntity
  8
0
100
AcDbLine
 62
7
  6
CONTINUOUS
 10
22.4843765246
 20
28.0
 11
-22.4843765246
 21
28.0
  0
LINE
  5
3D9
100
AcDbEntity
  8
0
100
AcDbLine
 62
7
  6
CONTINUOUS
 10
27.9072644141
 20
28.0
 11
78.2500761524
 21
28.0
  0
LINE
  5
3DA
100
AcDbEntity
  8
RACCORDO
100
AcDbLine
 62
7
  6
CONTINUOUS
 10
78.232495013
 20
28.1
 11
-78.232495013
 21
28.1
  0
LINE
  5
3DB
100
AcDbEntity
  8
RACCORDO
100
AcDbLine
 62
253
  6
CONTINUOUS
 10
78.232495013
 20
28.2
 11
-78.232495013
 21
28.2
  0
LINE
  5
3DC
100
AcDbEntity
  8
0
100
AcDbLine
 62
253
  6
CONTINUOUS
 10
-78.979704076
 20
28.4701893106
 11
-78.779734537
 21
28.4701893106
  0
LINE
  5
3DD
100
AcDbEntity
  8
0
100
AcDbLine
 62
253
  6
CONTINUOUS
 10
78.979704076
 20
28.4701893106
 11
78.779734537
 21
28.4701893106
  0
LINE
  5
3DE
100
AcDbEntity
  8
RACCORDO
100
AcDbLine
 62
253
  6
CONTINUOUS
 10
78.632495013
 20
28.5
 11
78.532495013
 21
28.5
  0
LINE
  5
3DF
100
AcDbEntity
  8
RACCORDO
100
AcDbLine
 62
253
  6
CONTINUOUS
 10
-78.632495013
 20
28.5
 11
-78.532495013
 21
28.5
  0
LINE
  5
3E0
100
AcDbEntity
  8
0
100
AcDbLine
 62
7
  6
CONTINUOUS
 10
-78.75
 20
32.5927355859
 11
-78.65
 21
32.5927355859
  0
LINE
  5
3E1
100
AcDbEntity
  8
0
100
AcDbLine
 62
7
  6
CONTINUOUS
 10
78.75
 20
32.5927355859
 11
78.65
 21
32.5927355859
  0
LINE
  5
3E2
100
AcDbEntity
  8
RACCORDO
100
AcDbLine
 62
7
  6
CONTINUOUS
 10
78.7690726278
 20
34.0
 11
78.632495013
 21
34.0
  0
LINE
  5
3E3
100
AcDbEntity
  8
RACCORDO
100
AcDbLine
 62
7
  6
CONTINUOUS
 10
-78.632495013
 20
34.0
 11
-78.7690726278
 21
34.0
  0
LINE
  5
3E4
100
AcDbEntity
  8
RACCORDO
100
AcDbLine
 62
7
  6
CONTINUOUS
 10
-78.7690726278
 20
37.0
 11
-78.632495013
 21
37.0
  0
LINE
  5
3E5
100
AcDbEntity
  8
RACCORDO
100
AcDbLine
 62
7
  6
CONTINUOUS
 10
78.632495013
 20
37.0
 11
78.7690726278
 21
37.0
  0
LINE
  5
3E6
100
AcDbEntity
  8
0
100
AcDbLine
 62
7
  6
CONTINUOUS
 10
-78.75
 20
38.4072644141
 11
-78.65
 21
38.4072644141
  0
LINE
  5
3E7
100
AcDbEntity
  8
0
100
AcDbLine
 62
7
  6
CONTINUOUS
 10
78.75
 20
38.4072644141
 11
78.65
 21
38.4072644141
  0
LINE
  5
3E8
100
AcDbEntity
  8
0
100
AcDbLine
 62
7
  6
CONTINUOUS
 10
22.4843765246
 20
28.0
 11
22.5416409387
 21
27.9809273722
  0
LINE
  5
3E9
100
AcDbEntity
  8
0
100
AcDbLine
 62
7
  6
CONTINUOUS
 10
-22.4843765246
 20
43.0
 11
-22.5416409387
 21
43.0190726278
  0
LWPOLYLINE
  5
3EA
100
AcDbEntity
  8
RACCORDO
100
AcDbPolyline
 62
253
  6
CONTINUOUS
 90
16
 70
0
 10
-78.9740087314
 20
92.8251051036
 10
-78.9766604305
 20
92.8266422106
 10
-78.9812997026
 20
92.8281731663
 10
-78.9879079821
 20
92.8296918441
 10
-78.9964588235
 20
92.8311921664
 10
-79.0069180077
 20
92.8326681292
 10
-79.0192436786
 20
92.8341138258
 10
-79.0333865105
 20
92.8355234709
 10
-79.0492899059
 20
92.8368914231
 10
-79.0668902219
 20
92.8382122083
 10
-79.0861170244
 20
92.8394805407
 10
-79.1068933706
 20
92.8406913447
 10
-79.1291361167
 20
92.8418397749
 10
-79.1527562504
 20
92.8429212353
 10
-79.1776592474
 20
92.8439313982
 10
-79.2309104636
 20
92.8457219628
  0
LINE
  5
3EB
100
AcDbEntity
  8
0
100
AcDbLine
 62
253
  6
CONTINUOUS
 10
78.1734005066
 20
-22.6222934411
 11
78.0510963722
 21
-22.5
  0
LINE
  5
3EC
100
AcDbEntity
  8
0
100
AcDbLine
 62
253
  6
CONTINUOUS
 10
78.9722925276
 20
-21.8233671571
 11
78.85
 21
-21.7010963722
  0
LINE
  5
3ED
100
AcDbEntity
  8
0
100
AcDbLine
 62
7
  6
CONTINUOUS
 10
27.9072644141
 20
-43.0
 11
27.85
 21
-43.0190726278
  0
LWPOLYLINE
  5
3EE
100
AcDbEntity
  8
RACCORDO
100
AcDbPolyline
 62
253
  6
CONTINUOUS
 90
16
 70
0
 10
78.1733898133
 20
47.8783917915
 10
78.2327735477
 20
47.8797281538
 10
78.2919207499
 20
47.8837797192
 10
78.35083142
 20
47.8905464876
 10
78.4096311269
 20
47.9000343498
 10
78.4681943017
 20
47.9122374151
 10
78.5261442375
 20
47.9271380112
 10
78.583596438
 20
47.944823749
 10
78.6404353996
 20
47.9652070177
 10
78.6959379042
 20
47.988007313
 10
78.7499486189
 20
48.0132120904
 10
78.8026228765
 20
48.0408338945
 10
78.853703457
 20
48.0706298551
 10
78.9031046204
 20
48.1025190155
 10
78.9509121066
 20
48.1365823323
 10
78.9971259156
 20
48.1728198055
  0
LWPOLYLINE
  5
3EF
100
AcDbEntity
  8
RACCORDO
100
AcDbPolyline
 62
253
  6
CONTINUOUS
 90
34
 70
0
 10
78.1734005214
 20
48.3777065442
 10
78.2108222469
 20
48.3785158169
 10
78.2482374403
 20
48.3810781449
 10
78.2855638285
 20
48.3853992598
 10
78.3227160303
 20
48.3914801363
 10
78.3596129092
 20
48.3993192553
 10
78.3961774906
 20
48.4089138174
 10
78.4324118621
 20
48.4202843956
 10
78.4681419882
 20
48.4333962483
 10
78.5030394137
 20
48.4481230784
 10
78.5369422882
 20
48.4643618015
 10
78.5698842289
 20
48.4820926494
 10
78.6018453793
 20
48.5012809407
 10
78.6326924643
 20
48.5218184631
 10
78.6624466741
 20
48.5436908873
 10
78.6912957901
 20
48.567042095
 10
78.7192196859
 20
48.5918964028
 10
78.746076552
 20
48.6181707379
 10
78.7718389165
 20
48.6458842562
 10
78.7964707496
 20
48.6750620705
 10
78.819832053
 20
48.7056057887
 10
78.8417507093
 20
48.737335311
 10
78.8621533762
 20
48.7701701074
 10
78.880990293
 20
48.8040565976
 10
78.8981601319
 20
48.8388285127
 10
78.9136126791
 20
48.8743823213
 10
78.9273224663
 20
48.910656417
 10
78.9392485365
 20
48.9475356769
 10
78.9493628663
 20
48.9849183323
 10
78.9576504152
 20
49.022730311
 10
78.9640983807
 20
49.0608955568
 10
78.9686941308
 20
49.0993293511
 10
78.9714273893
 20
49.1379380438
 10
78.972293411
 20
49.1766319593
  0
LINE
  5
3F0
100
AcDbEntity
  8
RACCORDO
100
AcDbLine
 62
253
  6
CONTINUOUS
 10
-78.632495013
 20
42.5
 11
-78.532495013
 21
42.5
  0
LINE
  5
3F1
100
AcDbEntity
  8
RACCORDO
100
AcDbLine
 62
253
  6
CONTINUOUS
 10
78.632495013
 20
42.5
 11
78.532495013
 21
42.5
  0
LINE
  5
3F2
100
AcDbEntity
  8
0
100
AcDbLine
 62
253
  6
CONTINUOUS
 10
-78.979704076
 20
42.5298106894
 11
-78.779734537
 21
42.5298106894
  0
LINE
  5
3F3
100
AcDbEntity
  8
0
100
AcDbLine
 62
253
  6
CONTINUOUS
 10
78.979704076
 20
42.5298106894
 11
78.779734537
 21
42.5298106894
  0
LINE
  5
3F4
100
AcDbEntity
  8
RACCORDO
100
AcDbLine
 62
253
  6
CONTINUOUS
 10
-78.232495013
 20
42.8
 11
78.232495013
 21
42.8
  0
LINE
  5
3F5
100
AcDbEntity
  8
RACCORDO
100
AcDbLine
 62
7
  6
CONTINUOUS
 10
-78.232495013
 20
42.9
 11
78.232495013
 21
42.9
  0
LINE
  5
3F6
100
AcDbEntity
  8
0
100
AcDbLine
 62
7
  6
CONTINUOUS
 10
-78.2500761524
 20
43.0
 11
-27.9072644141
 21
43.0
  0
LINE
  5
3F7
100
AcDbEntity
  8
0
100
AcDbLine
 62
7
  6
CONTINUOUS
 10
22.4843765246
 20
43.0
 11
-22.4843765246
 21
43.0
  0
LINE
  5
3F8
100
AcDbEntity
  8
0
100
AcDbLine
 62
7
  6
CONTINUOUS
 10
27.9072644141
 20
43.0
 11
78.2500761524
 21
43.0
  0
LINE
  5
3F9
100
AcDbEntity
  8
0
100
AcDbLine
 62
7
  6
CONTINUOUS
 10
-27.85
 20
43.0190726278
 11
-22.5416409387
 21
43.0190726278
  0
LINE
  5
3FA
100
AcDbEntity
  8
0
100
AcDbLine
 62
7
  6
CONTINUOUS
 10
22.5416409387
 20
43.0190726278
 11
27.85
 21
43.0190726278
  0
LINE
  5
3FB
100
AcDbEntity
  8
0
100
AcDbLine
 62
253
  6
CONTINUOUS
 10
-78.2798308757
 20
43.029734537
 11
78.2798308992
 21
43.029734537
  0
LINE
  5
3FC
100
AcDbEntity
  8
0
100
AcDbLine
 62
253
  6
CONTINUOUS
 10
-78.2798106894
 20
43.229704076
 11
78.2798106894
 21
43.229704076
  0
LINE
  5
3FD
100
AcDbEntity
  8
RACCORDO
100
AcDbLine
 62
253
  6
CONTINUOUS
 10
-78.1733898133
 20
47.8783917915
 11
78.1733898133
 21
47.8783917915
  0
LINE
  5
3FE
100
AcDbEntity
  8
RACCORDO
100
AcDbLine
 62
253
  6
CONTINUOUS
 10
-78.173405772
 20
48.3777065589
 11
78.1734005066
 21
48.3777065589
  0
LINE
  5
3FF
100
AcDbEntity
  8
0
100
AcDbLine
 62
7
  6
CONTINUOUS
 10
78.0510963722
 20
48.5
 11
-78.0510963722
 21
48.5
  0
LWPOLYLINE
  5
400
100
AcDbEntity
  8
0
100
AcDbPolyline
 62
253
  6
CONTINUOUS
 90
28
 70
0
 10
78.2798106894
 20
43.229704076
 10
78.3198940388
 20
43.2286087075
 10
78.359821391
 20
43.2251675781
 10
78.3995927461
 20
43.219380688
 10
78.439407311
 20
43.211223447
 10
78.4790658787
 20
43.2007204452
 10
78.5179708278
 20
43.1879454525
 10
78.5560990819
 20
43.1728375119
 10
78.5934737175
 20
43.1554575805
 10
78.6295663427
 20
43.1360622993
 10
78.6643017879
 20
43.1146451826
 10
78.6977552228
 20
43.0912127161
 10
78.7296237643
 20
43.0660409986
 10
78.7598640727
 20
43.0391595227
 10
78.7885194877
 20
43.0105387956
 10
78.8154171452
 20
42.9803664375
 10
78.8405779907
 20
42.9486203364
 10
78.8639810787
 20
42.9153226042
 10
78.8853907088
 20
42.880727197
 10
78.904814538
 20
42.8447600723
 10
78.9222449092
 20
42.8074952727
 10
78.9374231506
 20
42.769408882
 10
78.9502992033
 20
42.7304662102
 10
78.9609231263
 20
42.6907019473
 10
78.9691864245
 20
42.6506962483
 10
78.9750529331
 20
42.6106424981
 10
78.9785588169
 20
42.5703473118
 10
78.979704076
 20
42.5298106894
  0
LWPOLYLINE
  5
401
100
AcDbEntity
  8
0
100
AcDbPolyline
 62
253
  6
CONTINUOUS
 90
4
 70
0
 10
78.2798309008
 20
43.0297345382
 10
78.308293812
 20
43.0289263483
 10
78.3368437159
 20
43.0264788802
 10
78.3653842567
 20
43.0223692046
  0
LINE
  5
402
100
AcDbEntity
  8
0
100
AcDbLine
 62
7
  6
CONTINUOUS
 10
27.9072644141
 20
43.0
 11
27.85
 21
43.0190726278
  0
LINE
  5
403
100
AcDbEntity
  8
0
100
AcDbLine
 62
7
  6
CONTINUOUS
 10
78.75
 20
32.5927355859
 11
78.7690726278
 21
32.65
  0
LWPOLYLINE
  5
404
100
AcDbEntity
  8
0
100
AcDbPolyline
 62
253
  6
CONTINUOUS
 90
15
 70
0
 10
78.7387107049
 20
28.27177727
 10
78.7262942581
 20
28.245215379
 10
78.7123868124
 20
28.2195052752
 10
78.6970750276
 20
28.1947657354
 10
78.6804033583
 20
28.171031209
 10
78.662408998
 20
28.1483349864
 10
78.6431718693
 20
28.1267637174
 10
78.6227492504
 20
28.1063684473
 10
78.6011294944
 20
28.0871411831
 10
78.5783486182
 20
28.069134323
 10
78.5545015648
 20
28.0524423656
 10
78.5296581182
 20
28.0371295715
 10
78.5038582604
 20
28.0232403311
 10
78.4772196623
 20
28.0108570896
 10
78.4499435503
 20
28.0000759889
  0
LWPOLYLINE
  5
405
100
AcDbEntity
  8
0
100
AcDbPolyline
 62
253
  6
CONTINUOUS
 90
7
 70
0
 10
78.4499435503
 20
-42.9999240111
 10
78.4221229871
 20
-43.0090746914
 10
78.3938596219
 20
-43.0165698931
 10
78.3653842567
 20
-43.0223692046
 10
78.3368437107
 20
-43.0264788808
 10
78.308293799
 20
-43.028926349
 10
78.2798308773
 20
-43.0297345382
  0
LWPOLYLINE
  5
406
100
AcDbEntity
  8
0
100
AcDbPolyline
 62
253
  6
CONTINUOUS
 90
4
 70
0
 10
78.3653842567
 20
43.0223692046
 10
78.3938596202
 20
43.0165698935
 10
78.4221229863
 20
43.0090746916
 10
78.4499435503
 20
42.9999240111
  0
LWPOLYLINE
  5
407
100
AcDbEntity
  8
RACCORDO
100
AcDbPolyline
 62
253
  6
CONTINUOUS
 90
16
 70
0
 10
78.9971259202
 20
22.8271801912
 10
78.9505710226
 20
22.8636687067
 10
78.9024169309
 20
22.8979448191
 10
78.852663645
 20
22.9300085284
 10
78.8011014988
 20
22.9599742768
 10
78.7479401585
 20
22.9877276222
 10
78.693808623
 20
23.0129252377
 10
78.6388054826
 20
23.0354744368
 10
78.582832147
 20
23.055467906
 10
78.5262218445
 20
23.0728403781
 10
78.4691027018
 20
23.0875810427
 10
78.411346592
 20
23.0997007103
 10
78.3529023635
 20
23.1091665443
 10
78.2937529656
 20
23.1159675992
 10
78.2339154489
 20
23.1201148206
 10
78.1733898133
 20
23.1216082085
  0
LWPOLYLINE
  5
408
100
AcDbEntity
  8
0
100
AcDbPolyline
 62
253
  6
CONTINUOUS
 90
8
 70
0
 10
78.7387107049
 20
-28.27177727
 10
78.7495488468
 20
-28.2990228163
 10
78.7587745714
 20
-28.326869563
 10
78.7663513841
 20
-28.355211058
 10
78.7722318176
 20
-28.3838279076
 10
78.7764121225
 20
-28.4125771618
 10
78.7789087546
 20
-28.4413989087
 10
78.7797345365
 20
-28.4701949
  0
LINE
  5
409
100
AcDbEntity
  8
0
100
AcDbLine
 62
7
  6
CONTINUOUS
 10
78.75
 20
-32.5927355859
 11
78.7690726278
 21
-32.65
  0
LINE
  5
40A
100
AcDbEntity
  8
RACCORDO
100
AcDbLine
 62
7
  6
CONTINUOUS
 10
78.9722925276
 20
-21.8233671571
 11
78.9808805829
 21
-22.0393401523
  0
LINE
  5
40B
100
AcDbEntity
  8
RACCORDO
100
AcDbLine
 62
7
  6
CONTINUOUS
 10
78.9808805829
 20
-22.0393401523
 11
78.986261677
 21
-22.1932761362
  0
LINE
  5
40C
100
AcDbEntity
  8
RACCORDO
100
AcDbLine
 62
7
  6
CONTINUOUS
 10
78.986261677
 20
-22.1932761362
 11
78.9905524057
 21
-22.3409618601
  0
LWPOLYLINE
  5
40D
100
AcDbEntity
  8
RACCORDO
100
AcDbPolyline
 62
253
  6
CONTINUOUS
 90
34
 70
0
 10
78.9722934102
 20
-49.1766325578
 10
78.9714331402
 20
-49.1380615871
 10
78.9687164276
 20
-49.0995640738
 10
78.9641463816
 20
-49.0612290315
 10
78.9577286948
 20
-49.0231346363
 10
78.9494757884
 20
-48.9853805393
 10
78.9394118009
 20
-48.9480865583
 10
78.9275532459
 20
-48.9113160187
 10
78.9139348782
 20
-48.8751773618
 10
78.8986329676
 20
-48.83984976
 10
78.8816961743
 20
-48.8054056393
 10
78.8631794219
 20
-48.7719196777
 10
78.8432015185
 20
-48.7395564288
 10
78.8218779494
 20
-48.7084317257
 10
78.7992454579
 20
-48.678533069
 10
78.7753094707
 20
-48.6498266603
 10
78.7501742844
 20
-48.6224048243
 10
78.7238713752
 20
-48.5962716422
 10
78.6962608136
 20
-48.5712915946
 10
78.6673203783
 20
-48.5474816465
 10
78.6371620245
 20
-48.5249700762
 10
78.6058246585
 20
-48.5038151294
 10
78.5732847112
 20
-48.4840386636
 10
78.5396781036
 20
-48.4657594562
 10
78.5053052636
 20
-48.4491476261
 10
78.470330892
 20
-48.4342627719
 10
78.434760499
 20
-48.4210871479
 10
78.3986740712
 20
-48.4096368708
 10
78.3622475659
 20
-48.3999489359
 10
78.325474684
 20
-48.3920033782
 10
78.2881532607
 20
-48.3857650648
 10
78.2502656093
 20
-48.3812676912
 10
78.2119880064
 20
-48.3785694676
 10
78.173405562
 20
-48.3777065374
  0
LINE
  5
40E
100
AcDbEntity
  8
RACCORDO
100
AcDbLine
 62
7
  6
CONTINUOUS
 10
78.9905524057
 20
-22.3409618601
 11
78.9927963038
 21
-22.436186641
  0
LWPOLYLINE
  5
40F
100
AcDbEntity
  8
RACCORDO
100
AcDbPolyline
 62
253
  6
CONTINUOUS
 90
34
 70
0
 10
78.9722934102
 20
21.8233674422
 10
78.9714331402
 20
21.8619384129
 10
78.9687164276
 20
21.9004359262
 10
78.9641463816
 20
21.9387709685
 10
78.9577286948
 20
21.9768653637
 10
78.9494757884
 20
22.0146194607
 10
78.9394118009
 20
22.0519134417
 10
78.9275532459
 20
22.0886839813
 10
78.9139348782
 20
22.1248226382
 10
78.8986329676
 20
22.16015024
 10
78.8816961743
 20
22.1945943607
 10
78.8631794219
 20
22.2280803223
 10
78.8432015185
 20
22.2604435712
 10
78.8218779494
 20
22.2915682743
 10
78.7992454579
 20
22.321466931
 10
78.7753094707
 20
22.3501733397
 10
78.7501742844
 20
22.3775951757
 10
78.7238713752
 20
22.4037283578
 10
78.6962608136
 20
22.4287084054
 10
78.6673203783
 20
22.4525183535
 10
78.6371620245
 20
22.4750299238
 10
78.6058246585
 20
22.4961848706
 10
78.5732847112
 20
22.5159613364
 10
78.5396781036
 20
22.5342405438
 10
78.5053052636
 20
22.5508523739
 10
78.470330892
 20
22.5657372281
 10
78.434760499
 20
22.5789128521
 10
78.3986740712
 20
22.5903631292
 10
78.3622475659
 20
22.6000510641
 10
78.325474684
 20
22.6079966218
 10
78.2881532607
 20
22.6142349352
 10
78.2502656093
 20
22.6187323088
 10
78.2119880064
 20
22.6214305324
 10
78.173405562
 20
22.6222934626
  0
LINE
  5
410
100
AcDbEntity
  8
RACCORDO
100
AcDbLine
 62
7
  6
CONTINUOUS
 10
78.9927963038
 20
-22.436186641
 11
78.9945597854
 21
-22.5291525687
  0
LINE
  5
411
100
AcDbEntity
  8
RACCORDO
100
AcDbLine
 62
7
  6
CONTINUOUS
 10
78.9937566208
 20
48.5160600716
 11
78.9952759229
 21
48.4246371894
  0
LINE
  5
412
100
AcDbEntity
  8
RACCORDO
100
AcDbLine
 62
7
  6
CONTINUOUS
 10
78.9945597854
 20
-22.5291525687
 11
78.9958527245
 21
-22.6194466196
  0
LINE
  5
413
100
AcDbEntity
  8
RACCORDO
100
AcDbLine
 62
7
  6
CONTINUOUS
 10
78.9952759229
 20
48.4246371894
 11
78.9963273103
 21
48.3361508284
  0
LINE
  5
414
100
AcDbEntity
  8
RACCORDO
100
AcDbLine
 62
7
  6
CONTINUOUS
 10
78.9958527245
 20
-22.6194466196
 11
78.9966861245
 21
-22.7064345417
  0
LINE
  5
415
100
AcDbEntity
  8
RACCORDO
100
AcDbLine
 62
7
  6
CONTINUOUS
 10
78.9963273103
 20
48.3361508284
 11
78.9969411793
 21
48.2520812263
  0
LINE
  5
416
100
AcDbEntity
  8
RACCORDO
100
AcDbLine
 62
7
  6
CONTINUOUS
 10
78.9966861245
 20
-22.7064345417
 11
78.9970883505
 21
-22.7881631985
  0
LINE
  5
417
100
AcDbEntity
  8
RACCORDO
100
AcDbLine
 62
253
  6
CONTINUOUS
 10
78.9897459977
 20
85.3738405321
 11
78.974008705
 21
92.8251176202
  0
LINE
  5
418
100
AcDbEntity
  8
RACCORDO
100
AcDbLine
 62
253
  6
CONTINUOUS
 10
79.4890607713
 20
85.389825527
 11
79.4733234988
 21
92.8493821949
  0
LINE
  5
419
100
AcDbEntity
  8
RACCORDO
100
AcDbLine
 62
253
  6
CONTINUOUS
 10
78.9988557422
 20
78.0985186113
 11
78.9897459977
 21
85.3738405321
  0
LINE
  5
41A
100
AcDbEntity
  8
RACCORDO
100
AcDbLine
 62
253
  6
CONTINUOUS
 10
79.4981705049
 20
78.1064203076
 11
79.4890607713
 21
85.389825527
  0
LINE
  5
41B
100
AcDbEntity
  8
RACCORDO
100
AcDbLine
 62
253
  6
CONTINUOUS
 10
78.1716838297
 20
-93.6205874575
 11
78.1716838297
 21
-94.1465549932
  0
LINE
  5
41C
100
AcDbEntity
  8
RACCORDO
100
AcDbLine
 62
253
  6
CONTINUOUS
 10
78.1716838297
 20
93.6205874575
 11
78.1716838297
 21
94.1465549932
  0
LINE
  5
41D
100
AcDbEntity
  8
RACCORDO
100
AcDbLine
 62
253
  6
CONTINUOUS
 10
78.1733898133
 20
48.3777065589
 11
78.1733898133
 21
47.8783917915
  0
LINE
  5
41E
100
AcDbEntity
  8
RACCORDO
100
AcDbLine
 62
253
  6
CONTINUOUS
 10
78.1733898133
 20
-48.3777065589
 11
78.1733898133
 21
-47.8783917915
  0
LINE
  5
41F
100
AcDbEntity
  8
RACCORDO
100
AcDbLine
 62
253
  6
CONTINUOUS
 10
78.1733898133
 20
-22.6222934411
 11
78.1733898133
 21
-23.1216082085
  0
LINE
  5
420
100
AcDbEntity
  8
RACCORDO
100
AcDbLine
 62
253
  6
CONTINUOUS
 10
78.1733898133
 20
22.6222934411
 11
78.1733898133
 21
23.1216082085
  0
LINE
  5
421
100
AcDbEntity
  8
RACCORDO
100
AcDbLine
 62
253
  6
CONTINUOUS
 10
78.232495013
 20
42.9
 11
78.232495013
 21
42.8
  0
LINE
  5
422
100
AcDbEntity
  8
RACCORDO
100
AcDbLine
 62
253
  6
CONTINUOUS
 10
78.232495013
 20
-42.9
 11
78.232495013
 21
-42.8
  0
LINE
  5
423
100
AcDbEntity
  8
RACCORDO
100
AcDbLine
 62
253
  6
CONTINUOUS
 10
78.232495013
 20
-28.1
 11
78.232495013
 21
-28.2
  0
LINE
  5
424
100
AcDbEntity
  8
RACCORDO
100
AcDbLine
 62
253
  6
CONTINUOUS
 10
78.232495013
 20
28.1
 11
78.232495013
 21
28.2
  0
LINE
  5
425
100
AcDbEntity
  8
0
100
AcDbLine
 62
253
  6
CONTINUOUS
 10
78.2798106894
 20
43.229704076
 11
78.2798106894
 21
43.029734537
  0
LINE
  5
426
100
AcDbEntity
  8
0
100
AcDbLine
 62
253
  6
CONTINUOUS
 10
78.2798106894
 20
-43.229704076
 11
78.2798106894
 21
-43.029734537
  0
LINE
  5
427
100
AcDbEntity
  8
0
100
AcDbLine
 62
253
  6
CONTINUOUS
 10
78.2798106894
 20
-27.770295924
 11
78.2798106894
 21
-27.970265463
  0
LINE
  5
428
100
AcDbEntity
  8
0
100
AcDbLine
 62
253
  6
CONTINUOUS
 10
78.2798106894
 20
27.770295924
 11
78.2798106894
 21
27.970265463
  0
LINE
  5
429
100
AcDbEntity
  8
RACCORDO
100
AcDbLine
 62
253
  6
CONTINUOUS
 10
78.532495013
 20
42.5
 11
78.532495013
 21
28.5
  0
LINE
  5
42A
100
AcDbEntity
  8
RACCORDO
100
AcDbLine
 62
253
  6
CONTINUOUS
 10
78.532495013
 20
-28.5
 11
78.532495013
 21
-42.5
  0
LINE
  5
42B
100
AcDbEntity
  8
RACCORDO
100
AcDbLine
 62
7
  6
CONTINUOUS
 10
78.632495013
 20
42.5
 11
78.632495013
 21
28.5
  0
LINE
  5
42C
100
AcDbEntity
  8
RACCORDO
100
AcDbLine
 62
7
  6
CONTINUOUS
 10
78.632495013
 20
-28.5
 11
78.632495013
 21
-42.5
  0
LINE
  5
42D
100
AcDbEntity
  8
RACCORDO
100
AcDbLine
 62
7
  6
CONTINUOUS
 10
78.65
 20
-42.5
 11
78.65
 21
-37.0
  0
LINE
  5
42E
100
AcDbEntity
  8
RACCORDO
100
AcDbLine
 62
7
  6
CONTINUOUS
 10
78.65
 20
-34.0
 11
78.65
 21
-28.5
  0
LINE
  5
42F
100
AcDbEntity
  8
RACCORDO
100
AcDbLine
 62
7
  6
CONTINUOUS
 10
78.65
 20
28.5
 11
78.65
 21
34.0
  0
LINE
  5
430
100
AcDbEntity
  8
RACCORDO
100
AcDbLine
 62
7
  6
CONTINUOUS
 10
78.65
 20
37.0
 11
78.65
 21
42.5
  0
LINE
  5
431
100
AcDbEntity
  8
0
100
AcDbLine
 62
7
  6
CONTINUOUS
 10
78.75
 20
42.5000761524
 11
78.75
 21
38.4072644141
  0
LINE
  5
432
100
AcDbEntity
  8
0
100
AcDbLine
 62
7
  6
CONTINUOUS
 10
78.75
 20
32.5927355859
 11
78.75
 21
28.4999238476
  0
LINE
  5
433
100
AcDbEntity
  8
0
100
AcDbLine
 62
7
  6
CONTINUOUS
 10
78.75
 20
-28.4999238476
 11
78.75
 21
-32.5927355859
  0
LINE
  5
434
100
AcDbEntity
  8
0
100
AcDbLine
 62
7
  6
CONTINUOUS
 10
78.75
 20
-38.4072644141
 11
78.75
 21
-42.5000761524
  0
LINE
  5
435
100
AcDbEntity
  8
0
100
AcDbLine
 62
7
  6
CONTINUOUS
 10
78.7690726278
 20
38.35
 11
78.7690726278
 21
32.65
  0
LINE
  5
436
100
AcDbEntity
  8
0
100
AcDbLine
 62
7
  6
CONTINUOUS
 10
78.7690726278
 20
-32.65
 11
78.7690726278
 21
-38.35
  0
LINE
  5
437
100
AcDbEntity
  8
0
100
AcDbLine
 62
253
  6
CONTINUOUS
 10
78.779734537
 20
42.5298051004
 11
78.779734537
 21
28.4701948679
  0
LINE
  5
438
100
AcDbEntity
  8
0
100
AcDbLine
 62
253
  6
CONTINUOUS
 10
78.779734537
 20
-28.4701948996
 11
78.779734537
 21
-42.5298051321
  0
LINE
  5
439
100
AcDbEntity
  8
0
100
AcDbLine
 62
7
  6
CONTINUOUS
 10
78.85
 20
92.7010963722
 11
78.85
 21
49.2989036278
  0
LINE
  5
43A
100
AcDbEntity
  8
0
100
AcDbLine
 62
7
  6
CONTINUOUS
 10
78.85
 20
21.7010963722
 11
78.85
 21
-21.7010963722
  0
LINE
  5
43B
100
AcDbEntity
  8
0
100
AcDbLine
 62
7
  6
CONTINUOUS
 10
78.85
 20
-92.7010963722
 11
78.85
 21
-49.2989036278
  0
LINE
  5
43C
100
AcDbEntity
  8
0
100
AcDbLine
 62
253
  6
CONTINUOUS
 10
78.979704076
 20
42.5298106894
 11
78.979704076
 21
28.4701893106
  0
LINE
  5
43D
100
AcDbEntity
  8
0
100
AcDbLine
 62
253
  6
CONTINUOUS
 10
78.979704076
 20
-28.4701893106
 11
78.979704076
 21
-42.5298106894
  0
LINE
  5
43E
100
AcDbEntity
  8
RACCORDO
100
AcDbLine
 62
7
  6
CONTINUOUS
 10
78.9969411793
 20
48.2520812263
 11
78.9971259202
 21
22.8271801912
  0
LINE
  5
43F
100
AcDbEntity
  8
RACCORDO
100
AcDbLine
 62
7
  6
CONTINUOUS
 10
78.9970883505
 20
-22.7881631985
 11
78.9971259202
 21
-48.1728198088
  0
LINE
  5
440
100
AcDbEntity
  8
RACCORDO
100
AcDbLine
 62
253
  6
CONTINUOUS
 10
79.0017933822
 20
71.0
 11
78.9988557422
 21
78.0985186113
  0
LINE
  5
441
100
AcDbEntity
  8
RACCORDO
100
AcDbLine
 62
253
  6
CONTINUOUS
 10
79.5011081508
 20
70.9999969992
 11
79.4981705049
 21
78.1064203076
  0
LINE
  5
442
100
AcDbEntity
  8
RACCORDO
100
AcDbLine
 62
253
  6
CONTINUOUS
 10
78.9988592351
 20
-78.0942975324
 11
79.0017933822
 21
71.0
  0
LINE
  5
443
100
AcDbEntity
  8
RACCORDO
100
AcDbLine
 62
253
  6
CONTINUOUS
 10
79.4981739975
 20
-78.1021948111
 11
79.5011081496
 21
70.9999969992
  0
LINE
  5
444
100
AcDbEntity
  8
RACCORDO
100
AcDbLine
 62
253
  6
CONTINUOUS
 10
78.9897530716
 20
-85.3696210487
 11
78.9988592351
 21
-78.0942975324
  0
LINE
  5
445
100
AcDbEntity
  8
RACCORDO
100
AcDbLine
 62
253
  6
CONTINUOUS
 10
79.4890678442
 20
-85.3856019227
 11
79.4981739975
 21
-78.1021948111
  0
LINE
  5
446
100
AcDbEntity
  8
RACCORDO
100
AcDbLine
 62
253
  6
CONTINUOUS
 10
78.9740086991
 20
-92.8251203816
 11
78.9897530716
 21
-85.3696210487
  0
LINE
  5
447
100
AcDbEntity
  8
RACCORDO
100
AcDbLine
 62
253
  6
CONTINUOUS
 10
79.4733234988
 20
-92.8493821949
 11
79.4890678442
 21
-85.3856019227
  0
LINE
  5
448
100
AcDbEntity
  8
RACCORDO
100
AcDbLine
 62
7
  6
CONTINUOUS
 10
78.9971259251
 20
22.827180184
 11
78.996939541
 21
22.7478421547
  0
LINE
  5
449
100
AcDbEntity
  8
RACCORDO
100
AcDbLine
 62
7
  6
CONTINUOUS
 10
78.9971259251
 20
-48.1728198161
 11
78.9969485774
 21
-48.2504211781
  0
LINE
  5
44A
100
AcDbEntity
  8
RACCORDO
100
AcDbLine
 62
7
  6
CONTINUOUS
 10
78.9969485774
 20
-48.2504211781
 11
78.996362956
 21
-48.3325227129
  0
LINE
  5
44B
100
AcDbEntity
  8
RACCORDO
100
AcDbLine
 62
7
  6
CONTINUOUS
 10
78.996939541
 20
22.7478421547
 11
78.9963329471
 21
22.6643113403
  0
LINE
  5
44C
100
AcDbEntity
  8
RACCORDO
100
AcDbLine
 62
7
  6
CONTINUOUS
 10
78.996362956
 20
-48.3325227129
 11
78.9953545776
 21
-48.4190673892
  0
LINE
  5
44D
100
AcDbEntity
  8
RACCORDO
100
AcDbLine
 62
7
  6
CONTINUOUS
 10
78.9963329471
 20
22.6643113403
 11
78.9952956132
 21
22.5767462078
  0
LINE
  5
44E
100
AcDbEntity
  8
RACCORDO
100
AcDbLine
 62
7
  6
CONTINUOUS
 10
78.9953545776
 20
-48.4190673892
 11
78.9938720771
 21
-48.5099354952
  0
LINE
  5
44F
100
AcDbEntity
  8
RACCORDO
100
AcDbLine
 62
7
  6
CONTINUOUS
 10
78.9952956132
 20
22.5767462078
 11
78.9937908762
 21
22.4857266369
  0
LINE
  5
450
100
AcDbEntity
  8
RACCORDO
100
AcDbLine
 62
7
  6
CONTINUOUS
 10
78.9937908762
 20
22.4857266369
 11
78.9917940902
 21
22.3914542063
  0
LINE
  5
451
100
AcDbEntity
  8
RACCORDO
100
AcDbLine
 62
7
  6
CONTINUOUS
 10
78.9917940902
 20
22.3914542063
 11
78.9892938319
 21
22.2940600219
  0
LWPOLYLINE
  5
452
100
AcDbEntity
  8
0
100
AcDbPolyline
 62
253
  6
CONTINUOUS
 90
28
 70
0
 10
78.979704076
 20
28.4701893106
 10
78.9785588148
 20
28.4296526886
 10
78.9750529298
 20
28.3893575025
 10
78.969186421
 20
28.3493037523
 10
78.960923124
 20
28.309298053
 10
78.9502992033
 20
28.2695337896
 10
78.937423152
 20
28.2305911175
 10
78.9222449104
 20
28.192504727
 10
78.9048145382
 20
28.1552399277
 10
78.8853907084
 20
28.1192728032
 10
78.8639810783
 20
28.0846773961
 10
78.8405779905
 20
28.0513796637
 10
78.8154171452
 20
28.0196335624
 10
78.7885194878
 20
27.9894612043
 10
78.7598640728
 20
27.9608404772
 10
78.7296237644
 20
27.9339590013
 10
78.6977552228
 20
27.908787284
 10
78.6643017877
 20
27.8853548178
 10
78.6295663424
 20
27.8639377012
 10
78.5934737174
 20
27.8445424194
 10
78.5560990822
 20
27.8271624872
 10
78.5179708282
 20
27.8120545463
 10
78.4790658789
 20
27.7992795546
 10
78.4394073108
 20
27.7887765543
 10
78.3995927457
 20
27.7806193142
 10
78.3598213907
 20
27.774832424
 10
78.3198940386
 20
27.7713912939
 10
78.2798106894
 20
27.770295924
  0
LWPOLYLINE
  5
453
100
AcDbEntity
  8
0
100
AcDbPolyline
 62
253
  6
CONTINUOUS
 90
5
 70
0
 10
78.7797345365
 20
28.4701948684
 10
78.7789087536
 20
28.4413988911
 10
78.7764121217
 20
28.4125771548
 10
78.7722318175
 20
28.3838279076
 10
78.7663513846
 20
28.3552110603
  0
LINE
  5
454
100
AcDbEntity
  8
RACCORDO
100
AcDbLine
 62
7
  6
CONTINUOUS
 10
78.9892938319
 20
22.2940600219
 11
78.9845810815
 21
22.1424282359
  0
LINE
  5
455
100
AcDbEntity
  8
RACCORDO
100
AcDbLine
 62
7
  6
CONTINUOUS
 10
78.9845810815
 20
22.1424282359
 11
78.9767227967
 21
21.9316067695
  0
LINE
  5
456
100
AcDbEntity
  8
RACCORDO
100
AcDbLine
 62
7
  6
CONTINUOUS
 10
78.9767227967
 20
21.9316067695
 11
78.9722925022
 21
21.823366534
  0
LWPOLYLINE
  5
457
100
AcDbEntity
  8
0
100
AcDbPolyline
 62
253
  6
CONTINUOUS
 90
4
 70
0
 10
78.7663513846
 20
28.3552110603
 10
78.7587745717
 20
28.3268695641
 10
78.7495488468
 20
28.2990228163
 10
78.7387107049
 20
28.27177727
  0
LINE
  5
458
100
AcDbEntity
  8
0
100
AcDbLine
 62
253
  6
CONTINUOUS
 10
78.779734537
 20
-28.4701948996
 11
78.75
 21
-28.4999238476
  0
LINE
  5
459
100
AcDbEntity
  8
0
100
AcDbLine
 62
253
  6
CONTINUOUS
 10
78.2798308992
 20
-27.970265463
 11
78.2500761524
 21
-28.0
  0
LWPOLYLINE
  5
45A
100
AcDbEntity
  8
0
100
AcDbPolyline
 62
7
  6
CONTINUOUS
 90
10
 70
0
 10
5.2014265546
 20
-98.4962854685
 10
5.1815679368
 20
-98.5126604243
 10
5.1719985605
 20
-98.5203479923
 10
5.1624261752
 20
-98.5274472522
 10
5.1528503281
 20
-98.5339888575
 10
5.1432714718
 20
-98.5399421658
 10
5.1334693527
 20
-98.5449897356
 10
5.1233705529
 20
-98.5490257581
 10
5.1130484903
 20
-98.5521560542
 10
5.1025031649
 20
-98.554380628
  0
LINE
  5
45B
100
AcDbEntity
  8
RACCORDO
100
AcDbLine
 62
253
  6
CONTINUOUS
 10
79.0017933822
 20
71.0
 11
104.7124949539
 21
71.0
  0
LINE
  5
45C
100
AcDbEntity
  8
RACCORDO
100
AcDbLine
 62
253
  6
CONTINUOUS
 10
-79.0017933822
 20
71.0
 11
-104.7124949539
 21
71.0
  0
LWPOLYLINE
  5
45D
100
AcDbEntity
  8
0
100
AcDbPolyline
 62
253
  6
CONTINUOUS
 90
15
 70
0
 10
78.4499435503
 20
42.9999240111
 10
78.4772196623
 20
42.9891429104
 10
78.5038582604
 20
42.9767596689
 10
78.5296581182
 20
42.9628704285
 10
78.5545015648
 20
42.9475576344
 10
78.5783486182
 20
42.930865677
 10
78.6011294944
 20
42.9128588169
 10
78.6227492504
 20
42.8936315527
 10
78.6431718693
 20
42.8732362826
 10
78.662408998
 20
42.8516650136
 10
78.6804033583
 20
42.828968791
 10
78.6970750276
 20
42.8052342646
 10
78.7123868124
 20
42.7804947248
 10
78.7262942581
 20
42.754784621
 10
78.7387107049
 20
42.72822273
  0
LINE
  5
45E
100
AcDbEntity
  8
0
100
AcDbLine
 62
253
  6
CONTINUOUS
 10
78.2500761524
 20
28.0
 11
78.2798308757
 21
27.970265463
  0
LINE
  5
45F
100
AcDbEntity
  8
0
100
AcDbLine
 62
253
  6
CONTINUOUS
 10
78.75
 20
28.4999238476
 11
78.779734537
 21
28.4701948679
  0
LINE
  5
460
100
AcDbEntity
  8
RACCORDO
100
AcDbLine
 62
7
  6
CONTINUOUS
 10
78.9722925277
 20
49.1766328429
 11
78.9808921093
 21
48.9603520057
  0
LINE
  5
461
100
AcDbEntity
  8
RACCORDO
100
AcDbLine
 62
7
  6
CONTINUOUS
 10
78.9808921093
 20
48.9603520057
 11
78.9862798088
 21
48.8061565791
  0
LINE
  5
462
100
AcDbEntity
  8
RACCORDO
100
AcDbLine
 62
7
  6
CONTINUOUS
 10
78.9862798088
 20
48.8061565791
 11
78.9905748192
 21
48.6581624654
  0
LWPOLYLINE
  5
463
100
AcDbEntity
  8
RACCORDO
100
AcDbPolyline
 62
253
  6
CONTINUOUS
 90
16
 70
0
 10
78.9740086971
 20
92.8251176125
 10
78.9732013824
 20
92.8590647496
 10
78.9709185052
 20
92.8932539258
 10
78.9671242865
 20
92.9276197027
 10
78.9617778342
 20
92.9621379533
 10
78.9548528767
 20
92.9966914741
 10
78.946357533
 20
93.0310739169
 10
78.9362804637
 20
93.0652278065
 10
78.9246228502
 20
93.099062581
 10
78.9114578401
 20
93.1323318871
 10
78.8968155524
 20
93.1649632005
 10
78.8807242258
 20
93.1968979295
 10
78.863301926
 20
93.2279305287
 10
78.844633796
 20
93.2579645864
 10
78.8247498103
 20
93.2870018463
 10
78.8037074152
 20
93.3149988125
  0
LWPOLYLINE
  5
464
100
AcDbEntity
  8
RACCORDO
100
AcDbPolyline
 62
7
  6
CONTINUOUS
 90
3
 70
0
 10
78.9905748192
 20
48.6581624654
 10
78.992817629
 20
48.5628102398
 10
78.9937566208
 20
48.5160600716
  0
LWPOLYLINE
  5
465
100
AcDbEntity
  8
RACCORDO
100
AcDbPolyline
 62
253
  6
CONTINUOUS
 90
16
 70
0
 10
79.4733234988
 20
92.8493821949
 10
79.472099458
 20
92.9047772328
 10
79.4683715722
 20
92.9603565823
 10
79.4621398412
 20
93.0161202392
 10
79.4534191263
 20
93.0722608056
 10
79.4421945662
 20
93.1285856685
 10
79.4284215781
 20
93.1845170121
 10
79.4120325672
 20
93.2400708847
 10
79.3930951282
 20
93.2952312504
 10
79.3717674616
 20
93.3493721883
 10
79.3479890736
 20
93.4024634944
 10
79.321820458
 20
93.4545354078
 10
79.2936012961
 20
93.5050526925
 10
79.2634448153
 20
93.5538369574
 10
79.2312377882
 20
93.6010666458
 10
79.196980215
 20
93.646741782
  0
LINE
  5
466
100
AcDbEntity
  8
RACCORDO
100
AcDbLine
 62
7
  6
CONTINUOUS
 10
78.9938720771
 20
-48.5099354952
 11
78.99188581
 21
-48.6045808729
  0
LINE
  5
467
100
AcDbEntity
  8
RACCORDO
100
AcDbLine
 62
7
  6
CONTINUOUS
 10
78.99188581
 20
-48.6045808729
 11
78.9893856001
 21
-48.7026419971
  0
LWPOLYLINE
  5
468
100
AcDbEntity
  8
0
100
AcDbPolyline
 62
253
  6
CONTINUOUS
 90
28
 70
0
 10
78.979704076
 20
-42.5298106894
 10
78.9785588148
 20
-42.5703473114
 10
78.9750529298
 20
-42.6106424975
 10
78.969186421
 20
-42.6506962477
 10
78.960923124
 20
-42.690701947
 10
78.9502992033
 20
-42.7304662104
 10
78.937423152
 20
-42.7694088825
 10
78.9222449104
 20
-42.807495273
 10
78.9048145382
 20
-42.8447600723
 10
78.8853907084
 20
-42.8807271968
 10
78.8639810783
 20
-42.9153226039
 10
78.8405779905
 20
-42.9486203363
 10
78.8154171452
 20
-42.9803664376
 10
78.7885194878
 20
-43.0105387957
 10
78.7598640728
 20
-43.0391595228
 10
78.7296237644
 20
-43.0660409987
 10
78.6977552228
 20
-43.091212716
 10
78.6643017877
 20
-43.1146451822
 10
78.6295663424
 20
-43.1360622988
 10
78.5934737174
 20
-43.1554575806
 10
78.5560990822
 20
-43.1728375128
 10
78.5179708282
 20
-43.1879454537
 10
78.4790658789
 20
-43.2007204454
 10
78.4394073108
 20
-43.2112234457
 10
78.3995927457
 20
-43.2193806858
 10
78.3598213907
 20
-43.225167576
 10
78.3198940386
 20
-43.2286087061
 10
78.2798106894
 20
-43.229704076
  0
LWPOLYLINE
  5
469
100
AcDbEntity
  8
0
100
AcDbPolyline
 62
253
  6
CONTINUOUS
 90
5
 70
0
 10
78.7797345365
 20
-42.5298051316
 10
78.7789087536
 20
-42.5586011089
 10
78.7764121217
 20
-42.5874228452
 10
78.7722318175
 20
-42.6161720924
 10
78.7663513846
 20
-42.6447889397
  0
LINE
  5
46A
100
AcDbEntity
  8
RACCORDO
100
AcDbLine
 62
7
  6
CONTINUOUS
 10
78.9893856001
 20
-48.7026419971
 11
78.9846754492
 21
-48.8547977829
  0
LINE
  5
46B
100
AcDbEntity
  8
RACCORDO
100
AcDbLine
 62
7
  6
CONTINUOUS
 10
78.9846754492
 20
-48.8547977829
 11
78.976802437
 21
-49.0663819124
  0
LINE
  5
46C
100
AcDbEntity
  8
RACCORDO
100
AcDbLine
 62
7
  6
CONTINUOUS
 10
78.976802437
 20
-49.0663819124
 11
78.9722925027
 21
-49.1766334654
  0
LWPOLYLINE
  5
46D
100
AcDbEntity
  8
0
100
AcDbPolyline
 62
253
  6
CONTINUOUS
 90
4
 70
0
 10
78.7663513846
 20
-42.6447889397
 10
78.7587745717
 20
-42.6731304359
 10
78.7495488468
 20
-42.7009771837
 10
78.7387107049
 20
-42.72822273
  0
LINE
  5
46E
100
AcDbEntity
  8
0
100
AcDbLine
 62
7
  6
CONTINUOUS
 10
78.75
 20
-38.4072644141
 11
78.7690726278
 21
-38.35
  0
LWPOLYLINE
  5
46F
100
AcDbEntity
  8
0
100
AcDbPolyline
 62
253
  6
CONTINUOUS
 90
15
 70
0
 10
78.7387107049
 20
-42.72822273
 10
78.7262942581
 20
-42.754784621
 10
78.7123868124
 20
-42.7804947248
 10
78.6970750276
 20
-42.8052342646
 10
78.6804033583
 20
-42.828968791
 10
78.662408998
 20
-42.8516650136
 10
78.6431718693
 20
-42.8732362826
 10
78.6227492504
 20
-42.8936315527
 10
78.6011294944
 20
-42.9128588169
 10
78.5783486182
 20
-42.930865677
 10
78.5545015648
 20
-42.9475576344
 10
78.5296581182
 20
-42.9628704285
 10
78.5038582604
 20
-42.9767596689
 10
78.4772196623
 20
-42.9891429104
 10
78.4499435503
 20
-42.9999240111
  0
LINE
  5
470
100
AcDbEntity
  8
0
100
AcDbLine
 62
253
  6
CONTINUOUS
 10
78.1734055404
 20
-48.3777065589
 11
78.0510963722
 21
-48.5
  0
LINE
  5
471
100
AcDbEntity
  8
0
100
AcDbLine
 62
253
  6
CONTINUOUS
 10
78.9722925027
 20
-49.1766334654
 11
78.85
 21
-49.2989036278
  0
LINE
  5
472
100
AcDbEntity
  8
RACCORDO
100
AcDbLine
 62
253
  6
CONTINUOUS
 10
79.1776586965
 20
92.8439313794
 11
79.2309100462
 21
92.8457219372
  0
LINE
  5
473
100
AcDbEntity
  8
RACCORDO
100
AcDbLine
 62
253
  6
CONTINUOUS
 10
79.2309100462
 20
92.8457219372
 11
79.2880379147
 21
92.8471828012
  0
LINE
  5
474
100
AcDbEntity
  8
RACCORDO
100
AcDbLine
 62
253
  6
CONTINUOUS
 10
79.2880379147
 20
92.8471828012
 11
79.348128743
 21
92.8482906102
  0
LINE
  5
475
100
AcDbEntity
  8
RACCORDO
100
AcDbLine
 62
253
  6
CONTINUOUS
 10
79.348128743
 20
92.8482906102
 11
79.4102215898
 21
92.8490276485
  0
LINE
  5
476
100
AcDbEntity
  8
RACCORDO
100
AcDbLine
 62
253
  6
CONTINUOUS
 10
79.4102215898
 20
92.8490276485
 11
79.4733234988
 21
92.8493821298
  0
LINE
  5
477
100
AcDbEntity
  8
RACCORDO
100
AcDbLine
 62
253
  6
CONTINUOUS
 10
-79.4102216637
 20
92.8490277019
 11
-79.4733234988
 21
92.8493821949
  0
LINE
  5
478
100
AcDbEntity
  8
RACCORDO
100
AcDbLine
 62
253
  6
CONTINUOUS
 10
-79.3481289154
 20
92.8482906531
 11
-79.4102216637
 21
92.8490277019
  0
LINE
  5
479
100
AcDbEntity
  8
RACCORDO
100
AcDbLine
 62
253
  6
CONTINUOUS
 10
-79.2880382038
 20
92.8471828349
 11
-79.3481289154
 21
92.8482906531
  0
LINE
  5
47A
100
AcDbEntity
  8
RACCORDO
100
AcDbLine
 62
253
  6
CONTINUOUS
 10
-79.2309104636
 20
92.8457219628
 11
-79.2880382038
 21
92.8471828349
  0
LINE
  5
47B
100
AcDbEntity
  8
0
100
AcDbLine
 62
253
  6
CONTINUOUS
 10
78.1734005066
 20
48.3777065589
 11
78.0510963722
 21
48.5
  0
LINE
  5
47C
100
AcDbEntity
  8
0
100
AcDbLine
 62
253
  6
CONTINUOUS
 10
78.9722925277
 20
49.1766328429
 11
78.85
 21
49.2989036278
  0
LWPOLYLINE
  5
47D
100
AcDbEntity
  8
0
100
AcDbPolyline
 62
253
  6
CONTINUOUS
 90
8
 70
0
 10
78.7387107049
 20
42.72822273
 10
78.7495488468
 20
42.7009771837
 10
78.7587745714
 20
42.673130437
 10
78.7663513841
 20
42.644788942
 10
78.7722318176
 20
42.6161720924
 10
78.7764121225
 20
42.5874228382
 10
78.7789087546
 20
42.5586010913
 10
78.7797345365
 20
42.5298051
  0
LINE
  5
47E
100
AcDbEntity
  8
0
100
AcDbLine
 62
7
  6
CONTINUOUS
 10
78.75
 20
38.4072644141
 11
78.7690726278
 21
38.35
  0
LWPOLYLINE
  5
47F
100
AcDbEntity
  8
RACCORDO
100
AcDbPolyline
 62
253
  6
CONTINUOUS
 90
9
 70
0
 10
104.5704752745
 20
-114.9245843251
 10
104.549269062
 20
-112.5779525961
 10
104.5298149288
 20
-110.2258205098
 10
104.5121128747
 20
-107.8686621565
 10
104.4961600887
 20
-105.5069570096
 10
104.4819593819
 20
-103.1411766856
 10
104.4695191875
 20
-100.7717847757
 10
104.4588423168
 20
-98.3992543264
 10
104.4499259585
 20
-96.0240678139
  0
LWPOLYLINE
  5
480
100
AcDbEntity
  8
RACCORDO
100
AcDbPolyline
 62
253
  6
CONTINUOUS
 90
9
 70
0
 10
104.8700641349
 20
-114.8714346001
 10
104.8488583148
 20
-112.5282633806
 10
104.8294044228
 20
-110.1805292018
 10
104.8117024588
 20
-107.8282320636
 10
104.7957495359
 20
-105.4708898601
 10
104.781548541
 20
-103.1089846973
 10
104.7691081354
 20
-100.7439628935
 10
104.7584312061
 20
-98.3763065547
 10
104.7495148661
 20
-96.0055335749
  0
LINE
  5
481
100
AcDbEntity
  8
RACCORDO
100
AcDbLine
 62
253
  6
CONTINUOUS
 10
104.4499259585
 20
-96.0240678139
 11
104.4395444089
 21
-92.3894133647
  0
LINE
  5
482
100
AcDbEntity
  8
RACCORDO
100
AcDbLine
 62
253
  6
CONTINUOUS
 10
104.7495148661
 20
-96.0055335749
 11
104.7391333224
 21
-92.3751593393
  0
LINE
  5
483
100
AcDbEntity
  8
RACCORDO
100
AcDbLine
 62
253
  6
CONTINUOUS
 10
104.4395444089
 20
-92.3894133647
 11
104.4284844706
 21
-87.3590316449
  0
LINE
  5
484
100
AcDbEntity
  8
RACCORDO
100
AcDbLine
 62
253
  6
CONTINUOUS
 10
104.7391333224
 20
-92.3751593393
 11
104.7280733304
 21
-87.3481223445
  0
LINE
  5
485
100
AcDbEntity
  8
RACCORDO
100
AcDbLine
 62
253
  6
CONTINUOUS
 10
104.4284844706
 20
-87.3590316449
 11
104.4240603184
 21
-84.8432001813
  0
LINE
  5
486
100
AcDbEntity
  8
RACCORDO
100
AcDbLine
 62
253
  6
CONTINUOUS
 10
104.7280733304
 20
-87.3481223445
 11
104.72364918
 21
-84.8339753724
  0
LINE
  5
487
100
AcDbEntity
  8
RACCORDO
100
AcDbLine
 62
253
  6
CONTINUOUS
 10
104.4240603184
 20
-84.8432001813
 11
104.4174235953
 21
-79.8104274738
  0
LINE
  5
488
100
AcDbEntity
  8
RACCORDO
100
AcDbLine
 62
253
  6
CONTINUOUS
 10
104.72364918
 20
-84.8339753724
 11
104.7170124553
 21
-79.8045500944
  0
LINE
  5
489
100
AcDbEntity
  8
RACCORDO
100
AcDbLine
 62
253
  6
CONTINUOUS
 10
104.4174235953
 20
-79.8104274738
 11
104.4152111055
 21
-77.2935243826
  0
LINE
  5
48A
100
AcDbEntity
  8
RACCORDO
100
AcDbLine
 62
253
  6
CONTINUOUS
 10
104.7170124553
 20
-79.8045500944
 11
104.7147999652
 21
-77.2893307617
  0
LWPOLYLINE
  5
48B
100
AcDbEntity
  8
RACCORDO
100
AcDbPolyline
 62
253
  6
CONTINUOUS
 90
3
 70
0
 10
104.4152111055
 20
-77.2935243826
 10
104.4129983429
 20
-72.2588269714
 10
104.4129060932
 20
-70.9999987744
  0
LWPOLYLINE
  5
48C
100
AcDbEntity
  8
RACCORDO
100
AcDbPolyline
 62
253
  6
CONTINUOUS
 90
3
 70
0
 10
104.7147999652
 20
-77.2893307617
 10
104.7125872032
 20
-72.2580039959
 10
104.7124949539
 20
-71.0
  0
LINE
  5
48D
100
AcDbEntity
  8
RACCORDO
100
AcDbLine
 62
253
  6
CONTINUOUS
 10
103.8781748407
 20
-115.6316296735
 11
103.8781748408
 21
-115.8768043754
  0
LINE
  5
48E
100
AcDbEntity
  8
RACCORDO
100
AcDbLine
 62
253
  6
CONTINUOUS
 10
103.8781748407
 20
115.6316296735
 11
103.8781748407
 21
115.8768043754
  0
LINE
  5
48F
100
AcDbEntity
  8
RACCORDO
100
AcDbLine
 62
7
  6
CONTINUOUS
 10
105.0
 20
-115.0013704652
 11
105.0
 21
115.0013704652
  0
LINE
  5
490
100
AcDbEntity
  8
RACCORDO
100
AcDbLine
 62
253
  6
CONTINUOUS
 10
104.4129060935
 20
-70.9999987744
 11
104.4143813472
 21
76.0349633622
  0
LINE
  5
491
100
AcDbEntity
  8
RACCORDO
100
AcDbLine
 62
253
  6
CONTINUOUS
 10
104.7124949539
 20
-71.0
 11
104.7139702068
 21
76.0316017903
  0
LINE
  5
492
100
AcDbEntity
  8
RACCORDO
100
AcDbLine
 62
253
  6
CONTINUOUS
 10
104.4143813472
 20
76.0349633622
 11
104.4188063268
 21
81.0687498608
  0
LINE
  5
493
100
AcDbEntity
  8
RACCORDO
100
AcDbLine
 62
253
  6
CONTINUOUS
 10
104.7139702068
 20
76.0316017903
 11
104.718395187
 21
81.0620404557
  0
LINE
  5
494
100
AcDbEntity
  8
RACCORDO
100
AcDbLine
 62
253
  6
CONTINUOUS
 10
104.4188063268
 20
81.0687498608
 11
104.4261802472
 21
86.1011648792
  0
LINE
  5
495
100
AcDbEntity
  8
RACCORDO
100
AcDbLine
 62
253
  6
CONTINUOUS
 10
104.718395187
 20
81.0620404557
 11
104.7257691094
 21
86.0910984411
  0
LINE
  5
496
100
AcDbEntity
  8
RACCORDO
100
AcDbLine
 62
253
  6
CONTINUOUS
 10
104.4261802472
 20
86.1011648792
 11
104.4365029617
 21
91.1319899715
  0
LINE
  5
497
100
AcDbEntity
  8
RACCORDO
100
AcDbLine
 62
253
  6
CONTINUOUS
 10
104.7257691094
 20
86.0910984411
 11
104.7360918461
 21
91.1185655361
  0
LWPOLYLINE
  5
498
100
AcDbEntity
  8
RACCORDO
100
AcDbPolyline
 62
253
  6
CONTINUOUS
 90
10
 70
0
 10
104.4365029617
 20
91.1319899715
 10
104.4499259595
 20
96.024067855
 10
104.4588423183
 20
98.3992544377
 10
104.4695191885
 20
100.7717848411
 10
104.4819593805
 20
103.1411764911
 10
104.4961600839
 20
105.5069564405
 10
104.5121128681
 20
107.8686613913
 10
104.5298149228
 20
110.2258198238
 10
104.5492690583
 20
112.5779521656
 10
104.5704752745
 20
114.9245843251
  0
LWPOLYLINE
  5
499
100
AcDbEntity
  8
RACCORDO
100
AcDbPolyline
 62
253
  6
CONTINUOUS
 90
10
 70
0
 10
104.7360918461
 20
91.1185655361
 10
104.7495148787
 20
96.0055369613
 10
104.7584312346
 20
98.3763131635
 10
104.7691081833
 20
100.743972561
 10
104.7815486204
 20
103.10899817
 10
104.7957496502
 20
105.4709069741
 10
104.8117025853
 20
107.8282499241
 10
104.8294045299
 20
110.1805440036
 10
104.8488583798
 20
112.5282722289
 10
104.8700641349
 20
114.8714346001
  0
LWPOLYLINE
  5
49A
100
AcDbEntity
  8
RACCORDO
100
AcDbPolyline
 62
253
  6
CONTINUOUS
 90
16
 70
0
 10
-104.5688821496
 20
93.6450107831
 10
-104.5882184433
 20
93.6444655195
 10
-104.6067945653
 20
93.6438532451
 10
-104.6245134291
 20
93.6431771599
 10
-104.6412824288
 20
93.6424407975
 10
-104.6570139226
 20
93.6416480064
 10
-104.6716256914
 20
93.64080293
 10
-104.6850413681
 20
93.6399099851
 10
-104.6971908368
 20
93.6389738385
 10
-104.7080105995
 20
93.6379993829
 10
-104.7174441077
 20
93.6369917113
 10
-104.725442058
 20
93.6359560901
 10
-104.7319626498
 20
93.6348979319
 10
-104.7369718039
 20
93.6338227671
 10
-104.7404433403
 20
93.6327362149
 10
-104.7423591154
 20
93.6316439541
  0
LWPOLYLINE
  5
49B
100
AcDbEntity
  8
RACCORDO
100
AcDbPolyline
 62
253
  6
CONTINUOUS
 90
22
 70
0
 10
-78.1716838297
 20
94.1465549932
 10
-78.226917774
 20
94.1454204798
 10
-78.2820751349
 20
94.1418998914
 10
-78.3371559123
 20
94.1359932199
 10
-78.3922841948
 20
94.127702526
 10
-78.4473358938
 20
94.1170257167
 10
-78.5019387442
 20
94.1039565449
 10
-78.5561141252
 20
94.0884594339
 10
-78.6098406576
 20
94.0705698952
 10
-78.6626819378
 20
94.0503883076
 10
-78.7146111604
 20
94.0278916
 10
-78.7656551309
 20
94.0031027514
 10
-78.8154578624
 20
93.9761912148
 10
-78.8639965839
 20
93.9471427055
 10
-78.9112940664
 20
93.9159713982
 10
-78.9570626361
 20
93.8828894391
 10
-79.0012808948
 20
93.8478917061
 10
-79.0439702406
 20
93.8109832033
 10
-79.0849071935
 20
93.7723912763
 10
-79.1240172603
 20
93.7321916714
 10
-79.1613749341
 20
93.6903085271
 10
-79.196980215
 20
93.646741782
  0
LINE
  5
49C
100
AcDbEntity
  8
RACCORDO
100
AcDbLine
 62
253
  6
CONTINUOUS
 10
-104.5283367293
 20
93.6458892442
 11
-104.5688821496
 21
93.6450107831
  0
LWPOLYLINE
  5
49D
100
AcDbEntity
  8
RACCORDO
100
AcDbPolyline
 62
253
  6
CONTINUOUS
 90
22
 70
0
 10
-78.1716963334
 20
93.6205874786
 10
-78.2056561766
 20
93.6199296879
 10
-78.2396896812
 20
93.6178300307
 10
-78.273734561
 20
93.6142754233
 10
-78.3077367551
 20
93.6092542199
 10
-78.3416219766
 20
93.6027592425
 10
-78.3752965866
 20
93.5947917723
 10
-78.4087115596
 20
93.5853483765
 10
-78.4417836893
 20
93.5744373077
 10
-78.4743713365
 20
93.5620951564
 10
-78.5064015706
 20
93.5483468657
 10
-78.5378233556
 20
93.533211656
 10
-78.568534962
 20
93.5167368598
 10
-78.5984732671
 20
93.4989599475
 10
-78.6275898739
 20
93.4799134374
 10
-78.6558118066
 20
93.45964869
 10
-78.6830820515
 20
93.438214404
 10
-78.7093607365
 20
93.415650013
 10
-78.7346049766
 20
93.3919979862
 10
-78.7587718848
 20
93.3673048015
 10
-78.7818190836
 20
93.3416213562
 10
-78.8037074152
 20
93.3149988125
  0
LINE
  5
49E
100
AcDbEntity
  8
RACCORDO
100
AcDbLine
 62
253
  6
CONTINUOUS
 10
-104.4860048248
 20
93.6464702876
 11
-104.5283367293
 21
93.6458892442
  0
LINE
  5
49F
100
AcDbEntity
  8
RACCORDO
100
AcDbLine
 62
253
  6
CONTINUOUS
 10
-104.442770255
 20
93.646741782
 11
-104.4860048248
 21
93.6464702876
  0
LINE
  5
4A0
100
AcDbEntity
  8
0
100
AcDbLine
 62
7
  6
CONTINUOUS
 10
-78.0510963722
 20
93.5
 11
78.0510963722
 21
93.5
  0
LINE
  5
4A1
100
AcDbEntity
  8
RACCORDO
100
AcDbLine
 62
253
  6
CONTINUOUS
 10
78.1716994065
 20
93.6205874575
 11
-78.1716963122
 21
93.6205874575
  0
LINE
  5
4A2
100
AcDbEntity
  8
RACCORDO
100
AcDbLine
 62
253
  6
CONTINUOUS
 10
-104.4427701632
 20
93.6467038536
 11
-79.196980215
 21
93.646741782
  0
LINE
  5
4A3
100
AcDbEntity
  8
RACCORDO
100
AcDbLine
 62
253
  6
CONTINUOUS
 10
79.196980215
 20
93.646741782
 11
104.4427701629
 21
93.6467037078
  0
LINE
  5
4A4
100
AcDbEntity
  8
RACCORDO
100
AcDbLine
 62
253
  6
CONTINUOUS
 10
78.1716838297
 20
94.1465549932
 11
-78.1716838297
 21
94.1465549932
  0
LINE
  5
4A5
100
AcDbEntity
  8
RACCORDO
100
AcDbLine
 62
253
  6
CONTINUOUS
 10
104.442770255
 20
93.6467417812
 11
104.4860048234
 21
93.6464702868
  0
LINE
  5
4A6
100
AcDbEntity
  8
RACCORDO
100
AcDbLine
 62
253
  6
CONTINUOUS
 10
104.4860048234
 20
93.6464702868
 11
104.5283367266
 21
93.6458892435
  0
LWPOLYLINE
  5
4A7
100
AcDbEntity
  8
RACCORDO
100
AcDbPolyline
 62
253
  6
CONTINUOUS
 90
17
 70
0
 10
104.5283367266
 20
93.6458892435
 10
104.5688821458
 20
93.6450107824
 10
104.588218439
 20
93.6444655188
 10
104.6067945606
 20
93.6438532445
 10
104.6245134242
 20
93.6431771594
 10
104.6412824236
 20
93.642440797
 10
104.6570139174
 20
93.641648006
 10
104.6716256862
 20
93.6408029296
 10
104.685041363
 20
93.6399099847
 10
104.6971908319
 20
93.6389738382
 10
104.708010595
 20
93.6379993827
 10
104.7174441036
 20
93.6369917111
 10
104.7254420545
 20
93.6359560899
 10
104.731962647
 20
93.6348979318
 10
104.7369718019
 20
93.633822767
 10
104.7404433392
 20
93.6327362149
 10
104.7423591154
 20
93.6316439541
  0
LWPOLYLINE
  5
4A8
100
AcDbEntity
  8
RACCORDO
100
AcDbPolyline
 62
253
  6
CONTINUOUS
 90
31
 70
0
 10
104.8700641349
 20
114.8714346001
 10
104.8689837283
 20
114.9245325727
 10
104.8651242605
 20
114.9774498659
 10
104.8585017163
 20
115.0300410074
 10
104.8491405993
 20
115.0821640913
 10
104.8370709871
 20
115.1336741479
 10
104.82232903
 20
115.1844236819
 10
104.8049594955
 20
115.2342783947
 10
104.785016971
 20
115.2830992478
 10
104.7625658091
 20
115.3307369647
 10
104.7376776484
 20
115.3770597475
 10
104.71042623
 20
115.421949258
 10
104.6808909992
 20
115.4652835748
 10
104.6491601876
 20
115.506947831
 10
104.6153267021
 20
115.5468342004
 10
104.5794851669
 20
115.5848386398
 10
104.5417404732
 20
115.620861123
 10
104.502199302
 20
115.6548109864
 10
104.4609647796
 20
115.6866054676
 10
104.4181535382
 20
115.7161620493
 10
104.3738842197
 20
115.7434064129
 10
104.3282666925
 20
115.7682745836
 10
104.2814242431
 20
115.7907030255
 10
104.2334870704
 20
115.8106334149
 10
104.1845783761
 20
115.8280167082
 10
104.134831921
 20
115.8428075328
 10
104.0843817991
 20
115.8549685407
 10
104.033353931
 20
115.8644704898
 10
103.9818824058
 20
115.8712883803
 10
103.9301095385
 20
115.8754033232
 10
103.8781748407
 20
115.8768043754
  0
LWPOLYLINE
  5
4A9
100
AcDbEntity
  8
RACCORDO
100
AcDbPolyline
 62
253
  6
CONTINUOUS
 90
31
 70
0
 10
104.5704752745
 20
114.9245843251
 10
104.5698318164
 20
114.9620887008
 10
104.5672705353
 20
114.9992725536
 10
104.5627914313
 20
115.0361359206
 10
104.556368329
 20
115.07278297
 10
104.5480274037
 20
115.1091095985
 10
104.5378471816
 20
115.1448034728
 10
104.5258106905
 20
115.1798570592
 10
104.5119349025
 20
115.214278036
 10
104.4963492603
 20
115.2477769567
 10
104.4790405749
 20
115.2803416129
 10
104.4600220353
 20
115.3119844126
 10
104.439462652
 20
115.3424528897
 10
104.4173511099
 20
115.3717360143
 10
104.3936987241
 20
115.3998450478
 10
104.36870845
 20
115.4265610015
 10
104.3423718963
 20
115.4518712641
 10
104.3146974544
 20
115.4757886875
 10
104.2859132542
 20
115.4981325034
 10
104.2560127627
 20
115.5188903341
 10
104.2250025129
 20
115.5380747835
 10
104.1931302347
 20
115.5555425671
 10
104.160388918
 20
115.5712814066
 10
104.1267855729
 20
115.5853037711
 10
104.0925889591
 20
115.5975034963
 10
104.0577891562
 20
115.6078670078
 10
104.0223960846
 20
115.616408018
 10
103.9867082652
 20
115.6230612831
 10
103.9508252049
 20
115.6278050799
 10
103.9146473967
 20
115.630661204
 10
103.8781748407
 20
115.6316296735
  0
LWPOLYLINE
  5
4AA
100
AcDbEntity
  8
RACCORDO
100
AcDbPolyline
 62
253
  6
CONTINUOUS
 90
31
 70
0
 10
-103.8781748407
 20
115.8768043754
 10
-103.9300633794
 20
115.8754057976
 10
-103.9817973721
 20
115.8712974012
 10
-104.033237539
 20
115.864489022
 10
-104.0842407131
 20
115.8549986546
 10
-104.1346738041
 20
115.8428500648
 10
-104.1844136212
 20
115.8280704255
 10
-104.2333299353
 20
115.8106939214
 10
-104.2812840515
 20
115.7907656453
 10
-104.3281425884
 20
115.7683380415
 10
-104.3737718284
 20
115.7434715431
 10
-104.4180520963
 20
115.716228183
 10
-104.4608745776
 20
115.6866712719
 10
-104.5021210044
 20
115.6548746668
 10
-104.5416740624
 20
115.6209211985
 10
-104.5794300426
 20
115.5848940411
 10
-104.6152821789
 20
115.5468839139
 10
-104.6491255113
 20
115.5069908962
 10
-104.6808649968
 20
115.4653195812
 10
-104.7104070652
 20
115.4219789661
 10
-104.7376642889
 20
115.3770830522
 10
-104.7625586724
 20
115.3307510543
 10
-104.7850198577
 20
115.283092555
 10
-104.8049710988
 20
115.2342475387
 10
-104.8223399572
 20
115.1843893087
 10
-104.8370686348
 20
115.1336830939
 10
-104.8491249632
 20
115.0822397089
 10
-104.8584842663
 20
115.030155227
 10
-104.8651136774
 20
114.9775560951
 10
-104.8689805239
 20
114.9246007462
 10
-104.8700641349
 20
114.8714346001
  0
LWPOLYLINE
  5
4AB
100
AcDbEntity
  8
RACCORDO
100
AcDbPolyline
 62
253
  6
CONTINUOUS
 90
31
 70
0
 10
-103.8781748407
 20
115.6316296735
 10
-103.9146529722
 20
115.6306597302
 10
-103.9508319703
 20
115.6278034482
 10
-103.9867118348
 20
115.6230608093
 10
-104.0223884154
 20
115.6164111066
 10
-104.0577658624
 20
115.6078749747
 10
-104.0925566275
 20
115.5975143919
 10
-104.1267568879
 20
115.585314063
 10
-104.1603704663
 20
115.5712891449
 10
-104.1931212822
 20
115.5555472846
 10
-104.2249996843
 20
115.5380766368
 10
-104.2560153239
 20
115.5188888558
 10
-104.2859210743
 20
115.4981268372
 10
-104.3147107791
 20
115.4757777339
 10
-104.3423905947
 20
115.4518541665
 10
-104.3687318644
 20
115.4265372441
 10
-104.3937261188
 20
115.3998140448
 10
-104.4173818273
 20
115.3716972495
 10
-104.4394957418
 20
115.3424063973
 10
-104.4600562017
 20
115.3119310221
 10
-104.4790748675
 20
115.2802813584
 10
-104.496383473
 20
115.2477080355
 10
-104.5119701923
 20
115.2141922068
 10
-104.5258468514
 20
115.1797525184
 10
-104.5378806623
 20
115.1446958968
 10
-104.5480511722
 20
115.1090293237
 10
-104.556378834
 20
115.0727456776
 10
-104.5627922181
 20
115.0361307981
 10
-104.5672675146
 20
114.9992799549
 10
-104.5698285334
 20
114.96209781
 10
-104.5704752745
 20
114.9245843251
  0
LWPOLYLINE
  5
4AC
100
AcDbEntity
  8
RACCORDO
100
AcDbPolyline
 62
253
  6
CONTINUOUS
 90
22
 70
0
 10
-104.5704752745
 20
114.924584313
 10
-104.5921592014
 20
114.924247135
 10
-104.6137296854
 20
114.92363366
 10
-104.6350738773
 20
114.9227470974
 10
-104.6560801115
 20
114.9215920854
 10
-104.6766384907
 20
114.9201746666
 10
-104.6966414605
 20
114.9185022565
 10
-104.7159843721
 20
114.9165836045
 10
-104.7345660303
 20
114.9144287484
 10
-104.752289222
 20
114.9120489616
 10
-104.7690612257
 20
114.9094566944
 10
-104.784794296
 20
114.9066655087
 10
-104.799406123
 20
114.9036900068
 10
-104.8128202624
 20
114.9005457557
 10
-104.8249665363
 20
114.897249205
 10
-104.8357813994
 20
114.893817601
 10
-104.8452082721
 20
114.8902688969
 10
-104.8531978363
 20
114.8866216581
 10
-104.8597082933
 20
114.8828949658
 10
-104.8647055826
 20
114.8791083167
 10
-104.8681635601
 20
114.8752815214
 10
-104.8700641349
 20
114.8714346001
  0
LINE
  5
4AD
100
AcDbEntity
  8
RACCORDO
100
AcDbLine
 62
253
  6
CONTINUOUS
 10
103.8781748407
 20
115.6316296735
 11
-103.8781748407
 21
115.6316296735
  0
LINE
  5
4AE
100
AcDbEntity
  8
RACCORDO
100
AcDbLine
 62
253
  6
CONTINUOUS
 10
103.8781748407
 20
115.8768043754
 11
-103.8781748407
 21
115.8768043754
  0
LINE
  5
4AF
100
AcDbEntity
  8
RACCORDO
100
AcDbLine
 62
7
  6
CONTINUOUS
 10
-104.0013704652
 20
116.0
 11
104.0013704652
 21
116.0
  0
LWPOLYLINE
  5
4B0
100
AcDbEntity
  8
RACCORDO
100
AcDbPolyline
 62
253
  6
CONTINUOUS
 90
22
 70
0
 10
104.5704752745
 20
114.9245843212
 10
104.5921590664
 20
114.924247119
 10
104.6137294059
 20
114.9236336223
 10
104.6350734455
 20
114.9227470407
 10
104.6560795213
 20
114.9215920123
 10
104.6766377378
 20
114.9201745799
 10
104.6966405423
 20
114.9185021589
 10
104.715983288
 20
114.9165834988
 10
104.7345647812
 20
114.9144286372
 10
104.7522878107
 20
114.9120488476
 10
104.7690596565
 20
114.90945658
 10
104.7847925748
 20
114.9066653962
 10
104.7994042572
 20
114.9036898986
 10
104.8128182609
 20
114.9005456539
 10
104.8249644093
 20
114.8972491114
 10
104.8357791582
 20
114.8938175175
 10
104.8452059292
 20
114.8902688249
 10
104.853195405
 20
114.8866215989
 10
104.8597057879
 20
114.8828949205
 10
104.864703018
 20
114.8791082861
 10
104.8681609518
 20
114.8752815059
 10
104.8700614987
 20
114.8714346002
  0
LWPOLYLINE
  5
4B1
100
AcDbEntity
  8
RACCORDO
100
AcDbPolyline
 62
253
  6
CONTINUOUS
 90
16
 70
0
 10
79.196980215
 20
-93.646741782
 10
79.2311789067
 20
-93.6011537683
 10
79.2633393006
 20
-93.5540032027
 10
79.2934613965
 20
-93.5052900612
 10
79.3216597541
 20
-93.4548371442
 10
79.3478198137
 20
-93.4028215988
 10
79.3715978971
 20
-93.3497749279
 10
79.3929333488
 20
-93.2956705129
 10
79.4118868243
 20
-93.2405349371
 10
79.4282966113
 20
-93.1849795268
 10
79.4420973592
 20
-93.1290106821
 10
79.4533544186
 20
-93.0726219893
 10
79.4621021284
 20
-93.0164055756
 10
79.4683519348
 20
-92.9605588244
 10
79.4720923916
 20
-92.9048843629
 10
79.4733234988
 20
-92.8493821949
  0
LWPOLYLINE
  5
4B2
100
AcDbEntity
  8
RACCORDO
100
AcDbPolyline
 62
253
  6
CONTINUOUS
 90
16
 70
0
 10
78.8037074152
 20
-93.3149988125
 10
78.8247143384
 20
-93.2870512767
 10
78.844571262
 20
-93.2580603741
 10
78.8632201474
 20
-93.2280688198
 10
78.8806302634
 20
-93.1970743675
 10
78.8967158687
 20
-93.1651725418
 10
78.9113583423
 20
-93.1325675695
 10
78.9245277008
 20
-93.0993196608
 10
78.9361938438
 20
-93.0654987238
 10
78.9462845462
 20
-93.0313431946
 10
78.954797963
 20
-92.9969368655
 10
78.9617414246
 20
-92.9623429483
 10
78.9671031848
 20
-92.927778882
 10
78.9709085958
 20
-92.8933658337
 10
78.9731986801
 20
-92.8591244305
 10
78.9740086896
 20
-92.8251203721
  0
LWPOLYLINE
  5
4B3
100
AcDbEntity
  8
RACCORDO
100
AcDbPolyline
 62
253
  6
CONTINUOUS
 90
22
 70
0
 10
78.8037074152
 20
93.3149988125
 10
78.7818245356
 20
93.3416150107
 10
78.7587830581
 20
93.3672928802
 10
78.7346220726
 20
93.3919812583
 10
78.7093834274
 20
93.4156296571
 10
78.6831103715
 20
93.4381911328
 10
78.6558472193
 20
93.4596220783
 10
78.6276349263
 20
93.4798825487
 10
78.5985296319
 20
93.4989248009
 10
78.5686028135
 20
93.5166985389
 10
78.5379026382
 20
93.5331713182
 10
78.5064922956
 20
93.5483055668
 10
78.4744722638
 20
93.5620544035
 10
78.4418957769
 20
93.5743976101
 10
78.4088333873
 20
93.5853110847
 10
78.3754182152
 20
93.5947602136
 10
78.3417259103
 20
93.6027369963
 10
78.3078123373
 20
93.6092414029
 10
78.2737843538
 20
93.6142691534
 10
78.239720909
 20
93.6178274416
 10
78.2056718031
 20
93.6199290569
 10
78.171699433
 20
93.6205874838
  0
LWPOLYLINE
  5
4B4
100
AcDbEntity
  8
RACCORDO
100
AcDbPolyline
 62
253
  6
CONTINUOUS
 90
22
 70
0
 10
79.196980215
 20
93.646741782
 10
79.1613862482
 20
93.6902956453
 10
79.1240399372
 20
93.73216759
 10
79.0849412821
 20
93.7723576773
 10
79.0440149221
 20
93.8109423972
 10
79.0013362178
 20
93.847845375
 10
78.9571312519
 20
93.8828373795
 10
78.9113803453
 20
93.9159120909
 10
78.8641031769
 20
93.9470759471
 10
78.8155848665
 20
93.976118863
 10
78.7658026256
 20
94.0030271995
 10
78.7147792428
 20
94.0278147056
 10
78.6628682037
 20
94.0503123822
 10
78.6100467103
 20
94.0704971539
 10
78.5563375606
 20
94.0883921883
 10
78.5021626341
 20
94.1038978495
 10
78.44753262
 20
94.1169810309
 10
78.3924368291
 20
94.1276749042
 10
78.3372650734
 20
94.1359792457
 10
78.2821472902
 20
94.1418939916
 10
78.2269535423
 20
94.1454192381
 10
78.1716838297
 20
94.1465549932
  0
LINE
  5
4B5
100
AcDbEntity
  8
RACCORDO
100
AcDbLine
 62
7
  6
CONTINUOUS
 10
-143.794417465
 20
-115.8768043754
 11
-141.4437049128
 21
-116.0
  0
LINE
  5
4B6
100
AcDbEntity
  8
RACCORDO
100
AcDbLine
 62
253
  6
CONTINUOUS
 10
-144.1836499331
 20
-114.9201746666
 11
-144.1657631008
 21
-114.9165836045
  0
LINE
  5
4B7
100
AcDbEntity
  8
RACCORDO
100
AcDbLine
 62
253
  6
CONTINUOUS
 10
-144.1657631008
 20
-114.9165836045
 11
-144.1289537381
 21
-114.9094566944
  0
LINE
  5
4B8
100
AcDbEntity
  8
RACCORDO
100
AcDbLine
 62
253
  6
CONTINUOUS
 10
-144.1289537381
 20
-114.9094566944
 11
-144.0640692649
 21
-114.897249205
  0
LWPOLYLINE
  5
4B9
100
AcDbEntity
  8
RACCORDO
100
AcDbPolyline
 62
253
  6
CONTINUOUS
 90
3
 70
0
 10
-144.0640692649
 20
-114.897249205
 10
-143.9442995069
 20
-114.8752815214
 10
-143.9230289154
 20
-114.8714346001
  0
LINE
  5
4BA
100
AcDbEntity
  8
RACCORDO
100
AcDbLine
 62
253
  6
CONTINUOUS
 10
-143.9230289154
 20
-114.8714346001
 11
-141.4437049128
 21
-115.0013704652
  0
LWPOLYLINE
  5
4BB
100
AcDbEntity
  8
RACCORDO
100
AcDbPolyline
 62
253
  6
CONTINUOUS
 90
3
 70
0
 10
-146.6437049124
 20
-93.646741782
 10
-146.6429248214
 20
-93.6466452362
 10
-146.6405828714
 20
-93.6464702876
  0
LINE
  5
4BC
100
AcDbEntity
  8
RACCORDO
100
AcDbLine
 62
253
  6
CONTINUOUS
 10
-146.6405828714
 20
-93.6464702876
 11
-146.631270454
 21
-93.6458892442
  0
LINE
  5
4BD
100
AcDbEntity
  8
RACCORDO
100
AcDbLine
 62
253
  6
CONTINUOUS
 10
-146.631270454
 20
-93.6458892442
 11
-146.5824889277
 21
-93.6431771599
  0
LINE
  5
4BE
100
AcDbEntity
  8
RACCORDO
100
AcDbLine
 62
253
  6
CONTINUOUS
 10
-146.5824889277
 20
-93.6431771599
 11
-146.3597858479
 21
-93.6316439541
  0
LINE
  5
4BF
100
AcDbEntity
  8
DRAFT
100
AcDbLine
 62
7
  6
CONTINUOUS
 10
-138.6437049128
 20
-67.1473460386
 11
-140.6437049128
 21
-67.5
  0
LINE
  5
4C0
100
AcDbEntity
  8
RACCORDO
100
AcDbLine
 62
253
  6
CONTINUOUS
 10
-147.2139272093
 20
-71.0
 11
-146.9296279962
 21
-71.0
  0
LINE
  5
4C1
100
AcDbEntity
  8
DRAFT
100
AcDbLine
 62
7
  6
CONTINUOUS
 10
-138.6437049128
 20
-74.8526539614
 11
-140.6437049128
 21
-74.5
  0
LWPOLYLINE
  5
4C2
100
AcDbEntity
  8
RACCORDO
100
AcDbPolyline
 62
253
  6
CONTINUOUS
 90
9
 70
0
 10
-143.794417465
 20
-115.8768043754
 10
-143.7953807976
 20
-115.8754057976
 10
-143.7966556506
 20
-115.8712974012
 10
-143.7982352404
 20
-115.864489022
 10
-143.8001133523
 20
-115.8549986546
 10
-143.8022839113
 20
-115.8428500648
 10
-143.8047408491
 20
-115.8280704255
 10
-143.807482863
 20
-115.8106939214
 10
-143.8105013165
 20
-115.7907656453
  0
LINE
  5
4C3
100
AcDbEntity
  8
RACCORDO
100
AcDbLine
 62
253
  6
CONTINUOUS
 10
-143.8433750806
 20
115.5468342004
 11
-143.8293847807
 21
115.6548109864
  0
LINE
  5
4C4
100
AcDbEntity
  8
RACCORDO
100
AcDbLine
 62
253
  6
CONTINUOUS
 10
-143.8293847807
 20
115.6548109864
 11
-143.8211175883
 21
115.7161620493
  0
LWPOLYLINE
  5
4C5
100
AcDbEntity
  8
RACCORDO
100
AcDbPolyline
 62
253
  6
CONTINUOUS
 90
11
 70
0
 10
-143.8211175883
 20
115.7161620493
 10
-143.8137887181
 20
115.7682745836
 10
-143.8105103675
 20
115.7907030255
 10
-143.8074919388
 20
115.8106334149
 10
-143.8047495833
 20
115.8280167082
 10
-143.8022914474
 20
115.8428075328
 10
-143.8001190872
 20
115.8549685407
 10
-143.798239292
 20
115.8644704898
 10
-143.7966583531
 20
115.8712883803
 10
-143.7953821647
 20
115.8754033232
 10
-143.794417465
 20
115.8768043754
  0
LWPOLYLINE
  5
4C6
100
AcDbEntity
  8
RACCORDO
100
AcDbPolyline
 62
253
  6
CONTINUOUS
 90
10
 70
0
 10
-143.9230289154
 20
-114.8714346001
 10
-144.3276600672
 20
-112.5282633806
 10
-144.69886244
 20
-110.1805292018
 10
-145.0366360338
 20
-107.8282320636
 10
-145.3410359371
 20
-105.4708898601
 10
-145.6120070614
 20
-103.1089846973
 10
-145.8493841411
 20
-100.7439628935
 10
-146.0531120879
 20
-98.3763065547
 10
-146.2232459902
 20
-96.0055335749
 10
-146.3597858479
 20
-93.6316439541
  0
LINE
  5
4C7
100
AcDbEntity
  8
RACCORDO
100
AcDbLine
 62
253
  6
CONTINUOUS
 10
-143.8105013165
 20
-115.7907656453
 11
-143.8173176985
 21
-115.7434715431
  0
LINE
  5
4C8
100
AcDbEntity
  8
RACCORDO
100
AcDbLine
 62
253
  6
CONTINUOUS
 10
-143.8173176985
 20
-115.7434715431
 11
-143.825128101
 21
-115.6866712719
  0
LWPOLYLINE
  5
4C9
100
AcDbEntity
  8
RACCORDO
100
AcDbPolyline
 62
253
  6
CONTINUOUS
 90
3
 70
0
 10
-143.825128101
 20
-115.6866712719
 10
-143.8385128042
 20
-115.5848940411
 10
-143.843369246
 20
-115.5468839139
  0
LINE
  5
4CA
100
AcDbEntity
  8
0
100
AcDbLine
 62
7
  6
CONTINUOUS
 10
-146.3360143103
 20
-98.4059038071
 11
-146.3369855091
 21
-98.3935951629
  0
LWPOLYLINE
  5
4CB
100
AcDbEntity
  8
RACCORDO
100
AcDbPolyline
 62
253
  6
CONTINUOUS
 90
19
 70
0
 10
-146.3597858479
 20
-93.6316439541
 10
-146.421337646
 20
-92.3751593393
 10
-146.4793724698
 20
-91.1185655361
 10
-146.5338903192
 20
-89.8618625447
 10
-146.5848910793
 20
-88.6050470387
 10
-146.632374865
 20
-87.3481223445
 10
-146.676342021
 20
-86.091098441
 10
-146.7167926829
 20
-84.8339753724
 10
-146.753726715
 20
-83.5767530947
 10
-146.7871440552
 20
-82.3194414546
 10
-146.8170448409
 20
-81.0620404556
 10
-146.8434289348
 20
-79.8045500944
 10
-146.8662958622
 20
-78.5469802079
 10
-146.8856457608
 20
-77.2893307617
 10
-146.9014784931
 20
-76.0316017903
 10
-146.9137931714
 20
-74.7738032343
 10
-146.9225895002
 20
-73.5159384074
 10
-146.9278677751
 20
-72.2580039959
 10
-146.9296279962
 20
-71.0
  0
LWPOLYLINE
  5
4CC
100
AcDbEntity
  8
RACCORDO
100
AcDbPolyline
 62
253
  6
CONTINUOUS
 90
10
 70
0
 10
-146.3597858479
 20
93.6316439541
 10
-146.2232457509
 20
96.0055369613
 10
-146.0531115442
 20
98.3763131635
 10
-145.8493832278
 20
100.743972561
 10
-145.6120055465
 20
103.10899817
 10
-145.3410337556
 20
105.4709069741
 10
-145.0366336204
 20
107.8282499241
 10
-144.6988603963
 20
110.1805440036
 10
-144.327658828
 20
112.5282722289
 10
-143.9230289154
 20
114.8714346001
  0
LINE
  5
4CD
100
AcDbEntity
  8
RACCORDO
100
AcDbLine
 62
253
  6
CONTINUOUS
 10
-143.9230289154
 20
114.8714346001
 11
-143.887387416
 21
115.1844236819
  0
LINE
  5
4CE
100
AcDbEntity
  8
RACCORDO
100
AcDbLine
 62
253
  6
CONTINUOUS
 10
-143.887387416
 20
115.1844236819
 11
-143.8644475221
 21
115.3770597475
  0
LINE
  5
4CF
100
AcDbEntity
  8
RACCORDO
100
AcDbLine
 62
253
  6
CONTINUOUS
 10
-143.8644475221
 20
115.3770597475
 11
-143.8433750806
 21
115.5468342004
  0
LINE
  5
4D0
100
AcDbEntity
  8
RACCORDO
100
AcDbLine
 62
253
  6
CONTINUOUS
 10
-143.843369246
 20
-115.5468839139
 11
-143.8644451331
 21
-115.3770830522
  0
LINE
  5
4D1
100
AcDbEntity
  8
RACCORDO
100
AcDbLine
 62
253
  6
CONTINUOUS
 10
-143.8644451331
 20
-115.3770830522
 11
-143.8932888119
 21
-115.1336830939
  0
LWPOLYLINE
  5
4D2
100
AcDbEntity
  8
RACCORDO
100
AcDbPolyline
 62
253
  6
CONTINUOUS
 90
3
 70
0
 10
-143.8932888119
 20
-115.1336830939
 10
-143.9170676164
 20
-114.9246007462
 10
-143.9230289154
 20
-114.8714346001
  0
LINE
  5
4D3
100
AcDbEntity
  8
RACCORDO
100
AcDbLine
 62
7
  6
CONTINUOUS
 10
-147.2139272093
 20
-70.9999987744
 11
-147.2139272093
 21
70.9999987743
  0
LINE
  5
4D4
100
AcDbEntity
  8
RACCORDO
100
AcDbLine
 62
253
  6
CONTINUOUS
 10
-146.9296279962
 20
-71.0
 11
-146.9296279962
 21
71.0
  0
LWPOLYLINE
  5
4D5
100
AcDbEntity
  8
RACCORDO
100
AcDbPolyline
 62
253
  6
CONTINUOUS
 90
19
 70
0
 10
-146.9296279962
 20
71.0
 10
-146.9278677751
 20
72.258003996
 10
-146.9225895002
 20
73.5159384074
 10
-146.9137931714
 20
74.7738032343
 10
-146.9014784931
 20
76.0316017903
 10
-146.8856457608
 20
77.2893307617
 10
-146.8662958622
 20
78.546980208
 10
-146.8434289348
 20
79.8045500944
 10
-146.8170448409
 20
81.0620404557
 10
-146.7871440552
 20
82.3194414547
 10
-146.753726715
 20
83.5767530947
 10
-146.7167926829
 20
84.8339753725
 10
-146.676342021
 20
86.0910984411
 10
-146.632374865
 20
87.3481223445
 10
-146.5848910793
 20
88.6050470388
 10
-146.5338903192
 20
89.8618625448
 10
-146.4793724698
 20
91.1185655361
 10
-146.421337646
 20
92.3751593393
 10
-146.3597858479
 20
93.6316439541
  0
LINE
  5
4D6
100
AcDbEntity
  8
RACCORDO
100
AcDbLine
 62
7
  6
CONTINUOUS
 10
-141.4437049128
 20
-116.0
 11
-141.4437049128
 21
116.0
  0
LINE
  5
4D7
100
AcDbEntity
  8
DRAFT
100
AcDbLine
 62
7
  6
CONTINUOUS
 10
-140.6437049128
 20
74.5
 11
-140.6437049128
 21
67.5
  0
LINE
  5
4D8
100
AcDbEntity
  8
DRAFT
100
AcDbLine
 62
7
  6
CONTINUOUS
 10
-140.6437049128
 20
-67.5
 11
-140.6437049128
 21
-74.5
  0
LINE
  5
4D9
100
AcDbEntity
  8
RACCORDO
100
AcDbLine
 62
7
  6
CONTINUOUS
 10
-138.6437049128
 20
114.4999999696
 11
-138.6437049128
 21
114.0970754701
  0
LINE
  5
4DA
100
AcDbEntity
  8
DRAFT
100
AcDbLine
 62
7
  6
CONTINUOUS
 10
-138.6437049128
 20
114.0970754701
 11
-138.6437049128
 21
74.8526539614
  0
LINE
  5
4DB
100
AcDbEntity
  8
DRAFT
100
AcDbLine
 62
7
  6
CONTINUOUS
 10
-138.6437049128
 20
67.1473460386
 11
-138.6437049128
 21
-67.1473460386
  0
LINE
  5
4DC
100
AcDbEntity
  8
DRAFT
100
AcDbLine
 62
7
  6
CONTINUOUS
 10
-138.6437049128
 20
-74.8526539614
 11
-138.6437049128
 21
-114.0970746791
  0
LINE
  5
4DD
100
AcDbEntity
  8
RACCORDO
100
AcDbLine
 62
7
  6
CONTINUOUS
 10
-138.6437049128
 20
-114.0970746791
 11
-138.6437049128
 21
-114.500000027
  0
LINE
  5
4DE
100
AcDbEntity
  8
DRAFT
100
AcDbLine
 62
7
  6
CONTINUOUS
 10
-138.6437049128
 20
67.1473460386
 11
-140.6437049128
 21
67.5
  0
LINE
  5
4DF
100
AcDbEntity
  8
DRAFT
100
AcDbLine
 62
7
  6
CONTINUOUS
 10
-138.6437049128
 20
74.8526539614
 11
-140.6437049128
 21
74.5
  0
LINE
  5
4E0
100
AcDbEntity
  8
RACCORDO
100
AcDbLine
 62
253
  6
CONTINUOUS
 10
-147.2139272093
 20
71.0
 11
-146.9296279962
 21
71.0
  0
LWPOLYLINE
  5
4E1
100
AcDbEntity
  8
RACCORDO
100
AcDbPolyline
 62
253
  6
CONTINUOUS
 90
4
 70
0
 10
-146.6437048967
 20
93.6467417812
 10
-146.6429248057
 20
93.6466452354
 10
-146.640582856
 20
93.6464702868
 10
-146.6312704394
 20
93.6458892435
  0
LWPOLYLINE
  5
4E2
100
AcDbEntity
  8
RACCORDO
100
AcDbPolyline
 62
253
  6
CONTINUOUS
 90
13
 70
0
 10
-138.6437049952
 20
-114.0970754265
 10
-138.7550979291
 20
-114.1689566428
 10
-138.8674894967
 20
-114.2375867736
 10
-138.9807469678
 20
-114.3029658192
 10
-139.0946416977
 20
-114.3650148217
 10
-139.2091446301
 20
-114.4238127388
 10
-139.3244408197
 20
-114.479596444
 10
-139.4405151787
 20
-114.5324152323
 10
-139.5571745934
 20
-114.5822198087
 10
-139.6743549869
 20
-114.6290991611
 10
-139.7919709556
 20
-114.6730829521
 10
-139.9099143645
 20
-114.714141519
 10
-140.0280919243
 20
-114.752274862
  0
LINE
  5
4E3
100
AcDbEntity
  8
RACCORDO
100
AcDbLine
 62
253
  6
CONTINUOUS
 10
-146.6061545652
 20
93.6444655188
 11
-146.3597858479
 21
93.6316439541
  0
LINE
  5
4E4
100
AcDbEntity
  8
RACCORDO
100
AcDbLine
 62
253
  6
CONTINUOUS
 10
-146.6312704394
 20
93.6458892435
 11
-146.6061545652
 21
93.6444655188
  0
LWPOLYLINE
  5
4E5
100
AcDbEntity
  8
RACCORDO
100
AcDbPolyline
 62
253
  6
CONTINUOUS
 90
6
 70
0
 10
-144.2025823695
 20
-114.924584313
 10
-144.2018457045
 20
-114.924247135
 10
-144.1995682244
 20
-114.92363366
 10
-144.1957618442
 20
-114.9227470974
 10
-144.1904464778
 20
-114.9215920854
 10
-144.1836499331
 20
-114.9201746666
  0
LWPOLYLINE
  5
4E6
100
AcDbEntity
  8
RACCORDO
100
AcDbPolyline
 62
253
  6
CONTINUOUS
 90
8
 70
0
 10
-144.2025824155
 20
114.9245843212
 10
-144.2018456039
 20
114.924247119
 10
-144.1995679914
 20
114.9236336223
 10
-144.1957614934
 20
114.9227470407
 10
-144.1904460242
 20
114.9215920123
 10
-144.1836493921
 20
114.9201745799
 10
-144.1754071545
 20
114.9185021589
 10
-144.1547656809
 20
114.9144286372
  0
LWPOLYLINE
  5
4E7
100
AcDbEntity
  8
RACCORDO
100
AcDbPolyline
 62
253
  6
CONTINUOUS
 90
13
 70
0
 10
-140.0280919243
 20
-114.752274862
 10
-140.1437976448
 20
-114.7868237342
 10
-140.2597307489
 20
-114.8187868182
 10
-140.3758142998
 20
-114.8481641139
 10
-140.4917572429
 20
-114.8749033533
 10
-140.6076996783
 20
-114.8990568044
 10
-140.7242243417
 20
-114.9207812716
 10
-140.8411149923
 20
-114.9401196819
 10
-140.9584638344
 20
-114.9570291083
 10
-141.0773384815
 20
-114.9715375741
 10
-141.1980633438
 20
-114.9836544205
 10
-141.3202058734
 20
-114.9933703064
 10
-141.4437049026
 20
-115.0006852318
  0
LINE
  5
4E8
100
AcDbEntity
  8
RACCORDO
100
AcDbLine
 62
253
  6
CONTINUOUS
 10
-143.9230289154
 20
114.8714346001
 11
-141.4437049128
 21
115.0013704652
  0
LINE
  5
4E9
100
AcDbEntity
  8
RACCORDO
100
AcDbLine
 62
7
  6
CONTINUOUS
 10
-143.794417465
 20
115.8768043754
 11
-141.4437049128
 21
116.0
  0
LWPOLYLINE
  5
4EA
100
AcDbEntity
  8
RACCORDO
100
AcDbPolyline
 62
253
  6
CONTINUOUS
 90
13
 70
0
 10
-141.4437048894
 20
115.0006852308
 10
-141.3264220511
 20
114.9939542651
 10
-141.2089720839
 20
114.9847580518
 10
-141.0914178191
 20
114.973096591
 10
-140.9739652381
 20
114.9590169802
 10
-140.8565360131
 20
114.9424721219
 10
-140.7387725571
 20
114.9233207233
 10
-140.620624274
 20
114.9015567153
 10
-140.5022902656
 20
114.8771861671
 10
-140.3837963626
 20
114.8500859932
 10
-140.2652061031
 20
114.8202151653
 10
-140.1466197934
 20
114.7876147117
 10
-140.0281229264
 20
114.7522846325
  0
LINE
  5
4EB
100
AcDbEntity
  8
RACCORDO
100
AcDbLine
 62
253
  6
CONTINUOUS
 10
-144.0455723919
 20
114.8938175175
 11
-143.9230287773
 21
114.8714346002
  0
LINE
  5
4EC
100
AcDbEntity
  8
RACCORDO
100
AcDbLine
 62
253
  6
CONTINUOUS
 10
-144.1142720937
 20
114.9066653962
 11
-144.0455723919
 21
114.8938175175
  0
LINE
  5
4ED
100
AcDbEntity
  8
RACCORDO
100
AcDbLine
 62
253
  6
CONTINUOUS
 10
-144.1547656809
 20
114.9144286372
 11
-144.1142720937
 21
114.9066653962
  0
LWPOLYLINE
  5
4EE
100
AcDbEntity
  8
RACCORDO
100
AcDbPolyline
 62
253
  6
CONTINUOUS
 90
13
 70
0
 10
-140.0281229264
 20
114.7522846325
 10
-139.9118328833
 20
114.7147992667
 10
-139.7956147741
 20
114.6744076294
 10
-139.6795619911
 20
114.6311097205
 10
-139.5639114456
 20
114.5850108843
 10
-139.4486184076
 20
114.5360057766
 10
-139.333372652
 20
114.4837783646
 10
-139.2183820563
 20
114.4284098994
 10
-139.1036825323
 20
114.3698191299
 10
-138.9887559851
 20
114.3074462705
 10
-138.8735564422
 20
114.2411047261
 10
-138.7584783379
 20
114.1709810919
 10
-138.6437049016
 20
114.0970753678
  0
ARC
  5
4EF
100
AcDbEntity
  8
RACCORDO
100
AcDbCircle
 62
7
  6
CONTINUOUS
 10
-78.25
 20
-28.5
 40
0.4
100
AcDbArc
 50
90.0
 51
180.0
  0
ARC
  5
4F0
100
AcDbEntity
  8
RACCORDO
100
AcDbCircle
 62
7
  6
CONTINUOUS
 10
-78.25
 20
-42.5
 40
0.4
100
AcDbArc
 50
180.0
 51
270.0
  0
ARC
  5
4F1
100
AcDbEntity
  8
RACCORDO
100
AcDbCircle
 62
7
  6
CONTINUOUS
 10
-78.232495013
 20
-42.5
 40
0.4
100
AcDbArc
 50
180.0
 51
270.0
  0
ARC
  5
4F2
100
AcDbEntity
  8
RACCORDO
100
AcDbCircle
 62
7
  6
CONTINUOUS
 10
-78.232495013
 20
-28.5
 40
0.4
100
AcDbArc
 50
90.0
 51
180.0
  0
ARC
  5
4F3
100
AcDbEntity
  8
RACCORDO
100
AcDbCircle
 62
253
  6
CONTINUOUS
 10
-78.232495013
 20
-42.5
 40
0.2999991323
100
AcDbArc
 50
180.0
 51
270.0
  0
ARC
  5
4F4
100
AcDbEntity
  8
RACCORDO
100
AcDbCircle
 62
253
  6
CONTINUOUS
 10
-78.232495013
 20
-28.5
 40
0.2999991323
100
AcDbArc
 50
90.0
 51
180.0
  0
ARC
  5
4F5
100
AcDbEntity
  8
RACCORDO
100
AcDbCircle
 62
7
  6
CONTINUOUS
 10
-78.25
 20
42.5
 40
0.4
100
AcDbArc
 50
90.0
 51
180.0
  0
ARC
  5
4F6
100
AcDbEntity
  8
RACCORDO
100
AcDbCircle
 62
7
  6
CONTINUOUS
 10
-78.25
 20
28.5
 40
0.4
100
AcDbArc
 50
180.0
 51
270.0
  0
ARC
  5
4F7
100
AcDbEntity
  8
RACCORDO
100
AcDbCircle
 62
7
  6
CONTINUOUS
 10
-78.232495013
 20
28.5
 40
0.4
100
AcDbArc
 50
180.0
 51
270.0
  0
ARC
  5
4F8
100
AcDbEntity
  8
RACCORDO
100
AcDbCircle
 62
7
  6
CONTINUOUS
 10
-78.232495013
 20
42.5
 40
0.4
100
AcDbArc
 50
90.0
 51
180.0
  0
ARC
  5
4F9
100
AcDbEntity
  8
RACCORDO
100
AcDbCircle
 62
253
  6
CONTINUOUS
 10
-78.232495013
 20
28.5
 40
0.2999991323
100
AcDbArc
 50
180.0
 51
270.0
  0
ARC
  5
4FA
100
AcDbEntity
  8
RACCORDO
100
AcDbCircle
 62
253
  6
CONTINUOUS
 10
-78.232495013
 20
42.5
 40
0.2999991323
100
AcDbArc
 50
90.0
 51
180.0
  0
ARC
  5
4FB
100
AcDbEntity
  8
RACCORDO
100
AcDbCircle
 62
7
  6
CONTINUOUS
 10
78.25
 20
-28.5
 40
0.4
100
AcDbArc
 50
0.0
 51
90.0
  0
ARC
  5
4FC
100
AcDbEntity
  8
RACCORDO
100
AcDbCircle
 62
7
  6
CONTINUOUS
 10
78.25
 20
-42.5
 40
0.4
100
AcDbArc
 50
270.0
 51
360.0
  0
ARC
  5
4FD
100
AcDbEntity
  8
RACCORDO
100
AcDbCircle
 62
7
  6
CONTINUOUS
 10
78.232495013
 20
-28.5
 40
0.4
100
AcDbArc
 50
0.0
 51
90.0
  0
ARC
  5
4FE
100
AcDbEntity
  8
RACCORDO
100
AcDbCircle
 62
7
  6
CONTINUOUS
 10
78.232495013
 20
-42.5
 40
0.4
100
AcDbArc
 50
270.0
 51
360.0
  0
ARC
  5
4FF
100
AcDbEntity
  8
RACCORDO
100
AcDbCircle
 62
253
  6
CONTINUOUS
 10
78.232495013
 20
-28.5
 40
0.2999991323
100
AcDbArc
 50
0.0
 51
90.0
  0
ARC
  5
500
100
AcDbEntity
  8
RACCORDO
100
AcDbCircle
 62
253
  6
CONTINUOUS
 10
78.232495013
 20
-42.5
 40
0.2999991323
100
AcDbArc
 50
270.0
 51
360.0
  0
ARC
  5
501
100
AcDbEntity
  8
RACCORDO
100
AcDbCircle
 62
7
  6
CONTINUOUS
 10
78.25
 20
42.5
 40
0.4
100
AcDbArc
 50
0.0
 51
90.0
  0
ARC
  5
502
100
AcDbEntity
  8
RACCORDO
100
AcDbCircle
 62
7
  6
CONTINUOUS
 10
78.25
 20
28.5
 40
0.4
100
AcDbArc
 50
270.0
 51
360.0
  0
ARC
  5
503
100
AcDbEntity
  8
RACCORDO
100
AcDbCircle
 62
7
  6
CONTINUOUS
 10
78.232495013
 20
42.5
 40
0.4
100
AcDbArc
 50
0.0
 51
90.0
  0
ARC
  5
504
100
AcDbEntity
  8
RACCORDO
100
AcDbCircle
 62
7
  6
CONTINUOUS
 10
78.232495013
 20
28.5
 40
0.4
100
AcDbArc
 50
270.0
 51
360.0
  0
ARC
  5
505
100
AcDbEntity
  8
RACCORDO
100
AcDbCircle
 62
253
  6
CONTINUOUS
 10
78.232495013
 20
42.5
 40
0.2999991323
100
AcDbArc
 50
0.0
 51
90.0
  0
ARC
  5
506
100
AcDbEntity
  8
RACCORDO
100
AcDbCircle
 62
253
  6
CONTINUOUS
 10
78.232495013
 20
28.5
 40
0.2999991323
100
AcDbArc
 50
270.0
 51
360.0
  0
ARC
  5
507
100
AcDbEntity
  8
RACCORDO
100
AcDbCircle
 62
7
  6
CONTINUOUS
 10
302.7860727907
 20
71.0
 40
450.0
100
AcDbArc
 50
177.1153135756
 51
180.0000001561
  0
ARC
  5
508
100
AcDbEntity
  8
RACCORDO
100
AcDbCircle
 62
7
  6
CONTINUOUS
 10
302.7860727907
 20
-71.0
 40
450.0
100
AcDbArc
 50
179.9999998439
 51
182.884686443
  0
ARC
  5
509
100
AcDbEntity
  8
RACCORDO
100
AcDbCircle
 62
7
  6
CONTINUOUS
 10
20.8975876764
 20
85.2043452624
 40
167.7538636857
100
AcDbArc
 50
169.5498179999
 51
177.1153217423
  0
ARC
  5
50A
100
AcDbEntity
  8
RACCORDO
100
AcDbCircle
 62
7
  6
CONTINUOUS
 10
20.8975876764
 20
-85.2043452624
 40
167.7538636857
100
AcDbArc
 50
182.8846783076
 51
190.4501820001
  0
ARC
  5
50B
100
AcDbEntity
  8
0
100
AcDbCircle
 62
7
  6
CONTINUOUS
 10
20.8975876764
 20
-85.2043452624
 40
167.7538636857
100
AcDbArc
 50
184.0700349653
 51
184.5093988387
  0
ARC
  5
50C
100
AcDbEntity
  8
0
100
AcDbCircle
 62
7
  6
CONTINUOUS
 10
20.8975876764
 20
-85.2043452624
 40
167.7538636857
100
AcDbArc
 50
184.5136158819
 51
185.0180834319
  0
ARC
  5
50D
100
AcDbEntity
  8
RACCORDO
100
AcDbCircle
 62
7
  6
CONTINUOUS
 10
-141.7151847293
 20
-110.3198565139
 40
5.1872524353
100
AcDbArc
 50
273.0000000756
 51
306.3076476119
  0
ARC
  5
50E
100
AcDbEntity
  8
RACCORDO
100
AcDbCircle
 62
7
  6
CONTINUOUS
 10
-141.7151847293
 20
110.3198565139
 40
5.1872524353
100
AcDbArc
 50
53.6923513173
 51
86.9999997404
  0
ARC
  5
50F
100
AcDbEntity
  8
RACCORDO
100
AcDbCircle
 62
7
  6
CONTINUOUS
 10
-143.7787171252
 20
-115.5772131538
 40
0.3
100
AcDbArc
 50
190.450640958
 51
267.0001088592
  0
ARC
  5
510
100
AcDbEntity
  8
RACCORDO
100
AcDbCircle
 62
7
  6
CONTINUOUS
 10
-143.7787166782
 20
115.577215515
 40
0.3
100
AcDbArc
 50
93.0
 51
169.5498179999
  0
ELLIPSE
  5
511
100
AcDbEntity
  8
RACCORDO
100
AcDbEllipse
 62
7
  6
CONTINUOUS
 10
-103.998627654
 20
-114.998627654
 30
0.0
 11
0.7090462434
 21
0.7090462434
 31
0.0
 40
0.9972646886
 41
-3.9256212891
 42
-2.3575640181
  0
ELLIPSE
  5
512
100
AcDbEntity
  8
RACCORDO
100
AcDbEllipse
 62
7
  6
CONTINUOUS
 10
103.998627654
 20
-114.998627654
 30
0.0
 11
0.7090462434
 21
-0.7090462434
 31
0.0
 40
0.9972646886
 41
-0.7840286355
 42
0.7840286355
  0
ELLIPSE
  5
513
100
AcDbEntity
  8
RACCORDO
100
AcDbEllipse
 62
7
  6
CONTINUOUS
 10
103.998627654
 20
114.998627654
 30
0.0
 11
0.7090462434
 21
0.7090462434
 31
0.0
 40
0.9972646886
 41
-0.7840286355
 42
0.7840286355
  0
ELLIPSE
  5
514
100
AcDbEntity
  8
RACCORDO
100
AcDbEllipse
 62
7
  6
CONTINUOUS
 10
-103.998627654
 20
114.998627654
 30
0.0
 11
0.7090462434
 21
-0.7090462434
 31
0.0
 40
0.9972646886
 41
2.3575640181
 42
3.9256212891
  0
ELLIPSE
  5
515
100
AcDbEntity
  8
0
100
AcDbEllipse
 62
7
  6
CONTINUOUS
 10
-78.0489021232
 20
-21.6989021232
 30
0.0
 11
0.5672369947
 21
0.5672369947
 31
0.0
 40
0.9972646886
 41
-3.9256212891
 42
-2.3575640181
  0
ELLIPSE
  5
516
100
AcDbEntity
  8
0
100
AcDbEllipse
 62
7
  6
CONTINUOUS
 10
-78.0489021232
 20
21.6989021232
 30
0.0
 11
0.5672369947
 21
-0.5672369947
 31
0.0
 40
0.9972646886
 41
2.3575640181
 42
3.9256212891
  0
ELLIPSE
  5
517
100
AcDbEntity
  8
0
100
AcDbEllipse
 62
7
  6
CONTINUOUS
 10
78.0489021232
 20
21.6989021232
 30
0.0
 11
0.5672369947
 21
0.5672369947
 31
0.0
 40
0.9972646886
 41
-0.7840286355
 42
0.7840286355
  0
ELLIPSE
  5
518
100
AcDbEntity
  8
0
100
AcDbEllipse
 62
7
  6
CONTINUOUS
 10
78.0489021232
 20
-21.6989021232
 30
0.0
 11
0.5672369947
 21
-0.5672369947
 31
0.0
 40
0.9972646886
 41
-0.7840286355
 42
0.7840286355
  0
ELLIPSE
  5
519
100
AcDbEntity
  8
0
100
AcDbEllipse
 62
7
  6
CONTINUOUS
 10
-78.0489021232
 20
-92.6989021232
 30
0.0
 11
0.5672369947
 21
0.5672369947
 31
0.0
 40
0.9972646886
 41
-3.9256212891
 42
-2.3575640181
  0
ELLIPSE
  5
51A
100
AcDbEntity
  8
0
100
AcDbEllipse
 62
7
  6
CONTINUOUS
 10
-78.0489021232
 20
-49.3010978768
 30
0.0
 11
0.5672369947
 21
-0.5672369947
 31
0.0
 40
0.9972646886
 41
2.3575640181
 42
3.9256212891
  0
ELLIPSE
  5
51B
100
AcDbEntity
  8
0
100
AcDbEllipse
 62
7
  6
CONTINUOUS
 10
78.0489021232
 20
-49.3010978768
 30
0.0
 11
0.5672369947
 21
0.5672369947
 31
0.0
 40
0.9972646886
 41
-0.7840286355
 42
0.7840286355
  0
ELLIPSE
  5
51C
100
AcDbEntity
  8
0
100
AcDbEllipse
 62
7
  6
CONTINUOUS
 10
78.0489021232
 20
-92.6989021232
 30
0.0
 11
0.5672369947
 21
-0.5672369947
 31
0.0
 40
0.9972646886
 41
-0.7840286355
 42
0.7840286355
  0
ELLIPSE
  5
51D
100
AcDbEntity
  8
0
100
AcDbEllipse
 62
7
  6
CONTINUOUS
 10
-78.0489021232
 20
49.3010978768
 30
0.0
 11
0.5672369947
 21
0.5672369947
 31
0.0
 40
0.9972646886
 41
-3.9256212891
 42
-2.3575640181
  0
ELLIPSE
  5
51E
100
AcDbEntity
  8
0
100
AcDbEllipse
 62
7
  6
CONTINUOUS
 10
-78.0489021232
 20
92.6989021232
 30
0.0
 11
0.5672369947
 21
-0.5672369947
 31
0.0
 40
0.9972646886
 41
2.3575640181
 42
3.9256212891
  0
ELLIPSE
  5
51F
100
AcDbEntity
  8
0
100
AcDbEllipse
 62
7
  6
CONTINUOUS
 10
78.0489021232
 20
92.6989021232
 30
0.0
 11
0.5672369947
 21
0.5672369947
 31
0.0
 40
0.9972646886
 41
-0.7840286355
 42
0.7840286355
  0
ELLIPSE
  5
520
100
AcDbEntity
  8
0
100
AcDbEllipse
 62
7
  6
CONTINUOUS
 10
78.0489021232
 20
49.3010978768
 30
0.0
 11
0.5672369947
 21
-0.5672369947
 31
0.0
 40
0.9972646886
 41
-0.7840286355
 42
0.7840286355
  0
ELLIPSE
  5
521
100
AcDbEntity
  8
0
100
AcDbEllipse
 62
7
  6
CONTINUOUS
 10
-78.249923836
 20
-28.500076164
 30
0.0
 11
0.3536610946
 21
-0.3536610946
 31
0.0
 40
0.9996954599
 41
8.6395320906
 42
10.2100238309
  0
ELLIPSE
  5
522
100
AcDbEntity
  8
0
100
AcDbEllipse
 62
7
  6
CONTINUOUS
 10
-78.249923836
 20
-42.499923836
 30
0.0
 11
-0.3536610946
 21
-0.3536610946
 31
0.0
 40
0.9996954599
 41
5.497939437
 42
7.0684311773
  0
ELLIPSE
  5
523
100
AcDbEntity
  8
0
100
AcDbEllipse
 62
7
  6
CONTINUOUS
 10
-78.249923836
 20
42.499923836
 30
0.0
 11
0.3536610946
 21
-0.3536610946
 31
0.0
 40
0.9996954599
 41
8.6395320906
 42
10.2100238309
  0
ELLIPSE
  5
524
100
AcDbEntity
  8
0
100
AcDbEllipse
 62
7
  6
CONTINUOUS
 10
78.249923836
 20
-42.499923836
 30
0.0
 11
-0.3536610946
 21
0.3536610946
 31
0.0
 40
0.9996954599
 41
8.6395320906
 42
10.2100238309
  0
ELLIPSE
  5
525
100
AcDbEntity
  8
0
100
AcDbEllipse
 62
7
  6
CONTINUOUS
 10
-78.249923836
 20
28.500076164
 30
0.0
 11
-0.3536610946
 21
-0.3536610946
 31
0.0
 40
0.9996954599
 41
5.497939437
 42
7.0684311773
  0
ELLIPSE
  5
526
100
AcDbEntity
  8
0
100
AcDbEllipse
 62
7
  6
CONTINUOUS
 10
78.249923836
 20
-28.500076164
 30
0.0
 11
0.3536610946
 21
0.3536610946
 31
0.0
 40
0.9996954599
 41
5.497939437
 42
7.0684311773
  0
ELLIPSE
  5
527
100
AcDbEntity
  8
0
100
AcDbEllipse
 62
7
  6
CONTINUOUS
 10
78.249923836
 20
28.500076164
 30
0.0
 11
-0.3536610946
 21
0.3536610946
 31
0.0
 40
0.9996954599
 41
8.6395320906
 42
10.2100238309
  0
ELLIPSE
  5
528
100
AcDbEntity
  8
0
100
AcDbEllipse
 62
7
  6
CONTINUOUS
 10
78.249923836
 20
42.499923836
 30
0.0
 11
0.3536610946
 21
0.3536610946
 31
0.0
 40
0.9996954599
 41
5.497939437
 42
7.0684311773
  0
ENDSEC
  0
SECTION
  2
OBJECTS
  0
DICTIONARY
  5
C
100
AcDbDictionary
280
0
281
1
  3
ACAD_GROUP
350
D
  3
ACAD_MLINESTYLE
350
17
  3
ACAD_LAYOUT
350
1A
  3
ACAD_PLOTSETTINGS
350
19
  3
ACAD_PLOTSTYLENAME
350
E
  0
DICTIONARY
  5
D
102
{ACAD_REACTORS
330
C
102
}
100
AcDbDictionary
280
0
281
1
  0
ACDBDICTIONARYWDFLT
  5
E
102
{ACAD_REACTORS
330
C
102
}
100
AcDbDictionary
281
1
  3
Normal
350
F
100
AcDbDictionaryWithDefault
340
F
  0
DICTIONARY
  5
17
102
{ACAD_REACTORS
330
C
102
}
100
AcDbDictionary
280
0
281
1
  3
Standard
350
18
  0
DICTIONARY
  5
19
102
{ACAD_REACTORS
330
C
102
}
100
AcDbDictionary
281
1
  0
DICTIONARY
  5
1A
102
{ACAD_REACTORS
330
C
102
}
100
AcDbDictionary
281
1
  3
Model
350
529
  3
Layout1
350
52A
  0
ACDBPLACEHOLDER
  5
F
102
{ACAD_REACTORS
330
E
102
}
  0
MLINESTYLE
  5
18
102
{ACAD_REACTORS
330
17
102
}
100
AcDbMlineStyle
  2
STANDARD
 70
0
  3

 62
256
 51
90.0
 52
90.0
 71
2
 49
0.5
 62
256
  6
BYLAYER
 49
-0.5
 62
256
  6
BYLAYER
  0
LAYOUT
  5
529
102
{ACAD_REACTORS
330
1A
102
}
100
AcDbPlotSettings
  1

  2
none_device
  4
ISO_A4_(297.00_x_210.00_MM)
  6

 40
0.0
 41
0.0
 42
0.0
 43
0.0
 44
297.0
 45
210.0
 46
0.0
 47
0.0
 48
0.0
 49
0.0
140
0.0
141
0.0
142
1.0
143
1.0
 70
1024
 72
1
 73
0
 74
0
  7

 75
0
147
1.0
148
0.0
149
0.0
100
AcDbLayout
  1
Model
 70
0
 71
0
 10
0.0
 20
0.0
 11
297.0
 21
210.0
 12
0.0
 22
0.0
 32
0.0
 14
0.0
 24
0.0
 34
0.0
 15
0.0
 25
0.0
 35
0.0
146
0.0
 13
0.0
 23
0.0
 33
0.0
 16
1.0
 26
0.0
 36
0.0
 17
0.0
 27
1.0
 37
0.0
 76
0
330
213
345
0
346
0
  0
LAYOUT
  5
52A
102
{ACAD_REACTORS
330
1A
102
}
100
AcDbPlotSettings
  1

  2
none_device
  4
ISO_A4_(297.00_x_210.00_MM)
  6

 40
0.0
 41
0.0
 42
0.0
 43
0.0
 44
297.0
 45
210.0
 46
0.0
 47
0.0
 48
0.0
 49
0.0
140
0.0
141
0.0
142
1.0
143
1.0
 70
0
 72
1
 73
0
 74
0
  7

 75
0
147
1.0
148
0.0
149
0.0
100
AcDbLayout
  1
Layout1
 70
0
 71
1
 10
0.0
 20
0.0
 11
297.0
 21
210.0
 12
0.0
 22
0.0
 32
0.0
 14
0.0
 24
0.0
 34
0.0
 15
0.0
 25
0.0
 35
0.0
146
0.0
 13
0.0
 23
0.0
 33
0.0
 16
1.0
 26
0.0
 36
0.0
 17
0.0
 27
1.0
 37
0.0
 76
0
330
214
345
0
346
0
  0
ENDSEC
  0
EOF
