  0
SECTION
  2
HEADER
  9
$ACADVER
  1
AC1021
  9
$DWGCODEPAGE
  3
ANSI_1252
  9
$EXTMAX
 10
297.0
 20
210.0
 30
0.0
  9
$EXTMIN
 10
0.0
 20
0.0
 30
0.0
  9
$LIMMIN
 10
0.0
 20
0.0
  9
$LIMMAX
 10
297.0
 20
210.0
  9
$VIEWCTR
 10
148.5
 20
105.0
  9
$VIEWSIZE
 40
210.0
  9
$CLAYER
  8
0
  9
$LTSCALE
 40
16.335
  9
$CELTYPE
  6
BYLAYER
  9
$DIMSCALE
 40
1.0
  9
$DIMASZ
 40
3.0
  9
$DIMEXO
 40
1.85625
  9
$DIMDLI
 40
11.286
  9
$DIMEXE
 40
5.346
  9
$DIMCEN
 40
2.673
  9
$DIMLFAC
 40
1.0
  9
$DIMBLK
  1
_FILLED
  9
$DIMTXT
 40
3.0
  9
$DIMTOL
 70
1
  9
$DIMLIM
 70
0
  9
$DIMTFAC
 40
1.0
  9
$DIMTP
 40
0.01
  9
$DIMTM
 40
0.01
  9
$PDMODE
 70
3
  9
$PDSIZE
 40
3.0
  9
$HANDSEED
  5
349
  9
$TILEMODE
 70
1
  9
$MEASUREMENT
 70
1
  9
$INSUNITS
 70
4
  0
ENDSEC
  0
SECTION
  2
CLASSES
  0
CLASS
  1
ACDBDICTIONARYWDFLT
  2
AcDbDictionaryWithDefault
  3
AutoCAD 2000
 90
0
 91
1
280
0
281
0
  0
CLASS
  1
ACDBPLACEHOLDER
  2
AcDbPlaceHolder
  3
AutoCAD 2000
 90
0
 91
1
280
0
281
0
  0
CLASS
  1
LAYOUT
  2
AcDbLayout
  3
AutoCAD 2000
 90
0
 91
0
280
0
281
0
  0
ENDSEC
  0
SECTION
  2
TABLES
  0
TABLE
  2
VPORT
  5
8
100
AcDbSymbolTable
 70
2
  0
VPORT
  5
1F4
100
AcDbSymbolTableRecord
100
AcDbViewportTableRecord
  2
*ACTIVE
 70
0
 10
0.0
 20
0.0
 11
1.0
 21
1.0
 12
148.5
 22
105.0
 13
0.0
 23
0.0
 14
1.0
 24
1.0
 15
0.0
 25
0.0
 16
0.0
 26
0.0
 36
1.0
 17
0.0
 27
0.0
 37
0.0
 40
210.0
 41
1.4142857143
 42
50.0
 43
0.0
 44
0.0
 50
0.0
 51
0.0
 71
0
 72
100
 73
1
 74
1
 75
0
 76
0
 77
0
 78
0
  0
ENDTAB
  0
TABLE
  2
LTYPE
  5
5
100
AcDbSymbolTable
 70
6
  0
LTYPE
  5
14
100
AcDbSymbolTableRecord
100
AcDbLinetypeTableRecord
  2
BYBLOCK
 70
0
  3

 72
65
 73
0
 40
0.0
  0
LTYPE
  5
15
100
AcDbSymbolTableRecord
100
AcDbLinetypeTableRecord
  2
BYLAYER
 70
0
  3

 72
65
 73
0
 40
0.0
  0
LTYPE
  5
16
100
AcDbSymbolTableRecord
100
AcDbLinetypeTableRecord
  2
CONTINUOUS
 70
64
  3
Solid line
 72
65
 73
0
 40
0.0
  0
LTYPE
  5
1F5
100
AcDbSymbolTableRecord
100
AcDbLinetypeTableRecord
  2
CENTER
 70
64
  3
____ _ ____ _ ____ _ ____ _ ____ _ ____ _ ____
 72
65
 73
4
 40
0.6
 49
0.375
 74
0
 49
-0.075
 74
0
 49
0.075
 74
0
 49
-0.075
 74
0
  0
LTYPE
  5
1F6
100
AcDbSymbolTableRecord
100
AcDbLinetypeTableRecord
  2
HIDDEN
 70
64
  3
- - - - - - - - - - - - - - - - - - - -
 72
65
 73
2
 40
0.2
 49
0.1
 74
0
 49
-0.1
 74
0
  0
LTYPE
  5
1F7
100
AcDbSymbolTableRecord
100
AcDbLinetypeTableRecord
  2
PHANTOM
 70
64
  3
_____ _ _ _____ _ _ _____ _ _ _____
 72
65
 73
6
 40
0.8
 49
0.45
 74
0
 49
-0.05
 74
0
 49
0.1
 74
0
 49
-0.05
 74
0
 49
0.1
 74
0
 49
-0.05
 74
0
  0
LTYPE
  5
1F8
100
AcDbSymbolTableRecord
100
AcDbLinetypeTableRecord
  2
DOT
 70
64
  3
. . . . . . . . . . . . . . . . . . . .
 72
65
 73
2
 40
0.2
 49
0.1
 74
0
 49
-0.1
 74
0
  0
LTYPE
  5
1F9
100
AcDbSymbolTableRecord
100
AcDbLinetypeTableRecord
  2
DASHED
 70
64
  3
- - - - - - - - - - - - - - - - - - - -
 72
65
 73
2
 40
0.2
 49
0.1
 74
0
 49
-0.1
 74
0
  0
ENDTAB
  0
TABLE
  2
LAYER
  5
2
100
AcDbSymbolTable
 70
36
  0
LAYER
  5
10
100
AcDbSymbolTableRecord
100
AcDbLayerTableRecord
  2
0
 70
0
 62
7
  6
CONTINUOUS
370
-3
390
F
  0
LAYER
  5
1FA
100
AcDbSymbolTableRecord
100
AcDbLayerTableRecord
  2
DEFAULT_1
 70
0
 62
7
  6
CENTER
370
-3
390
F
  0
LAYER
  5
1FB
100
AcDbSymbolTableRecord
100
AcDbLayerTableRecord
  2
DEFAULT_2
 70
0
 62
7
  6
HIDDEN
370
-3
390
F
  0
LAYER
  5
1FC
100
AcDbSymbolTableRecord
100
AcDbLayerTableRecord
  2
DEFAULT_3
 70
0
 62
7
  6
PHANTOM
370
-3
390
F
  0
LAYER
  5
1FD
100
AcDbSymbolTableRecord
100
AcDbLayerTableRecord
  2
ASSI
 70
0
 62
7
  6
CONTINUOUS
370
-3
390
F
  0
LAYER
  5
1FE
100
AcDbSymbolTableRecord
100
AcDbLayerTableRecord
  2
COORDINATE
 70
0
 62
7
  6
CONTINUOUS
370
-3
390
F
  0
LAYER
  5
1FF
100
AcDbSymbolTableRecord
100
AcDbLayerTableRecord
  2
COPY_PUBLISH
 70
0
 62
7
  6
CONTINUOUS
370
-3
390
F
  0
LAYER
  5
200
100
AcDbSymbolTableRecord
100
AcDbLayerTableRecord
  2
COSMETIC
 70
0
 62
7
  6
CONTINUOUS
370
-3
390
F
  0
LAYER
  5
201
100
AcDbSymbolTableRecord
100
AcDbLayerTableRecord
  2
COSMETICI
 70
0
 62
7
  6
CONTINUOUS
370
-3
390
F
  0
LAYER
  5
202
100
AcDbSymbolTableRecord
100
AcDbLayerTableRecord
  2
CURVE
 70
0
 62
7
  6
CONTINUOUS
370
-3
390
F
  0
LAYER
  5
203
100
AcDbSymbolTableRecord
100
AcDbLayerTableRecord
  2
DRAFT
 70
0
 62
7
  6
CONTINUOUS
370
-3
390
F
  0
LAYER
  5
204
100
AcDbSymbolTableRecord
100
AcDbLayerTableRecord
  2
IMPORT_IGES
 70
0
 62
7
  6
CONTINUOUS
370
-3
390
F
  0
LAYER
  5
205
100
AcDbSymbolTableRecord
100
AcDbLayerTableRecord
  2
INTFCLR_1
 70
0
 62
7
  6
CONTINUOUS
370
-3
390
F
  0
LAYER
  5
206
100
AcDbSymbolTableRecord
100
AcDbLayerTableRecord
  2
INTF_1
 70
0
 62
7
  6
CONTINUOUS
370
-3
390
F
  0
LAYER
  5
207
100
AcDbSymbolTableRecord
100
AcDbLayerTableRecord
  2
NOTE
 70
0
 62
7
  6
CONTINUOUS
370
-3
390
F
  0
LAYER
  5
208
100
AcDbSymbolTableRecord
100
AcDbLayerTableRecord
  2
PIANI
 70
0
 62
7
  6
CONTINUOUS
370
-3
390
F
  0
LAYER
  5
209
100
AcDbSymbolTableRecord
100
AcDbLayerTableRecord
  2
PUNTI
 70
0
 62
7
  6
CONTINUOUS
370
-3
390
F
  0
LAYER
  5
20A
100
AcDbSymbolTableRecord
100
AcDbLayerTableRecord
  2
RACCORDO
 70
0
 62
7
  6
CONTINUOUS
370
-3
390
F
  0
LAYER
  5
20B
100
AcDbSymbolTableRecord
100
AcDbLayerTableRecord
  2
SIMBOLI
 70
0
 62
7
  6
CONTINUOUS
370
-3
390
F
  0
LAYER
  5
20C
100
AcDbSymbolTableRecord
100
AcDbLayerTableRecord
  2
SMUSSO
 70
0
 62
7
  6
CONTINUOUS
370
-3
390
F
  0
LAYER
  5
20D
100
AcDbSymbolTableRecord
100
AcDbLayerTableRecord
  2
SNAPLINE
 70
0
 62
7
  6
CONTINUOUS
370
-3
390
F
  0
LAYER
  5
20E
100
AcDbSymbolTableRecord
100
AcDbLayerTableRecord
  2
SUPERFICI
 70
0
 62
7
  6
CONTINUOUS
370
-3
390
F
  0
LAYER
  5
20F
100
AcDbSymbolTableRecord
100
AcDbLayerTableRecord
  2
TRASH
 70
0
 62
7
  6
CONTINUOUS
370
-3
390
F
  0
LAYER
  5
210
100
AcDbSymbolTableRecord
100
AcDbLayerTableRecord
  2
XSEC_DATUMS
 70
0
 62
7
  6
CONTINUOUS
370
-3
390
F
  0
ENDTAB
  0
TABLE
  2
STYLE
  5
3
100
AcDbSymbolTable
 70
1
  0
STYLE
  5
11
100
AcDbSymbolTableRecord
100
AcDbTextStyleTableRecord
  2
STANDARD
 70
0
 40
0.0
 41
0.8
 50
0.0
 71
0
 42
0.2
  3
txt
  4

  0
STYLE
  5
211
100
AcDbSymbolTableRecord
100
AcDbTextStyleTableRecord
  2
TEXTSTYLE_1
 70
0
 40
0.0
 41
0.8
 50
0.0
 71
0
 42
0.2
  3
gdt
  4

  0
ENDTAB
  0
TABLE
  2
VIEW
  5
6
100
AcDbSymbolTable
 70
0
  0
ENDTAB
  0
TABLE
  2
UCS
  5
7
100
AcDbSymbolTable
 70
0
  0
ENDTAB
  0
TABLE
  2
APPID
  5
9
100
AcDbSymbolTable
 70
1
  0
APPID
  5
212
100
AcDbSymbolTableRecord
100
AcDbRegAppTableRecord
  2
ACAD
 70
0
  0
ENDTAB
  0
TABLE
  2
BLOCK_RECORD
  5
1
100
AcDbSymbolTable
 70
0
  0
BLOCK_RECORD
  5
213
100
AcDbSymbolTableRecord
100
AcDbBlockTableRecord
  2
*Model_Space
  0
BLOCK_RECORD
  5
214
100
AcDbSymbolTableRecord
100
AcDbBlockTableRecord
  2
*Paper_Space
  0
BLOCK_RECORD
  5
215
100
AcDbSymbolTableRecord
100
AcDbBlockTableRecord
  2
_FILLED
  0
BLOCK_RECORD
  5
216
100
AcDbSymbolTableRecord
100
AcDbBlockTableRecord
  2
*D0
  0
BLOCK_RECORD
  5
217
100
AcDbSymbolTableRecord
100
AcDbBlockTableRecord
  2
*D1
  0
BLOCK_RECORD
  5
218
100
AcDbSymbolTableRecord
100
AcDbBlockTableRecord
  2
*D2
  0
ENDTAB
  0
TABLE
  2
DIMSTYLE
  5
A
100
AcDbSymbolTable
 70
1
100
AcDbDimStyleTable
 71
0
  0
DIMSTYLE
105
219
100
AcDbSymbolTableRecord
100
AcDbDimStyleTableRecord
  2
STANDARD
 70
0
  3

  4

 40
1.0
 41
3.0
 42
0.0625
 43
0.38
 44
0.18
 45
0.0
 46
0.0
 47
0.01
 48
0.01
140
3.0
141
0.09
142
0.0
143
25.4
144
1.0
145
0.0
146
1.0
147
0.09
 71
1.0
 72
0.0
 73
0
 74
0
 75
0
 76
0
 77
1
 78
8
170
0
171
2
172
0
173
0
174
0
175
0
176
0
177
0
178
0
270
2
271
2
272
2
273
2
274
2
275
0
280
0
281
0
282
0
283
1
284
8
285
0
286
0
287
3
288
0
340
11
341
215
342
215
343
215
344
215
  0
DIMSTYLE
105
21A
100
AcDbSymbolTableRecord
100
AcDbDimStyleTableRecord
  2
DIMSTYLE_1
 70
0
  3

  4

 40
1.0
 41
3.0
 42
0.0625
 43
0.38
 44
0.18
 45
0.0
 46
0.0
 47
0.0
 48
0.0
140
3.0
141
0.09
142
0.0
143
25.4
144
1.0
145
0.0
146
1.0
147
0.09
 71
0.0
 72
0.0
 73
0
 74
0
 75
0
 76
0
 77
1
 78
8
170
0
171
2
172
0
173
0
174
0
175
0
176
0
177
0
178
0
270
2
271
2
272
2
273
2
274
2
275
0
280
0
281
0
282
0
283
1
284
8
285
0
286
0
287
3
288
0
340
11
341
215
342
215
343
215
344
215
  0
DIMSTYLE
105
21B
100
AcDbSymbolTableRecord
100
AcDbDimStyleTableRecord
  2
DIMSTYLE_2
 70
0
  3

  4

 40
1.0
 41
3.0
 42
0.0625
 43
0.38
 44
0.18
 45
0.0
 46
0.0
 47
0.0
 48
0.0
140
3.0
141
0.09
142
0.0
143
25.4
144
1.0
145
0.0
146
1.0
147
0.09
 71
0.0
 72
0.0
 73
0
 74
0
 75
0
 76
0
 77
1
 78
8
170
0
171
2
172
0
173
0
174
0
175
0
176
0
177
0
178
0
270
2
271
1
272
1
273
2
274
2
275
0
280
0
281
0
282
0
283
1
284
8
285
0
286
0
287
3
288
0
340
11
341
215
342
215
343
215
344
215
  0
ENDTAB
  0
ENDSEC
  0
SECTION
  2
BLOCKS
  0
BLOCK
  5
20
100
AcDbEntity
  8
0
100
AcDbBlockBegin
  2
*Model_Space
 70
0
 10
0.0
 20
0.0
 30
0.0
  3
*Model_Space
  1

  0
ENDBLK
  5
21
100
AcDbEntity
  8
0
100
AcDbBlockEnd
  0
BLOCK
  5
1C
100
AcDbEntity
  8
0
100
AcDbBlockBegin
  2
*Paper_Space
 70
0
 10
0.0
 20
0.0
 30
0.0
  3
*Paper_Space
  1

  0
ENDBLK
  5
1D
100
AcDbEntity
  8
0
100
AcDbBlockEnd
  0
BLOCK
  5
21C
100
AcDbEntity
  8
0
100
AcDbBlockBegin
  2
_FILLED
 70
64
 10
0.0
 20
0.0
  3
_FILLED
  1

  0
SOLID
  5
21D
100
AcDbEntity
  8
0
  6
BYBLOCK
 62
0
100
AcDbTrace
 10
0.0
 20
0.0
 11
-1.0
 21
0.3166666667
 12
-1.0
 22
-0.3166666667
 13
-1.0
 23
-0.3166666667
  0
ENDBLK
  5
21E
100
AcDbEntity
  8
0
  6
BYBLOCK
 62
0
100
AcDbBlockEnd
  0
BLOCK
  5
21F
100
AcDbEntity
  8
0
100
AcDbBlockBegin
 62
7
  6
CONTINUOUS
  2
*D0
 70
65
 10
0.0
 20
0.0
  3
*D0
  1

  0
MTEXT
  5
220
100
AcDbEntity
  8
0
100
AcDbMText
 62
7
  6
CONTINUOUS
  7
STANDARD
 71
2
 72
1
 10
149.8466255019
 20
161.919161735
 30
0.0
 11
1.0
 21
0.0
 31
0.0
 44
0.9
  1
40
 40
3.0
 41
4.7142857143
  0
LINE
  5
221
100
AcDbEntity
  8
0
100
AcDbLine
 62
7
  6
CONTINUOUS
 10
169.8466255019
 20
143.6705322002
 11
169.8466255019
 21
159.669161735
  0
LINE
  5
222
100
AcDbEntity
  8
0
100
AcDbLine
 62
7
  6
CONTINUOUS
 10
129.8466255019
 20
143.6705322002
 11
129.8466255019
 21
159.669161735
  0
LINE
  5
223
100
AcDbEntity
  8
0
100
AcDbLine
 62
7
  6
CONTINUOUS
 10
169.8466255019
 20
158.169161735
 11
149.8466255019
 21
158.169161735
  0
LINE
  5
224
100
AcDbEntity
  8
0
100
AcDbLine
 62
7
  6
CONTINUOUS
 10
129.8466255019
 20
158.169161735
 11
149.8466255019
 21
158.169161735
  0
INSERT
  5
225
100
AcDbEntity
  8
0
100
AcDbBlockReference
 62
7
  6
CONTINUOUS
  2
_FILLED
 10
169.8466255019
 20
158.169161735
 41
3.0
 42
3.0
 43
3.0
  0
INSERT
  5
226
100
AcDbEntity
  8
0
100
AcDbBlockReference
 62
7
  6
CONTINUOUS
  2
_FILLED
 10
129.8466255019
 20
158.169161735
 41
3.0
 42
3.0
 43
3.0
 50
180.0
  0
ENDBLK
  5
227
100
AcDbEntity
  8
0
  6
BYBLOCK
 62
0
100
AcDbBlockEnd
  0
BLOCK
  5
228
100
AcDbEntity
  8
0
100
AcDbBlockBegin
 62
7
  6
CONTINUOUS
  2
*D1
 70
65
 10
0.0
 20
0.0
  3
*D1
  1

  0
MTEXT
  5
229
100
AcDbEntity
  8
0
100
AcDbMText
 62
7
  6
CONTINUOUS
  7
STANDARD
 71
2
 72
1
 10
184.0966255019
 20
103.169161735
 30
0.0
 11
0.0
 21
1.0
 31
0.0
 44
0.9
  1
82
 40
3.0
 41
4.7142857143
  0
LINE
  5
22A
100
AcDbEntity
  8
0
100
AcDbLine
 62
7
  6
CONTINUOUS
 10
169.3479959672
 20
144.169161735
 11
189.3466255019
 21
144.169161735
  0
LINE
  5
22B
100
AcDbEntity
  8
0
100
AcDbLine
 62
7
  6
CONTINUOUS
 10
169.3479959672
 20
62.169161735
 11
189.3466255019
 21
62.169161735
  0
LINE
  5
22C
100
AcDbEntity
  8
0
100
AcDbLine
 62
7
  6
CONTINUOUS
 10
187.8466255019
 20
144.169161735
 11
187.8466255019
 21
103.169161735
  0
LINE
  5
22D
100
AcDbEntity
  8
0
100
AcDbLine
 62
7
  6
CONTINUOUS
 10
187.8466255019
 20
62.169161735
 11
187.8466255019
 21
103.169161735
  0
INSERT
  5
22E
100
AcDbEntity
  8
0
100
AcDbBlockReference
 62
7
  6
CONTINUOUS
  2
_FILLED
 10
187.8466255019
 20
144.169161735
 41
3.0
 42
3.0
 43
3.0
 50
90.0
  0
INSERT
  5
22F
100
AcDbEntity
  8
0
100
AcDbBlockReference
 62
7
  6
CONTINUOUS
  2
_FILLED
 10
187.8466255019
 20
62.169161735
 41
3.0
 42
3.0
 43
3.0
 50
270.0
  0
ENDBLK
  5
230
100
AcDbEntity
  8
0
  6
BYBLOCK
 62
0
100
AcDbBlockEnd
  0
BLOCK
  5
231
100
AcDbEntity
  8
0
100
AcDbBlockBegin
 62
7
  6
CONTINUOUS
  2
*D2
 70
65
 10
0.0
 20
0.0
  3
*D2
  1

  0
MTEXT
  5
232
100
AcDbEntity
  8
0
100
AcDbMText
 62
7
  6
CONTINUOUS
  7
STANDARD
 71
2
 72
1
 10
106.5253778244
 20
161.919161735
 30
0.0
 11
1.0
 21
0.0
 31
0.0
 44
0.9
  1
8,6
 40
3.0
 41
6.4285714286
  0
LINE
  5
233
100
AcDbEntity
  8
0
100
AcDbLine
 62
7
  6
CONTINUOUS
 10
110.8094335946
 20
142.7662371726
 11
110.8094335837
 21
159.6691617377
  0
LINE
  5
234
100
AcDbEntity
  8
0
100
AcDbLine
 62
7
  6
CONTINUOUS
 10
102.2413220991
 20
103.6691614469
 11
102.2413220632
 21
159.6691617322
  0
LINE
  5
235
100
AcDbEntity
  8
0
100
AcDbLine
 62
7
  6
CONTINUOUS
 10
110.8094335847
 20
158.1691617377
 11
114.8094335847
 21
158.1691617403
  0
LINE
  5
236
100
AcDbEntity
  8
0
100
AcDbLine
 62
7
  6
CONTINUOUS
 10
114.8094335847
 20
158.1691617403
 11
106.5253778244
 21
158.169161735
  0
LINE
  5
237
100
AcDbEntity
  8
0
100
AcDbLine
 62
7
  6
CONTINUOUS
 10
102.2413220642
 20
158.1691617322
 11
98.2413220642
 21
158.1691617297
  0
LINE
  5
238
100
AcDbEntity
  8
0
100
AcDbLine
 62
7
  6
CONTINUOUS
 10
98.2413220642
 20
158.1691617297
 11
106.5253778244
 21
158.169161735
  0
INSERT
  5
239
100
AcDbEntity
  8
0
100
AcDbBlockReference
 62
7
  6
CONTINUOUS
  2
_FILLED
 10
110.8094335847
 20
158.1691617377
 41
3.0
 42
3.0
 43
3.0
 50
180.0000000367
  0
INSERT
  5
23A
100
AcDbEntity
  8
0
100
AcDbBlockReference
 62
7
  6
CONTINUOUS
  2
_FILLED
 10
102.2413220642
 20
158.1691617322
 41
3.0
 42
3.0
 43
3.0
 50
0.0000000367
  0
ENDBLK
  5
23B
100
AcDbEntity
  8
0
  6
BYBLOCK
 62
0
100
AcDbBlockEnd
  0
ENDSEC
  0
SECTION
  2
ENTITIES
  0
DIMENSION
  5
23C
100
AcDbEntity
  8
0
100
AcDbDimension
 62
7
  6
CONTINUOUS
  2
*D0
 10
129.8466255019
 20
158.169161735
 11
147.4894826448
 21
160.419161735
 70
160
 71
2
 42
40.0
  3
DIMSTYLE_1
100
AcDbAlignedDimension
 13
169.8466255019
 23
143.6705322002
 14
129.8466255019
 24
143.6705322002
 50
180.0
100
AcDbRotatedDimension
  0
DIMENSION
  5
23D
100
AcDbEntity
  8
0
100
AcDbDimension
 62
7
  6
CONTINUOUS
  2
*D1
 10
187.8466255019
 20
62.169161735
 11
186.6527990257
 21
101.061883885
 70
160
 71
2
 42
82.0
  3
DIMSTYLE_1
100
AcDbAlignedDimension
 13
169.3479959672
 23
144.169161735
 14
169.3479959672
 24
62.169161735
 50
270.0
100
AcDbRotatedDimension
  0
DIMENSION
  5
23E
100
AcDbEntity
  8
0
100
AcDbDimension
 62
7
  6
CONTINUOUS
  2
*D2
 10
102.2413220642
 20
158.1691617322
 11
103.3110921101
 21
160.419161735
 70
160
 71
2
 42
8.5681115205
  3
DIMSTYLE_2
100
AcDbAlignedDimension
 13
110.8094335946
 23
142.7662371726
 14
102.2413220991
 24
103.6691614469
 50
180.0000000367
100
AcDbRotatedDimension
  0
LWPOLYLINE
  5
23F
100
AcDbEntity
  8
RACCORDO
100
AcDbPolyline
 62
253
  6
CONTINUOUS
 90
25
 70
0
 10
168.7251560448
 20
62.2920016573
 10
168.7898050685
 20
62.2941654902
 10
168.8541444902
 20
62.3005427008
 10
168.9179052994
 20
62.3111075353
 10
168.98080718
 20
62.325813733
 10
169.0426003656
 20
62.3446025086
 10
169.1030642342
 20
62.3674111683
 10
169.1619428444
 20
62.3941543781
 10
169.2189836075
 20
62.4247278492
 10
169.2739737831
 20
62.4590291304
 10
169.3266752702
 20
62.496931574
 10
169.3768516976
 20
62.5382866572
 10
169.4242990089
 20
62.5829447299
 10
169.4688036809
 20
62.6307376507
 10
169.5101554322
 20
62.6814730344
 10
169.5481678275
 20
62.7349467949
 10
169.5826608531
 20
62.7909495667
 10
169.6134627132
 20
62.8492487978
 10
169.6404213429
 20
62.9095860824
 10
169.6634022077
 20
62.9717174614
 10
169.6822824495
 20
63.0353755689
 10
169.6969606177
 20
63.1002494436
 10
169.7073592283
 20
63.1660473818
 10
169.7134180734
 20
63.2325003139
 10
169.7150954936
 20
63.299321278
  0
LWPOLYLINE
  5
240
100
AcDbEntity
  8
RACCORDO
100
AcDbPolyline
 62
253
  6
CONTINUOUS
 90
25
 70
0
 10
168.7251560448
 20
62.5220852666
 10
168.7705711771
 20
62.5235960688
 10
168.8154343932
 20
62.5280256216
 10
168.859745693
 20
62.5353740205
 10
168.9036938859
 20
62.5456904017
 10
168.9470901626
 20
62.5589260116
 10
168.9893680949
 20
62.5749341904
 10
169.030503228
 20
62.5937440921
 10
169.0705200166
 20
62.6153272752
 10
169.1089253974
 20
62.6394507195
 10
169.1457077465
 20
62.6661465719
 10
169.1808786877
 20
62.6953836336
 10
169.2139800286
 20
62.7268338291
 10
169.2449952315
 20
62.7605338818
 10
169.273940834
 20
62.7964481201
 10
169.3004082564
 20
62.8341397433
 10
169.3243666867
 20
62.8736388343
 10
169.3458469369
 20
62.9149162997
 10
169.3645328635
 20
62.9574463357
 10
169.3803868154
 20
63.001273776
 10
169.3934464437
 20
63.0463545585
 10
169.4035085586
 20
63.0920291787
 10
169.4105054302
 20
63.138077829
 10
169.4145047884
 20
63.1847206361
 10
169.4155066332
 20
63.231957786
  0
LINE
  5
241
100
AcDbEntity
  8
RACCORDO
100
AcDbLine
 62
7
  6
CONTINUOUS
 10
130.8452550367
 20
62.169161735
 11
168.8479959672
 21
62.169161735
  0
LINE
  5
242
100
AcDbEntity
  8
RACCORDO
100
AcDbLine
 62
253
  6
CONTINUOUS
 10
130.968094959
 20
62.2920016573
 11
168.7251560448
 21
62.2920016573
  0
LINE
  5
243
100
AcDbEntity
  8
RACCORDO
100
AcDbLine
 62
253
  6
CONTINUOUS
 10
130.968094959
 20
62.5220852666
 11
168.7251560448
 21
62.5220852666
  0
LWPOLYLINE
  5
244
100
AcDbEntity
  8
RACCORDO
100
AcDbPolyline
 62
253
  6
CONTINUOUS
 90
16
 70
0
 10
169.4155066332
 20
63.2319578326
 10
169.4458480364
 20
63.2326512298
 10
169.4758782397
 20
63.2340284365
 10
169.5052892349
 20
63.236075327
 10
169.5337793647
 20
63.2387709073
 10
169.5610564171
 20
63.2420875298
 10
169.5868406216
 20
63.2459911772
 10
169.6108675199
 20
63.2504418113
 10
169.6328906772
 20
63.2553937836
 10
169.6526842105
 20
63.2607963038
 10
169.6700451053
 20
63.2665939602
 10
169.6847952975
 20
63.2727272885
 10
169.6967835001
 20
63.2791333815
 10
169.7058867548
 20
63.2857465345
 10
169.712011693
 20
63.2924989189
 10
169.7150954936
 20
63.299321278
  0
LWPOLYLINE
  5
245
100
AcDbEntity
  8
RACCORDO
100
AcDbPolyline
 62
253
  6
CONTINUOUS
 90
16
 70
0
 10
130.2777443707
 20
63.2319578245
 10
130.2474037026
 20
63.2326513956
 10
130.2173743066
 20
63.234028749
 10
130.1879641714
 20
63.236075758
 10
130.1594749345
 20
63.2387714283
 10
130.1321987881
 20
63.2420881124
 10
130.1064154831
 20
63.2459917937
 10
130.082389459
 20
63.250442435
 10
130.0603671326
 20
63.2553943896
 10
130.0405743702
 20
63.2607968691
 10
130.0232141709
 20
63.2665944645
 10
130.0084645853
 20
63.2727277141
 10
129.9964768885
 20
63.2791337139
 10
129.9873740292
 20
63.2857467625
 10
129.9812493686
 20
63.2924990349
 10
129.9781657226
 20
63.2993212782
  0
LWPOLYLINE
  5
246
100
AcDbEntity
  8
0
100
AcDbPolyline
 62
7
  6
CONTINUOUS
 90
5
 70
0
 10
154.6691286668
 20
75.6147811069
 10
154.6843304099
 20
75.6188966975
 10
154.6989167966
 20
75.6243070964
 10
154.712887827
 20
75.631012325
 10
154.7260107676
 20
75.6392622024
  0
LWPOLYLINE
  5
247
100
AcDbEntity
  8
0
100
AcDbPolyline
 62
7
  6
CONTINUOUS
 90
10
 70
0
 10
153.729322756
 20
76.614106939
 10
153.7817365618
 20
76.6227939112
 10
153.8338241755
 20
76.6297547129
 10
153.8855855971
 20
76.6349893114
 10
153.9371004658
 20
76.6384813135
 10
153.9882891424
 20
76.6402470709
 10
154.0389127088
 20
76.6403356808
 10
154.0888915258
 20
76.6387635111
 10
154.1383052327
 20
76.6355142006
 10
154.1871538294
 20
76.630587764
  0
LINE
  5
248
100
AcDbEntity
  8
0
100
AcDbLine
 62
7
  6
CONTINUOUS
 10
155.2057737138
 20
74.2913603806
 11
154.6436411238
 21
74.2913603806
  0
LINE
  5
249
100
AcDbEntity
  8
0
100
AcDbLine
 62
7
  6
CONTINUOUS
 10
153.7487008468
 20
74.2913603806
 11
153.1666443042
 21
74.2913603806
  0
LINE
  5
24A
100
AcDbEntity
  8
0
100
AcDbLine
 62
7
  6
CONTINUOUS
 10
152.9950335019
 20
74.291360735
 11
152.3790915019
 21
74.291360735
  0
LINE
  5
24B
100
AcDbEntity
  8
0
100
AcDbLine
 62
7
  6
CONTINUOUS
 10
151.2705725019
 20
74.291360735
 11
150.6925055019
 21
74.291360735
  0
LINE
  5
24C
100
AcDbEntity
  8
0
100
AcDbLine
 62
7
  6
CONTINUOUS
 10
150.6007375019
 20
74.291360735
 11
150.0290315019
 21
74.291360735
  0
LINE
  5
24D
100
AcDbEntity
  8
0
100
AcDbLine
 62
7
  6
CONTINUOUS
 10
149.2141015019
 20
74.291360735
 11
149.1321385019
 21
74.291360735
  0
LINE
  5
24E
100
AcDbEntity
  8
0
100
AcDbLine
 62
7
  6
CONTINUOUS
 10
148.3204425019
 20
74.291360735
 11
147.7613535019
 21
74.291360735
  0
LINE
  5
24F
100
AcDbEntity
  8
0
100
AcDbLine
 62
7
  6
CONTINUOUS
 10
147.4467485019
 20
74.291360735
 11
146.8623405019
 21
74.291360735
  0
LINE
  5
250
100
AcDbEntity
  8
0
100
AcDbLine
 62
7
  6
CONTINUOUS
 10
145.7455285019
 20
74.291360735
 11
145.2305185019
 21
74.291360735
  0
LINE
  5
251
100
AcDbEntity
  8
0
100
AcDbLine
 62
7
  6
CONTINUOUS
 10
152.2276995019
 20
74.850280735
 11
151.4318325019
 21
74.850280735
  0
LINE
  5
252
100
AcDbEntity
  8
0
100
AcDbLine
 62
7
  6
CONTINUOUS
 10
152.1109055019
 20
75.282770735
 11
151.5513765019
 21
75.282770735
  0
LINE
  5
253
100
AcDbEntity
  8
0
100
AcDbLine
 62
7
  6
CONTINUOUS
 10
154.0620464642
 20
75.3870098102
 11
153.7487008468
 21
75.3870098102
  0
LINE
  5
254
100
AcDbEntity
  8
0
100
AcDbLine
 62
7
  6
CONTINUOUS
 10
154.0633061451
 20
75.8455336484
 11
153.729322756
 21
75.8455336484
  0
LINE
  5
255
100
AcDbEntity
  8
0
100
AcDbLine
 62
7
  6
CONTINUOUS
 10
152.1360155019
 20
77.091063735
 11
151.5706705019
 21
77.091063735
  0
LINE
  5
256
100
AcDbEntity
  8
0
100
AcDbLine
 62
7
  6
CONTINUOUS
 10
150.3389335019
 20
77.091063735
 11
149.7607195019
 21
77.091063735
  0
LINE
  5
257
100
AcDbEntity
  8
0
100
AcDbLine
 62
7
  6
CONTINUOUS
 10
148.5980755019
 20
77.091063735
 11
148.0141505019
 21
77.091063735
  0
LINE
  5
258
100
AcDbEntity
  8
0
100
AcDbLine
 62
7
  6
CONTINUOUS
 10
146.6454655019
 20
77.091063735
 11
146.0614565019
 21
77.091063735
  0
LINE
  5
259
100
AcDbEntity
  8
0
100
AcDbLine
 62
7
  6
CONTINUOUS
 10
144.9778055019
 20
77.091063735
 11
144.3429575019
 21
77.091063735
  0
LINE
  5
25A
100
AcDbEntity
  8
0
100
AcDbLine
 62
7
  6
CONTINUOUS
 10
147.4467485019
 20
77.091231735
 11
146.8623405019
 21
77.091231735
  0
LWPOLYLINE
  5
25B
100
AcDbEntity
  8
0
100
AcDbPolyline
 62
7
  6
CONTINUOUS
 90
19
 70
0
 10
154.0620464643
 20
75.3870098102
 10
154.0865389579
 20
75.3862405737
 10
154.1106708585
 20
75.3837227021
 10
154.1344421661
 20
75.3794562091
 10
154.1580219765
 20
75.3734480482
 10
154.1812411939
 20
75.3656913218
 10
154.2035925306
 20
75.3561652826
 10
154.2249972508
 20
75.3447159059
 10
154.2455340903
 20
75.331497336
 10
154.2649319684
 20
75.3169510758
 10
154.283093173
 20
75.3010918081
 10
154.3001154163
 20
75.2839049773
 10
154.3160207536
 20
75.2657881979
 10
154.3308195146
 20
75.2467881786
 10
154.3445013696
 20
75.2268583192
 10
154.357057385
 20
75.2062562384
 10
154.368484583
 20
75.1850678322
 10
154.3787859414
 20
75.1632072918
 10
154.3879614601
 20
75.1406746652
  0
LWPOLYLINE
  5
25C
100
AcDbEntity
  8
0
100
AcDbPolyline
 62
7
  6
CONTINUOUS
 90
19
 70
0
 10
154.1871538294
 20
76.630587764
 10
154.2163582349
 20
76.6261400752
 10
154.2449048445
 20
76.6196842242
 10
154.2727936583
 20
76.6112202465
 10
154.3002275836
 20
76.6007321952
 10
154.327003713
 20
76.5882361219
 10
154.3525133239
 20
76.5737800746
 10
154.3767548529
 20
76.557309773
 10
154.3997298634
 20
76.5388796663
 10
154.4208343232
 20
76.5187009013
 10
154.4399409365
 20
76.4966443297
 10
154.4571769991
 20
76.472839311
 10
154.472320367
 20
76.4478847169
 10
154.4853528688
 20
76.4217976944
 10
154.4962926758
 20
76.3945612627
 10
154.5049721583
 20
76.3667230271
 10
154.5113354397
 20
76.3384655373
 10
154.5154383966
 20
76.3096063336
 10
154.5172810289
 20
76.2801454677
  0
LWPOLYLINE
  5
25D
100
AcDbEntity
  8
RACCORDO
100
AcDbPolyline
 62
253
  6
CONTINUOUS
 90
16
 70
0
 10
138.2916080462
 20
125.7739772934
 10
138.3418550363
 20
125.8345339298
 10
138.3954002997
 20
125.8916739934
 10
138.4522438364
 20
125.9453977668
 10
138.5126789347
 20
125.9959381457
 10
138.5764123064
 20
126.0430627522
 10
138.6425640859
 20
126.0860739921
 10
138.7110864611
 20
126.1248531627
 10
138.7820272442
 20
126.1595195005
 10
138.8546500066
 20
126.1897323569
 10
138.9289812328
 20
126.2154548775
 10
139.0049944382
 20
126.2367243231
 10
139.0818737408
 20
126.2533111994
 10
139.1593471799
 20
126.2651390855
 10
139.2376867163
 20
126.2722846244
 10
139.31689235
 20
126.2747478719
  0
LWPOLYLINE
  5
25E
100
AcDbEntity
  8
RACCORDO
100
AcDbPolyline
 62
253
  6
CONTINUOUS
 90
16
 70
0
 10
138.6848668303
 20
125.442262955
 10
138.7157409329
 20
125.4791608843
 10
138.7488513902
 20
125.5141990555
 10
138.7840896138
 20
125.547239235
 10
138.8213709971
 20
125.5781732501
 10
138.8605398821
 20
125.6068478103
 10
138.9013554296
 20
125.6330846911
 10
138.9436193227
 20
125.6567685472
 10
138.9872167841
 20
125.677846918
 10
139.0320145731
 20
125.6962625037
 10
139.077854197
 20
125.7119493147
 10
139.1245644132
 20
125.7248478352
 10
139.171990815
 20
125.7349168071
 10
139.2199667025
 20
125.7421175958
 10
139.2683127022
 20
125.7464179523
 10
139.3168529218
 20
125.7477985809
  0
LWPOLYLINE
  5
25F
100
AcDbEntity
  8
RACCORDO
100
AcDbPolyline
 62
253
  6
CONTINUOUS
 90
16
 70
0
 10
169.2893958307
 20
80.5643461769
 10
169.3197139306
 20
80.5645030453
 10
169.3497215891
 20
80.564812615
 10
169.3791115437
 20
80.5652717162
 10
169.4075828566
 20
80.565875648
 10
169.4348439965
 20
80.5666182264
 10
169.4606158239
 20
80.5674918479
 10
169.4846344487
 20
80.5684875669
 10
169.5066539329
 20
80.5695951879
 10
169.5264488085
 20
80.5708033693
 10
169.5438163865
 20
80.5720997402
 10
169.558578832
 20
80.5734710262
 10
169.5705849853
 20
80.5749031862
 10
169.5797119097
 20
80.5763815556
 10
169.5858661504
 20
80.5778909966
 10
169.5889846911
 20
80.5794160534
  0
LINE
  5
260
100
AcDbEntity
  8
RACCORDO
100
AcDbLine
 62
253
  6
CONTINUOUS
 10
160.3763586539
 20
80.0635755981
 11
139.31689235
 21
80.0635755981
  0
LINE
  5
261
100
AcDbEntity
  8
RACCORDO
100
AcDbLine
 62
253
  6
CONTINUOUS
 10
169.2893957101
 20
80.5644072056
 11
161.4016429576
 21
80.5643461765
  0
LINE
  5
262
100
AcDbEntity
  8
RACCORDO
100
AcDbLine
 62
253
  6
CONTINUOUS
 10
138.2916080463
 20
80.5643461765
 11
130.4038552943
 21
80.5644074579
  0
LINE
  5
263
100
AcDbEntity
  8
RACCORDO
100
AcDbLine
 62
253
  6
CONTINUOUS
 10
160.3763980149
 20
80.5905249552
 11
139.3169124754
 21
80.5905249552
  0
LINE
  5
264
100
AcDbEntity
  8
RACCORDO
100
AcDbLine
 62
7
  6
CONTINUOUS
 10
139.3966255019
 20
80.669161735
 11
160.2966255019
 21
80.669161735
  0
LWPOLYLINE
  5
265
100
AcDbEntity
  8
RACCORDO
100
AcDbPolyline
 62
253
  6
CONTINUOUS
 90
16
 70
0
 10
130.4038551732
 20
80.5643461787
 10
130.3735370755
 20
80.564503047
 10
130.343529419
 20
80.5648126166
 10
130.3141394664
 20
80.5652717178
 10
130.2856681553
 20
80.5658756495
 10
130.2584070167
 20
80.5666182278
 10
130.2326351905
 20
80.5674918491
 10
130.2086165664
 20
80.568487568
 10
130.1865970825
 20
80.5695951889
 10
130.1668022068
 20
80.5708033702
 10
130.1494346282
 20
80.5720997409
 10
130.1346721816
 20
80.5734710267
 10
130.1226660266
 20
80.5749031866
 10
130.1135391
 20
80.5763815558
 10
130.1073848567
 20
80.5778909967
 10
130.1042663128
 20
80.5794160534
  0
LWPOLYLINE
  5
266
100
AcDbEntity
  8
RACCORDO
100
AcDbPolyline
 62
253
  6
CONTINUOUS
 90
16
 70
0
 10
139.3169125097
 20
80.5905249898
 10
139.2684837775
 20
80.5918955034
 10
139.2202027593
 20
80.5961777422
 10
139.1722453713
 20
80.6033606744
 10
139.1247654204
 20
80.6134267295
 10
139.0779590677
 20
80.6263419533
 10
139.0320607518
 20
80.6420437904
 10
138.987280891
 20
80.6604480403
 10
138.9437326146
 20
80.6814958987
 10
138.901501368
 20
80.7051510831
 10
138.8606888346
 20
80.7313733803
 10
138.8215098337
 20
80.7600419486
 10
138.7842064077
 20
80.7909812158
 10
138.7489360788
 20
80.8240401087
 10
138.7157858713
 20
80.8591121115
 10
138.6848668303
 20
80.8960605149
  0
LWPOLYLINE
  5
267
100
AcDbEntity
  8
RACCORDO
100
AcDbPolyline
 62
253
  6
CONTINUOUS
 90
16
 70
0
 10
139.31689235
 20
80.0635755981
 10
139.2382054696
 20
80.0659542839
 10
139.1602121059
 20
80.0730358297
 10
139.0829122588
 20
80.084820291
 10
139.0059646406
 20
80.1013910851
 10
138.9297105391
 20
80.1226650174
 10
138.8551738175
 20
80.1483922713
 10
138.7824660559
 20
80.1785966134
 10
138.7114756741
 20
80.2132546831
 10
138.6428917949
 20
80.2520459925
 10
138.5766365431
 20
80.2951090284
 10
138.5127877938
 20
80.3423058418
 10
138.4522682947
 20
80.3929012534
 10
138.3953856283
 20
80.4466503546
 10
138.3418322122
 20
80.5037985686
 10
138.2916080463
 20
80.5643461765
  0
LWPOLYLINE
  5
268
100
AcDbEntity
  8
0
100
AcDbPolyline
 62
7
  6
CONTINUOUS
 90
25
 70
0
 10
154.6094911431
 20
77.0286546269
 10
154.5514969661
 20
77.0475118763
 10
154.4928370672
 20
77.0640475507
 10
154.4335114462
 20
77.0782615501
 10
154.373335232
 20
77.0899281448
 10
154.3124932959
 20
77.0992729031
 10
154.2515402517
 20
77.1069727087
 10
154.1906104964
 20
77.1131168253
 10
154.129569633
 20
77.1176159313
 10
154.0685690853
 20
77.120879065
 10
154.0076143085
 20
77.1229754276
 10
153.9466998473
 20
77.123835801
 10
153.8859607591
 20
77.1236616055
 10
153.8254539431
 20
77.1224550394
 10
153.7651225001
 20
77.1202139081
 10
153.7049307897
 20
77.117133046
 10
153.6448893571
 20
77.1132189417
 10
153.5849876571
 20
77.1084651219
 10
153.5251584135
 20
77.1030469775
 10
153.4654134856
 20
77.0969705408
 10
153.4057410142
 20
77.0902297992
 10
153.3460381457
 20
77.0829820733
 10
153.2862705956
 20
77.0752798085
 10
153.2264726484
 20
77.0670705784
 10
153.1666443042
 20
77.0583543939
  0
LWPOLYLINE
  5
269
100
AcDbEntity
  8
RACCORDO
100
AcDbPolyline
 62
253
  6
CONTINUOUS
 90
13
 70
0
 10
138.6848668303
 20
80.8960605149
 10
138.6588025045
 20
80.9311322507
 10
138.6346568623
 20
80.9676519624
 10
138.6125145705
 20
81.0055180291
 10
138.5924481829
 20
81.044637113
 10
138.5745399622
 20
81.0848847365
 10
138.5588738872
 20
81.126102184
 10
138.545502361
 20
81.1681747938
 10
138.5344763844
 20
81.2109681531
 10
138.5258493842
 20
81.2542831757
 10
138.519646332
 20
81.2979631163
 10
138.5158764521
 20
81.3418972187
 10
138.5145469921
 20
81.3859513226
  0
LWPOLYLINE
  5
26A
100
AcDbEntity
  8
RACCORDO
100
AcDbPolyline
 62
253
  6
CONTINUOUS
 90
13
 70
0
 10
138.2916080463
 20
80.5643461765
 10
138.2491886947
 20
80.6216164823
 10
138.2101135174
 20
80.680936827
 10
138.1743825144
 20
80.7423072502
 10
138.1418706716
 20
80.8059547929
 10
138.1127030031
 20
80.8716525002
 10
138.0872545511
 20
80.9387194047
 10
138.0655831204
 20
81.0071787882
 10
138.0476309061
 20
81.0770074274
 10
138.0335995366
 20
81.1474545661
 10
138.0235562211
 20
81.2182699532
 10
138.0174337504
 20
81.289703861
 10
138.0152321244
 20
81.3617563021
  0
LWPOLYLINE
  5
26B
100
AcDbEntity
  8
RACCORDO
100
AcDbPolyline
 62
253
  6
CONTINUOUS
 90
25
 70
0
 10
129.9781555102
 20
63.299321278
 10
129.9798329555
 20
63.2324999499
 10
129.9858917878
 20
63.1660473271
 10
129.9962902161
 20
63.1002503543
 10
130.0109677859
 20
63.0353785018
 10
130.0298469513
 20
62.9717229695
 10
130.0528266711
 20
62.909593399
 10
130.0797844269
 20
62.8492567878
 10
130.1105856648
 20
62.7909575551
 10
130.1450784407
 20
62.7349541352
 10
130.1830912524
 20
62.6814789184
 10
130.2244440428
 20
62.6307416303
 10
130.268949847
 20
62.5829470834
 10
130.3163983754
 20
62.5382876254
 10
130.3665760367
 20
62.4969314271
 10
130.4192779006
 20
62.4590286964
 10
130.4742659651
 20
62.4247286252
 10
130.5313034054
 20
62.3941566106
 10
130.5901812568
 20
62.3674133162
 10
130.6506506152
 20
62.3446023972
 10
130.7124524042
 20
62.3258113386
 10
130.775359444
 20
62.3111047207
 10
130.8391195124
 20
62.3005409206
 10
130.9034543584
 20
62.2941648938
 10
130.968094959
 20
62.2920016573
  0
LWPOLYLINE
  5
26C
100
AcDbEntity
  8
RACCORDO
100
AcDbPolyline
 62
253
  6
CONTINUOUS
 90
25
 70
0
 10
130.2777443707
 20
63.231957786
 10
130.2787512641
 20
63.1846962085
 10
130.2827532926
 20
63.1380400359
 10
130.2897504564
 20
63.0919890785
 10
130.2998109356
 20
63.0463267511
 10
130.31286655
 20
63.0012693116
 10
130.3287127586
 20
62.9574656278
 10
130.3473856366
 20
62.9149578831
 10
130.3688491087
 20
62.8737031229
 10
130.3927904078
 20
62.834222156
 10
130.4192380457
 20
62.7965440363
 10
130.4481635106
 20
62.7606387233
 10
130.4791684999
 20
62.7269381474
 10
130.5122755886
 20
62.695472431
 10
130.5474622018
 20
62.666210405
 10
130.584262312
 20
62.6394919285
 10
130.6226853765
 20
62.6153518056
 10
130.662721938
 20
62.5937542821
 10
130.7038775971
 20
62.574933338
 10
130.7461812146
 20
62.5589178845
 10
130.7896039297
 20
62.545678297
 10
130.8335647599
 20
62.5353607847
 10
130.8778700445
 20
62.5280139514
 10
130.9227134442
 20
62.5235888105
 10
130.968094959
 20
62.5220852666
  0
LWPOLYLINE
  5
26D
100
AcDbEntity
  8
RACCORDO
100
AcDbPolyline
 62
253
  6
CONTINUOUS
 90
9
 70
0
 10
129.9781555102
 20
143.0390021919
 10
130.000036554
 20
141.142217658
 10
130.0199544877
 20
139.239073028
 10
130.0379093115
 20
137.3295683018
 10
130.0539064562
 20
135.4129653502
 10
130.0679404909
 20
133.4900023024
 10
130.0799951232
 20
131.5628935463
 10
130.0900649222
 20
129.6323772113
 10
130.0981553187
 20
127.697715168
  0
LWPOLYLINE
  5
26E
100
AcDbEntity
  8
RACCORDO
100
AcDbPolyline
 62
253
  6
CONTINUOUS
 90
9
 70
0
 10
130.2777443707
 20
143.1063656839
 10
130.2996263509
 20
141.2049611965
 10
130.3195448602
 20
139.2957480628
 10
130.3374998987
 20
137.3794584995
 10
130.3534967186
 20
135.4568459104
 10
130.3675300677
 20
133.5286291545
 10
130.3795841888
 20
131.5954917571
 10
130.3896538296
 20
129.6581559245
 10
130.3977442425
 20
127.7173827652
  0
LINE
  5
26F
100
AcDbEntity
  8
RACCORDO
100
AcDbLine
 62
253
  6
CONTINUOUS
 10
130.0981553187
 20
127.697715168
 11
130.1133565967
 21
121.996270671
  0
LINE
  5
270
100
AcDbEntity
  8
RACCORDO
100
AcDbLine
 62
253
  6
CONTINUOUS
 10
130.3977442425
 20
127.7173827652
 11
130.4129455339
 21
122.0092295739
  0
LINE
  5
271
100
AcDbEntity
  8
RACCORDO
100
AcDbLine
 62
253
  6
CONTINUOUS
 10
130.1133565967
 20
121.996270671
 11
130.1265795475
 21
114.4682122403
  0
LINE
  5
272
100
AcDbEntity
  8
RACCORDO
100
AcDbLine
 62
253
  6
CONTINUOUS
 10
130.4129455339
 20
122.0092295739
 11
130.4261684253
 21
114.4757367806
  0
LINE
  5
273
100
AcDbEntity
  8
RACCORDO
100
AcDbLine
 62
253
  6
CONTINUOUS
 10
130.1265795475
 20
114.4682122403
 11
130.1331929284
 21
106.9358216558
  0
LINE
  5
274
100
AcDbEntity
  8
RACCORDO
100
AcDbLine
 62
253
  6
CONTINUOUS
 10
130.4261684253
 20
114.4757367806
 11
130.4327817891
 21
106.9384189059
  0
LINE
  5
275
100
AcDbEntity
  8
RACCORDO
100
AcDbLine
 62
7
  6
CONTINUOUS
 10
129.8466255019
 20
63.1677912697
 11
129.8466255019
 21
143.1705322002
  0
LINE
  5
276
100
AcDbEntity
  8
RACCORDO
100
AcDbLine
 62
253
  6
CONTINUOUS
 10
130.968094959
 20
62.5220852666
 11
130.968094959
 21
62.2920016573
  0
LINE
  5
277
100
AcDbEntity
  8
RACCORDO
100
AcDbLine
 62
253
  6
CONTINUOUS
 10
130.968094959
 20
143.8162382033
 11
130.9680949591
 21
144.0463218126
  0
LINE
  5
278
100
AcDbEntity
  8
RACCORDO
100
AcDbLine
 62
253
  6
CONTINUOUS
 10
130.1331929284
 20
106.9358216558
 11
130.1331929291
 21
99.4025029585
  0
LINE
  5
279
100
AcDbEntity
  8
RACCORDO
100
AcDbLine
 62
253
  6
CONTINUOUS
 10
130.4327817891
 20
106.9384189059
 11
130.4327817886
 21
99.3999035391
  0
LINE
  5
27A
100
AcDbEntity
  8
RACCORDO
100
AcDbLine
 62
253
  6
CONTINUOUS
 10
130.1331929291
 20
99.4025029585
 11
130.1265795493
 21
91.8701125866
  0
LINE
  5
27B
100
AcDbEntity
  8
RACCORDO
100
AcDbLine
 62
253
  6
CONTINUOUS
 10
130.4327817886
 20
99.3999035391
 11
130.4261684243
 21
91.8625859724
  0
LINE
  5
27C
100
AcDbEntity
  8
RACCORDO
100
AcDbLine
 62
253
  6
CONTINUOUS
 10
130.1265795493
 20
91.8701125866
 11
130.1133565977
 21
84.3420534395
  0
LINE
  5
27D
100
AcDbEntity
  8
RACCORDO
100
AcDbLine
 62
253
  6
CONTINUOUS
 10
130.4261684243
 20
91.8625859724
 11
130.4129455335
 21
84.3290937221
  0
LWPOLYLINE
  5
27E
100
AcDbEntity
  8
RACCORDO
100
AcDbPolyline
 62
253
  6
CONTINUOUS
 90
10
 70
0
 10
130.1133565977
 20
84.3420534395
 10
130.0981552931
 20
78.6406021166
 10
130.0900648624
 20
76.7059342248
 10
130.0799950208
 20
74.7754123778
 10
130.0679403175
 20
72.8482968336
 10
130.0539062032
 20
70.9253273344
 10
130.0379090301
 20
69.0087231065
 10
130.0199542489
 20
67.0992238923
 10
130.000036409
 20
65.1960899495
 10
129.9781555102
 20
63.299321278
  0
LWPOLYLINE
  5
27F
100
AcDbEntity
  8
RACCORDO
100
AcDbPolyline
 62
253
  6
CONTINUOUS
 90
10
 70
0
 10
130.4129455335
 20
84.3290937221
 10
130.397744241
 20
78.6209408796
 10
130.3896538287
 20
76.6801679038
 10
130.3795841913
 20
74.7428324519
 10
130.3675300795
 20
72.8096958962
 10
130.3534967427
 20
70.881480174
 10
130.3374999286
 20
68.9588680162
 10
130.3195448865
 20
67.0425780239
 10
130.2996263672
 20
65.1333638722
 10
130.2777443707
 20
63.231957786
  0
LWPOLYLINE
  5
280
100
AcDbEntity
  8
RACCORDO
100
AcDbPolyline
 62
253
  6
CONTINUOUS
 90
16
 70
0
 10
138.1404266884
 20
81.3628457486
 10
138.1807697526
 20
81.3635427304
 10
138.2199354208
 20
81.3643993466
 10
138.2576451248
 20
81.3654095046
 10
138.2936306521
 20
81.3665660194
 10
138.3276360536
 20
81.3678606653
 10
138.3594194638
 20
81.369284234
 10
138.3887548214
 20
81.3708266004
 10
138.4154334769
 20
81.3724767943
 10
138.4392656769
 20
81.3742230786
 10
138.4600819134
 20
81.3760530327
 10
138.4777341297
 20
81.377953641
 10
138.4920967734
 20
81.3799113852
 10
138.5030676894
 20
81.3819123409
 10
138.5105688463
 20
81.383942276
 10
138.5145468918
 20
81.3859867526
  0
LWPOLYLINE
  5
281
100
AcDbEntity
  8
RACCORDO
100
AcDbPolyline
 62
253
  6
CONTINUOUS
 90
3
 70
0
 10
138.0152321244
 20
81.3617563028
 10
138.0573624747
 20
81.361949347
 10
138.1404266884
 20
81.3628457486
  0
LWPOLYLINE
  5
282
100
AcDbEntity
  8
RACCORDO
100
AcDbPolyline
 62
253
  6
CONTINUOUS
 90
18
 70
0
 10
161.6780188792
 20
81.3617567691
 10
161.5940570601
 20
81.3623137134
 10
161.5528230377
 20
81.3628460532
 10
161.5124794089
 20
81.3635429888
 10
161.4733131305
 20
81.364399563
 10
161.4356027848
 20
81.3654096831
 10
161.3996165985
 20
81.3665661644
 10
161.3656105345
 20
81.367860781
 10
161.3338264717
 20
81.3692843245
 10
161.3044904842
 20
81.3708266697
 10
161.2778112332
 20
81.3724768459
 10
161.2539784835
 20
81.374223116
 10
161.2331617528
 20
81.3760530588
 10
161.2155091067
 20
81.3779536585
 10
161.2011461051
 20
81.3799113963
 10
161.1901749095
 20
81.3819123472
 10
161.1826735558
 20
81.3839422789
 10
161.1786953998
 20
81.3859867528
  0
LINE
  5
283
100
AcDbEntity
  8
RACCORDO
100
AcDbLine
 62
253
  6
CONTINUOUS
 10
168.7251560448
 20
144.0463218126
 11
168.8479959672
 21
144.169161735
  0
LINE
  5
284
100
AcDbEntity
  8
RACCORDO
100
AcDbLine
 62
253
  6
CONTINUOUS
 10
168.7251560448
 20
62.2920016573
 11
168.8479959672
 21
62.169161735
  0
LINE
  5
285
100
AcDbEntity
  8
RACCORDO
100
AcDbLine
 62
253
  6
CONTINUOUS
 10
138.0152321244
 20
81.3617563021
 11
137.9998563999
 21
88.6277262897
  0
LINE
  5
286
100
AcDbEntity
  8
RACCORDO
100
AcDbLine
 62
253
  6
CONTINUOUS
 10
138.5145469594
 20
81.3859512906
 11
138.4991711965
 21
88.6441799029
  0
LINE
  5
287
100
AcDbEntity
  8
RACCORDO
100
AcDbLine
 62
253
  6
CONTINUOUS
 10
137.9998563999
 20
88.6277262897
 11
137.990630272
 21
95.8974942754
  0
LINE
  5
288
100
AcDbEntity
  8
RACCORDO
100
AcDbLine
 62
253
  6
CONTINUOUS
 10
138.4991711965
 20
88.6441799029
 11
138.4899450458
 21
95.9054885277
  0
LINE
  5
289
100
AcDbEntity
  8
RACCORDO
100
AcDbLine
 62
253
  6
CONTINUOUS
 10
137.990630272
 20
95.8974942754
 11
137.9875541928
 21
103.1691616903
  0
LINE
  5
28A
100
AcDbEntity
  8
RACCORDO
100
AcDbLine
 62
253
  6
CONTINUOUS
 10
138.4899450458
 20
95.9054885277
 11
138.4868689602
 21
103.1691663856
  0
LINE
  5
28B
100
AcDbEntity
  8
RACCORDO
100
AcDbLine
 62
7
  6
CONTINUOUS
 10
138.5966255019
 20
124.869161735
 11
138.5966255019
 21
81.469161735
  0
LINE
  5
28C
100
AcDbEntity
  8
RACCORDO
100
AcDbLine
 62
253
  6
CONTINUOUS
 10
137.9875541928
 20
103.1691616903
 11
137.9906302718
 21
110.440829114
  0
LINE
  5
28D
100
AcDbEntity
  8
RACCORDO
100
AcDbLine
 62
253
  6
CONTINUOUS
 10
138.4868689602
 20
103.1691663856
 11
138.4899450617
 21
110.4328483007
  0
LINE
  5
28E
100
AcDbEntity
  8
RACCORDO
100
AcDbLine
 62
253
  6
CONTINUOUS
 10
137.9906302718
 20
110.440829114
 11
137.9998563996
 21
117.7105971293
  0
LINE
  5
28F
100
AcDbEntity
  8
RACCORDO
100
AcDbLine
 62
253
  6
CONTINUOUS
 10
138.4899450617
 20
110.4328483007
 11
138.4991711872
 21
117.6941404776
  0
LINE
  5
290
100
AcDbEntity
  8
RACCORDO
100
AcDbLine
 62
253
  6
CONTINUOUS
 10
137.9998563996
 20
117.7105971293
 11
138.0152321244
 21
124.9765671678
  0
LINE
  5
291
100
AcDbEntity
  8
RACCORDO
100
AcDbLine
 62
253
  6
CONTINUOUS
 10
138.4991711872
 20
117.6941404776
 11
138.5145468714
 21
124.9523260043
  0
LWPOLYLINE
  5
292
100
AcDbEntity
  8
RACCORDO
100
AcDbPolyline
 62
253
  6
CONTINUOUS
 90
13
 70
0
 10
138.0152321244
 20
124.9765671678
 10
138.0173085611
 20
125.0475069052
 10
138.0232828337
 20
125.1180630658
 10
138.0331549421
 20
125.1882356568
 10
138.046948802
 20
125.2582705934
 10
138.0646404977
 20
125.3279219707
 10
138.0861582823
 20
125.3964520824
 10
138.1116212518
 20
125.4639348692
 10
138.1409103102
 20
125.5302964365
 10
138.1735964223
 20
125.5945773626
 10
138.2095365765
 20
125.6564578779
 10
138.2488737845
 20
125.7162578413
 10
138.2916080463
 20
125.7739772934
  0
LWPOLYLINE
  5
293
100
AcDbEntity
  8
RACCORDO
100
AcDbPolyline
 62
253
  6
CONTINUOUS
 90
13
 70
0
 10
138.5145468618
 20
124.952326014
 10
138.5158462216
 20
124.9959033094
 10
138.5195412132
 20
125.0394326454
 10
138.5256360657
 20
125.0827826438
 10
138.5341269659
 20
125.1258173448
 10
138.5450038524
 20
125.1684077821
 10
138.5582523245
 20
125.2104318949
 10
138.5738691576
 20
125.2518058463
 10
138.5918081013
 20
125.2923454703
 10
138.6119579221
 20
125.3317885709
 10
138.6342239686
 20
125.3699750279
 10
138.6585536407
 20
125.4068360923
 10
138.6848668303
 20
125.442262955
  0
LINE
  5
294
100
AcDbEntity
  8
RACCORDO
100
AcDbLine
 62
253
  6
CONTINUOUS
 10
169.7150954936
 20
143.0390021919
 11
169.8466255019
 21
143.1705322002
  0
LINE
  5
295
100
AcDbEntity
  8
RACCORDO
100
AcDbLine
 62
253
  6
CONTINUOUS
 10
169.7150954936
 20
63.299321278
 11
169.8466255019
 21
63.1677912697
  0
LINE
  5
296
100
AcDbEntity
  8
0
100
AcDbLine
 62
7
  6
CONTINUOUS
 10
149.1321385019
 20
74.291360735
 11
148.4465575019
 21
76.119514735
  0
LINE
  5
297
100
AcDbEntity
  8
0
100
AcDbLine
 62
7
  6
CONTINUOUS
 10
145.2305185019
 20
74.291360735
 11
144.3429575019
 21
77.091063735
  0
LINE
  5
298
100
AcDbEntity
  8
0
100
AcDbLine
 62
7
  6
CONTINUOUS
 10
145.5114795019
 20
75.163941735
 11
144.9778055019
 21
77.091063735
  0
LINE
  5
299
100
AcDbEntity
  8
RACCORDO
100
AcDbLine
 62
253
  6
CONTINUOUS
 10
139.31689235
 20
126.2747478719
 11
139.31689235
 21
125.7477985147
  0
LINE
  5
29A
100
AcDbEntity
  8
RACCORDO
100
AcDbLine
 62
253
  6
CONTINUOUS
 10
139.31689235
 20
80.0635755981
 11
139.3168923505
 21
80.5905249552
  0
LINE
  5
29B
100
AcDbEntity
  8
RACCORDO
100
AcDbLine
 62
253
  6
CONTINUOUS
 10
160.3763385284
 20
125.7477985147
 11
160.2977218741
 21
125.669161735
  0
LINE
  5
29C
100
AcDbEntity
  8
RACCORDO
100
AcDbLine
 62
253
  6
CONTINUOUS
 10
161.1787040434
 20
124.9523727143
 11
161.0966255019
 21
124.8702581072
  0
LWPOLYLINE
  5
29D
100
AcDbEntity
  8
RACCORDO
100
AcDbPolyline
 62
253
  6
CONTINUOUS
 90
12
 70
0
 10
161.1812301508
 20
125.5972310616
 10
161.1543678143
 20
125.5749477471
 10
161.1292870471
 20
125.5539174396
 10
161.1061685555
 20
125.5342916619
 10
161.0851789075
 20
125.516211817
 10
161.0664693328
 20
125.4998081697
 10
161.0501746334
 20
125.4851989077
 10
161.036412212
 20
125.4724892903
 10
161.0252812265
 20
125.4617708898
 10
161.0168618753
 20
125.4531209321
 10
161.0112148196
 20
125.4466017397
 10
161.0083807463
 20
125.4422602832
  0
LINE
  5
29E
100
AcDbEntity
  8
RACCORDO
100
AcDbLine
 62
253
  6
CONTINUOUS
 10
161.239513921
 20
125.6449066385
 11
161.1812301508
 21
125.5972310616
  0
LINE
  5
29F
100
AcDbEntity
  8
RACCORDO
100
AcDbLine
 62
253
  6
CONTINUOUS
 10
161.3024616523
 20
125.6955726412
 11
161.239513921
 21
125.6449066385
  0
LWPOLYLINE
  5
2A0
100
AcDbEntity
  8
RACCORDO
100
AcDbPolyline
 62
253
  6
CONTINUOUS
 90
3
 70
0
 10
161.4016429574
 20
125.7739770504
 10
161.3682624664
 20
125.747771512
 10
161.3024616523
 20
125.6955726412
  0
LINE
  5
2A1
100
AcDbEntity
  8
RACCORDO
100
AcDbLine
 62
253
  6
CONTINUOUS
 10
161.4016429576
 20
80.564346452
 11
161.3351224147
 21
80.6167497459
  0
LINE
  5
2A2
100
AcDbEntity
  8
RACCORDO
100
AcDbLine
 62
253
  6
CONTINUOUS
 10
161.3351224147
 20
80.6167497459
 11
161.2705153492
 21
80.6683681825
  0
LWPOLYLINE
  5
2A3
100
AcDbEntity
  8
RACCORDO
100
AcDbPolyline
 62
253
  6
CONTINUOUS
 90
14
 70
0
 10
161.2705153492
 20
80.6683681825
 10
161.2096803798
 20
80.7177168015
 10
161.1812299815
 20
80.7410925994
 10
161.1543676089
 20
80.7633759408
 10
161.129286805
 20
80.7844062744
 10
161.1061682767
 20
80.8040320772
 10
161.0851785927
 20
80.8221119457
 10
161.0664689835
 20
80.8385156146
 10
161.0501742516
 20
80.8531248959
 10
161.0364118004
 20
80.86583453
 10
161.0252807883
 20
80.8765529442
 10
161.016861414
 20
80.8852029127
 10
161.0112143392
 20
80.8917221127
 10
161.008380251
 20
80.8960635734
  0
LINE
  5
2A4
100
AcDbEntity
  8
RACCORDO
100
AcDbLine
 62
253
  6
CONTINUOUS
 10
160.3763980149
 20
80.5905249552
 11
160.2977218741
 21
80.669161735
  0
LINE
  5
2A5
100
AcDbEntity
  8
RACCORDO
100
AcDbLine
 62
253
  6
CONTINUOUS
 10
161.1787041299
 20
81.3859960934
 11
161.0966255019
 21
81.4680653628
  0
LINE
  5
2A6
100
AcDbEntity
  8
0
100
AcDbLine
 62
7
  6
CONTINUOUS
 10
149.1763115019
 20
75.536659735
 11
148.5980755019
 21
77.091063735
  0
LWPOLYLINE
  5
2A7
100
AcDbEntity
  8
0
100
AcDbPolyline
 62
7
  6
CONTINUOUS
 90
8
 70
0
 10
154.3879614601
 20
75.1406746652
 10
154.402131518
 20
75.1017020339
 10
154.4158274571
 20
75.0626332242
 10
154.4290492774
 20
75.0234682545
 10
154.4417246779
 20
74.9842125068
 10
154.4539259596
 20
74.9448606357
 10
154.4658700249
 20
74.9053965707
 10
154.4775571477
 20
74.8658253818
  0
LINE
  5
2A8
100
AcDbEntity
  8
0
100
AcDbLine
 62
7
  6
CONTINUOUS
 10
152.9950335019
 20
74.291360735
 11
152.1360155019
 21
77.091063735
  0
LINE
  5
2A9
100
AcDbEntity
  8
0
100
AcDbLine
 62
7
  6
CONTINUOUS
 10
154.5461598239
 20
74.6254822139
 11
154.6436411238
 21
74.2913603806
  0
LWPOLYLINE
  5
2AA
100
AcDbEntity
  8
0
100
AcDbPolyline
 62
7
  6
CONTINUOUS
 90
4
 70
0
 10
154.4775571477
 20
74.8658253818
 10
154.5117369127
 20
74.7463486573
 10
154.5230568651
 20
74.7062386663
 10
154.5461598239
 20
74.6254822139
  0
LINE
  5
2AB
100
AcDbEntity
  8
0
100
AcDbLine
 62
7
  6
CONTINUOUS
 10
152.3790915019
 20
74.291360735
 11
152.2276995019
 21
74.850280735
  0
LINE
  5
2AC
100
AcDbEntity
  8
0
100
AcDbLine
 62
7
  6
CONTINUOUS
 10
152.1109055019
 20
75.282770735
 11
151.8423625019
 21
76.321776735
  0
LINE
  5
2AD
100
AcDbEntity
  8
0
100
AcDbLine
 62
7
  6
CONTINUOUS
 10
150.6007375019
 20
74.291360735
 11
150.3389335019
 21
77.091063735
  0
LINE
  5
2AE
100
AcDbEntity
  8
0
100
AcDbLine
 62
7
  6
CONTINUOUS
 10
150.0290315019
 20
74.291360735
 11
149.9089625019
 21
76.111892735
  0
LINE
  5
2AF
100
AcDbEntity
  8
0
100
AcDbLine
 62
7
  6
CONTINUOUS
 10
146.8623405019
 20
74.291360735
 11
146.8623405019
 21
77.091231735
  0
LINE
  5
2B0
100
AcDbEntity
  8
0
100
AcDbLine
 62
7
  6
CONTINUOUS
 10
147.4467485019
 20
74.291360735
 11
147.4467485019
 21
77.091231735
  0
LINE
  5
2B1
100
AcDbEntity
  8
0
100
AcDbLine
 62
7
  6
CONTINUOUS
 10
148.3204425019
 20
74.291360735
 11
148.4465575019
 21
76.119514735
  0
LWPOLYLINE
  5
2B2
100
AcDbEntity
  8
0
100
AcDbPolyline
 62
7
  6
CONTINUOUS
 90
24
 70
0
 10
154.983032653
 20
75.1332186649
 10
154.9770893158
 20
75.1541460684
 10
154.9708517025
 20
75.1750840619
 10
154.9643065898
 20
75.196026324
 10
154.957467201
 20
75.2169791753
 10
154.9501800199
 20
75.2380064376
 10
154.9424437621
 20
75.259126048
 10
154.934259712
 20
75.2803200781
 10
154.9254782074
 20
75.3015985569
 10
154.9161136488
 20
75.3229935232
 10
154.9061516357
 20
75.3444729488
 10
154.895399303
 20
75.3659507566
 10
154.8838927008
 20
75.3874514967
 10
154.8715957792
 20
75.4089506178
 10
154.8582075236
 20
75.4302883743
 10
154.8437948947
 20
75.4515187514
 10
154.8282909319
 20
75.4725877429
 10
154.8111937389
 20
75.4931735844
 10
154.7925219536
 20
75.5134526652
 10
154.7722569381
 20
75.5332485407
 10
154.7498408827
 20
75.5517101248
 10
154.7250878507
 20
75.5685536511
 10
154.6981837787
 20
75.5840627301
 10
154.6691286668
 20
75.5982372981
  0
LWPOLYLINE
  5
2B3
100
AcDbEntity
  8
0
100
AcDbPolyline
 62
7
  6
CONTINUOUS
 90
3
 70
0
 10
155.0003849068
 20
75.0702009907
 10
154.9946804484
 20
75.0912461224
 10
154.983032653
 20
75.1332186649
  0
LINE
  5
2B4
100
AcDbEntity
  8
0
100
AcDbLine
 62
7
  6
CONTINUOUS
 10
155.0753171281
 20
74.7892143783
 11
155.0003849068
 21
75.0702009907
  0
LINE
  5
2B5
100
AcDbEntity
  8
0
100
AcDbLine
 62
7
  6
CONTINUOUS
 10
155.2057737138
 20
74.2913603806
 11
155.0753171281
 21
74.7892143783
  0
LINE
  5
2B6
100
AcDbEntity
  8
0
100
AcDbLine
 62
7
  6
CONTINUOUS
 10
153.1666443042
 20
74.2913603806
 11
153.1666443042
 21
77.0583543939
  0
LINE
  5
2B7
100
AcDbEntity
  8
0
100
AcDbLine
 62
7
  6
CONTINUOUS
 10
153.729322756
 20
75.8455336484
 11
153.729322756
 21
76.614106939
  0
LINE
  5
2B8
100
AcDbEntity
  8
0
100
AcDbLine
 62
7
  6
CONTINUOUS
 10
153.7487008468
 20
74.2913603806
 11
153.7487008468
 21
75.3870098102
  0
LINE
  5
2B9
100
AcDbEntity
  8
0
100
AcDbLine
 62
7
  6
CONTINUOUS
 10
147.7613535019
 20
74.291360735
 11
148.0141505019
 21
77.091063735
  0
LINE
  5
2BA
100
AcDbEntity
  8
0
100
AcDbLine
 62
7
  6
CONTINUOUS
 10
145.5114795019
 20
75.163941735
 11
146.0614565019
 21
77.091063735
  0
LINE
  5
2BB
100
AcDbEntity
  8
0
100
AcDbLine
 62
7
  6
CONTINUOUS
 10
154.6691286668
 20
75.5982372981
 11
154.6691286668
 21
75.6147811069
  0
LWPOLYLINE
  5
2BC
100
AcDbEntity
  8
0
100
AcDbPolyline
 62
7
  6
CONTINUOUS
 90
31
 70
0
 10
154.5172810289
 20
76.2801454677
 10
154.5169751265
 20
76.256186068
 10
154.5155902452
 20
76.2324351917
 10
154.513126385
 20
76.2088928261
 10
154.509582377
 20
76.185532893
 10
154.50495939
 20
76.1623814465
 10
154.4992609303
 20
76.139516667
 10
154.4925304407
 20
76.116920727
 10
154.4847244783
 20
76.0946114196
 10
154.4757162209
 20
76.0727203433
 10
154.4655017089
 20
76.0511553007
 10
154.454084902
 20
76.0300084424
 10
154.4413508568
 20
76.0096878558
 10
154.4272494676
 20
75.9901564565
 10
154.4118308402
 20
75.9714512357
 10
154.3951303481
 20
75.9540913435
 10
154.3770210083
 20
75.9382149658
 10
154.3576298038
 20
75.9236837815
 10
154.337373058
 20
75.9106021549
 10
154.3162121277
 20
75.8990765316
 10
154.294185656
 20
75.8890003583
 10
154.2718258962
 20
75.8801585117
 10
154.2492418981
 20
75.8725784016
 10
154.226324612
 20
75.8662325577
 10
154.2032791417
 20
75.8608235551
 10
154.1801523195
 20
75.8563231388
 10
154.1568973131
 20
75.8527595365
 10
154.1335787309
 20
75.8499200595
 10
154.1102181088
 20
75.8477338088
 10
154.0867939109
 20
75.8462716728
 10
154.0633061371
 20
75.8455336484
  0
LINE
  5
2BD
100
AcDbEntity
  8
0
100
AcDbLine
 62
7
  6
CONTINUOUS
 10
145.7455285019
 20
74.291360735
 11
146.6454655019
 21
77.091063735
  0
LINE
  5
2BE
100
AcDbEntity
  8
RACCORDO
100
AcDbLine
 62
253
  6
CONTINUOUS
 10
138.5145469594
 20
81.3859512906
 11
138.5966255019
 21
81.4680653628
  0
LINE
  5
2BF
100
AcDbEntity
  8
RACCORDO
100
AcDbLine
 62
253
  6
CONTINUOUS
 10
138.5145468714
 20
124.9523260043
 11
138.5966255019
 21
124.8702581072
  0
LINE
  5
2C0
100
AcDbEntity
  8
RACCORDO
100
AcDbLine
 62
253
  6
CONTINUOUS
 10
161.1787040434
 20
124.9523727143
 11
161.1940798071
 21
117.6941436908
  0
LINE
  5
2C1
100
AcDbEntity
  8
RACCORDO
100
AcDbLine
 62
253
  6
CONTINUOUS
 10
161.1940798071
 20
117.6941436908
 11
161.2033059581
 21
110.4328349101
  0
LINE
  5
2C2
100
AcDbEntity
  8
RACCORDO
100
AcDbLine
 62
253
  6
CONTINUOUS
 10
161.2033059581
 20
110.4328349101
 11
161.2063820436
 21
103.1691570924
  0
LINE
  5
2C3
100
AcDbEntity
  8
RACCORDO
100
AcDbLine
 62
253
  6
CONTINUOUS
 10
160.3763586539
 20
126.2747478719
 11
160.3763586534
 21
125.7477985147
  0
LINE
  5
2C4
100
AcDbEntity
  8
RACCORDO
100
AcDbLine
 62
253
  6
CONTINUOUS
 10
160.3763586539
 20
80.0635755981
 11
160.3763586539
 21
80.5905249552
  0
LINE
  5
2C5
100
AcDbEntity
  8
RACCORDO
100
AcDbLine
 62
7
  6
CONTINUOUS
 10
161.0966255019
 20
81.469161735
 11
161.0966255019
 21
124.869161735
  0
LINE
  5
2C6
100
AcDbEntity
  8
RACCORDO
100
AcDbLine
 62
253
  6
CONTINUOUS
 10
161.2063820436
 20
103.1691570924
 11
161.2033059423
 21
95.9054752784
  0
LINE
  5
2C7
100
AcDbEntity
  8
RACCORDO
100
AcDbLine
 62
253
  6
CONTINUOUS
 10
161.2033059423
 20
95.9054752784
 11
161.1940798161
 21
88.6441826923
  0
LINE
  5
2C8
100
AcDbEntity
  8
RACCORDO
100
AcDbLine
 62
253
  6
CONTINUOUS
 10
161.1940798161
 20
88.6441826923
 11
161.1787041299
 21
81.3859960934
  0
LINE
  5
2C9
100
AcDbEntity
  8
0
100
AcDbLine
 62
7
  6
CONTINUOUS
 10
151.5513765019
 20
75.282770735
 11
151.8423625019
 21
76.321776735
  0
LINE
  5
2CA
100
AcDbEntity
  8
0
100
AcDbLine
 62
7
  6
CONTINUOUS
 10
151.2705725019
 20
74.291360735
 11
151.4318325019
 21
74.850280735
  0
LINE
  5
2CB
100
AcDbEntity
  8
0
100
AcDbLine
 62
7
  6
CONTINUOUS
 10
150.6925055019
 20
74.291360735
 11
151.5706705019
 21
77.091063735
  0
LINE
  5
2CC
100
AcDbEntity
  8
0
100
AcDbLine
 62
7
  6
CONTINUOUS
 10
149.1763115019
 20
75.536659735
 11
149.7607195019
 21
77.091063735
  0
LINE
  5
2CD
100
AcDbEntity
  8
0
100
AcDbLine
 62
7
  6
CONTINUOUS
 10
149.2141015019
 20
74.291360735
 11
149.9089625019
 21
76.111892735
  0
LINE
  5
2CE
100
AcDbEntity
  8
RACCORDO
100
AcDbLine
 62
253
  6
CONTINUOUS
 10
139.3169124754
 20
80.5905249552
 11
139.3955291297
 21
80.669161735
  0
LWPOLYLINE
  5
2CF
100
AcDbEntity
  8
RACCORDO
100
AcDbPolyline
 62
253
  6
CONTINUOUS
 90
12
 70
0
 10
138.5120207628
 20
80.7410923312
 10
138.5388830835
 20
80.7633756344
 10
138.563963835
 20
80.7844059306
 10
138.5870823116
 20
80.8040316975
 10
138.6080719455
 20
80.822111532
 10
138.6267815072
 20
80.8385151698
 10
138.643076195
 20
80.8531244233
 10
138.6568386063
 20
80.8658340334
 10
138.6679695835
 20
80.8765524279
 10
138.6763889284
 20
80.8852023811
 10
138.6820359797
 20
80.8917215705
 10
138.6848700509
 20
80.8960630256
  0
LINE
  5
2D0
100
AcDbEntity
  8
RACCORDO
100
AcDbLine
 62
253
  6
CONTINUOUS
 10
138.4537370238
 20
80.6934167764
 11
138.5120207628
 21
80.7410923312
  0
LINE
  5
2D1
100
AcDbEntity
  8
RACCORDO
100
AcDbLine
 62
253
  6
CONTINUOUS
 10
138.3907893208
 20
80.6427507931
 11
138.4537370238
 21
80.6934167764
  0
LWPOLYLINE
  5
2D2
100
AcDbEntity
  8
RACCORDO
100
AcDbPolyline
 62
253
  6
CONTINUOUS
 90
3
 70
0
 10
138.2916080465
 20
80.5643464032
 10
138.3249885292
 20
80.5905519368
 10
138.3907893208
 20
80.6427507931
  0
LINE
  5
2D3
100
AcDbEntity
  8
RACCORDO
100
AcDbLine
 62
253
  6
CONTINUOUS
 10
138.2916080463
 20
125.7739770179
 11
138.3581285892
 21
125.721573724
  0
LINE
  5
2D4
100
AcDbEntity
  8
RACCORDO
100
AcDbLine
 62
253
  6
CONTINUOUS
 10
138.3581285892
 20
125.721573724
 11
138.4227356546
 21
125.6699552874
  0
LWPOLYLINE
  5
2D5
100
AcDbEntity
  8
RACCORDO
100
AcDbPolyline
 62
253
  6
CONTINUOUS
 90
14
 70
0
 10
138.4227356546
 20
125.6699552874
 10
138.4835706241
 20
125.6206066684
 10
138.5120210223
 20
125.5972308705
 10
138.5388833949
 20
125.5749475292
 10
138.5639641988
 20
125.5539171955
 10
138.5870827271
 20
125.5342913927
 10
138.6080724111
 20
125.5162115243
 10
138.6267820203
 20
125.4998078553
 10
138.6430767522
 20
125.4851985741
 10
138.6568392034
 20
125.47248894
 10
138.6679702156
 20
125.4617705257
 10
138.6763895898
 20
125.4531205572
 10
138.6820366646
 20
125.4466013573
 10
138.6848707528
 20
125.4422598965
  0
LINE
  5
2D6
100
AcDbEntity
  8
RACCORDO
100
AcDbLine
 62
253
  6
CONTINUOUS
 10
139.3168529889
 20
125.7477985147
 11
139.3955291297
 21
125.669161735
  0
LINE
  5
2D7
100
AcDbEntity
  8
RACCORDO
100
AcDbLine
 62
253
  6
CONTINUOUS
 10
161.6780188794
 20
124.9765671678
 11
161.6933946039
 21
117.7105971851
  0
LINE
  5
2D8
100
AcDbEntity
  8
RACCORDO
100
AcDbLine
 62
253
  6
CONTINUOUS
 10
161.6933946039
 20
117.7105971851
 11
161.7026207318
 21
110.440829202
  0
LINE
  5
2D9
100
AcDbEntity
  8
RACCORDO
100
AcDbLine
 62
253
  6
CONTINUOUS
 10
161.7026207318
 20
110.440829202
 11
161.705696811
 21
103.1691617877
  0
LINE
  5
2DA
100
AcDbEntity
  8
RACCORDO
100
AcDbLine
 62
253
  6
CONTINUOUS
 10
161.705696811
 20
103.1691617877
 11
161.7026207321
 21
95.8974943635
  0
LINE
  5
2DB
100
AcDbEntity
  8
RACCORDO
100
AcDbLine
 62
253
  6
CONTINUOUS
 10
161.7026207321
 20
95.8974943635
 11
161.6933946042
 21
88.6277263456
  0
LINE
  5
2DC
100
AcDbEntity
  8
RACCORDO
100
AcDbLine
 62
253
  6
CONTINUOUS
 10
161.6933946042
 20
88.6277263456
 11
161.6780188794
 21
81.3617563021
  0
LWPOLYLINE
  5
2DD
100
AcDbEntity
  8
RACCORDO
100
AcDbPolyline
 62
253
  6
CONTINUOUS
 90
13
 70
0
 10
161.6780188794
 20
81.3617563021
 10
161.6759404042
 20
81.2908080298
 10
161.669965534
 20
81.2202485836
 10
161.6600942689
 20
81.1500779564
 10
161.6463031129
 20
81.0800528955
 10
161.6286155619
 20
81.0104166429
 10
161.6071021042
 20
80.9418989172
 10
161.5816445817
 20
80.8744241657
 10
161.5523611525
 20
80.8080678951
 10
161.5196767792
 20
80.7437863758
 10
161.4837331161
 20
80.6818983273
 10
161.4443885089
 20
80.622084941
 10
161.4016429576
 20
80.5643461765
  0
LWPOLYLINE
  5
2DE
100
AcDbEntity
  8
RACCORDO
100
AcDbPolyline
 62
253
  6
CONTINUOUS
 90
13
 70
0
 10
161.1787041382
 20
81.3859960851
 10
161.1774048295
 20
81.3424209808
 10
161.1737100441
 20
81.2988930729
 10
161.1676154289
 20
81.2555437366
 10
161.1591245326
 20
81.2125083188
 10
161.148247368
 20
81.1699164507
 10
161.1349988452
 20
81.1278920503
 10
161.1193829972
 20
81.0865204207
 10
161.101445796
 20
81.0459840585
 10
161.0812971917
 20
81.0065424076
 10
161.0590310228
 20
80.9683548586
 10
161.0347000612
 20
80.9314912283
 10
161.0083841735
 20
80.8960605149
  0
LINE
  5
2DF
100
AcDbEntity
  8
RACCORDO
100
AcDbLine
 62
253
  6
CONTINUOUS
 10
129.9781555102
 20
63.299321278
 11
129.8466255019
 21
63.1677912697
  0
LINE
  5
2E0
100
AcDbEntity
  8
RACCORDO
100
AcDbLine
 62
253
  6
CONTINUOUS
 10
129.9781555102
 20
143.0390021919
 11
129.8466255019
 21
143.1705322002
  0
LINE
  5
2E1
100
AcDbEntity
  8
RACCORDO
100
AcDbLine
 62
253
  6
CONTINUOUS
 10
168.7251560448
 20
62.5220852666
 11
168.7251560447
 21
62.2920016573
  0
LINE
  5
2E2
100
AcDbEntity
  8
RACCORDO
100
AcDbLine
 62
253
  6
CONTINUOUS
 10
168.7251560448
 20
143.8162382033
 11
168.7251560448
 21
144.0463218126
  0
LINE
  5
2E3
100
AcDbEntity
  8
RACCORDO
100
AcDbLine
 62
253
  6
CONTINUOUS
 10
130.968094959
 20
62.2920016573
 11
130.8452550367
 21
62.169161735
  0
LINE
  5
2E4
100
AcDbEntity
  8
RACCORDO
100
AcDbLine
 62
253
  6
CONTINUOUS
 10
130.968094959
 20
144.0463218126
 11
130.8452550367
 21
144.169161735
  0
LWPOLYLINE
  5
2E5
100
AcDbEntity
  8
RACCORDO
100
AcDbPolyline
 62
253
  6
CONTINUOUS
 90
25
 70
0
 10
169.7150954936
 20
143.0390021919
 10
169.7134180484
 20
143.10582352
 10
169.707359216
 20
143.1722761428
 10
169.6969607877
 20
143.2380731156
 10
169.682283218
 20
143.3029449682
 10
169.6634040525
 20
143.3666005005
 10
169.6404243328
 20
143.4287300709
 10
169.6134665769
 20
143.4890666821
 10
169.582665339
 20
143.5473659148
 10
169.5481725632
 20
143.6033693347
 10
169.5101597514
 20
143.6568445515
 10
169.468806961
 20
143.7075818396
 10
169.4243011569
 20
143.7553763866
 10
169.3768526284
 20
143.8000358445
 10
169.3266749671
 20
143.8413920428
 10
169.2739731032
 20
143.8792947735
 10
169.2189850387
 20
143.9135948447
 10
169.1619475985
 20
143.9441668593
 10
169.1030697471
 20
143.9709101537
 10
169.0426003887
 20
143.9937210727
 10
168.9807985996
 20
144.0125121314
 10
168.9178915599
 20
144.0272187492
 10
168.8541314915
 20
144.0377825493
 10
168.7897966455
 20
144.0441585761
 10
168.7251560448
 20
144.0463218126
  0
LWPOLYLINE
  5
2E6
100
AcDbEntity
  8
RACCORDO
100
AcDbPolyline
 62
253
  6
CONTINUOUS
 90
25
 70
0
 10
169.4155066332
 20
143.1063656839
 10
169.4144997398
 20
143.1536272614
 10
169.4104977112
 20
143.200283434
 10
169.4035005475
 20
143.2463343914
 10
169.3934400682
 20
143.2919967189
 10
169.3803844538
 20
143.3370541583
 10
169.3645382453
 20
143.3808578421
 10
169.3458653673
 20
143.4233655868
 10
169.3244018951
 20
143.464620347
 10
169.300460596
 20
143.5041013139
 10
169.2740129581
 20
143.5417794336
 10
169.2450874933
 20
143.5776847467
 10
169.214082504
 20
143.6113853225
 10
169.1809754152
 20
143.642851039
 10
169.145788802
 20
143.6721130649
 10
169.1089886918
 20
143.6988315415
 10
169.0705656273
 20
143.7229716643
 10
169.0305290658
 20
143.7445691879
 10
168.9893734068
 20
143.7633901319
 10
168.9470697892
 20
143.7794055854
 10
168.9036470741
 20
143.792645173
 10
168.8596862439
 20
143.8029626852
 10
168.8153809594
 20
143.8103095186
 10
168.7705375597
 20
143.8147346595
 10
168.7251560448
 20
143.8162382033
  0
LWPOLYLINE
  5
2E7
100
AcDbEntity
  8
RACCORDO
100
AcDbPolyline
 62
253
  6
CONTINUOUS
 90
9
 70
0
 10
169.4155066332
 20
63.231957786
 10
169.393624653
 20
65.1333622734
 10
169.3737061436
 20
67.0425754072
 10
169.3557511051
 20
68.9588649704
 10
169.3397542852
 20
70.8814775618
 10
169.3257209361
 20
72.80969432
 10
169.313666815
 20
74.7428317128
 10
169.3035971743
 20
76.6801675315
 10
169.2955067615
 20
78.6209406699
  0
LWPOLYLINE
  5
2E8
100
AcDbEntity
  8
RACCORDO
100
AcDbPolyline
 62
253
  6
CONTINUOUS
 90
9
 70
0
 10
169.7150954936
 20
63.299321278
 10
169.6932144499
 20
65.1961058119
 10
169.6732965161
 20
67.0992504419
 10
169.6553416923
 20
69.0087551681
 10
169.6393445476
 20
70.9253581197
 10
169.6253105129
 20
72.8483211675
 10
169.6132558807
 20
74.7754299236
 10
169.6031860817
 20
76.7059462586
 10
169.5950956852
 20
78.6406083019
  0
LINE
  5
2E9
100
AcDbEntity
  8
RACCORDO
100
AcDbLine
 62
253
  6
CONTINUOUS
 10
169.2955067615
 20
78.6209406699
 11
169.2803054706
 21
84.3290935818
  0
LINE
  5
2EA
100
AcDbEntity
  8
RACCORDO
100
AcDbLine
 62
253
  6
CONTINUOUS
 10
169.5950956852
 20
78.6406083019
 11
169.5798944061
 21
84.3420534395
  0
LINE
  5
2EB
100
AcDbEntity
  8
RACCORDO
100
AcDbLine
 62
253
  6
CONTINUOUS
 10
169.2803054706
 20
84.3290935818
 11
169.2670825795
 21
91.8625859724
  0
LINE
  5
2EC
100
AcDbEntity
  8
RACCORDO
100
AcDbLine
 62
253
  6
CONTINUOUS
 10
169.5798944061
 20
84.3420534395
 11
169.5666714545
 21
91.8701125866
  0
LINE
  5
2ED
100
AcDbEntity
  8
RACCORDO
100
AcDbLine
 62
253
  6
CONTINUOUS
 10
169.2670825795
 20
91.8625859724
 11
169.2604692152
 21
99.3999035485
  0
LINE
  5
2EE
100
AcDbEntity
  8
RACCORDO
100
AcDbLine
 62
253
  6
CONTINUOUS
 10
169.5666714545
 20
91.8701125866
 11
169.5600580747
 21
99.4025029585
  0
LINE
  5
2EF
100
AcDbEntity
  8
RACCORDO
100
AcDbLine
 62
7
  6
CONTINUOUS
 10
169.8466255019
 20
63.1677912697
 11
169.8466255019
 21
143.1705322002
  0
LINE
  5
2F0
100
AcDbEntity
  8
RACCORDO
100
AcDbLine
 62
253
  6
CONTINUOUS
 10
169.2604692152
 20
99.3999035485
 11
169.2604692148
 21
106.9384189152
  0
LINE
  5
2F1
100
AcDbEntity
  8
RACCORDO
100
AcDbLine
 62
253
  6
CONTINUOUS
 10
169.5600580747
 20
99.4025029585
 11
169.5600580754
 21
106.9358216558
  0
LINE
  5
2F2
100
AcDbEntity
  8
RACCORDO
100
AcDbLine
 62
253
  6
CONTINUOUS
 10
169.2604692148
 20
106.9384189152
 11
169.2670825785
 21
114.4757367806
  0
LINE
  5
2F3
100
AcDbEntity
  8
RACCORDO
100
AcDbLine
 62
253
  6
CONTINUOUS
 10
169.5600580754
 20
106.9358216558
 11
169.5666714563
 21
114.4682122403
  0
LINE
  5
2F4
100
AcDbEntity
  8
RACCORDO
100
AcDbLine
 62
253
  6
CONTINUOUS
 10
169.2670825785
 20
114.4757367806
 11
169.2803054697
 21
122.0092294336
  0
LINE
  5
2F5
100
AcDbEntity
  8
RACCORDO
100
AcDbLine
 62
253
  6
CONTINUOUS
 10
169.5666714563
 20
114.4682122403
 11
169.5798944071
 21
121.996270671
  0
LWPOLYLINE
  5
2F6
100
AcDbEntity
  8
RACCORDO
100
AcDbPolyline
 62
253
  6
CONTINUOUS
 90
10
 70
0
 10
169.2803054697
 20
122.0092294336
 10
169.2955067627
 20
127.7173825555
 10
169.3035971751
 20
129.6581555522
 10
169.3136668125
 20
131.595491018
 10
169.3257209243
 20
133.5286275783
 10
169.3397542611
 20
135.4568432982
 10
169.3557510752
 20
137.3794554537
 10
169.3737061173
 20
139.2957454461
 10
169.3936246366
 20
141.2049595978
 10
169.4155066332
 20
143.1063656839
  0
LWPOLYLINE
  5
2F7
100
AcDbEntity
  8
RACCORDO
100
AcDbPolyline
 62
253
  6
CONTINUOUS
 90
10
 70
0
 10
169.5798944071
 20
121.996270671
 10
169.5950957107
 20
127.6977213533
 10
169.6031861414
 20
129.6323892452
 10
169.613255983
 20
131.5629110921
 10
169.6253106864
 20
133.4900266363
 10
169.6393448007
 20
135.4129961356
 10
169.6553419738
 20
137.3296003634
 10
169.6732967549
 20
139.2390995776
 10
169.6932145949
 20
141.1422335205
 10
169.7150954936
 20
143.0390021919
  0
LWPOLYLINE
  5
2F8
100
AcDbEntity
  8
RACCORDO
100
AcDbPolyline
 62
253
  6
CONTINUOUS
 90
16
 70
0
 10
161.5528243154
 20
124.9754777213
 10
161.5124812512
 20
124.9747807395
 10
161.473315583
 20
124.9739241233
 10
161.4356058791
 20
124.9729139654
 10
161.3996203518
 20
124.9717574506
 10
161.3656149503
 20
124.9704628047
 10
161.3338315401
 20
124.9690392359
 10
161.3044961824
 20
124.9674968695
 10
161.2778175269
 20
124.9658466756
 10
161.2539853269
 20
124.9641003913
 10
161.2331690904
 20
124.9622704372
 10
161.2155168741
 20
124.960369829
 10
161.2011542304
 20
124.9584120847
 10
161.1901833144
 20
124.9564111291
 10
161.1826821575
 20
124.9543811939
 10
161.1787041121
 20
124.9523367173
  0
LWPOLYLINE
  5
2F9
100
AcDbEntity
  8
RACCORDO
100
AcDbPolyline
 62
253
  6
CONTINUOUS
 90
16
 70
0
 10
130.4038551732
 20
125.7739772929
 10
130.3735370733
 20
125.7738204246
 10
130.3435294149
 20
125.7735108549
 10
130.3141394604
 20
125.7730517537
 10
130.2856681475
 20
125.7724478219
 10
130.2584070076
 20
125.7717052435
 10
130.2326351802
 20
125.770831622
 10
130.2086165554
 20
125.769835903
 10
130.1865970713
 20
125.768728282
 10
130.1668021956
 20
125.7675201006
 10
130.1494346176
 20
125.7662237297
 10
130.1346721721
 20
125.7648524437
 10
130.1226660188
 20
125.7634202837
 10
130.1135390943
 20
125.7619419144
 10
130.1073848536
 20
125.7604324733
 10
130.1042663128
 20
125.7589074165
  0
LWPOLYLINE
  5
2FA
100
AcDbEntity
  8
RACCORDO
100
AcDbPolyline
 62
253
  6
CONTINUOUS
 90
3
 70
0
 10
161.6780188794
 20
124.9765671671
 10
161.6358885291
 20
124.976374123
 10
161.5528243154
 20
124.9754777213
  0
LINE
  5
2FB
100
AcDbEntity
  8
RACCORDO
100
AcDbLine
 62
7
  6
CONTINUOUS
 10
160.2966255019
 20
125.669161735
 11
139.3966255019
 21
125.669161735
  0
LINE
  5
2FC
100
AcDbEntity
  8
RACCORDO
100
AcDbLine
 62
253
  6
CONTINUOUS
 10
139.3168529889
 20
125.7477985147
 11
160.3763385284
 21
125.7477985147
  0
LINE
  5
2FD
100
AcDbEntity
  8
RACCORDO
100
AcDbLine
 62
253
  6
CONTINUOUS
 10
130.4038552939
 20
125.7739162016
 11
138.2916080463
 21
125.7739772934
  0
LINE
  5
2FE
100
AcDbEntity
  8
RACCORDO
100
AcDbLine
 62
253
  6
CONTINUOUS
 10
161.4016429576
 20
125.7739772934
 11
169.2893957094
 21
125.7739159493
  0
LWPOLYLINE
  5
2FF
100
AcDbEntity
  8
RACCORDO
100
AcDbPolyline
 62
253
  6
CONTINUOUS
 90
16
 70
0
 10
169.2893958307
 20
125.7739772912
 10
169.3197139284
 20
125.7738204229
 10
169.3497215848
 20
125.7735108533
 10
169.3791115374
 20
125.7730517521
 10
169.4075828486
 20
125.7724478204
 10
169.4348439871
 20
125.7717052421
 10
169.4606158134
 20
125.7708316208
 10
169.4846344374
 20
125.7698359019
 10
169.5066539213
 20
125.7687282811
 10
169.5264487971
 20
125.7675200997
 10
169.5438163757
 20
125.7662237291
 10
169.5585788223
 20
125.7648524432
 10
169.5705849772
 20
125.7634202833
 10
169.5797119038
 20
125.7619419141
 10
169.5858661472
 20
125.7604324732
 10
169.5889846911
 20
125.7589074165
  0
LWPOLYLINE
  5
300
100
AcDbEntity
  8
RACCORDO
100
AcDbPolyline
 62
253
  6
CONTINUOUS
 90
18
 70
0
 10
138.0152321247
 20
124.9765666861
 10
138.0991939686
 20
124.9760097453
 10
138.1404280073
 20
124.9754774071
 10
138.1807716542
 20
124.974780473
 10
138.2199379522
 20
124.9739239002
 10
138.2576483186
 20
124.9729137813
 10
138.2936345262
 20
124.9717573011
 10
138.3276406115
 20
124.9704626854
 10
138.3594246953
 20
124.9690391426
 10
138.3887607032
 20
124.9674967981
 10
138.4154399734
 20
124.9658466224
 10
138.4392727409
 20
124.9641003528
 10
138.4600894875
 20
124.9622704103
 10
138.4777421475
 20
124.9603698109
 10
138.4921051606
 20
124.9584120733
 10
138.5030763654
 20
124.9564111225
 10
138.5105777254
 20
124.9543811909
 10
138.514555885
 20
124.9523367171
  0
LWPOLYLINE
  5
301
100
AcDbEntity
  8
RACCORDO
100
AcDbPolyline
 62
253
  6
CONTINUOUS
 90
13
 70
0
 10
161.0083841735
 20
125.442262955
 10
161.034443418
 20
125.407198467
 10
161.0585854565
 20
125.3706854654
 10
161.0807254877
 20
125.3328254013
 10
161.1007906307
 20
125.2937118311
 10
161.1186986744
 20
125.2534687414
 10
161.1343658633
 20
125.2122535577
 10
161.1477396347
 20
125.1701799986
 10
161.158768274
 20
125.1273831171
 10
161.1673977293
 20
125.0840631159
 10
161.1736027588
 20
125.0403771447
 10
161.1773740082
 20
124.9964355962
 10
161.1787040102
 20
124.9523726819
  0
LWPOLYLINE
  5
302
100
AcDbEntity
  8
RACCORDO
100
AcDbPolyline
 62
253
  6
CONTINUOUS
 90
13
 70
0
 10
161.4016429576
 20
125.7739772934
 10
161.4440572077
 20
125.7167145212
 10
161.4831282902
 20
125.6574015903
 10
161.5188562049
 20
125.596038461
 10
161.5513657922
 20
125.5323993704
 10
161.5805322118
 20
125.4667099955
 10
161.6059809425
 20
125.3996474695
 10
161.6276550676
 20
125.331186454
 10
161.6456115039
 20
125.2613522289
 10
161.6596464804
 20
125.1908978863
 10
161.6696920733
 20
125.1200744564
 10
161.6758162063
 20
125.0486308877
 10
161.6780188794
 20
124.9765671678
  0
LWPOLYLINE
  5
303
100
AcDbEntity
  8
RACCORDO
100
AcDbPolyline
 62
253
  6
CONTINUOUS
 90
16
 70
0
 10
161.4016429576
 20
80.5643461765
 10
161.3513959675
 20
80.5037895401
 10
161.2978507042
 20
80.4466494766
 10
161.2410071676
 20
80.3929257033
 10
161.1805720692
 20
80.3423853243
 10
161.1168386976
 20
80.2952607178
 10
161.050686918
 20
80.2522494779
 10
160.9821645428
 20
80.2134703073
 10
160.9112237597
 20
80.1788039695
 10
160.8386009974
 20
80.1485911131
 10
160.7642697712
 20
80.1228685924
 10
160.6882565659
 20
80.1015991469
 10
160.6113772632
 20
80.0850122706
 10
160.533903824
 20
80.0731843844
 10
160.4555642876
 20
80.0660388456
 10
160.3763586539
 20
80.0635755981
  0
LWPOLYLINE
  5
304
100
AcDbEntity
  8
RACCORDO
100
AcDbPolyline
 62
253
  6
CONTINUOUS
 90
16
 70
0
 10
161.0083841735
 20
80.8960605149
 10
160.977510071
 20
80.8591625857
 10
160.9443996137
 20
80.8241244145
 10
160.9091613901
 20
80.791084235
 10
160.8718800068
 20
80.7601502198
 10
160.8327111218
 20
80.7314756596
 10
160.7918955743
 20
80.7052387789
 10
160.7496316812
 20
80.6815549228
 10
160.7060342198
 20
80.660476552
 10
160.6612364308
 20
80.6420609663
 10
160.6153968069
 20
80.6263741553
 10
160.5686865907
 20
80.6134756348
 10
160.5212601889
 20
80.6034066629
 10
160.4732843014
 20
80.5962058741
 10
160.4249383017
 20
80.5919055176
 10
160.376398082
 20
80.5905248891
  0
LWPOLYLINE
  5
305
100
AcDbEntity
  8
0
100
AcDbPolyline
 62
7
  6
CONTINUOUS
 90
51
 70
0
 10
154.7260107676
 20
75.6392622024
 10
154.738518352
 20
75.6488069722
 10
154.7511087799
 20
75.6588972779
 10
154.7639497209
 20
75.6692832211
 10
154.7768735054
 20
75.6802147289
 10
154.7900753258
 20
75.6916921628
 10
154.8036611902
 20
75.7036597366
 10
154.8175250905
 20
75.7161732736
 10
154.8315441944
 20
75.7294005582
 10
154.8457436919
 20
75.7433297221
 10
154.8600983932
 20
75.7579726911
 10
154.8744098964
 20
75.7735329582
 10
154.8886700826
 20
75.7900207506
 10
154.9028870707
 20
75.8074259288
 10
154.9168868158
 20
75.8259214571
 10
154.9306657542
 20
75.8455409045
 10
154.9442274496
 20
75.8662508257
 10
154.9574085479
 20
75.8881236826
 10
154.9702182619
 20
75.9111420492
 10
154.9826473788
 20
75.935323503
 10
154.9945049061
 20
75.960793029
 10
155.0058260571
 20
75.9875625797
 10
155.0165756184
 20
76.0156203974
 10
155.0264569576
 20
76.0450559249
 10
155.0354854476
 20
76.0758816683
 10
155.0436457155
 20
76.1080853584
 10
155.0505950096
 20
76.1417192945
 10
155.0563421954
 20
76.176786139
 10
155.0608784074
 20
76.2132835045
 10
155.0638342977
 20
76.2512561321
 10
155.0652793164
 20
76.2906949236
 10
155.0651440132
 20
76.3316092898
 10
155.06285069
 20
76.3740717557
 10
155.0585608878
 20
76.418299893
 10
155.0521130655
 20
76.4640765079
 10
155.042444901
 20
76.5108219191
 10
155.0292718498
 20
76.5590287071
 10
155.0128784563
 20
76.6082045668
 10
154.9930560323
 20
76.656292141
 10
154.9692557927
 20
76.7032720243
 10
154.9420265227
 20
76.7491633161
 10
154.912805889
 20
76.7919659012
 10
154.8815838181
 20
76.8310935957
 10
154.8483703835
 20
76.8671318474
 10
154.814633473
 20
76.899837762
 10
154.7806647398
 20
76.9290168596
 10
154.7461725307
 20
76.954863057
 10
154.7117497736
 20
76.9777161021
 10
154.6775941114
 20
76.9976891415
 10
154.6435079012
 20
77.0146686942
 10
154.6094911431
 20
77.0286546269
  0
LINE
  5
306
100
AcDbEntity
  8
RACCORDO
100
AcDbLine
 62
253
  6
CONTINUOUS
 10
139.31689235
 20
126.2747478719
 11
160.3763586539
 21
126.2747478719
  0
LWPOLYLINE
  5
307
100
AcDbEntity
  8
RACCORDO
100
AcDbPolyline
 62
253
  6
CONTINUOUS
 90
16
 70
0
 10
160.3763384941
 20
125.7477984802
 10
160.4247672263
 20
125.7464279666
 10
160.4730482445
 20
125.7421457277
 10
160.5210056325
 20
125.7349627955
 10
160.5684855834
 20
125.7248967405
 10
160.6152919361
 20
125.7119815166
 10
160.661190252
 20
125.6962796795
 10
160.7059701128
 20
125.6778754297
 10
160.7495183892
 20
125.6568275713
 10
160.7917496358
 20
125.6331723869
 10
160.8325621692
 20
125.6069500897
 10
160.8717411702
 20
125.5782815214
 10
160.9090445961
 20
125.5473422541
 10
160.9443149251
 20
125.5142833612
 10
160.9774651325
 20
125.4792113584
 10
161.0083841735
 20
125.442262955
  0
LWPOLYLINE
  5
308
100
AcDbEntity
  8
RACCORDO
100
AcDbPolyline
 62
253
  6
CONTINUOUS
 90
16
 70
0
 10
160.3763586539
 20
126.2747478719
 10
160.4550455342
 20
126.2723691861
 10
160.5330388978
 20
126.2652876403
 10
160.6103387449
 20
126.253503179
 10
160.6872863631
 20
126.2369323849
 10
160.7635404646
 20
126.2156584526
 10
160.8380771864
 20
126.1899311986
 10
160.9107849481
 20
126.1597268565
 10
160.9817753299
 20
126.1250687867
 10
161.0503592093
 20
126.0862774772
 10
161.1166144611
 20
126.0432144413
 10
161.1804632104
 20
125.9960176278
 10
161.2409827094
 20
125.9454222163
 10
161.2978653757
 20
125.8916731151
 10
161.3514187918
 20
125.8345249012
 10
161.4016429576
 20
125.7739772934
  0
LWPOLYLINE
  5
309
100
AcDbEntity
  8
RACCORDO
100
AcDbPolyline
 62
253
  6
CONTINUOUS
 90
25
 70
0
 10
130.968094959
 20
143.8162382033
 10
130.9226798267
 20
143.8147274011
 10
130.8778166107
 20
143.8102978483
 10
130.8335053109
 20
143.8029494494
 10
130.7895571179
 20
143.7926330682
 10
130.7461608412
 20
143.7793974583
 10
130.7038829089
 20
143.7633892795
 10
130.6627477759
 20
143.7445793778
 10
130.6227309872
 20
143.7229961948
 10
130.5843256065
 20
143.6988727504
 10
130.5475432573
 20
143.6721768981
 10
130.5123723161
 20
143.6429398364
 10
130.4792709753
 20
143.6114896408
 10
130.4482557724
 20
143.5777895881
 10
130.4193101698
 20
143.5418753498
 10
130.3928427474
 20
143.5041837266
 10
130.3688843171
 20
143.4646846357
 10
130.3474040669
 20
143.4234071702
 10
130.3287181403
 20
143.3808771342
 10
130.3128641884
 20
143.3370496939
 10
130.2998045601
 20
143.2919689114
 10
130.2897424452
 20
143.2462942912
 10
130.2827455736
 20
143.200245641
 10
130.2787462155
 20
143.1536028338
 10
130.2777443707
 20
143.1063656839
  0
LWPOLYLINE
  5
30A
100
AcDbEntity
  8
RACCORDO
100
AcDbPolyline
 62
253
  6
CONTINUOUS
 90
16
 70
0
 10
130.2777443707
 20
143.1063656373
 10
130.2474029674
 20
143.1056722401
 10
130.2173727641
 20
143.1042950334
 10
130.187961769
 20
143.1022481429
 10
130.1594716391
 20
143.0995525626
 10
130.1321945868
 20
143.0962359401
 10
130.1064103822
 20
143.0923322927
 10
130.082383484
 20
143.0878816587
 10
130.0603603267
 20
143.0829296863
 10
130.0405667933
 20
143.0775271661
 10
130.0232058986
 20
143.0717295098
 10
130.0084557064
 20
143.0655961814
 10
129.9964675037
 20
143.0591900884
 10
129.987364249
 20
143.0525769354
 10
129.9812393108
 20
143.045824551
 10
129.9781555102
 20
143.0390021919
  0
LINE
  5
30B
100
AcDbEntity
  8
RACCORDO
100
AcDbLine
 62
253
  6
CONTINUOUS
 10
168.7251560448
 20
143.8162382033
 11
130.968094959
 21
143.8162382033
  0
LINE
  5
30C
100
AcDbEntity
  8
RACCORDO
100
AcDbLine
 62
253
  6
CONTINUOUS
 10
168.7251560448
 20
144.0463218126
 11
130.968094959
 21
144.0463218126
  0
LINE
  5
30D
100
AcDbEntity
  8
RACCORDO
100
AcDbLine
 62
7
  6
CONTINUOUS
 10
130.8452550367
 20
144.169161735
 11
168.8479959672
 21
144.169161735
  0
LWPOLYLINE
  5
30E
100
AcDbEntity
  8
RACCORDO
100
AcDbPolyline
 62
253
  6
CONTINUOUS
 90
16
 70
0
 10
169.4155066332
 20
143.1063656454
 10
169.4458473013
 20
143.1056720743
 10
169.4758766972
 20
143.104294721
 10
169.5052868324
 20
143.1022477119
 10
169.5337760694
 20
143.0995520416
 10
169.5610522157
 20
143.0962353575
 10
169.5868355208
 20
143.0923316763
 10
169.6108615448
 20
143.0878810349
 10
169.6328838712
 20
143.0829290803
 10
169.6526766337
 20
143.0775266008
 10
169.6700368329
 20
143.0717290055
 10
169.6847864186
 20
143.0655957559
 10
169.6967741154
 20
143.059189756
 10
169.7058769746
 20
143.0525767074
 10
169.7120016353
 20
143.045824435
 10
169.7150852813
 20
143.0390021917
  0
LWPOLYLINE
  5
30F
100
AcDbEntity
  8
RACCORDO
100
AcDbPolyline
 62
253
  6
CONTINUOUS
 90
25
 70
0
 10
130.968094959
 20
144.0463218126
 10
130.9034459353
 20
144.0441579798
 10
130.8391065137
 20
144.0377807691
 10
130.7753457045
 20
144.0272159347
 10
130.7124438238
 20
144.0125097369
 10
130.6506506382
 20
143.9937209614
 10
130.5901867697
 20
143.9709123017
 10
130.5313081595
 20
143.9441690919
 10
130.4742673964
 20
143.9135956207
 10
130.4192772208
 20
143.8792943395
 10
130.3665757337
 20
143.8413918959
 10
130.3163993062
 20
143.8000368127
 10
130.268951995
 20
143.75537874
 10
130.2244473229
 20
143.7075858192
 10
130.1830955716
 20
143.6568504355
 10
130.1450831764
 20
143.6033766751
 10
130.1105901507
 20
143.5473739032
 10
130.0797882907
 20
143.4890746722
 10
130.0528296609
 20
143.4287373875
 10
130.0298487961
 20
143.3666060086
 10
130.0109685543
 20
143.302947901
 10
129.9962903861
 20
143.2380740263
 10
129.9858917756
 20
143.1722760881
 10
129.9798329304
 20
143.105823156
 10
129.9781555102
 20
143.0390021919
  0
LINE
  5
310
100
AcDbEntity
  8
RACCORDO
100
AcDbLine
 62
7
  6
CONTINUOUS
 10
105.6655083477
 20
62.2920016573
 11
108.0094336963
 21
62.169161735
  0
LINE
  5
311
100
AcDbEntity
  8
RACCORDO
100
AcDbLine
 62
253
  6
CONTINUOUS
 10
105.2593856725
 20
63.2420875298
 11
105.2930304783
 21
63.2504418113
  0
LINE
  5
312
100
AcDbEntity
  8
RACCORDO
100
AcDbLine
 62
253
  6
CONTINUOUS
 10
105.2930304783
 20
63.2504418113
 11
105.3600250178
 21
63.2665939602
  0
LWPOLYLINE
  5
313
100
AcDbEntity
  8
RACCORDO
100
AcDbPolyline
 62
253
  6
CONTINUOUS
 90
3
 70
0
 10
105.3600250178
 20
63.2665939602
 10
105.4702460728
 20
63.2924989189
 10
105.4996916291
 20
63.299321278
  0
LINE
  5
314
100
AcDbEntity
  8
RACCORDO
100
AcDbLine
 62
253
  6
CONTINUOUS
 10
105.4996916291
 20
63.299321278
 11
108.0094336963
 21
63.1677912697
  0
LWPOLYLINE
  5
315
100
AcDbEntity
  8
RACCORDO
100
AcDbPolyline
 62
253
  6
CONTINUOUS
 90
3
 70
0
 10
102.809433707
 20
80.5643461769
 10
102.8109636795
 20
80.5645030453
 10
102.8155459499
 20
80.564812615
  0
LINE
  5
316
100
AcDbEntity
  8
RACCORDO
100
AcDbLine
 62
253
  6
CONTINUOUS
 10
102.8155459499
 20
80.564812615
 11
102.8336489303
 21
80.565875648
  0
LINE
  5
317
100
AcDbEntity
  8
RACCORDO
100
AcDbLine
 62
253
  6
CONTINUOUS
 10
102.8336489303
 20
80.565875648
 11
103.0045930414
 21
80.5749031862
  0
LINE
  5
318
100
AcDbEntity
  8
RACCORDO
100
AcDbLine
 62
253
  6
CONTINUOUS
 10
103.0045930414
 20
80.5749031862
 11
103.0933541684
 21
80.5794160534
  0
LWPOLYLINE
  5
319
100
AcDbEntity
  8
RACCORDO
100
AcDbPolyline
 62
253
  6
CONTINUOUS
 90
9
 70
0
 10
105.6655083477
 20
62.2920016573
 10
105.6641753344
 20
62.2941654902
 10
105.6622047172
 20
62.3005427008
 10
105.6596092446
 20
62.3111075353
 10
105.6563947635
 20
62.325813733
 10
105.6525777021
 20
62.3446025086
 10
105.6481855955
 20
62.3674111683
 10
105.6432180335
 20
62.3941543781
 10
105.6376921396
 20
62.4247278492
  0
LWPOLYLINE
  5
31A
100
AcDbEntity
  8
RACCORDO
100
AcDbPolyline
 62
253
  6
CONTINUOUS
 90
10
 70
0
 10
105.4996916291
 20
63.299321278
 10
105.0821764429
 20
65.1961058119
 10
104.7021196261
 20
67.0992504419
 10
104.3595211789
 20
69.0087551681
 10
104.0542774747
 20
70.9253581197
 10
103.78649214
 20
72.8483211675
 10
103.5564760541
 20
74.7754299236
 10
103.3643328434
 20
76.7059462586
 10
103.2099588815
 20
78.6406083019
 10
103.0933541684
 20
80.5794160534
  0
LINE
  5
31B
100
AcDbEntity
  8
RACCORDO
100
AcDbLine
 62
253
  6
CONTINUOUS
 10
105.4996916291
 20
143.0390021919
 11
105.5390683323
 21
143.3029449682
  0
LINE
  5
31C
100
AcDbEntity
  8
RACCORDO
100
AcDbLine
 62
253
  6
CONTINUOUS
 10
105.5390683323
 20
143.3029449682
 11
105.5677861235
 21
143.4890666821
  0
LINE
  5
31D
100
AcDbEntity
  8
RACCORDO
100
AcDbLine
 62
253
  6
CONTINUOUS
 10
105.5677861235
 20
143.4890666821
 11
105.5944788211
 21
143.6568445515
  0
LINE
  5
31E
100
AcDbEntity
  8
RACCORDO
100
AcDbLine
 62
253
  6
CONTINUOUS
 10
105.5944788211
 20
143.6568445515
 11
105.6180831217
 21
143.8000358445
  0
LWPOLYLINE
  5
31F
100
AcDbEntity
  8
RACCORDO
100
AcDbPolyline
 62
253
  6
CONTINUOUS
 90
11
 70
0
 10
105.6180831217
 20
143.8000358445
 10
105.6316608349
 20
143.8792947735
 10
105.6376926327
 20
143.9135948447
 10
105.6432191167
 20
143.9441668593
 10
105.6481870713
 20
143.9709101537
 10
105.652579403
 20
143.9937210727
 10
105.6563966003
 20
144.0125121314
 10
105.6596110453
 20
144.0272187492
 10
105.6622062132
 20
144.0377825493
 10
105.6641762433
 20
144.0441585761
 10
105.6655083477
 20
144.0463218126
  0
LINE
  5
320
100
AcDbEntity
  8
RACCORDO
100
AcDbLine
 62
253
  6
CONTINUOUS
 10
105.6376921396
 20
62.4247278492
 11
105.6251202874
 21
62.496931574
  0
LINE
  5
321
100
AcDbEntity
  8
RACCORDO
100
AcDbLine
 62
253
  6
CONTINUOUS
 10
105.6251202874
 20
62.496931574
 11
105.6106351885
 21
62.5829447299
  0
LINE
  5
322
100
AcDbEntity
  8
RACCORDO
100
AcDbLine
 62
253
  6
CONTINUOUS
 10
105.6106351885
 20
62.5829447299
 11
105.5858960283
 21
62.7349467949
  0
LINE
  5
323
100
AcDbEntity
  8
RACCORDO
100
AcDbLine
 62
253
  6
CONTINUOUS
 10
105.5858960283
 20
62.7349467949
 11
105.5584039548
 21
62.9095860824
  0
LINE
  5
324
100
AcDbEntity
  8
RACCORDO
100
AcDbLine
 62
253
  6
CONTINUOUS
 10
105.5584039548
 20
62.9095860824
 11
105.5292688839
 21
63.1002494436
  0
LINE
  5
325
100
AcDbEntity
  8
RACCORDO
100
AcDbLine
 62
253
  6
CONTINUOUS
 10
105.5292688839
 20
63.1002494436
 11
105.4996916291
 21
63.299321278
  0
LWPOLYLINE
  5
326
100
AcDbEntity
  8
RACCORDO
100
AcDbPolyline
 62
253
  6
CONTINUOUS
 90
13
 70
0
 10
103.0933541684
 20
80.5794160534
 10
102.9199011989
 20
84.3420534395
 10
102.7779805602
 20
88.1056189505
 10
102.6675922522
 20
91.8701125866
 10
102.5887306847
 20
95.63584371
 10
102.5414014479
 20
99.4025029585
 10
102.5256213125
 20
103.1691622445
 10
102.5414014614
 20
106.9358216558
 10
102.5887307117
 20
110.7024811047
 10
102.6675922854
 20
114.4682122403
 10
102.7779805897
 20
118.2327056123
 10
102.9199012173
 20
121.996270671
 10
103.0933541684
 20
125.7589074165
  0
LWPOLYLINE
  5
327
100
AcDbEntity
  8
RACCORDO
100
AcDbPolyline
 62
253
  6
CONTINUOUS
 90
10
 70
0
 10
103.0933541684
 20
125.7589074165
 10
103.2099593699
 20
127.6977213533
 10
103.364333983
 20
129.6323892452
 10
103.5564780075
 20
131.5629110921
 10
103.7864954497
 20
133.4900266363
 10
104.0542823033
 20
135.4129961356
 10
104.3595265499
 20
137.3296003634
 10
104.7021241833
 20
139.2390995776
 10
105.0821792097
 20
141.1422335205
 10
105.4996916291
 20
143.0390021919
  0
LINE
  5
328
100
AcDbEntity
  8
RACCORDO
100
AcDbLine
 62
7
  6
CONTINUOUS
 10
108.0094336963
 20
62.169161735
 11
108.0094336963
 21
144.169161735
  0
LINE
  5
329
100
AcDbEntity
  8
RACCORDO
100
AcDbLine
 62
7
  6
CONTINUOUS
 10
110.8094336963
 20
142.669161715
 11
110.8094336963
 21
63.6691617031
  0
LINE
  5
32A
100
AcDbEntity
  8
RACCORDO
100
AcDbLine
 62
253
  6
CONTINUOUS
 10
102.846984304
 20
125.7717052421
 11
103.0933541684
 21
125.7589074165
  0
LWPOLYLINE
  5
32B
100
AcDbEntity
  8
RACCORDO
100
AcDbPolyline
 62
253
  6
CONTINUOUS
 90
5
 70
0
 10
102.8094337417
 20
125.7739772912
 10
102.8109637139
 20
125.7738204229
 10
102.8155459834
 20
125.7735108533
 10
102.8231336302
 20
125.7730517521
 10
102.846984304
 20
125.7717052421
  0
LWPOLYLINE
  5
32C
100
AcDbEntity
  8
RACCORDO
100
AcDbPolyline
 62
253
  6
CONTINUOUS
 90
10
 70
0
 10
110.8094336449
 20
64.0720863285
 10
110.6626978312
 20
63.9781478489
 10
110.5134395133
 20
63.889442113
 10
110.3619024091
 20
63.8059691207
 10
110.2080304784
 20
63.7276369194
 10
110.0523456046
 20
63.6545374617
 10
109.8959997853
 20
63.5869466056
 10
109.7395726382
 20
63.5249563039
 10
109.5830187795
 20
63.4684746038
 10
109.4265825556
 20
63.4175015053
  0
LWPOLYLINE
  5
32D
100
AcDbEntity
  8
RACCORDO
100
AcDbPolyline
 62
253
  6
CONTINUOUS
 90
6
 70
0
 10
105.2230535001
 20
63.2319578326
 10
105.2244725288
 20
63.2326512298
 10
105.2288754124
 20
63.2340284365
 10
105.2362169922
 20
63.236075327
 10
105.2464219684
 20
63.2387709073
 10
105.2593856725
 20
63.2420875298
  0
LWPOLYLINE
  5
32E
100
AcDbEntity
  8
RACCORDO
100
AcDbPolyline
 62
253
  6
CONTINUOUS
 90
8
 70
0
 10
105.2230534651
 20
143.1063656454
 10
105.2244733182
 20
143.1056720743
 10
105.2288769089
 20
143.104294721
 10
105.236219073
 20
143.1022477119
 10
105.2464245074
 20
143.0995520416
 10
105.2593885427
 20
143.0962353575
 10
105.2749782167
 20
143.0923316763
 10
105.3133696258
 20
143.0829290803
  0
LWPOLYLINE
  5
32F
100
AcDbEntity
  8
RACCORDO
100
AcDbPolyline
 62
253
  6
CONTINUOUS
 90
10
 70
0
 10
109.4265825556
 20
63.4175015053
 10
109.2756187791
 20
63.3727078253
 10
109.1229376739
 20
63.3321727999
 10
108.9686755124
 20
63.2958964289
 10
108.8132773448
 20
63.2638488401
 10
108.6565825887
 20
63.2360599058
 10
108.4978063935
 20
63.2126192431
 10
108.3367724005
 20
63.1935567245
 10
108.1739313174
 20
63.1788424775
 10
108.0094336939
 20
63.1684765021
  0
LINE
  5
330
100
AcDbEntity
  8
RACCORDO
100
AcDbLine
 62
253
  6
CONTINUOUS
 10
105.4996916291
 20
143.0390021919
 11
108.0094336963
 21
143.1705322002
  0
LINE
  5
331
100
AcDbEntity
  8
RACCORDO
100
AcDbLine
 62
7
  6
CONTINUOUS
 10
105.6655083477
 20
144.0463218126
 11
108.0094336963
 21
144.169161735
  0
LWPOLYLINE
  5
332
100
AcDbEntity
  8
RACCORDO
100
AcDbPolyline
 62
253
  6
CONTINUOUS
 90
10
 70
0
 10
108.0094337276
 20
143.1698469648
 10
108.1665661647
 20
143.1603014395
 10
108.3239421134
 20
143.1463115398
 10
108.4814095663
 20
143.1278772656
 10
108.6385309208
 20
143.1051138134
 10
108.7954339564
 20
143.0779059869
 10
108.9527952714
 20
143.0459081963
 10
109.11070866
 20
143.0090052451
 10
109.2687018521
 20
142.9673123298
 10
109.4265757643
 20
142.9208294505
  0
LINE
  5
333
100
AcDbEntity
  8
RACCORDO
100
AcDbLine
 62
253
  6
CONTINUOUS
 10
105.3858713835
 20
143.0655957559
 11
105.4996921642
 21
143.0390021917
  0
LINE
  5
334
100
AcDbEntity
  8
RACCORDO
100
AcDbLine
 62
253
  6
CONTINUOUS
 10
105.3133696258
 20
143.0829290803
 11
105.3858713835
 21
143.0655957559
  0
LWPOLYLINE
  5
335
100
AcDbEntity
  8
RACCORDO
100
AcDbPolyline
 62
253
  6
CONTINUOUS
 90
10
 70
0
 10
109.4265757643
 20
142.9208294505
 10
109.5919609602
 20
142.86654462
 10
109.7557861537
 20
142.8070327903
 10
109.9178377629
 20
142.7422939612
 10
110.0791912375
 20
142.6715080154
 10
110.23829357
 20
142.5954950702
 10
110.3911966225
 20
142.5167154781
 10
110.5366945721
 20
142.4359893566
 10
110.6760890185
 20
142.352496588
 10
110.8094335949
 20
142.2662371726
  0
ARC
  5
336
100
AcDbEntity
  8
RACCORDO
100
AcDbCircle
 62
7
  6
CONTINUOUS
 10
139.3966255019
 20
81.469161735
 40
0.8
100
AcDbArc
 50
180.0
 51
270.0
  0
ARC
  5
337
100
AcDbEntity
  8
RACCORDO
100
AcDbCircle
 62
7
  6
CONTINUOUS
 10
139.3966255019
 20
124.869161735
 40
0.8
100
AcDbArc
 50
90.0
 51
180.0
  0
ARC
  5
338
100
AcDbEntity
  8
RACCORDO
100
AcDbCircle
 62
7
  6
CONTINUOUS
 10
160.2966255019
 20
124.869161735
 40
0.8
100
AcDbArc
 50
0.0
 51
90.0
  0
ARC
  5
339
100
AcDbEntity
  8
RACCORDO
100
AcDbCircle
 62
7
  6
CONTINUOUS
 10
160.2966255019
 20
81.469161735
 40
0.8
100
AcDbArc
 50
270.0
 51
360.0
  0
ARC
  5
33A
100
AcDbEntity
  8
RACCORDO
100
AcDbCircle
 62
7
  6
CONTINUOUS
 10
202.1170074695
 20
85.559161735
 40
99.4331051068
100
AcDbArc
 50
182.8793110945
 51
193.396246198
  0
ARC
  5
33B
100
AcDbEntity
  8
0
100
AcDbCircle
 62
7
  6
CONTINUOUS
 10
202.1170074695
 20
85.559161735
 40
99.4331051068
100
AcDbArc
 50
184.9043592052
 51
186.5067589855
  0
ARC
  5
33C
100
AcDbEntity
  8
RACCORDO
100
AcDbCircle
 62
7
  6
CONTINUOUS
 10
107.7379538798
 20
67.8493052211
 40
5.1872524353
100
AcDbArc
 50
272.9999999918
 51
306.3076475219
  0
ARC
  5
33D
100
AcDbEntity
  8
0
100
AcDbCircle
 62
7
  6
CONTINUOUS
 10
107.7379538798
 20
67.8493052211
 40
5.1872524353
100
AcDbArc
 50
287.6805558195
 51
289.5889289314
  0
ARC
  5
33E
100
AcDbEntity
  8
RACCORDO
100
AcDbCircle
 62
7
  6
CONTINUOUS
 10
105.6812091345
 20
62.5915905177
 40
0.3
100
AcDbArc
 50
193.396246198
 51
267.0
  0
ARC
  5
33F
100
AcDbEntity
  8
RACCORDO
100
AcDbCircle
 62
7
  6
CONTINUOUS
 10
202.1170074695
 20
120.779161735
 40
99.4331051068
100
AcDbArc
 50
166.603753802
 51
177.1206536947
  0
ARC
  5
340
100
AcDbEntity
  8
RACCORDO
100
AcDbCircle
 62
7
  6
CONTINUOUS
 10
107.7379538798
 20
138.4890182488
 40
5.1872524353
100
AcDbArc
 50
53.6923515107
 51
86.9999996538
  0
ARC
  5
341
100
AcDbEntity
  8
RACCORDO
100
AcDbCircle
 62
7
  6
CONTINUOUS
 10
105.6812064452
 20
143.7467220696
 40
0.3000000003
100
AcDbArc
 50
92.9993783926
 51
166.601612924
  0
ARC
  5
342
100
AcDbEntity
  8
RACCORDO
100
AcDbCircle
 62
7
  6
CONTINUOUS
 10
552.2413220994
 20
103.169161735
 40
450.0
100
AcDbArc
 50
177.1206615151
 51
182.8793385251
  0
ELLIPSE
  5
343
100
AcDbEntity
  8
RACCORDO
100
AcDbEllipse
 62
7
  6
CONTINUOUS
 10
130.8479978479
 20
63.170534081
 30
0.0
 11
0.7090462434
 21
0.7090462434
 31
0.0
 40
0.9972646886
 41
-3.9256212891
 42
-2.3575640181
  0
ELLIPSE
  5
344
100
AcDbEntity
  8
RACCORDO
100
AcDbEllipse
 62
7
  6
CONTINUOUS
 10
168.8452531559
 20
63.170534081
 30
0.0
 11
-0.7090462434
 21
0.7090462434
 31
0.0
 40
0.9972646886
 41
-3.9256212891
 42
-2.3575640181
  0
ELLIPSE
  5
345
100
AcDbEntity
  8
RACCORDO
100
AcDbEllipse
 62
7
  6
CONTINUOUS
 10
168.8452531559
 20
143.167789389
 30
0.0
 11
0.7090462434
 21
0.7090462434
 31
0.0
 40
0.9972646886
 41
-0.7840286355
 42
0.7840286355
  0
ELLIPSE
  5
346
100
AcDbEntity
  8
RACCORDO
100
AcDbEllipse
 62
7
  6
CONTINUOUS
 10
130.8479978479
 20
143.167789389
 30
0.0
 11
0.7090462434
 21
-0.7090462434
 31
0.0
 40
0.9972646886
 41
2.3575640181
 42
3.9256212891
  0
ENDSEC
  0
SECTION
  2
OBJECTS
  0
DICTIONARY
  5
C
100
AcDbDictionary
280
0
281
1
  3
ACAD_GROUP
350
D
  3
ACAD_MLINESTYLE
350
17
  3
ACAD_LAYOUT
350
1A
  3
ACAD_PLOTSETTINGS
350
19
  3
ACAD_PLOTSTYLENAME
350
E
  0
DICTIONARY
  5
D
102
{ACAD_REACTORS
330
C
102
}
100
AcDbDictionary
280
0
281
1
  0
ACDBDICTIONARYWDFLT
  5
E
102
{ACAD_REACTORS
330
C
102
}
100
AcDbDictionary
281
1
  3
Normal
350
F
100
AcDbDictionaryWithDefault
340
F
  0
DICTIONARY
  5
17
102
{ACAD_REACTORS
330
C
102
}
100
AcDbDictionary
280
0
281
1
  3
Standard
350
18
  0
DICTIONARY
  5
19
102
{ACAD_REACTORS
330
C
102
}
100
AcDbDictionary
281
1
  0
DICTIONARY
  5
1A
102
{ACAD_REACTORS
330
C
102
}
100
AcDbDictionary
281
1
  3
Model
350
347
  3
Layout1
350
348
  0
ACDBPLACEHOLDER
  5
F
102
{ACAD_REACTORS
330
E
102
}
  0
MLINESTYLE
  5
18
102
{ACAD_REACTORS
330
17
102
}
100
AcDbMlineStyle
  2
STANDARD
 70
0
  3

 62
256
 51
90.0
 52
90.0
 71
2
 49
0.5
 62
256
  6
BYLAYER
 49
-0.5
 62
256
  6
BYLAYER
  0
LAYOUT
  5
347
102
{ACAD_REACTORS
330
1A
102
}
100
AcDbPlotSettings
  1

  2
none_device
  4
ISO_A4_(297.00_x_210.00_MM)
  6

 40
0.0
 41
0.0
 42
0.0
 43
0.0
 44
297.0
 45
210.0
 46
0.0
 47
0.0
 48
0.0
 49
0.0
140
0.0
141
0.0
142
1.0
143
1.0
 70
1024
 72
1
 73
0
 74
0
  7

 75
0
147
1.0
148
0.0
149
0.0
100
AcDbLayout
  1
Model
 70
0
 71
0
 10
0.0
 20
0.0
 11
297.0
 21
210.0
 12
0.0
 22
0.0
 32
0.0
 14
0.0
 24
0.0
 34
0.0
 15
0.0
 25
0.0
 35
0.0
146
0.0
 13
0.0
 23
0.0
 33
0.0
 16
1.0
 26
0.0
 36
0.0
 17
0.0
 27
1.0
 37
0.0
 76
0
330
213
345
0
346
0
  0
LAYOUT
  5
348
102
{ACAD_REACTORS
330
1A
102
}
100
AcDbPlotSettings
  1

  2
none_device
  4
ISO_A4_(297.00_x_210.00_MM)
  6

 40
0.0
 41
0.0
 42
0.0
 43
0.0
 44
297.0
 45
210.0
 46
0.0
 47
0.0
 48
0.0
 49
0.0
140
0.0
141
0.0
142
1.0
143
1.0
 70
0
 72
1
 73
0
 74
0
  7

 75
0
147
1.0
148
0.0
149
0.0
100
AcDbLayout
  1
Layout1
 70
0
 71
1
 10
0.0
 20
0.0
 11
297.0
 21
210.0
 12
0.0
 22
0.0
 32
0.0
 14
0.0
 24
0.0
 34
0.0
 15
0.0
 25
0.0
 35
0.0
146
0.0
 13
0.0
 23
0.0
 33
0.0
 16
1.0
 26
0.0
 36
0.0
 17
0.0
 27
1.0
 37
0.0
 76
0
330
214
345
0
346
0
  0
ENDSEC
  0
EOF
