  0
SECTION
  2
HEADER
  9
$ACADVER
  1
AC1021
  9
$DWGCODEPAGE
  3
ANSI_1252
  9
$EXTMAX
 10
297.0
 20
210.0
 30
0.0
  9
$EXTMIN
 10
0.0
 20
0.0
 30
0.0
  9
$LIMMIN
 10
0.0
 20
0.0
  9
$LIMMAX
 10
297.0
 20
210.0
  9
$VIEWCTR
 10
148.5
 20
105.0
  9
$VIEWSIZE
 40
210.0
  9
$CLAYER
  8
0
  9
$LTSCALE
 40
16.335
  9
$CELTYPE
  6
BYLAYER
  9
$DIMSCALE
 40
1.0
  9
$DIMASZ
 40
3.0
  9
$DIMEXO
 40
1.85625
  9
$DIMDLI
 40
11.286
  9
$DIMEXE
 40
5.346
  9
$DIMCEN
 40
2.673
  9
$DIMLFAC
 40
1.0
  9
$DIMBLK
  1
_FILLED
  9
$DIMTXT
 40
3.0
  9
$DIMTOL
 70
1
  9
$DIMLIM
 70
0
  9
$DIMTFAC
 40
1.0
  9
$DIMTP
 40
0.01
  9
$DIMTM
 40
0.01
  9
$PDMODE
 70
3
  9
$PDSIZE
 40
3.0
  9
$HANDSEED
  5
393
  9
$TILEMODE
 70
1
  9
$MEASUREMENT
 70
1
  9
$INSUNITS
 70
4
  0
ENDSEC
  0
SECTION
  2
CLASSES
  0
CLASS
  1
ACDBDICTIONARYWDFLT
  2
AcDbDictionaryWithDefault
  3
AutoCAD 2000
 90
0
 91
1
280
0
281
0
  0
CLASS
  1
ACDBPLACEHOLDER
  2
AcDbPlaceHolder
  3
AutoCAD 2000
 90
0
 91
1
280
0
281
0
  0
CLASS
  1
LAYOUT
  2
AcDbLayout
  3
AutoCAD 2000
 90
0
 91
0
280
0
281
0
  0
ENDSEC
  0
SECTION
  2
TABLES
  0
TABLE
  2
VPORT
  5
8
100
AcDbSymbolTable
 70
2
  0
VPORT
  5
1F4
100
AcDbSymbolTableRecord
100
AcDbViewportTableRecord
  2
*ACTIVE
 70
0
 10
0.0
 20
0.0
 11
1.0
 21
1.0
 12
148.5
 22
105.0
 13
0.0
 23
0.0
 14
1.0
 24
1.0
 15
0.0
 25
0.0
 16
0.0
 26
0.0
 36
1.0
 17
0.0
 27
0.0
 37
0.0
 40
210.0
 41
1.4142857143
 42
50.0
 43
0.0
 44
0.0
 50
0.0
 51
0.0
 71
0
 72
100
 73
1
 74
1
 75
0
 76
0
 77
0
 78
0
  0
ENDTAB
  0
TABLE
  2
LTYPE
  5
5
100
AcDbSymbolTable
 70
6
  0
LTYPE
  5
14
100
AcDbSymbolTableRecord
100
AcDbLinetypeTableRecord
  2
BYBLOCK
 70
0
  3

 72
65
 73
0
 40
0.0
  0
LTYPE
  5
15
100
AcDbSymbolTableRecord
100
AcDbLinetypeTableRecord
  2
BYLAYER
 70
0
  3

 72
65
 73
0
 40
0.0
  0
LTYPE
  5
16
100
AcDbSymbolTableRecord
100
AcDbLinetypeTableRecord
  2
CONTINUOUS
 70
64
  3
Solid line
 72
65
 73
0
 40
0.0
  0
LTYPE
  5
1F5
100
AcDbSymbolTableRecord
100
AcDbLinetypeTableRecord
  2
CENTER
 70
64
  3
____ _ ____ _ ____ _ ____ _ ____ _ ____ _ ____
 72
65
 73
4
 40
0.6
 49
0.375
 74
0
 49
-0.075
 74
0
 49
0.075
 74
0
 49
-0.075
 74
0
  0
LTYPE
  5
1F6
100
AcDbSymbolTableRecord
100
AcDbLinetypeTableRecord
  2
HIDDEN
 70
64
  3
- - - - - - - - - - - - - - - - - - - -
 72
65
 73
2
 40
0.2
 49
0.1
 74
0
 49
-0.1
 74
0
  0
LTYPE
  5
1F7
100
AcDbSymbolTableRecord
100
AcDbLinetypeTableRecord
  2
PHANTOM
 70
64
  3
_____ _ _ _____ _ _ _____ _ _ _____
 72
65
 73
6
 40
0.8
 49
0.45
 74
0
 49
-0.05
 74
0
 49
0.1
 74
0
 49
-0.05
 74
0
 49
0.1
 74
0
 49
-0.05
 74
0
  0
LTYPE
  5
1F8
100
AcDbSymbolTableRecord
100
AcDbLinetypeTableRecord
  2
DOT
 70
64
  3
. . . . . . . . . . . . . . . . . . . .
 72
65
 73
2
 40
0.2
 49
0.1
 74
0
 49
-0.1
 74
0
  0
LTYPE
  5
1F9
100
AcDbSymbolTableRecord
100
AcDbLinetypeTableRecord
  2
DASHED
 70
64
  3
- - - - - - - - - - - - - - - - - - - -
 72
65
 73
2
 40
0.2
 49
0.1
 74
0
 49
-0.1
 74
0
  0
ENDTAB
  0
TABLE
  2
LAYER
  5
2
100
AcDbSymbolTable
 70
36
  0
LAYER
  5
10
100
AcDbSymbolTableRecord
100
AcDbLayerTableRecord
  2
0
 70
0
 62
7
  6
CONTINUOUS
370
-3
390
F
  0
LAYER
  5
1FA
100
AcDbSymbolTableRecord
100
AcDbLayerTableRecord
  2
DEFAULT_1
 70
0
 62
7
  6
CENTER
370
-3
390
F
  0
LAYER
  5
1FB
100
AcDbSymbolTableRecord
100
AcDbLayerTableRecord
  2
DEFAULT_2
 70
0
 62
7
  6
HIDDEN
370
-3
390
F
  0
LAYER
  5
1FC
100
AcDbSymbolTableRecord
100
AcDbLayerTableRecord
  2
DEFAULT_3
 70
0
 62
7
  6
PHANTOM
370
-3
390
F
  0
LAYER
  5
1FD
100
AcDbSymbolTableRecord
100
AcDbLayerTableRecord
  2
ASSI
 70
0
 62
7
  6
CONTINUOUS
370
-3
390
F
  0
LAYER
  5
1FE
100
AcDbSymbolTableRecord
100
AcDbLayerTableRecord
  2
COORDINATE
 70
0
 62
7
  6
CONTINUOUS
370
-3
390
F
  0
LAYER
  5
1FF
100
AcDbSymbolTableRecord
100
AcDbLayerTableRecord
  2
COPY_PUBLISH
 70
0
 62
7
  6
CONTINUOUS
370
-3
390
F
  0
LAYER
  5
200
100
AcDbSymbolTableRecord
100
AcDbLayerTableRecord
  2
COSMETIC
 70
0
 62
7
  6
CONTINUOUS
370
-3
390
F
  0
LAYER
  5
201
100
AcDbSymbolTableRecord
100
AcDbLayerTableRecord
  2
COSMETICI
 70
0
 62
7
  6
CONTINUOUS
370
-3
390
F
  0
LAYER
  5
202
100
AcDbSymbolTableRecord
100
AcDbLayerTableRecord
  2
CURVE
 70
0
 62
7
  6
CONTINUOUS
370
-3
390
F
  0
LAYER
  5
203
100
AcDbSymbolTableRecord
100
AcDbLayerTableRecord
  2
DRAFT
 70
0
 62
7
  6
CONTINUOUS
370
-3
390
F
  0
LAYER
  5
204
100
AcDbSymbolTableRecord
100
AcDbLayerTableRecord
  2
IMPORT_IGES
 70
0
 62
7
  6
CONTINUOUS
370
-3
390
F
  0
LAYER
  5
205
100
AcDbSymbolTableRecord
100
AcDbLayerTableRecord
  2
INTFCLR_1
 70
0
 62
7
  6
CONTINUOUS
370
-3
390
F
  0
LAYER
  5
206
100
AcDbSymbolTableRecord
100
AcDbLayerTableRecord
  2
INTF_1
 70
0
 62
7
  6
CONTINUOUS
370
-3
390
F
  0
LAYER
  5
207
100
AcDbSymbolTableRecord
100
AcDbLayerTableRecord
  2
NOTE
 70
0
 62
7
  6
CONTINUOUS
370
-3
390
F
  0
LAYER
  5
208
100
AcDbSymbolTableRecord
100
AcDbLayerTableRecord
  2
PIANI
 70
0
 62
7
  6
CONTINUOUS
370
-3
390
F
  0
LAYER
  5
209
100
AcDbSymbolTableRecord
100
AcDbLayerTableRecord
  2
PUNTI
 70
0
 62
7
  6
CONTINUOUS
370
-3
390
F
  0
LAYER
  5
20A
100
AcDbSymbolTableRecord
100
AcDbLayerTableRecord
  2
RACCORDO
 70
0
 62
7
  6
CONTINUOUS
370
-3
390
F
  0
LAYER
  5
20B
100
AcDbSymbolTableRecord
100
AcDbLayerTableRecord
  2
SIMBOLI
 70
0
 62
7
  6
CONTINUOUS
370
-3
390
F
  0
LAYER
  5
20C
100
AcDbSymbolTableRecord
100
AcDbLayerTableRecord
  2
SMUSSO
 70
0
 62
7
  6
CONTINUOUS
370
-3
390
F
  0
LAYER
  5
20D
100
AcDbSymbolTableRecord
100
AcDbLayerTableRecord
  2
SNAPLINE
 70
0
 62
7
  6
CONTINUOUS
370
-3
390
F
  0
LAYER
  5
20E
100
AcDbSymbolTableRecord
100
AcDbLayerTableRecord
  2
SUPERFICI
 70
0
 62
7
  6
CONTINUOUS
370
-3
390
F
  0
LAYER
  5
20F
100
AcDbSymbolTableRecord
100
AcDbLayerTableRecord
  2
TRASH
 70
0
 62
7
  6
CONTINUOUS
370
-3
390
F
  0
LAYER
  5
210
100
AcDbSymbolTableRecord
100
AcDbLayerTableRecord
  2
XSEC_DATUMS
 70
0
 62
7
  6
CONTINUOUS
370
-3
390
F
  0
ENDTAB
  0
TABLE
  2
STYLE
  5
3
100
AcDbSymbolTable
 70
1
  0
STYLE
  5
11
100
AcDbSymbolTableRecord
100
AcDbTextStyleTableRecord
  2
STANDARD
 70
0
 40
0.0
 41
0.8
 50
0.0
 71
0
 42
0.2
  3
txt
  4

  0
STYLE
  5
211
100
AcDbSymbolTableRecord
100
AcDbTextStyleTableRecord
  2
TEXTSTYLE_1
 70
0
 40
0.0
 41
0.8
 50
0.0
 71
0
 42
0.2
  3
gdt
  4

  0
ENDTAB
  0
TABLE
  2
VIEW
  5
6
100
AcDbSymbolTable
 70
0
  0
ENDTAB
  0
TABLE
  2
UCS
  5
7
100
AcDbSymbolTable
 70
0
  0
ENDTAB
  0
TABLE
  2
APPID
  5
9
100
AcDbSymbolTable
 70
1
  0
APPID
  5
212
100
AcDbSymbolTableRecord
100
AcDbRegAppTableRecord
  2
ACAD
 70
0
  0
ENDTAB
  0
TABLE
  2
BLOCK_RECORD
  5
1
100
AcDbSymbolTable
 70
0
  0
BLOCK_RECORD
  5
213
100
AcDbSymbolTableRecord
100
AcDbBlockTableRecord
  2
*Model_Space
  0
BLOCK_RECORD
  5
214
100
AcDbSymbolTableRecord
100
AcDbBlockTableRecord
  2
*Paper_Space
  0
BLOCK_RECORD
  5
215
100
AcDbSymbolTableRecord
100
AcDbBlockTableRecord
  2
_FILLED
  0
BLOCK_RECORD
  5
216
100
AcDbSymbolTableRecord
100
AcDbBlockTableRecord
  2
*D0
  0
BLOCK_RECORD
  5
217
100
AcDbSymbolTableRecord
100
AcDbBlockTableRecord
  2
*D1
  0
BLOCK_RECORD
  5
218
100
AcDbSymbolTableRecord
100
AcDbBlockTableRecord
  2
*D2
  0
ENDTAB
  0
TABLE
  2
DIMSTYLE
  5
A
100
AcDbSymbolTable
 70
1
100
AcDbDimStyleTable
 71
0
  0
DIMSTYLE
105
219
100
AcDbSymbolTableRecord
100
AcDbDimStyleTableRecord
  2
STANDARD
 70
0
  3

  4

 40
1.0
 41
3.0
 42
0.0625
 43
0.38
 44
0.18
 45
0.0
 46
0.0
 47
0.01
 48
0.01
140
3.0
141
0.09
142
0.0
143
25.4
144
1.0
145
0.0
146
1.0
147
0.09
 71
1.0
 72
0.0
 73
0
 74
0
 75
0
 76
0
 77
1
 78
8
170
0
171
2
172
0
173
0
174
0
175
0
176
0
177
0
178
0
270
2
271
2
272
2
273
2
274
2
275
0
280
0
281
0
282
0
283
1
284
8
285
0
286
0
287
3
288
0
340
11
341
215
342
215
343
215
344
215
  0
DIMSTYLE
105
21A
100
AcDbSymbolTableRecord
100
AcDbDimStyleTableRecord
  2
DIMSTYLE_1
 70
0
  3

  4

 40
1.0
 41
3.0
 42
0.0625
 43
0.38
 44
0.18
 45
0.0
 46
0.0
 47
0.0
 48
0.0
140
3.0
141
0.09
142
0.0
143
25.4
144
1.0
145
0.0
146
1.0
147
0.09
 71
0.0
 72
0.0
 73
0
 74
0
 75
0
 76
0
 77
1
 78
8
170
0
171
2
172
0
173
0
174
0
175
0
176
0
177
0
178
0
270
2
271
2
272
2
273
2
274
2
275
0
280
0
281
0
282
0
283
1
284
8
285
0
286
0
287
3
288
0
340
11
341
215
342
215
343
215
344
215
  0
DIMSTYLE
105
21B
100
AcDbSymbolTableRecord
100
AcDbDimStyleTableRecord
  2
DIMSTYLE_2
 70
0
  3

  4

 40
1.0
 41
3.0
 42
0.0625
 43
0.38
 44
0.18
 45
0.0
 46
0.0
 47
0.0
 48
0.0
140
3.0
141
0.09
142
0.0
143
25.4
144
1.0
145
0.0
146
1.0
147
0.09
 71
0.0
 72
0.0
 73
0
 74
0
 75
0
 76
0
 77
1
 78
8
170
0
171
2
172
0
173
0
174
0
175
0
176
0
177
0
178
0
270
2
271
1
272
1
273
2
274
2
275
0
280
0
281
0
282
0
283
1
284
8
285
0
286
0
287
3
288
0
340
11
341
215
342
215
343
215
344
215
  0
ENDTAB
  0
ENDSEC
  0
SECTION
  2
BLOCKS
  0
BLOCK
  5
20
100
AcDbEntity
  8
0
100
AcDbBlockBegin
  2
*Model_Space
 70
0
 10
0.0
 20
0.0
 30
0.0
  3
*Model_Space
  1

  0
ENDBLK
  5
21
100
AcDbEntity
  8
0
100
AcDbBlockEnd
  0
BLOCK
  5
1C
100
AcDbEntity
  8
0
100
AcDbBlockBegin
  2
*Paper_Space
 70
0
 10
0.0
 20
0.0
 30
0.0
  3
*Paper_Space
  1

  0
ENDBLK
  5
1D
100
AcDbEntity
  8
0
100
AcDbBlockEnd
  0
BLOCK
  5
21C
100
AcDbEntity
  8
0
100
AcDbBlockBegin
  2
_FILLED
 70
64
 10
0.0
 20
0.0
  3
_FILLED
  1

  0
SOLID
  5
21D
100
AcDbEntity
  8
0
  6
BYBLOCK
 62
0
100
AcDbTrace
 10
0.0
 20
0.0
 11
-1.0
 21
0.3166666667
 12
-1.0
 22
-0.3166666667
 13
-1.0
 23
-0.3166666667
  0
ENDBLK
  5
21E
100
AcDbEntity
  8
0
  6
BYBLOCK
 62
0
100
AcDbBlockEnd
  0
BLOCK
  5
21F
100
AcDbEntity
  8
0
100
AcDbBlockBegin
 62
7
  6
CONTINUOUS
  2
*D0
 70
65
 10
0.0
 20
0.0
  3
*D0
  1

  0
MTEXT
  5
220
100
AcDbEntity
  8
0
100
AcDbMText
 62
7
  6
CONTINUOUS
  7
STANDARD
 71
2
 72
1
 10
156.868230257
 20
189.0402181577
 30
0.0
 11
1.0
 21
0.0
 31
0.0
 44
0.9
  1
40
 40
3.0
 41
4.7142857143
  0
LINE
  5
221
100
AcDbEntity
  8
0
100
AcDbLine
 62
7
  6
CONTINUOUS
 10
136.868230257
 20
170.791588623
 11
136.868230257
 21
186.7902181577
  0
LINE
  5
222
100
AcDbEntity
  8
0
100
AcDbLine
 62
7
  6
CONTINUOUS
 10
176.868230257
 20
170.791588623
 11
176.868230257
 21
186.7902181577
  0
LINE
  5
223
100
AcDbEntity
  8
0
100
AcDbLine
 62
7
  6
CONTINUOUS
 10
136.868230257
 20
185.2902181577
 11
156.868230257
 21
185.2902181577
  0
LINE
  5
224
100
AcDbEntity
  8
0
100
AcDbLine
 62
7
  6
CONTINUOUS
 10
176.868230257
 20
185.2902181577
 11
156.868230257
 21
185.2902181577
  0
INSERT
  5
225
100
AcDbEntity
  8
0
100
AcDbBlockReference
 62
7
  6
CONTINUOUS
  2
_FILLED
 10
136.868230257
 20
185.2902181577
 41
3.0
 42
3.0
 43
3.0
 50
180.0
  0
INSERT
  5
226
100
AcDbEntity
  8
0
100
AcDbBlockReference
 62
7
  6
CONTINUOUS
  2
_FILLED
 10
176.868230257
 20
185.2902181577
 41
3.0
 42
3.0
 43
3.0
  0
ENDBLK
  5
227
100
AcDbEntity
  8
0
  6
BYBLOCK
 62
0
100
AcDbBlockEnd
  0
BLOCK
  5
228
100
AcDbEntity
  8
0
100
AcDbBlockBegin
 62
7
  6
CONTINUOUS
  2
*D1
 70
65
 10
0.0
 20
0.0
  3
*D1
  1

  0
MTEXT
  5
229
100
AcDbEntity
  8
0
100
AcDbMText
 62
7
  6
CONTINUOUS
  7
STANDARD
 71
2
 72
1
 10
191.118230257
 20
101.7902181577
 30
0.0
 11
0.0
 21
1.0
 31
0.0
 44
0.9
  1
139
 40
3.0
 41
6.2142857143
  0
LINE
  5
22A
100
AcDbEntity
  8
0
100
AcDbLine
 62
7
  6
CONTINUOUS
 10
176.3696007222
 20
171.2902181577
 11
196.368230257
 21
171.2902181577
  0
LINE
  5
22B
100
AcDbEntity
  8
0
100
AcDbLine
 62
7
  6
CONTINUOUS
 10
176.3696007222
 20
32.2902181577
 11
196.368230257
 21
32.2902181577
  0
LINE
  5
22C
100
AcDbEntity
  8
0
100
AcDbLine
 62
7
  6
CONTINUOUS
 10
194.868230257
 20
171.2902181577
 11
194.868230257
 21
101.7902181577
  0
LINE
  5
22D
100
AcDbEntity
  8
0
100
AcDbLine
 62
7
  6
CONTINUOUS
 10
194.868230257
 20
32.2902181577
 11
194.868230257
 21
101.7902181577
  0
INSERT
  5
22E
100
AcDbEntity
  8
0
100
AcDbBlockReference
 62
7
  6
CONTINUOUS
  2
_FILLED
 10
194.868230257
 20
171.2902181577
 41
3.0
 42
3.0
 43
3.0
 50
90.0
  0
INSERT
  5
22F
100
AcDbEntity
  8
0
100
AcDbBlockReference
 62
7
  6
CONTINUOUS
  2
_FILLED
 10
194.868230257
 20
32.2902181577
 41
3.0
 42
3.0
 43
3.0
 50
270.0
  0
ENDBLK
  5
230
100
AcDbEntity
  8
0
  6
BYBLOCK
 62
0
100
AcDbBlockEnd
  0
BLOCK
  5
231
100
AcDbEntity
  8
0
100
AcDbBlockBegin
 62
7
  6
CONTINUOUS
  2
*D2
 70
65
 10
0.0
 20
0.0
  3
*D2
  1

  0
MTEXT
  5
232
100
AcDbEntity
  8
0
100
AcDbMText
 62
7
  6
CONTINUOUS
  7
STANDARD
 71
2
 72
1
 10
113.6457769478
 20
189.0402181577
 30
0.0
 11
1.0
 21
0.0
 31
0.0
 44
0.9
  1
8,6
 40
3.0
 41
6.4285714286
  0
LINE
  5
233
100
AcDbEntity
  8
0
100
AcDbLine
 62
7
  6
CONTINUOUS
 10
117.9298327307
 20
169.8872935457
 11
117.9298327332
 21
186.7902181571
  0
LINE
  5
234
100
AcDbEntity
  8
0
100
AcDbLine
 62
7
  6
CONTINUOUS
 10
109.3617211544
 20
130.7902181577
 11
109.3617211628
 21
186.7902181584
  0
LINE
  5
235
100
AcDbEntity
  8
0
100
AcDbLine
 62
7
  6
CONTINUOUS
 10
117.929832733
 20
185.2902181571
 11
121.929832733
 21
185.2902181565
  0
LINE
  5
236
100
AcDbEntity
  8
0
100
AcDbLine
 62
7
  6
CONTINUOUS
 10
121.929832733
 20
185.2902181565
 11
113.6457769478
 21
185.2902181577
  0
LINE
  5
237
100
AcDbEntity
  8
0
100
AcDbLine
 62
7
  6
CONTINUOUS
 10
109.3617211626
 20
185.2902181584
 11
105.3617211626
 21
185.290218159
  0
LINE
  5
238
100
AcDbEntity
  8
0
100
AcDbLine
 62
7
  6
CONTINUOUS
 10
105.3617211626
 20
185.290218159
 11
113.6457769478
 21
185.2902181577
  0
INSERT
  5
239
100
AcDbEntity
  8
0
100
AcDbBlockReference
 62
7
  6
CONTINUOUS
  2
_FILLED
 10
117.929832733
 20
185.2902181571
 41
3.0
 42
3.0
 43
3.0
 50
179.9999999914
  0
INSERT
  5
23A
100
AcDbEntity
  8
0
100
AcDbBlockReference
 62
7
  6
CONTINUOUS
  2
_FILLED
 10
109.3617211626
 20
185.2902181584
 41
3.0
 42
3.0
 43
3.0
 50
359.9999999914
  0
ENDBLK
  5
23B
100
AcDbEntity
  8
0
  6
BYBLOCK
 62
0
100
AcDbBlockEnd
  0
ENDSEC
  0
SECTION
  2
ENTITIES
  0
DIMENSION
  5
23C
100
AcDbEntity
  8
0
100
AcDbDimension
 62
7
  6
CONTINUOUS
  2
*D0
 10
176.868230257
 20
185.2902181577
 11
154.5110873998
 21
187.5402181577
 70
160
 71
2
 42
40.0
  3
DIMSTYLE_1
100
AcDbAlignedDimension
 13
136.868230257
 23
170.791588623
 14
176.868230257
 24
170.791588623
100
AcDbRotatedDimension
  0
DIMENSION
  5
23D
100
AcDbEntity
  8
0
100
AcDbDimension
 62
7
  6
CONTINUOUS
  2
*D1
 10
194.868230257
 20
32.2902181577
 11
194.0104589928
 21
99.0124428101
 70
160
 71
2
 42
139.0
  3
DIMSTYLE_1
100
AcDbAlignedDimension
 13
176.3696007222
 23
171.2902181577
 14
176.3696007222
 24
32.2902181577
 50
270.0
100
AcDbRotatedDimension
  0
DIMENSION
  5
23E
100
AcDbEntity
  8
0
100
AcDbDimension
 62
7
  6
CONTINUOUS
  2
*D2
 10
109.3617211626
 20
185.2902181584
 11
110.4314912335
 21
187.5402181577
 70
160
 71
2
 42
8.5681115704
  3
DIMSTYLE_2
100
AcDbAlignedDimension
 13
117.9298327307
 23
169.8872935457
 14
109.3617211544
 24
130.7902181577
 50
179.9999999914
100
AcDbRotatedDimension
  0
LWPOLYLINE
  5
23F
100
AcDbEntity
  8
RACCORDO
100
AcDbPolyline
 62
253
  6
CONTINUOUS
 90
28
 70
0
 10
175.7467607999
 20
32.4130580801
 10
175.8042189455
 20
32.4147720728
 10
175.8614302626
 20
32.4198116
 10
175.9182064521
 20
32.4281561492
 10
175.9743212702
 20
32.4397652254
 10
176.0296311715
 20
32.4546017098
 10
176.0840699621
 20
32.4726545108
 10
176.1375076101
 20
32.4939049401
 10
176.1897025072
 20
32.5182813022
 10
176.2404227827
 20
32.5456874966
 10
176.2894708963
 20
32.576023531
 10
176.3367049742
 20
32.6092075059
 10
176.381985487
 20
32.6451498964
 10
176.4251557575
 20
32.683744036
 10
176.4660586601
 20
32.7248671522
 10
176.5045589277
 20
32.7683967705
 10
176.5405166849
 20
32.8141995922
 10
176.5737960357
 20
32.8621280884
 10
176.6042770794
 20
32.9120274712
 10
176.6318449237
 20
32.9637435484
 10
176.6563876568
 20
33.0171025488
 10
176.6778057805
 20
33.0719084252
 10
176.6960127851
 20
33.1279786545
 10
176.7109337405
 20
33.1851266908
 10
176.7225074575
 20
33.2431405304
 10
176.7306844766
 20
33.3018170553
 10
176.7354246067
 20
33.3609634278
 10
176.7367002487
 20
33.4203777008
  0
LWPOLYLINE
  5
240
100
AcDbEntity
  8
RACCORDO
100
AcDbPolyline
 62
253
  6
CONTINUOUS
 90
28
 70
0
 10
175.7467607999
 20
32.6431416894
 10
175.7871162822
 20
32.6443387362
 10
175.8270576359
 20
32.6478415407
 10
175.866584861
 20
32.6536501624
 10
175.9058094803
 20
32.6617874069
 10
175.9446199709
 20
32.6722307069
 10
175.9826817649
 20
32.6849121157
 10
176.0200199344
 20
32.6998634447
 10
176.0566094072
 20
32.7170533399
 10
176.0920403987
 20
32.7363191362
 10
176.1262851871
 20
32.7576755503
 10
176.1593714941
 20
32.781108485
 10
176.1909727005
 20
32.8064120441
 10
176.2210809084
 20
32.8336070085
 10
176.2497040158
 20
32.8626733154
 10
176.2765390965
 20
32.8933437482
 10
176.3015728001
 20
32.9256402721
 10
176.324818477
 20
32.9595416547
 10
176.3460132527
 20
32.9947157716
 10
176.3651365713
 20
33.0311809176
 10
176.3822089887
 20
33.0689194517
 10
176.3970292975
 20
33.1075451746
 10
176.4095727645
 20
33.1470833371
 10
176.419864123
 20
33.1875091791
 10
176.4277763654
 20
33.2283612537
 10
176.4332671558
 20
33.2694857633
 10
176.4363788301
 20
33.311036709
 10
176.4371113882
 20
33.3530142088
  0
LWPOLYLINE
  5
241
100
AcDbEntity
  8
RACCORDO
100
AcDbPolyline
 62
253
  6
CONTINUOUS
 90
16
 70
0
 10
176.4371113882
 20
33.3530142553
 10
176.4674527915
 20
33.3537076526
 10
176.4974829948
 20
33.3550848592
 10
176.5268939899
 20
33.3571317498
 10
176.5553841198
 20
33.3598273301
 10
176.5826611721
 20
33.3631439526
 10
176.6084453767
 20
33.3670475999
 10
176.632472275
 20
33.371498234
 10
176.6544954322
 20
33.3764502064
 10
176.6742889656
 20
33.3818527265
 10
176.6916498603
 20
33.3876503829
 10
176.7064000525
 20
33.3937837113
 10
176.7183882552
 20
33.4001898043
 10
176.7274915099
 20
33.4068029573
 10
176.7336164481
 20
33.4135553417
 10
176.7367002487
 20
33.4203777008
  0
LINE
  5
242
100
AcDbEntity
  8
RACCORDO
100
AcDbLine
 62
7
  6
CONTINUOUS
 10
137.8668597917
 20
32.2902181577
 11
175.8696007222
 21
32.2902181577
  0
LINE
  5
243
100
AcDbEntity
  8
RACCORDO
100
AcDbLine
 62
253
  6
CONTINUOUS
 10
137.9896997141
 20
32.4130580801
 11
175.7467607999
 21
32.4130580801
  0
LINE
  5
244
100
AcDbEntity
  8
RACCORDO
100
AcDbLine
 62
253
  6
CONTINUOUS
 10
137.9896997141
 20
32.6431416894
 11
175.7467607999
 21
32.6431416894
  0
LWPOLYLINE
  5
245
100
AcDbEntity
  8
RACCORDO
100
AcDbPolyline
 62
253
  6
CONTINUOUS
 90
16
 70
0
 10
137.2993491257
 20
33.3530142328
 10
137.2690081872
 20
33.3537077413
 10
137.2389784943
 20
33.3550850422
 10
137.2095680431
 20
33.3571320093
 10
137.1810784782
 20
33.3598276481
 10
137.1538019995
 20
33.3631443113
 10
137.1280183649
 20
33.3670479817
 10
137.1039920213
 20
33.371498622
 10
137.0819693919
 20
33.3764505846
 10
137.0621763492
 20
33.3818530805
 10
137.0448158981
 20
33.3876506994
 10
137.0300660942
 20
33.393783979
 10
137.0180782169
 20
33.4001900138
 10
137.0089752185
 20
33.4068031013
 10
137.0028504629
 20
33.413555415
 10
136.9997667678
 20
33.4203777007
  0
LWPOLYLINE
  5
246
100
AcDbEntity
  8
0
100
AcDbPolyline
 62
7
  6
CONTINUOUS
 90
6
 70
0
 10
161.6907334219
 20
45.7358375297
 10
161.7049687078
 20
45.7394925131
 10
161.7187053753
 20
45.7444069687
 10
161.7319434246
 20
45.7505809153
 10
161.7444873292
 20
45.7582395014
 10
161.7565326155
 20
45.7671576346
  0
LWPOLYLINE
  5
247
100
AcDbEntity
  8
0
100
AcDbPolyline
 62
7
  6
CONTINUOUS
 90
10
 70
0
 10
160.7509275111
 20
46.7351633618
 10
160.8034679731
 20
46.7438644624
 10
160.855650556
 20
46.7508334341
 10
160.9074752596
 20
46.7560702439
 10
160.959021694
 20
46.759555263
 10
161.0102102491
 20
46.7613080789
 10
161.0608020951
 20
46.7613874949
 10
161.1107176221
 20
46.7598131147
 10
161.1600364399
 20
46.7565653415
 10
161.2087585487
 20
46.7516441902
  0
LINE
  5
248
100
AcDbEntity
  8
0
100
AcDbLine
 62
7
  6
CONTINUOUS
 10
162.2273784689
 20
44.4124168034
 11
161.6652458789
 21
44.4124168034
  0
LINE
  5
249
100
AcDbEntity
  8
0
100
AcDbLine
 62
7
  6
CONTINUOUS
 10
160.7703056019
 20
44.4124168034
 11
160.1882490593
 21
44.4124168034
  0
LINE
  5
24A
100
AcDbEntity
  8
0
100
AcDbLine
 62
7
  6
CONTINUOUS
 10
160.016638257
 20
44.4124171577
 11
159.400696257
 21
44.4124171577
  0
LINE
  5
24B
100
AcDbEntity
  8
0
100
AcDbLine
 62
7
  6
CONTINUOUS
 10
158.292177257
 20
44.4124171577
 11
157.714110257
 21
44.4124171577
  0
LINE
  5
24C
100
AcDbEntity
  8
0
100
AcDbLine
 62
7
  6
CONTINUOUS
 10
157.622342257
 20
44.4124171577
 11
157.050636257
 21
44.4124171577
  0
LINE
  5
24D
100
AcDbEntity
  8
0
100
AcDbLine
 62
7
  6
CONTINUOUS
 10
156.235706257
 20
44.4124171577
 11
156.153743257
 21
44.4124171577
  0
LINE
  5
24E
100
AcDbEntity
  8
0
100
AcDbLine
 62
7
  6
CONTINUOUS
 10
155.342047257
 20
44.4124171577
 11
154.782958257
 21
44.4124171577
  0
LINE
  5
24F
100
AcDbEntity
  8
0
100
AcDbLine
 62
7
  6
CONTINUOUS
 10
154.468353257
 20
44.4124171577
 11
153.883945257
 21
44.4124171577
  0
LINE
  5
250
100
AcDbEntity
  8
0
100
AcDbLine
 62
7
  6
CONTINUOUS
 10
152.767133257
 20
44.4124171577
 11
152.252123257
 21
44.4124171577
  0
LINE
  5
251
100
AcDbEntity
  8
0
100
AcDbLine
 62
7
  6
CONTINUOUS
 10
159.249304257
 20
44.9713371577
 11
158.453437257
 21
44.9713371577
  0
LINE
  5
252
100
AcDbEntity
  8
0
100
AcDbLine
 62
7
  6
CONTINUOUS
 10
159.132510257
 20
45.4038271577
 11
158.572981257
 21
45.4038271577
  0
LINE
  5
253
100
AcDbEntity
  8
0
100
AcDbLine
 62
7
  6
CONTINUOUS
 10
161.0836512193
 20
45.508066233
 11
160.7703056019
 21
45.508066233
  0
LINE
  5
254
100
AcDbEntity
  8
0
100
AcDbLine
 62
7
  6
CONTINUOUS
 10
161.0849109002
 20
45.9665900711
 11
160.7509275111
 21
45.9665900711
  0
LINE
  5
255
100
AcDbEntity
  8
0
100
AcDbLine
 62
7
  6
CONTINUOUS
 10
159.157620257
 20
47.2121201577
 11
158.592275257
 21
47.2121201577
  0
LINE
  5
256
100
AcDbEntity
  8
0
100
AcDbLine
 62
7
  6
CONTINUOUS
 10
157.360538257
 20
47.2121201577
 11
156.782324257
 21
47.2121201577
  0
LINE
  5
257
100
AcDbEntity
  8
0
100
AcDbLine
 62
7
  6
CONTINUOUS
 10
155.619680257
 20
47.2121201577
 11
155.035755257
 21
47.2121201577
  0
LINE
  5
258
100
AcDbEntity
  8
0
100
AcDbLine
 62
7
  6
CONTINUOUS
 10
153.667070257
 20
47.2121201577
 11
153.083061257
 21
47.2121201577
  0
LINE
  5
259
100
AcDbEntity
  8
0
100
AcDbLine
 62
7
  6
CONTINUOUS
 10
151.999410257
 20
47.2121201577
 11
151.364562257
 21
47.2121201577
  0
LINE
  5
25A
100
AcDbEntity
  8
0
100
AcDbLine
 62
7
  6
CONTINUOUS
 10
154.468353257
 20
47.2122881577
 11
153.883945257
 21
47.2122881577
  0
LWPOLYLINE
  5
25B
100
AcDbEntity
  8
0
100
AcDbPolyline
 62
7
  6
CONTINUOUS
 90
19
 70
0
 10
161.0836512215
 20
45.508066233
 10
161.1079456515
 20
45.5073056775
 10
161.1318824174
 20
45.5048292379
 10
161.1554615194
 20
45.5006369276
 10
161.1788356351
 20
45.4947451073
 10
161.2018520868
 20
45.48713747
 10
161.2240528413
 20
45.4777650429
 10
161.2453766977
 20
45.4664805216
 10
161.2658848569
 20
45.4534313279
 10
161.2853028883
 20
45.4390105784
 10
161.303542196
 20
45.4232202928
 10
161.3206913759
 20
45.4060585822
 10
161.3367417846
 20
45.3879126714
 10
161.3517048575
 20
45.3688159331
 10
161.3655691591
 20
45.3487351105
 10
161.3782917407
 20
45.3279574504
 10
161.3898582858
 20
45.3065787254
 10
161.4002831108
 20
45.2845032541
 10
161.4095662157
 20
45.2617310864
  0
LWPOLYLINE
  5
25C
100
AcDbEntity
  8
0
100
AcDbPolyline
 62
7
  6
CONTINUOUS
 90
19
 70
0
 10
161.2087585487
 20
46.7516441902
 10
161.23821467
 20
46.7471875427
 10
161.2670773663
 20
46.7406234452
 10
161.2953466376
 20
46.7319519357
 10
161.3232346241
 20
46.7211938196
 10
161.3505291856
 20
46.7083284033
 10
161.3765939015
 20
46.6932934973
 10
161.4015124929
 20
46.6759164502
 10
161.4252012388
 20
46.6563701128
 10
161.4467725552
 20
46.6351105467
 10
161.4660003324
 20
46.6119361468
 10
161.48311068
 20
46.5870487394
 10
161.4978943438
 20
46.5615094484
 10
161.5102234859
 20
46.5355055407
 10
161.5202259442
 20
46.5088498377
 10
161.5280759774
 20
46.4820416875
 10
161.5338316717
 20
46.4552475319
 10
161.537434941
 20
46.4283009477
 10
161.5388857852
 20
46.4012019487
  0
LWPOLYLINE
  5
25D
100
AcDbEntity
  8
RACCORDO
100
AcDbPolyline
 62
253
  6
CONTINUOUS
 90
16
 70
0
 10
145.1620314453
 20
51.4839021709
 10
145.20237451
 20
51.4845991527
 10
145.2415401786
 20
51.4854557689
 10
145.279249883
 20
51.4864659269
 10
145.3152354107
 20
51.4876224417
 10
145.3492408124
 20
51.4889170876
 10
145.3810242227
 20
51.4903406564
 10
145.4103595804
 20
51.4918830229
 10
145.4370382359
 20
51.4935332168
 10
145.4608704357
 20
51.4952795011
 10
145.4816866718
 20
51.4971094553
 10
145.4993388877
 20
51.4990100636
 10
145.5137015309
 20
51.5009678079
 10
145.5246724462
 20
51.5029687636
 10
145.5321736023
 20
51.5049986987
 10
145.5361516468
 20
51.5070431754
  0
LWPOLYLINE
  5
25E
100
AcDbEntity
  8
RACCORDO
100
AcDbPolyline
 62
253
  6
CONTINUOUS
 90
16
 70
0
 10
176.3110005857
 20
50.6854025992
 10
176.3413186863
 20
50.6855594675
 10
176.3713263454
 20
50.6858690372
 10
176.4007163006
 20
50.6863281385
 10
176.429187614
 20
50.6869320703
 10
176.4564487544
 20
50.6876746488
 10
176.4822205821
 20
50.6885482702
 10
176.5062392071
 20
50.6895439893
 10
176.5282586914
 20
50.6906516103
 10
176.548053567
 20
50.6918597918
 10
176.5654211448
 20
50.6931561627
 10
176.5801835899
 20
50.6945274488
 10
176.5921897427
 20
50.6959596088
 10
176.6013166665
 20
50.6974379783
 10
176.6074709064
 20
50.6989474193
 10
176.6105894462
 20
50.7004724762
  0
LWPOLYLINE
  5
25F
100
AcDbEntity
  8
RACCORDO
100
AcDbPolyline
 62
253
  6
CONTINUOUS
 90
3
 70
0
 10
145.0368368795
 20
51.482812725
 10
145.0789672304
 20
51.4830057692
 10
145.1620314453
 20
51.4839021709
  0
LINE
  5
260
100
AcDbEntity
  8
RACCORDO
100
AcDbLine
 62
253
  6
CONTINUOUS
 10
167.3979634089
 20
50.1846320208
 11
146.338497105
 21
50.1846320208
  0
LINE
  5
261
100
AcDbEntity
  8
RACCORDO
100
AcDbLine
 62
253
  6
CONTINUOUS
 10
176.3110004606
 20
50.6854544099
 11
168.4232477126
 21
50.6854025992
  0
LINE
  5
262
100
AcDbEntity
  8
RACCORDO
100
AcDbLine
 62
253
  6
CONTINUOUS
 10
145.3132128014
 20
50.6854025992
 11
137.425460054
 21
50.6854546614
  0
LINE
  5
263
100
AcDbEntity
  8
RACCORDO
100
AcDbLine
 62
253
  6
CONTINUOUS
 10
167.3980019282
 20
50.711581378
 11
146.3384887264
 21
50.711581378
  0
LINE
  5
264
100
AcDbEntity
  8
RACCORDO
100
AcDbLine
 62
7
  6
CONTINUOUS
 10
146.418230257
 20
50.7902181577
 11
167.318230257
 21
50.7902181577
  0
LWPOLYLINE
  5
265
100
AcDbEntity
  8
RACCORDO
100
AcDbPolyline
 62
253
  6
CONTINUOUS
 90
16
 70
0
 10
137.4254599283
 20
50.6854026014
 10
137.3951418305
 20
50.6855594698
 10
137.3651341741
 20
50.6858690394
 10
137.3357442215
 20
50.6863281406
 10
137.3072729103
 20
50.6869320723
 10
137.2800117718
 20
50.6876746506
 10
137.2542399456
 20
50.6885482719
 10
137.2302213215
 20
50.6895439908
 10
137.2082018376
 20
50.6906516116
 10
137.1884069618
 20
50.691859793
 10
137.1710393832
 20
50.6931561636
 10
137.1562769366
 20
50.6945274495
 10
137.1442707817
 20
50.6959596094
 10
137.1351438551
 20
50.6974379786
 10
137.1289896117
 20
50.6989474195
 10
137.1258710678
 20
50.7004724762
  0
LWPOLYLINE
  5
266
100
AcDbEntity
  8
RACCORDO
100
AcDbPolyline
 62
253
  6
CONTINUOUS
 90
18
 70
0
 10
168.6996236345
 20
51.4828128967
 10
168.6156623124
 20
51.4833699123
 10
168.5744286146
 20
51.4839022842
 10
168.5340853493
 20
51.4845992493
 10
168.4949194638
 20
51.4854558503
 10
168.4572095315
 20
51.4864659946
 10
168.4212237698
 20
51.4876224972
 10
168.3872181328
 20
51.4889171323
 10
168.3554344907
 20
51.4903406918
 10
168.3260989094
 20
51.4918830504
 10
168.2994200426
 20
51.4935332377
 10
168.2755876476
 20
51.4952795165
 10
168.2547712361
 20
51.4971094663
 10
168.2371188678
 20
51.4990100711
 10
168.2227560978
 20
51.5009678127
 10
168.2117850834
 20
51.5029687663
 10
168.2042838577
 20
51.5049987
 10
168.2003057742
 20
51.5070431753
  0
LWPOLYLINE
  5
267
100
AcDbEntity
  8
RACCORDO
100
AcDbPolyline
 62
253
  6
CONTINUOUS
 90
31
 70
0
 10
146.3384887121
 20
50.7115813637
 10
146.3125799138
 20
50.7119536804
 10
146.2870096267
 20
50.7131391677
 10
146.26180233
 20
50.7151068142
 10
146.2370063795
 20
50.7178219433
 10
146.2126164965
 20
50.7212547658
 10
146.1885749419
 20
50.7253883639
 10
146.1649007662
 20
50.730197796
 10
146.1416105449
 20
50.7356580953
 10
146.1186434699
 20
50.7417660117
 10
146.0960164756
 20
50.7485028261
 10
146.0737447993
 20
50.7558497678
 10
146.0517676034
 20
50.7638167456
 10
146.0301011837
 20
50.772391004
 10
146.0087615667
 20
50.7815593282
 10
145.9876917209
 20
50.7913434964
 10
145.9669091685
 20
50.8017360202
 10
145.9464320414
 20
50.8127285494
 10
145.926209967
 20
50.8243532434
 10
145.9062636016
 20
50.8366068484
 10
145.8866141743
 20
50.84948522
 10
145.8672194034
 20
50.8630299317
 10
145.8481048511
 20
50.8772407949
 10
145.8292959445
 20
50.8921172123
 10
145.8107590638
 20
50.9077100816
 10
145.7925273716
 20
50.9240201588
 10
145.7746308962
 20
50.9410504975
 10
145.7570424568
 20
50.9588649911
 10
145.7397822067
 20
50.9774898255
 10
145.7229113645
 20
50.9969068944
 10
145.7064715854
 20
51.0171169377
  0
LWPOLYLINE
  5
268
100
AcDbEntity
  8
RACCORDO
100
AcDbPolyline
 62
253
  6
CONTINUOUS
 90
31
 70
0
 10
146.338497105
 20
50.1846320208
 10
146.296399102
 20
50.185397507
 10
146.2549257691
 20
50.1873882329
 10
146.2140771064
 20
50.1906042024
 10
146.173863213
 20
50.195085392
 10
146.1342739898
 20
50.2007918413
 10
146.0952791392
 20
50.2076036518
 10
146.0568830442
 20
50.2155064438
 10
146.0190813219
 20
50.224514624
 10
145.9818305257
 20
50.2345514744
 10
145.9451315589
 20
50.2456033691
 10
145.9089835183
 20
50.2576839696
 10
145.8733402483
 20
50.2707574901
 10
145.8381987484
 20
50.2848116068
 10
145.803562019
 20
50.2998586872
 10
145.7693929062
 20
50.3158999835
 10
145.7356852276
 20
50.3329248444
 10
145.7024451656
 20
50.3509439739
 10
145.6696541127
 20
50.3699906604
 10
145.6373035303
 20
50.3900557165
 10
145.605401957
 20
50.411148393
 10
145.573956402
 20
50.4333296407
 10
145.5429564166
 20
50.4565914108
 10
145.5124124494
 20
50.4809418286
 10
145.4823628558
 20
50.5064661138
 10
145.452794904
 20
50.5331569117
 10
145.4237213258
 20
50.5610216698
 10
145.3952186713
 20
50.5901678221
 10
145.3673124575
 20
50.6206312199
 10
145.3399771675
 20
50.6523761258
 10
145.3132128014
 20
50.6854025992
  0
LWPOLYLINE
  5
269
100
AcDbEntity
  8
0
100
AcDbPolyline
 62
7
  6
CONTINUOUS
 90
25
 70
0
 10
161.6310958431
 20
47.1497110654
 10
161.5730740684
 20
47.1685773931
 10
161.5143784967
 20
47.1851206334
 10
161.4550091279
 20
47.1993406859
 10
161.3947779776
 20
47.2110120911
 10
161.3338730302
 20
47.2203601471
 10
161.2728582392
 20
47.2280609275
 10
161.2118681539
 20
47.2342031912
 10
161.1507682251
 20
47.2386981214
 10
161.0897187584
 20
47.2419554604
 10
161.0287262455
 20
47.2440439032
 10
160.9677841947
 20
47.244894738
 10
160.9070334369
 20
47.2447116089
 10
160.8465346511
 20
47.2434969638
 10
160.7862271583
 20
47.2412483584
 10
160.7260697518
 20
47.2381621014
 10
160.6660737638
 20
47.2342452703
 10
160.6062278622
 20
47.2294908027
 10
160.5464568445
 20
47.2240737974
 10
160.4867728224
 20
47.218000714
 10
160.4271636843
 20
47.2112651125
 10
160.3675178926
 20
47.204022739
 10
160.3077982684
 20
47.1963255143
 10
160.2480419906
 20
47.1881215366
 10
160.1882490593
 20
47.1794108167
  0
LWPOLYLINE
  5
26A
100
AcDbEntity
  8
RACCORDO
100
AcDbPolyline
 62
253
  6
CONTINUOUS
 90
16
 70
0
 10
145.3132128014
 20
152.8950337162
 10
145.3635814367
 20
152.9557153319
 10
145.4172346148
 20
153.0129515567
 10
145.4741723355
 20
153.0667426766
 10
145.5346335571
 20
153.1172957627
 10
145.5983793213
 20
153.164404268
 10
145.6646927539
 20
153.2074480777
 10
145.7336598411
 20
153.2463778835
 10
145.8051945966
 20
153.2812435193
 10
145.8783221867
 20
153.3115736225
 10
145.9530913883
 20
153.3372694037
 10
146.0294534244
 20
153.3584300688
 10
146.1062871306
 20
153.3748812343
 10
146.1832187853
 20
153.3865648483
 10
146.2606221101
 20
153.3935391834
 10
146.338497105
 20
153.3958042946
  0
LWPOLYLINE
  5
26B
100
AcDbEntity
  8
RACCORDO
100
AcDbPolyline
 62
253
  6
CONTINUOUS
 90
16
 70
0
 10
145.7064715854
 20
152.5633193778
 10
145.7374168949
 20
152.6002973088
 10
145.7705956824
 20
152.6353943982
 10
145.8058963983
 20
152.6684738412
 10
145.8432014647
 20
152.6994056798
 10
145.8823801783
 20
152.7280659388
 10
145.9232883584
 20
152.7543381731
 10
145.9658187238
 20
152.7781345782
 10
146.0097858355
 20
152.7993333562
 10
146.0549070714
 20
152.8178021749
 10
146.1010197701
 20
152.8334861022
 10
146.147942437
 20
152.846334794
 10
146.195342617
 20
152.8562874846
 10
146.2429868981
 20
152.8633417563
 10
146.2907500031
 20
152.8675227792
 10
146.3384585201
 20
152.8688550022
  0
LWPOLYLINE
  5
26C
100
AcDbEntity
  8
RACCORDO
100
AcDbPolyline
 62
253
  6
CONTINUOUS
 90
13
 70
0
 10
145.7064715854
 20
51.0171169377
 10
145.6804818656
 20
51.0520818224
 10
145.6563058753
 20
51.0886368416
 10
145.6340527426
 20
51.1266959004
 10
145.6137791215
 20
51.1662668176
 10
145.5956473369
 20
51.2071512517
 10
145.5798670065
 20
51.2489194281
 10
145.5664791149
 20
51.2914276882
 10
145.555509683
 20
51.3345485878
 10
145.5470321735
 20
51.3778394256
 10
145.5410218427
 20
51.4210534639
 10
145.5374120694
 20
51.4641542743
 10
145.536151739
 20
51.5070105536
  0
LWPOLYLINE
  5
26D
100
AcDbEntity
  8
RACCORDO
100
AcDbPolyline
 62
253
  6
CONTINUOUS
 90
13
 70
0
 10
145.3132128014
 20
50.6854025992
 10
145.2708464089
 20
50.7424614561
 10
145.2317377335
 20
50.8018434082
 10
145.1958867752
 20
50.8635485006
 10
145.1630960018
 20
50.9279483305
 10
145.1335629455
 20
50.994671401
 10
145.1078802027
 20
51.0626030936
 10
145.0862078477
 20
51.1317619935
 10
145.0683858061
 20
51.2021295673
 10
145.0545264512
 20
51.2725354682
 10
145.0446672407
 20
51.342589568
 10
145.0387707168
 20
51.4126819872
 10
145.0368368795
 20
51.4828127249
  0
LINE
  5
26E
100
AcDbEntity
  8
RACCORDO
100
AcDbLine
 62
253
  6
CONTINUOUS
 10
175.7467607999
 20
171.1673782354
 11
175.8696007222
 21
171.2902181577
  0
LINE
  5
26F
100
AcDbEntity
  8
RACCORDO
100
AcDbLine
 62
253
  6
CONTINUOUS
 10
176.7367002487
 20
170.1600586147
 11
176.868230257
 21
170.291588623
  0
LWPOLYLINE
  5
270
100
AcDbEntity
  8
RACCORDO
100
AcDbPolyline
 62
253
  6
CONTINUOUS
 90
12
 70
0
 10
168.2028349357
 20
152.7182875099
 10
168.1759726044
 20
152.6960041991
 10
168.1508918425
 20
152.6749738953
 10
168.1277733558
 20
152.6553481212
 10
168.1067837125
 20
152.6372682798
 10
168.0880741421
 20
152.6208646357
 10
168.0717794465
 20
152.6062553765
 10
168.0580170284
 20
152.5935457616
 10
168.0468860457
 20
152.5828273631
 10
168.0384666966
 20
152.5741774069
 10
168.0328196424
 20
152.5676582155
 10
168.0299855699
 20
152.5633167594
  0
LINE
  5
271
100
AcDbEntity
  8
RACCORDO
100
AcDbLine
 62
253
  6
CONTINUOUS
 10
168.2611186956
 20
152.7659630795
 11
168.2028349357
 21
152.7182875099
  0
LINE
  5
272
100
AcDbEntity
  8
RACCORDO
100
AcDbLine
 62
253
  6
CONTINUOUS
 10
168.3240664175
 20
152.8166290758
 11
168.2611186956
 21
152.7659630795
  0
LWPOLYLINE
  5
273
100
AcDbEntity
  8
RACCORDO
100
AcDbPolyline
 62
253
  6
CONTINUOUS
 90
3
 70
0
 10
168.4232477125
 20
152.8950334786
 10
168.3898672242
 20
152.8688279419
 10
168.3240664175
 20
152.8166290758
  0
LINE
  5
274
100
AcDbEntity
  8
RACCORDO
100
AcDbLine
 62
253
  6
CONTINUOUS
 10
168.4232477127
 20
50.6854028818
 11
168.3567271613
 21
50.7378061813
  0
LINE
  5
275
100
AcDbEntity
  8
RACCORDO
100
AcDbLine
 62
253
  6
CONTINUOUS
 10
168.3567271613
 20
50.7378061813
 11
168.2921200839
 21
50.7894246262
  0
LWPOLYLINE
  5
276
100
AcDbEntity
  8
RACCORDO
100
AcDbPolyline
 62
253
  6
CONTINUOUS
 90
14
 70
0
 10
168.2921200839
 20
50.7894246262
 10
168.2312851003
 20
50.8387732553
 10
168.2028346945
 20
50.8621490586
 10
168.1759723144
 20
50.8844324054
 10
168.150891503
 20
50.9054627444
 10
168.1277729676
 20
50.9250885525
 10
168.1067832768
 20
50.9431684259
 10
168.0880736613
 20
50.9595720995
 10
168.0717789238
 20
50.9741813849
 10
168.0580164677
 20
50.9868910226
 10
168.0468854514
 20
50.9976094398
 10
168.0384660739
 20
51.0062594105
 10
168.0328189968
 20
51.0127786119
 10
168.0299849072
 20
51.0171200733
  0
LINE
  5
277
100
AcDbEntity
  8
RACCORDO
100
AcDbLine
 62
253
  6
CONTINUOUS
 10
175.7467607999
 20
32.4130580801
 11
175.8696007222
 21
32.2902181577
  0
LINE
  5
278
100
AcDbEntity
  8
RACCORDO
100
AcDbLine
 62
253
  6
CONTINUOUS
 10
176.7367002487
 20
33.4203777008
 11
176.868230257
 21
33.2888476925
  0
LINE
  5
279
100
AcDbEntity
  8
RACCORDO
100
AcDbLine
 62
253
  6
CONTINUOUS
 10
168.2003087983
 20
152.0734257845
 11
168.118230257
 21
151.9913145299
  0
LINE
  5
27A
100
AcDbEntity
  8
RACCORDO
100
AcDbLine
 62
253
  6
CONTINUOUS
 10
167.3979717876
 20
152.8688549375
 11
167.3193266292
 21
152.7902181577
  0
LINE
  5
27B
100
AcDbEntity
  8
RACCORDO
100
AcDbLine
 62
253
  6
CONTINUOUS
 10
137.155624686
 20
73.2902181577
 11
145.5084737153
 21
73.2902181577
  0
LINE
  5
27C
100
AcDbEntity
  8
RACCORDO
100
AcDbLine
 62
253
  6
CONTINUOUS
 10
168.2279867987
 20
73.2902181577
 11
176.580835828
 21
73.2902181577
  0
LINE
  5
27D
100
AcDbEntity
  8
RACCORDO
100
AcDbLine
 62
253
  6
CONTINUOUS
 10
167.3980019282
 20
50.711581378
 11
167.3193266292
 21
50.7902181577
  0
LINE
  5
27E
100
AcDbEntity
  8
RACCORDO
100
AcDbLine
 62
253
  6
CONTINUOUS
 10
168.2003088446
 20
51.5070325093
 11
168.118230257
 21
51.5891217855
  0
LWPOLYLINE
  5
27F
100
AcDbEntity
  8
RACCORDO
100
AcDbPolyline
 62
253
  6
CONTINUOUS
 90
28
 70
0
 10
136.9997602653
 20
33.4203777008
 10
137.001035717
 20
33.3609680489
 10
137.0057715673
 20
33.3018581957
 10
137.0139346645
 20
33.2432492174
 10
137.0254734506
 20
33.1853582636
 10
137.0403362202
 20
33.1283596704
 10
137.0584835792
 20
33.0723876147
 10
137.0798657995
 20
33.0175902458
 10
137.1043920146
 20
32.9641947087
 10
137.1319450924
 20
32.9124449829
 10
137.1624025855
 20
32.8625302017
 10
137.1956572852
 20
32.8145878184
 10
137.2315916335
 20
32.7687689739
 10
137.2700710965
 20
32.725220073
 10
137.3109549517
 20
32.6840759699
 10
137.3541074499
 20
32.6454598656
 10
137.3993730275
 20
32.6094934941
 10
137.446593656
 20
32.5762848989
 10
137.4956242094
 20
32.5459269299
 10
137.5463020158
 20
32.5185107096
 10
137.5984483316
 20
32.4941227848
 10
137.6518890566
 20
32.4728372282
 10
137.7064353319
 20
32.4547199398
 10
137.761911532
 20
32.4398193956
 10
137.8181604985
 20
32.4281726629
 10
137.8750052109
 20
32.4198144168
 10
137.9322480087
 20
32.41477156
 10
137.9896997141
 20
32.4130580801
  0
LINE
  5
280
100
AcDbEntity
  8
0
100
AcDbLine
 62
7
  6
CONTINUOUS
 10
152.252123257
 20
44.4124171577
 11
151.364562257
 21
47.2121201577
  0
LWPOLYLINE
  5
281
100
AcDbEntity
  8
RACCORDO
100
AcDbPolyline
 62
253
  6
CONTINUOUS
 90
28
 70
0
 10
137.2993491257
 20
33.3530142088
 10
137.3000930204
 20
33.3110053597
 10
137.3032045779
 20
33.2694556652
 10
137.3086837983
 20
33.2283649977
 10
137.3165678639
 20
33.1876010047
 10
137.3268195924
 20
33.1472958118
 10
137.3393274364
 20
33.1078458952
 10
137.3541235321
 20
33.0692432412
 10
137.3711757434
 20
33.0314953977
 10
137.3902761137
 20
32.9950219606
 10
137.4114402982
 20
32.9598547737
 10
137.4346526417
 20
32.9259613363
 10
137.4596582231
 20
32.8936645482
 10
137.4864724601
 20
32.8629810945
 10
137.5150799348
 20
32.8338935617
 10
137.5451794723
 20
32.8066735915
 10
137.5767830473
 20
32.7813401757
 10
137.609878685
 20
32.7578736055
 10
137.644129286
 20
32.7364874132
 10
137.6795456271
 20
32.7172015239
 10
137.7161169315
 20
32.6999953906
 10
137.7534737685
 20
32.6850218285
 10
137.7916290094
 20
32.6723026387
 10
137.830569783
 20
32.6618155636
 10
137.8698880447
 20
32.6536473584
 10
137.9094477797
 20
32.6478268591
 10
137.9493850028
 20
32.6443249894
 10
137.9896997141
 20
32.6431416894
  0
LWPOLYLINE
  5
282
100
AcDbEntity
  8
RACCORDO
100
AcDbPolyline
 62
253
  6
CONTINUOUS
 90
9
 70
0
 10
136.9997602653
 20
170.1600586147
 10
137.021641309
 20
168.2632740808
 10
137.0415592428
 20
166.3601294508
 10
137.0595140666
 20
164.4506247246
 10
137.0755112113
 20
162.534021773
 10
137.089545246
 20
160.6110587252
 10
137.1015998783
 20
158.6839499691
 10
137.1116696772
 20
156.7534336341
 10
137.1197600738
 20
154.8187715908
  0
LWPOLYLINE
  5
283
100
AcDbEntity
  8
RACCORDO
100
AcDbPolyline
 62
253
  6
CONTINUOUS
 90
9
 70
0
 10
137.2993491257
 20
170.2274221067
 10
137.321231106
 20
168.3260176193
 10
137.3411496153
 20
166.4168044855
 10
137.3591046538
 20
164.5005149223
 10
137.3751014751
 20
162.5779019928
 10
137.3891348256
 20
160.6496848946
 10
137.4011889439
 20
158.7165481799
 10
137.4112585761
 20
156.7792144041
 10
137.4193489761
 20
154.8384443381
  0
LINE
  5
284
100
AcDbEntity
  8
RACCORDO
100
AcDbLine
 62
253
  6
CONTINUOUS
 10
137.1197600738
 20
154.8187715908
 11
137.1349617248
 21
149.1171534906
  0
LINE
  5
285
100
AcDbEntity
  8
RACCORDO
100
AcDbLine
 62
253
  6
CONTINUOUS
 10
137.4193489761
 20
154.8384443381
 11
137.4345505894
 21
149.1297112759
  0
LINE
  5
286
100
AcDbEntity
  8
RACCORDO
100
AcDbLine
 62
253
  6
CONTINUOUS
 10
137.1349617248
 20
149.1171534906
 11
137.1445117523
 21
144.0985694566
  0
LINE
  5
287
100
AcDbEntity
  8
RACCORDO
100
AcDbLine
 62
253
  6
CONTINUOUS
 10
137.4345505894
 20
149.1297112759
 11
137.4441006139
 21
144.1077771923
  0
LINE
  5
288
100
AcDbEntity
  8
RACCORDO
100
AcDbLine
 62
253
  6
CONTINUOUS
 10
137.1445117523
 20
144.0985694566
 11
137.1511239101
 21
139.078455854
  0
LINE
  5
289
100
AcDbEntity
  8
RACCORDO
100
AcDbLine
 62
253
  6
CONTINUOUS
 10
137.4441006139
 20
144.1077771923
 11
137.45071277
 21
139.0843223313
  0
LINE
  5
28A
100
AcDbEntity
  8
RACCORDO
100
AcDbLine
 62
253
  6
CONTINUOUS
 10
137.1511239101
 20
139.078455854
 11
137.154797891
 21
134.0570280058
  0
LINE
  5
28B
100
AcDbEntity
  8
RACCORDO
100
AcDbLine
 62
253
  6
CONTINUOUS
 10
137.45071277
 20
139.0843223313
 11
137.4543867507
 21
134.0595425462
  0
LINE
  5
28C
100
AcDbEntity
  8
RACCORDO
100
AcDbLine
 62
7
  6
CONTINUOUS
 10
136.868230257
 20
33.2888476925
 11
136.868230257
 21
170.291588623
  0
LINE
  5
28D
100
AcDbEntity
  8
RACCORDO
100
AcDbLine
 62
253
  6
CONTINUOUS
 10
137.9896997141
 20
32.6431416894
 11
137.9896997141
 21
32.4130580801
  0
LINE
  5
28E
100
AcDbEntity
  8
RACCORDO
100
AcDbLine
 62
253
  6
CONTINUOUS
 10
137.9896997141
 20
170.9372946261
 11
137.9896997137
 21
171.1673782354
  0
LINE
  5
28F
100
AcDbEntity
  8
RACCORDO
100
AcDbLine
 62
253
  6
CONTINUOUS
 10
137.154797891
 20
134.0570280058
 11
137.1533282093
 21
67.0125411437
  0
LINE
  5
290
100
AcDbEntity
  8
RACCORDO
100
AcDbLine
 62
253
  6
CONTINUOUS
 10
137.4543867507
 20
134.0595425462
 11
137.452917069
 21
67.0083552836
  0
LINE
  5
291
100
AcDbEntity
  8
RACCORDO
100
AcDbLine
 62
253
  6
CONTINUOUS
 10
137.1533282093
 20
67.0125411437
 11
137.149746297
 21
63.2468187631
  0
LINE
  5
292
100
AcDbEntity
  8
RACCORDO
100
AcDbLine
 62
253
  6
CONTINUOUS
 10
137.452917069
 20
67.0083552836
 11
137.4493351572
 21
63.2401217761
  0
LINE
  5
293
100
AcDbEntity
  8
RACCORDO
100
AcDbLine
 62
253
  6
CONTINUOUS
 10
137.149746297
 20
63.2468187631
 11
137.1423996698
 21
58.2270704144
  0
LINE
  5
294
100
AcDbEntity
  8
RACCORDO
100
AcDbLine
 62
253
  6
CONTINUOUS
 10
137.4493351572
 20
63.2401217761
 11
137.441988532
 21
58.2170226188
  0
LINE
  5
295
100
AcDbEntity
  8
RACCORDO
100
AcDbLine
 62
253
  6
CONTINUOUS
 10
137.1423996698
 20
58.2270704144
 11
137.1376246685
 21
55.7177734136
  0
LINE
  5
296
100
AcDbEntity
  8
RACCORDO
100
AcDbLine
 62
253
  6
CONTINUOUS
 10
137.441988532
 20
58.2170226188
 11
137.4372135234
 21
55.7060518375
  0
LINE
  5
297
100
AcDbEntity
  8
RACCORDO
100
AcDbLine
 62
253
  6
CONTINUOUS
 10
137.1376246685
 20
55.7177734136
 11
137.1258710678
 21
50.7004724762
  0
LINE
  5
298
100
AcDbEntity
  8
RACCORDO
100
AcDbLine
 62
253
  6
CONTINUOUS
 10
137.4372135234
 20
55.7060518375
 11
137.425460054
 21
50.6854546614
  0
LWPOLYLINE
  5
299
100
AcDbEntity
  8
RACCORDO
100
AcDbPolyline
 62
253
  6
CONTINUOUS
 90
10
 70
0
 10
137.1258710678
 20
50.7004724762
 10
137.1197600482
 20
48.7616585394
 10
137.1116696175
 20
46.8269906475
 10
137.1015997759
 20
44.8964688006
 10
137.0895450725
 20
42.9693532564
 10
137.0755109582
 20
41.0463837571
 10
137.0595137851
 20
39.1297795293
 10
137.041559004
 20
37.2202803151
 10
137.021641164
 20
35.3171463722
 10
136.9997602653
 20
33.4203777008
  0
LWPOLYLINE
  5
29A
100
AcDbEntity
  8
RACCORDO
100
AcDbPolyline
 62
253
  6
CONTINUOUS
 90
10
 70
0
 10
137.4254601449
 20
50.6854546614
 10
137.4193489747
 20
48.7419921866
 10
137.4112585752
 20
46.8012222835
 10
137.4011889464
 20
44.8638888747
 10
137.3891348375
 20
42.9307529971
 10
137.3751014992
 20
41.0025369349
 10
137.3591046837
 20
39.079924439
 10
137.3411496416
 20
37.1636344466
 10
137.3212311223
 20
35.2544202949
 10
137.2993491257
 20
33.3530142088
  0
LINE
  5
29B
100
AcDbEntity
  8
0
100
AcDbLine
 62
7
  6
CONTINUOUS
 10
156.153743257
 20
44.4124171577
 11
155.468162257
 21
46.2405711577
  0
LINE
  5
29C
100
AcDbEntity
  8
0
100
AcDbLine
 62
7
  6
CONTINUOUS
 10
156.197916257
 20
45.6577161577
 11
155.619680257
 21
47.2121201577
  0
LINE
  5
29D
100
AcDbEntity
  8
0
100
AcDbLine
 62
7
  6
CONTINUOUS
 10
152.533084257
 20
45.2849981577
 11
151.999410257
 21
47.2121201577
  0
LINE
  5
29E
100
AcDbEntity
  8
RACCORDO
100
AcDbLine
 62
253
  6
CONTINUOUS
 10
145.0368368795
 20
51.4828127249
 11
145.025644908
 21
56.4697364658
  0
LINE
  5
29F
100
AcDbEntity
  8
RACCORDO
100
AcDbLine
 62
253
  6
CONTINUOUS
 10
145.5361517157
 20
51.507010531
 11
145.5249596984
 21
56.4885267211
  0
LINE
  5
2A0
100
AcDbEntity
  8
RACCORDO
100
AcDbLine
 62
253
  6
CONTINUOUS
 10
145.025644908
 20
56.4697364658
 11
145.0174102538
 21
61.3765147325
  0
LINE
  5
2A1
100
AcDbEntity
  8
RACCORDO
100
AcDbLine
 62
253
  6
CONTINUOUS
 10
145.5249596984
 20
56.4885267211
 11
145.5167250218
 21
61.3897195492
  0
LINE
  5
2A2
100
AcDbEntity
  8
RACCORDO
100
AcDbLine
 62
253
  6
CONTINUOUS
 10
145.0174102538
 20
61.3765147325
 11
145.0120810515
 21
66.2026193133
  0
LINE
  5
2A3
100
AcDbEntity
  8
RACCORDO
100
AcDbLine
 62
253
  6
CONTINUOUS
 10
145.5167250218
 20
61.3897195492
 11
145.5113958167
 21
66.2104970796
  0
LINE
  5
2A4
100
AcDbEntity
  8
RACCORDO
100
AcDbLine
 62
253
  6
CONTINUOUS
 10
145.0120810515
 20
66.2026193133
 11
145.0094498399
 21
70.9480067586
  0
LINE
  5
2A5
100
AcDbEntity
  8
RACCORDO
100
AcDbLine
 62
253
  6
CONTINUOUS
 10
145.5113958167
 20
66.2104970796
 11
145.5087646057
 21
70.9504915693
  0
LINE
  5
2A6
100
AcDbEntity
  8
RACCORDO
100
AcDbLine
 62
253
  6
CONTINUOUS
 10
145.0094498399
 20
70.9480067586
 11
145.0091589479
 21
95.1010710717
  0
LINE
  5
2A7
100
AcDbEntity
  8
RACCORDO
100
AcDbLine
 62
253
  6
CONTINUOUS
 10
145.5087646057
 20
70.9504915693
 11
145.5084737153
 21
95.1010771723
  0
LINE
  5
2A8
100
AcDbEntity
  8
RACCORDO
100
AcDbLine
 62
7
  6
CONTINUOUS
 10
145.618230257
 20
151.9902181577
 11
145.618230257
 21
108.5902181577
  0
LINE
  5
2A9
100
AcDbEntity
  8
RACCORDO
100
AcDbLine
 62
7
  6
CONTINUOUS
 10
145.618230257
 20
94.9902181577
 11
145.618230257
 21
51.5902181577
  0
LINE
  5
2AA
100
AcDbEntity
  8
RACCORDO
100
AcDbLine
 62
253
  6
CONTINUOUS
 10
146.3073773431
 20
96.3992894668
 11
146.3073773431
 21
95.8999746995
  0
LINE
  5
2AB
100
AcDbEntity
  8
RACCORDO
100
AcDbLine
 62
253
  6
CONTINUOUS
 10
146.3073773431
 20
107.1811468486
 11
146.307377343
 21
107.680461616
  0
LINE
  5
2AC
100
AcDbEntity
  8
RACCORDO
100
AcDbLine
 62
253
  6
CONTINUOUS
 10
146.338497105
 20
153.3958042946
 11
146.338497105
 21
152.8688549375
  0
LINE
  5
2AD
100
AcDbEntity
  8
RACCORDO
100
AcDbLine
 62
253
  6
CONTINUOUS
 10
146.338497105
 20
50.1846320208
 11
146.338497105
 21
50.711581378
  0
LINE
  5
2AE
100
AcDbEntity
  8
RACCORDO
100
AcDbLine
 62
253
  6
CONTINUOUS
 10
145.0091589479
 20
108.4793652438
 11
145.0104296348
 21
135.0031633179
  0
LINE
  5
2AF
100
AcDbEntity
  8
RACCORDO
100
AcDbLine
 62
253
  6
CONTINUOUS
 10
145.5084737153
 20
108.4793294021
 11
145.5097444
 21
134.9980209244
  0
LINE
  5
2B0
100
AcDbEntity
  8
RACCORDO
100
AcDbLine
 62
253
  6
CONTINUOUS
 10
145.0104296348
 20
135.0031633179
 11
145.0144166846
 21
139.792484296
  0
LINE
  5
2B1
100
AcDbEntity
  8
RACCORDO
100
AcDbLine
 62
253
  6
CONTINUOUS
 10
145.5097444
 20
134.9980209244
 11
145.5137314545
 21
139.7819069615
  0
LINE
  5
2B2
100
AcDbEntity
  8
RACCORDO
100
AcDbLine
 62
253
  6
CONTINUOUS
 10
145.0144166846
 20
139.792484296
 11
145.0211689985
 21
144.657739377
  0
LINE
  5
2B3
100
AcDbEntity
  8
RACCORDO
100
AcDbLine
 62
253
  6
CONTINUOUS
 10
145.5137314545
 20
139.7819069615
 11
145.5204837788
 21
144.6417831459
  0
LWPOLYLINE
  5
2B4
100
AcDbEntity
  8
RACCORDO
100
AcDbPolyline
 62
253
  6
CONTINUOUS
 90
3
 70
0
 10
145.0211689985
 20
144.657739377
 10
145.0308821847
 20
149.5988618137
 10
145.0368368795
 20
152.0976235905
  0
LWPOLYLINE
  5
2B5
100
AcDbEntity
  8
RACCORDO
100
AcDbPolyline
 62
253
  6
CONTINUOUS
 90
3
 70
0
 10
145.5204837788
 20
144.6417831459
 10
145.5301969719
 20
149.5772769852
 10
145.5361516693
 20
152.0734038062
  0
LWPOLYLINE
  5
2B6
100
AcDbEntity
  8
RACCORDO
100
AcDbPolyline
 62
253
  6
CONTINUOUS
 90
28
 70
0
 10
145.5084737073
 20
95.1010771802
 10
145.5096883789
 20
95.1466128514
 10
145.5135163503
 20
95.1922470874
 10
145.519988701
 20
95.2378279308
 10
145.5291345303
 20
95.2832326706
 10
145.5409636073
 20
95.3282672705
 10
145.5554472029
 20
95.3726718585
 10
145.5725828927
 20
95.4163351288
 10
145.5923222026
 20
95.459047537
 10
145.6144947981
 20
95.5004254552
 10
145.6389636367
 20
95.540265006
 10
145.6656671364
 20
95.5785143196
 10
145.6944954016
 20
95.6150471585
 10
145.7252955534
 20
95.6497081565
 10
145.757985704
 20
95.6824409611
 10
145.7925738818
 20
95.7132589517
 10
145.8289798905
 20
95.7420716165
 10
145.867062405
 20
95.7687488411
 10
145.9067549052
 20
95.7932236856
 10
145.9480083941
 20
95.8154304403
 10
145.9906234651
 20
95.8352280375
 10
146.0342906088
 20
95.8524663303
 10
146.0788683712
 20
95.8670974191
 10
146.1241900476
 20
95.8790754057
 10
146.1698817228
 20
95.8883327182
 10
146.2157069979
 20
95.8948762175
 10
146.2615784138
 20
95.8987458456
 10
146.3073414546
 20
95.8999747454
  0
LWPOLYLINE
  5
2B7
100
AcDbEntity
  8
RACCORDO
100
AcDbPolyline
 62
253
  6
CONTINUOUS
 90
13
 70
0
 10
145.0368368795
 20
152.0976235905
 10
145.0387097571
 20
152.1671191646
 10
145.0445181128
 20
152.2366805825
 10
145.0542619465
 20
152.306307841
 10
145.0679510384
 20
152.3763712053
 10
145.0855756084
 20
152.4465003982
 10
145.107106316
 20
152.5155846288
 10
145.132720343
 20
152.5836570752
 10
145.1622405075
 20
152.6506846029
 10
145.1951059242
 20
152.7154570049
 10
145.2311296312
 20
152.7775709213
 10
145.2704985902
 20
152.8374298104
 10
145.3132128014
 20
152.8950337162
  0
LWPOLYLINE
  5
2B8
100
AcDbEntity
  8
RACCORDO
100
AcDbPolyline
 62
253
  6
CONTINUOUS
 90
28
 70
0
 10
145.0091589479
 20
95.1010710717
 10
145.0111750897
 20
95.1752133357
 10
145.0175085131
 20
95.249061704
 10
145.0281592183
 20
95.3226161766
 10
145.043149362
 20
95.3962021745
 10
145.0624567874
 20
95.4694942766
 10
145.0860150243
 20
95.5415162204
 10
145.1139601188
 20
95.6123055495
 10
145.1461560249
 20
95.6818247203
 10
145.182128134
 20
95.7489848393
 10
145.2218915281
 20
95.8136208401
 10
145.2654311253
 20
95.8758977891
 10
145.3122270712
 20
95.9352219915
 10
145.3622255054
 20
95.99150672
 10
145.4154802884
 20
96.044838702
 10
145.4716331477
 20
96.0948844252
 10
145.5307301104
 20
96.1416817122
 10
145.5927251494
 20
96.1851927403
 10
145.6571219101
 20
96.2249705293
 10
145.724073299
 20
96.2610258169
 10
145.7934264097
 20
96.2933478652
 10
145.864226169
 20
96.321457481
 10
145.9365289174
 20
96.3452470159
 10
146.0102783144
 20
96.3648241183
 10
146.0843502649
 20
96.3800325394
 10
146.1583700707
 20
96.3908201964
 10
146.2327124301
 20
96.3972391723
 10
146.3073773431
 20
96.3992894668
  0
LWPOLYLINE
  5
2B9
100
AcDbEntity
  8
RACCORDO
100
AcDbPolyline
 62
253
  6
CONTINUOUS
 90
13
 70
0
 10
145.5361516768
 20
152.0734037988
 10
145.5373923135
 20
152.1159315852
 10
145.540951556
 20
152.1587489382
 10
145.5468871871
 20
152.2017265659
 10
145.555268213
 20
152.2448101384
 10
145.5661287815
 20
152.2877732881
 10
145.5794226095
 20
152.3302291388
 10
145.5951536499
 20
152.3720786942
 10
145.6132872979
 20
152.4131377043
 10
145.6336072488
 20
152.4529265701
 10
145.65595028
 20
152.4912275988
 10
145.6802728255
 20
152.5280563006
 10
145.7064715854
 20
152.5633193778
  0
LINE
  5
2BA
100
AcDbEntity
  8
RACCORDO
100
AcDbLine
 62
253
  6
CONTINUOUS
 10
145.5084737153
 20
108.4793294021
 11
145.618230257
 21
108.5891217855
  0
LINE
  5
2BB
100
AcDbEntity
  8
RACCORDO
100
AcDbLine
 62
253
  6
CONTINUOUS
 10
146.3073712424
 20
107.680461616
 11
146.4171338848
 21
107.7902181577
  0
LINE
  5
2BC
100
AcDbEntity
  8
RACCORDO
100
AcDbLine
 62
253
  6
CONTINUOUS
 10
146.3073415014
 20
95.8999746995
 11
146.4171338848
 21
95.7902181577
  0
LINE
  5
2BD
100
AcDbEntity
  8
RACCORDO
100
AcDbLine
 62
253
  6
CONTINUOUS
 10
145.5084737153
 20
95.1010771723
 11
145.618230257
 21
94.9913145299
  0
LWPOLYLINE
  5
2BE
100
AcDbEntity
  8
0
100
AcDbPolyline
 62
7
  6
CONTINUOUS
 90
8
 70
0
 10
161.4095662157
 20
45.2617310864
 10
161.423737209
 20
45.2227557857
 10
161.4374340574
 20
45.1836842066
 10
161.450656761
 20
45.1445163674
 10
161.4633330304
 20
45.1052575625
 10
161.475535155
 20
45.0659025344
 10
161.487480003
 20
45.0264354751
 10
161.4991678435
 20
44.9868614631
  0
LINE
  5
2BF
100
AcDbEntity
  8
0
100
AcDbLine
 62
7
  6
CONTINUOUS
 10
160.016638257
 20
44.4124171577
 11
159.157620257
 21
47.2121201577
  0
LINE
  5
2C0
100
AcDbEntity
  8
0
100
AcDbLine
 62
7
  6
CONTINUOUS
 10
161.567773102
 20
44.7465090267
 11
161.6652458789
 21
44.4124168034
  0
LWPOLYLINE
  5
2C1
100
AcDbEntity
  8
0
100
AcDbPolyline
 62
7
  6
CONTINUOUS
 90
4
 70
0
 10
161.4991678435
 20
44.9868614631
 10
161.5333493608
 20
44.8673779611
 10
161.5446697502
 20
44.8272665131
 10
161.567773102
 20
44.7465090267
  0
LWPOLYLINE
  5
2C2
100
AcDbEntity
  8
0
100
AcDbPolyline
 62
7
  6
CONTINUOUS
 90
24
 70
0
 10
162.0045684877
 20
45.254522167
 10
161.9986087432
 20
45.2755006838
 10
161.9923401382
 20
45.2965231981
 10
161.9857494231
 20
45.3175903219
 10
161.9788498476
 20
45.3387014472
 10
161.971474419
 20
45.3599338531
 10
161.9636172305
 20
45.3813214673
 10
161.9552841889
 20
45.4028303781
 10
161.9463260218
 20
45.4244361089
 10
161.936750753
 20
45.4461791704
 10
161.9265503587
 20
45.4680190648
 10
161.9155514944
 20
45.4898097928
 10
161.9037840991
 20
45.5115724708
 10
161.8912182339
 20
45.5332859744
 10
161.8775907372
 20
45.5547409176
 10
161.8629614092
 20
45.5759784909
 10
161.8472704498
 20
45.5969574692
 10
161.8300752962
 20
45.6173448091
 10
161.8113653813
 20
45.6372991614
 10
161.7911512723
 20
45.6566618065
 10
161.769022108
 20
45.6746235765
 10
161.7448409346
 20
45.6909146787
 10
161.7187447059
 20
45.7058047482
 10
161.6907334219
 20
45.7192937209
  0
LINE
  5
2C3
100
AcDbEntity
  8
0
100
AcDbLine
 62
7
  6
CONTINUOUS
 10
159.400696257
 20
44.4124171577
 11
159.249304257
 21
44.9713371577
  0
LINE
  5
2C4
100
AcDbEntity
  8
0
100
AcDbLine
 62
7
  6
CONTINUOUS
 10
159.132510257
 20
45.4038271577
 11
158.863967257
 21
46.4428331577
  0
LINE
  5
2C5
100
AcDbEntity
  8
RACCORDO
100
AcDbLine
 62
253
  6
CONTINUOUS
 10
168.7273015661
 20
95.1010710717
 11
168.2279867987
 21
95.1010710717
  0
LINE
  5
2C6
100
AcDbEntity
  8
RACCORDO
100
AcDbLine
 62
253
  6
CONTINUOUS
 10
145.0091589479
 20
95.1010710717
 11
145.5084737153
 21
95.1010710717
  0
LINE
  5
2C7
100
AcDbEntity
  8
RACCORDO
100
AcDbLine
 62
7
  6
CONTINUOUS
 10
167.318230257
 20
95.7902181577
 11
146.418230257
 21
95.7902181577
  0
LINE
  5
2C8
100
AcDbEntity
  8
RACCORDO
100
AcDbLine
 62
253
  6
CONTINUOUS
 10
146.3073415014
 20
95.8999746995
 11
167.4290892715
 21
95.8999746995
  0
LINE
  5
2C9
100
AcDbEntity
  8
RACCORDO
100
AcDbLine
 62
253
  6
CONTINUOUS
 10
146.3073773431
 20
96.3992894668
 11
167.4290831709
 21
96.3992894668
  0
LWPOLYLINE
  5
2CA
100
AcDbEntity
  8
RACCORDO
100
AcDbPolyline
 62
253
  6
CONTINUOUS
 90
28
 70
0
 10
167.4290892795
 20
95.8999747074
 10
167.4746249507
 20
95.8987600358
 10
167.5202591866
 20
95.8949320644
 10
167.56584003
 20
95.8884597137
 10
167.6112447699
 20
95.8793138844
 10
167.6562793698
 20
95.8674848074
 10
167.7006839578
 20
95.8530012118
 10
167.7443472281
 20
95.835865522
 10
167.7870596363
 20
95.8161262121
 10
167.8284375544
 20
95.7939536166
 10
167.8682771053
 20
95.769484778
 10
167.9065264188
 20
95.7427812783
 10
167.9430592578
 20
95.7139530131
 10
167.9777202557
 20
95.6831528613
 10
168.0104530603
 20
95.6504627108
 10
168.041271051
 20
95.6158745329
 10
168.0700837158
 20
95.5794685242
 10
168.0967609403
 20
95.5413860097
 10
168.1212357848
 20
95.5016935095
 10
168.1434425395
 20
95.4604400206
 10
168.1632401368
 20
95.4178249497
 10
168.1804784296
 20
95.3741578059
 10
168.1951095183
 20
95.3295800435
 10
168.207087505
 20
95.2842583671
 10
168.2163448174
 20
95.238566692
 10
168.2228883168
 20
95.1927414168
 10
168.2267579449
 20
95.1468700009
 10
168.2279868446
 20
95.1011069601
  0
LWPOLYLINE
  5
2CB
100
AcDbEntity
  8
RACCORDO
100
AcDbPolyline
 62
253
  6
CONTINUOUS
 90
28
 70
0
 10
167.4290831709
 20
96.3992894668
 10
167.5032254349
 20
96.3972733251
 10
167.5770738033
 20
96.3909399016
 10
167.6506282759
 20
96.3802891964
 10
167.7242142737
 20
96.3652990527
 10
167.7975063758
 20
96.3459916273
 10
167.8695283196
 20
96.3224333904
 10
167.9403176488
 20
96.2944882959
 10
168.0098368196
 20
96.2622923898
 10
168.0769969385
 20
96.2263202807
 10
168.1416329394
 20
96.1865568866
 10
168.2039098883
 20
96.1430172895
 10
168.2632340908
 20
96.0962213435
 10
168.3195188193
 20
96.0462229093
 10
168.3728508013
 20
95.9929681263
 10
168.4228965244
 20
95.936815267
 10
168.4696938114
 20
95.8777183043
 10
168.5132048396
 20
95.8157232654
 10
168.5529826286
 20
95.7513265046
 10
168.5890379161
 20
95.6843751157
 10
168.6213599645
 20
95.615022005
 10
168.6494695803
 20
95.5442222457
 10
168.6732591152
 20
95.4719194973
 10
168.6928362176
 20
95.3981701003
 10
168.7080446387
 20
95.3240981498
 10
168.7188322957
 20
95.250078344
 10
168.7252512715
 20
95.1757359846
 10
168.7273015661
 20
95.1010710717
  0
LWPOLYLINE
  5
2CC
100
AcDbEntity
  8
0
100
AcDbPolyline
 62
7
  6
CONTINUOUS
 90
3
 70
0
 10
162.0219728422
 20
45.1913232929
 10
162.0162505373
 20
45.2124334676
 10
162.0045684877
 20
45.254522167
  0
LINE
  5
2CD
100
AcDbEntity
  8
0
100
AcDbLine
 62
7
  6
CONTINUOUS
 10
162.0971049293
 20
44.9095731448
 11
162.0219728422
 21
45.1913232929
  0
LINE
  5
2CE
100
AcDbEntity
  8
0
100
AcDbLine
 62
7
  6
CONTINUOUS
 10
162.2273784689
 20
44.4124168034
 11
162.0971049293
 21
44.9095731448
  0
LINE
  5
2CF
100
AcDbEntity
  8
0
100
AcDbLine
 62
7
  6
CONTINUOUS
 10
157.622342257
 20
44.4124171577
 11
157.360538257
 21
47.2121201577
  0
LINE
  5
2D0
100
AcDbEntity
  8
0
100
AcDbLine
 62
7
  6
CONTINUOUS
 10
157.050636257
 20
44.4124171577
 11
156.930567257
 21
46.2329491577
  0
LINE
  5
2D1
100
AcDbEntity
  8
0
100
AcDbLine
 62
7
  6
CONTINUOUS
 10
153.883945257
 20
44.4124171577
 11
153.883945257
 21
47.2122881577
  0
LINE
  5
2D2
100
AcDbEntity
  8
0
100
AcDbLine
 62
7
  6
CONTINUOUS
 10
154.468353257
 20
44.4124171577
 11
154.468353257
 21
47.2122881577
  0
LINE
  5
2D3
100
AcDbEntity
  8
0
100
AcDbLine
 62
7
  6
CONTINUOUS
 10
160.1882490593
 20
44.4124168034
 11
160.1882490593
 21
47.1794108167
  0
LINE
  5
2D4
100
AcDbEntity
  8
0
100
AcDbLine
 62
7
  6
CONTINUOUS
 10
160.7509275111
 20
45.9665900711
 11
160.7509275111
 21
46.7351633618
  0
LINE
  5
2D5
100
AcDbEntity
  8
0
100
AcDbLine
 62
7
  6
CONTINUOUS
 10
160.7703056019
 20
44.4124168034
 11
160.7703056019
 21
45.508066233
  0
LINE
  5
2D6
100
AcDbEntity
  8
0
100
AcDbLine
 62
7
  6
CONTINUOUS
 10
161.6907334219
 20
45.7192937209
 11
161.6907334219
 21
45.7358375297
  0
LWPOLYLINE
  5
2D7
100
AcDbEntity
  8
0
100
AcDbPolyline
 62
7
  6
CONTINUOUS
 90
31
 70
0
 10
161.5388857852
 20
46.4012019487
 10
161.5385608611
 20
46.376673977
 10
161.537101152
 20
46.3523526881
 10
161.5345066579
 20
46.3282380693
 10
161.5307615947
 20
46.3042604555
 10
161.5258817466
 20
46.2804894893
 10
161.5199144652
 20
46.2571341054
 10
161.5128878861
 20
46.2341988689
 10
161.5047738738
 20
46.2116791615
 10
161.4955353738
 20
46.1897701156
 10
161.4851782386
 20
46.1684314099
 10
161.4736966157
 20
46.1477032928
 10
161.4610358928
 20
46.1279017204
 10
161.4471766319
 20
46.1090126235
 10
161.4321382711
 20
46.0910499685
 10
161.4159245114
 20
46.0743717301
 10
161.3984451937
 20
46.0590851774
 10
161.3797904773
 20
46.0450829181
 10
161.3602345413
 20
46.0324009221
 10
161.3397381664
 20
46.0211082767
 10
161.3183405719
 20
46.0111357998
 10
161.2964335956
 20
46.0023120689
 10
161.2740764452
 20
45.9946531889
 10
161.2512099128
 20
45.9881429985
 10
161.2280482131
 20
45.9825616905
 10
161.2046033817
 20
45.9778933979
 10
161.1808633829
 20
45.9741539595
 10
161.1570063246
 20
45.9711711363
 10
161.1330915759
 20
45.9688875121
 10
161.1090597676
 20
45.9673604916
 10
161.0849108997
 20
45.9665900711
  0
LINE
  5
2D8
100
AcDbEntity
  8
0
100
AcDbLine
 62
7
  6
CONTINUOUS
 10
155.342047257
 20
44.4124171577
 11
155.468162257
 21
46.2405711577
  0
LINE
  5
2D9
100
AcDbEntity
  8
0
100
AcDbLine
 62
7
  6
CONTINUOUS
 10
154.782958257
 20
44.4124171577
 11
155.035755257
 21
47.2121201577
  0
LINE
  5
2DA
100
AcDbEntity
  8
RACCORDO
100
AcDbLine
 62
253
  6
CONTINUOUS
 10
167.4290831709
 20
107.1811468486
 11
146.3073773431
 21
107.1811468486
  0
LINE
  5
2DB
100
AcDbEntity
  8
RACCORDO
100
AcDbLine
 62
253
  6
CONTINUOUS
 10
167.4291190126
 20
107.680461616
 11
146.3073712424
 21
107.680461616
  0
LINE
  5
2DC
100
AcDbEntity
  8
RACCORDO
100
AcDbLine
 62
7
  6
CONTINUOUS
 10
146.418230257
 20
107.7902181577
 11
167.318230257
 21
107.7902181577
  0
LWPOLYLINE
  5
2DD
100
AcDbEntity
  8
RACCORDO
100
AcDbPolyline
 62
253
  6
CONTINUOUS
 90
28
 70
0
 10
146.3073712345
 20
107.6804616081
 10
146.2618355633
 20
107.6816762797
 10
146.2162013273
 20
107.6855042511
 10
146.170620484
 20
107.6919766018
 10
146.1252157441
 20
107.701122431
 10
146.0801811442
 20
107.7129515081
 10
146.0357765562
 20
107.7274351036
 10
145.9921132859
 20
107.7445707935
 10
145.9494008777
 20
107.7643101033
 10
145.9080229596
 20
107.7864826989
 10
145.8681834087
 20
107.8109515375
 10
145.8299340952
 20
107.8376550372
 10
145.7934012562
 20
107.8664833024
 10
145.7587402582
 20
107.8972834542
 10
145.7260074536
 20
107.9299736047
 10
145.695189463
 20
107.9645617825
 10
145.6663767982
 20
108.0009677913
 10
145.6396995737
 20
108.0390503057
 10
145.6152247291
 20
108.0787428059
 10
145.5930179745
 20
108.1199962949
 10
145.5732203772
 20
108.1626113658
 10
145.5559820844
 20
108.2062785096
 10
145.5413509957
 20
108.2508562719
 10
145.529373009
 20
108.2961779483
 10
145.5201156966
 20
108.3418696235
 10
145.5135721972
 20
108.3876948986
 10
145.5097025691
 20
108.4335663146
 10
145.5084736694
 20
108.4793293554
  0
LWPOLYLINE
  5
2DE
100
AcDbEntity
  8
RACCORDO
100
AcDbPolyline
 62
253
  6
CONTINUOUS
 90
28
 70
0
 10
146.3073773431
 20
107.1811468486
 10
146.233235079
 20
107.1831629904
 10
146.1593867107
 20
107.1894964139
 10
146.0858322381
 20
107.2001471191
 10
146.0122462403
 20
107.2151372627
 10
145.9389541381
 20
107.2344446881
 10
145.8669321943
 20
107.258002925
 10
145.7961428652
 20
107.2859480196
 10
145.7266236944
 20
107.3181439257
 10
145.6594635754
 20
107.3541160348
 10
145.5948275746
 20
107.3938794289
 10
145.5325506256
 20
107.437419026
 10
145.4732264232
 20
107.484214972
 10
145.4169416947
 20
107.5342134062
 10
145.3636097127
 20
107.5874681892
 10
145.3135639896
 20
107.6436210484
 10
145.2667667026
 20
107.7027180112
 10
145.2232556744
 20
107.7647130501
 10
145.1834778854
 20
107.8291098109
 10
145.1474225979
 20
107.8960611997
 10
145.1151005495
 20
107.9654143104
 10
145.0869909337
 20
108.0362140697
 10
145.0632013988
 20
108.1085168181
 10
145.0436242964
 20
108.1822662151
 10
145.0284158753
 20
108.2563381657
 10
145.0176282183
 20
108.3303579715
 10
145.0112092425
 20
108.4047003309
 10
145.0091589479
 20
108.4793652438
  0
LINE
  5
2DF
100
AcDbEntity
  8
RACCORDO
100
AcDbLine
 62
253
  6
CONTINUOUS
 10
168.2003087983
 20
152.0734257845
 11
168.2115008156
 21
147.0919095944
  0
LINE
  5
2E0
100
AcDbEntity
  8
RACCORDO
100
AcDbLine
 62
253
  6
CONTINUOUS
 10
168.2115008156
 20
147.0919095944
 11
168.2197354921
 21
142.1907167663
  0
LINE
  5
2E1
100
AcDbEntity
  8
RACCORDO
100
AcDbLine
 62
253
  6
CONTINUOUS
 10
168.2197354921
 20
142.1907167663
 11
168.2250646973
 21
137.3699392358
  0
LWPOLYLINE
  5
2E2
100
AcDbEntity
  8
RACCORDO
100
AcDbPolyline
 62
253
  6
CONTINUOUS
 90
3
 70
0
 10
168.2250646973
 20
137.3699392358
 10
168.2276959083
 20
132.6299447462
 10
168.2279867987
 20
108.4793591432
  0
LINE
  5
2E3
100
AcDbEntity
  8
RACCORDO
100
AcDbLine
 62
253
  6
CONTINUOUS
 10
167.3979634089
 20
153.3958042946
 11
167.3979634089
 21
152.8688549375
  0
LINE
  5
2E4
100
AcDbEntity
  8
RACCORDO
100
AcDbLine
 62
253
  6
CONTINUOUS
 10
167.3979634089
 20
50.1846320208
 11
167.3979634089
 21
50.711581378
  0
LINE
  5
2E5
100
AcDbEntity
  8
RACCORDO
100
AcDbLine
 62
253
  6
CONTINUOUS
 10
167.4290831709
 20
96.3992894668
 11
167.429083171
 21
95.8999746995
  0
LINE
  5
2E6
100
AcDbEntity
  8
RACCORDO
100
AcDbLine
 62
253
  6
CONTINUOUS
 10
167.4290831709
 20
107.1811468486
 11
167.4290831709
 21
107.680461616
  0
LINE
  5
2E7
100
AcDbEntity
  8
RACCORDO
100
AcDbLine
 62
7
  6
CONTINUOUS
 10
168.118230257
 20
51.5902181577
 11
168.118230257
 21
94.9902181577
  0
LINE
  5
2E8
100
AcDbEntity
  8
RACCORDO
100
AcDbLine
 62
7
  6
CONTINUOUS
 10
168.118230257
 20
108.5902181577
 11
168.118230257
 21
151.9902181577
  0
LINE
  5
2E9
100
AcDbEntity
  8
RACCORDO
100
AcDbLine
 62
253
  6
CONTINUOUS
 10
168.2279867987
 20
95.1011069134
 11
168.226716114
 21
68.582415391
  0
LINE
  5
2EA
100
AcDbEntity
  8
RACCORDO
100
AcDbLine
 62
253
  6
CONTINUOUS
 10
168.226716114
 20
68.582415391
 11
168.2227290594
 21
63.7985293539
  0
LINE
  5
2EB
100
AcDbEntity
  8
RACCORDO
100
AcDbLine
 62
253
  6
CONTINUOUS
 10
168.2227290594
 20
63.7985293539
 11
168.2159767352
 21
58.9386531695
  0
LWPOLYLINE
  5
2EC
100
AcDbEntity
  8
RACCORDO
100
AcDbPolyline
 62
253
  6
CONTINUOUS
 90
3
 70
0
 10
168.2159767352
 20
58.9386531695
 10
168.2062635421
 20
54.0031593303
 10
168.2003088446
 20
51.5070325093
  0
LWPOLYLINE
  5
2ED
100
AcDbEntity
  8
RACCORDO
100
AcDbPolyline
 62
253
  6
CONTINUOUS
 90
28
 70
0
 10
168.2279868067
 20
108.4793591352
 10
168.226772135
 20
108.4338234641
 10
168.2229441637
 20
108.3881892281
 10
168.216471813
 20
108.3426083847
 10
168.2073259837
 20
108.2972036448
 10
168.1954969066
 20
108.252169045
 10
168.1810133111
 20
108.207764457
 10
168.1638776212
 20
108.1641011866
 10
168.1441383114
 20
108.1213887784
 10
168.1219657159
 20
108.0800108603
 10
168.0974968773
 20
108.0401713094
 10
168.0707933776
 20
108.0019219959
 10
168.0419651123
 20
107.9653891569
 10
168.0111649605
 20
107.930728159
 10
167.97847481
 20
107.8979953544
 10
167.9438866322
 20
107.8671773637
 10
167.9074806234
 20
107.838364699
 10
167.869398109
 20
107.8116874744
 10
167.8297056088
 20
107.7872126299
 10
167.7884521198
 20
107.7650058752
 10
167.7458370489
 20
107.7452082779
 10
167.7021699052
 20
107.7279699851
 10
167.6575921428
 20
107.7133388964
 10
167.6122704664
 20
107.7013609097
 10
167.5665787912
 20
107.6921035973
 10
167.5207535161
 20
107.6855600979
 10
167.4748821001
 20
107.6816904699
 10
167.4291190593
 20
107.6804615701
  0
LINE
  5
2EE
100
AcDbEntity
  8
0
100
AcDbLine
 62
7
  6
CONTINUOUS
 10
152.533084257
 20
45.2849981577
 11
153.083061257
 21
47.2121201577
  0
LINE
  5
2EF
100
AcDbEntity
  8
RACCORDO
100
AcDbLine
 62
253
  6
CONTINUOUS
 10
168.7273015661
 20
108.4793652438
 11
168.2279867987
 21
108.4793652437
  0
LINE
  5
2F0
100
AcDbEntity
  8
RACCORDO
100
AcDbLine
 62
253
  6
CONTINUOUS
 10
145.0091589479
 20
108.4793652438
 11
145.5084737153
 21
108.4793652438
  0
LINE
  5
2F1
100
AcDbEntity
  8
RACCORDO
100
AcDbLine
 62
253
  6
CONTINUOUS
 10
168.6996236345
 20
152.0976235905
 11
168.7108156059
 21
147.1106998497
  0
LINE
  5
2F2
100
AcDbEntity
  8
RACCORDO
100
AcDbLine
 62
253
  6
CONTINUOUS
 10
168.7108156059
 20
147.1106998497
 11
168.7190502601
 21
142.2039215829
  0
LINE
  5
2F3
100
AcDbEntity
  8
RACCORDO
100
AcDbLine
 62
253
  6
CONTINUOUS
 10
168.7190502601
 20
142.2039215829
 11
168.7243794624
 21
137.3778170022
  0
LWPOLYLINE
  5
2F4
100
AcDbEntity
  8
RACCORDO
100
AcDbPolyline
 62
253
  6
CONTINUOUS
 90
3
 70
0
 10
168.7243794624
 20
137.3778170022
 10
168.7270106741
 20
132.6324295569
 10
168.7273015661
 20
108.4793652438
  0
LINE
  5
2F5
100
AcDbEntity
  8
RACCORDO
100
AcDbLine
 62
253
  6
CONTINUOUS
 10
168.7273015661
 20
95.1010710717
 11
168.7260308792
 21
68.5772729976
  0
LINE
  5
2F6
100
AcDbEntity
  8
RACCORDO
100
AcDbLine
 62
253
  6
CONTINUOUS
 10
168.7260308792
 20
68.5772729976
 11
168.7220438293
 21
63.7879520194
  0
LINE
  5
2F7
100
AcDbEntity
  8
RACCORDO
100
AcDbLine
 62
253
  6
CONTINUOUS
 10
168.7220438293
 20
63.7879520194
 11
168.7152915155
 21
58.9226969384
  0
LWPOLYLINE
  5
2F8
100
AcDbEntity
  8
RACCORDO
100
AcDbPolyline
 62
253
  6
CONTINUOUS
 90
3
 70
0
 10
168.7152915155
 20
58.9226969384
 10
168.7055783292
 20
53.9815745018
 10
168.6996236345
 20
51.4828127249
  0
LWPOLYLINE
  5
2F9
100
AcDbEntity
  8
RACCORDO
100
AcDbPolyline
 62
253
  6
CONTINUOUS
 90
13
 70
0
 10
168.6996236345
 20
51.4828127249
 10
168.6977507569
 20
51.4133171509
 10
168.6919424012
 20
51.343755733
 10
168.6821985675
 20
51.2741284744
 10
168.6685094755
 20
51.2040651102
 10
168.6508849056
 20
51.1339359173
 10
168.629354198
 20
51.0648516866
 10
168.603740171
 20
50.9967792403
 10
168.5742200065
 20
50.9297517125
 10
168.5413545898
 20
50.8649793106
 10
168.5053308828
 20
50.8028653941
 10
168.4659619238
 20
50.743006505
 10
168.4232477126
 20
50.6854025992
  0
LWPOLYLINE
  5
2FA
100
AcDbEntity
  8
RACCORDO
100
AcDbPolyline
 62
253
  6
CONTINUOUS
 90
28
 70
0
 10
168.7273015661
 20
108.4793652438
 10
168.7252854243
 20
108.4052229798
 10
168.7189520008
 20
108.3313746114
 10
168.7083012956
 20
108.2578201388
 10
168.693311152
 20
108.184234141
 10
168.6740037266
 20
108.1109420389
 10
168.6504454897
 20
108.0389200951
 10
168.6225003951
 20
107.968130766
 10
168.5903044891
 20
107.8986115951
 10
168.5543323799
 20
107.8314514762
 10
168.5145689858
 20
107.7668154754
 10
168.4710293887
 20
107.7045385264
 10
168.4242334428
 20
107.6452143239
 10
168.3742350086
 20
107.5889295954
 10
168.3209802255
 20
107.5355976135
 10
168.2648273663
 20
107.4855518903
 10
168.2057304036
 20
107.4387546033
 10
168.1437353646
 20
107.3952435751
 10
168.0793386039
 20
107.3554657861
 10
168.012387215
 20
107.3194104986
 10
167.9430341043
 20
107.2870884502
 10
167.872234345
 20
107.2589788345
 10
167.7999315966
 20
107.2351892995
 10
167.7261821996
 20
107.2156121972
 10
167.652110249
 20
107.200403776
 10
167.5780904432
 20
107.189616119
 10
167.5037480839
 20
107.1831971432
 10
167.4290831709
 20
107.1811468486
  0
LWPOLYLINE
  5
2FB
100
AcDbEntity
  8
RACCORDO
100
AcDbPolyline
 62
253
  6
CONTINUOUS
 90
13
 70
0
 10
168.2003088372
 20
51.5070325167
 10
168.1990682005
 20
51.4645047303
 10
168.195508958
 20
51.4216873772
 10
168.1895733269
 20
51.3787097496
 10
168.181192301
 20
51.3356261771
 10
168.1703317325
 20
51.2926630274
 10
168.1570379045
 20
51.2502071767
 10
168.1413068641
 20
51.2083576213
 10
168.123173216
 20
51.1672986111
 10
168.1028532652
 20
51.1275097454
 10
168.080510234
 20
51.0892087166
 10
168.0561876885
 20
51.0523800149
 10
168.0299889286
 20
51.0171169377
  0
LINE
  5
2FC
100
AcDbEntity
  8
0
100
AcDbLine
 62
7
  6
CONTINUOUS
 10
158.572981257
 20
45.4038271577
 11
158.863967257
 21
46.4428331577
  0
LINE
  5
2FD
100
AcDbEntity
  8
0
100
AcDbLine
 62
7
  6
CONTINUOUS
 10
152.767133257
 20
44.4124171577
 11
153.667070257
 21
47.2121201577
  0
LINE
  5
2FE
100
AcDbEntity
  8
RACCORDO
100
AcDbLine
 62
253
  6
CONTINUOUS
 10
168.2279867987
 20
95.1011069134
 11
168.118230257
 21
94.9913145299
  0
LINE
  5
2FF
100
AcDbEntity
  8
RACCORDO
100
AcDbLine
 62
253
  6
CONTINUOUS
 10
167.4290892715
 20
95.8999746995
 11
167.3193266292
 21
95.7902181577
  0
LINE
  5
300
100
AcDbEntity
  8
RACCORDO
100
AcDbLine
 62
253
  6
CONTINUOUS
 10
167.4291190126
 20
107.680461616
 11
167.3193266292
 21
107.7902181577
  0
LINE
  5
301
100
AcDbEntity
  8
RACCORDO
100
AcDbLine
 62
253
  6
CONTINUOUS
 10
168.2279867987
 20
108.4793591432
 11
168.118230257
 21
108.5891217855
  0
LWPOLYLINE
  5
302
100
AcDbEntity
  8
RACCORDO
100
AcDbPolyline
 62
253
  6
CONTINUOUS
 90
28
 70
0
 10
176.7367002487
 20
170.1600586147
 10
176.735424797
 20
170.2194682666
 10
176.7306889467
 20
170.2785781198
 10
176.7225258495
 20
170.3371870981
 10
176.7109870633
 20
170.3950780518
 10
176.6961242938
 20
170.452076645
 10
176.6779769348
 20
170.5080487007
 10
176.6565947145
 20
170.5628460696
 10
176.6320684994
 20
170.6162416068
 10
176.6045154216
 20
170.6679913326
 10
176.5740579285
 20
170.7179061138
 10
176.5408032288
 20
170.765848497
 10
176.5048688804
 20
170.8116673415
 10
176.4663894174
 20
170.8552162425
 10
176.4255055623
 20
170.8963603456
 10
176.3823530641
 20
170.9349764498
 10
176.3370874864
 20
170.9709428213
 10
176.2898668579
 20
171.0041514166
 10
176.2408363046
 20
171.0345093856
 10
176.1901584982
 20
171.0619256059
 10
176.1380121824
 20
171.0863135307
 10
176.0845714574
 20
171.1075990873
 10
176.030025182
 20
171.1257163756
 10
175.974548982
 20
171.1406169198
 10
175.9183000155
 20
171.1522636526
 10
175.861455303
 20
171.1606218987
 10
175.8042125053
 20
171.1656647555
 10
175.7467607999
 20
171.1673782354
  0
LWPOLYLINE
  5
303
100
AcDbEntity
  8
RACCORDO
100
AcDbPolyline
 62
253
  6
CONTINUOUS
 90
28
 70
0
 10
176.4371113882
 20
170.2274221067
 10
176.4363674936
 20
170.2694309558
 10
176.4332559361
 20
170.3109806502
 10
176.4277767157
 20
170.3520713177
 10
176.4198926501
 20
170.3928353108
 10
176.4096409216
 20
170.4331405036
 10
176.3971330776
 20
170.4725904202
 10
176.3823369818
 20
170.5111930742
 10
176.3652847706
 20
170.5489409177
 10
176.3461844003
 20
170.5854143549
 10
176.3250202158
 20
170.6205815417
 10
176.3018078722
 20
170.6544749792
 10
176.2768022909
 20
170.6867717673
 10
176.2499880539
 20
170.717455221
 10
176.2213805791
 20
170.7465427537
 10
176.1912810417
 20
170.773762724
 10
176.1596774667
 20
170.7990961397
 10
176.1265818289
 20
170.82256271
 10
176.092331228
 20
170.8439489023
 10
176.0569148869
 20
170.8632347916
 10
176.0203435825
 20
170.8804409248
 10
175.9829867455
 20
170.8954144869
 10
175.9448315046
 20
170.9081336767
 10
175.905890731
 20
170.9186207519
 10
175.8665724692
 20
170.926788957
 10
175.8270127343
 20
170.9326094564
 10
175.7870755111
 20
170.9361113261
 10
175.7467607999
 20
170.9372946261
  0
LWPOLYLINE
  5
304
100
AcDbEntity
  8
RACCORDO
100
AcDbPolyline
 62
253
  6
CONTINUOUS
 90
9
 70
0
 10
176.4371113882
 20
33.3530142088
 10
176.415229408
 20
35.2544186962
 10
176.3953108987
 20
37.1636318299
 10
176.3773558602
 20
39.0799213932
 10
176.3613590388
 20
41.0025343227
 10
176.3473256883
 20
42.9307514209
 10
176.3352715701
 20
44.8638881356
 10
176.3252019379
 20
46.8012219114
 10
176.3171115379
 20
48.7419919774
  0
LWPOLYLINE
  5
305
100
AcDbEntity
  8
RACCORDO
100
AcDbPolyline
 62
253
  6
CONTINUOUS
 90
9
 70
0
 10
176.7367002487
 20
33.4203777008
 10
176.7148192049
 20
35.3171622347
 10
176.6949012712
 20
37.2203068647
 10
176.6769464474
 20
39.1298115909
 10
176.6609493027
 20
41.0464145425
 10
176.646915268
 20
42.9693775903
 10
176.6348606357
 20
44.8964863463
 10
176.6247908367
 20
46.8270026814
 10
176.6167004402
 20
48.7616647247
  0
LINE
  5
306
100
AcDbEntity
  8
RACCORDO
100
AcDbLine
 62
253
  6
CONTINUOUS
 10
176.3171115379
 20
48.7419919774
 11
176.3077866605
 21
51.9404141868
  0
LINE
  5
307
100
AcDbEntity
  8
RACCORDO
100
AcDbLine
 62
253
  6
CONTINUOUS
 10
176.6167004402
 20
48.7616647247
 11
176.6073755925
 21
51.9546340101
  0
LINE
  5
308
100
AcDbEntity
  8
RACCORDO
100
AcDbLine
 62
253
  6
CONTINUOUS
 10
176.3077866605
 20
51.9404141868
 11
176.296767678
 21
56.9614829808
  0
LINE
  5
309
100
AcDbEntity
  8
RACCORDO
100
AcDbLine
 62
253
  6
CONTINUOUS
 10
176.6073755925
 20
51.9546340101
 11
176.5963565365
 21
56.9723725848
  0
LINE
  5
30A
100
AcDbEntity
  8
RACCORDO
100
AcDbLine
 62
253
  6
CONTINUOUS
 10
176.296767678
 20
56.9614829808
 11
176.2923599001
 21
59.4726591232
  0
LINE
  5
30B
100
AcDbEntity
  8
RACCORDO
100
AcDbLine
 62
253
  6
CONTINUOUS
 10
176.5963565365
 20
56.9723725848
 11
176.5919487616
 21
59.4818668588
  0
LINE
  5
30C
100
AcDbEntity
  8
RACCORDO
100
AcDbLine
 62
253
  6
CONTINUOUS
 10
176.2923599001
 20
59.4726591232
 11
176.285747744
 21
64.4961139842
  0
LINE
  5
30D
100
AcDbEntity
  8
RACCORDO
100
AcDbLine
 62
253
  6
CONTINUOUS
 10
176.5919487616
 20
59.4818668588
 11
176.5853366039
 21
64.5019804615
  0
LINE
  5
30E
100
AcDbEntity
  8
RACCORDO
100
AcDbLine
 62
253
  6
CONTINUOUS
 10
176.285747744
 20
64.4961139842
 11
176.283543445
 21
67.0083552836
  0
LINE
  5
30F
100
AcDbEntity
  8
RACCORDO
100
AcDbLine
 62
253
  6
CONTINUOUS
 10
176.5853366039
 20
64.5019804615
 11
176.5831323046
 21
67.0125411438
  0
LINE
  5
310
100
AcDbEntity
  8
RACCORDO
100
AcDbLine
 62
253
  6
CONTINUOUS
 10
176.283543445
 20
67.0083552836
 11
176.2813388752
 21
72.0337241656
  0
LINE
  5
311
100
AcDbEntity
  8
RACCORDO
100
AcDbLine
 62
253
  6
CONTINUOUS
 10
176.5831323046
 20
67.0125411438
 11
176.5809277355
 21
72.034545677
  0
LINE
  5
312
100
AcDbEntity
  8
RACCORDO
100
AcDbLine
 62
253
  6
CONTINUOUS
 10
175.7467607999
 20
32.6431416894
 11
175.7467608003
 21
32.4130580801
  0
LINE
  5
313
100
AcDbEntity
  8
RACCORDO
100
AcDbLine
 62
253
  6
CONTINUOUS
 10
175.7467607999
 20
170.9372946261
 11
175.7467607999
 21
171.1673782354
  0
LINE
  5
314
100
AcDbEntity
  8
RACCORDO
100
AcDbLine
 62
253
  6
CONTINUOUS
 10
176.2813388752
 20
72.0337241656
 11
176.2812469675
 21
130.2902169383
  0
LINE
  5
315
100
AcDbEntity
  8
RACCORDO
100
AcDbLine
 62
253
  6
CONTINUOUS
 10
176.5809277355
 20
72.034545677
 11
176.580835828
 21
130.2902181577
  0
LINE
  5
316
100
AcDbEntity
  8
RACCORDO
100
AcDbLine
 62
7
  6
CONTINUOUS
 10
176.868230257
 20
33.2888476925
 11
176.868230257
 21
170.291588623
  0
LINE
  5
317
100
AcDbEntity
  8
RACCORDO
100
AcDbLine
 62
253
  6
CONTINUOUS
 10
176.2812469673
 20
130.2902169383
 11
176.2845537758
 21
137.8282411985
  0
LINE
  5
318
100
AcDbEntity
  8
RACCORDO
100
AcDbLine
 62
253
  6
CONTINUOUS
 10
176.580835828
 20
130.2902181577
 11
176.5841426355
 21
137.823215072
  0
LINE
  5
319
100
AcDbEntity
  8
RACCORDO
100
AcDbLine
 62
253
  6
CONTINUOUS
 10
176.2845537758
 20
137.8282411985
 11
176.2904314348
 21
142.8520517575
  0
LINE
  5
31A
100
AcDbEntity
  8
RACCORDO
100
AcDbLine
 62
253
  6
CONTINUOUS
 10
176.5841426355
 20
137.823215072
 11
176.5900202958
 21
142.8436743537
  0
LINE
  5
31B
100
AcDbEntity
  8
RACCORDO
100
AcDbLine
 62
253
  6
CONTINUOUS
 10
176.2904314348
 20
142.8520517575
 11
176.2992469906
 21
147.874384478
  0
LINE
  5
31C
100
AcDbEntity
  8
RACCORDO
100
AcDbLine
 62
253
  6
CONTINUOUS
 10
176.5900202958
 20
142.8436743537
 11
176.5988358455
 21
147.8626629018
  0
LINE
  5
31D
100
AcDbEntity
  8
RACCORDO
100
AcDbLine
 62
253
  6
CONTINUOUS
 10
176.2992469906
 20
147.874384478
 11
176.31100046
 21
152.8949816541
  0
LINE
  5
31E
100
AcDbEntity
  8
RACCORDO
100
AcDbLine
 62
253
  6
CONTINUOUS
 10
176.5988358455
 20
147.8626629018
 11
176.6105894462
 21
152.8799638393
  0
LWPOLYLINE
  5
31F
100
AcDbEntity
  8
RACCORDO
100
AcDbPolyline
 62
253
  6
CONTINUOUS
 90
10
 70
0
 10
176.3110003691
 20
152.8949816541
 10
176.3171115393
 20
154.8384441289
 10
176.3252019388
 20
156.779214032
 10
176.3352715676
 20
158.7165474408
 10
176.3473256765
 20
160.6496833184
 10
176.3613590148
 20
162.5778993806
 10
176.3773558303
 20
164.5005118765
 10
176.3953108724
 20
166.4168018688
 10
176.4152293917
 20
168.3260160205
 10
176.4371113882
 20
170.2274221067
  0
LWPOLYLINE
  5
320
100
AcDbEntity
  8
RACCORDO
100
AcDbPolyline
 62
253
  6
CONTINUOUS
 90
10
 70
0
 10
176.6105894462
 20
152.8799638393
 10
176.6167004658
 20
154.8187777761
 10
176.6247908965
 20
156.7534456679
 10
176.6348607381
 20
158.6839675149
 10
176.6469154414
 20
160.6110830591
 10
176.6609495558
 20
162.5340525583
 10
176.6769467289
 20
164.4506567861
 10
176.69490151
 20
166.3601560004
 10
176.71481935
 20
168.2632899432
 10
176.7367002487
 20
170.1600586147
  0
LINE
  5
321
100
AcDbEntity
  8
0
100
AcDbLine
 62
7
  6
CONTINUOUS
 10
158.292177257
 20
44.4124171577
 11
158.453437257
 21
44.9713371577
  0
LINE
  5
322
100
AcDbEntity
  8
0
100
AcDbLine
 62
7
  6
CONTINUOUS
 10
157.714110257
 20
44.4124171577
 11
158.592275257
 21
47.2121201577
  0
LINE
  5
323
100
AcDbEntity
  8
0
100
AcDbLine
 62
7
  6
CONTINUOUS
 10
156.197916257
 20
45.6577161577
 11
156.782324257
 21
47.2121201577
  0
LINE
  5
324
100
AcDbEntity
  8
0
100
AcDbLine
 62
7
  6
CONTINUOUS
 10
156.235706257
 20
44.4124171577
 11
156.930567257
 21
46.2329491577
  0
LINE
  5
325
100
AcDbEntity
  8
RACCORDO
100
AcDbLine
 62
253
  6
CONTINUOUS
 10
145.5361517157
 20
51.507010531
 11
145.618230257
 21
51.5891217855
  0
LINE
  5
326
100
AcDbEntity
  8
RACCORDO
100
AcDbLine
 62
253
  6
CONTINUOUS
 10
145.5361516693
 20
152.0734038062
 11
145.618230257
 21
151.9913145299
  0
LINE
  5
327
100
AcDbEntity
  8
RACCORDO
100
AcDbLine
 62
253
  6
CONTINUOUS
 10
146.3384887264
 20
50.711581378
 11
146.4171338848
 21
50.7902181577
  0
LWPOLYLINE
  5
328
100
AcDbEntity
  8
RACCORDO
100
AcDbPolyline
 62
253
  6
CONTINUOUS
 90
12
 70
0
 10
145.5336255783
 20
50.8621488056
 10
145.5604879095
 20
50.8844321164
 10
145.5855686715
 20
50.9054624201
 10
145.6086871581
 20
50.9250881942
 10
145.6296768015
 20
50.9431680356
 10
145.6483863719
 20
50.9595716798
 10
145.6646810675
 20
50.9741809389
 10
145.6784434856
 20
50.9868905539
 10
145.6895744683
 20
50.9976089523
 10
145.6979938173
 20
51.0062589086
 10
145.7036408715
 20
51.0127781
 10
145.7064749441
 20
51.0171195561
  0
LINE
  5
329
100
AcDbEntity
  8
RACCORDO
100
AcDbLine
 62
253
  6
CONTINUOUS
 10
145.4753418184
 20
50.8144732359
 11
145.5336255783
 21
50.8621488056
  0
LINE
  5
32A
100
AcDbEntity
  8
RACCORDO
100
AcDbLine
 62
253
  6
CONTINUOUS
 10
145.4123940965
 20
50.7638072396
 11
145.4753418184
 21
50.8144732359
  0
LWPOLYLINE
  5
32B
100
AcDbEntity
  8
RACCORDO
100
AcDbPolyline
 62
253
  6
CONTINUOUS
 90
3
 70
0
 10
145.3132128015
 20
50.6854028369
 10
145.3465932898
 20
50.7116083736
 10
145.4123940965
 20
50.7638072396
  0
LINE
  5
32C
100
AcDbEntity
  8
RACCORDO
100
AcDbLine
 62
253
  6
CONTINUOUS
 10
137.155624686
 20
130.2902181577
 11
145.5084737153
 21
130.2902181577
  0
LINE
  5
32D
100
AcDbEntity
  8
RACCORDO
100
AcDbLine
 62
253
  6
CONTINUOUS
 10
168.2279867987
 20
130.2902181577
 11
176.580835828
 21
130.2902181577
  0
LINE
  5
32E
100
AcDbEntity
  8
RACCORDO
100
AcDbLine
 62
253
  6
CONTINUOUS
 10
145.3132128013
 20
152.8950334337
 11
145.3797333526
 21
152.8426301342
  0
LINE
  5
32F
100
AcDbEntity
  8
RACCORDO
100
AcDbLine
 62
253
  6
CONTINUOUS
 10
145.3797333526
 20
152.8426301342
 11
145.44434043
 21
152.7910116892
  0
LWPOLYLINE
  5
330
100
AcDbEntity
  8
RACCORDO
100
AcDbPolyline
 62
253
  6
CONTINUOUS
 90
14
 70
0
 10
145.44434043
 20
152.7910116892
 10
145.5051754137
 20
152.7416630602
 10
145.5336258194
 20
152.7182872569
 10
145.5604881996
 20
152.6960039101
 10
145.5855690109
 20
152.674973571
 10
145.6086875464
 20
152.6553477629
 10
145.6296772372
 20
152.6372678895
 10
145.6483868527
 20
152.620864216
 10
145.6646815902
 20
152.6062549306
 10
145.6784440463
 20
152.5935452929
 10
145.6895750626
 20
152.5828268757
 10
145.6979944401
 20
152.574176905
 10
145.7036415172
 20
152.5676577036
 10
145.7064756068
 20
152.5633162422
  0
LINE
  5
331
100
AcDbEntity
  8
RACCORDO
100
AcDbLine
 62
253
  6
CONTINUOUS
 10
146.3384585858
 20
152.8688549375
 11
146.4171338848
 21
152.7902181577
  0
LINE
  5
332
100
AcDbEntity
  8
RACCORDO
100
AcDbLine
 62
253
  6
CONTINUOUS
 10
136.9997602653
 20
33.4203777008
 11
136.868230257
 21
33.2888476925
  0
LINE
  5
333
100
AcDbEntity
  8
RACCORDO
100
AcDbLine
 62
253
  6
CONTINUOUS
 10
137.9896997141
 20
32.4130580801
 11
137.8668597917
 21
32.2902181577
  0
LINE
  5
334
100
AcDbEntity
  8
RACCORDO
100
AcDbLine
 62
253
  6
CONTINUOUS
 10
136.9997602653
 20
170.1600586147
 11
136.868230257
 21
170.291588623
  0
LINE
  5
335
100
AcDbEntity
  8
RACCORDO
100
AcDbLine
 62
253
  6
CONTINUOUS
 10
137.9896997141
 20
171.1673782354
 11
137.8668597917
 21
171.2902181577
  0
LWPOLYLINE
  5
336
100
AcDbEntity
  8
RACCORDO
100
AcDbPolyline
 62
253
  6
CONTINUOUS
 90
16
 70
0
 10
168.4232477126
 20
50.6854025992
 10
168.3728790773
 20
50.6247209836
 10
168.3192258992
 20
50.5674847587
 10
168.2622881785
 20
50.5136936389
 10
168.2018269569
 20
50.4631405528
 10
168.1380811926
 20
50.4160320474
 10
168.0717677601
 20
50.3729882378
 10
168.0028006729
 20
50.3340584319
 10
167.9312659174
 20
50.2991927962
 10
167.8581383273
 20
50.2688626929
 10
167.7833691257
 20
50.2431669118
 10
167.7070070896
 20
50.2220062466
 10
167.6301733834
 20
50.2055550812
 10
167.5532417287
 20
50.1938714672
 10
167.4758384038
 20
50.186897132
 10
167.3979634089
 20
50.1846320208
  0
LWPOLYLINE
  5
337
100
AcDbEntity
  8
RACCORDO
100
AcDbPolyline
 62
253
  6
CONTINUOUS
 90
16
 70
0
 10
168.0299889286
 20
51.0171169377
 10
167.9990436191
 20
50.9801390067
 10
167.9658648316
 20
50.9450419172
 10
167.9305641157
 20
50.9119624742
 10
167.8932590493
 20
50.8810306356
 10
167.8540803357
 20
50.8523703767
 10
167.8131721556
 20
50.8260981423
 10
167.7706417901
 20
50.8023017373
 10
167.7266746785
 20
50.7811029593
 10
167.6815534426
 20
50.7626341406
 10
167.6354407438
 20
50.7469502132
 10
167.588518077
 20
50.7341015215
 10
167.541117897
 20
50.7241488309
 10
167.4934736159
 20
50.7170945592
 10
167.4457105109
 20
50.7129135363
 10
167.3980019939
 20
50.7115813132
  0
LWPOLYLINE
  5
338
100
AcDbEntity
  8
RACCORDO
100
AcDbPolyline
 62
253
  6
CONTINUOUS
 90
13
 70
0
 10
168.0299889286
 20
152.5633193778
 10
168.0559786483
 20
152.5283544931
 10
168.0801546386
 20
152.4917994738
 10
168.1024077714
 20
152.4537404151
 10
168.1226813925
 20
152.4141694978
 10
168.1408131771
 20
152.3732850638
 10
168.1565935074
 20
152.3315168873
 10
168.169981399
 20
152.2890086272
 10
168.180950831
 20
152.2458877276
 10
168.1894283405
 20
152.2025968899
 10
168.1954386713
 20
152.1593828515
 10
168.1990484445
 20
152.1162820411
 10
168.200308775
 20
152.0734257619
  0
LWPOLYLINE
  5
339
100
AcDbEntity
  8
RACCORDO
100
AcDbPolyline
 62
253
  6
CONTINUOUS
 90
13
 70
0
 10
168.4232477126
 20
152.8950337163
 10
168.4656141051
 20
152.8379748594
 10
168.5047227805
 20
152.7785929073
 10
168.5405737388
 20
152.7168878149
 10
168.5733645122
 20
152.652487985
 10
168.6028975685
 20
152.5857649145
 10
168.6285803113
 20
152.5178332218
 10
168.6502526663
 20
152.448674322
 10
168.6680747078
 20
152.3783067481
 10
168.6819340627
 20
152.3079008472
 10
168.6917932733
 20
152.2378467475
 10
168.6976897972
 20
152.1677543283
 10
168.6996236345
 20
152.0976235905
  0
LWPOLYLINE
  5
33A
100
AcDbEntity
  8
0
100
AcDbPolyline
 62
7
  6
CONTINUOUS
 90
50
 70
0
 10
161.7565326155
 20
45.7671576346
 10
161.7686658621
 20
45.7766599613
 10
161.7810154545
 20
45.7865449116
 10
161.7934530072
 20
45.7970140857
 10
161.8061799423
 20
45.8079968661
 10
161.8192925732
 20
45.8194135715
 10
161.8326945865
 20
45.831343916
 10
161.8462984641
 20
45.8439563795
 10
161.8601315952
 20
45.8572365906
 10
161.8741665905
 20
45.8711989733
 10
161.8882337644
 20
45.8860552175
 10
161.9023377592
 20
45.9018076899
 10
161.9164739325
 20
45.9184541052
 10
161.9304586717
 20
45.9361991981
 10
161.9442844129
 20
45.9550748047
 10
161.9579587199
 20
45.9750492087
 10
161.9713206717
 20
45.9962318387
 10
161.9843816137
 20
46.0186114102
 10
161.9971302003
 20
46.042199361
 10
162.009371474
 20
46.0671392258
 10
162.0211428275
 20
46.093437942
 10
162.0324068679
 20
46.121088773
 10
162.0428564594
 20
46.1502147689
 10
162.0525150644
 20
46.1808193786
 10
162.0613592204
 20
46.2128994051
 10
162.0690114048
 20
46.2465679582
 10
162.0754888768
 20
46.2818430858
 10
162.0807743772
 20
46.3187070489
 10
162.0844386055
 20
46.3572193036
 10
162.0865433859
 20
46.3973878139
 10
162.0870268942
 20
46.4392049736
 10
162.0852743579
 20
46.482706903
 10
162.0814603133
 20
46.528109636
 10
162.0754102241
 20
46.5751975597
 10
162.0659857085
 20
46.623359257
 10
162.0528749472
 20
46.6731583394
 10
162.0363897596
 20
46.7240315133
 10
162.0163272213
 20
46.7736766064
 10
161.9920634092
 20
46.8220491853
 10
161.9642222465
 20
46.869193327
 10
161.9344725787
 20
46.9129390398
 10
161.9028761925
 20
46.9525785414
 10
161.8693713011
 20
46.988818786
 10
161.8354413899
 20
47.0216116603
 10
161.8013886441
 20
47.0507984571
 10
161.7669108786
 20
47.0765373026
 10
161.7325850227
 20
47.0992554088
 10
161.6986033864
 20
47.119095079
 10
161.6647736599
 20
47.1359136756
 10
161.6310958431
 20
47.1497110654
  0
LWPOLYLINE
  5
33B
100
AcDbEntity
  8
RACCORDO
100
AcDbPolyline
 62
253
  6
CONTINUOUS
 90
16
 70
0
 10
168.5744290687
 20
152.0965341446
 10
168.534086004
 20
152.0958371628
 10
168.4949203353
 20
152.0949805465
 10
168.457210631
 20
152.0939703886
 10
168.4212251033
 20
152.0928138738
 10
168.3872197016
 20
152.0915192278
 10
168.3554362912
 20
152.090095659
 10
168.3261009336
 20
152.0885532926
 10
168.2994222781
 20
152.0869030986
 10
168.2755900783
 20
152.0851568143
 10
168.2547738421
 20
152.0833268602
 10
168.2371216262
 20
152.0814262519
 10
168.2227589831
 20
152.0794685076
 10
168.2117880678
 20
152.0774675519
 10
168.2042869117
 20
152.0754376167
 10
168.2003088671
 20
152.0733931401
  0
LWPOLYLINE
  5
33C
100
AcDbEntity
  8
RACCORDO
100
AcDbPolyline
 62
253
  6
CONTINUOUS
 90
16
 70
0
 10
137.4254599283
 20
152.8950337163
 10
137.3951418277
 20
152.8948768479
 10
137.3651341685
 20
152.8945672782
 10
137.3357442134
 20
152.894108177
 10
137.3072729
 20
152.8935042451
 10
137.2800117596
 20
152.8927616667
 10
137.2542399319
 20
152.8918880452
 10
137.2302213068
 20
152.8908923262
 10
137.2082018226
 20
152.8897847051
 10
137.188406947
 20
152.8885765236
 10
137.1710393692
 20
152.8872801527
 10
137.1562769241
 20
152.8859088667
 10
137.1442707713
 20
152.8844767066
 10
137.1351438475
 20
152.8829983372
 10
137.1289896076
 20
152.8814888961
 10
137.1258710678
 20
152.8799638393
  0
LWPOLYLINE
  5
33D
100
AcDbEntity
  8
RACCORDO
100
AcDbPolyline
 62
253
  6
CONTINUOUS
 90
3
 70
0
 10
168.6996236345
 20
152.0976235905
 10
168.6574932836
 20
152.0974305463
 10
168.5744290687
 20
152.0965341446
  0
LINE
  5
33E
100
AcDbEntity
  8
RACCORDO
100
AcDbLine
 62
7
  6
CONTINUOUS
 10
167.318230257
 20
152.7902181577
 11
146.418230257
 21
152.7902181577
  0
LINE
  5
33F
100
AcDbEntity
  8
RACCORDO
100
AcDbLine
 62
253
  6
CONTINUOUS
 10
146.3384585858
 20
152.8688549375
 11
167.3979717876
 21
152.8688549375
  0
LINE
  5
340
100
AcDbEntity
  8
RACCORDO
100
AcDbLine
 62
253
  6
CONTINUOUS
 10
137.4254600534
 20
152.8949819055
 11
145.3132128014
 21
152.8950337162
  0
LINE
  5
341
100
AcDbEntity
  8
RACCORDO
100
AcDbLine
 62
253
  6
CONTINUOUS
 10
168.4232477126
 20
152.8950337163
 11
176.31100046
 21
152.8949816541
  0
LINE
  5
342
100
AcDbEntity
  8
RACCORDO
100
AcDbLine
 62
253
  6
CONTINUOUS
 10
146.338497105
 20
153.3958042946
 11
167.3979634089
 21
153.3958042946
  0
LWPOLYLINE
  5
343
100
AcDbEntity
  8
RACCORDO
100
AcDbPolyline
 62
253
  6
CONTINUOUS
 90
16
 70
0
 10
176.3110005857
 20
152.895033714
 10
176.3413186834
 20
152.8948768457
 10
176.3713263399
 20
152.894567276
 10
176.4007162925
 20
152.8941081749
 10
176.4291876036
 20
152.8935042432
 10
176.4564487422
 20
152.8927616649
 10
176.4822205684
 20
152.8918880436
 10
176.5062391925
 20
152.8908923247
 10
176.5282586764
 20
152.8897847038
 10
176.5480535521
 20
152.8885765225
 10
176.5654211307
 20
152.8872801518
 10
176.5801835773
 20
152.8859088659
 10
176.5921897323
 20
152.8844767061
 10
176.6013166589
 20
152.8829983369
 10
176.6074709023
 20
152.881488896
 10
176.6105894462
 20
152.8799638393
  0
LWPOLYLINE
  5
344
100
AcDbEntity
  8
RACCORDO
100
AcDbPolyline
 62
253
  6
CONTINUOUS
 90
18
 70
0
 10
145.0368368795
 20
152.0976234188
 10
145.1207982016
 20
152.0970664032
 10
145.1620318993
 20
152.0965340312
 10
145.2023751647
 20
152.0958370661
 10
145.2415410501
 20
152.0949804651
 10
145.2792509825
 20
152.0939703209
 10
145.3152367442
 20
152.0928138183
 10
145.3492423812
 20
152.0915191831
 10
145.3810260233
 20
152.0900956236
 10
145.4103616046
 20
152.0885532651
 10
145.4370404714
 20
152.0869030778
 10
145.4608728663
 20
152.0851567989
 10
145.4816892779
 20
152.0833268492
 10
145.4993416462
 20
152.0814262444
 10
145.5137044162
 20
152.0794685028
 10
145.5246754306
 20
152.0774675491
 10
145.5321766563
 20
152.0754376155
 10
145.5361547398
 20
152.0733931402
  0
LWPOLYLINE
  5
345
100
AcDbEntity
  8
RACCORDO
100
AcDbPolyline
 62
253
  6
CONTINUOUS
 90
31
 70
0
 10
167.3979718019
 20
152.8688549518
 10
167.4238806001
 20
152.868482635
 10
167.4494508873
 20
152.8672971477
 10
167.474658184
 20
152.8653295013
 10
167.4994541345
 20
152.8626143721
 10
167.5238440174
 20
152.8591815497
 10
167.5478855721
 20
152.8550479516
 10
167.5715597478
 20
152.8502385195
 10
167.5948499691
 20
152.8447782201
 10
167.6178170441
 20
152.8386703038
 10
167.6404440384
 20
152.8319334893
 10
167.6627157146
 20
152.8245865476
 10
167.6846929106
 20
152.8166195699
 10
167.7063593303
 20
152.8080453114
 10
167.7276989473
 20
152.7988769872
 10
167.7487687931
 20
152.789092819
 10
167.7695513454
 20
152.7787002952
 10
167.7900284726
 20
152.7677077661
 10
167.8102505469
 20
152.756083072
 10
167.8301969123
 20
152.743829467
 10
167.8498463396
 20
152.7309510955
 10
167.8692411106
 20
152.7174063838
 10
167.8883556629
 20
152.7031955205
 10
167.9071645695
 20
152.6883191031
 10
167.9257014502
 20
152.6727262339
 10
167.9439331424
 20
152.6564161566
 10
167.9618296178
 20
152.639385818
 10
167.9794180572
 20
152.6215713244
 10
167.9966783073
 20
152.60294649
 10
168.0135491494
 20
152.5835294211
 10
168.0299889286
 20
152.5633193778
  0
LWPOLYLINE
  5
346
100
AcDbEntity
  8
RACCORDO
100
AcDbPolyline
 62
253
  6
CONTINUOUS
 90
31
 70
0
 10
167.3979634089
 20
153.3958042946
 10
167.440061412
 20
153.3950388084
 10
167.4815347449
 20
153.3930480826
 10
167.5223834076
 20
153.389832113
 10
167.562597301
 20
153.3853509234
 10
167.6021865242
 20
153.3796444742
 10
167.6411813748
 20
153.3728326637
 10
167.6795774698
 20
153.3649298717
 10
167.7173791921
 20
153.3559216915
 10
167.7546299882
 20
153.345884841
 10
167.7913289551
 20
153.3348329463
 10
167.8274769957
 20
153.3227523458
 10
167.8631202657
 20
153.3096788254
 10
167.8982617656
 20
153.2956247086
 10
167.932898495
 20
153.2805776283
 10
167.9670676078
 20
153.264536332
 10
168.0007752864
 20
153.247511471
 10
168.0340153484
 20
153.2294923416
 10
168.0668064013
 20
153.2104456551
 10
168.0991569837
 20
153.1903805989
 10
168.131058557
 20
153.1692879225
 10
168.1625041119
 20
153.1471066747
 10
168.1935040974
 20
153.1238449046
 10
168.2240480646
 20
153.0994944869
 10
168.2540976582
 20
153.0739702016
 10
168.28366561
 20
153.0472794037
 10
168.3127391882
 20
153.0194146457
 10
168.3412418426
 20
152.9902684933
 10
168.3691480564
 20
152.9598050956
 10
168.3964833464
 20
152.9280601896
 10
168.4232477126
 20
152.8950337163
  0
LWPOLYLINE
  5
347
100
AcDbEntity
  8
RACCORDO
100
AcDbPolyline
 62
253
  6
CONTINUOUS
 90
28
 70
0
 10
137.9896997141
 20
171.1673782354
 10
137.9322415685
 20
171.1656642427
 10
137.8750302514
 20
171.1606247155
 10
137.8182540619
 20
171.1522801662
 10
137.7621392438
 20
171.1406710901
 10
137.7068293425
 20
171.1258346056
 10
137.6523905519
 20
171.1077818046
 10
137.5989529039
 20
171.0865313754
 10
137.5467580067
 20
171.0621550132
 10
137.4960377313
 20
171.0347488188
 10
137.4469896177
 20
171.0044127844
 10
137.3997555398
 20
170.9712288096
 10
137.3544750269
 20
170.9352864191
 10
137.3113047565
 20
170.8966922795
 10
137.2704018539
 20
170.8555691632
 10
137.2319015863
 20
170.8120395449
 10
137.1959438291
 20
170.7662367232
 10
137.1626644783
 20
170.7183082271
 10
137.1321834346
 20
170.6684088443
 10
137.1046155903
 20
170.616692767
 10
137.0800728571
 20
170.5633337667
 10
137.0586547335
 20
170.5085278903
 10
137.0404477289
 20
170.452457661
 10
137.0255267734
 20
170.3953096247
 10
137.0139530565
 20
170.337295785
 10
137.0057760374
 20
170.2786192601
 10
137.0010359072
 20
170.2194728876
 10
136.9997602653
 20
170.1600586147
  0
LWPOLYLINE
  5
348
100
AcDbEntity
  8
RACCORDO
100
AcDbPolyline
 62
253
  6
CONTINUOUS
 90
28
 70
0
 10
137.9896997141
 20
170.9372946261
 10
137.9493442318
 20
170.9360975793
 10
137.9094028781
 20
170.9325947748
 10
137.8698756529
 20
170.9267861531
 10
137.8306510337
 20
170.9186489085
 10
137.791840543
 20
170.9082056086
 10
137.7537787491
 20
170.8955241998
 10
137.7164405796
 20
170.8805728708
 10
137.6798511068
 20
170.8633829755
 10
137.6444201153
 20
170.8441171792
 10
137.6101753269
 20
170.8227607651
 10
137.5770890199
 20
170.7993278305
 10
137.5454878135
 20
170.7740242713
 10
137.5153796055
 20
170.7468293069
 10
137.4867564982
 20
170.7177630001
 10
137.4599214175
 20
170.6870925673
 10
137.4348877139
 20
170.6547960434
 10
137.4116420369
 20
170.6208946607
 10
137.3904472613
 20
170.5857205438
 10
137.3713239427
 20
170.5492553979
 10
137.3542515253
 20
170.5115168638
 10
137.3394312165
 20
170.4728911408
 10
137.3268877495
 20
170.4333529784
 10
137.316596391
 20
170.3929271363
 10
137.3086841486
 20
170.3520750618
 10
137.3031933582
 20
170.3109505522
 10
137.3000816839
 20
170.2693996065
 10
137.2993491257
 20
170.2274221067
  0
LWPOLYLINE
  5
349
100
AcDbEntity
  8
RACCORDO
100
AcDbPolyline
 62
253
  6
CONTINUOUS
 90
16
 70
0
 10
137.2993491257
 20
170.2274220601
 10
137.2690077225
 20
170.2267286629
 10
137.2389775192
 20
170.2253514562
 10
137.209566524
 20
170.2233045657
 10
137.1810763942
 20
170.2206089854
 10
137.1537993418
 20
170.2172923629
 10
137.1280151373
 20
170.2133887155
 10
137.103988239
 20
170.2089380814
 10
137.0819650817
 20
170.2039861091
 10
137.0621715484
 20
170.1985835889
 10
137.0448106537
 20
170.1927859325
 10
137.0300604614
 20
170.1866526042
 10
137.0180722588
 20
170.1802465111
 10
137.0089690041
 20
170.1736333582
 10
137.0028440659
 20
170.1668809738
 10
136.9997602653
 20
170.1600586147
  0
LINE
  5
34A
100
AcDbEntity
  8
RACCORDO
100
AcDbLine
 62
253
  6
CONTINUOUS
 10
175.7467607999
 20
170.9372946261
 11
137.9896997141
 21
170.9372946261
  0
LINE
  5
34B
100
AcDbEntity
  8
RACCORDO
100
AcDbLine
 62
253
  6
CONTINUOUS
 10
175.7467607999
 20
171.1673782354
 11
137.9896997141
 21
171.1673782354
  0
LINE
  5
34C
100
AcDbEntity
  8
RACCORDO
100
AcDbLine
 62
7
  6
CONTINUOUS
 10
137.8668597917
 20
171.2902181577
 11
175.8696007222
 21
171.2902181577
  0
LWPOLYLINE
  5
34D
100
AcDbEntity
  8
RACCORDO
100
AcDbPolyline
 62
253
  6
CONTINUOUS
 90
16
 70
0
 10
176.4371113882
 20
170.2274220827
 10
176.4674523268
 20
170.2267285741
 10
176.4974820196
 20
170.2253512732
 10
176.5268924709
 20
170.2233043062
 10
176.5553820358
 20
170.2206086673
 10
176.5826585145
 20
170.2172920042
 10
176.6084421491
 20
170.2133883338
 10
176.6324684927
 20
170.2089376935
 10
176.6544911221
 20
170.2039857308
 10
176.6742841648
 20
170.198583235
 10
176.6916446158
 20
170.192785616
 10
176.7063944198
 20
170.1866523365
 10
176.7183822971
 20
170.1802463017
 10
176.7274852954
 20
170.1736332142
 10
176.7336100511
 20
170.1668809005
 10
176.7366937462
 20
170.1600586147
  0
LINE
  5
34E
100
AcDbEntity
  8
RACCORDO
100
AcDbLine
 62
253
  6
CONTINUOUS
 10
112.3797847275
 20
33.3631439526
 11
112.4134295333
 21
33.371498234
  0
LINE
  5
34F
100
AcDbEntity
  8
RACCORDO
100
AcDbLine
 62
253
  6
CONTINUOUS
 10
112.4134295333
 20
33.371498234
 11
112.4804240728
 21
33.3876503829
  0
LWPOLYLINE
  5
350
100
AcDbEntity
  8
RACCORDO
100
AcDbPolyline
 62
253
  6
CONTINUOUS
 90
3
 70
0
 10
112.4804240728
 20
33.3876503829
 10
112.5906451278
 20
33.4135553417
 10
112.6200906841
 20
33.4203777008
  0
LINE
  5
351
100
AcDbEntity
  8
RACCORDO
100
AcDbLine
 62
7
  6
CONTINUOUS
 10
112.7859074027
 20
32.4130580801
 11
115.1298327513
 21
32.2902181577
  0
LINE
  5
352
100
AcDbEntity
  8
RACCORDO
100
AcDbLine
 62
253
  6
CONTINUOUS
 10
112.6200906841
 20
33.4203777008
 11
115.1298327513
 21
33.2888476925
  0
LWPOLYLINE
  5
353
100
AcDbEntity
  8
RACCORDO
100
AcDbPolyline
 62
253
  6
CONTINUOUS
 90
3
 70
0
 10
109.9298327517
 20
50.6854025992
 10
109.9313627243
 20
50.6855594675
 10
109.9359449949
 20
50.6858690372
  0
LINE
  5
354
100
AcDbEntity
  8
RACCORDO
100
AcDbLine
 62
253
  6
CONTINUOUS
 10
109.9359449949
 20
50.6858690372
 11
109.9540479762
 21
50.6869320703
  0
LINE
  5
355
100
AcDbEntity
  8
RACCORDO
100
AcDbLine
 62
253
  6
CONTINUOUS
 10
109.9540479762
 20
50.6869320703
 11
110.124992094
 21
50.6959596088
  0
LINE
  5
356
100
AcDbEntity
  8
RACCORDO
100
AcDbLine
 62
253
  6
CONTINUOUS
 10
110.124992094
 20
50.6959596088
 11
110.2137532233
 21
50.7004724762
  0
LWPOLYLINE
  5
357
100
AcDbEntity
  8
RACCORDO
100
AcDbPolyline
 62
253
  6
CONTINUOUS
 90
9
 70
0
 10
112.7859074027
 20
32.4130580801
 10
112.7847543538
 20
32.4147720728
 10
112.7830985892
 20
32.4198116
 10
112.7809489024
 20
32.4281561492
 10
112.7783129816
 20
32.4397652254
 10
112.7751984507
 20
32.4546017098
 10
112.7716143368
 20
32.4726545108
 10
112.7675587824
 20
32.4939049401
 10
112.763048385
 20
32.5182813022
  0
LINE
  5
358
100
AcDbEntity
  8
RACCORDO
100
AcDbLine
 62
253
  6
CONTINUOUS
 10
109.3617211544
 20
73.2902181577
 11
109.6460203675
 21
73.2902181577
  0
LWPOLYLINE
  5
359
100
AcDbEntity
  8
RACCORDO
100
AcDbPolyline
 62
253
  6
CONTINUOUS
 90
10
 70
0
 10
112.6200906841
 20
33.4203777008
 10
112.2025754978
 20
35.3171622347
 10
111.8225186811
 20
37.2203068647
 10
111.4799202339
 20
39.1298115909
 10
111.1746765297
 20
41.0464145425
 10
110.906891195
 20
42.9693775903
 10
110.6768751091
 20
44.8964863463
 10
110.4847318984
 20
46.8270026814
 10
110.3303579365
 20
48.7616647247
 10
110.2137532233
 20
50.7004724762
  0
LINE
  5
35A
100
AcDbEntity
  8
RACCORDO
100
AcDbLine
 62
253
  6
CONTINUOUS
 10
112.6200906841
 20
170.1600586147
 11
112.6637783598
 21
170.452076645
  0
LINE
  5
35B
100
AcDbEntity
  8
RACCORDO
100
AcDbLine
 62
253
  6
CONTINUOUS
 10
112.6637783598
 20
170.452076645
 11
112.6973151952
 21
170.6679913326
  0
LINE
  5
35C
100
AcDbEntity
  8
RACCORDO
100
AcDbLine
 62
253
  6
CONTINUOUS
 10
112.6973151952
 20
170.6679913326
 11
112.7203800411
 21
170.8116673415
  0
LINE
  5
35D
100
AcDbEntity
  8
RACCORDO
100
AcDbLine
 62
253
  6
CONTINUOUS
 10
112.7203800411
 20
170.8116673415
 11
112.7408403426
 21
170.9349764498
  0
LINE
  5
35E
100
AcDbEntity
  8
RACCORDO
100
AcDbLine
 62
253
  6
CONTINUOUS
 10
112.7408403426
 20
170.9349764498
 11
112.7527253267
 21
171.0041514166
  0
LWPOLYLINE
  5
35F
100
AcDbEntity
  8
RACCORDO
100
AcDbPolyline
 62
253
  6
CONTINUOUS
 90
10
 70
0
 10
112.7527253267
 20
171.0041514166
 10
112.7630086363
 20
171.0619256059
 10
112.7675210051
 20
171.0863135307
 10
112.7715802476
 20
171.1075990873
 10
112.7751731273
 20
171.1257163756
 10
112.778299773
 20
171.1406169198
 10
112.7809454467
 20
171.1522636526
 10
112.7830998736
 20
171.1606218987
 10
112.7847569193
 20
171.1656647555
 10
112.7859074027
 20
171.1673782354
  0
LINE
  5
360
100
AcDbEntity
  8
RACCORDO
100
AcDbLine
 62
253
  6
CONTINUOUS
 10
112.763048385
 20
32.5182813022
 11
112.7527712075
 21
32.576023531
  0
LINE
  5
361
100
AcDbEntity
  8
RACCORDO
100
AcDbLine
 62
253
  6
CONTINUOUS
 10
112.7527712075
 20
32.576023531
 11
112.7408936305
 21
32.6451498964
  0
LINE
  5
362
100
AcDbEntity
  8
RACCORDO
100
AcDbLine
 62
253
  6
CONTINUOUS
 10
112.7408936305
 20
32.6451498964
 11
112.7204422135
 21
32.7683967705
  0
LINE
  5
363
100
AcDbEntity
  8
RACCORDO
100
AcDbLine
 62
253
  6
CONTINUOUS
 10
112.7204422135
 20
32.7683967705
 11
112.6973818729
 21
32.9120274712
  0
LINE
  5
364
100
AcDbEntity
  8
RACCORDO
100
AcDbLine
 62
253
  6
CONTINUOUS
 10
112.6973818729
 20
32.9120274712
 11
112.6638352798
 21
33.1279786545
  0
LINE
  5
365
100
AcDbEntity
  8
RACCORDO
100
AcDbLine
 62
253
  6
CONTINUOUS
 10
112.6638352798
 20
33.1279786545
 11
112.6200906841
 21
33.4203777008
  0
LWPOLYLINE
  5
366
100
AcDbEntity
  8
RACCORDO
100
AcDbPolyline
 62
253
  6
CONTINUOUS
 90
19
 70
0
 10
110.2137532233
 20
50.7004724762
 10
110.1524292422
 20
51.9546340101
 10
110.0946092193
 20
53.2089041263
 10
110.0402931547
 20
54.4632828248
 10
109.9894811624
 20
55.7177734136
 10
109.9421731283
 20
56.9723725848
 10
109.8983687105
 20
58.2270704144
 10
109.8580677743
 20
59.4818668588
 10
109.8212704543
 20
60.7367619618
 10
109.7879768121
 20
61.991745931
 10
109.7581867114
 20
63.2468187631
 10
109.7319002886
 20
64.5019804615
 10
109.7091180147
 20
65.7572212435
 10
109.689839753
 20
67.0125411438
 10
109.6740656403
 20
68.2679401277
 10
109.6617965573
 20
69.5234083096
 10
109.6530327976
 20
70.7789423943
 10
109.6477740677
 20
72.034545677
 10
109.6460203675
 20
73.2902181577
  0
LWPOLYLINE
  5
367
100
AcDbEntity
  8
RACCORDO
100
AcDbPolyline
 62
253
  6
CONTINUOUS
 90
10
 70
0
 10
110.2137532233
 20
152.8799638393
 10
110.3303584249
 20
154.8187777761
 10
110.484733038
 20
156.7534456679
 10
110.6768770625
 20
158.6839675149
 10
110.9068945046
 20
160.6110830591
 10
111.1746813583
 20
162.5340525583
 10
111.4799256049
 20
164.4506567861
 10
111.8225232383
 20
166.3601560004
 10
112.2025782647
 20
168.2632899432
 10
112.6200906841
 20
170.1600586147
  0
LINE
  5
368
100
AcDbEntity
  8
RACCORDO
100
AcDbLine
 62
7
  6
CONTINUOUS
 10
109.3617211544
 20
73.2902193771
 11
109.3617211544
 21
130.2902169383
  0
LINE
  5
369
100
AcDbEntity
  8
RACCORDO
100
AcDbLine
 62
253
  6
CONTINUOUS
 10
109.6460203675
 20
73.2902181577
 11
109.6460203675
 21
130.2902181577
  0
LWPOLYLINE
  5
36A
100
AcDbEntity
  8
RACCORDO
100
AcDbPolyline
 62
253
  6
CONTINUOUS
 90
19
 70
0
 10
109.6460203675
 20
130.2902181577
 10
109.6477740677
 20
131.5458906384
 10
109.6530327976
 20
132.8014939211
 10
109.6617965573
 20
134.0570280058
 10
109.6740656403
 20
135.3124961878
 10
109.689839753
 20
136.5678951717
 10
109.7091180147
 20
137.823215072
 10
109.7319002886
 20
139.078455854
 10
109.7581867114
 20
140.3336175524
 10
109.7879768121
 20
141.5886903845
 10
109.8212704543
 20
142.8436743537
 10
109.8580677743
 20
144.0985694567
 10
109.8983687105
 20
145.3533659011
 10
109.9421731283
 20
146.6080637307
 10
109.9894811624
 20
147.8626629018
 10
110.0402931547
 20
149.1171534906
 10
110.0946092193
 20
150.3715321892
 10
110.1524292422
 20
151.6258023054
 10
110.2137532233
 20
152.8799638393
  0
LINE
  5
36B
100
AcDbEntity
  8
RACCORDO
100
AcDbLine
 62
7
  6
CONTINUOUS
 10
115.1298327513
 20
32.2902181577
 11
115.1298327513
 21
171.2902181577
  0
LINE
  5
36C
100
AcDbEntity
  8
RACCORDO
100
AcDbLine
 62
7
  6
CONTINUOUS
 10
117.9298327513
 20
169.7902181586
 11
117.9298327513
 21
33.7902181445
  0
LINE
  5
36D
100
AcDbEntity
  8
RACCORDO
100
AcDbLine
 62
253
  6
CONTINUOUS
 10
109.3617211544
 20
130.2902181577
 11
109.6460203675
 21
130.2902181577
  0
LINE
  5
36E
100
AcDbEntity
  8
RACCORDO
100
AcDbLine
 62
253
  6
CONTINUOUS
 10
109.967383359
 20
152.8927616649
 11
110.2137532233
 21
152.8799638393
  0
LWPOLYLINE
  5
36F
100
AcDbEntity
  8
RACCORDO
100
AcDbPolyline
 62
253
  6
CONTINUOUS
 90
5
 70
0
 10
109.9298327967
 20
152.895033714
 10
109.9313627689
 20
152.8948768457
 10
109.9359450384
 20
152.894567276
 10
109.9435326852
 20
152.8941081749
 10
109.967383359
 20
152.8927616649
  0
LWPOLYLINE
  5
370
100
AcDbEntity
  8
RACCORDO
100
AcDbPolyline
 62
253
  6
CONTINUOUS
 90
13
 70
0
 10
117.9298327104
 20
34.193142757
 10
117.8434521532
 20
34.136521446
 10
117.7514958023
 20
34.0794714193
 10
117.6538159761
 20
34.0219926768
 10
117.5499685635
 20
33.9636237875
 10
117.4401088688
 20
33.9048261825
 10
117.3250374604
 20
33.8469841544
 10
117.2041767094
 20
33.7899811141
 10
117.0779428447
 20
33.7339336507
 10
116.9487805636
 20
33.6805758252
 10
116.8175814217
 20
33.6304856577
 10
116.6835758011
 20
33.583085128
 10
116.5468238132
 20
33.5383742362
  0
LWPOLYLINE
  5
371
100
AcDbEntity
  8
RACCORDO
100
AcDbPolyline
 62
253
  6
CONTINUOUS
 90
6
 70
0
 10
112.3434525551
 20
33.3530142553
 10
112.3448715838
 20
33.3537076526
 10
112.3492744674
 20
33.3550848592
 10
112.3566160472
 20
33.3571317498
 10
112.3668210234
 20
33.3598273301
 10
112.3797847275
 20
33.3631439526
  0
LWPOLYLINE
  5
372
100
AcDbEntity
  8
RACCORDO
100
AcDbPolyline
 62
253
  6
CONTINUOUS
 90
8
 70
0
 10
112.3434524571
 20
170.2274220827
 10
112.3448720067
 20
170.2267285741
 10
112.3492753382
 20
170.2253512732
 10
112.3566172893
 20
170.2233043062
 10
112.3668225583
 20
170.2206086673
 10
112.3797864758
 20
170.2172920042
 10
112.3953760792
 20
170.2133883338
 10
112.4337674816
 20
170.2039857308
  0
LWPOLYLINE
  5
373
100
AcDbEntity
  8
RACCORDO
100
AcDbPolyline
 62
253
  6
CONTINUOUS
 90
13
 70
0
 10
116.5468444762
 20
170.0420559677
 10
116.6965880238
 20
169.9924888227
 10
116.8401493197
 20
169.9412422846
 10
116.9775593126
 20
169.8883163533
 10
117.1093075688
 20
169.8331157973
 10
117.2350103703
 20
169.776235848
 10
117.3534674457
 20
169.7194622002
 10
117.4639633715
 20
169.6632912145
 10
117.5675471942
 20
169.6072265303
 10
117.6656798787
 20
169.55156476
 10
117.7589061404
 20
169.4964047746
 10
117.8469141175
 20
169.4416477032
 10
117.9298327306
 20
169.3872935457
  0
LWPOLYLINE
  5
374
100
AcDbEntity
  8
RACCORDO
100
AcDbPolyline
 62
253
  6
CONTINUOUS
 90
13
 70
0
 10
116.5468238132
 20
33.5383742362
 10
116.4335366373
 20
33.5044637304
 10
116.3198324492
 20
33.4730070553
 10
116.205779747
 20
33.4440042107
 10
116.091841577
 20
33.4175151731
 10
115.9776932173
 20
33.3934799662
 10
115.8622012507
 20
33.3717186607
 10
115.7454399969
 20
33.3521346122
 10
115.6274354775
 20
33.3348244652
 10
115.5069526026
 20
33.319898224
 10
115.3836067156
 20
33.3073925566
 10
115.2578798546
 20
33.297270795
 10
115.1298329266
 20
33.2895329392
  0
LINE
  5
375
100
AcDbEntity
  8
RACCORDO
100
AcDbLine
 62
253
  6
CONTINUOUS
 10
112.6200906841
 20
170.1600586147
 11
115.1298327513
 21
170.291588623
  0
LINE
  5
376
100
AcDbEntity
  8
RACCORDO
100
AcDbLine
 62
7
  6
CONTINUOUS
 10
112.7859074027
 20
171.1673782354
 11
115.1298327513
 21
171.2902181577
  0
LWPOLYLINE
  5
377
100
AcDbEntity
  8
RACCORDO
100
AcDbPolyline
 62
253
  6
CONTINUOUS
 90
13
 70
0
 10
115.1298327743
 20
170.2909033886
 10
115.2480411606
 20
170.2840791701
 10
115.3661218658
 20
170.2748134185
 10
115.4840127913
 20
170.2631061336
 10
115.6014024807
 20
170.2490113508
 10
115.7184797112
 20
170.2324750348
 10
115.8359246236
 20
170.2133350797
 10
115.9538606118
 20
170.1915907375
 10
116.0720151477
 20
170.1672427563
 10
116.1904604404
 20
170.1401312749
 10
116.3091632343
 20
170.110203006
 10
116.4279874988
 20
170.077511237
 10
116.5468444762
 20
170.0420559677
  0
LINE
  5
378
100
AcDbEntity
  8
RACCORDO
100
AcDbLine
 62
253
  6
CONTINUOUS
 10
112.5062695202
 20
170.1866523365
 11
112.6200910249
 21
170.1600586147
  0
LINE
  5
379
100
AcDbEntity
  8
RACCORDO
100
AcDbLine
 62
253
  6
CONTINUOUS
 10
112.4337674816
 20
170.2039857308
 11
112.5062695202
 21
170.1866523365
  0
ARC
  5
37A
100
AcDbEntity
  8
RACCORDO
100
AcDbCircle
 62
7
  6
CONTINUOUS
 10
167.318230257
 20
51.5902181577
 40
0.8
100
AcDbArc
 50
270.0
 51
360.0
  0
ARC
  5
37B
100
AcDbEntity
  8
RACCORDO
100
AcDbCircle
 62
7
  6
CONTINUOUS
 10
146.418230257
 20
51.5902181577
 40
0.8
100
AcDbArc
 50
180.0
 51
270.0
  0
ARC
  5
37C
100
AcDbEntity
  8
RACCORDO
100
AcDbCircle
 62
7
  6
CONTINUOUS
 10
146.418230257
 20
94.9902181577
 40
0.8
100
AcDbArc
 50
90.0
 51
180.0
  0
ARC
  5
37D
100
AcDbEntity
  8
RACCORDO
100
AcDbCircle
 62
7
  6
CONTINUOUS
 10
167.318230257
 20
94.9902181577
 40
0.8
100
AcDbArc
 50
0.0
 51
90.0
  0
ARC
  5
37E
100
AcDbEntity
  8
RACCORDO
100
AcDbCircle
 62
7
  6
CONTINUOUS
 10
146.418230257
 20
108.5902181577
 40
0.8
100
AcDbArc
 50
180.0
 51
270.0
  0
ARC
  5
37F
100
AcDbEntity
  8
RACCORDO
100
AcDbCircle
 62
7
  6
CONTINUOUS
 10
146.418230257
 20
151.9902181577
 40
0.8
100
AcDbArc
 50
90.0
 51
180.0
  0
ARC
  5
380
100
AcDbEntity
  8
RACCORDO
100
AcDbCircle
 62
7
  6
CONTINUOUS
 10
167.318230257
 20
151.9902181577
 40
0.8
100
AcDbArc
 50
0.0
 51
90.0
  0
ARC
  5
381
100
AcDbEntity
  8
RACCORDO
100
AcDbCircle
 62
7
  6
CONTINUOUS
 10
167.318230257
 20
108.5902181577
 40
0.8
100
AcDbArc
 50
270.0
 51
360.0
  0
ARC
  5
382
100
AcDbEntity
  8
RACCORDO
100
AcDbCircle
 62
7
  6
CONTINUOUS
 10
209.2374065245
 20
55.6802181577
 40
99.4331051068
100
AcDbArc
 50
182.8793162679
 51
193.396246198
  0
ARC
  5
383
100
AcDbEntity
  8
0
100
AcDbCircle
 62
7
  6
CONTINUOUS
 10
209.2374065245
 20
55.6802181577
 40
99.4331051068
100
AcDbArc
 50
184.9043592052
 51
186.5067589855
  0
ARC
  5
384
100
AcDbEntity
  8
RACCORDO
100
AcDbCircle
 62
7
  6
CONTINUOUS
 10
114.8583529348
 20
37.9703616439
 40
5.1872524353
100
AcDbArc
 50
273.0000012113
 51
306.3076478694
  0
ARC
  5
385
100
AcDbEntity
  8
0
100
AcDbCircle
 62
7
  6
CONTINUOUS
 10
114.8583529348
 20
37.9703616439
 40
5.1872524353
100
AcDbArc
 50
281.9208459902
 51
282.1024390514
  0
ARC
  5
386
100
AcDbEntity
  8
0
100
AcDbCircle
 62
7
  6
CONTINUOUS
 10
114.8583529348
 20
37.9703616439
 40
5.1872524353
100
AcDbArc
 50
287.8948008262
 51
288.2571443252
  0
ARC
  5
387
100
AcDbEntity
  8
RACCORDO
100
AcDbCircle
 62
7
  6
CONTINUOUS
 10
112.8016081895
 20
32.7126469405
 40
0.3
100
AcDbArc
 50
193.396246198
 51
267.0
  0
ARC
  5
388
100
AcDbEntity
  8
RACCORDO
100
AcDbCircle
 62
7
  6
CONTINUOUS
 10
209.2374065245
 20
147.9002181577
 40
99.4331051068
100
AcDbArc
 50
166.603753802
 51
177.1206536946
  0
ARC
  5
389
100
AcDbEntity
  8
RACCORDO
100
AcDbCircle
 62
7
  6
CONTINUOUS
 10
114.8583529348
 20
165.6100746716
 40
5.1872524353
100
AcDbArc
 50
53.6923519007
 51
86.9999997454
  0
ARC
  5
38A
100
AcDbEntity
  8
RACCORDO
100
AcDbCircle
 62
7
  6
CONTINUOUS
 10
112.8016065161
 20
170.8677825983
 40
0.3000000002
100
AcDbArc
 50
92.9996131308
 51
166.6024207206
  0
ARC
  5
38B
100
AcDbEntity
  8
RACCORDO
100
AcDbCircle
 62
7
  6
CONTINUOUS
 10
559.3617211544
 20
73.2902181577
 40
450.0
100
AcDbArc
 50
179.9999998447
 51
182.8793397003
  0
ARC
  5
38C
100
AcDbEntity
  8
RACCORDO
100
AcDbCircle
 62
7
  6
CONTINUOUS
 10
559.3617211544
 20
130.2902181577
 40
450.0
100
AcDbArc
 50
177.1206603318
 51
180.0000001553
  0
ELLIPSE
  5
38D
100
AcDbEntity
  8
RACCORDO
100
AcDbEllipse
 62
7
  6
CONTINUOUS
 10
137.869602603
 20
33.2915905037
 30
0.0
 11
0.7090462434
 21
0.7090462434
 31
0.0
 40
0.9972646886
 41
-3.9256212891
 42
-2.3575640181
  0
ELLIPSE
  5
38E
100
AcDbEntity
  8
RACCORDO
100
AcDbEllipse
 62
7
  6
CONTINUOUS
 10
175.866857911
 20
33.2915905037
 30
0.0
 11
-0.7090462434
 21
0.7090462434
 31
0.0
 40
0.9972646886
 41
-3.9256212891
 42
-2.3575640181
  0
ELLIPSE
  5
38F
100
AcDbEntity
  8
RACCORDO
100
AcDbEllipse
 62
7
  6
CONTINUOUS
 10
175.866857911
 20
170.2888458117
 30
0.0
 11
0.7090462434
 21
0.7090462434
 31
0.0
 40
0.9972646886
 41
-0.7840286355
 42
0.7840286355
  0
ELLIPSE
  5
390
100
AcDbEntity
  8
RACCORDO
100
AcDbEllipse
 62
7
  6
CONTINUOUS
 10
137.869602603
 20
170.2888458117
 30
0.0
 11
-0.7090462434
 21
0.7090462434
 31
0.0
 40
0.9972646886
 41
-0.7840286355
 42
0.7840286355
  0
ENDSEC
  0
SECTION
  2
OBJECTS
  0
DICTIONARY
  5
C
100
AcDbDictionary
280
0
281
1
  3
ACAD_GROUP
350
D
  3
ACAD_MLINESTYLE
350
17
  3
ACAD_LAYOUT
350
1A
  3
ACAD_PLOTSETTINGS
350
19
  3
ACAD_PLOTSTYLENAME
350
E
  0
DICTIONARY
  5
D
102
{ACAD_REACTORS
330
C
102
}
100
AcDbDictionary
280
0
281
1
  0
ACDBDICTIONARYWDFLT
  5
E
102
{ACAD_REACTORS
330
C
102
}
100
AcDbDictionary
281
1
  3
Normal
350
F
100
AcDbDictionaryWithDefault
340
F
  0
DICTIONARY
  5
17
102
{ACAD_REACTORS
330
C
102
}
100
AcDbDictionary
280
0
281
1
  3
Standard
350
18
  0
DICTIONARY
  5
19
102
{ACAD_REACTORS
330
C
102
}
100
AcDbDictionary
281
1
  0
DICTIONARY
  5
1A
102
{ACAD_REACTORS
330
C
102
}
100
AcDbDictionary
281
1
  3
Model
350
391
  3
Layout1
350
392
  0
ACDBPLACEHOLDER
  5
F
102
{ACAD_REACTORS
330
E
102
}
  0
MLINESTYLE
  5
18
102
{ACAD_REACTORS
330
17
102
}
100
AcDbMlineStyle
  2
STANDARD
 70
0
  3

 62
256
 51
90.0
 52
90.0
 71
2
 49
0.5
 62
256
  6
BYLAYER
 49
-0.5
 62
256
  6
BYLAYER
  0
LAYOUT
  5
391
102
{ACAD_REACTORS
330
1A
102
}
100
AcDbPlotSettings
  1

  2
none_device
  4
ISO_A4_(297.00_x_210.00_MM)
  6

 40
0.0
 41
0.0
 42
0.0
 43
0.0
 44
297.0
 45
210.0
 46
0.0
 47
0.0
 48
0.0
 49
0.0
140
0.0
141
0.0
142
1.0
143
1.0
 70
1024
 72
1
 73
0
 74
0
  7

 75
0
147
1.0
148
0.0
149
0.0
100
AcDbLayout
  1
Model
 70
0
 71
0
 10
0.0
 20
0.0
 11
297.0
 21
210.0
 12
0.0
 22
0.0
 32
0.0
 14
0.0
 24
0.0
 34
0.0
 15
0.0
 25
0.0
 35
0.0
146
0.0
 13
0.0
 23
0.0
 33
0.0
 16
1.0
 26
0.0
 36
0.0
 17
0.0
 27
1.0
 37
0.0
 76
0
330
213
345
0
346
0
  0
LAYOUT
  5
392
102
{ACAD_REACTORS
330
1A
102
}
100
AcDbPlotSettings
  1

  2
none_device
  4
ISO_A4_(297.00_x_210.00_MM)
  6

 40
0.0
 41
0.0
 42
0.0
 43
0.0
 44
297.0
 45
210.0
 46
0.0
 47
0.0
 48
0.0
 49
0.0
140
0.0
141
0.0
142
1.0
143
1.0
 70
0
 72
1
 73
0
 74
0
  7

 75
0
147
1.0
148
0.0
149
0.0
100
AcDbLayout
  1
Layout1
 70
0
 71
1
 10
0.0
 20
0.0
 11
297.0
 21
210.0
 12
0.0
 22
0.0
 32
0.0
 14
0.0
 24
0.0
 34
0.0
 15
0.0
 25
0.0
 35
0.0
146
0.0
 13
0.0
 23
0.0
 33
0.0
 16
1.0
 26
0.0
 36
0.0
 17
0.0
 27
1.0
 37
0.0
 76
0
330
214
345
0
346
0
  0
ENDSEC
  0
EOF
