  0
SECTION
  2
HEADER
  9
$ACADVER
  1
AC1021
  9
$DWGCODEPAGE
  3
ANSI_1252
  9
$EXTMAX
 10
297.0
 20
210.0
 30
0.0
  9
$EXTMIN
 10
0.0
 20
0.0
 30
0.0
  9
$LIMMIN
 10
0.0
 20
0.0
  9
$LIMMAX
 10
297.0
 20
210.0
  9
$VIEWCTR
 10
148.5
 20
105.0
  9
$VIEWSIZE
 40
210.0
  9
$CLAYER
  8
0
  9
$LTSCALE
 40
16.335
  9
$CELTYPE
  6
BYLAYER
  9
$DIMSCALE
 40
1.0
  9
$DIMASZ
 40
3.0
  9
$DIMEXO
 40
1.85625
  9
$DIMDLI
 40
11.286
  9
$DIMEXE
 40
5.346
  9
$DIMCEN
 40
2.673
  9
$DIMLFAC
 40
1.0
  9
$DIMBLK
  1
_FILLED
  9
$DIMTXT
 40
3.0
  9
$DIMTOL
 70
1
  9
$DIMLIM
 70
0
  9
$DIMTFAC
 40
1.0
  9
$DIMTP
 40
0.01
  9
$DIMTM
 40
0.01
  9
$PDMODE
 70
3
  9
$PDSIZE
 40
3.0
  9
$HANDSEED
  5
36E
  9
$TILEMODE
 70
1
  9
$MEASUREMENT
 70
1
  9
$INSUNITS
 70
4
  0
ENDSEC
  0
SECTION
  2
CLASSES
  0
CLASS
  1
ACDBDICTIONARYWDFLT
  2
AcDbDictionaryWithDefault
  3
AutoCAD 2000
 90
0
 91
1
280
0
281
0
  0
CLASS
  1
ACDBPLACEHOLDER
  2
AcDbPlaceHolder
  3
AutoCAD 2000
 90
0
 91
1
280
0
281
0
  0
CLASS
  1
LAYOUT
  2
AcDbLayout
  3
AutoCAD 2000
 90
0
 91
0
280
0
281
0
  0
ENDSEC
  0
SECTION
  2
TABLES
  0
TABLE
  2
VPORT
  5
8
100
AcDbSymbolTable
 70
2
  0
VPORT
  5
1F4
100
AcDbSymbolTableRecord
100
AcDbViewportTableRecord
  2
*ACTIVE
 70
0
 10
0.0
 20
0.0
 11
1.0
 21
1.0
 12
148.5
 22
105.0
 13
0.0
 23
0.0
 14
1.0
 24
1.0
 15
0.0
 25
0.0
 16
0.0
 26
0.0
 36
1.0
 17
0.0
 27
0.0
 37
0.0
 40
210.0
 41
1.4142857143
 42
50.0
 43
0.0
 44
0.0
 50
0.0
 51
0.0
 71
0
 72
100
 73
1
 74
1
 75
0
 76
0
 77
0
 78
0
  0
ENDTAB
  0
TABLE
  2
LTYPE
  5
5
100
AcDbSymbolTable
 70
6
  0
LTYPE
  5
14
100
AcDbSymbolTableRecord
100
AcDbLinetypeTableRecord
  2
BYBLOCK
 70
0
  3

 72
65
 73
0
 40
0.0
  0
LTYPE
  5
15
100
AcDbSymbolTableRecord
100
AcDbLinetypeTableRecord
  2
BYLAYER
 70
0
  3

 72
65
 73
0
 40
0.0
  0
LTYPE
  5
16
100
AcDbSymbolTableRecord
100
AcDbLinetypeTableRecord
  2
CONTINUOUS
 70
64
  3
Solid line
 72
65
 73
0
 40
0.0
  0
LTYPE
  5
1F5
100
AcDbSymbolTableRecord
100
AcDbLinetypeTableRecord
  2
CENTER
 70
64
  3
____ _ ____ _ ____ _ ____ _ ____ _ ____ _ ____
 72
65
 73
4
 40
0.6
 49
0.375
 74
0
 49
-0.075
 74
0
 49
0.075
 74
0
 49
-0.075
 74
0
  0
LTYPE
  5
1F6
100
AcDbSymbolTableRecord
100
AcDbLinetypeTableRecord
  2
HIDDEN
 70
64
  3
- - - - - - - - - - - - - - - - - - - -
 72
65
 73
2
 40
0.2
 49
0.1
 74
0
 49
-0.1
 74
0
  0
LTYPE
  5
1F7
100
AcDbSymbolTableRecord
100
AcDbLinetypeTableRecord
  2
PHANTOM
 70
64
  3
_____ _ _ _____ _ _ _____ _ _ _____
 72
65
 73
6
 40
0.8
 49
0.45
 74
0
 49
-0.05
 74
0
 49
0.1
 74
0
 49
-0.05
 74
0
 49
0.1
 74
0
 49
-0.05
 74
0
  0
LTYPE
  5
1F8
100
AcDbSymbolTableRecord
100
AcDbLinetypeTableRecord
  2
DOT
 70
64
  3
. . . . . . . . . . . . . . . . . . . .
 72
65
 73
2
 40
0.2
 49
0.1
 74
0
 49
-0.1
 74
0
  0
LTYPE
  5
1F9
100
AcDbSymbolTableRecord
100
AcDbLinetypeTableRecord
  2
DASHED
 70
64
  3
- - - - - - - - - - - - - - - - - - - -
 72
65
 73
2
 40
0.2
 49
0.1
 74
0
 49
-0.1
 74
0
  0
ENDTAB
  0
TABLE
  2
LAYER
  5
2
100
AcDbSymbolTable
 70
36
  0
LAYER
  5
10
100
AcDbSymbolTableRecord
100
AcDbLayerTableRecord
  2
0
 70
0
 62
7
  6
CONTINUOUS
370
-3
390
F
  0
LAYER
  5
1FA
100
AcDbSymbolTableRecord
100
AcDbLayerTableRecord
  2
DEFAULT_1
 70
0
 62
7
  6
CENTER
370
-3
390
F
  0
LAYER
  5
1FB
100
AcDbSymbolTableRecord
100
AcDbLayerTableRecord
  2
DEFAULT_2
 70
0
 62
7
  6
HIDDEN
370
-3
390
F
  0
LAYER
  5
1FC
100
AcDbSymbolTableRecord
100
AcDbLayerTableRecord
  2
DEFAULT_3
 70
0
 62
7
  6
PHANTOM
370
-3
390
F
  0
LAYER
  5
1FD
100
AcDbSymbolTableRecord
100
AcDbLayerTableRecord
  2
ASSI
 70
0
 62
7
  6
CONTINUOUS
370
-3
390
F
  0
LAYER
  5
1FE
100
AcDbSymbolTableRecord
100
AcDbLayerTableRecord
  2
COORDINATE
 70
0
 62
7
  6
CONTINUOUS
370
-3
390
F
  0
LAYER
  5
1FF
100
AcDbSymbolTableRecord
100
AcDbLayerTableRecord
  2
COPY_PUBLISH
 70
0
 62
7
  6
CONTINUOUS
370
-3
390
F
  0
LAYER
  5
200
100
AcDbSymbolTableRecord
100
AcDbLayerTableRecord
  2
COSMETICI
 70
0
 62
7
  6
CONTINUOUS
370
-3
390
F
  0
LAYER
  5
201
100
AcDbSymbolTableRecord
100
AcDbLayerTableRecord
  2
CURVE
 70
0
 62
7
  6
CONTINUOUS
370
-3
390
F
  0
LAYER
  5
202
100
AcDbSymbolTableRecord
100
AcDbLayerTableRecord
  2
DRAFT
 70
0
 62
7
  6
CONTINUOUS
370
-3
390
F
  0
LAYER
  5
203
100
AcDbSymbolTableRecord
100
AcDbLayerTableRecord
  2
IMPORT_IGES
 70
0
 62
7
  6
CONTINUOUS
370
-3
390
F
  0
LAYER
  5
204
100
AcDbSymbolTableRecord
100
AcDbLayerTableRecord
  2
INTF_1
 70
0
 62
7
  6
CONTINUOUS
370
-3
390
F
  0
LAYER
  5
205
100
AcDbSymbolTableRecord
100
AcDbLayerTableRecord
  2
NOTE
 70
0
 62
7
  6
CONTINUOUS
370
-3
390
F
  0
LAYER
  5
206
100
AcDbSymbolTableRecord
100
AcDbLayerTableRecord
  2
PIANI
 70
0
 62
7
  6
CONTINUOUS
370
-3
390
F
  0
LAYER
  5
207
100
AcDbSymbolTableRecord
100
AcDbLayerTableRecord
  2
PUNTI
 70
0
 62
7
  6
CONTINUOUS
370
-3
390
F
  0
LAYER
  5
208
100
AcDbSymbolTableRecord
100
AcDbLayerTableRecord
  2
RACCORDO
 70
0
 62
7
  6
CONTINUOUS
370
-3
390
F
  0
LAYER
  5
209
100
AcDbSymbolTableRecord
100
AcDbLayerTableRecord
  2
SIMBOLI
 70
0
 62
7
  6
CONTINUOUS
370
-3
390
F
  0
LAYER
  5
20A
100
AcDbSymbolTableRecord
100
AcDbLayerTableRecord
  2
SMUSSO
 70
0
 62
7
  6
CONTINUOUS
370
-3
390
F
  0
LAYER
  5
20B
100
AcDbSymbolTableRecord
100
AcDbLayerTableRecord
  2
SNAPLINE
 70
0
 62
7
  6
CONTINUOUS
370
-3
390
F
  0
LAYER
  5
20C
100
AcDbSymbolTableRecord
100
AcDbLayerTableRecord
  2
SUPERFICI
 70
0
 62
7
  6
CONTINUOUS
370
-3
390
F
  0
LAYER
  5
20D
100
AcDbSymbolTableRecord
100
AcDbLayerTableRecord
  2
TRASH
 70
0
 62
7
  6
CONTINUOUS
370
-3
390
F
  0
ENDTAB
  0
TABLE
  2
STYLE
  5
3
100
AcDbSymbolTable
 70
1
  0
STYLE
  5
11
100
AcDbSymbolTableRecord
100
AcDbTextStyleTableRecord
  2
STANDARD
 70
0
 40
0.0
 41
0.8
 50
0.0
 71
0
 42
0.2
  3
txt
  4

  0
STYLE
  5
20E
100
AcDbSymbolTableRecord
100
AcDbTextStyleTableRecord
  2
TEXTSTYLE_1
 70
0
 40
0.0
 41
0.8
 50
0.0
 71
0
 42
0.2
  3
gdt
  4

  0
ENDTAB
  0
TABLE
  2
VIEW
  5
6
100
AcDbSymbolTable
 70
0
  0
ENDTAB
  0
TABLE
  2
UCS
  5
7
100
AcDbSymbolTable
 70
0
  0
ENDTAB
  0
TABLE
  2
APPID
  5
9
100
AcDbSymbolTable
 70
1
  0
APPID
  5
20F
100
AcDbSymbolTableRecord
100
AcDbRegAppTableRecord
  2
ACAD
 70
0
  0
ENDTAB
  0
TABLE
  2
BLOCK_RECORD
  5
1
100
AcDbSymbolTable
 70
0
  0
BLOCK_RECORD
  5
210
100
AcDbSymbolTableRecord
100
AcDbBlockTableRecord
  2
*Model_Space
  0
BLOCK_RECORD
  5
211
100
AcDbSymbolTableRecord
100
AcDbBlockTableRecord
  2
*Paper_Space
  0
BLOCK_RECORD
  5
212
100
AcDbSymbolTableRecord
100
AcDbBlockTableRecord
  2
_FILLED
  0
BLOCK_RECORD
  5
213
100
AcDbSymbolTableRecord
100
AcDbBlockTableRecord
  2
*D0
  0
BLOCK_RECORD
  5
214
100
AcDbSymbolTableRecord
100
AcDbBlockTableRecord
  2
*D1
  0
BLOCK_RECORD
  5
215
100
AcDbSymbolTableRecord
100
AcDbBlockTableRecord
  2
*D2
  0
BLOCK_RECORD
  5
216
100
AcDbSymbolTableRecord
100
AcDbBlockTableRecord
  2
*D3
  0
BLOCK_RECORD
  5
217
100
AcDbSymbolTableRecord
100
AcDbBlockTableRecord
  2
*D4
  0
ENDTAB
  0
TABLE
  2
DIMSTYLE
  5
A
100
AcDbSymbolTable
 70
1
100
AcDbDimStyleTable
 71
0
  0
DIMSTYLE
105
218
100
AcDbSymbolTableRecord
100
AcDbDimStyleTableRecord
  2
STANDARD
 70
0
  3

  4

 40
1.0
 41
3.0
 42
0.0625
 43
0.38
 44
0.18
 45
0.0
 46
0.0
 47
0.01
 48
0.01
140
3.0
141
0.09
142
0.0
143
25.4
144
1.0
145
0.0
146
1.0
147
0.09
 71
1.0
 72
0.0
 73
0
 74
0
 75
0
 76
0
 77
1
 78
8
170
0
171
2
172
0
173
0
174
0
175
0
176
0
177
0
178
0
270
2
271
2
272
2
273
2
274
2
275
0
280
0
281
0
282
0
283
1
284
8
285
0
286
0
287
3
288
0
340
11
341
212
342
212
343
212
344
212
  0
DIMSTYLE
105
219
100
AcDbSymbolTableRecord
100
AcDbDimStyleTableRecord
  2
DIMSTYLE_1
 70
0
  3

  4

 40
1.0
 41
3.0
 42
0.0625
 43
0.38
 44
0.18
 45
0.0
 46
0.0
 47
0.0
 48
0.0
140
3.0
141
0.09
142
0.0
143
25.4
144
1.0
145
0.0
146
1.0
147
0.09
 71
0.0
 72
0.0
 73
0
 74
0
 75
0
 76
0
 77
1
 78
8
170
0
171
2
172
0
173
0
174
0
175
0
176
0
177
0
178
0
270
2
271
1
272
1
273
2
274
2
275
0
280
0
281
0
282
0
283
1
284
8
285
0
286
0
287
3
288
0
340
11
341
212
342
212
343
212
344
212
  0
DIMSTYLE
105
21A
100
AcDbSymbolTableRecord
100
AcDbDimStyleTableRecord
  2
DIMSTYLE_2
 70
0
  3

  4

 40
1.0
 41
3.0
 42
0.0625
 43
0.38
 44
0.18
 45
0.0
 46
0.0
 47
0.0
 48
0.0
140
3.0
141
0.09
142
0.0
143
25.4
144
1.0
145
0.0
146
1.0
147
0.09
 71
0.0
 72
0.0
 73
0
 74
0
 75
0
 76
0
 77
1
 78
8
170
0
171
2
172
0
173
0
174
0
175
0
176
0
177
0
178
0
270
2
271
2
272
2
273
2
274
2
275
0
280
0
281
0
282
0
283
1
284
8
285
0
286
0
287
3
288
0
340
11
341
212
342
212
343
212
344
212
  0
ENDTAB
  0
ENDSEC
  0
SECTION
  2
BLOCKS
  0
BLOCK
  5
20
100
AcDbEntity
  8
0
100
AcDbBlockBegin
  2
*Model_Space
 70
0
 10
0.0
 20
0.0
 30
0.0
  3
*Model_Space
  1

  0
ENDBLK
  5
21
100
AcDbEntity
  8
0
100
AcDbBlockEnd
  0
BLOCK
  5
1C
100
AcDbEntity
  8
0
100
AcDbBlockBegin
  2
*Paper_Space
 70
0
 10
0.0
 20
0.0
 30
0.0
  3
*Paper_Space
  1

  0
ENDBLK
  5
1D
100
AcDbEntity
  8
0
100
AcDbBlockEnd
  0
BLOCK
  5
21B
100
AcDbEntity
  8
0
100
AcDbBlockBegin
  2
_FILLED
 70
64
 10
0.0
 20
0.0
  3
_FILLED
  1

  0
SOLID
  5
21C
100
AcDbEntity
  8
0
  6
BYBLOCK
 62
0
100
AcDbTrace
 10
0.0
 20
0.0
 11
-1.0
 21
0.3166666667
 12
-1.0
 22
-0.3166666667
 13
-1.0
 23
-0.3166666667
  0
ENDBLK
  5
21D
100
AcDbEntity
  8
0
  6
BYBLOCK
 62
0
100
AcDbBlockEnd
  0
BLOCK
  5
21E
100
AcDbEntity
  8
0
100
AcDbBlockBegin
 62
7
  6
CONTINUOUS
  2
*D0
 70
65
 10
0.0
 20
0.0
  3
*D0
  1

  0
MTEXT
  5
21F
100
AcDbEntity
  8
0
100
AcDbMText
 62
7
  6
CONTINUOUS
  7
STANDARD
 71
2
 72
1
 10
-114.7781014256
 20
94.8035013869
 30
0.0
 11
1.0
 21
0.0
 31
0.0
 44
0.9
  1
9,3
 40
3.0
 41
6.2142857143
  0
LINE
  5
220
100
AcDbEntity
  8
0
100
AcDbLine
 62
7
  6
CONTINUOUS
 10
-119.4381465708
 20
28.4464986131
 11
-119.4381465708
 21
92.5535013869
  0
LINE
  5
221
100
AcDbEntity
  8
0
100
AcDbLine
 62
7
  6
CONTINUOUS
 10
-110.1180562805
 20
71.8067462833
 11
-110.1180562805
 21
92.5535013869
  0
LINE
  5
222
100
AcDbEntity
  8
0
100
AcDbLine
 62
7
  6
CONTINUOUS
 10
-119.4381465708
 20
91.0535013869
 11
-123.4381465708
 21
91.0535013869
  0
LINE
  5
223
100
AcDbEntity
  8
0
100
AcDbLine
 62
7
  6
CONTINUOUS
 10
-123.4381465708
 20
91.0535013869
 11
-114.7781014256
 21
91.0535013869
  0
LINE
  5
224
100
AcDbEntity
  8
0
100
AcDbLine
 62
7
  6
CONTINUOUS
 10
-110.1180562805
 20
91.0535013869
 11
-106.1180562805
 21
91.0535013869
  0
LINE
  5
225
100
AcDbEntity
  8
0
100
AcDbLine
 62
7
  6
CONTINUOUS
 10
-106.1180562805
 20
91.0535013869
 11
-114.7781014256
 21
91.0535013869
  0
INSERT
  5
226
100
AcDbEntity
  8
0
100
AcDbBlockReference
 62
7
  6
CONTINUOUS
  2
_FILLED
 10
-119.4381465708
 20
91.0535013869
 41
3.0
 42
3.0
 43
3.0
  0
INSERT
  5
227
100
AcDbEntity
  8
0
100
AcDbBlockReference
 62
7
  6
CONTINUOUS
  2
_FILLED
 10
-110.1180562805
 20
91.0535013869
 41
3.0
 42
3.0
 43
3.0
 50
180.0
  0
ENDBLK
  5
228
100
AcDbEntity
  8
0
  6
BYBLOCK
 62
0
100
AcDbBlockEnd
  0
BLOCK
  5
229
100
AcDbEntity
  8
0
100
AcDbBlockBegin
 62
7
  6
CONTINUOUS
  2
*D1
 70
65
 10
0.0
 20
0.0
  3
*D1
  1

  0
MTEXT
  5
22A
100
AcDbEntity
  8
0
100
AcDbMText
 62
7
  6
CONTINUOUS
  7
STANDARD
 71
2
 72
1
 10
0.0
 20
104.8035013869
 30
0.0
 11
1.0
 21
0.0
 31
0.0
 44
0.9
  1
146,5
 40
3.0
 41
10.2857142857
  0
LINE
  5
22B
100
AcDbEntity
  8
0
100
AcDbLine
 62
7
  6
CONTINUOUS
 10
-73.25
 20
72.8464986131
 11
-73.25
 21
102.5535013869
  0
LINE
  5
22C
100
AcDbEntity
  8
0
100
AcDbLine
 62
7
  6
CONTINUOUS
 10
73.25
 20
72.8464986131
 11
73.25
 21
102.5535013869
  0
LINE
  5
22D
100
AcDbEntity
  8
0
100
AcDbLine
 62
7
  6
CONTINUOUS
 10
-73.25
 20
101.0535013869
 11
0.0
 21
101.0535013869
  0
LINE
  5
22E
100
AcDbEntity
  8
0
100
AcDbLine
 62
7
  6
CONTINUOUS
 10
73.25
 20
101.0535013869
 11
0.0
 21
101.0535013869
  0
INSERT
  5
22F
100
AcDbEntity
  8
0
100
AcDbBlockReference
 62
7
  6
CONTINUOUS
  2
_FILLED
 10
-73.25
 20
101.0535013869
 41
3.0
 42
3.0
 43
3.0
 50
180.0
  0
INSERT
  5
230
100
AcDbEntity
  8
0
100
AcDbBlockReference
 62
7
  6
CONTINUOUS
  2
_FILLED
 10
73.25
 20
101.0535013869
 41
3.0
 42
3.0
 43
3.0
 50
360.0
  0
ENDBLK
  5
231
100
AcDbEntity
  8
0
  6
BYBLOCK
 62
0
100
AcDbBlockEnd
  0
BLOCK
  5
232
100
AcDbEntity
  8
0
100
AcDbBlockBegin
 62
7
  6
CONTINUOUS
  2
*D2
 70
65
 10
0.0
 20
0.0
  3
*D2
  1

  0
MTEXT
  5
233
100
AcDbEntity
  8
0
100
AcDbMText
 62
7
  6
CONTINUOUS
  7
STANDARD
 71
2
 72
1
 10
94.3943413639
 20
-7.5535013869
 30
0.0
 11
0.0
 21
1.0
 31
0.0
 44
0.9
  1
163
 40
3.0
 41
6.2142857143
  0
LINE
  5
234
100
AcDbEntity
  8
0
100
AcDbLine
 62
7
  6
CONTINUOUS
 10
72.15
 20
73.9464986131
 11
99.6443413639
 21
73.9464986131
  0
LINE
  5
235
100
AcDbEntity
  8
0
100
AcDbLine
 62
7
  6
CONTINUOUS
 10
72.15
 20
-89.0535013869
 11
99.6443413639
 21
-89.0535013869
  0
LINE
  5
236
100
AcDbEntity
  8
0
100
AcDbLine
 62
7
  6
CONTINUOUS
 10
98.1443413639
 20
73.9464986131
 11
98.1443413639
 21
-7.5535013869
  0
LINE
  5
237
100
AcDbEntity
  8
0
100
AcDbLine
 62
7
  6
CONTINUOUS
 10
98.1443413639
 20
-89.0535013869
 11
98.1443413639
 21
-7.5535013869
  0
INSERT
  5
238
100
AcDbEntity
  8
0
100
AcDbBlockReference
 62
7
  6
CONTINUOUS
  2
_FILLED
 10
98.1443413639
 20
73.9464986131
 41
3.0
 42
3.0
 43
3.0
 50
90.0
  0
INSERT
  5
239
100
AcDbEntity
  8
0
100
AcDbBlockReference
 62
7
  6
CONTINUOUS
  2
_FILLED
 10
98.1443413639
 20
-89.0535013869
 41
3.0
 42
3.0
 43
3.0
 50
270.0
  0
ENDBLK
  5
23A
100
AcDbEntity
  8
0
  6
BYBLOCK
 62
0
100
AcDbBlockEnd
  0
BLOCK
  5
23B
100
AcDbEntity
  8
0
100
AcDbBlockBegin
 62
7
  6
CONTINUOUS
  2
*D3
 70
65
 10
0.0
 20
0.0
  3
*D3
  1

  0
MTEXT
  5
23C
100
AcDbEntity
  8
0
100
AcDbMText
 62
7
  6
CONTINUOUS
  7
STANDARD
 71
2
 72
1
 10
84.3943413639
 20
-7.5535013869
 30
0.0
 11
0.0
 21
1.0
 31
0.0
 44
0.9
  1
116,1
 40
3.0
 41
9.2142857143
  0
LINE
  5
23D
100
AcDbEntity
  8
0
100
AcDbLine
 62
7
  6
CONTINUOUS
 10
44.85
 20
50.4964986131
 11
89.6443413639
 21
50.4964986131
  0
LINE
  5
23E
100
AcDbEntity
  8
0
100
AcDbLine
 62
7
  6
CONTINUOUS
 10
44.85
 20
-65.6035013869
 11
89.6443413639
 21
-65.6035013869
  0
LINE
  5
23F
100
AcDbEntity
  8
0
100
AcDbLine
 62
7
  6
CONTINUOUS
 10
88.1443413639
 20
50.4964986131
 11
88.1443413639
 21
-7.5535013869
  0
LINE
  5
240
100
AcDbEntity
  8
0
100
AcDbLine
 62
7
  6
CONTINUOUS
 10
88.1443413639
 20
-65.6035013869
 11
88.1443413639
 21
-7.5535013869
  0
INSERT
  5
241
100
AcDbEntity
  8
0
100
AcDbBlockReference
 62
7
  6
CONTINUOUS
  2
_FILLED
 10
88.1443413639
 20
50.4964986131
 41
3.0
 42
3.0
 43
3.0
 50
90.0
  0
INSERT
  5
242
100
AcDbEntity
  8
0
100
AcDbBlockReference
 62
7
  6
CONTINUOUS
  2
_FILLED
 10
88.1443413639
 20
-65.6035013869
 41
3.0
 42
3.0
 43
3.0
 50
270.0
  0
ENDBLK
  5
243
100
AcDbEntity
  8
0
  6
BYBLOCK
 62
0
100
AcDbBlockEnd
  0
BLOCK
  5
244
100
AcDbEntity
  8
0
100
AcDbBlockBegin
 62
7
  6
CONTINUOUS
  2
*D4
 70
65
 10
0.0
 20
0.0
  3
*D4
  1

  0
MTEXT
  5
245
100
AcDbEntity
  8
0
100
AcDbMText
 62
7
  6
CONTINUOUS
  7
STANDARD
 71
2
 72
1
 10
0.0
 20
94.8035013869
 30
0.0
 11
1.0
 21
0.0
 31
0.0
 44
0.9
  1
90,3
 40
3.0
 41
8.5714285714
  0
LINE
  5
246
100
AcDbEntity
  8
0
100
AcDbLine
 62
7
  6
CONTINUOUS
 10
45.15
 20
51.1589859138
 11
45.15
 21
92.5535013869
  0
LINE
  5
247
100
AcDbEntity
  8
0
100
AcDbLine
 62
7
  6
CONTINUOUS
 10
-45.15
 20
51.0552379414
 11
-45.15
 21
92.5535013869
  0
LINE
  5
248
100
AcDbEntity
  8
0
100
AcDbLine
 62
7
  6
CONTINUOUS
 10
45.15
 20
91.0535013869
 11
0.0
 21
91.0535013869
  0
LINE
  5
249
100
AcDbEntity
  8
0
100
AcDbLine
 62
7
  6
CONTINUOUS
 10
-45.15
 20
91.0535013869
 11
0.0
 21
91.0535013869
  0
INSERT
  5
24A
100
AcDbEntity
  8
0
100
AcDbBlockReference
 62
7
  6
CONTINUOUS
  2
_FILLED
 10
45.15
 20
91.0535013869
 41
3.0
 42
3.0
 43
3.0
  0
INSERT
  5
24B
100
AcDbEntity
  8
0
100
AcDbBlockReference
 62
7
  6
CONTINUOUS
  2
_FILLED
 10
-45.15
 20
91.0535013869
 41
3.0
 42
3.0
 43
3.0
 50
180.0
  0
ENDBLK
  5
24C
100
AcDbEntity
  8
0
  6
BYBLOCK
 62
0
100
AcDbBlockEnd
  0
ENDSEC
  0
SECTION
  2
ENTITIES
  0
DIMENSION
  5
24D
100
AcDbEntity
  8
0
100
AcDbDimension
 62
7
  6
CONTINUOUS
  2
*D0
 10
-110.1180562805
 20
91.0535013869
 11
-117.8852442828
 21
93.3035013869
 70
160
 71
2
 42
9.3200902903
  3
DIMSTYLE_1
100
AcDbAlignedDimension
 13
-119.4381465708
 23
28.4464986131
 14
-110.1180562805
 24
71.8067462833
100
AcDbRotatedDimension
  0
DIMENSION
  5
24E
100
AcDbEntity
  8
0
100
AcDbDimension
 62
7
  6
CONTINUOUS
  2
*D1
 10
73.25
 20
101.0535013869
 11
-5.1428571429
 21
103.3035013869
 70
160
 71
2
 42
146.5
  3
DIMSTYLE_2
100
AcDbAlignedDimension
 13
-73.25
 23
72.8464986131
 14
73.25
 24
72.8464986131
 50
360.0
100
AcDbRotatedDimension
  0
DIMENSION
  5
24F
100
AcDbEntity
  8
0
100
AcDbDimension
 62
7
  6
CONTINUOUS
  2
*D2
 10
98.1443413639
 20
-89.0535013869
 11
97.2865700997
 21
-10.3312767345
 70
160
 71
2
 42
163.0
  3
DIMSTYLE_2
100
AcDbAlignedDimension
 13
72.15
 23
73.9464986131
 14
72.15
 24
-89.0535013869
 50
270.0
100
AcDbRotatedDimension
  0
DIMENSION
  5
250
100
AcDbEntity
  8
0
100
AcDbDimension
 62
7
  6
CONTINUOUS
  2
*D3
 10
88.1443413639
 20
-65.6035013869
 11
87.9586805239
 21
-11.6722717299
 70
160
 71
2
 42
116.1
  3
DIMSTYLE_2
100
AcDbAlignedDimension
 13
44.85
 23
50.4964986131
 14
44.85
 24
-65.6035013869
 50
270.0
100
AcDbRotatedDimension
  0
DIMENSION
  5
251
100
AcDbEntity
  8
0
100
AcDbDimension
 62
7
  6
CONTINUOUS
  2
*D4
 10
-45.15
 20
91.0535013869
 11
-4.2857142857
 21
93.3035013869
 70
160
 71
2
 42
90.3
  3
DIMSTYLE_2
100
AcDbAlignedDimension
 13
45.15
 23
51.1589859138
 14
-45.15
 24
51.0552379414
 50
180.0
100
AcDbRotatedDimension
  0
LWPOLYLINE
  5
252
100
AcDbEntity
  8
0
100
AcDbPolyline
 62
7
  6
CONTINUOUS
 90
31
 70
0
 10
71.65
 20
-89.0535013869
 10
71.7323927416
 20
-89.0513743537
 10
71.8146818045
 20
-89.0449986862
 10
71.8966172309
 20
-89.0343829964
 10
71.9780900211
 20
-89.0195100221
 10
72.0588489817
 20
-89.00038827
 10
72.1384445657
 20
-88.9771156535
 10
72.2165122369
 20
-88.9498374729
 10
72.2929922527
 20
-88.9186119143
 10
72.3678700206
 20
-88.8834316757
 10
72.4411210852
 20
-88.8442478864
 10
72.5125094743
 20
-88.8011194355
 10
72.5817328303
 20
-88.7541958503
 10
72.6484379018
 20
-88.7037292856
 10
72.712387234
 20
-88.6498943569
 10
72.7734127135
 20
-88.5928007669
 10
72.831432961
 20
-88.53250278
 10
72.8863598146
 20
-88.4690677128
 10
72.9380601708
 20
-88.4026280245
 10
72.9863515301
 20
-88.3333625968
 10
73.030953621
 20
-88.2615882285
 10
73.0716367679
 20
-88.1876566605
 10
73.1082632986
 20
-88.1118788638
 10
73.1408664853
 20
-88.0342544721
 10
73.1694573139
 20
-87.9547264418
 10
73.1939169262
 20
-87.8734152485
 10
73.2140513269
 20
-87.7907671829
 10
73.2297591233
 20
-87.7071980992
 10
73.2409944094
 20
-87.6230085432
 10
73.2477462016
 20
-87.5383686277
 10
73.25
 20
-87.4535013869
  0
LWPOLYLINE
  5
253
100
AcDbEntity
  8
0
100
AcDbPolyline
 62
253
  6
CONTINUOUS
 90
46
 70
0
 10
71.65
 20
-87.8662653167
 10
71.6555058001
 20
-87.866159293
 10
71.660921869
 20
-87.8658966189
 10
71.6662482068
 20
-87.8654772942
 10
71.6714979953
 20
-87.86489271
 10
71.6766580526
 20
-87.8641514743
 10
71.6816888336
 20
-87.8632794128
 10
71.6865476627
 20
-87.8622869432
 10
71.6912772156
 20
-87.8611636465
 10
71.6959659738
 20
-87.8599040933
 10
71.7006439696
 20
-87.85850461
 10
71.7052811708
 20
-87.8569688683
 10
71.7098759627
 20
-87.8553024569
 10
71.7144515253
 20
-87.8534967963
 10
71.7189846786
 20
-87.8515604638
 10
71.7234042684
 20
-87.8495247825
 10
71.7276638956
 20
-87.8474116401
 10
71.7318099594
 20
-87.8451991472
 10
71.7359105029
 20
-87.842852961
 10
71.7399828193
 20
-87.8403657412
 10
71.7440096155
 20
-87.8377448249
 10
71.748007055
 20
-87.8349778854
 10
71.7520161172
 20
-87.8320357121
 10
71.7559958226
 20
-87.8289475114
 10
71.7598393964
 20
-87.8257885825
 10
71.7634629444
 20
-87.822637975
 10
71.7669503608
 20
-87.8194166381
 10
71.770446553
 20
-87.8159627189
 10
71.7739838975
 20
-87.8122718007
 10
71.7775300179
 20
-87.8083482923
 10
71.7811326926
 20
-87.8040435739
 10
71.7848688738
 20
-87.7992722429
 10
71.7886616092
 20
-87.7941196847
 10
71.7923278205
 20
-87.7886934601
 10
71.7958078768
 20
-87.7830958047
 10
71.799161409
 20
-87.7772244707
 10
71.8023842305
 20
-87.7708802907
 10
71.8055367902
 20
-87.7639377545
 10
71.8085586394
 20
-87.7565223405
 10
71.8112642454
 20
-87.7488113636
 10
71.8136256756
 20
-87.7408659089
 10
71.8156708627
 20
-87.7326248714
 10
71.8172980722
 20
-87.7240822864
 10
71.8184733927
 20
-87.7152361576
 10
71.8192307356
 20
-87.706088457
 10
71.819570101
 20
-87.6966391718
  0
LWPOLYLINE
  5
254
100
AcDbEntity
  8
0
100
AcDbPolyline
 62
253
  6
CONTINUOUS
 90
46
 70
0
 10
71.649999982
 20
-88.8900793153
 10
71.6970417509
 20
-88.889325141
 10
71.7431734971
 20
-88.8871126307
 10
71.7883503334
 20
-88.8835305252
 10
71.8324403224
 20
-88.8786778953
 10
71.8755030632
 20
-88.8726309962
 10
71.9177940933
 20
-88.8654144632
 10
71.9593217173
 20
-88.8570762447
 10
72.0000578074
 20
-88.8476711611
 10
72.0402067905
 20
-88.8371875597
 10
72.0797476787
 20
-88.825658972
 10
72.1186667568
 20
-88.8131204839
 10
72.1571680846
 20
-88.7995238997
 10
72.1952422165
 20
-88.7848776116
 10
72.2328308158
 20
-88.7692091547
 10
72.2700546131
 20
-88.7524647899
 10
72.3069933489
 20
-88.7345912754
 10
72.3435245607
 20
-88.7156283958
 10
72.3794760256
 20
-88.6956581434
 10
72.4148107778
 20
-88.6747052902
 10
72.4495452587
 20
-88.6527645977
 10
72.4835784769
 20
-88.6299096469
 10
72.5166696215
 20
-88.6063308052
 10
72.5489922519
 20
-88.5819329251
 10
72.5810277533
 20
-88.5563305499
 10
72.6126820457
 20
-88.5295388871
 10
72.6439286832
 20
-88.501521635
 10
72.675273533
 20
-88.4717190459
 10
72.7066284219
 20
-88.4400515267
 10
72.7378993923
 20
-88.4064434538
 10
72.7694772285
 20
-88.370243243
 10
72.8012524419
 20
-88.3312559311
 10
72.8329215371
 20
-88.2895032051
 10
72.864457432
 20
-88.2446151921
 10
72.8956629351
 20
-88.1963580648
 10
72.9261507612
 20
-88.1447679317
 10
72.9555592491
 20
-88.0898786034
 10
72.9835920613
 20
-88.0316123596
 10
73.0099287599
 20
-87.969919373
 10
73.0341602645
 20
-87.9049485302
 10
73.0559075035
 20
-87.836783182
 10
73.0747919282
 20
-87.7655292859
 10
73.0904278551
 20
-87.6914156865
 10
73.1024596794
 20
-87.6146225566
 10
73.1105518982
 20
-87.53526866
 10
73.1143544081
 20
-87.4535395691
  0
LINE
  5
255
100
AcDbEntity
  8
0
100
AcDbLine
 62
7
  6
CONTINUOUS
 10
-71.65
 20
-89.0535013869
 11
71.65
 21
-89.0535013869
  0
LINE
  5
256
100
AcDbEntity
  8
0
100
AcDbLine
 62
253
  6
CONTINUOUS
 10
-73.1143971602
 20
-87.4509887044
 11
-73.25
 21
-87.4535013869
  0
LWPOLYLINE
  5
257
100
AcDbEntity
  8
0
100
AcDbPolyline
 62
253
  6
CONTINUOUS
 90
25
 70
0
 10
71.8195696931
 20
-87.6988858098
 10
71.8997696409
 20
-87.6983885701
 10
71.9796640619
 20
-87.6968658421
 10
72.0589485932
 20
-87.6943234265
 10
72.1373211951
 20
-87.6907710089
 10
72.2144833023
 20
-87.6862221226
 10
72.2901409607
 20
-87.6806940967
 10
72.3640059476
 20
-87.6742079906
 10
72.4357968697
 20
-87.6667885136
 10
72.5052402347
 20
-87.6584639306
 10
72.5720714938
 20
-87.6492659547
 10
72.6360360489
 20
-87.6392296262
 10
72.696890223
 20
-87.628393179
 10
72.7544021881
 20
-87.6167978954
 10
72.8083528488
 20
-87.6044879483
 10
72.8585366766
 20
-87.5915102332
 10
72.9047624928
 20
-87.5779141896
 10
72.9468541974
 20
-87.5637516125
 10
72.9846514393
 20
-87.5490764552
 10
73.0180102274
 20
-87.5339446235
 10
73.0468034793
 20
-87.5184137632
 10
73.0709215052
 20
-87.5025430401
 10
73.0902724261
 20
-87.4863929147
 10
73.1047825232
 20
-87.470024912
 10
73.1143965195
 20
-87.4535013868
  0
LINE
  5
258
100
AcDbEntity
  8
0
100
AcDbLine
 62
253
  6
CONTINUOUS
 10
73.1143964246
 20
-87.4535395585
 11
73.25
 21
-87.4535013869
  0
LINE
  5
259
100
AcDbEntity
  8
0
100
AcDbLine
 62
253
  6
CONTINUOUS
 10
-71.65
 20
-88.8900793153
 11
71.649999982
 21
-88.8900793153
  0
LINE
  5
25A
100
AcDbEntity
  8
0
100
AcDbLine
 62
253
  6
CONTINUOUS
 10
-71.65
 20
-87.8662653167
 11
71.65
 21
-87.8662653167
  0
LWPOLYLINE
  5
25B
100
AcDbEntity
  8
0
100
AcDbPolyline
 62
253
  6
CONTINUOUS
 90
25
 70
0
 10
-71.8195713404
 20
-87.6963251549
 10
-71.8997715699
 20
-87.695831682
 10
-71.9796662724
 20
-87.6943124861
 10
-72.0589510829
 20
-87.691773355
 10
-72.1373239598
 20
-87.6882239636
 10
-72.2144863355
 20
-87.6836778362
 10
-72.290144254
 20
-87.6781522956
 10
-72.3640094907
 20
-87.671668397
 10
-72.4358006503
 20
-87.6642508474
 10
-72.5052442388
 20
-87.6559279117
 10
-72.5720757055
 20
-87.6467313051
 10
-72.6360404508
 20
-87.636696072
 10
-72.696894796
 20
-87.6258604526
 10
-72.7544069118
 20
-87.6142657371
 10
-72.8083577015
 20
-87.6019561084
 10
-72.8585416353
 20
-87.5889784738
 10
-72.9047675336
 20
-87.5753822862
 10
-72.9468592953
 20
-87.5612193555
 10
-72.9846565687
 20
-87.5465436514
 10
-73.018015362
 20
-87.5314110975
 10
-73.0468085925
 20
-87.5158793585
 10
-73.07092657
 20
-87.5000076202
 10
-73.0902774152
 20
-87.483856364
 10
-73.1047874098
 20
-87.4674871364
 10
-73.1144012766
 20
-87.4509623147
  0
LWPOLYLINE
  5
25C
100
AcDbEntity
  8
0
100
AcDbPolyline
 62
253
  6
CONTINUOUS
 90
31
 70
0
 10
-73.1143990865
 20
-87.450988741
 10
-73.111191361
 20
-87.5263166944
 10
-73.1041091586
 20
-87.6014243896
 10
-73.0931594846
 20
-87.6761237334
 10
-73.0783553435
 20
-87.7502040121
 10
-73.0597240662
 20
-87.8234844914
 10
-73.0372872266
 20
-87.8958198747
 10
-73.0111013236
 20
-87.9669764099
 10
-72.9812757776
 20
-88.0366774668
 10
-72.9479096159
 20
-88.1047038842
 10
-72.9110679296
 20
-88.17089483
 10
-72.8708024266
 20
-88.2351330877
 10
-72.8271774221
 20
-88.2973126995
 10
-72.7803406068
 20
-88.3572221997
 10
-72.7304809297
 20
-88.4146079328
 10
-72.6777609316
 20
-88.4692731274
 10
-72.6222327789
 20
-88.5211475235
 10
-72.5639532438
 20
-88.5701582659
 10
-72.5031124439
 20
-88.6161577412
 10
-72.4399704711
 20
-88.6589501101
 10
-72.3748035179
 20
-88.6983279689
 10
-72.307829307
 20
-88.7341730984
 10
-72.2391372349
 20
-88.7664629806
 10
-72.1688308154
 20
-88.7951666621
 10
-72.0971736295
 20
-88.8201924075
 10
-72.0243779381
 20
-88.8414657233
 10
-71.9506359354
 20
-88.8589239695
 10
-71.8761656446
 20
-88.872527822
 10
-71.8011223544
 20
-88.8822645427
 10
-71.7256592659
 20
-88.8881225181
 10
-71.65
 20
-88.8900793153
  0
LWPOLYLINE
  5
25D
100
AcDbEntity
  8
0
100
AcDbPolyline
 62
7
  6
CONTINUOUS
 90
31
 70
0
 10
-73.25
 20
-87.4535013869
 10
-73.2477462399
 20
-87.5383653311
 10
-73.2409948531
 20
-87.6230025728
 10
-73.2297607648
 20
-87.7071887819
 10
-73.2140544888
 20
-87.7907550015
 10
-73.1939203492
 20
-87.873403715
 10
-73.1694587081
 20
-87.9547208446
 10
-73.1408648198
 20
-88.0342569585
 10
-73.1082591689
 20
-88.1118877813
 10
-73.0716310441
 20
-88.1876687265
 10
-73.0309458383
 20
-88.2616023022
 10
-72.9863404805
 20
-88.333379255
 10
-72.9380445185
 20
-88.4026487911
 10
-72.8863387664
 20
-88.4690931395
 10
-72.831406912
 20
-88.5325313723
 10
-72.7733842262
 20
-88.5928288416
 10
-72.7123601294
 20
-88.6499183577
 10
-72.6484154924
 20
-88.7037474443
 10
-72.5817161141
 20
-88.7542082762
 10
-72.512497408
 20
-88.8011271826
 10
-72.4411106171
 20
-88.8442532132
 10
-72.3678590139
 20
-88.8834366524
 10
-72.29298279
 20
-88.9186162582
 10
-72.2165090163
 20
-88.9498393339
 10
-72.1384479759
 20
-88.9771148933
 10
-72.058856463
 20
-89.0003859856
 10
-71.9780983544
 20
-89.0195077874
 10
-71.896623608
 20
-89.0343818966
 10
-71.8146857137
 20
-89.0449984753
 10
-71.7323949698
 20
-89.0513743678
 10
-71.65
 20
-89.0535013869
  0
LWPOLYLINE
  5
25E
100
AcDbEntity
  8
0
100
AcDbPolyline
 62
253
  6
CONTINUOUS
 90
31
 70
0
 10
-71.8195713404
 20
-87.6963251553
 10
-71.8193584724
 20
-87.7050139937
 10
-71.81869868
 20
-87.7136584381
 10
-71.8175919632
 20
-87.7222584903
 10
-71.8160392412
 20
-87.7308264335
 10
-71.8140395949
 20
-87.7393499876
 10
-71.811590266
 20
-87.7477923104
 10
-71.8086673721
 20
-87.7562046642
 10
-71.8052947956
 20
-87.7645357918
 10
-71.8015414263
 20
-87.7725950807
 10
-71.7974481744
 20
-87.7802868511
 10
-71.7929741295
 20
-87.7877068051
 10
-71.788065451
 20
-87.7949514069
 10
-71.782666279
 20
-87.802115173
 10
-71.7768324732
 20
-87.8091035965
 10
-71.7706777723
 20
-87.8157296088
 10
-71.7642216707
 20
-87.8219357791
 10
-71.7574446739
 20
-87.8277795611
 10
-71.7504020368
 20
-87.8332462191
 10
-71.743116194
 20
-87.8383388353
 10
-71.7355647108
 20
-87.8430543459
 10
-71.7277355384
 20
-87.8473687959
 10
-71.7195587448
 20
-87.8512974827
 10
-71.7111042621
 20
-87.8548251239
 10
-71.7025698371
 20
-87.8578818958
 10
-71.6940243485
 20
-87.8604419207
 10
-71.6853989178
 20
-87.8625310887
 10
-71.6766846564
 20
-87.8641572271
 10
-71.6678786016
 20
-87.8653229468
 10
-71.6589837161
 20
-87.8660256428
 10
-71.65
 20
-87.8662653167
  0
LINE
  5
25F
100
AcDbEntity
  8
0
100
AcDbLine
 62
7
  6
CONTINUOUS
 10
-73.25
 20
72.3464986131
 11
-73.25
 21
-87.4535013869
  0
LINE
  5
260
100
AcDbEntity
  8
0
100
AcDbLine
 62
253
  6
CONTINUOUS
 10
-73.1176031898
 20
-43.0535013869
 11
-73.1143971602
 21
-87.4509887044
  0
LWPOLYLINE
  5
261
100
AcDbEntity
  8
0
100
AcDbPolyline
 62
253
  6
CONTINUOUS
 90
3
 70
0
 10
-73.1143964246
 20
72.3465367845
 10
-73.1172771351
 20
52.9736273287
 10
-73.1176031898
 20
-43.0535013869
  0
LINE
  5
262
100
AcDbEntity
  8
0
100
AcDbLine
 62
253
  6
CONTINUOUS
 10
-71.8225500823
 20
-43.0534976475
 11
-71.8195713404
 21
-87.6963251553
  0
LINE
  5
263
100
AcDbEntity
  8
0
100
AcDbLine
 62
253
  6
CONTINUOUS
 10
-71.65
 20
-87.8662653167
 11
-71.65
 21
-89.0535013869
  0
LINE
  5
264
100
AcDbEntity
  8
0
100
AcDbLine
 62
253
  6
CONTINUOUS
 10
-71.65
 20
72.759262543
 11
-71.65
 21
73.9464986131
  0
LWPOLYLINE
  5
265
100
AcDbEntity
  8
0
100
AcDbPolyline
 62
253
  6
CONTINUOUS
 90
3
 70
0
 10
-71.819570101
 20
72.589636398
 10
-71.8222334333
 20
53.0541121334
 10
-71.8225500823
 20
-43.0534976475
  0
LWPOLYLINE
  5
266
100
AcDbEntity
  8
0
100
AcDbPolyline
 62
7
  6
CONTINUOUS
 90
19
 70
0
 10
3.3200188023
 20
-69.1643087279
 10
3.4215416741
 20
-69.1497061828
 10
3.5205250463
 20
-69.1369063231
 10
3.6169689188
 20
-69.1259091862
 10
3.7108462123
 20
-69.1166578197
 10
3.8021840062
 20
-69.1092092342
 10
3.8910635391
 20
-69.1037344056
 10
3.9775217826
 20
-69.1003032348
 10
4.0615217652
 20
-69.0988458494
 10
4.1430338107
 20
-69.0993235578
 10
4.2220230598
 20
-69.1017121107
 10
4.2985243718
 20
-69.1060357486
 10
4.3726126491
 20
-69.1123285044
 10
4.4444563666
 20
-69.1205111169
 10
4.5138870495
 20
-69.1306628022
 10
4.5804741752
 20
-69.1430552953
 10
4.6440742362
 20
-69.1577791399
 10
4.7048307401
 20
-69.1747436927
 10
4.7627436869
 20
-69.193948892
  0
LWPOLYLINE
  5
267
100
AcDbEntity
  8
0
100
AcDbPolyline
 62
253
  6
CONTINUOUS
 90
15
 70
0
 10
72.5757043135
 20
-65.6855565761
 10
72.6397097015
 20
-65.683116356
 10
72.7005935915
 20
-65.6804817035
 10
72.7581234593
 20
-65.6776626809
 10
72.81207959
 20
-65.6746700544
 10
72.8622559174
 20
-65.6715152531
 10
72.908460811
 20
-65.6682103259
 10
72.9505178077
 20
-65.6647678947
 10
72.9882662858
 20
-65.6612011065
 10
73.0215620785
 20
-65.6575235836
 10
73.0502780243
 20
-65.6537493708
 10
73.074304453
 20
-65.6498928824
 10
73.0935496042
 20
-65.6459688469
 10
73.1079399779
 20
-65.6419922508
 10
73.1174206152
 20
-65.6379782812
  0
LWPOLYLINE
  5
268
100
AcDbEntity
  8
0
100
AcDbPolyline
 62
253
  6
CONTINUOUS
 90
15
 70
0
 10
72.5757078193
 20
-65.6091942407
 10
72.6397132608
 20
-65.6067600871
 10
72.7005971897
 20
-65.6041322618
 10
72.7581270809
 20
-65.6013208008
 10
72.8120832187
 20
-65.5983364416
 10
72.8622595362
 20
-65.5951905817
 10
72.9084644023
 20
-65.5918952359
 10
72.9505213533
 20
-65.5884629895
 10
72.9882697674
 20
-65.5849069508
 10
73.0215654773
 20
-65.5812407008
 10
73.0502813216
 20
-65.5774782416
 10
73.0743076301
 20
-65.5736339426
 10
73.0935526424
 20
-65.5697224857
 10
73.107942859
 20
-65.5657588094
 10
73.1174233213
 20
-65.5617580516
  0
LWPOLYLINE
  5
269
100
AcDbEntity
  8
0
100
AcDbPolyline
 62
7
  6
CONTINUOUS
 90
31
 70
0
 10
4.2166806432
 20
-70.3771294735
 10
4.2414979039
 20
-70.3763251347
 10
4.2661402642
 20
-70.3747314234
 10
4.290607724
 20
-70.3723483373
 10
4.3149961903
 20
-70.3692190414
 10
4.3392097562
 20
-70.365300363
 10
4.3629607007
 20
-70.3604627911
 10
4.3862247047
 20
-70.3547113411
 10
4.4090260875
 20
-70.34804098
 10
4.4311500856
 20
-70.3403071188
 10
4.4526099929
 20
-70.3315068376
 10
4.4733925156
 20
-70.3216430247
 10
4.4932430089
 20
-70.3105797959
 10
4.5121248625
 20
-70.2982808146
 10
4.5300746868
 20
-70.2847823668
 10
4.5469476678
 20
-70.2700574951
 10
4.5626856091
 20
-70.2540272161
 10
4.5773467072
 20
-70.2367704446
 10
4.5909607379
 20
-70.2184970729
 10
4.6035365678
 20
-70.1992042276
 10
4.6150653303
 20
-70.1788947146
 10
4.6255502012
 20
-70.157786957
 10
4.63500989
 20
-70.1358714167
 10
4.6434256871
 20
-70.1131575716
 10
4.6507446408
 20
-70.0898923851
 10
4.6569811966
 20
-70.0660444259
 10
4.6621209089
 20
-70.0416450799
 10
4.6660674888
 20
-70.0170355597
 10
4.6687888397
 20
-69.9923296038
 10
4.6703170582
 20
-69.9674134604
 10
4.6706521442
 20
-69.9422871212
  0
LINE
  5
26A
100
AcDbEntity
  8
0
100
AcDbLine
 62
253
  6
CONTINUOUS
 10
72.4393178142
 20
-65.6898172195
 11
72.5757043135
 21
-65.6855565761
  0
LINE
  5
26B
100
AcDbEntity
  8
0
100
AcDbLine
 62
253
  6
CONTINUOUS
 10
72.4393211735
 20
-65.613445122
 11
72.5757078193
 21
-65.6091942407
  0
LINE
  5
26C
100
AcDbEntity
  8
0
100
AcDbLine
 62
253
  6
CONTINUOUS
 10
72.2935156227
 20
-65.6931986078
 11
72.4393178142
 21
-65.6898172195
  0
LINE
  5
26D
100
AcDbEntity
  8
0
100
AcDbLine
 62
253
  6
CONTINUOUS
 10
72.2935187902
 20
-65.6168200287
 11
72.4393211735
 21
-65.613445122
  0
LWPOLYLINE
  5
26E
100
AcDbEntity
  8
0
100
AcDbPolyline
 62
253
  6
CONTINUOUS
 90
28
 70
0
 10
44.35
 20
-66.9808315737
 10
44.4383681163
 20
-66.9790166505
 10
44.5266281951
 20
-66.9733777162
 10
44.6147802364
 20
-66.9639147433
 10
44.7029920234
 20
-66.9506438008
 10
44.791095773
 20
-66.933548709
 10
44.8785881355
 20
-66.9125810385
 10
44.9655377282
 20
-66.8876830604
 10
45.0518759338
 20
-66.8589122785
 10
45.1368935504
 20
-66.8263930891
 10
45.2205429963
 20
-66.7900924806
 10
45.3028718532
 20
-66.7500431443
 10
45.3833136648
 20
-66.7064680217
 10
45.4618467255
 20
-66.6593372326
 10
45.5384927408
 20
-66.6086802706
 10
45.6127503714
 20
-66.5548091484
 10
45.6845954551
 20
-66.4976998959
 10
45.754052154
 20
-66.4373760674
 10
45.8206916161
 20
-66.3742209954
 10
45.8844966883
 20
-66.3082020481
 10
45.9454845236
 20
-66.2393514502
 10
46.0032777288
 20
-66.1681498766
 10
46.0578476538
 20
-66.0945685584
 10
46.1092229487
 20
-66.0186359097
 10
46.1571121712
 20
-65.9409184629
 10
46.2014181736
 20
-65.8616049962
 10
46.2422381036
 20
-65.7805064791
 10
46.279571961
 20
-65.6976227799
  0
LINE
  5
26F
100
AcDbEntity
  8
0
100
AcDbLine
 62
253
  6
CONTINUOUS
 10
72.14052297
 20
-65.6956491343
 11
72.2935156227
 21
-65.6931986078
  0
LINE
  5
270
100
AcDbEntity
  8
0
100
AcDbLine
 62
253
  6
CONTINUOUS
 10
72.1405259107
 20
-65.6192674529
 11
72.2935187902
 21
-65.6168200287
  0
LINE
  5
271
100
AcDbEntity
  8
0
100
AcDbLine
 62
253
  6
CONTINUOUS
 10
71.9826748277
 20
-65.6971313991
 11
72.14052297
 21
-65.6956491343
  0
LINE
  5
272
100
AcDbEntity
  8
0
100
AcDbLine
 62
253
  6
CONTINUOUS
 10
71.982677518
 20
-65.6207500418
 11
72.1405259107
 21
-65.6192674529
  0
LINE
  5
273
100
AcDbEntity
  8
0
100
AcDbLine
 62
253
  6
CONTINUOUS
 10
-46.2990792116
 20
-64.8660906772
 11
-46.1501993679
 21
-64.864818177
  0
LINE
  5
274
100
AcDbEntity
  8
0
100
AcDbLine
 62
253
  6
CONTINUOUS
 10
71.8223827
 20
-65.6212451681
 11
71.982677518
 21
-65.6207500418
  0
LINE
  5
275
100
AcDbEntity
  8
0
100
AcDbLine
 62
253
  6
CONTINUOUS
 10
71.8223802722
 20
-65.6976227799
 11
71.9826748277
 21
-65.6971313991
  0
LINE
  5
276
100
AcDbEntity
  8
0
100
AcDbLine
 62
253
  6
CONTINUOUS
 10
-46.45
 20
-64.8665167646
 11
-46.2990792116
 21
-64.8660906772
  0
LINE
  5
277
100
AcDbEntity
  8
0
100
AcDbLine
 62
7
  6
CONTINUOUS
 10
-4.616107
 20
-71.9313023869
 11
-4.101097
 21
-71.9313023869
  0
LINE
  5
278
100
AcDbEntity
  8
0
100
AcDbLine
 62
7
  6
CONTINUOUS
 10
-2.984285
 20
-71.9313023869
 11
-2.399877
 21
-71.9313023869
  0
LINE
  5
279
100
AcDbEntity
  8
0
100
AcDbLine
 62
7
  6
CONTINUOUS
 10
-2.085272
 20
-71.9313023869
 11
-1.526183
 21
-71.9313023869
  0
LINE
  5
27A
100
AcDbEntity
  8
0
100
AcDbLine
 62
7
  6
CONTINUOUS
 10
-0.714487
 20
-71.9313023869
 11
-0.632524
 21
-71.9313023869
  0
LINE
  5
27B
100
AcDbEntity
  8
0
100
AcDbLine
 62
7
  6
CONTINUOUS
 10
0.182406
 20
-71.9313023869
 11
0.754112
 21
-71.9313023869
  0
LINE
  5
27C
100
AcDbEntity
  8
0
100
AcDbLine
 62
7
  6
CONTINUOUS
 10
0.84588
 20
-71.9313023869
 11
1.423947
 21
-71.9313023869
  0
LINE
  5
27D
100
AcDbEntity
  8
0
100
AcDbLine
 62
7
  6
CONTINUOUS
 10
2.532466
 20
-71.9313023869
 11
3.148408
 21
-71.9313023869
  0
LINE
  5
27E
100
AcDbEntity
  8
0
100
AcDbLine
 62
7
  6
CONTINUOUS
 10
3.3200188023
 20
-71.9313027413
 11
3.9020753449
 21
-71.9313027413
  0
LINE
  5
27F
100
AcDbEntity
  8
0
100
AcDbLine
 62
7
  6
CONTINUOUS
 10
4.7970156219
 20
-71.9313027413
 11
5.3591482119
 21
-71.9313027413
  0
LINE
  5
280
100
AcDbEntity
  8
0
100
AcDbLine
 62
7
  6
CONTINUOUS
 10
1.585207
 20
-71.3723823869
 11
2.381074
 21
-71.3723823869
  0
LINE
  5
281
100
AcDbEntity
  8
0
100
AcDbLine
 62
7
  6
CONTINUOUS
 10
1.704751
 20
-70.9398923869
 11
2.26428
 21
-70.9398923869
  0
LINE
  5
282
100
AcDbEntity
  8
0
100
AcDbLine
 62
7
  6
CONTINUOUS
 10
3.9020753449
 20
-70.8356533116
 11
4.2154209623
 21
-70.8356533116
  0
LINE
  5
283
100
AcDbEntity
  8
0
100
AcDbLine
 62
7
  6
CONTINUOUS
 10
3.8826972541
 20
-70.3771294735
 11
4.2166806432
 21
-70.3771294735
  0
LINE
  5
284
100
AcDbEntity
  8
0
100
AcDbLine
 62
7
  6
CONTINUOUS
 10
-5.503668
 20
-69.1315993869
 11
-4.86882
 21
-69.1315993869
  0
LINE
  5
285
100
AcDbEntity
  8
0
100
AcDbLine
 62
7
  6
CONTINUOUS
 10
-3.785169
 20
-69.1315993869
 11
-3.20116
 21
-69.1315993869
  0
LINE
  5
286
100
AcDbEntity
  8
0
100
AcDbLine
 62
7
  6
CONTINUOUS
 10
-1.832475
 20
-69.1315993869
 11
-1.24855
 21
-69.1315993869
  0
LINE
  5
287
100
AcDbEntity
  8
0
100
AcDbLine
 62
7
  6
CONTINUOUS
 10
-0.085906
 20
-69.1315993869
 11
0.492308
 21
-69.1315993869
  0
LINE
  5
288
100
AcDbEntity
  8
0
100
AcDbLine
 62
7
  6
CONTINUOUS
 10
1.724045
 20
-69.1315993869
 11
2.28939
 21
-69.1315993869
  0
LINE
  5
289
100
AcDbEntity
  8
0
100
AcDbLine
 62
7
  6
CONTINUOUS
 10
-2.984285
 20
-69.1314313869
 11
-2.399877
 21
-69.1314313869
  0
LINE
  5
28A
100
AcDbEntity
  8
0
100
AcDbLine
 62
253
  6
CONTINUOUS
 10
-44.35
 20
-66.9808315737
 11
44.35
 21
-66.9808315737
  0
LINE
  5
28B
100
AcDbEntity
  8
0
100
AcDbLine
 62
253
  6
CONTINUOUS
 10
46.279571961
 20
-65.6976227799
 11
71.8223802763
 21
-65.6975692643
  0
LINE
  5
28C
100
AcDbEntity
  8
0
100
AcDbLine
 62
7
  6
CONTINUOUS
 10
-44.3500179733
 20
-65.6035013869
 11
44.3500145221
 21
-65.6035013869
  0
LINE
  5
28D
100
AcDbEntity
  8
0
100
AcDbLine
 62
253
  6
CONTINUOUS
 10
73.25
 20
-65.5617580516
 11
73.1174233213
 21
-65.5617580516
  0
LINE
  5
28E
100
AcDbEntity
  8
0
100
AcDbLine
 62
253
  6
CONTINUOUS
 10
-73.25
 20
-65.5617580516
 11
-73.1174233213
 21
-65.5617580516
  0
LINE
  5
28F
100
AcDbEntity
  8
0
100
AcDbLine
 62
253
  6
CONTINUOUS
 10
-46.279571961
 20
-65.6976227799
 11
-71.9026808884
 21
-65.697501774
  0
LINE
  5
290
100
AcDbEntity
  8
0
100
AcDbLine
 62
253
  6
CONTINUOUS
 10
46.45
 20
-64.8665167646
 11
46.2990791624
 21
-64.8660906772
  0
LINE
  5
291
100
AcDbEntity
  8
0
100
AcDbLine
 62
253
  6
CONTINUOUS
 10
-71.8223827
 20
-65.6212451681
 11
-71.9826775181
 21
-65.6207500418
  0
LINE
  5
292
100
AcDbEntity
  8
0
100
AcDbLine
 62
253
  6
CONTINUOUS
 10
-71.9026808884
 20
-65.697501774
 11
-72.0620565739
 21
-65.6965130632
  0
LINE
  5
293
100
AcDbEntity
  8
0
100
AcDbLine
 62
253
  6
CONTINUOUS
 10
46.2990791624
 20
-64.8660906772
 11
46.1501992803
 21
-64.8648181765
  0
LINE
  5
294
100
AcDbEntity
  8
0
100
AcDbLine
 62
253
  6
CONTINUOUS
 10
-71.9826775181
 20
-65.6207500418
 11
-72.1405259108
 21
-65.6192674529
  0
LINE
  5
295
100
AcDbEntity
  8
0
100
AcDbLine
 62
253
  6
CONTINUOUS
 10
-72.0620565739
 20
-65.6965130632
 11
-72.2177743231
 21
-65.6945429055
  0
LINE
  5
296
100
AcDbEntity
  8
0
100
AcDbLine
 62
253
  6
CONTINUOUS
 10
-72.1405259108
 20
-65.6192674529
 11
-72.2935187903
 21
-65.6168200288
  0
LINE
  5
297
100
AcDbEntity
  8
0
100
AcDbLine
 62
253
  6
CONTINUOUS
 10
-72.2177743231
 20
-65.6945429055
 11
-72.367457574
 21
-65.6916213693
  0
LINE
  5
298
100
AcDbEntity
  8
0
100
AcDbLine
 62
253
  6
CONTINUOUS
 10
-72.2935187903
 20
-65.6168200288
 11
-72.4393211736
 21
-65.6134451221
  0
LWPOLYLINE
  5
299
100
AcDbEntity
  8
0
100
AcDbPolyline
 62
253
  6
CONTINUOUS
 90
17
 70
0
 10
-72.367457574
 20
-65.6916213693
 10
-72.5088218629
 20
-65.6877930431
 10
-72.5757043025
 20
-65.6855565749
 10
-72.63970969
 20
-65.6831163548
 10
-72.7005935797
 20
-65.6804817024
 10
-72.7581234472
 20
-65.6776626799
 10
-72.8120795778
 20
-65.6746700534
 10
-72.8622559054
 20
-65.6715152523
 10
-72.9084607993
 20
-65.6682103252
 10
-72.9505177965
 20
-65.664767894
 10
-72.9882662753
 20
-65.661201106
 10
-73.0215620689
 20
-65.6575235831
 10
-73.0502780158
 20
-65.6537493704
 10
-73.0743044457
 20
-65.6498928821
 10
-73.0935495984
 20
-65.6459688467
 10
-73.1079399737
 20
-65.6419922507
 10
-73.1174206128
 20
-65.6379782812
  0
LWPOLYLINE
  5
29A
100
AcDbEntity
  8
0
100
AcDbPolyline
 62
253
  6
CONTINUOUS
 90
16
 70
0
 10
-72.4393211736
 20
-65.6134451221
 10
-72.5757078195
 20
-65.6091942407
 10
-72.639713261
 20
-65.6067600872
 10
-72.70059719
 20
-65.6041322619
 10
-72.7581270811
 20
-65.6013208009
 10
-72.8120832189
 20
-65.5983364416
 10
-72.8622595364
 20
-65.5951905818
 10
-72.9084644025
 20
-65.5918952359
 10
-72.9505213536
 20
-65.5884629895
 10
-72.9882697676
 20
-65.5849069508
 10
-73.0215654775
 20
-65.5812407008
 10
-73.0502813218
 20
-65.5774782416
 10
-73.0743076302
 20
-65.5736339426
 10
-73.0935526425
 20
-65.5697224857
 10
-73.107942859
 20
-65.5657588094
 10
-73.1174233213
 20
-65.5617580516
  0
LWPOLYLINE
  5
29B
100
AcDbEntity
  8
0
100
AcDbPolyline
 62
7
  6
CONTINUOUS
 90
10
 70
0
 10
4.34051343
 20
-69.5920736358
 10
4.2919158201
 20
-69.587158284
 10
4.2426909471
 20
-69.5839125428
 10
4.1928388112
 20
-69.5823364214
 10
4.1422800131
 20
-69.5824071624
 10
4.0910939519
 20
-69.5841475274
 10
4.0395188256
 20
-69.5876257963
 10
3.9876340336
 20
-69.5928647204
 10
3.9353601764
 20
-69.5998415227
 10
3.8826972541
 20
-69.6085561828
  0
LWPOLYLINE
  5
29C
100
AcDbEntity
  8
0
100
AcDbPolyline
 62
253
  6
CONTINUOUS
 90
25
 70
0
 10
-46.279571961
 20
-65.6976227799
 10
-46.2374748732
 20
-65.790467825
 10
-46.1910154154
 20
-65.8810133685
 10
-46.1401935877
 20
-65.9692596017
 10
-46.0848685869
 20
-66.0554697524
 10
-46.0251812161
 20
-66.1393809573
 10
-45.9615538848
 20
-66.2202043456
 10
-45.8939425613
 20
-66.2978957559
 10
-45.8223912772
 20
-66.3724998691
 10
-45.7474545366
 20
-66.4433612032
 10
-45.6690999851
 20
-66.5104327826
 10
-45.5873599769
 20
-66.5737621686
 10
-45.5028860797
 20
-66.6328357646
 10
-45.4156457687
 20
-66.6876094217
 10
-45.3256715685
 20
-66.738127865
 10
-45.2337126208
 20
-66.7840108449
 10
-45.1397342501
 20
-66.8252075623
 10
-45.0437711318
 20
-66.8617693133
 10
-44.946676434
 20
-66.8934689893
 10
-44.8484401537
 20
-66.9202416056
 10
-44.7490722937
 20
-66.9421525053
 10
-44.6494560308
 20
-66.9591700396
 10
-44.5498857569
 20
-66.9712837198
 10
-44.45006708
 20
-66.9785042161
 10
-44.35
 20
-66.9808315737
  0
LWPOLYLINE
  5
29D
100
AcDbEntity
  8
0
100
AcDbPolyline
 62
253
  6
CONTINUOUS
 90
10
 70
0
 10
-46.279571961
 20
-65.6976227799
 10
-46.3147872339
 20
-65.6101915087
 10
-46.3459980856
 20
-65.5212695388
 10
-46.3732045159
 20
-65.4308568294
 10
-46.3964935713
 20
-65.3386035777
 10
-46.4157782053
 20
-65.2448594966
 10
-46.4307972791
 20
-65.1506738503
 10
-46.4414637464
 20
-65.0563964018
 10
-46.4478646533
 20
-64.9616773764
 10
-46.45
 20
-64.8665167646
  0
LWPOLYLINE
  5
29E
100
AcDbEntity
  8
0
100
AcDbPolyline
 62
253
  6
CONTINUOUS
 90
10
 70
0
 10
-46.279571961
 20
50.5906200061
 10
-46.314656576
 20
50.5035990463
 10
-46.3457793376
 20
50.4149947296
 10
-46.372940246
 20
50.3248070128
 10
-46.396239552
 20
50.2326993074
 10
-46.4155770048
 20
50.1390081067
 10
-46.4306518513
 20
50.0447430198
 10
-46.4413638404
 20
49.9502405878
 10
-46.4478132234
 20
49.8551642493
 10
-46.45
 20
49.7595139909
  0
LWPOLYLINE
  5
29F
100
AcDbEntity
  8
0
100
AcDbPolyline
 62
253
  6
CONTINUOUS
 90
17
 70
0
 10
-45.6736938306
 20
-64.8540474829
 10
-45.6143761072
 20
-64.8517739668
 10
-45.5578858706
 20
-64.8493371117
 10
-45.5044142657
 20
-64.8467451629
 10
-45.4541422238
 20
-64.8440068909
 10
-45.4072398492
 20
-64.8411315611
 10
-45.363865845
 20
-64.8381289027
 10
-45.3241669749
 20
-64.8350090757
 10
-45.2882775675
 20
-64.8317826367
 10
-45.256319061
 20
-64.8284605029
 10
-45.2283995929
 20
-64.8250539154
 10
-45.2046136339
 20
-64.8215744009
 10
-45.1850416682
 20
-64.8180337331
 10
-45.1697499211
 20
-64.8144438924
 10
-45.1587901349
 20
-64.8108170257
 10
-45.1521993942
 20
-64.8071654052
 10
-45.15
 20
-64.8035013869
  0
LINE
  5
2A0
100
AcDbEntity
  8
0
100
AcDbLine
 62
253
  6
CONTINUOUS
 10
-45.7999999998
 20
-64.8580743048
 11
-45.6736938306
 21
-64.8540474829
  0
LINE
  5
2A1
100
AcDbEntity
  8
0
100
AcDbLine
 62
253
  6
CONTINUOUS
 10
-45.935096304
 20
-64.8613631217
 11
-45.7999999998
 21
-64.8580743048
  0
LWPOLYLINE
  5
2A2
100
AcDbEntity
  8
0
100
AcDbPolyline
 62
253
  6
CONTINUOUS
 90
3
 70
0
 10
-46.1501993679
 20
-64.864818177
 10
-46.0771557973
 20
-64.8638694579
 10
-45.935096304
 20
-64.8613631217
  0
LINE
  5
2A3
100
AcDbEntity
  8
0
100
AcDbLine
 62
253
  6
CONTINUOUS
 10
46.1501992803
 20
-64.8648181765
 11
46.0053736994
 21
-64.862716471
  0
LINE
  5
2A4
100
AcDbEntity
  8
0
100
AcDbLine
 62
253
  6
CONTINUOUS
 10
46.0053736994
 20
-64.862716471
 11
45.8665609369
 21
-64.859813983
  0
LWPOLYLINE
  5
2A5
100
AcDbEntity
  8
0
100
AcDbPolyline
 62
253
  6
CONTINUOUS
 90
19
 70
0
 10
45.8665609369
 20
-64.859813983
 10
45.7356381965
 20
-64.8561499637
 10
45.673693701
 20
-64.8540474792
 10
45.6143759822
 20
-64.8517739628
 10
45.557885752
 20
-64.8493371073
 10
45.5044141554
 20
-64.8467451583
 10
45.454142123
 20
-64.8440068861
 10
45.4072397591
 20
-64.8411315562
 10
45.3638657661
 20
-64.8381288978
 10
45.3241669077
 20
-64.835009071
 10
45.2882775118
 20
-64.8317826322
 10
45.2563190165
 20
-64.8284604987
 10
45.228399559
 20
-64.8250539116
 10
45.2046136096
 20
-64.8215743976
 10
45.1850416522
 20
-64.8180337303
 10
45.1697499118
 20
-64.8144438902
 10
45.1587901307
 20
-64.8108170242
 10
45.1521993932
 20
-64.8071654045
 10
45.15
 20
-64.8035013869
  0
LINE
  5
2A6
100
AcDbEntity
  8
0
100
AcDbLine
 62
7
  6
CONTINUOUS
 10
4.7627109375
 20
-69.193952465
 11
4.7628823055
 21
-69.1940144741
  0
LWPOLYLINE
  5
2A7
100
AcDbEntity
  8
0
100
AcDbPolyline
 62
7
  6
CONTINUOUS
 90
48
 70
0
 10
4.7627436869
 20
-69.193948892
 10
4.7941676071
 20
-69.2066910465
 10
4.8258590596
 20
-69.2221815135
 10
4.8578180444
 20
-69.2404202235
 10
4.8902159095
 20
-69.2613005156
 10
4.9228813069
 20
-69.2849288769
 10
4.9553001924
 20
-69.3116249296
 10
4.9877067012
 20
-69.3414577386
 10
5.019866698
 20
-69.3743579499
 10
5.0505637335
 20
-69.4104375133
 10
5.0798712016
 20
-69.4501198897
 10
5.1077157085
 20
-69.4929811959
 10
5.1326606229
 20
-69.5378624149
 10
5.1543846086
 20
-69.5851682173
 10
5.1732090018
 20
-69.6344935894
 10
5.1886611802
 20
-69.6834652533
 10
5.2002696638
 20
-69.7317421097
 10
5.2085059327
 20
-69.779665323
 10
5.2143118047
 20
-69.8258853174
 10
5.2177495433
 20
-69.8699435078
 10
5.218756885
 20
-69.9122987578
 10
5.2180888575
 20
-69.952977767
 10
5.2158508476
 20
-69.9919571783
 10
5.2119374684
 20
-70.0292605756
 10
5.2067875873
 20
-70.0649850556
 10
5.2004194541
 20
-70.0991339449
 10
5.192814819
 20
-70.1317041063
 10
5.1843577997
 20
-70.1627829231
 10
5.1750725811
 20
-70.1923488887
 10
5.1649349783
 20
-70.2204236681
 10
5.1542565537
 20
-70.2471593839
 10
5.1430676298
 20
-70.2725621604
 10
5.1313378841
 20
-70.2966259961
 10
5.119287912
 20
-70.3194848073
 10
5.1069422211
 20
-70.3411407417
 10
5.0942763039
 20
-70.361591747
 10
5.0814372329
 20
-70.3809654253
 10
5.0684262596
 20
-70.3992574591
 10
5.0552421325
 20
-70.4164722387
 10
5.0420281694
 20
-70.4327504167
 10
5.0287800347
 20
-70.4480690707
 10
5.015502064
 20
-70.4624511768
 10
5.002350582
 20
-70.4761062241
 10
4.9893416623
 20
-70.4890471142
 10
4.9764592312
 20
-70.5012609802
 10
4.9638113932
 20
-70.5129186476
 10
4.9514230414
 20
-70.5240339392
 10
4.9392692826
 20
-70.5345930549
  0
LWPOLYLINE
  5
2A8
100
AcDbEntity
  8
0
100
AcDbPolyline
 62
7
  6
CONTINUOUS
 90
3
 70
0
 10
4.8225031649
 20
-70.6244258237
 10
4.8494388803
 20
-70.6372002919
 10
4.8747355597
 20
-70.6514879888
  0
LWPOLYLINE
  5
2A9
100
AcDbEntity
  8
0
100
AcDbPolyline
 62
7
  6
CONTINUOUS
 90
22
 70
0
 10
4.8747355597
 20
-70.6514879888
 10
4.8983932029
 20
-70.6672888742
 10
4.9203599531
 20
-70.6848980903
 10
4.9406876673
 20
-70.7040203948
 10
4.959531916
 20
-70.7237701952
 10
4.9767872999
 20
-70.7439370429
 10
4.9925592183
 20
-70.7647313444
 10
5.0073194399
 20
-70.7858988293
 10
5.0211568665
 20
-70.8074480882
 10
5.0339825963
 20
-70.8293704995
 10
5.0460016924
 20
-70.8513859962
 10
5.0572313483
 20
-70.8734701152
 10
5.0676543705
 20
-70.8956473114
 10
5.0774242417
 20
-70.9177109152
 10
5.0865412069
 20
-70.9396079459
 10
5.0950050212
 20
-70.961391394
 10
5.1029684328
 20
-70.9830135568
 10
5.1104227697
 20
-71.0044290188
 10
5.1173767039
 20
-71.0256832088
 10
5.1240089995
 20
-71.0468646895
 10
5.13030616
 20
-71.0679660234
 10
5.1362816819
 20
-71.0889946529
  0
LINE
  5
2AA
100
AcDbEntity
  8
0
100
AcDbLine
 62
253
  6
CONTINUOUS
 10
-46.45
 20
-64.8665167646
 11
-46.45
 21
49.7595139909
  0
LINE
  5
2AB
100
AcDbEntity
  8
0
100
AcDbLine
 62
7
  6
CONTINUOUS
 10
-45.15
 20
-64.8035154161
 11
-45.15
 21
49.6965149515
  0
LINE
  5
2AC
100
AcDbEntity
  8
0
100
AcDbLine
 62
253
  6
CONTINUOUS
 10
-44.35
 20
-65.6035013869
 11
-44.35
 21
-66.9808315737
  0
LINE
  5
2AD
100
AcDbEntity
  8
0
100
AcDbLine
 62
253
  6
CONTINUOUS
 10
-44.35
 20
50.4964986131
 11
-44.35
 21
51.8738287999
  0
LINE
  5
2AE
100
AcDbEntity
  8
0
100
AcDbLine
 62
253
  6
CONTINUOUS
 10
45.15
 20
-43.0535013869
 11
73.25
 21
-43.0535013869
  0
LINE
  5
2AF
100
AcDbEntity
  8
0
100
AcDbLine
 62
253
  6
CONTINUOUS
 10
-45.15
 20
-43.0535013869
 11
-73.25
 21
-43.0535013869
  0
LINE
  5
2B0
100
AcDbEntity
  8
0
100
AcDbLine
 62
253
  6
CONTINUOUS
 10
46.139126525
 20
-65.6370038049
 11
46.2795719611
 21
-65.6976225867
  0
LINE
  5
2B1
100
AcDbEntity
  8
0
100
AcDbLine
 62
253
  6
CONTINUOUS
 10
46.0006286025
 20
-65.5763184796
 11
46.139126525
 21
-65.6370038049
  0
LINE
  5
2B2
100
AcDbEntity
  8
0
100
AcDbLine
 62
253
  6
CONTINUOUS
 10
45.8659987488
 20
-65.516408136
 11
46.0006286025
 21
-65.5763184796
  0
LINE
  5
2B3
100
AcDbEntity
  8
0
100
AcDbLine
 62
253
  6
CONTINUOUS
 10
45.7371038806
 20
-65.4581035527
 11
45.8659987488
 21
-65.516408136
  0
LWPOLYLINE
  5
2B4
100
AcDbEntity
  8
0
100
AcDbPolyline
 62
253
  6
CONTINUOUS
 90
17
 70
0
 10
-45.0850738646
 20
50.0121952703
 10
-45.0857493102
 20
50.0163377643
 10
-45.0905670312
 20
50.0222458996
 10
-45.0995103114
 20
50.0298991765
 10
-45.1125481195
 20
50.0392710398
 10
-45.1296352174
 20
50.0503289715
 10
-45.150712317
 20
50.0630346031
 10
-45.1757062854
 20
50.077343849
 10
-45.2045303996
 20
50.0932070596
 10
-45.2370846464
 20
50.1105691932
 10
-45.2732560704
 20
50.1293700073
 10
-45.312919165
 20
50.1495442674
 10
-45.3559363086
 20
50.1710219736
 10
-45.4021582417
 20
50.1937286033
 10
-45.451424585
 20
50.2175853699
 10
-45.5035643957
 20
50.2425094958
 10
-45.615731425
 20
50.2952104989
  0
LINE
  5
2B5
100
AcDbEntity
  8
0
100
AcDbLine
 62
253
  6
CONTINUOUS
 10
45.5035643824
 20
50.2425095214
 11
45.6157314098
 21
50.2952105235
  0
LINE
  5
2B6
100
AcDbEntity
  8
0
100
AcDbLine
 62
253
  6
CONTINUOUS
 10
45.6157314098
 20
50.2952105235
 11
45.7371038907
 21
50.3511008294
  0
LINE
  5
2B7
100
AcDbEntity
  8
0
100
AcDbLine
 62
253
  6
CONTINUOUS
 10
45.7371038907
 20
50.3511008294
 11
45.8659987495
 21
50.4094054065
  0
LINE
  5
2B8
100
AcDbEntity
  8
0
100
AcDbLine
 62
253
  6
CONTINUOUS
 10
45.8659987495
 20
50.4094054065
 11
46.0006285978
 21
50.4693157439
  0
LINE
  5
2B9
100
AcDbEntity
  8
0
100
AcDbLine
 62
253
  6
CONTINUOUS
 10
46.0006285978
 20
50.4693157439
 11
46.1391265198
 21
50.5300010632
  0
LINE
  5
2BA
100
AcDbEntity
  8
0
100
AcDbLine
 62
253
  6
CONTINUOUS
 10
46.1391265198
 20
50.5300010632
 11
46.279571961
 21
50.5906198396
  0
LINE
  5
2BB
100
AcDbEntity
  8
0
100
AcDbLine
 62
7
  6
CONTINUOUS
 10
-1.400068
 20
-70.1031483869
 11
-0.714487
 21
-71.9313023869
  0
LINE
  5
2BC
100
AcDbEntity
  8
0
100
AcDbLine
 62
7
  6
CONTINUOUS
 10
-1.24855
 20
-69.1315993869
 11
-0.670314
 21
-70.6860033869
  0
LINE
  5
2BD
100
AcDbEntity
  8
0
100
AcDbLine
 62
7
  6
CONTINUOUS
 10
-5.503668
 20
-69.1315993869
 11
-4.616107
 21
-71.9313023869
  0
LWPOLYLINE
  5
2BE
100
AcDbEntity
  8
0
100
AcDbPolyline
 62
7
  6
CONTINUOUS
 90
16
 70
0
 10
4.5414020767
 20
-71.0821643818
 10
4.5295028499
 20
-71.0535301896
 10
4.5159001938
 20
-71.0261646113
 10
4.5005941086
 20
-71.0000677143
 10
4.483529828
 20
-70.9750368022
 10
4.4647621182
 20
-70.9512746901
 10
4.4444552775
 20
-70.9293897353
 10
4.4224619555
 20
-70.9093492959
 10
4.3989295027
 20
-70.891186163
 10
4.3744642694
 20
-70.8756068842
 10
4.3490415657
 20
-70.8629268532
 10
4.3226860816
 20
-70.8528308199
 10
4.2960782372
 20
-70.8450793669
 10
4.2694448392
 20
-70.8395927058
 10
4.2425590809
 20
-70.8364506828
 10
4.2154209623
 20
-70.8356533116
  0
LINE
  5
2BF
100
AcDbEntity
  8
0
100
AcDbLine
 62
7
  6
CONTINUOUS
 10
2.28939
 20
-69.1315993869
 11
3.148408
 21
-71.9313023869
  0
LWPOLYLINE
  5
2C0
100
AcDbEntity
  8
0
100
AcDbPolyline
 62
7
  6
CONTINUOUS
 90
3
 70
0
 10
4.7970156219
 20
-71.9313027413
 10
4.6995578769
 20
-71.5972627864
 10
4.6879111045
 20
-71.5568072296
  0
LWPOLYLINE
  5
2C1
100
AcDbEntity
  8
0
100
AcDbPolyline
 62
7
  6
CONTINUOUS
 90
9
 70
0
 10
4.6423930599
 20
-71.3966308776
 10
4.6309652018
 20
-71.3569528778
 10
4.6192806286
 20
-71.3173876568
 10
4.6073395751
 20
-71.2779301924
 10
4.5951418065
 20
-71.2385855304
 10
4.5824708224
 20
-71.1993381601
 10
4.569254456
 20
-71.1601829179
 10
4.5555648741
 20
-71.1211249883
 10
4.5414020767
 20
-71.0821643818
  0
LINE
  5
2C2
100
AcDbEntity
  8
0
100
AcDbLine
 62
7
  6
CONTINUOUS
 10
-4.86882
 20
-69.1315993869
 11
-4.335146
 21
-71.0587213869
  0
LINE
  5
2C3
100
AcDbEntity
  8
0
100
AcDbLine
 62
7
  6
CONTINUOUS
 10
2.381074
 20
-71.3723823869
 11
2.532466
 21
-71.9313023869
  0
LINE
  5
2C4
100
AcDbEntity
  8
0
100
AcDbLine
 62
7
  6
CONTINUOUS
 10
1.995737
 20
-69.9008863869
 11
2.26428
 21
-70.9398923869
  0
LWPOLYLINE
  5
2C5
100
AcDbEntity
  8
0
100
AcDbPolyline
 62
253
  6
CONTINUOUS
 90
19
 70
0
 10
-45.15
 20
49.6964986131
 10
-45.152199393
 20
49.7001626306
 10
-45.15879013
 20
49.7038142502
 10
-45.1697499104
 20
49.7074411161
 10
-45.1850416497
 20
49.7110309561
 10
-45.2046136057
 20
49.7145716233
 10
-45.2283995536
 20
49.7180511372
 10
-45.2563190094
 20
49.7214577243
 10
-45.2882775029
 20
49.7247798577
 10
-45.3241668969
 20
49.7280062965
 10
-45.3638657535
 20
49.7311261233
 10
-45.4072397447
 20
49.7341287817
 10
-45.4541421069
 20
49.7370041115
 10
-45.5044141378
 20
49.7397423837
 10
-45.5578857331
 20
49.7423343328
 10
-45.6143759622
 20
49.7447711883
 10
-45.6736936804
 20
49.7470447048
 10
-45.7356381754
 20
49.7491471894
 10
-45.8665609164
 20
49.7528112089
  0
LINE
  5
2C6
100
AcDbEntity
  8
0
100
AcDbLine
 62
7
  6
CONTINUOUS
 10
4.6879111045
 20
-71.5568072296
 11
4.6423930599
 21
-71.3966308776
  0
LWPOLYLINE
  5
2C7
100
AcDbEntity
  8
0
100
AcDbPolyline
 62
7
  6
CONTINUOUS
 90
3
 70
0
 10
5.1362816819
 20
-71.0889946529
 10
5.1479986549
 20
-71.1312033757
 10
5.1537401061
 20
-71.1523834638
  0
LINE
  5
2C8
100
AcDbEntity
  8
0
100
AcDbLine
 62
7
  6
CONTINUOUS
 10
5.1537401061
 20
-71.1523834638
 11
5.2290524454
 21
-71.4348240001
  0
LINE
  5
2C9
100
AcDbEntity
  8
0
100
AcDbLine
 62
7
  6
CONTINUOUS
 10
5.2290524454
 20
-71.4348240001
 11
5.3591482119
 21
-71.9313027413
  0
LINE
  5
2CA
100
AcDbEntity
  8
0
100
AcDbLine
 62
7
  6
CONTINUOUS
 10
0.492308
 20
-69.1315993869
 11
0.754112
 21
-71.9313023869
  0
LINE
  5
2CB
100
AcDbEntity
  8
0
100
AcDbLine
 62
7
  6
CONTINUOUS
 10
0.062337
 20
-70.1107703869
 11
0.182406
 21
-71.9313023869
  0
LWPOLYLINE
  5
2CC
100
AcDbEntity
  8
0
100
AcDbPolyline
 62
7
  6
CONTINUOUS
 90
19
 70
0
 10
4.6706521442
 20
-69.9422871212
 10
4.6691856125
 20
-69.9152071948
 10
4.6655686093
 20
-69.8882786736
 10
4.6598011347
 20
-69.8615015656
 10
4.6519411579
 20
-69.8347087713
 10
4.6419307096
 20
-69.8080674011
 10
4.6295958823
 20
-69.7820788006
 10
4.6148088568
 20
-69.7565570064
 10
4.5976974523
 20
-69.7316880358
 10
4.5784712189
 20
-69.7085312724
 10
4.5569048495
 20
-69.6872884518
 10
4.5332236511
 20
-69.6677579741
 10
4.5083130958
 20
-69.6503942716
 10
4.4822568881
 20
-69.6353693306
 10
4.4549713235
 20
-69.6225112873
 10
4.4270907595
 20
-69.6117588006
 10
4.398826649
 20
-69.6030914458
 10
4.3699675391
 20
-69.5965297164
 10
4.34051343
 20
-69.5920736358
  0
LINE
  5
2CD
100
AcDbEntity
  8
0
100
AcDbLine
 62
7
  6
CONTINUOUS
 10
-2.984285
 20
-69.1314313869
 11
-2.984285
 21
-71.9313023869
  0
LINE
  5
2CE
100
AcDbEntity
  8
0
100
AcDbLine
 62
7
  6
CONTINUOUS
 10
-2.399877
 20
-69.1314313869
 11
-2.399877
 21
-71.9313023869
  0
LINE
  5
2CF
100
AcDbEntity
  8
0
100
AcDbLine
 62
7
  6
CONTINUOUS
 10
3.3200188023
 20
-69.1643087279
 11
3.3200188023
 21
-71.9313027413
  0
LINE
  5
2D0
100
AcDbEntity
  8
0
100
AcDbLine
 62
7
  6
CONTINUOUS
 10
3.8826972541
 20
-69.6085561828
 11
3.8826972541
 21
-70.3771294735
  0
LINE
  5
2D1
100
AcDbEntity
  8
0
100
AcDbLine
 62
7
  6
CONTINUOUS
 10
3.9020753449
 20
-70.8356533116
 11
3.9020753449
 21
-71.9313027413
  0
LINE
  5
2D2
100
AcDbEntity
  8
0
100
AcDbLine
 62
7
  6
CONTINUOUS
 10
4.8225031649
 20
-70.6078820149
 11
4.8225031649
 21
-70.6244258237
  0
LINE
  5
2D3
100
AcDbEntity
  8
0
100
AcDbLine
 62
7
  6
CONTINUOUS
 10
-1.400068
 20
-70.1031483869
 11
-1.526183
 21
-71.9313023869
  0
LINE
  5
2D4
100
AcDbEntity
  8
0
100
AcDbLine
 62
7
  6
CONTINUOUS
 10
-1.832475
 20
-69.1315993869
 11
-2.085272
 21
-71.9313023869
  0
LINE
  5
2D5
100
AcDbEntity
  8
0
100
AcDbLine
 62
7
  6
CONTINUOUS
 10
-3.785169
 20
-69.1315993869
 11
-4.335146
 21
-71.0587213869
  0
LWPOLYLINE
  5
2D6
100
AcDbEntity
  8
0
100
AcDbPolyline
 62
253
  6
CONTINUOUS
 90
17
 70
0
 10
45.15
 20
49.6964986131
 10
45.1521993942
 20
49.7001626315
 10
45.1587901349
 20
49.703814252
 10
45.1697499211
 20
49.7074411186
 10
45.1850416682
 20
49.7110309593
 10
45.2046136339
 20
49.7145716272
 10
45.2283995929
 20
49.7180511416
 10
45.256319061
 20
49.7214577292
 10
45.2882775675
 20
49.724779863
 10
45.3241669749
 20
49.728006302
 10
45.363865845
 20
49.7311261289
 10
45.4072398492
 20
49.7341287873
 10
45.4541422238
 20
49.7370041171
 10
45.5044142657
 20
49.7397423892
 10
45.5578858706
 20
49.7423343379
 10
45.6143761072
 20
49.7447711931
 10
45.6736938306
 20
49.7470447091
  0
LINE
  5
2D7
100
AcDbEntity
  8
0
100
AcDbLine
 62
7
  6
CONTINUOUS
 10
1.995737
 20
-69.9008863869
 11
1.704751
 21
-70.9398923869
  0
LINE
  5
2D8
100
AcDbEntity
  8
0
100
AcDbLine
 62
7
  6
CONTINUOUS
 10
1.585207
 20
-71.3723823869
 11
1.423947
 21
-71.9313023869
  0
LINE
  5
2D9
100
AcDbEntity
  8
0
100
AcDbLine
 62
7
  6
CONTINUOUS
 10
1.724045
 20
-69.1315993869
 11
0.84588
 21
-71.9313023869
  0
LINE
  5
2DA
100
AcDbEntity
  8
0
100
AcDbLine
 62
7
  6
CONTINUOUS
 10
-3.20116
 20
-69.1315993869
 11
-4.101097
 21
-71.9313023869
  0
LINE
  5
2DB
100
AcDbEntity
  8
0
100
AcDbLine
 62
7
  6
CONTINUOUS
 10
-0.085906
 20
-69.1315993869
 11
-0.670314
 21
-70.6860033869
  0
LINE
  5
2DC
100
AcDbEntity
  8
0
100
AcDbLine
 62
7
  6
CONTINUOUS
 10
0.062337
 20
-70.1107703869
 11
-0.632524
 21
-71.9313023869
  0
LINE
  5
2DD
100
AcDbEntity
  8
0
100
AcDbLine
 62
253
  6
CONTINUOUS
 10
-73.25
 20
27.9464986131
 11
-45.15
 21
27.9464986131
  0
LINE
  5
2DE
100
AcDbEntity
  8
0
100
AcDbLine
 62
253
  6
CONTINUOUS
 10
45.15
 20
27.9464986131
 11
73.25
 21
27.9464986131
  0
LINE
  5
2DF
100
AcDbEntity
  8
0
100
AcDbLine
 62
253
  6
CONTINUOUS
 10
-46.1391265264
 20
50.5300010513
 11
-46.2795719611
 21
50.590619833
  0
LINE
  5
2E0
100
AcDbEntity
  8
0
100
AcDbLine
 62
253
  6
CONTINUOUS
 10
-46.0006286092
 20
50.4693157274
 11
-46.1391265264
 21
50.5300010513
  0
LINE
  5
2E1
100
AcDbEntity
  8
0
100
AcDbLine
 62
253
  6
CONTINUOUS
 10
-45.8659987638
 20
50.4094053864
 11
-46.0006286092
 21
50.4693157274
  0
LINE
  5
2E2
100
AcDbEntity
  8
0
100
AcDbLine
 62
253
  6
CONTINUOUS
 10
-45.7371039062
 20
50.3511008065
 11
-45.8659987638
 21
50.4094053864
  0
LINE
  5
2E3
100
AcDbEntity
  8
0
100
AcDbLine
 62
253
  6
CONTINUOUS
 10
-45.615731425
 20
50.2952104989
 11
-45.7371039062
 21
50.3511008065
  0
LWPOLYLINE
  5
2E4
100
AcDbEntity
  8
0
100
AcDbPolyline
 62
253
  6
CONTINUOUS
 90
16
 70
0
 10
45.0850738986
 20
50.012195285
 10
45.08574934
 20
50.0163377801
 10
45.0905670569
 20
50.0222459166
 10
45.099510333
 20
50.0298991946
 10
45.1125481372
 20
50.0392710591
 10
45.1296352313
 20
50.0503289919
 10
45.1507123271
 20
50.0630346245
 10
45.175706292
 20
50.0773438714
 10
45.2045304028
 20
50.0932070829
 10
45.2370846465
 20
50.1105692173
 10
45.2732560676
 20
50.129370032
 10
45.3129191595
 20
50.1495442926
 10
45.3559363007
 20
50.1710219992
 10
45.4021582317
 20
50.1937286291
 10
45.4514245732
 20
50.2175853956
 10
45.5035643824
 20
50.2425095214
  0
LWPOLYLINE
  5
2E5
100
AcDbEntity
  8
0
100
AcDbPolyline
 62
253
  6
CONTINUOUS
 90
16
 70
0
 10
-45.5035644313
 20
-65.3495123254
 10
-45.4514246281
 20
-65.3245882016
 10
-45.4021582927
 20
-65.300731437
 10
-45.3559363676
 20
-65.278024809
 10
-45.3129192321
 20
-65.2565471042
 10
-45.2732561456
 20
-65.2363728453
 10
-45.2370847296
 20
-65.2175720321
 10
-45.2045304906
 20
-65.2002098992
 10
-45.1757063841
 20
-65.184346689
 10
-45.150712423
 20
-65.1700374431
 10
-45.1296353305
 20
-65.1573318112
 10
-45.1125482391
 20
-65.146273879
 10
-45.0995104371
 20
-65.1369020148
 10
-45.0905671626
 20
-65.1292487369
 10
-45.0857494466
 20
-65.1233406003
 10
-45.0850740055
 20
-65.1191981047
  0
LINE
  5
2E6
100
AcDbEntity
  8
0
100
AcDbLine
 62
253
  6
CONTINUOUS
 10
-45.6157314467
 20
-65.4022133237
 11
-45.5035644313
 21
-65.3495123254
  0
LINE
  5
2E7
100
AcDbEntity
  8
0
100
AcDbLine
 62
253
  6
CONTINUOUS
 10
-45.7371039162
 20
-65.458103626
 11
-45.6157314467
 21
-65.4022133237
  0
LINE
  5
2E8
100
AcDbEntity
  8
0
100
AcDbLine
 62
253
  6
CONTINUOUS
 10
-45.865998765
 20
-65.5164082002
 11
-45.7371039162
 21
-65.458103626
  0
LINE
  5
2E9
100
AcDbEntity
  8
0
100
AcDbLine
 62
253
  6
CONTINUOUS
 10
-46.0006286052
 20
-65.5763185355
 11
-45.865998765
 21
-65.5164082002
  0
LWPOLYLINE
  5
2EA
100
AcDbEntity
  8
0
100
AcDbPolyline
 62
253
  6
CONTINUOUS
 90
19
 70
0
 10
45.0850737448
 20
-65.1191979927
 10
45.0857491913
 20
-65.123340486
 10
45.0905669139
 20
-65.129248621
 10
45.0995101962
 20
-65.1369018978
 10
45.1125480072
 20
-65.1462737614
 10
45.1296351086
 20
-65.1573316936
 10
45.1507122121
 20
-65.170037326
 10
45.1757061851
 20
-65.1843465729
 10
45.2045303043
 20
-65.2002097847
 10
45.2370845566
 20
-65.2175719198
 10
45.2732559864
 20
-65.2363727354
 10
45.3129190872
 20
-65.2565469973
 10
45.3559362372
 20
-65.2780247055
 10
45.4021581769
 20
-65.3007313372
 10
45.4514245269
 20
-65.3245881058
 10
45.5035643444
 20
-65.3495122338
 10
45.5583967163
 20
-65.3754172404
 10
45.615731387
 20
-65.4022132411
 10
45.7371038806
 20
-65.4581035527
  0
LWPOLYLINE
  5
2EB
100
AcDbEntity
  8
0
100
AcDbPolyline
 62
253
  6
CONTINUOUS
 90
10
 70
0
 10
46.45
 20
49.7595139909
 10
46.447865604
 20
49.854665897
 10
46.4414655107
 20
49.9493788016
 10
46.4307997203
 20
50.0436527141
 10
46.4157813205
 20
50.1378379533
 10
46.3964972234
 20
50.2315842119
 10
46.3732081654
 20
50.3238405926
 10
46.3460010583
 20
50.4142568382
 10
46.3147889902
 20
50.5031832958
 10
46.279571961
 20
50.5906200061
  0
LINE
  5
2EC
100
AcDbEntity
  8
0
100
AcDbLine
 62
253
  6
CONTINUOUS
 10
44.35
 20
-65.6035013869
 11
44.35
 21
-66.9808315737
  0
LINE
  5
2ED
100
AcDbEntity
  8
0
100
AcDbLine
 62
253
  6
CONTINUOUS
 10
44.35
 20
50.4964986131
 11
44.35
 21
51.8738287999
  0
LINE
  5
2EE
100
AcDbEntity
  8
0
100
AcDbLine
 62
7
  6
CONTINUOUS
 10
45.15
 20
49.6964986131
 11
45.15
 21
-64.8035169578
  0
LINE
  5
2EF
100
AcDbEntity
  8
0
100
AcDbLine
 62
253
  6
CONTINUOUS
 10
46.45
 20
-64.8665167646
 11
46.45
 21
49.7595139909
  0
LWPOLYLINE
  5
2F0
100
AcDbEntity
  8
0
100
AcDbPolyline
 62
253
  6
CONTINUOUS
 90
10
 70
0
 10
46.45
 20
-64.8665167646
 10
46.447812769
 20
-64.9621710507
 10
46.4413630362
 20
-65.057250104
 10
46.4306508015
 20
-65.1517539382
 10
46.4155758017
 20
-65.246018707
 10
46.3962383
 20
-65.3397082769
 10
46.3729390862
 20
-65.4318142619
 10
46.3457784233
 20
-65.5220005766
 10
46.3146560483
 20
-65.6106034014
 10
46.279571961
 20
-65.6976227799
  0
LWPOLYLINE
  5
2F1
100
AcDbEntity
  8
0
100
AcDbPolyline
 62
253
  6
CONTINUOUS
 90
4
 70
0
 10
-46.279571961
 20
-65.6976226307
 10
-46.2092272062
 20
-65.6673742563
 10
-46.1391265218
 20
-65.6370038539
 10
-46.0006286052
 20
-65.5763185355
  0
LINE
  5
2F2
100
AcDbEntity
  8
0
100
AcDbLine
 62
253
  6
CONTINUOUS
 10
45.6736938306
 20
49.7470447091
 11
45.7999999998
 21
49.7510715311
  0
LINE
  5
2F3
100
AcDbEntity
  8
0
100
AcDbLine
 62
253
  6
CONTINUOUS
 10
45.7999999998
 20
49.7510715311
 11
45.935096304
 21
49.754360348
  0
LINE
  5
2F4
100
AcDbEntity
  8
0
100
AcDbLine
 62
253
  6
CONTINUOUS
 10
45.935096304
 20
49.754360348
 11
46.0771557973
 21
49.7568666841
  0
LINE
  5
2F5
100
AcDbEntity
  8
0
100
AcDbLine
 62
253
  6
CONTINUOUS
 10
46.0771557973
 20
49.7568666841
 11
46.2242573689
 21
49.7585566457
  0
LWPOLYLINE
  5
2F6
100
AcDbEntity
  8
0
100
AcDbPolyline
 62
253
  6
CONTINUOUS
 90
3
 70
0
 10
46.2242573689
 20
49.7585566457
 10
46.3744117224
 20
49.7594073788
 10
46.45
 20
49.7595139909
  0
LINE
  5
2F7
100
AcDbEntity
  8
0
100
AcDbLine
 62
253
  6
CONTINUOUS
 10
-46.2990791546
 20
49.7590879034
 11
-46.45
 21
49.7595139909
  0
LINE
  5
2F8
100
AcDbEntity
  8
0
100
AcDbLine
 62
253
  6
CONTINUOUS
 10
-46.1501992664
 20
49.7578154026
 11
-46.2990791546
 21
49.7590879034
  0
LINE
  5
2F9
100
AcDbEntity
  8
0
100
AcDbLine
 62
253
  6
CONTINUOUS
 10
-46.0053736812
 20
49.7557136971
 11
-46.1501992664
 21
49.7578154026
  0
LINE
  5
2FA
100
AcDbEntity
  8
0
100
AcDbLine
 62
253
  6
CONTINUOUS
 10
-45.8665609164
 20
49.7528112089
 11
-46.0053736812
 21
49.7557136971
  0
LWPOLYLINE
  5
2FB
100
AcDbEntity
  8
0
100
AcDbPolyline
 62
7
  6
CONTINUOUS
 90
10
 70
0
 10
4.9392692826
 20
-70.5345930549
 10
4.9158539367
 20
-70.5545277645
 10
4.9045923495
 20
-70.5639033728
 10
4.8933678485
 20
-70.5726910445
 10
4.8822454795
 20
-70.5810173131
 10
4.8711601967
 20
-70.5887556623
 10
4.8596859308
 20
-70.5953653674
 10
4.8476806586
 20
-70.6006661984
 10
4.8352864033
 20
-70.6048384113
 10
4.8225031649
 20
-70.6078820149
  0
LWPOLYLINE
  5
2FC
100
AcDbEntity
  8
0
100
AcDbPolyline
 62
253
  6
CONTINUOUS
 90
15
 70
0
 10
-72.5757078193
 20
50.5021914669
 10
-72.6397132608
 20
50.4997573134
 10
-72.7005971897
 20
50.4971294881
 10
-72.7581270809
 20
50.4943180271
 10
-72.8120832187
 20
50.4913336678
 10
-72.8622595362
 20
50.488187808
 10
-72.9084644023
 20
50.4848924621
 10
-72.9505213533
 20
50.4814602157
 10
-72.9882697674
 20
50.477904177
 10
-73.0215654773
 20
50.474237927
 10
-73.0502813216
 20
50.4704754678
 10
-73.0743076301
 20
50.4666311688
 10
-73.0935526424
 20
50.4627197119
 10
-73.107942859
 20
50.4587560356
 10
-73.1174233213
 20
50.4547552778
  0
LWPOLYLINE
  5
2FD
100
AcDbEntity
  8
0
100
AcDbPolyline
 62
253
  6
CONTINUOUS
 90
15
 70
0
 10
-72.5757043135
 20
50.5785538023
 10
-72.6397097015
 20
50.5761135822
 10
-72.7005935915
 20
50.5734789298
 10
-72.7581234593
 20
50.5706599071
 10
-72.81207959
 20
50.5676672806
 10
-72.8622559174
 20
50.5645124794
 10
-72.908460811
 20
50.5612075522
 10
-72.9505178077
 20
50.5577651209
 10
-72.9882662858
 20
50.5541983328
 10
-73.0215620785
 20
50.5505208098
 10
-73.0502780243
 20
50.546746597
 10
-73.074304453
 20
50.5428901086
 10
-73.0935496042
 20
50.5389660731
 10
-73.1079399779
 20
50.534989477
 10
-73.1174206152
 20
50.5309755075
  0
LINE
  5
2FE
100
AcDbEntity
  8
0
100
AcDbLine
 62
253
  6
CONTINUOUS
 10
-72.4393178142
 20
50.5828144457
 11
-72.5757043135
 21
50.5785538023
  0
LINE
  5
2FF
100
AcDbEntity
  8
0
100
AcDbLine
 62
253
  6
CONTINUOUS
 10
-72.4393211735
 20
50.5064423483
 11
-72.5757078193
 21
50.5021914669
  0
LINE
  5
300
100
AcDbEntity
  8
0
100
AcDbLine
 62
253
  6
CONTINUOUS
 10
-72.2935187902
 20
50.509817255
 11
-72.4393211735
 21
50.5064423483
  0
LINE
  5
301
100
AcDbEntity
  8
0
100
AcDbLine
 62
253
  6
CONTINUOUS
 10
-72.2935156227
 20
50.586195834
 11
-72.4393178142
 21
50.5828144457
  0
LWPOLYLINE
  5
302
100
AcDbEntity
  8
0
100
AcDbPolyline
 62
253
  6
CONTINUOUS
 90
28
 70
0
 10
-44.35
 20
51.8738287999
 10
-44.4383690906
 20
51.8720142641
 10
-44.526632048
 20
51.8663749623
 10
-44.6147888723
 20
51.8569108668
 10
-44.7030088112
 20
51.8436377408
 10
-44.7911226169
 20
51.8265397104
 10
-44.8786225459
 20
51.8055692644
 10
-44.9655752124
 20
51.7806689299
 10
-45.051914002
 20
51.7518959547
 10
-45.1369313289
 20
51.7193748833
 10
-45.2205802103
 20
51.6830725634
 10
-45.3029076289
 20
51.643021827
 10
-45.383346946
 20
51.5994461869
 10
-45.4618763619
 20
51.5523157443
 10
-45.5385176763
 20
51.5016600114
 10
-45.6127696496
 20
51.4477916291
 10
-45.6846074599
 20
51.3906873572
 10
-45.754055929
 20
51.3303700202
 10
-45.8206882825
 20
51.2672213894
 10
-45.8844878966
 20
51.2012088289
 10
-45.9454713951
 20
51.1323645673
 10
-46.0032618739
 20
51.0611677303
 10
-46.0578309416
 20
50.9875894896
 10
-46.1092069897
 20
50.9116583181
 10
-46.1570982887
 20
50.833939377
 10
-46.2014075953
 20
50.7546209867
 10
-46.2422321528
 20
50.6735145738
 10
-46.279571961
 20
50.5906200061
  0
LINE
  5
303
100
AcDbEntity
  8
0
100
AcDbLine
 62
253
  6
CONTINUOUS
 10
-72.1405259107
 20
50.5122646791
 11
-72.2935187902
 21
50.509817255
  0
LINE
  5
304
100
AcDbEntity
  8
0
100
AcDbLine
 62
253
  6
CONTINUOUS
 10
-72.14052297
 20
50.5886463605
 11
-72.2935156227
 21
50.586195834
  0
LINE
  5
305
100
AcDbEntity
  8
0
100
AcDbLine
 62
253
  6
CONTINUOUS
 10
-71.982677518
 20
50.513747268
 11
-72.1405259107
 21
50.5122646791
  0
LINE
  5
306
100
AcDbEntity
  8
0
100
AcDbLine
 62
253
  6
CONTINUOUS
 10
-71.9826748277
 20
50.5901286253
 11
-72.14052297
 21
50.5886463605
  0
LINE
  5
307
100
AcDbEntity
  8
0
100
AcDbLine
 62
253
  6
CONTINUOUS
 10
-71.8223827
 20
50.5142423943
 11
-71.982677518
 21
50.513747268
  0
LINE
  5
308
100
AcDbEntity
  8
0
100
AcDbLine
 62
253
  6
CONTINUOUS
 10
-71.8223802722
 20
50.5906200061
 11
-71.9826748277
 21
50.5901286253
  0
LINE
  5
309
100
AcDbEntity
  8
0
100
AcDbLine
 62
253
  6
CONTINUOUS
 10
-73.25
 20
50.4547552778
 11
-73.1174233213
 21
50.4547552778
  0
LINE
  5
30A
100
AcDbEntity
  8
0
100
AcDbLine
 62
253
  6
CONTINUOUS
 10
73.25
 20
50.4547552778
 11
73.1174233213
 21
50.4547552778
  0
LINE
  5
30B
100
AcDbEntity
  8
0
100
AcDbLine
 62
7
  6
CONTINUOUS
 10
44.3500176439
 20
50.4964986131
 11
-44.3500145296
 21
50.4964986131
  0
LINE
  5
30C
100
AcDbEntity
  8
0
100
AcDbLine
 62
253
  6
CONTINUOUS
 10
-46.279571961
 20
50.5906200061
 11
-71.8223802743
 21
50.590568512
  0
LINE
  5
30D
100
AcDbEntity
  8
0
100
AcDbLine
 62
253
  6
CONTINUOUS
 10
44.35
 20
51.8738287999
 11
-44.35
 21
51.8738287999
  0
LINE
  5
30E
100
AcDbEntity
  8
0
100
AcDbLine
 62
253
  6
CONTINUOUS
 10
46.279571961
 20
50.5906200061
 11
71.9026808885
 21
50.5904990004
  0
LINE
  5
30F
100
AcDbEntity
  8
0
100
AcDbLine
 62
253
  6
CONTINUOUS
 10
71.8223827
 20
50.5142423944
 11
71.9826775181
 21
50.513747268
  0
LINE
  5
310
100
AcDbEntity
  8
0
100
AcDbLine
 62
253
  6
CONTINUOUS
 10
71.9026808885
 20
50.5904990004
 11
72.0620565743
 21
50.5895102896
  0
LINE
  5
311
100
AcDbEntity
  8
0
100
AcDbLine
 62
253
  6
CONTINUOUS
 10
71.9826775181
 20
50.513747268
 11
72.1405259108
 21
50.5122646792
  0
LINE
  5
312
100
AcDbEntity
  8
0
100
AcDbLine
 62
253
  6
CONTINUOUS
 10
72.0620565743
 20
50.5895102896
 11
72.2177743238
 21
50.5875401319
  0
LINE
  5
313
100
AcDbEntity
  8
0
100
AcDbLine
 62
253
  6
CONTINUOUS
 10
72.1405259108
 20
50.5122646792
 11
72.2935187903
 21
50.509817255
  0
LINE
  5
314
100
AcDbEntity
  8
0
100
AcDbLine
 62
253
  6
CONTINUOUS
 10
72.2177743238
 20
50.5875401319
 11
72.3674575749
 21
50.5846185957
  0
LINE
  5
315
100
AcDbEntity
  8
0
100
AcDbLine
 62
253
  6
CONTINUOUS
 10
72.2935187903
 20
50.509817255
 11
72.4393211736
 21
50.5064423483
  0
LWPOLYLINE
  5
316
100
AcDbEntity
  8
0
100
AcDbPolyline
 62
253
  6
CONTINUOUS
 90
17
 70
0
 10
72.3674575749
 20
50.5846185957
 10
72.508821864
 20
50.5807902695
 10
72.5757043036
 20
50.5785538012
 10
72.6397096912
 20
50.5761135811
 10
72.7005935809
 20
50.5734789288
 10
72.7581234484
 20
50.5706599062
 10
72.8120795791
 20
50.5676672798
 10
72.8622559067
 20
50.5645124787
 10
72.9084608005
 20
50.5612075515
 10
72.9505177977
 20
50.5577651203
 10
72.9882662764
 20
50.5541983323
 10
73.0215620699
 20
50.5505208094
 10
73.0502780166
 20
50.5467465967
 10
73.0743044465
 20
50.5428901084
 10
73.093549599
 20
50.538966073
 10
73.1079399741
 20
50.5349894769
 10
73.1174206131
 20
50.5309755075
  0
LWPOLYLINE
  5
317
100
AcDbEntity
  8
0
100
AcDbPolyline
 62
253
  6
CONTINUOUS
 90
16
 70
0
 10
72.4393211736
 20
50.5064423483
 10
72.5757078195
 20
50.502191467
 10
72.639713261
 20
50.4997573134
 10
72.70059719
 20
50.4971294881
 10
72.7581270811
 20
50.4943180271
 10
72.8120832189
 20
50.4913336678
 10
72.8622595364
 20
50.488187808
 10
72.9084644025
 20
50.4848924622
 10
72.9505213536
 20
50.4814602157
 10
72.9882697676
 20
50.477904177
 10
73.0215654775
 20
50.4742379271
 10
73.0502813218
 20
50.4704754678
 10
73.0743076302
 20
50.4666311688
 10
73.0935526425
 20
50.4627197119
 10
73.107942859
 20
50.4587560356
 10
73.1174233213
 20
50.4547552778
  0
LWPOLYLINE
  5
318
100
AcDbEntity
  8
0
100
AcDbPolyline
 62
253
  6
CONTINUOUS
 90
25
 70
0
 10
46.279571961
 20
50.5906200061
 10
46.2374694773
 20
50.6834742723
 10
46.191006351
 20
50.7740258896
 10
46.1401825821
 20
50.8622750495
 10
46.0848576783
 20
50.9484840269
 10
46.025172132
 20
51.0323909122
 10
45.9615474199
 20
51.1132096944
 10
45.8939393842
 20
51.1908968953
 10
45.8223921828
 20
51.2654965124
 10
45.7474597659
 20
51.3363538737
 10
45.6691099635
 20
51.4034221222
 10
45.5873749456
 20
51.4667487004
 10
45.502905173
 20
51.5258204648
 10
45.4156677241
 20
51.5805936047
 10
45.3256955205
 20
51.6311125068
 10
45.2337377874
 20
51.6769963596
 10
45.1397598477
 20
51.718194309
 10
45.0437963785
 20
51.754757706
 10
44.9467006367
 20
51.786459045
 10
44.8484627809
 20
51.8132332973
 10
44.7490926524
 20
51.8351458502
 10
44.649473032
 20
51.8521647909
 10
44.5498981799
 20
51.8642795428
 10
44.4500738359
 20
51.8715008641
 10
44.35
 20
51.8738287999
  0
LWPOLYLINE
  5
319
100
AcDbEntity
  8
0
100
AcDbPolyline
 62
253
  6
CONTINUOUS
 90
31
 70
0
 10
71.8195713404
 20
72.5893223815
 10
71.8193584725
 20
72.5980112194
 10
71.8186986802
 20
72.6066556634
 10
71.8175919634
 20
72.6152557153
 10
71.8160392415
 20
72.6238236584
 10
71.8140395952
 20
72.6323472125
 10
71.8115902664
 20
72.6407895354
 10
71.8086673725
 20
72.6492018893
 10
71.8052947961
 20
72.6575330169
 10
71.8015414269
 20
72.6655923058
 10
71.7974481749
 20
72.6732840763
 10
71.7929741301
 20
72.6807040304
 10
71.7880654516
 20
72.6879486323
 10
71.7826662795
 20
72.6951123985
 10
71.7768324738
 20
72.7021008221
 10
71.7706777728
 20
72.7087268345
 10
71.7642216712
 20
72.7149330049
 10
71.7574446745
 20
72.7207767869
 10
71.7504020374
 20
72.7262434449
 10
71.7431161945
 20
72.7313360612
 10
71.7355647113
 20
72.7360515719
 10
71.7277355389
 20
72.7403660219
 10
71.7195587453
 20
72.7442947087
 10
71.7111042624
 20
72.74782235
 10
71.7025698374
 20
72.7508791219
 10
71.6940243488
 20
72.7534391468
 10
71.685398918
 20
72.7555283149
 10
71.6766846566
 20
72.7571544533
 10
71.6678786017
 20
72.758320173
 10
71.6589837162
 20
72.7590228691
 10
71.65
 20
72.759262543
  0
LINE
  5
31A
100
AcDbEntity
  8
0
100
AcDbLine
 62
253
  6
CONTINUOUS
 10
71.65
 20
-87.8662653167
 11
71.65
 21
-89.0535013869
  0
LINE
  5
31B
100
AcDbEntity
  8
0
100
AcDbLine
 62
253
  6
CONTINUOUS
 10
71.65
 20
72.759262543
 11
71.65
 21
73.9464986131
  0
LINE
  5
31C
100
AcDbEntity
  8
0
100
AcDbLine
 62
253
  6
CONTINUOUS
 10
71.8215477673
 20
60.4227642526
 11
71.8195713404
 21
72.5893223815
  0
LINE
  5
31D
100
AcDbEntity
  8
0
100
AcDbLine
 62
253
  6
CONTINUOUS
 10
73.1168160766
 20
57.8486212553
 11
73.1143971602
 21
72.3439859309
  0
LINE
  5
31E
100
AcDbEntity
  8
0
100
AcDbLine
 62
7
  6
CONTINUOUS
 10
73.25
 20
-87.4535013869
 11
73.25
 21
72.3464986131
  0
LINE
  5
31F
100
AcDbEntity
  8
0
100
AcDbLine
 62
253
  6
CONTINUOUS
 10
71.819570101
 20
-87.6966391718
 11
71.8215477673
 21
60.4227642526
  0
LINE
  5
320
100
AcDbEntity
  8
0
100
AcDbLine
 62
253
  6
CONTINUOUS
 10
73.1143964246
 20
-87.4535395585
 11
73.1168160766
 21
57.8486212553
  0
LWPOLYLINE
  5
321
100
AcDbEntity
  8
0
100
AcDbPolyline
 62
253
  6
CONTINUOUS
 90
46
 70
0
 10
-71.65
 20
72.759262543
 10
-71.6555058001
 20
72.7591565193
 10
-71.660921869
 20
72.7588938452
 10
-71.6662482068
 20
72.7584745205
 10
-71.6714979953
 20
72.7578899362
 10
-71.6766580526
 20
72.7571487006
 10
-71.6816888336
 20
72.7562766391
 10
-71.6865476627
 20
72.7552841694
 10
-71.6912772156
 20
72.7541608728
 10
-71.6959659738
 20
72.7529013196
 10
-71.7006439696
 20
72.7515018362
 10
-71.7052811708
 20
72.7499660946
 10
-71.7098759627
 20
72.7482996831
 10
-71.7144515253
 20
72.7464940226
 10
-71.7189846786
 20
72.7445576901
 10
-71.7234042684
 20
72.7425220088
 10
-71.7276638956
 20
72.7404088664
 10
-71.7318099594
 20
72.7381963735
 10
-71.7359105029
 20
72.7358501872
 10
-71.7399828193
 20
72.7333629674
 10
-71.7440096155
 20
72.7307420512
 10
-71.748007055
 20
72.7279751117
 10
-71.7520161172
 20
72.7250329384
 10
-71.7559958226
 20
72.7219447376
 10
-71.7598393964
 20
72.7187858087
 10
-71.7634629444
 20
72.7156352013
 10
-71.7669503608
 20
72.7124138644
 10
-71.770446553
 20
72.7089599452
 10
-71.7739838975
 20
72.7052690269
 10
-71.7775300179
 20
72.7013455185
 10
-71.7811326926
 20
72.6970408001
 10
-71.7848688738
 20
72.6922694692
 10
-71.7886616093
 20
72.6871169109
 10
-71.7923278205
 20
72.6816906863
 10
-71.7958078768
 20
72.6760930309
 10
-71.799161409
 20
72.6702216969
 10
-71.8023842305
 20
72.663877517
 10
-71.8055367902
 20
72.6569349807
 10
-71.8085586394
 20
72.6495195667
 10
-71.8112642454
 20
72.6418085899
 10
-71.8136256756
 20
72.6338631351
 10
-71.8156708627
 20
72.6256220976
 10
-71.8172980722
 20
72.6170795126
 10
-71.8184733927
 20
72.6082333838
 10
-71.8192307356
 20
72.5990856832
 10
-71.819570101
 20
72.589636398
  0
LINE
  5
322
100
AcDbEntity
  8
0
100
AcDbLine
 62
253
  6
CONTINUOUS
 10
73.1143971602
 20
72.3439859309
 11
73.25
 21
72.3464986131
  0
LWPOLYLINE
  5
323
100
AcDbEntity
  8
0
100
AcDbPolyline
 62
253
  6
CONTINUOUS
 90
25
 70
0
 10
-71.8195696931
 20
72.5918830361
 10
-71.8997696409
 20
72.5913857964
 10
-71.9796640619
 20
72.5898630683
 10
-72.0589485932
 20
72.5873206527
 10
-72.1373211951
 20
72.5837682352
 10
-72.2144833023
 20
72.5792193488
 10
-72.2901409607
 20
72.5736913229
 10
-72.3640059476
 20
72.5672052168
 10
-72.4357968697
 20
72.5597857398
 10
-72.5052402347
 20
72.5514611568
 10
-72.5720714938
 20
72.5422631809
 10
-72.6360360489
 20
72.5322268524
 10
-72.696890223
 20
72.5213904052
 10
-72.7544021881
 20
72.5097951216
 10
-72.8083528488
 20
72.4974851745
 10
-72.8585366766
 20
72.4845074594
 10
-72.9047624928
 20
72.4709114158
 10
-72.9468541974
 20
72.4567488388
 10
-72.9846514393
 20
72.4420736814
 10
-73.0180102274
 20
72.4269418497
 10
-73.0468034793
 20
72.4114109894
 10
-73.0709215052
 20
72.3955402663
 10
-73.0902724261
 20
72.3793901409
 10
-73.1047825232
 20
72.3630221382
 10
-73.1143965195
 20
72.3464986131
  0
LINE
  5
324
100
AcDbEntity
  8
0
100
AcDbLine
 62
253
  6
CONTINUOUS
 10
-73.1143964246
 20
72.3465367845
 11
-73.25
 21
72.3464986131
  0
LINE
  5
325
100
AcDbEntity
  8
0
100
AcDbLine
 62
253
  6
CONTINUOUS
 10
71.65
 20
72.759262543
 11
-71.65
 21
72.759262543
  0
LINE
  5
326
100
AcDbEntity
  8
0
100
AcDbLine
 62
253
  6
CONTINUOUS
 10
71.65
 20
73.7830765415
 11
-71.649999982
 21
73.7830765415
  0
LINE
  5
327
100
AcDbEntity
  8
0
100
AcDbLine
 62
7
  6
CONTINUOUS
 10
-71.65
 20
73.9464986131
 11
71.65
 21
73.9464986131
  0
LWPOLYLINE
  5
328
100
AcDbEntity
  8
0
100
AcDbPolyline
 62
253
  6
CONTINUOUS
 90
25
 70
0
 10
71.8195713404
 20
72.5893223811
 10
71.8997715699
 20
72.5888289086
 10
71.9796662724
 20
72.587309713
 10
72.0589510829
 20
72.5847705822
 10
72.1373239598
 20
72.581221191
 10
72.2144863355
 20
72.5766750638
 10
72.290144254
 20
72.5711495234
 10
72.3640094907
 20
72.564665625
 10
72.4358006503
 20
72.5572480755
 10
72.5052442388
 20
72.5489251399
 10
72.5720757055
 20
72.5397285333
 10
72.6360404508
 20
72.5296933002
 10
72.696894796
 20
72.5188576808
 10
72.7544069118
 20
72.5072629652
 10
72.8083577015
 20
72.4949533365
 10
72.8585416353
 20
72.4819757019
 10
72.9047675336
 20
72.4683795141
 10
72.9468592953
 20
72.4542165833
 10
72.9846565687
 20
72.439540879
 10
73.018015362
 20
72.4244083249
 10
73.0468085925
 20
72.4088765857
 10
73.07092657
 20
72.3930048472
 10
73.0902774153
 20
72.3768535907
 10
73.1047874098
 20
72.3604843629
 10
73.1144012766
 20
72.343959541
  0
LWPOLYLINE
  5
329
100
AcDbEntity
  8
0
100
AcDbPolyline
 62
253
  6
CONTINUOUS
 90
31
 70
0
 10
73.1143990864
 20
72.3439859675
 10
73.1111913611
 20
72.4193139186
 10
73.1041091591
 20
72.494421612
 10
73.0931594855
 20
72.5691209543
 10
73.0783553449
 20
72.6432012322
 10
73.059724068
 20
72.7164817112
 10
73.0372872289
 20
72.7888170944
 10
73.0111013262
 20
72.8599736296
 10
72.9812757804
 20
72.9296746869
 10
72.9479096189
 20
72.9977011047
 10
72.9110679327
 20
73.0638920509
 10
72.8708024297
 20
73.1281303092
 10
72.8271774252
 20
73.1903099215
 10
72.7803406099
 20
73.2502194222
 10
72.7304809327
 20
73.3076051557
 10
72.6777609346
 20
73.3622703507
 10
72.6222327819
 20
73.4141447471
 10
72.5639532467
 20
73.4631554898
 10
72.5031124467
 20
73.5091549654
 10
72.4399704738
 20
73.5519473346
 10
72.3748035204
 20
73.5913251937
 10
72.3078293093
 20
73.6271703235
 10
72.239137237
 20
73.6594602059
 10
72.1688308173
 20
73.6881638876
 10
72.0971736311
 20
73.7131896332
 10
72.0243779395
 20
73.7344629492
 10
71.9506359365
 20
73.7519211955
 10
71.8761656454
 20
73.7655250481
 10
71.8011223549
 20
73.7752617689
 10
71.7256592662
 20
73.7811197443
 10
71.65
 20
73.7830765415
  0
LWPOLYLINE
  5
32A
100
AcDbEntity
  8
0
100
AcDbPolyline
 62
7
  6
CONTINUOUS
 90
31
 70
0
 10
73.25
 20
72.3464986131
 10
73.2477462399
 20
72.4313625574
 10
73.2409948531
 20
72.515999799
 10
73.2297607648
 20
72.6001860082
 10
73.2140544888
 20
72.6837522277
 10
73.1939203492
 20
72.7664009412
 10
73.1694587081
 20
72.8477180709
 10
73.1408648198
 20
72.9272541847
 10
73.1082591689
 20
73.0048850075
 10
73.0716310441
 20
73.0806659527
 10
73.0309458383
 20
73.1545995284
 10
72.9863404805
 20
73.2263764812
 10
72.9380445185
 20
73.2956460174
 10
72.8863387664
 20
73.3620903657
 10
72.831406912
 20
73.4255285986
 10
72.7733842262
 20
73.4858260679
 10
72.7123601294
 20
73.5429155839
 10
72.6484154924
 20
73.5967446705
 10
72.5817161141
 20
73.6472055024
 10
72.512497408
 20
73.6941244088
 10
72.4411106171
 20
73.7372504394
 10
72.3678590139
 20
73.7764338787
 10
72.29298279
 20
73.8116134845
 10
72.2165090163
 20
73.8428365601
 10
72.1384479759
 20
73.8701121195
 10
72.058856463
 20
73.8933832118
 10
71.9780983544
 20
73.9125050136
 10
71.896623608
 20
73.9273791228
 10
71.8146857137
 20
73.9379957016
 10
71.7323949698
 20
73.944371594
 10
71.65
 20
73.9464986131
  0
LWPOLYLINE
  5
32B
100
AcDbEntity
  8
0
100
AcDbPolyline
 62
7
  6
CONTINUOUS
 90
31
 70
0
 10
-71.65
 20
73.9464986131
 10
-71.7323927416
 20
73.9443715799
 10
-71.8146818045
 20
73.9379959124
 10
-71.8966172309
 20
73.9273802226
 10
-71.9780900211
 20
73.9125072483
 10
-72.0588489817
 20
73.8933854962
 10
-72.1384445657
 20
73.8701128797
 10
-72.2165122369
 20
73.8428346991
 10
-72.2929922527
 20
73.8116091405
 10
-72.3678700206
 20
73.776428902
 10
-72.4411210852
 20
73.7372451127
 10
-72.5125094743
 20
73.6941166617
 10
-72.5817328303
 20
73.6471930765
 10
-72.6484379018
 20
73.5967265118
 10
-72.712387234
 20
73.5428915832
 10
-72.7734127135
 20
73.4857979931
 10
-72.831432961
 20
73.4255000062
 10
-72.8863598146
 20
73.362064939
 10
-72.9380601708
 20
73.2956252507
 10
-72.9863515301
 20
73.226359823
 10
-73.030953621
 20
73.1545854548
 10
-73.0716367679
 20
73.0806538868
 10
-73.1082632986
 20
73.00487609
 10
-73.1408664853
 20
72.9272516983
 10
-73.1694573139
 20
72.847723668
 10
-73.1939169262
 20
72.7664124748
 10
-73.2140513269
 20
72.6837644091
 10
-73.2297591233
 20
72.6001953255
 10
-73.2409944094
 20
72.5160057694
 10
-73.2477462016
 20
72.431365854
 10
-73.25
 20
72.3464986131
  0
LWPOLYLINE
  5
32C
100
AcDbEntity
  8
0
100
AcDbPolyline
 62
253
  6
CONTINUOUS
 90
46
 70
0
 10
-71.649999982
 20
73.7830765415
 10
-71.6970417509
 20
73.7823223672
 10
-71.7431734971
 20
73.780109857
 10
-71.7883503334
 20
73.7765277514
 10
-71.8324403224
 20
73.7716751216
 10
-71.8755030632
 20
73.7656282224
 10
-71.9177940933
 20
73.7584116894
 10
-71.9593217173
 20
73.7500734709
 10
-72.0000578074
 20
73.7406683874
 10
-72.0402067905
 20
73.7301847859
 10
-72.0797476787
 20
73.7186561982
 10
-72.1186667568
 20
73.7061177102
 10
-72.1571680846
 20
73.6925211259
 10
-72.1952422165
 20
73.6778748379
 10
-72.2328308158
 20
73.6622063809
 10
-72.2700546131
 20
73.6454620162
 10
-72.3069933489
 20
73.6275885016
 10
-72.3435245607
 20
73.608625622
 10
-72.3794760256
 20
73.5886553697
 10
-72.4148107778
 20
73.5677025165
 10
-72.4495452587
 20
73.5457618239
 10
-72.483578477
 20
73.5229068731
 10
-72.5166696215
 20
73.4993280314
 10
-72.5489922519
 20
73.4749301513
 10
-72.5810277533
 20
73.4493277761
 10
-72.6126820457
 20
73.4225361133
 10
-72.6439286832
 20
73.3945188613
 10
-72.675273533
 20
73.3647162722
 10
-72.7066284219
 20
73.3330487529
 10
-72.7378993923
 20
73.2994406801
 10
-72.7694772285
 20
73.2632404693
 10
-72.8012524419
 20
73.2242531573
 10
-72.8329215371
 20
73.1825004314
 10
-72.864457432
 20
73.1376124183
 10
-72.8956629351
 20
73.0893552911
 10
-72.9261507612
 20
73.037765158
 10
-72.9555592491
 20
72.9828758296
 10
-72.9835920613
 20
72.9246095858
 10
-73.0099287599
 20
72.8629165993
 10
-73.0341602645
 20
72.7979457564
 10
-73.0559075035
 20
72.7297804082
 10
-73.0747919282
 20
72.6585265121
 10
-73.0904278551
 20
72.5844129127
 10
-73.1024596794
 20
72.5076197828
 10
-73.1105518982
 20
72.4282658861
 10
-73.1143544081
 20
72.3465367951
  0
LWPOLYLINE
  5
32D
100
AcDbEntity
  8
RACCORDO
100
AcDbPolyline
 62
253
  6
CONTINUOUS
 90
13
 70
0
 10
-113.3980688928
 20
-87.7643452173
 10
-113.2154800312
 20
-87.7352010538
 10
-113.0324543201
 20
-87.7013521812
 10
-112.8490214507
 20
-87.6627884533
 10
-112.6657517261
 20
-87.6198736814
 10
-112.4821492609
 20
-87.5722241392
 10
-112.2966546225
 20
-87.5187049645
 10
-112.1088529168
 20
-87.459352469
 10
-111.9192968708
 20
-87.3941019942
 10
-111.7278696213
 20
-87.3216605246
 10
-111.5345696579
 20
-87.241583696
 10
-111.3395444273
 20
-87.1542792337
 10
-111.1428931805
 20
-87.0597288466
  0
LINE
  5
32E
100
AcDbEntity
  8
RACCORDO
100
AcDbLine
 62
253
  6
CONTINUOUS
 10
-113.5165097484
 20
-87.0724142811
 11
-111.1428931805
 21
-87.0597288466
  0
LINE
  5
32F
100
AcDbEntity
  8
0
100
AcDbLine
 62
7
  6
CONTINUOUS
 10
-114.8057115185
 20
-88.8900793153
 11
-112.937788693
 21
-89.0535013869
  0
LINE
  5
330
100
AcDbEntity
  8
0
100
AcDbLine
 62
253
  6
CONTINUOUS
 10
-118.8718980182
 20
-65.6212451681
 11
-117.6868352211
 21
-65.5617580516
  0
LINE
  5
331
100
AcDbEntity
  8
0
100
AcDbLine
 62
253
  6
CONTINUOUS
 10
-115.8718569097
 20
-65.5466619706
 11
-110.1180563079
 21
-65.4328996263
  0
LINE
  5
332
100
AcDbEntity
  8
RACCORDO
100
AcDbLine
 62
7
  6
CONTINUOUS
 10
-110.1180563079
 20
-63.4061553483
 11
-111.9527859435
 21
-63.0826430112
  0
LINE
  5
333
100
AcDbEntity
  8
RACCORDO
100
AcDbLine
 62
7
  6
CONTINUOUS
 10
-111.9527859435
 20
-56.0243597625
 11
-110.1180563079
 21
-55.7008474255
  0
LINE
  5
334
100
AcDbEntity
  8
0
100
AcDbLine
 62
253
  6
CONTINUOUS
 10
-116.4381465708
 20
-43.0535013869
 11
-110.1180563079
 21
-42.9780576958
  0
LWPOLYLINE
  5
335
100
AcDbEntity
  8
RACCORDO
100
AcDbPolyline
 62
253
  6
CONTINUOUS
 90
22
 70
0
 10
-111.1428936508
 20
-87.0597288741
 10
-111.1227055953
 20
-87.1057174906
 10
-111.1041934336
 20
-87.1516086325
 10
-111.0874339334
 20
-87.1972119945
 10
-111.0724965945
 20
-87.2423384647
 10
-111.0594433601
 20
-87.2868009091
 10
-111.0483283604
 20
-87.3304149481
 10
-111.0391976882
 20
-87.3729997193
 10
-111.0320892074
 20
-87.4143786284
 10
-111.0270323962
 20
-87.4543800825
 10
-111.024048225
 20
-87.4928381998
 10
-111.0231490689
 20
-87.5295934989
 10
-111.0243386572
 20
-87.5644935595
 10
-111.0276120569
 20
-87.597393655
 10
-111.032955694
 20
-87.6281573518
 10
-111.0403474094
 20
-87.6566570761
 10
-111.0497565509
 20
-87.6827746423
 10
-111.0611441001
 20
-87.7064017433
 10
-111.0744628343
 20
-87.7274403995
 10
-111.0896575226
 20
-87.7458033656
 10
-111.1066651545
 20
-87.7614144918
 10
-111.1254152014
 20
-87.7742090401
  0
LINE
  5
336
100
AcDbEntity
  8
0
100
AcDbLine
 62
7
  6
CONTINUOUS
 10
-113.2910082803
 20
72.3464986131
 11
-113.1480851742
 21
73.0048850075
  0
LINE
  5
337
100
AcDbEntity
  8
0
100
AcDbLine
 62
7
  6
CONTINUOUS
 10
-113.1480851742
 20
73.0048850075
 11
-113.005384851
 21
73.6472055024
  0
LINE
  5
338
100
AcDbEntity
  8
0
100
AcDbLine
 62
7
  6
CONTINUOUS
 10
-113.005384851
 20
73.6472055024
 11
-112.937788693
 21
73.9464986131
  0
LWPOLYLINE
  5
339
100
AcDbEntity
  8
0
100
AcDbPolyline
 62
7
  6
CONTINUOUS
 90
8
 70
0
 10
-114.429771226
 20
65.9432106389
 10
-114.5727169487
 20
65.0932265901
 10
-114.9365498859
 20
62.6656059533
 10
-115.2570102656
 20
60.2318609049
 10
-115.5337920664
 20
57.7927722166
 10
-115.7667927594
 20
55.349119941
 10
-115.9561133075
 20
52.9016834033
 10
-116.1017529276
 20
50.4512423008
  0
LINE
  5
33A
100
AcDbEntity
  8
0
100
AcDbLine
 62
253
  6
CONTINUOUS
 10
-110.1180563079
 20
-7.5535013869
 11
-116.4381465708
 21
-7.5535013869
  0
LINE
  5
33B
100
AcDbEntity
  8
0
100
AcDbLine
 62
253
  6
CONTINUOUS
 10
-114.805880427
 20
-88.8835305252
 11
-114.8414355356
 21
-87.4535395691
  0
LINE
  5
33C
100
AcDbEntity
  8
0
100
AcDbLine
 62
7
  6
CONTINUOUS
 10
-119.4381465708
 20
-43.0535013869
 11
-119.4381465708
 21
27.9464986131
  0
LINE
  5
33D
100
AcDbEntity
  8
0
100
AcDbLine
 62
7
  6
CONTINUOUS
 10
-116.4381465708
 20
-43.0535013869
 11
-116.4381465708
 21
27.9464986131
  0
LINE
  5
33E
100
AcDbEntity
  8
RACCORDO
100
AcDbLine
 62
7
  6
CONTINUOUS
 10
-112.1180563079
 20
-62.8856814606
 11
-112.1180563079
 21
-56.2213213131
  0
LINE
  5
33F
100
AcDbEntity
  8
RACCORDO
100
AcDbLine
 62
7
  6
CONTINUOUS
 10
-112.1180563079
 20
41.1143185394
 11
-112.1180563079
 21
47.7786786869
  0
LINE
  5
340
100
AcDbEntity
  8
RACCORDO
100
AcDbLine
 62
7
  6
CONTINUOUS
 10
-110.1180563079
 20
71.9464988889
 11
-110.1180563079
 21
50.3258968525
  0
LINE
  5
341
100
AcDbEntity
  8
DRAFT
100
AcDbLine
 62
7
  6
CONTINUOUS
 10
-110.1180563079
 20
-65.4328996263
 11
-110.1180563079
 21
-63.4061553483
  0
LINE
  5
342
100
AcDbEntity
  8
DRAFT
100
AcDbLine
 62
7
  6
CONTINUOUS
 10
-110.1180563079
 20
-55.7008474255
 11
-110.1180563079
 21
-42.9780576958
  0
LINE
  5
343
100
AcDbEntity
  8
0
100
AcDbLine
 62
7
  6
CONTINUOUS
 10
-110.1180563079
 20
-42.9780576958
 11
-110.1180563079
 21
27.871054922
  0
LINE
  5
344
100
AcDbEntity
  8
DRAFT
100
AcDbLine
 62
7
  6
CONTINUOUS
 10
-110.1180563079
 20
27.871054922
 11
-110.1180563079
 21
40.5938446517
  0
LINE
  5
345
100
AcDbEntity
  8
RACCORDO
100
AcDbLine
 62
7
  6
CONTINUOUS
 10
-110.1180563079
 20
-65.4328996263
 11
-110.1180563079
 21
-87.0535016578
  0
LINE
  5
346
100
AcDbEntity
  8
DRAFT
100
AcDbLine
 62
7
  6
CONTINUOUS
 10
-110.1180563079
 20
48.2991525745
 11
-110.1180563079
 21
50.3258968525
  0
LWPOLYLINE
  5
347
100
AcDbEntity
  8
0
100
AcDbPolyline
 62
253
  6
CONTINUOUS
 90
3
 70
0
 10
-114.8057115187
 20
-88.8900793153
 10
-114.805698096
 20
-88.889325141
 10
-114.805880427
 20
-88.8835305252
  0
LINE
  5
348
100
AcDbEntity
  8
0
100
AcDbLine
 62
7
  6
CONTINUOUS
 10
-112.937788693
 20
73.9464986131
 11
-112.887279667
 21
73.3691778038
  0
LINE
  5
349
100
AcDbEntity
  8
0
100
AcDbLine
 62
7
  6
CONTINUOUS
 10
-112.937788693
 20
-89.0535013869
 11
-112.8872804607
 21
-88.4761896495
  0
LINE
  5
34A
100
AcDbEntity
  8
0
100
AcDbLine
 62
253
  6
CONTINUOUS
 10
-119.4381465708
 20
27.9464986131
 11
-118.2514490364
 21
27.9464986131
  0
LINE
  5
34B
100
AcDbEntity
  8
0
100
AcDbLine
 62
253
  6
CONTINUOUS
 10
-110.1180563079
 20
27.871054922
 11
-116.4381465708
 21
27.9464986131
  0
LINE
  5
34C
100
AcDbEntity
  8
RACCORDO
100
AcDbLine
 62
7
  6
CONTINUOUS
 10
-110.1180563079
 20
40.5938446517
 11
-111.9527859435
 21
40.9173569888
  0
LINE
  5
34D
100
AcDbEntity
  8
RACCORDO
100
AcDbLine
 62
7
  6
CONTINUOUS
 10
-111.9527859435
 20
47.9756402375
 11
-110.1180563079
 21
48.2991525745
  0
LINE
  5
34E
100
AcDbEntity
  8
RACCORDO
100
AcDbLine
 62
253
  6
CONTINUOUS
 10
-116.1017529276
 20
50.4396591969
 11
-115.8718569097
 21
50.4396591969
  0
LINE
  5
34F
100
AcDbEntity
  8
0
100
AcDbLine
 62
253
  6
CONTINUOUS
 10
-110.1180563079
 20
50.3258968525
 11
-115.8718569097
 21
50.4396591969
  0
LWPOLYLINE
  5
350
100
AcDbEntity
  8
RACCORDO
100
AcDbPolyline
 62
253
  6
CONTINUOUS
 90
22
 70
0
 10
-111.1254150894
 20
72.6672064594
 10
-111.1066650801
 20
72.654411868
 10
-111.0896574873
 20
72.6388006995
 10
-111.0744628391
 20
72.6204376926
 10
-111.0611441454
 20
72.5993989975
 10
-111.0497566367
 20
72.5757718603
 10
-111.0403475353
 20
72.5496542613
 10
-111.0329558588
 20
72.5211545082
 10
-111.0276122589
 20
72.490390787
 10
-111.0243388941
 20
72.457490672
 10
-111.023149338
 20
72.4225905971
 10
-111.0240485227
 20
72.3858352894
 10
-111.0270327186
 20
72.3473771685
 10
-111.0320895501
 20
72.3073757165
 10
-111.0391980465
 20
72.2659968147
 10
-111.0483287292
 20
72.2234120554
 10
-111.0594437341
 20
72.1797980327
 10
-111.0724969683
 20
72.1353356085
 10
-111.0874343018
 20
72.0902091612
 10
-111.1041937914
 20
72.0446058238
 10
-111.1227059375
 20
71.9987147083
 10
-111.1428939724
 20
71.9527261192
  0
LWPOLYLINE
  5
351
100
AcDbEntity
  8
RACCORDO
100
AcDbPolyline
 62
253
  6
CONTINUOUS
 90
10
 70
0
 10
-111.1428931805
 20
71.9527260728
 10
-111.0204320054
 20
71.8892385344
 10
-110.9002144661
 20
71.8237114534
 10
-110.7822127983
 20
71.7561435626
 10
-110.6664307573
 20
71.6865733959
 10
-110.5528031656
 20
71.6149602545
 10
-110.4411966926
 20
71.5411839441
 10
-110.3315438982
 20
71.4652036126
 10
-110.223842684
 20
71.3870580125
 10
-110.1180562805
 20
71.3067462833
  0
LINE
  5
352
100
AcDbEntity
  8
0
100
AcDbLine
 62
7
  6
CONTINUOUS
 10
-114.8057115185
 20
73.7830765415
 11
-112.937788693
 21
73.9464986131
  0
LINE
  5
353
100
AcDbEntity
  8
RACCORDO
100
AcDbLine
 62
253
  6
CONTINUOUS
 10
-111.1428931805
 20
71.9527260728
 11
-113.5165097484
 21
71.9654115073
  0
LWPOLYLINE
  5
354
100
AcDbEntity
  8
RACCORDO
100
AcDbPolyline
 62
253
  6
CONTINUOUS
 90
13
 70
0
 10
-113.3980688909
 20
72.6573424432
 10
-113.2156949131
 20
72.6282089069
 10
-113.0330919144
 20
72.5944536554
 10
-112.8502880831
 20
72.5560668147
 10
-112.6679927576
 20
72.5134475507
 10
-112.4855646076
 20
72.4661774892
 10
-112.3010201656
 20
72.4130166545
 10
-112.1139865949
 20
72.3540691032
 10
-111.9249796222
 20
72.2892023299
 10
-111.7333519219
 20
72.2168132961
 10
-111.538937176
 20
72.1363528649
 10
-111.3420777634
 20
72.048330428
 10
-111.1428931805
 20
71.9527260728
  0
LINE
  5
355
100
AcDbEntity
  8
0
100
AcDbLine
 62
253
  6
CONTINUOUS
 10
-115.9999427519
 20
72.5893223811
 11
-115.9975161397
 21
72.5888289086
  0
LINE
  5
356
100
AcDbEntity
  8
0
100
AcDbLine
 62
253
  6
CONTINUOUS
 10
-115.9975161397
 20
72.5888289086
 11
-114.841498792
 21
72.343959541
  0
LWPOLYLINE
  5
357
100
AcDbEntity
  8
RACCORDO
100
AcDbPolyline
 62
253
  6
CONTINUOUS
 90
10
 70
0
 10
-111.1428931805
 20
-87.0597288466
 10
-111.0212252411
 20
-86.9966394872
 10
-110.9019486586
 20
-86.931663322
 10
-110.7850339595
 20
-86.8647994106
 10
-110.6709501994
 20
-86.7964226441
 10
-110.559158719
 20
-86.7261571376
 10
-110.4481356878
 20
-86.6528733172
 10
-110.3373719347
 20
-86.5761914008
 10
-110.2273505786
 20
-86.4964843148
 10
-110.1180562816
 20
-86.4137490579
  0
ARC
  5
358
100
AcDbEntity
  8
0
100
AcDbCircle
 62
7
  6
CONTINUOUS
 10
44.35
 20
49.6964986131
 40
0.8
100
AcDbArc
 50
0.0010102552
 51
89.9987363499
  0
ARC
  5
359
100
AcDbEntity
  8
0
100
AcDbCircle
 62
7
  6
CONTINUOUS
 10
44.35
 20
-64.8035013869
 40
0.8
100
AcDbArc
 50
270.0010400668
 51
359.9988848173
  0
ARC
  5
35A
100
AcDbEntity
  8
0
100
AcDbCircle
 62
7
  6
CONTINUOUS
 10
-44.35
 20
-64.8035013869
 40
0.8
100
AcDbArc
 50
180.0010047714
 51
269.9987127535
  0
ARC
  5
35B
100
AcDbEntity
  8
0
100
AcDbCircle
 62
7
  6
CONTINUOUS
 10
-44.35
 20
49.6964986131
 40
0.8
100
AcDbArc
 50
90.0010406072
 51
179.9988298504
  0
ARC
  5
35C
100
AcDbEntity
  8
0
100
AcDbCircle
 62
7
  6
CONTINUOUS
 10
68.6216926025
 20
-56.2511205728
 40
184.7275748271
100
AcDbArc
 50
182.8843572168
 51
189.6045636607
  0
ARC
  5
35D
100
AcDbEntity
  8
0
100
AcDbCircle
 62
7
  6
CONTINUOUS
 10
20.9742303112
 20
-58.6517950647
 40
140.0196729572
100
AcDbArc
 50
182.8843572168
 51
192.0429850424
  0
ARC
  5
35E
100
AcDbEntity
  8
RACCORDO
100
AcDbCircle
 62
7
  6
CONTINUOUS
 10
-114.3891387038
 20
-82.1480133486
 40
6.5043030162
100
AcDbArc
 50
279.9999999923
 51
311.045248441
  0
ARC
  5
35F
100
AcDbEntity
  8
0
100
AcDbCircle
 62
7
  6
CONTINUOUS
 10
-114.6924093808
 20
-87.5950246721
 40
1.3
100
AcDbArc
 50
192.0430542496
 51
265.0000202905
  0
ARC
  5
360
100
AcDbEntity
  8
RACCORDO
100
AcDbCircle
 62
7
  6
CONTINUOUS
 10
-111.9180563079
 20
-56.2213213131
 40
0.2
100
AcDbArc
 50
100.0
 51
180.0
  0
ARC
  5
361
100
AcDbEntity
  8
RACCORDO
100
AcDbCircle
 62
7
  6
CONTINUOUS
 10
-111.9180563079
 20
-62.8856814606
 40
0.2
100
AcDbArc
 50
180.0
 51
260.0
  0
ARC
  5
362
100
AcDbEntity
  8
0
100
AcDbCircle
 62
7
  6
CONTINUOUS
 10
68.6216926025
 20
41.144117799
 40
184.7275748271
100
AcDbArc
 50
170.3954363393
 51
177.1156427832
  0
ARC
  5
363
100
AcDbEntity
  8
0
100
AcDbCircle
 62
7
  6
CONTINUOUS
 10
20.9742303112
 20
43.5447922909
 40
140.0196729572
100
AcDbArc
 50
167.9570149576
 51
177.1156427832
  0
ARC
  5
364
100
AcDbEntity
  8
RACCORDO
100
AcDbCircle
 62
7
  6
CONTINUOUS
 10
-114.3891387038
 20
67.0410105749
 40
6.5043030162
100
AcDbArc
 50
48.9547516255
 51
80.0000000111
  0
ARC
  5
365
100
AcDbEntity
  8
0
100
AcDbCircle
 62
7
  6
CONTINUOUS
 10
-114.6924093808
 20
72.4880218984
 40
1.3
100
AcDbArc
 50
94.9999797099
 51
167.9569457504
  0
ARC
  5
366
100
AcDbEntity
  8
RACCORDO
100
AcDbCircle
 62
7
  6
CONTINUOUS
 10
-111.9180563079
 20
41.1143185394
 40
0.2
100
AcDbArc
 50
180.0
 51
260.0
  0
ARC
  5
367
100
AcDbEntity
  8
RACCORDO
100
AcDbCircle
 62
7
  6
CONTINUOUS
 10
-111.9180563079
 20
47.7786786869
 40
0.2
100
AcDbArc
 50
100.0
 51
180.0
  0
ARC
  5
368
100
AcDbEntity
  8
0
100
AcDbCircle
 62
7
  6
CONTINUOUS
 10
330.5618534292
 20
-43.0535013869
 40
450.0
100
AcDbArc
 50
179.9999995325
 51
182.8843503943
  0
ARC
  5
369
100
AcDbEntity
  8
0
100
AcDbCircle
 62
7
  6
CONTINUOUS
 10
330.5618534292
 20
-43.0535013869
 40
447.0
100
AcDbArc
 50
180.0
 51
182.8843572168
  0
ARC
  5
36A
100
AcDbEntity
  8
0
100
AcDbCircle
 62
7
  6
CONTINUOUS
 10
330.5618534292
 20
27.9464986131
 40
450.0
100
AcDbArc
 50
177.1156493353
 51
180.0000004584
  0
ARC
  5
36B
100
AcDbEntity
  8
0
100
AcDbCircle
 62
7
  6
CONTINUOUS
 10
330.5618534292
 20
27.9464986131
 40
447.0
100
AcDbArc
 50
177.1156427832
 51
180.0
  0
ENDSEC
  0
SECTION
  2
OBJECTS
  0
DICTIONARY
  5
C
100
AcDbDictionary
280
0
281
1
  3
ACAD_GROUP
350
D
  3
ACAD_MLINESTYLE
350
17
  3
ACAD_LAYOUT
350
1A
  3
ACAD_PLOTSETTINGS
350
19
  3
ACAD_PLOTSTYLENAME
350
E
  0
DICTIONARY
  5
D
102
{ACAD_REACTORS
330
C
102
}
100
AcDbDictionary
280
0
281
1
  0
ACDBDICTIONARYWDFLT
  5
E
102
{ACAD_REACTORS
330
C
102
}
100
AcDbDictionary
281
1
  3
Normal
350
F
100
AcDbDictionaryWithDefault
340
F
  0
DICTIONARY
  5
17
102
{ACAD_REACTORS
330
C
102
}
100
AcDbDictionary
280
0
281
1
  3
Standard
350
18
  0
DICTIONARY
  5
19
102
{ACAD_REACTORS
330
C
102
}
100
AcDbDictionary
281
1
  0
DICTIONARY
  5
1A
102
{ACAD_REACTORS
330
C
102
}
100
AcDbDictionary
281
1
  3
Model
350
36C
  3
Layout1
350
36D
  0
ACDBPLACEHOLDER
  5
F
102
{ACAD_REACTORS
330
E
102
}
  0
MLINESTYLE
  5
18
102
{ACAD_REACTORS
330
17
102
}
100
AcDbMlineStyle
  2
STANDARD
 70
0
  3

 62
256
 51
90.0
 52
90.0
 71
2
 49
0.5
 62
256
  6
BYLAYER
 49
-0.5
 62
256
  6
BYLAYER
  0
LAYOUT
  5
36C
102
{ACAD_REACTORS
330
1A
102
}
100
AcDbPlotSettings
  1

  2
none_device
  4
ISO_A4_(297.00_x_210.00_MM)
  6

 40
0.0
 41
0.0
 42
0.0
 43
0.0
 44
297.0
 45
210.0
 46
0.0
 47
0.0
 48
0.0
 49
0.0
140
0.0
141
0.0
142
1.0
143
1.0
 70
1024
 72
1
 73
0
 74
0
  7

 75
0
147
1.0
148
0.0
149
0.0
100
AcDbLayout
  1
Model
 70
0
 71
0
 10
0.0
 20
0.0
 11
297.0
 21
210.0
 12
0.0
 22
0.0
 32
0.0
 14
0.0
 24
0.0
 34
0.0
 15
0.0
 25
0.0
 35
0.0
146
0.0
 13
0.0
 23
0.0
 33
0.0
 16
1.0
 26
0.0
 36
0.0
 17
0.0
 27
1.0
 37
0.0
 76
0
330
210
345
0
346
0
  0
LAYOUT
  5
36D
102
{ACAD_REACTORS
330
1A
102
}
100
AcDbPlotSettings
  1

  2
none_device
  4
ISO_A4_(297.00_x_210.00_MM)
  6

 40
0.0
 41
0.0
 42
0.0
 43
0.0
 44
297.0
 45
210.0
 46
0.0
 47
0.0
 48
0.0
 49
0.0
140
0.0
141
0.0
142
1.0
143
1.0
 70
0
 72
1
 73
0
 74
0
  7

 75
0
147
1.0
148
0.0
149
0.0
100
AcDbLayout
  1
Layout1
 70
0
 71
1
 10
0.0
 20
0.0
 11
297.0
 21
210.0
 12
0.0
 22
0.0
 32
0.0
 14
0.0
 24
0.0
 34
0.0
 15
0.0
 25
0.0
 35
0.0
146
0.0
 13
0.0
 23
0.0
 33
0.0
 16
1.0
 26
0.0
 36
0.0
 17
0.0
 27
1.0
 37
0.0
 76
0
330
211
345
0
346
0
  0
ENDSEC
  0
EOF
